  0
SECTION
  2
HEADER
  9
$ACADVER
  1
AC1018
  9
$ACADMAINTVER
 70
    76
  9
$DWGCODEPAGE
  3
ANSI_932
  9
$INSBASE
 10
0.0
 20
0.0
 30
0.0
  9
$EXTMIN
 10
0.0
 20
-0.0000000000000568
 30
0.0
  9
$EXTMAX
 10
198.0
 20
290.0
 30
4.0
  9
$LIMMIN
 10
0.0
 20
0.0
  9
$LIMMAX
 10
420.0
 20
297.0
  9
$ORTHOMODE
 70
     1
  9
$REGENMODE
 70
     1
  9
$FILLMODE
 70
     1
  9
$QTEXTMODE
 70
     0
  9
$MIRRTEXT
 70
     1
  9
$LTSCALE
 40
1.0
  9
$ATTMODE
 70
     1
  9
$TEXTSIZE
 40
2.5
  9
$TRACEWID
 40
1.0
  9
$TEXTSTYLE
  7
TXT
  9
$CLAYER
  8
DIM
  9
$CELTYPE
  6
BYLAYER
  9
$CECOLOR
 62
   256
  9
$CELTSCALE
 40
1.0
  9
$DISPSILH
 70
     0
  9
$DIMSCALE
 40
1.0
  9
$DIMASZ
 40
2.5
  9
$DIMEXO
 40
1.0
  9
$DIMDLI
 40
6.0
  9
$DIMRND
 40
0.0
  9
$DIMDLE
 40
0.0
  9
$DIMEXE
 40
1.0
  9
$DIMTP
 40
0.0
  9
$DIMTM
 40
0.0
  9
$DIMTXT
 40
3.0
  9
$DIMCEN
 40
0.0
  9
$DIMTSZ
 40
0.0
  9
$DIMTOL
 70
     0
  9
$DIMLIM
 70
     0
  9
$DIMTIH
 70
     0
  9
$DIMTOH
 70
     0
  9
$DIMSE1
 70
     0
  9
$DIMSE2
 70
     0
  9
$DIMTAD
 70
     3
  9
$DIMZIN
 70
     8
  9
$DIMBLK
  1

  9
$DIMASO
 70
     1
  9
$DIMSHO
 70
     1
  9
$DIMPOST
  1

  9
$DIMAPOST
  1

  9
$DIMALT
 70
     0
  9
$DIMALTD
 70
     2
  9
$DIMALTF
 40
25.4
  9
$DIMLFAC
 40
1.0
  9
$DIMTOFL
 70
     0
  9
$DIMTVP
 40
0.0
  9
$DIMTIX
 70
     0
  9
$DIMSOXD
 70
     0
  9
$DIMSAH
 70
     0
  9
$DIMBLK1
  1

  9
$DIMBLK2
  1

  9
$DIMSTYLE
  2
A
  9
$DIMCLRD
 70
     6
  9
$DIMCLRE
 70
     6
  9
$DIMCLRT
 70
     3
  9
$DIMTFAC
 40
1.0
  9
$DIMGAP
 40
1.0
  9
$DIMJUST
 70
     0
  9
$DIMSD1
 70
     0
  9
$DIMSD2
 70
     0
  9
$DIMTOLJ
 70
     1
  9
$DIMTZIN
 70
     0
  9
$DIMALTZ
 70
     0
  9
$DIMALTTZ
 70
     0
  9
$DIMUPT
 70
     0
  9
$DIMDEC
 70
     1
  9
$DIMTDEC
 70
     1
  9
$DIMALTU
 70
     2
  9
$DIMALTTD
 70
     2
  9
$DIMTXSTY
  7
TXT
  9
$DIMAUNIT
 70
     0
  9
$DIMADEC
 70
     0
  9
$DIMALTRND
 40
0.0
  9
$DIMAZIN
 70
     0
  9
$DIMDSEP
 70
    46
  9
$DIMATFIT
 70
     3
  9
$DIMFRAC
 70
     0
  9
$DIMLDRBLK
  1

  9
$DIMLUNIT
 70
     2
  9
$DIMLWD
 70
    -2
  9
$DIMLWE
 70
    -2
  9
$DIMTMOVE
 70
     1
  9
$LUNITS
 70
     2
  9
$LUPREC
 70
     2
  9
$SKETCHINC
 40
1.0
  9
$FILLETRAD
 40
1.5
  9
$AUNITS
 70
     0
  9
$AUPREC
 70
     2
  9
$MENU
  1
.
  9
$ELEVATION
 40
0.0
  9
$PELEVATION
 40
0.0
  9
$THICKNESS
 40
0.0
  9
$LIMCHECK
 70
     0
  9
$CHAMFERA
 40
0.0
  9
$CHAMFERB
 40
0.0
  9
$CHAMFERC
 40
1.75
  9
$CHAMFERD
 40
0.0174532925199433
  9
$SKPOLY
 70
     0
  9
$TDCREATE
 40
2451555.578568171
  9
$TDUCREATE
 40
2451555.203568172
  9
$TDUPDATE
 40
2455846.596438715
  9
$TDUUPDATE
 40
2455846.221438716
  9
$TDINDWG
 40
2.6540840162
  9
$TDUSRTIMER
 40
2.6540840162
  9
$USRTIMER
 70
     1
  9
$ANGBASE
 50
0.0
  9
$ANGDIR
 70
     0
  9
$PDMODE
 70
     0
  9
$PDSIZE
 40
0.0
  9
$PLINEWID
 40
0.0
  9
$SPLFRAME
 70
     0
  9
$SPLINETYPE
 70
     6
  9
$SPLINESEGS
 70
     8
  9
$HANDSEED
  5
8AD4
  9
$SURFTAB1
 70
     6
  9
$SURFTAB2
 70
     6
  9
$SURFTYPE
 70
     6
  9
$SURFU
 70
     6
  9
$SURFV
 70
     6
  9
$UCSBASE
  2

  9
$UCSNAME
  2

  9
$UCSORG
 10
0.0
 20
0.0
 30
0.0
  9
$UCSXDIR
 10
1.0
 20
0.0
 30
0.0
  9
$UCSYDIR
 10
0.0
 20
1.0
 30
0.0
  9
$UCSORTHOREF
  2

  9
$UCSORTHOVIEW
 70
     0
  9
$UCSORGTOP
 10
0.0
 20
0.0
 30
0.0
  9
$UCSORGBOTTOM
 10
0.0
 20
0.0
 30
0.0
  9
$UCSORGLEFT
 10
0.0
 20
0.0
 30
0.0
  9
$UCSORGRIGHT
 10
0.0
 20
0.0
 30
0.0
  9
$UCSORGFRONT
 10
0.0
 20
0.0
 30
0.0
  9
$UCSORGBACK
 10
0.0
 20
0.0
 30
0.0
  9
$PUCSBASE
  2

  9
$PUCSNAME
  2

  9
$PUCSORG
 10
0.0
 20
0.0
 30
0.0
  9
$PUCSXDIR
 10
1.0
 20
0.0
 30
0.0
  9
$PUCSYDIR
 10
0.0
 20
1.0
 30
0.0
  9
$PUCSORTHOREF
  2

  9
$PUCSORTHOVIEW
 70
     0
  9
$PUCSORGTOP
 10
0.0
 20
0.0
 30
0.0
  9
$PUCSORGBOTTOM
 10
0.0
 20
0.0
 30
0.0
  9
$PUCSORGLEFT
 10
0.0
 20
0.0
 30
0.0
  9
$PUCSORGRIGHT
 10
0.0
 20
0.0
 30
0.0
  9
$PUCSORGFRONT
 10
0.0
 20
0.0
 30
0.0
  9
$PUCSORGBACK
 10
0.0
 20
0.0
 30
0.0
  9
$USERI1
 70
     0
  9
$USERI2
 70
     0
  9
$USERI3
 70
     0
  9
$USERI4
 70
     0
  9
$USERI5
 70
     0
  9
$USERR1
 40
0.0
  9
$USERR2
 40
0.0
  9
$USERR3
 40
0.0
  9
$USERR4
 40
0.0
  9
$USERR5
 40
0.0
  9
$WORLDVIEW
 70
     1
  9
$SHADEDGE
 70
     3
  9
$SHADEDIF
 70
    70
  9
$TILEMODE
 70
     1
  9
$MAXACTVP
 70
    48
  9
$PINSBASE
 10
0.0
 20
0.0
 30
0.0
  9
$PLIMCHECK
 70
     0
  9
$PEXTMIN
 10
1.000000000000000E+20
 20
1.000000000000000E+20
 30
1.000000000000000E+20
  9
$PEXTMAX
 10
-1.000000000000000E+20
 20
-1.000000000000000E+20
 30
-1.000000000000000E+20
  9
$PLIMMIN
 10
0.0
 20
0.0
  9
$PLIMMAX
 10
420.0
 20
297.0
  9
$UNITMODE
 70
     0
  9
$VISRETAIN
 70
     1
  9
$PLINEGEN
 70
     0
  9
$PSLTSCALE
 70
     1
  9
$TREEDEPTH
 70
  3020
  9
$CMLSTYLE
  2
STANDARD
  9
$CMLJUST
 70
     0
  9
$CMLSCALE
 40
20.0
  9
$PROXYGRAPHICS
 70
     1
  9
$MEASUREMENT
 70
     1
  9
$CELWEIGHT
370
    -1
  9
$ENDCAPS
280
     0
  9
$JOINSTYLE
280
     0
  9
$LWDISPLAY
290
     0
  9
$INSUNITS
 70
     0
  9
$HYPERLINKBASE
  1

  9
$STYLESHEET
  1

  9
$XEDIT
290
     1
  9
$CEPSNTYPE
380
     0
  9
$PSTYLEMODE
290
     1
  9
$FINGERPRINTGUID
  2
{1CF51E8A-A506-11D4-A7D9-AF69F5C20846}
  9
$VERSIONGUID
  2
{1CF51E8C-A506-11D4-A7D9-AF69F5C20846}
  9
$EXTNAMES
290
     1
  9
$PSVPSCALE
 40
0.0
  9
$OLESTARTUP
290
     0
  9
$SORTENTS
280
   127
  9
$INDEXCTL
280
     0
  9
$HIDETEXT
280
     0
  9
$XCLIPFRAME
290
     0
  9
$HALOGAP
280
     0
  9
$OBSCOLOR
 70
   257
  9
$OBSLTYPE
280
     0
  9
$INTERSECTIONDISPLAY
280
     0
  9
$INTERSECTIONCOLOR
 70
   257
  9
$DIMASSOC
280
     1
  9
$PROJECTNAME
  1

  0
ENDSEC
  0
SECTION
  2
CLASSES
  0
CLASS
  1
DICTIONARYVAR
  2
AcDbDictionaryVar
  3
ObjectDBX Classes
 90
        0
 91
        2
280
     0
281
     0
  0
CLASS
  1
SORTENTSTABLE
  2
AcDbSortentsTable
  3
ObjectDBX Classes
 90
        0
 91
        1
280
     0
281
     0
  0
CLASS
  1
ACDBDICTIONARYWDFLT
  2
AcDbDictionaryWithDefault
  3
ObjectDBX Classes
 90
        0
 91
        1
280
     0
281
     0
  0
CLASS
  1
TABLESTYLE
  2
AcDbTableStyle
  3
ObjectDBX Classes
 90
     2047
 91
        1
280
     0
281
     0
  0
ENDSEC
  0
SECTION
  2
TABLES
  0
TABLE
  2
VPORT
  5
8
330
0
100
AcDbSymbolTable
 70
     2
  0
VPORT
  5
8AD3
330
8
100
AcDbSymbolTableRecord
100
AcDbViewportTableRecord
  2
*Active
 70
     0
 10
0.0
 20
0.0
 11
1.0
 21
1.0
 12
192.8079913053452
 22
145.0011920781365
 13
0.0
 23
0.0
 14
10.0
 24
10.0
 15
10.0
 25
10.0
 16
0.0
 26
0.0
 36
1.0
 17
0.0
 27
0.0
 37
0.0
 40
293.4503134825904
 41
2.47104247104247
 42
50.0
 43
0.0
 44
0.0
 50
0.0
 51
0.0
 71
     0
 72
   100
 73
     1
 74
     1
 75
     0
 76
     0
 77
     0
 78
     0
281
     0
 65
     1
110
0.0
120
0.0
130
0.0
111
1.0
121
0.0
131
0.0
112
0.0
122
1.0
132
0.0
 79
     0
146
0.0
  0
ENDTAB
  0
TABLE
  2
LTYPE
  5
5
330
0
100
AcDbSymbolTable
 70
     7
  0
LTYPE
  5
12
330
5
100
AcDbSymbolTableRecord
100
AcDbLinetypeTableRecord
  2
BYBLOCK
 70
     0
  3

 72
    65
 73
     0
 40
0.0
  0
LTYPE
  5
13
330
5
100
AcDbSymbolTableRecord
100
AcDbLinetypeTableRecord
  2
BYLAYER
 70
     0
  3

 72
    65
 73
     0
 40
0.0
  0
LTYPE
  5
14
330
5
100
AcDbSymbolTableRecord
100
AcDbLinetypeTableRecord
  2
CONTINUOUS
 70
     0
  3
Solid line
 72
    65
 73
     0
 40
0.0
  0
LTYPE
  5
9D
330
5
100
AcDbSymbolTableRecord
100
AcDbLinetypeTableRecord
  2
CENTERX2
 70
     0
  3
Center (2x) ________  __  ________  __  _____
 72
    65
 73
     4
 40
101.6
 49
63.5
 74
     0
 49
-12.7
 74
     0
 49
12.7
 74
     0
 49
-12.7
 74
     0
  0
LTYPE
  5
A1
330
5
100
AcDbSymbolTableRecord
100
AcDbLinetypeTableRecord
  2
DASHED
 70
     0
  3
Dashed __ __ __ __ __ __ __ __ __ __ __ __ __ _
 72
    65
 73
     2
 40
19.05
 49
12.7
 74
     0
 49
-6.349999999999999
 74
     0
  0
LTYPE
  5
A2
330
5
100
AcDbSymbolTableRecord
100
AcDbLinetypeTableRecord
  2
DASHED2
 70
     0
  3
Dashed (.5x) _ _ _ _ _ _ _ _ _ _ _ _ _ _ _ _ _
 72
    65
 73
     2
 40
9.524999999999998
 49
6.349999999999999
 74
     0
 49
-3.174999999999999
 74
     0
  0
LTYPE
  5
A5
330
5
100
AcDbSymbolTableRecord
100
AcDbLinetypeTableRecord
  2
DIVIDE2
 70
     0
  3
Divide (.5x) __..__..__..__..__..__..__..__.._
 72
    65
 73
     6
 40
15.875
 49
6.349999999999999
 74
     0
 49
-3.174999999999999
 74
     0
 49
0.0
 74
     0
 49
-3.174999999999999
 74
     0
 49
0.0
 74
     0
 49
-3.174999999999999
 74
     0
  0
LTYPE
  5
650B
330
5
100
AcDbSymbolTableRecord
100
AcDbLinetypeTableRecord
  2
CENTER
 70
     0
  3
Center ____ _ ____ _ ____ _ ____ _ ____ _ ____
 72
    65
 73
     4
 40
50.8
 49
31.75
 74
     0
 49
-6.349999999999999
 74
     0
 49
6.349999999999999
 74
     0
 49
-6.349999999999999
 74
     0
  0
LTYPE
  5
650C
330
5
100
AcDbSymbolTableRecord
100
AcDbLinetypeTableRecord
  2
HIDDEN
 70
     0
  3
Hidden __ __ __ __ __ __ __ __ __ __ __ __ __ _
 72
    65
 73
     2
 40
9.524999999999998
 49
6.349999999999999
 74
     0
 49
-3.174999999999999
 74
     0
  0
ENDTAB
  0
TABLE
  2
LAYER
  5
2
330
0
100
AcDbSymbolTable
 70
     9
  0
LAYER
  5
E
330
2
100
AcDbSymbolTableRecord
100
AcDbLayerTableRecord
  2
0
 70
     0
 62
     7
  6
CONTINUOUS
370
    -3
390
5CF2
  0
LAYER
  5
B9
330
2
100
AcDbSymbolTableRecord
100
AcDbLayerTableRecord
  2
DIM
 70
     0
 62
     3
  6
CONTINUOUS
370
    -3
390
5CF2
  0
LAYER
  5
F2
330
2
100
AcDbSymbolTableRecord
100
AcDbLayerTableRecord
  2
DEFPOINTS
 70
     0
 62
     4
  6
CONTINUOUS
290
     0
370
    -3
390
5CF2
  0
LAYER
  5
5F8B
330
2
100
AcDbSymbolTableRecord
100
AcDbLayerTableRecord
  2
公差
 70
     0
 62
     6
  6
CONTINUOUS
370
    -3
390
5CF2
  0
LAYER
  5
644E
330
2
100
AcDbSymbolTableRecord
100
AcDbLayerTableRecord
  2
図框線
 70
     0
 62
     9
  6
CONTINUOUS
370
    -3
390
5CF2
  0
LAYER
  5
650D
330
2
100
AcDbSymbolTableRecord
100
AcDbLayerTableRecord
  2
中心線
 70
     0
 62
     1
  6
CENTER
370
    -3
390
5CF2
  0
LAYER
  5
650E
330
2
100
AcDbSymbolTableRecord
100
AcDbLayerTableRecord
  2
本体内線
 70
     0
 62
     4
  6
HIDDEN
370
    -3
390
5CF2
  0
LAYER
  5
650F
330
2
100
AcDbSymbolTableRecord
100
AcDbLayerTableRecord
  2
本体外線
 70
     0
 62
     2
  6
CONTINUOUS
370
    -3
390
5CF2
  0
LAYER
  5
6510
330
2
100
AcDbSymbolTableRecord
100
AcDbLayerTableRecord
  2
剖面線
 70
     0
 62
     5
  6
CONTINUOUS
370
    -3
390
5CF2
  0
ENDTAB
  0
TABLE
  2
STYLE
  5
3
330
0
100
AcDbSymbolTable
 70
     5
  0
STYLE
  5
F
330
3
100
AcDbSymbolTableRecord
100
AcDbTextStyleTableRecord
  2
STANDARD
 70
     0
 40
0.0
 41
1.0
 50
0.0
 71
     0
 42
2.5
  3
txt
  4

  0
STYLE
  5
BE
330
3
100
AcDbSymbolTableRecord
100
AcDbTextStyleTableRecord
  2
ISOCP3
 70
     0
 40
0.0
 41
1.0
 50
0.0
 71
     0
 42
2.5
  3
isocp3.shx
  4

  0
STYLE
  5
2A37
330
3
100
AcDbSymbolTableRecord
100
AcDbTextStyleTableRecord
  2
TXT
 70
     0
 40
0.0
 41
1.0
 50
0.0
 71
     0
 42
2.5
  3
txt.shx
  4
bigfont.shx
  0
STYLE
  5
5DCB
330
3
100
AcDbSymbolTableRecord
100
AcDbTextStyleTableRecord
  2
LKK
 70
     0
 40
50.0
 41
1.5
 50
0.0
 71
     0
 42
50.0
  3
MS PGothic.ttf
  4

1001
ACAD
1000
MS PGothic
1071
    32818
  0
STYLE
  5
5DCC
330
3
100
AcDbSymbolTableRecord
100
AcDbTextStyleTableRecord
  2
JL
 70
     0
 40
10.0
 41
0.5
 50
0.0
 71
     0
 42
5.0
  3
MS Mincho.ttf
  4

1001
ACAD
1000
MS Mincho
1071
    32785
  0
ENDTAB
  0
TABLE
  2
VIEW
  5
6
330
0
100
AcDbSymbolTable
 70
     0
  0
ENDTAB
  0
TABLE
  2
UCS
  5
7
330
0
100
AcDbSymbolTable
 70
     0
  0
ENDTAB
  0
TABLE
  2
APPID
  5
9
330
0
100
AcDbSymbolTable
 70
     1
  0
APPID
  5
10
330
9
100
AcDbSymbolTableRecord
100
AcDbRegAppTableRecord
  2
ACAD
 70
     0
  0
ENDTAB
  0
TABLE
  2
DIMSTYLE
  5
A
330
0
100
AcDbSymbolTable
 70
     3
100
AcDbDimStyleTable
 71
     0
  0
DIMSTYLE
105
1D
330
A
100
AcDbSymbolTableRecord
100
AcDbDimStyleTableRecord
  2
STANDARD
 70
     0
 41
3.0
 42
0.06
 77
     3
140
4.0
144
0.3333333333333333
172
     1
340
F
  0
DIMSTYLE
105
1A4
102
{ACAD_REACTORS
330
6F74
330
8751
330
8752
330
8753
330
8758
330
8759
330
875F
330
8760
330
8761
330
8762
330
8764
330
89D4
102
}
330
A
100
AcDbSymbolTableRecord
100
AcDbDimStyleTableRecord
  2
A
 70
     0
 41
2.5
 42
1.0
 43
6.0
 44
1.0
 73
     0
 74
     0
 77
     3
 78
     8
140
3.0
141
0.0
147
1.0
176
     6
177
     6
178
     3
271
     1
272
     1
279
     1
340
2A37
  0
DIMSTYLE
105
6006
330
A
100
AcDbSymbolTableRecord
100
AcDbDimStyleTableRecord
  2
ISO-25
 70
     0
 40
0.0
 41
2.0
 42
0.3
 43
1.0
 44
0.3
 73
     0
 74
     0
 77
     1
 78
     8
140
3.0
147
1.0
172
     1
176
     6
177
     6
178
     3
271
     1
272
     2
284
     8
288
     1
289
     2
340
F
  0
ENDTAB
  0
TABLE
  2
BLOCK_RECORD
  5
1
330
0
100
AcDbSymbolTable
 70
    13
  0
BLOCK_RECORD
  5
18
102
{ACAD_XDICTIONARY
360
45F
102
}
330
1
100
AcDbSymbolTableRecord
100
AcDbBlockTableRecord
  2
*MODEL_SPACE
340
5CF5
  0
BLOCK_RECORD
  5
15
102
{ACAD_XDICTIONARY
360
5D89
102
}
330
1
100
AcDbSymbolTableRecord
100
AcDbBlockTableRecord
  2
*PAPER_SPACE
340
5CF6
  0
BLOCK_RECORD
  5
639D
330
1
100
AcDbSymbolTableRecord
100
AcDbBlockTableRecord
  2
A$C255C26A2
340
0
102
{BLKREFS
331
86F0
102
}
  0
BLOCK_RECORD
  5
6FE3
330
1
100
AcDbSymbolTableRecord
100
AcDbBlockTableRecord
  2
*D1
340
0
  0
BLOCK_RECORD
  5
87B7
330
1
100
AcDbSymbolTableRecord
100
AcDbBlockTableRecord
  2
*D2
340
0
  0
BLOCK_RECORD
  5
87C3
330
1
100
AcDbSymbolTableRecord
100
AcDbBlockTableRecord
  2
*D3
340
0
  0
BLOCK_RECORD
  5
87D1
330
1
100
AcDbSymbolTableRecord
100
AcDbBlockTableRecord
  2
*D4
340
0
  0
BLOCK_RECORD
  5
87DF
330
1
100
AcDbSymbolTableRecord
100
AcDbBlockTableRecord
  2
*D5
340
0
  0
BLOCK_RECORD
  5
87EB
330
1
100
AcDbSymbolTableRecord
100
AcDbBlockTableRecord
  2
*D6
340
0
  0
BLOCK_RECORD
  5
8806
330
1
100
AcDbSymbolTableRecord
100
AcDbBlockTableRecord
  2
*D7
340
0
  0
BLOCK_RECORD
  5
8815
330
1
100
AcDbSymbolTableRecord
100
AcDbBlockTableRecord
  2
*D8
340
0
  0
BLOCK_RECORD
  5
8821
330
1
100
AcDbSymbolTableRecord
100
AcDbBlockTableRecord
  2
*D9
340
0
  0
BLOCK_RECORD
  5
882D
330
1
100
AcDbSymbolTableRecord
100
AcDbBlockTableRecord
  2
*D10
340
0
  0
BLOCK_RECORD
  5
8847
330
1
100
AcDbSymbolTableRecord
100
AcDbBlockTableRecord
  2
*D11
340
0
  0
BLOCK_RECORD
  5
89C6
330
1
100
AcDbSymbolTableRecord
100
AcDbBlockTableRecord
  2
*D12
340
0
  0
ENDTAB
  0
ENDSEC
  0
SECTION
  2
BLOCKS
  0
BLOCK
  5
19
330
18
100
AcDbEntity
  8
0
100
AcDbBlockBegin
  2
*MODEL_SPACE
 70
     0
 10
0.0
 20
0.0
 30
0.0
  3
*MODEL_SPACE
  1

  0
ENDBLK
  5
1A
330
18
100
AcDbEntity
  8
0
100
AcDbBlockEnd
  0
BLOCK
  5
16
330
15
100
AcDbEntity
 67
     1
  8
0
100
AcDbBlockBegin
  2
*PAPER_SPACE
 70
     0
 10
0.0
 20
0.0
 30
0.0
  3
*PAPER_SPACE
  1

  0
ENDBLK
  5
17
330
15
100
AcDbEntity
 67
     1
  8
0
100
AcDbBlockEnd
  0
BLOCK
  5
63A1
330
639D
100
AcDbEntity
  8
0
100
AcDbBlockBegin
  2
A$C255C26A2
 70
     0
 10
0.0
 20
0.0
 30
0.0
  3
A$C255C26A2
  1

  0
LWPOLYLINE
  5
639E
330
639D
100
AcDbEntity
  8
0
100
AcDbPolyline
 90
        3
 70
     1
 43
0.0
 10
7.014806023851633
 20
0.0000006939811783
 10
5.611844869720698
 20
2.430000693981241
 10
8.417767177982568
 20
2.430000693981241
  0
LWPOLYLINE
  5
639F
330
639D
100
AcDbEntity
  8
0
100
AcDbPolyline
 90
        3
 70
     1
 43
0.0
 10
4.20888371558999
 20
0.0000006939811783
 10
2.805922561459283
 20
2.430000693981241
 10
5.611844869720698
 20
2.430000693981241
  0
LWPOLYLINE
  5
63A0
330
639D
100
AcDbEntity
  8
0
100
AcDbPolyline
 90
        3
 70
     1
 43
0.0
 10
1.402961407328348
 20
0.0000006939811783
 10
0.0000002531974133
 20
2.430000693981241
 10
2.805922561459283
 20
2.430000693981241
  0
ENDBLK
  5
63A2
330
639D
100
AcDbEntity
  8
0
100
AcDbBlockEnd
  0
BLOCK
  5
8A14
330
6FE3
100
AcDbEntity
  8
0
100
AcDbBlockBegin
  2
*D1
 70
     1
 10
0.0
 20
0.0
 30
0.0
  3
*D1
  1

  0
LINE
  5
8A15
330
6FE3
100
AcDbEntity
  8
0
  6
ByBlock
 62
     6
100
AcDbLine
 10
352.8530279730222
 20
111.2677927153573
 30
0.0
 11
382.9180068623287
 21
93.90976906043579
 31
0.0
  0
LINE
  5
8A16
330
6FE3
100
AcDbEntity
  8
0
  6
ByBlock
 62
     6
100
AcDbLine
 10
348.2936268962637
 20
103.3706783983274
 30
0.0
 11
378.3586057855702
 21
86.01265474340584
 31
0.0
  0
LINE
  5
8A17
330
6FE3
100
AcDbEntity
  8
0
  6
ByBlock
 62
     6
100
AcDbLine
 10
380.8019814585442
 20
92.24470555097468
 30
0.0
 11
378.7425803817857
 21
88.67771825286695
 31
0.0
  0
LINE
  5
8A18
330
6FE3
100
AcDbEntity
  8
0
  6
ByBlock
 62
     6
100
AcDbLine
 10
391.332352052171
 20
110.4838424416654
 30
0.0
 11
382.0519814585442
 21
94.40976906043578
 31
0.0
  0
MTEXT
  5
8A19
330
6FE3
100
AcDbEntity
  8
0
  6
ByBlock
 62
     3
100
AcDbMText
 10
385.6422885427099
 20
105.6283633449852
 30
0.0
 40
3.0
 41
0.0
 71
     5
 72
     1
  1
\A1;9±0.5
  7
TXT
 11
0.5000000000000018
 21
0.8660254037844376
 31
0.0
 73
     1
 44
1.0
  0
SOLID
  5
8A1A
330
6FE3
100
AcDbEntity
  8
0
  6
ByBlock
 62
     6
100
AcDbTrace
 10
380.4411375403007
 20
92.45303888430802
 30
0.0
 11
381.1628253767878
 21
92.03637221764136
 31
0.0
 12
382.0519814585442
 22
94.40976906043578
 32
0.0
 13
382.0519814585442
 23
94.40976906043578
 33
0.0
  0
SOLID
  5
8A1B
330
6FE3
100
AcDbEntity
  8
0
  6
ByBlock
 62
     6
100
AcDbTrace
 10
378.3817364635422
 20
88.88605158620029
 30
0.0
 11
379.1034243000293
 21
88.46938491953361
 31
0.0
 12
377.4925803817857
 22
86.51265474340585
 32
0.0
 13
377.4925803817857
 23
86.51265474340585
 33
0.0
  0
POINT
  5
8A1C
330
6FE3
100
AcDbEntity
  8
DEFPOINTS
  6
ByBlock
 62
     0
100
AcDbPoint
 10
351.9870025692378
 20
111.7677927153573
 30
0.0
  0
POINT
  5
8A1D
330
6FE3
100
AcDbEntity
  8
DEFPOINTS
  6
ByBlock
 62
     0
100
AcDbPoint
 10
347.4276014924793
 20
103.8706783983274
 30
0.0
  0
POINT
  5
8A1E
330
6FE3
100
AcDbEntity
  8
DEFPOINTS
  6
ByBlock
 62
     0
100
AcDbPoint
 10
377.4925803817857
 20
86.51265474340585
 30
0.0
  0
ENDBLK
  5
8A1F
330
6FE3
100
AcDbEntity
  8
0
100
AcDbBlockEnd
  0
BLOCK
  5
8961
330
87B7
100
AcDbEntity
  8
0
100
AcDbBlockBegin
  2
*D2
 70
     1
 10
0.0
 20
0.0
 30
0.0
  3
*D2
  1

  0
LINE
  5
8962
330
87B7
100
AcDbEntity
  8
0
  6
ByBlock
 62
     6
100
AcDbLine
 10
307.9870025692378
 20
103.4706783983274
 30
0.0
 11
307.9870025692378
 21
82.90813944262904
 31
0.0
  0
LINE
  5
8963
330
87B7
100
AcDbEntity
  8
0
  6
ByBlock
 62
     6
100
AcDbLine
 10
342.9870025692377
 20
103.4706783983274
 30
0.0
 11
342.9870025692377
 21
82.90813944262904
 31
0.0
  0
LINE
  5
8964
330
87B7
100
AcDbEntity
  8
0
  6
ByBlock
 62
     6
100
AcDbLine
 10
310.4870025692378
 20
83.90813944262903
 30
0.0
 11
340.4870025692377
 21
83.90813944262903
 31
0.0
  0
MTEXT
  5
8965
330
87B7
100
AcDbEntity
  8
0
  6
ByBlock
 62
     3
100
AcDbMText
 10
325.4870025692377
 20
86.40813944262903
 30
0.0
 40
3.0
 41
0.0
 71
     5
 72
     1
  1
\A1;M35X1.5P
  7
TXT
 73
     1
 44
1.0
  0
SOLID
  5
8966
330
87B7
100
AcDbEntity
  8
0
  6
ByBlock
 62
     6
100
AcDbTrace
 10
310.4870025692378
 20
84.32480610929571
 30
0.0
 11
310.4870025692378
 21
83.49147277596236
 31
0.0
 12
307.9870025692378
 22
83.90813944262903
 32
0.0
 13
307.9870025692378
 23
83.90813944262903
 33
0.0
  0
SOLID
  5
8967
330
87B7
100
AcDbEntity
  8
0
  6
ByBlock
 62
     6
100
AcDbTrace
 10
340.4870025692377
 20
84.32480610929571
 30
0.0
 11
340.4870025692377
 21
83.49147277596236
 31
0.0
 12
342.9870025692377
 22
83.90813944262903
 32
0.0
 13
342.9870025692377
 23
83.90813944262903
 33
0.0
  0
POINT
  5
8968
330
87B7
100
AcDbEntity
  8
DEFPOINTS
  6
ByBlock
 62
     0
100
AcDbPoint
 10
307.9870025692378
 20
104.4706783983274
 30
0.0
  0
POINT
  5
8969
330
87B7
100
AcDbEntity
  8
DEFPOINTS
  6
ByBlock
 62
     0
100
AcDbPoint
 10
342.9870025692377
 20
104.4706783983274
 30
0.0
  0
POINT
  5
896A
330
87B7
100
AcDbEntity
  8
DEFPOINTS
  6
ByBlock
 62
     0
100
AcDbPoint
 10
342.9870025692377
 20
83.90813944262903
 30
0.0
  0
ENDBLK
  5
896B
330
87B7
100
AcDbEntity
  8
0
100
AcDbBlockEnd
  0
BLOCK
  5
8861
330
87C3
100
AcDbEntity
  8
0
100
AcDbBlockBegin
  2
*D3
 70
     1
 10
0.0
 20
0.0
 30
0.0
  3
*D3
  1

  0
LINE
  5
8862
330
87C3
100
AcDbEntity
  8
0
  6
ByBlock
 62
     6
100
AcDbLine
 10
301.601663918524
 20
196.0878127517458
 30
0.0
 11
301.601663918524
 21
166.5918069828645
 31
0.0
  0
LINE
  5
8863
330
87C3
100
AcDbEntity
  8
0
  6
ByBlock
 62
     6
100
AcDbLine
 10
303.5870025692377
 20
196.0878127517458
 30
0.0
 11
303.5870025692377
 21
166.5918069828645
 31
0.0
  0
LINE
  5
8864
330
87C3
100
AcDbEntity
  8
0
  6
ByBlock
 62
     6
100
AcDbLine
 10
299.101663918524
 20
167.5918069828646
 30
0.0
 11
296.6016639185241
 21
167.5918069828646
 31
0.0
  0
LINE
  5
8865
330
87C3
100
AcDbEntity
  8
0
  6
ByBlock
 62
     6
100
AcDbLine
 10
306.0870025692377
 20
167.5918069828646
 30
0.0
 11
308.5870025692377
 21
167.5918069828646
 31
0.0
  0
MTEXT
  5
8866
330
87C3
100
AcDbEntity
  8
0
  6
ByBlock
 62
     3
100
AcDbMText
 10
308.5870025692377
 20
170.0918069828645
 30
0.0
 40
3.0
 41
0.0
 71
     5
 72
     1
  1
\A1;2
  7
TXT
 73
     1
 44
1.0
  0
LINE
  5
8867
330
87C3
100
AcDbEntity
  8
0
  6
ByBlock
 62
     6
100
AcDbLine
 10
301.601663918524
 20
167.5918069828646
 30
0.0
 11
303.5870025692377
 21
167.5918069828646
 31
0.0
  0
SOLID
  5
8868
330
87C3
100
AcDbEntity
  8
0
  6
ByBlock
 62
     6
100
AcDbTrace
 10
299.101663918524
 20
168.0084736495312
 30
0.0
 11
299.101663918524
 21
167.1751403161979
 31
0.0
 12
301.601663918524
 22
167.5918069828646
 32
0.0
 13
301.601663918524
 23
167.5918069828646
 33
0.0
  0
SOLID
  5
8869
330
87C3
100
AcDbEntity
  8
0
  6
ByBlock
 62
     6
100
AcDbTrace
 10
306.0870025692377
 20
168.0084736495312
 30
0.0
 11
306.0870025692377
 21
167.1751403161979
 31
0.0
 12
303.5870025692377
 22
167.5918069828646
 32
0.0
 13
303.5870025692377
 23
167.5918069828646
 33
0.0
  0
POINT
  5
886A
330
87C3
100
AcDbEntity
  8
DEFPOINTS
  6
ByBlock
 62
     0
100
AcDbPoint
 10
301.601663918524
 20
197.0878127517458
 30
0.0
  0
POINT
  5
886B
330
87C3
100
AcDbEntity
  8
DEFPOINTS
  6
ByBlock
 62
     0
100
AcDbPoint
 10
303.5870025692377
 20
197.0878127517458
 30
0.0
  0
POINT
  5
886C
330
87C3
100
AcDbEntity
  8
DEFPOINTS
  6
ByBlock
 62
     0
100
AcDbPoint
 10
303.5870025692377
 20
167.5918069828646
 30
0.0
  0
ENDBLK
  5
886D
330
87C3
100
AcDbEntity
  8
0
100
AcDbBlockEnd
  0
BLOCK
  5
8907
330
87D1
100
AcDbEntity
  8
0
100
AcDbBlockBegin
  2
*D4
 70
     1
 10
0.0
 20
0.0
 30
0.0
  3
*D4
  1

  0
LINE
  5
8908
330
87D1
100
AcDbEntity
  8
0
  6
ByBlock
 62
     6
100
AcDbLine
 10
298.1051906526919
 20
197.0878127517458
 30
0.0
 11
288.638106169749
 21
197.0878127517458
 31
0.0
  0
LINE
  5
8909
330
87D1
100
AcDbEntity
  8
0
  6
ByBlock
 62
     6
100
AcDbLine
 10
298.1051906526919
 20
202.0878127517458
 30
0.0
 11
288.638106169749
 21
202.0878127517458
 31
0.0
  0
LINE
  5
890A
330
87D1
100
AcDbEntity
  8
0
  6
ByBlock
 62
     6
100
AcDbLine
 10
289.638106169749
 20
194.5878127517458
 30
0.0
 11
289.638106169749
 21
192.0878127517458
 31
0.0
  0
LINE
  5
890B
330
87D1
100
AcDbEntity
  8
0
  6
ByBlock
 62
     6
100
AcDbLine
 10
289.638106169749
 20
204.5878127517458
 30
0.0
 11
289.638106169749
 21
207.0878127517458
 31
0.0
  0
MTEXT
  5
890C
330
87D1
100
AcDbEntity
  8
0
  6
ByBlock
 62
     3
100
AcDbMText
 10
286.2637021288932
 20
211.7659043181363
 30
0.0
 40
3.0
 41
0.0
 71
     5
 72
     1
  1
\A1;5      (3等分)
  7
TXT
 11
0.0000000000000001
 21
1.0
 31
0.0
 73
     1
 44
1.0
  0
LINE
  5
890D
330
87D1
100
AcDbEntity
  8
0
  6
ByBlock
 62
     6
100
AcDbLine
 10
289.638106169749
 20
197.0878127517458
 30
0.0
 11
289.638106169749
 21
202.0878127517458
 31
0.0
  0
SOLID
  5
890E
330
87D1
100
AcDbEntity
  8
0
  6
ByBlock
 62
     6
100
AcDbTrace
 10
289.2214395030823
 20
194.5878127517458
 30
0.0
 11
290.0547728364157
 21
194.5878127517458
 31
0.0
 12
289.638106169749
 22
197.0878127517458
 32
0.0
 13
289.638106169749
 23
197.0878127517458
 33
0.0
  0
SOLID
  5
890F
330
87D1
100
AcDbEntity
  8
0
  6
ByBlock
 62
     6
100
AcDbTrace
 10
289.2214395030823
 20
204.5878127517458
 30
0.0
 11
290.0547728364157
 21
204.5878127517458
 31
0.0
 12
289.638106169749
 22
202.0878127517458
 32
0.0
 13
289.638106169749
 23
202.0878127517458
 33
0.0
  0
POINT
  5
8910
330
87D1
100
AcDbEntity
  8
DEFPOINTS
  6
ByBlock
 62
     0
100
AcDbPoint
 10
299.1051906526919
 20
197.0878127517458
 30
0.0
  0
POINT
  5
8911
330
87D1
100
AcDbEntity
  8
DEFPOINTS
  6
ByBlock
 62
     0
100
AcDbPoint
 10
299.1051906526919
 20
202.0878127517458
 30
0.0
  0
POINT
  5
8912
330
87D1
100
AcDbEntity
  8
DEFPOINTS
  6
ByBlock
 62
     0
100
AcDbPoint
 10
289.638106169749
 20
202.0878127517458
 30
0.0
  0
ENDBLK
  5
8913
330
87D1
100
AcDbEntity
  8
0
100
AcDbBlockEnd
  0
BLOCK
  5
8956
330
87DF
100
AcDbEntity
  8
0
100
AcDbBlockBegin
  2
*D5
 70
     1
 10
0.0
 20
0.0
 30
0.0
  3
*D5
  1

  0
LINE
  5
8957
330
87DF
100
AcDbEntity
  8
0
  6
ByBlock
 62
     6
100
AcDbLine
 10
301.4870025692378
 20
122.8706783983275
 30
0.0
 11
301.4870025692378
 21
141.0619016164829
 31
0.0
  0
LINE
  5
8958
330
87DF
100
AcDbEntity
  8
0
  6
ByBlock
 62
     6
100
AcDbLine
 10
349.4870025692378
 20
122.8706783983274
 30
0.0
 11
349.4870025692378
 21
141.0619016164829
 31
0.0
  0
LINE
  5
8959
330
87DF
100
AcDbEntity
  8
0
  6
ByBlock
 62
     6
100
AcDbLine
 10
303.9870025692378
 20
140.061901616483
 30
0.0
 11
346.9870025692377
 21
140.061901616483
 31
0.0
  0
SOLID
  5
895A
330
87DF
100
AcDbEntity
  8
0
  6
ByBlock
 62
     6
100
AcDbTrace
 10
303.9870025692378
 20
140.4785682831496
 30
0.0
 11
303.9870025692378
 21
139.6452349498163
 31
0.0
 12
301.4870025692378
 22
140.061901616483
 32
0.0
 13
301.4870025692378
 23
140.061901616483
 33
0.0
  0
SOLID
  5
895B
330
87DF
100
AcDbEntity
  8
0
  6
ByBlock
 62
     6
100
AcDbTrace
 10
346.9870025692377
 20
140.4785682831496
 30
0.0
 11
346.9870025692377
 21
139.6452349498163
 31
0.0
 12
349.4870025692378
 22
140.061901616483
 32
0.0
 13
349.4870025692378
 23
140.061901616483
 33
0.0
  0
MTEXT
  5
895C
330
87DF
100
AcDbEntity
  8
0
  6
ByBlock
 62
     3
100
AcDbMText
 10
325.4870025692377
 20
142.5619016164829
 30
0.0
 40
3.0
 41
0.0
 71
     5
 72
     1
  1
\A1;\U+220548±0.5
  7
TXT
 73
     1
 44
1.0
  0
POINT
  5
895D
330
87DF
100
AcDbEntity
  8
DEFPOINTS
  6
ByBlock
 62
     0
100
AcDbPoint
 10
301.4870025692378
 20
121.8706783983275
 30
0.0
  0
POINT
  5
895E
330
87DF
100
AcDbEntity
  8
DEFPOINTS
  6
ByBlock
 62
     0
100
AcDbPoint
 10
349.4870025692378
 20
121.8706783983274
 30
0.0
  0
POINT
  5
895F
330
87DF
100
AcDbEntity
  8
DEFPOINTS
  6
ByBlock
 62
     0
100
AcDbPoint
 10
349.4870025692378
 20
140.061901616483
 30
0.0
  0
ENDBLK
  5
8960
330
87DF
100
AcDbEntity
  8
0
100
AcDbBlockEnd
  0
BLOCK
  5
894B
330
87EB
100
AcDbEntity
  8
0
100
AcDbBlockBegin
  2
*D6
 70
     1
 10
0.0
 20
0.0
 30
0.0
  3
*D6
  1

  0
LINE
  5
894C
330
87EB
100
AcDbEntity
  8
0
  6
ByBlock
 62
     6
100
AcDbLine
 10
298.9870025692378
 20
120.8706783983274
 30
0.0
 11
298.9870025692378
 21
146.5693717068979
 31
0.0
  0
LINE
  5
894D
330
87EB
100
AcDbEntity
  8
0
  6
ByBlock
 62
     6
100
AcDbLine
 10
351.9870025692378
 20
120.8706783983275
 30
0.0
 11
351.9870025692378
 21
146.5693717068979
 31
0.0
  0
LINE
  5
894E
330
87EB
100
AcDbEntity
  8
0
  6
ByBlock
 62
     6
100
AcDbLine
 10
301.4870025692378
 20
145.5693717068979
 30
0.0
 11
349.4870025692378
 21
145.5693717068979
 31
0.0
  0
MTEXT
  5
894F
330
87EB
100
AcDbEntity
  8
0
  6
ByBlock
 62
     3
100
AcDbMText
 10
321.4179464413239
 20
148.8954924567831
 30
0.0
 40
3.0
 41
0.0
 71
     5
 72
     1
  1
\A1;\U+220553
  7
TXT
 73
     1
 44
1.0
  0
SOLID
  5
8950
330
87EB
100
AcDbEntity
  8
0
  6
ByBlock
 62
     6
100
AcDbTrace
 10
301.4870025692378
 20
145.9860383735645
 30
0.0
 11
301.4870025692378
 21
145.1527050402312
 31
0.0
 12
298.9870025692378
 22
145.5693717068979
 32
0.0
 13
298.9870025692378
 23
145.5693717068979
 33
0.0
  0
SOLID
  5
8951
330
87EB
100
AcDbEntity
  8
0
  6
ByBlock
 62
     6
100
AcDbTrace
 10
349.4870025692378
 20
145.9860383735645
 30
0.0
 11
349.4870025692378
 21
145.1527050402312
 31
0.0
 12
351.9870025692378
 22
145.5693717068979
 32
0.0
 13
351.9870025692378
 23
145.5693717068979
 33
0.0
  0
POINT
  5
8952
330
87EB
100
AcDbEntity
  8
DEFPOINTS
  6
ByBlock
 62
     0
100
AcDbPoint
 10
298.9870025692378
 20
119.8706783983274
 30
0.0
  0
POINT
  5
8953
330
87EB
100
AcDbEntity
  8
DEFPOINTS
  6
ByBlock
 62
     0
100
AcDbPoint
 10
351.9870025692378
 20
119.8706783983275
 30
0.0
  0
POINT
  5
8954
330
87EB
100
AcDbEntity
  8
DEFPOINTS
  6
ByBlock
 62
     0
100
AcDbPoint
 10
351.9870025692378
 20
145.5693717068979
 30
0.0
  0
ENDBLK
  5
8955
330
87EB
100
AcDbEntity
  8
0
100
AcDbBlockEnd
  0
BLOCK
  5
889F
330
8806
100
AcDbEntity
  8
0
100
AcDbBlockBegin
  2
*D7
 70
     1
 10
0.0
 20
0.0
 30
0.0
  3
*D7
  1

  0
LINE
  5
88A0
330
8806
100
AcDbEntity
  8
0
  6
ByBlock
 62
     6
100
AcDbLine
 10
302.9870025692377
 20
121.8706783983274
 30
0.0
 11
290.038106169749
 21
121.8706783983274
 31
0.0
  0
LINE
  5
88A1
330
8806
100
AcDbEntity
  8
0
  6
ByBlock
 62
     6
100
AcDbLine
 10
301.9870025692377
 20
121.3706783983275
 30
0.0
 11
290.038106169749
 21
121.3706783983275
 31
0.0
  0
LINE
  5
88A2
330
8806
100
AcDbEntity
  8
0
  6
ByBlock
 62
     6
100
AcDbLine
 10
291.038106169749
 20
124.3706783983274
 30
0.0
 11
291.038106169749
 21
126.8706783983274
 31
0.0
  0
LINE
  5
88A3
330
8806
100
AcDbEntity
  8
0
  6
ByBlock
 62
     6
100
AcDbLine
 10
291.038106169749
 20
118.8706783983275
 30
0.0
 11
291.038106169749
 21
116.3706783983275
 31
0.0
  0
LINE
  5
88A4
330
8806
100
AcDbEntity
  8
0
  6
ByBlock
 62
     6
100
AcDbLine
 10
291.038106169749
 20
135.7806756594776
 30
0.0
 11
291.038106169749
 21
121.8706783983274
 31
0.0
  0
MTEXT
  5
88A5
330
8806
100
AcDbEntity
  8
0
  6
ByBlock
 62
     3
100
AcDbMText
 10
288.538106169749
 20
132.0306756594776
 30
0.0
 40
3.0
 41
0.0
 71
     5
 72
     1
  1
\A1;0.5
  7
TXT
 11
0.0000000000000001
 21
1.0
 31
0.0
 73
     1
 44
1.0
  0
LINE
  5
88A6
330
8806
100
AcDbEntity
  8
0
  6
ByBlock
 62
     6
100
AcDbLine
 10
291.038106169749
 20
121.8706783983274
 30
0.0
 11
291.038106169749
 21
121.3706783983275
 31
0.0
  0
SOLID
  5
88A7
330
8806
100
AcDbEntity
  8
0
  6
ByBlock
 62
     6
100
AcDbTrace
 10
290.6214395030823
 20
124.3706783983274
 30
0.0
 11
291.4547728364157
 21
124.3706783983274
 31
0.0
 12
291.038106169749
 22
121.8706783983274
 32
0.0
 13
291.038106169749
 23
121.8706783983274
 33
0.0
  0
SOLID
  5
88A8
330
8806
100
AcDbEntity
  8
0
  6
ByBlock
 62
     6
100
AcDbTrace
 10
290.6214395030823
 20
118.8706783983275
 30
0.0
 11
291.4547728364157
 21
118.8706783983275
 31
0.0
 12
291.038106169749
 22
121.3706783983275
 32
0.0
 13
291.038106169749
 23
121.3706783983275
 33
0.0
  0
POINT
  5
88A9
330
8806
100
AcDbEntity
  8
DEFPOINTS
  6
ByBlock
 62
     0
100
AcDbPoint
 10
303.9870025692378
 20
121.8706783983274
 30
0.0
  0
POINT
  5
88AA
330
8806
100
AcDbEntity
  8
DEFPOINTS
  6
ByBlock
 62
     0
100
AcDbPoint
 10
302.9870025692377
 20
121.3706783983275
 30
0.0
  0
POINT
  5
88AB
330
8806
100
AcDbEntity
  8
DEFPOINTS
  6
ByBlock
 62
     0
100
AcDbPoint
 10
291.038106169749
 20
121.3706783983275
 30
0.0
  0
ENDBLK
  5
88AC
330
8806
100
AcDbEntity
  8
0
100
AcDbBlockEnd
  0
BLOCK
  5
8940
330
8815
100
AcDbEntity
  8
0
100
AcDbBlockBegin
  2
*D8
 70
     1
 10
0.0
 20
0.0
 30
0.0
  3
*D8
  1

  0
LINE
  5
8941
330
8815
100
AcDbEntity
  8
0
  6
ByBlock
 62
     6
100
AcDbLine
 10
307.4870025692378
 20
122.8706783983275
 30
0.0
 11
307.4870025692378
 21
135.2188068048544
 31
0.0
  0
LINE
  5
8942
330
8815
100
AcDbEntity
  8
0
  6
ByBlock
 62
     6
100
AcDbLine
 10
343.4870025692378
 20
122.8706783983273
 30
0.0
 11
343.4870025692378
 21
135.2188068048544
 31
0.0
  0
LINE
  5
8943
330
8815
100
AcDbEntity
  8
0
  6
ByBlock
 62
     6
100
AcDbLine
 10
309.9870025692378
 20
134.2188068048544
 30
0.0
 11
340.9870025692378
 21
134.2188068048544
 31
0.0
  0
SOLID
  5
8944
330
8815
100
AcDbEntity
  8
0
  6
ByBlock
 62
     6
100
AcDbTrace
 10
309.9870025692378
 20
134.635473471521
 30
0.0
 11
309.9870025692378
 21
133.8021401381877
 31
0.0
 12
307.4870025692378
 22
134.2188068048544
 32
0.0
 13
307.4870025692378
 23
134.2188068048544
 33
0.0
  0
SOLID
  5
8945
330
8815
100
AcDbEntity
  8
0
  6
ByBlock
 62
     6
100
AcDbTrace
 10
340.9870025692378
 20
134.635473471521
 30
0.0
 11
340.9870025692378
 21
133.8021401381877
 31
0.0
 12
343.4870025692378
 22
134.2188068048544
 32
0.0
 13
343.4870025692378
 23
134.2188068048544
 33
0.0
  0
MTEXT
  5
8946
330
8815
100
AcDbEntity
  8
0
  6
ByBlock
 62
     3
100
AcDbMText
 10
325.4870025692378
 20
136.7188068048543
 30
0.0
 40
3.0
 41
0.0
 71
     5
 72
     1
  1
\A1;\U+220536
  7
TXT
 73
     1
 44
1.0
  0
POINT
  5
8947
330
8815
100
AcDbEntity
  8
DEFPOINTS
  6
ByBlock
 62
     0
100
AcDbPoint
 10
307.4870025692378
 20
121.8706783983275
 30
0.0
  0
POINT
  5
8948
330
8815
100
AcDbEntity
  8
DEFPOINTS
  6
ByBlock
 62
     0
100
AcDbPoint
 10
343.4870025692378
 20
121.8706783983273
 30
0.0
  0
POINT
  5
8949
330
8815
100
AcDbEntity
  8
DEFPOINTS
  6
ByBlock
 62
     0
100
AcDbPoint
 10
343.4870025692378
 20
134.2188068048544
 30
0.0
  0
ENDBLK
  5
894A
330
8815
100
AcDbEntity
  8
0
100
AcDbBlockEnd
  0
BLOCK
  5
89B0
330
8821
100
AcDbEntity
  8
0
100
AcDbBlockBegin
  2
*D9
 70
     1
 10
0.0
 20
0.0
 30
0.0
  3
*D9
  1

  0
LINE
  5
89B1
330
8821
100
AcDbEntity
  8
0
  6
ByBlock
 62
     6
100
AcDbLine
 10
350.4870025692377
 20
121.8706783983274
 30
0.0
 11
368.4102784428761
 21
121.8706783983274
 31
0.0
  0
LINE
  5
89B2
330
8821
100
AcDbEntity
  8
0
  6
ByBlock
 62
     6
100
AcDbLine
 10
350.7219645994001
 20
107.8446318705258
 30
0.0
 11
368.4102784428761
 21
107.8446318705258
 31
0.0
  0
LINE
  5
89B3
330
8821
100
AcDbEntity
  8
0
  6
ByBlock
 62
     6
100
AcDbLine
 10
367.4102784428761
 20
119.3706783983274
 30
0.0
 11
367.4102784428761
 21
110.3446318705258
 31
0.0
  0
SOLID
  5
89B4
330
8821
100
AcDbEntity
  8
0
  6
ByBlock
 62
     6
100
AcDbTrace
 10
366.9936117762094
 20
119.3706783983274
 30
0.0
 11
367.8269451095427
 21
119.3706783983274
 31
0.0
 12
367.4102784428761
 22
121.8706783983274
 32
0.0
 13
367.4102784428761
 23
121.8706783983274
 33
0.0
  0
SOLID
  5
89B5
330
8821
100
AcDbEntity
  8
0
  6
ByBlock
 62
     6
100
AcDbTrace
 10
366.9936117762094
 20
110.3446318705258
 30
0.0
 11
367.8269451095427
 21
110.3446318705258
 31
0.0
 12
367.4102784428761
 22
107.8446318705258
 32
0.0
 13
367.4102784428761
 23
107.8446318705258
 33
0.0
  0
MTEXT
  5
89B6
330
8821
100
AcDbEntity
  8
0
  6
ByBlock
 62
     3
100
AcDbMText
 10
364.9102784428761
 20
114.8576551344266
 30
0.0
 40
3.0
 41
0.0
 71
     5
 72
     1
  1
\A1;14
  7
TXT
 11
0.0000000000000001
 21
1.0
 31
0.0
 73
     1
 44
1.0
  0
POINT
  5
89B7
330
8821
100
AcDbEntity
  8
DEFPOINTS
  6
ByBlock
 62
     0
100
AcDbPoint
 10
349.4870025692378
 20
121.8706783983274
 30
0.0
  0
POINT
  5
89B8
330
8821
100
AcDbEntity
  8
DEFPOINTS
  6
ByBlock
 62
     0
100
AcDbPoint
 10
349.7219645994001
 20
107.8446318705258
 30
0.0
  0
POINT
  5
89B9
330
8821
100
AcDbEntity
  8
DEFPOINTS
  6
ByBlock
 62
     0
100
AcDbPoint
 10
367.4102784428761
 20
107.8446318705258
 30
0.0
  0
ENDBLK
  5
89BA
330
8821
100
AcDbEntity
  8
0
100
AcDbBlockEnd
  0
BLOCK
  5
89BB
330
882D
100
AcDbEntity
  8
0
100
AcDbBlockBegin
  2
*D10
 70
     1
 10
0.0
 20
0.0
 30
0.0
  3
*D10
  1

  0
LINE
  5
89BC
330
882D
100
AcDbEntity
  8
0
  6
ByBlock
 62
     6
100
AcDbLine
 10
348.4276014924793
 20
103.8706783983274
 30
0.0
 11
378.5592993692642
 21
103.8706783983274
 31
0.0
  0
LINE
  5
89BD
330
882D
100
AcDbEntity
  8
0
  6
ByBlock
 62
     6
100
AcDbLine
 10
350.4870025692377
 20
121.8706783983274
 30
0.0
 11
378.5592993692642
 21
121.8706783983274
 31
0.0
  0
LINE
  5
89BE
330
882D
100
AcDbEntity
  8
0
  6
ByBlock
 62
     6
100
AcDbLine
 10
377.5592993692642
 20
106.3706783983274
 30
0.0
 11
377.5592993692642
 21
119.3706783983274
 31
0.0
  0
SOLID
  5
89BF
330
882D
100
AcDbEntity
  8
0
  6
ByBlock
 62
     6
100
AcDbTrace
 10
377.1426327025976
 20
106.3706783983274
 30
0.0
 11
377.9759660359309
 21
106.3706783983274
 31
0.0
 12
377.5592993692642
 22
103.8706783983274
 32
0.0
 13
377.5592993692642
 23
103.8706783983274
 33
0.0
  0
SOLID
  5
89C0
330
882D
100
AcDbEntity
  8
0
  6
ByBlock
 62
     6
100
AcDbTrace
 10
377.1426327025976
 20
119.3706783983274
 30
0.0
 11
377.9759660359309
 21
119.3706783983274
 31
0.0
 12
377.5592993692642
 22
121.8706783983274
 32
0.0
 13
377.5592993692642
 23
121.8706783983274
 33
0.0
  0
MTEXT
  5
89C1
330
882D
100
AcDbEntity
  8
0
  6
ByBlock
 62
     3
100
AcDbMText
 10
375.0592993692642
 20
112.8706783983274
 30
0.0
 40
3.0
 41
0.0
 71
     5
 72
     1
  1
\A1;18±0.2
  7
TXT
 11
0.0000000000000001
 21
1.0
 31
0.0
 73
     1
 44
1.0
  0
POINT
  5
89C2
330
882D
100
AcDbEntity
  8
DEFPOINTS
  6
ByBlock
 62
     0
100
AcDbPoint
 10
347.4276014924793
 20
103.8706783983274
 30
0.0
  0
POINT
  5
89C3
330
882D
100
AcDbEntity
  8
DEFPOINTS
  6
ByBlock
 62
     0
100
AcDbPoint
 10
349.4870025692378
 20
121.8706783983274
 30
0.0
  0
POINT
  5
89C4
330
882D
100
AcDbEntity
  8
DEFPOINTS
  6
ByBlock
 62
     0
100
AcDbPoint
 10
377.5592993692642
 20
121.8706783983274
 30
0.0
  0
ENDBLK
  5
89C5
330
882D
100
AcDbEntity
  8
0
100
AcDbBlockEnd
  0
BLOCK
  5
88DB
330
8847
100
AcDbEntity
  8
0
100
AcDbBlockBegin
  2
*D11
 70
     1
 10
0.0
 20
0.0
 30
0.0
  3
*D11
  1

  0
LINE
  5
88DC
330
8847
100
AcDbEntity
  8
0
  6
ByBlock
 62
     6
100
AcDbLine
 10
337.4870025692378
 20
120.8706783983274
 30
0.0
 11
333.704737675718
 21
120.8706783983274
 31
0.0
  0
LINE
  5
88DD
330
8847
100
AcDbEntity
  8
0
  6
ByBlock
 62
     6
100
AcDbLine
 10
337.4870025692378
 20
121.8706783983274
 30
0.0
 11
333.704737675718
 21
121.8706783983274
 31
0.0
  0
LINE
  5
88DE
330
8847
100
AcDbEntity
  8
0
  6
ByBlock
 62
     6
100
AcDbLine
 10
334.704737675718
 20
118.3706783983274
 30
0.0
 11
334.704737675718
 21
115.8706783983274
 31
0.0
  0
LINE
  5
88DF
330
8847
100
AcDbEntity
  8
0
  6
ByBlock
 62
     6
100
AcDbLine
 10
334.704737675718
 20
124.3706783983274
 30
0.0
 11
334.704737675718
 21
126.8706783983274
 31
0.0
  0
LINE
  5
88E0
330
8847
100
AcDbEntity
  8
0
  6
ByBlock
 62
     6
100
AcDbLine
 10
334.704737675718
 20
130.9564920859997
 30
0.0
 11
334.704737675718
 21
121.8706783983274
 31
0.0
  0
MTEXT
  5
88E1
330
8847
100
AcDbEntity
  8
0
  6
ByBlock
 62
     3
100
AcDbMText
 10
332.204737675718
 20
129.4564920859997
 30
0.0
 40
3.0
 41
0.0
 71
     5
 72
     1
  1
\A1;1
  7
TXT
 11
0.0000000000000001
 21
1.0
 31
0.0
 73
     1
 44
1.0
  0
LINE
  5
88E2
330
8847
100
AcDbEntity
  8
0
  6
ByBlock
 62
     6
100
AcDbLine
 10
334.704737675718
 20
120.8706783983274
 30
0.0
 11
334.704737675718
 21
121.8706783983274
 31
0.0
  0
SOLID
  5
88E3
330
8847
100
AcDbEntity
  8
0
  6
ByBlock
 62
     6
100
AcDbTrace
 10
334.2880710090513
 20
118.3706783983274
 30
0.0
 11
335.1214043423847
 21
118.3706783983274
 31
0.0
 12
334.704737675718
 22
120.8706783983274
 32
0.0
 13
334.704737675718
 23
120.8706783983274
 33
0.0
  0
SOLID
  5
88E4
330
8847
100
AcDbEntity
  8
0
  6
ByBlock
 62
     6
100
AcDbTrace
 10
334.2880710090513
 20
124.3706783983274
 30
0.0
 11
335.1214043423847
 21
124.3706783983274
 31
0.0
 12
334.704737675718
 22
121.8706783983274
 32
0.0
 13
334.704737675718
 23
121.8706783983274
 33
0.0
  0
POINT
  5
88E5
330
8847
100
AcDbEntity
  8
DEFPOINTS
  6
ByBlock
 62
     0
100
AcDbPoint
 10
338.4870025692377
 20
120.8706783983274
 30
0.0
  0
POINT
  5
88E6
330
8847
100
AcDbEntity
  8
DEFPOINTS
  6
ByBlock
 62
     0
100
AcDbPoint
 10
338.4870025692377
 20
121.8706783983274
 30
0.0
  0
POINT
  5
88E7
330
8847
100
AcDbEntity
  8
DEFPOINTS
  6
ByBlock
 62
     0
100
AcDbPoint
 10
334.704737675718
 20
121.8706783983274
 30
0.0
  0
ENDBLK
  5
88E8
330
8847
100
AcDbEntity
  8
0
100
AcDbBlockEnd
  0
BLOCK
  5
8A20
330
89C6
100
AcDbEntity
  8
0
100
AcDbBlockBegin
  2
*D12
 70
     1
 10
0.0
 20
0.0
 30
0.0
  3
*D12
  1

  0
LINE
  5
8A21
330
89C6
100
AcDbEntity
  8
0
  6
ByBlock
 62
     6
100
AcDbLine
 10
351.8577999061355
 20
106.6313939648733
 30
0.0
 11
390.2907554343347
 21
84.79997357116307
 31
0.0
  0
LINE
  5
8A22
330
89C6
100
AcDbEntity
  8
0
  6
ByBlock
 62
     6
100
AcDbLine
 10
350.4870025692377
 20
121.8706783983274
 30
0.0
 11
400.0846585795645
 21
121.8706783983272
 31
0.0
  0
ARC
  5
8A23
330
89C6
100
AcDbEntity
  8
0
  6
ByBlock
 62
     6
100
AcDbCircle
 10
325.0299192483446
 20
121.8706783983274
 30
0.0
 40
74.05473933121989
100
AcDbArc
 50
332.3360616908311
 51
358.0656707082159
  0
SOLID
  5
8A24
330
89C6
100
AcDbEntity
  8
0
  6
ByBlock
 62
     6
100
AcDbTrace
 10
390.9848844811778
 20
87.2885431193379
 30
0.0
 11
390.2534486572668
 21
87.68785011895621
 31
0.0
 12
389.4212455703673
 22
85.29388914741428
 32
0.0
 13
389.4212455703673
 23
85.29388914741428
 33
0.0
  0
SOLID
  5
8A25
330
89C6
100
AcDbEntity
  8
0
  6
ByBlock
 62
     6
100
AcDbTrace
 10
398.6258527596656
 20
119.3780676523947
 30
0.0
 11
399.4590673702328
 21
119.3640014808563
 31
0.0
 12
399.0846585795645
 22
121.8706783983272
 32
0.0
 13
399.0846585795645
 23
121.8706783983272
 33
0.0
  0
MTEXT
  5
8A26
330
89C6
100
AcDbEntity
  8
0
  6
ByBlock
 62
     3
100
AcDbMText
 10
394.2109911241381
 20
103.5933696556508
 30
0.0
 40
3.0
 41
0.0
 71
     5
 72
     1
  1
\A1;30°
  7
TXT
 11
0.2554311414380637
 21
0.9668272503315408
 31
0.0
 73
     1
 44
1.0
  0
POINT
  5
8A27
330
89C6
100
AcDbEntity
  8
DEFPOINTS
  6
ByBlock
 62
     0
100
AcDbPoint
 10
394.736244059982
 20
96.86802456579542
 30
0.0
  0
POINT
  5
8A28
330
89C6
100
AcDbEntity
  8
DEFPOINTS
  6
ByBlock
 62
     0
100
AcDbPoint
 10
301.4870025692378
 20
121.8706783983275
 30
0.0
  0
POINT
  5
8A29
330
89C6
100
AcDbEntity
  8
DEFPOINTS
  6
ByBlock
 62
     0
100
AcDbPoint
 10
350.9882900421682
 20
107.1253095411245
 30
0.0
  0
POINT
  5
8A2A
330
89C6
100
AcDbEntity
  8
DEFPOINTS
  6
ByBlock
 62
     0
100
AcDbPoint
 10
341.2370025692378
 20
112.6644218283715
 30
0.0
  0
POINT
  5
8A2B
330
89C6
100
AcDbEntity
  8
DEFPOINTS
  6
ByBlock
 62
     0
100
AcDbPoint
 10
349.4870025692378
 20
121.8706783983274
 30
0.0
  0
ENDBLK
  5
8A2C
330
89C6
100
AcDbEntity
  8
0
100
AcDbBlockEnd
  0
ENDSEC
  0
SECTION
  2
ENTITIES
  0
MTEXT
  5
C0
330
18
100
AcDbEntity
  8
0
100
AcDbMText
 10
41.26970765600413
 20
233.6950877649332
 30
0.0
 40
2.5
 41
0.0
 71
     1
 72
     5
  1

  7
ISOCP3
 73
     1
 44
1.0
  0
DIMENSION
  5
6F74
330
18
100
AcDbEntity
  8
0
100
AcDbDimension
  2
*D1
 10
141.5643326766276
 20
83.03811309862169
 30
0.0
 11
151.8791043470129
 21
100.903821700201
 31
0.0
 12
-235.9282477051581
 22
-3.474541644784153
 32
0.0
 70
   161
  1
9%%p0.5
 71
     5
 42
-1.0
  3
A
100
AcDbAlignedDimension
 13
116.0587548640797
 23
108.2932510705732
 33
0.0
 14
111.4993537873212
 24
100.3961367535433
 34
0.0
  0
LINE
  5
8182
330
18
100
AcDbEntity
  8
本体内線
  6
HIDDEN
 48
0.2
100
AcDbLine
 10
105.8241322036927
 20
200.1132711069615
 30
0.0
 11
115.755128658939
 21
200.1132711069615
 31
0.0
  0
LINE
  5
8183
330
18
100
AcDbEntity
  8
本体内線
  6
HIDDEN
 48
0.2
100
AcDbLine
 10
105.8241322036926
 20
192.1132711069615
 30
0.0
 11
115.755128658939
 21
192.1132711069615
 31
0.0
  0
LINE
  5
81B3
330
18
100
AcDbEntity
  8
0
100
AcDbLine
 10
111.0928838392283
 20
101.2921101516965
 30
0.0
 11
115.0928838392285
 21
108.2203133819725
 31
0.0
  0
LINE
  5
81B4
330
18
100
AcDbEntity
  8
本体内線
  6
HIDDEN
 48
0.2
100
AcDbLine
 10
113.6931177884002
 20
106.5882993296569
 30
0.0
 11
111.8063664424526
 21
105.4989829321797
 31
0.0
  0
LINE
  5
81B5
330
18
100
AcDbEntity
  8
本体内線
  6
HIDDEN
 48
0.2
100
AcDbLine
 10
111.8063664424525
 20
105.4989829321795
 30
0.0
 11
111.8063664424522
 21
103.3203501372254
 31
0.0
  0
LWPOLYLINE
  5
81B6
102
{ACAD_REACTORS
330
8AB7
102
}
330
18
100
AcDbEntity
  8
本体外線
100
AcDbPolyline
 90
        2
 70
     0
 43
0.0
 10
111.4993537873212
 20
100.3961367535433
 10
116.0587548640797
 20
108.2932510705732
  0
LINE
  5
81B9
330
18
100
AcDbEntity
  8
本体内線
  6
HIDDEN
 48
0.2
100
AcDbLine
 10
112.8423284892816
 20
102.722237170618
 30
0.0
 11
111.8063664424522
 21
103.3203501372253
 31
0.0
  0
LINE
  5
81BA
330
18
100
AcDbEntity
  8
0
100
AcDbLine
 10
110.0708998874111
 20
110.1436894249947
 30
0.0
 11
111.22560042579
 21
110.4530905017531
 31
0.0
  0
LINE
  5
81BB
330
18
100
AcDbEntity
  8
0
100
AcDbLine
 10
106.9161993490318
 20
104.6795878098568
 30
0.0
 11
107.22560042579
 21
103.5248872714777
 31
0.0
  0
LINE
  5
81BC
330
18
100
AcDbEntity
  8
0
100
AcDbLine
 10
115.0928838392285
 20
106.6203133819713
 30
0.0
 11
109.8007292951935
 21
109.6757402325629
 31
0.0
  0
LINE
  5
81BD
330
18
100
AcDbEntity
  8
0
100
AcDbLine
 10
112.4785244852832
 20
102.0921101516965
 30
0.0
 11
107.1863699412489
 21
105.1475370022879
 31
0.0
  0
LINE
  5
81BE
330
18
100
AcDbEntity
  8
0
100
AcDbLine
 10
110.2435496182212
 20
110.4427275306711
 30
0.0
 11
106.3087548640796
 21
112.7144823411807
 31
0.0
  0
LWPOLYLINE
  5
81BF
102
{ACAD_REACTORS
330
8AB7
102
}
330
18
100
AcDbEntity
  8
0
100
AcDbPolyline
 90
        3
 70
     0
 43
0.0
 10
115.0928838392285
 20
106.6203133819721
 10
115.0928838392285
 20
108.2203133819717
 10
106.3087548640795
 20
113.2918326103703
  0
LWPOLYLINE
  5
81C0
102
{ACAD_REACTORS
330
8AB7
102
}
330
18
100
AcDbEntity
  8
0
100
AcDbPolyline
 90
        3
 70
     0
 43
0.0
 10
112.4785244852832
 20
102.0921101516965
 10
111.0928838392282
 20
101.2921101516965
 10
107.22560042579
 20
103.5248872714776
  0
LINE
  5
81C4
330
18
100
AcDbEntity
  8
中心線
  6
CENTER
 48
0.1
100
AcDbLine
 10
115.0600423370099
 20
103.6507678963404
 30
0.0
 11
105.3087548640797
 21
109.1898801835873
 31
0.0
  0
LINE
  5
81CC
330
18
100
AcDbEntity
  8
0
100
AcDbLine
 10
110.2435496182212
 20
110.4427275306711
 30
0.0
 11
106.7435496182213
 21
104.38054970418
 31
0.0
  0
LINE
  5
81CD
330
18
100
AcDbEntity
  8
0
100
AcDbLine
 10
111.22560042579
 20
110.4530905017531
 30
0.0
 11
107.22560042579
 21
103.5248872714776
 31
0.0
  0
HATCH
  5
81CE
330
18
100
AcDbEntity
  8
0
100
AcDbHatch
 10
0.0
 20
0.0
 30
0.0
210
0.0
220
0.0
230
1.0
  2
AR-SAND
 70
     0
 71
     0
 91
        2
 92
        7
 72
     0
 73
     1
 93
        4
 10
107.0957041622556
 20
108.2094118447155
 10
108.4951766814379
 20
107.414456773584
 10
110.2435496182212
 20
110.4427275306711
 10
107.0957041622557
 20
112.2601369520402
 97
        0
 92
        7
 72
     0
 73
     1
 93
        3
 10
107.0957041622556
 20
108.2094118447155
 10
107.0957041622556
 20
104.9904992665638
 10
108.4951766814379
 20
107.414456773584
 97
        0
 75
     0
 76
     1
 52
0.0
 41
0.05
 77
     0
 78
     4
 53
37.5
 43
-28.05530023484525
 44
-1.819925441355593
 45
-0.0800015647992023
 46
2.447066186646711
 79
     6
 49
0.0
 49
-1.9304
 49
0.0
 49
-2.159
 49
0.0
 49
-2.06375
 53
7.499999999999999
 43
-28.05530023484525
 44
-1.819925441355593
 45
2.247616415690013
 46
3.584125502841771
 79
     6
 49
0.0
 49
-1.0414
 49
0.0
 49
-1.7399
 49
0.0
 49
-0.6667500000000001
 53
327.5
 43
-29.61740023484527
 44
-1.819925441355593
 45
3.95496185120729
 46
0.0071859233927285
 79
     6
 49
0.0
 49
-0.635
 49
0.0
 49
-2.286
 49
0.0
 49
-2.9845
 53
317.5
 43
-29.61740023484527
 44
-1.819925441355593
 45
3.817782262361486
 46
1.114646616286081
 79
     6
 49
0.0
 49
-0.3175
 49
0.0
 49
-1.498599999999999
 49
0.0
 49
-1.7145
 47
0.0255289362626138
 98
        2
 10
108.2018912328014
 20
109.769272238526
 10
107.6907396198821
 20
107.3950807102733
  0
LINE
  5
82FD
330
18
100
AcDbEntity
  8
本体内線
  6
HIDDEN
 48
0.2
100
AcDbLine
 10
105.9600505446043
 20
199.5132711069615
 30
0.0
 11
115.8397365809028
 21
199.5132711069615
 31
0.0
  0
LINE
  5
82FE
330
18
100
AcDbEntity
  8
本体内線
  6
HIDDEN
 48
0.2
100
AcDbLine
 10
105.9600505446043
 20
192.7132711069615
 30
0.0
 11
115.8397365809028
 21
192.7132711069614
 31
0.0
  0
LINE
  5
82FF
330
18
100
AcDbEntity
  8
本体内線
  6
HIDDEN
 48
0.2
100
AcDbLine
 10
77.96196457913521
 20
208.1995010852063
 30
0.0
 11
72.99646635151202
 21
216.7999963003429
 31
0.0
  0
LINE
  5
8300
330
18
100
AcDbEntity
  8
本体内線
  6
HIDDEN
 48
0.2
100
AcDbLine
 10
84.89016780941074
 20
212.1995010852063
 30
0.0
 11
79.92466958178756
 21
220.7999963003429
 31
0.0
  0
LINE
  5
8301
330
18
100
AcDbEntity
  8
本体内線
  6
HIDDEN
 48
0.2
100
AcDbLine
 10
78.41362065095006
 20
208.617209821276
 30
0.0
 11
73.4737776328007
 21
217.1732689101249
 31
0.0
  0
LINE
  5
8302
330
18
100
AcDbEntity
  8
本体内線
  6
HIDDEN
 48
0.2
100
AcDbLine
 10
84.30259339668429
 20
212.0172098212761
 30
0.0
 11
79.36275037853505
 21
220.573268910125
 31
0.0
  0
LINE
  5
8303
330
18
100
AcDbEntity
  8
本体内線
  6
HIDDEN
 48
0.2
100
AcDbLine
 10
84.8901678094108
 20
180.0270411287169
 30
0.0
 11
79.92466958178773
 21
171.4265459135803
 31
0.0
  0
LINE
  5
8304
330
18
100
AcDbEntity
  8
本体内線
  6
HIDDEN
 48
0.2
100
AcDbLine
 10
77.96196457913532
 20
184.0270411287168
 30
0.0
 11
72.99646635151214
 21
175.4265459135803
 31
0.0
  0
LINE
  5
8305
330
18
100
AcDbEntity
  8
本体内線
  6
HIDDEN
 48
0.2
100
AcDbLine
 10
84.30259339668429
 20
180.2093323926472
 30
0.0
 11
79.36275037853516
 21
171.6532733037982
 31
0.0
  0
LINE
  5
8306
330
18
100
AcDbEntity
  8
本体内線
  6
HIDDEN
 48
0.2
100
AcDbLine
 10
78.41362065095012
 20
183.6093323926472
 30
0.0
 11
73.47377763280082
 21
175.0532733037983
 31
0.0
  0
LINE
  5
836A
330
18
100
AcDbEntity
  8
0
100
AcDbLine
 10
106.7435496182213
 20
104.38054970418
 30
0.0
 11
106.3087548640796
 21
104.6315785725259
 31
0.0
  0
LWPOLYLINE
  5
836B
102
{ACAD_REACTORS
330
8AB7
102
}
330
18
100
AcDbEntity
  8
0
100
AcDbPolyline
 90
        2
 70
     0
 43
0.0
 10
111.0928838392285
 20
101.2921101516962
 10
106.3087548640796
 20
104.0542283033363
  0
MTEXT
  5
86E4
330
18
100
AcDbEntity
  8
公差
100
AcDbMText
 10
73.20460423685336
 20
170.0446246591374
 30
0.0
 40
2.0
 41
9.555074525974475
 71
     1
 72
     5
  1
+0.15\P+0
  7
TXT
 73
     1
 44
1.0
  0
MTEXT
  5
86E5
330
18
100
AcDbEntity
  8
公差
100
AcDbMText
 10
46.862496157206
 20
199.4120489964693
 30
0.0
 40
2.0
 41
8.84945634767439
 71
     1
 72
     5
  1
+0.15\P+0
  7
TXT
 11
0.0000000000000001
 21
1.0
 31
0.0
 73
     1
 44
1.0
  0
MTEXT
  5
86E6
330
18
100
AcDbEntity
  8
公差
100
AcDbMText
 10
90.67344628021515
 20
148.5670346450735
 30
0.0
 40
2.0
 41
11.48459459716352
 71
     1
 72
     5
  1
+0\P-0.2
  7
TXT
 73
     1
 44
1.0
  0
LINE
  5
86E7
330
18
100
AcDbEntity
  8
DIM
100
AcDbLine
 10
141.6310516641061
 20
118.3961367535431
 30
0.0
 11
141.6310516641061
 21
134.9228632086669
 31
0.0
  0
LINE
  5
86E8
330
18
100
AcDbEntity
  8
DIM
100
AcDbLine
 10
141.6310516641061
 20
134.9228632086669
 30
0.0
 11
153.7827917903536
 21
134.9228632086669
 31
0.0
  0
LINE
  5
86E9
330
18
100
AcDbEntity
  8
DIM
100
AcDbLine
 10
72.05875486407956
 20
86.75678723883534
 30
0.0
 11
72.05875486407956
 21
76.16338216371225
 31
0.0
  0
TOLERANCE
  5
86EA
330
18
100
AcDbEntity
  8
DIM
  6
ByBlock
100
AcDbFcf
  3
A
 10
153.7827917903536
 20
134.9738016447979
 30
0.0
  1
{\Fgdt;h}%%v0.005%%v%%vA%%v%%v
1001
ACAD
1000
DSTYLE
1002
{
1070
   140
1040
2.743999999999999
1070
   147
1040
0.6859999999999999
1002
}
  0
MTEXT
  5
86EB
330
18
100
AcDbEntity
  8
0
100
AcDbMText
 10
17.8194827894979
 20
19.37399834316261
 30
0.0
 40
5.0
 41
0.0
 71
     1
 72
     5
  1
\Ftxt.shx,bigfont.shx|c128;呉銘宏
  7
JL
 73
     1
 44
1.0
  0
MTEXT
  5
86EC
330
18
100
AcDbEntity
  8
0
100
AcDbMText
 10
81.23517665196391
 20
29.2278230533891
 30
0.0
 40
4.5
 41
0.0
 71
     1
 72
     5
  1
\Ftxt.shx,bigfont.shx|c128;1 : 1
  7
JL
 73
     1
 44
1.0
  0
MTEXT
  5
86ED
330
18
100
AcDbEntity
  8
0
 48
2.0
370
    25
100
AcDbMText
 10
146.1234268906316
 20
3.636969934829039
 30
0.0
 40
4.5
 41
0.0
 71
     5
 72
     1
  1
\Ftxt.shx,bigfont.shx|c128;N L 4 0 0 0 4
 73
     1
 44
1.0
  0
MTEXT
  5
86EE
330
18
100
AcDbEntity
  8
0
 48
2.0
100
AcDbMText
 10
178.1300746997776
 20
22.17550270047843
 30
0.0
 40
4.5
 41
0.0
 71
     5
 72
     1
  1
\P\Ftxt.shx,bigfont.shx|c128;    MF35X1.5P
 73
     1
 44
1.0
  0
MTEXT
  5
86EF
330
18
100
AcDbEntity
  8
0
100
AcDbMText
 10
16.02348109109562
 20
28.64592585511957
 30
0.0
 40
4.5
 41
0.0
 71
     1
 72
     5
  1
\Ftxt.shx,bigfont.shx|c128;05.03.02
  7
JL
 73
     1
 44
1.0
  0
INSERT
  5
86F0
330
18
100
AcDbEntity
  8
0
100
AcDbBlockReference
  2
A$C255C26A2
 10
127.3325877488
 20
118.396136059562
 30
0.0
  0
MTEXT
  5
86F1
330
18
100
AcDbEntity
  8
0
 62
     7
 48
2.0
100
AcDbMText
 10
131.4263904976562
 20
123.2916870265807
 30
0.0
 40
3.0
 41
0.0
 71
     5
 72
     1
  1
G
 73
     1
 44
1.0
  0
LEADER
  5
86F2
330
18
100
AcDbEntity
  8
DIM
 62
     6
100
AcDbLeader
  3
A
 76
     2
 10
110.3163676744632
 20
212.5866287007915
 30
0.0
 10
122.9666718427155
 20
223.8047782869735
 30
0.0
  0
LEADER
  5
86F3
330
18
100
AcDbEntity
  8
DIM
 62
     6
100
AcDbLeader
  3
A
 76
     2
 10
108.3901140335215
 20
110.4036839519248
 30
0.0
 10
123.3774493984679
 20
136.8606521111259
 30
0.0
  0
LEADER
  5
86F4
330
18
100
AcDbEntity
  8
DIM
 62
     6
100
AcDbLeader
  3
A
 76
     2
 10
113.793716894242
 20
104.3700902257417
 30
0.0
 10
125.5030172412214
 20
80.45811515788283
 30
0.0
  0
MTEXT
  5
86F5
330
18
100
AcDbEntity
  8
DIM
100
AcDbMText
 10
122.7017208051216
 20
142.6092476761426
 30
0.0
 40
5.0
 41
1.0
 71
     1
 72
     5
  1
\Ftxt.shx,bigfont.shx|c128;3
 73
     1
 44
1.0
  0
MTEXT
  5
86F6
330
18
100
AcDbEntity
  8
DIM
100
AcDbMText
 10
125.1127003788263
 20
227.660273322882
 30
0.0
 40
5.0
 41
1.0
 71
     1
 72
     5
  1
\Ftxt.shx,bigfont.shx|c128;1
 73
     1
 44
1.0
  0
MTEXT
  5
86F7
330
18
100
AcDbEntity
  8
DIM
100
AcDbMText
 10
124.5629331400453
 20
79.23026647908892
 30
0.0
 40
5.0
 41
1.0
 71
     1
 72
     5
  1
\Ftxt.shx,bigfont.shx|c128;2
 73
     1
 44
1.0
  0
LINE
  5
86F8
330
18
100
AcDbEntity
  8
DIM
100
AcDbLine
 10
72.05875486407956
 20
76.16338216371225
 30
0.0
 11
72.97121321230514
 21
75.18550806798718
 31
0.0
  0
HATCH
  5
86F9
330
18
100
AcDbEntity
  8
DIM
  6
Continuous
100
AcDbHatch
 10
0.0
 20
0.0
 30
0.0
210
0.0
220
0.0
230
1.0
  2
SOLID
 70
     1
 71
     0
 91
        1
 92
        7
 72
     0
 73
     1
 93
        3
 10
72.05763074962698
 20
74.17969376873175
 10
72.97636283822703
 20
75.16450156397548
 10
72.05763074962698
 20
76.1493093592192
 97
        0
 75
     0
 76
     1
 47
0.2359147607200769
 98
        1
 10
72.34544674585777
 20
75.375977569667
450
        0
451
        0
460
0.0
461
0.0
452
        0
462
0.0
453
        0
470

  0
LINE
  5
86FA
330
18
100
AcDbEntity
  8
DIM
100
AcDbLine
 10
77.7183060190012
 20
73.37185426382767
 30
0.0
 11
77.7183060190012
 21
77.01815305384882
 31
0.0
  0
LINE
  5
86FB
330
18
100
AcDbEntity
  8
DIM
100
AcDbLine
 10
77.7183060190012
 20
77.01815305384882
 30
0.0
 11
81.52694126451189
 21
77.01815305384882
 31
0.0
  0
LINE
  5
86FC
330
18
100
AcDbEntity
  8
DIM
100
AcDbLine
 10
81.52694126451189
 20
73.37185426382767
 30
0.0
 11
81.52694126451189
 21
77.01815305384882
 31
0.0
  0
LINE
  5
86FD
330
18
100
AcDbEntity
  8
DIM
100
AcDbLine
 10
77.7183060190012
 20
73.37185426382767
 30
0.0
 11
81.52694126451189
 21
73.37185426382767
 31
0.0
  0
LINE
  5
86FE
330
18
100
AcDbEntity
  8
DIM
100
AcDbLine
 10
77.7183060190012
 20
75.19500365883825
 30
0.0
 11
72.95751218327814
 21
75.19500365883825
 31
0.0
  0
MTEXT
  5
86FF
330
18
100
AcDbEntity
  8
DIM
100
AcDbMText
 10
78.67554374144083
 20
76.68682133807529
 30
0.0
 40
3.0
 41
2.354875985554478
 71
     1
 72
     5
  1
A
  7
ISOCP3
 73
     1
 44
1.0
  0
LINE
  5
8700
330
18
100
AcDbEntity
  8
図框線
100
AcDbLine
 10
198.0
 20
289.9999999999999
 30
0.0
 11
198.0
 21
-0.0000000000000568
 31
0.0
  0
LINE
  5
8701
330
18
100
AcDbEntity
  8
図框線
370
    30
100
AcDbLine
 10
0.0
 20
0.0
 30
0.0
 11
0.0
 21
290.0
 31
0.0
  0
LINE
  5
8702
330
18
100
AcDbEntity
  8
0
 62
     7
 48
5.0
100
AcDbLine
 39
4.0
 10
49.94750515634336
 20
27.8953239783782
 30
0.0
 11
55.27930887205252
 21
29.22827490730549
 31
0.0
  0
MTEXT
  5
8703
330
18
100
AcDbEntity
  8
0
100
AcDbMText
 10
15.97866977158765
 20
9.63134010478825
 30
0.0
 40
6.0
 41
0.0
 71
     1
 72
     5
  1
\Ftxt.shx,bigfont.shx|c128;日機株式会社
  7
LKK
 73
     1
 44
1.0
  0
LINE
  5
8704
330
18
100
AcDbEntity
  8
図框線
100
AcDbLine
 10
0.0000000000002274
 20
0.0
 30
0.0
 11
198.0
 21
0.0
 31
0.0
  0
LINE
  5
8705
330
18
100
AcDbEntity
  8
図框線
100
AcDbLine
 10
0.0000000000002274
 20
12.0
 30
0.0
 11
198.0
 21
12.00000000000005
 31
0.0
  0
LINE
  5
8706
330
18
100
AcDbEntity
  8
図框線
100
AcDbLine
 10
0.0000000000002274
 20
22.0
 30
0.0
 11
96.00000000000022
 21
22.0
 31
0.0
  0
LINE
  5
8707
330
18
100
AcDbEntity
  8
図框線
100
AcDbLine
 10
0.0000000000002274
 20
32.0
 30
0.0
 11
198.0
 21
32.0
 31
0.0
  0
LINE
  5
8708
330
18
100
AcDbEntity
  8
図框線
100
AcDbLine
 10
12.00000000000023
 20
32.0
 30
0.0
 11
12.00000000000023
 21
12.0
 31
0.0
  0
LINE
  5
8709
330
18
100
AcDbEntity
  8
図框線
100
AcDbLine
 10
32.00000000000023
 20
32.0
 30
0.0
 11
32.00000000000023
 21
12.0
 31
0.0
  0
MTEXT
  5
870A
330
18
100
AcDbEntity
  8
0
100
AcDbMText
 10
2.949444248821009
 20
29.04715033351227
 30
0.0
 40
4.5
 41
0.0
 71
     1
 72
     5
  1
\Ftxt.shx,bigfont.shx|c128;日 付
  7
JL
 73
     1
 44
1.0
  0
MTEXT
  5
870B
330
18
100
AcDbEntity
  8
0
100
AcDbMText
 10
3.095712364910241
 20
19.83833899470915
 30
0.0
 40
4.5
 41
0.0
 71
     1
 72
     5
  1
\Ftxt.shx,bigfont.shx|c128;製 図
  7
JL
 73
     1
 44
1.0
  0
LINE
  5
870C
330
18
100
AcDbEntity
  8
0
 62
     7
370
    25
100
AcDbLine
 10
55.27930887205252
 20
23.89647119159633
 30
0.0
 11
55.27930887205252
 21
29.22827490730549
 31
0.0
  0
MTEXT
  5
870D
330
18
100
AcDbEntity
  8
0
100
AcDbMText
 10
66.70254067332575
 20
29.42231870267847
 30
0.0
 40
4.5
 41
0.0
 71
     1
 72
     5
  1
\Ftxt.shx,bigfont.shx|c128;尺 度
  7
JL
 73
     1
 44
1.0
  0
LINE
  5
870E
330
18
100
AcDbEntity
  8
図框線
100
AcDbLine
 10
64.00000000000023
 20
32.0
 30
0.0
 11
64.00000000000023
 21
12.0
 31
0.0
  0
LINE
  5
870F
330
18
100
AcDbEntity
  8
0
 62
     7
370
    25
100
AcDbLine
 10
41.28332411831593
 20
23.23894871736115
 30
0.0
 11
41.28332411831593
 21
29.67466750005656
 31
0.0
  0
CIRCLE
  5
8710
330
18
100
AcDbEntity
  8
0
 62
     7
100
AcDbCircle
 10
41.28332411831593
 20
26.5623730494508
 30
0.0
 40
2.665901857854641
  0
LINE
  5
8711
330
18
100
AcDbEntity
  8
0
 62
     7
370
    25
100
AcDbLine
 10
49.18030281106098
 20
26.56237304945091
 30
0.0
 11
55.75797321903178
 21
26.56237304945091
 31
0.0
  0
LINE
  5
8712
330
18
100
AcDbEntity
  8
0
 62
     7
100
AcDbLine
 10
49.94750515634336
 20
25.22942212052362
 30
0.0
 11
55.27930887205252
 21
23.89647119159633
 31
0.0
  0
LINE
  5
8713
330
18
100
AcDbEntity
  8
図框線
100
AcDbLine
 10
44.00000000000022
 20
21.99999999999989
 30
0.0
 11
44.00000000000022
 21
12.0
 31
0.0
  0
LINE
  5
8714
330
18
100
AcDbEntity
  8
0
 62
     7
370
    25
100
AcDbLine
 10
37.95172532843958
 20
26.5623730494508
 30
0.0
 11
44.81391594676938
 21
26.56237304945091
 31
0.0
  0
CIRCLE
  5
8715
330
18
100
AcDbEntity
  8
0
 62
     7
100
AcDbCircle
 10
41.28332411831593
 20
26.5623730494508
 30
0.0
 40
1.33295092892732
  0
MTEXT
  5
8716
330
18
100
AcDbEntity
  8
0
100
AcDbMText
 10
35.12086518039791
 20
19.39982343168049
 30
0.0
 40
4.5
 41
0.0
 71
     1
 72
     5
  1
\Ftxt.shx,bigfont.shx|c128;検 図
  7
JL
 73
     1
 44
1.0
  0
LINE
  5
8717
330
18
100
AcDbEntity
  8
0
 62
     7
370
    25
100
AcDbLine
 10
49.94750515634336
 20
25.22942212052362
 30
0.0
 11
49.94750515634336
 21
27.8953239783782
 31
0.0
  0
MTEXT
  5
8718
330
18
100
AcDbEntity
  8
0
100
AcDbMText
 10
66.99507418337521
 20
19.62882052001464
 30
0.0
 40
4.5
 41
0.0
 71
     1
 72
     5
  1
\Ftxt.shx,bigfont.shx|c128;承 認
  7
JL
 73
     1
 44
1.0
  0
LINE
  5
8719
330
18
100
AcDbEntity
  8
図框線
100
AcDbLine
 10
132.6157900786393
 20
43.13491348924492
 30
0.0
 11
192.6157900786393
 21
43.13491348924481
 31
0.0
  0
LINE
  5
871A
330
18
100
AcDbEntity
  8
図框線
100
AcDbLine
 10
132.6157900786393
 20
50.33491348924497
 30
0.0
 11
192.6157900786393
 21
50.33491348924497
 31
0.0
  0
LINE
  5
871B
330
18
100
AcDbEntity
  8
図框線
100
AcDbLine
 10
132.6157900786393
 20
57.5349134892449
 30
0.0
 11
192.6157900786393
 21
57.53491348924478
 31
0.0
  0
LINE
  5
871C
330
18
100
AcDbEntity
  8
図框線
100
AcDbLine
 10
132.6157900786393
 20
64.73491348924494
 30
0.0
 11
192.6157900786393
 21
64.73491348924483
 31
0.0
  0
LINE
  5
871D
330
18
100
AcDbEntity
  8
図框線
100
AcDbLine
 10
132.6157900786393
 20
35.93491348924488
 30
0.0
 11
192.6157900786393
 21
35.93491348924488
 31
0.0
  0
MTEXT
  5
871E
330
18
100
AcDbEntity
  8
0
 62
     7
 48
2.0
100
AcDbMText
 10
162.5011900445106
 20
65.52808189982909
 30
0.0
 40
4.8
 41
0.0
 71
     5
 72
     1
  1
\P\Ftxt.shx,bigfont.shx|c128;諸　　　　元
 73
     1
 44
1.0
  0
LINE
  5
871F
330
18
100
AcDbEntity
  8
図框線
100
AcDbLine
 10
132.6157900786393
 20
64.73491348924483
 30
0.0
 11
132.6157900786393
 21
35.93491348924488
 31
0.0
  0
MTEXT
  5
8720
330
18
100
AcDbEntity
  8
0
100
AcDbMText
 10
136.1382258923195
 20
56.00840432212407
 30
0.0
 40
4.4
 41
163.916286842249
 71
     1
 72
     5
  1
\Ftxt.shx,bigfont.shx|c128;熱　処　理
  7
JL
 73
     1
 44
1.0
  0
LINE
  5
8721
330
18
100
AcDbEntity
  8
図框線
100
AcDbLine
 10
156.6157900786393
 20
57.53491348924478
 30
0.0
 11
156.6157900786393
 21
35.93491348924488
 31
0.0
  0
MTEXT
  5
8722
330
18
100
AcDbEntity
  8
0
100
AcDbMText
 10
97.65702556263841
 20
11.15332144655735
 30
0.0
 40
5.0
 41
0.0
 71
     1
 72
     5
  1
\Ftxt.shx,bigfont.shx|c128;図  面  番  号
  7
JL
 73
     1
 44
1.0
  0
MTEXT
  5
8723
330
18
100
AcDbEntity
  8
0
 62
     7
 48
2.0
100
AcDbMText
 10
121.8260850653864
 20
22.29156825453561
 30
0.0
 40
4.5
 41
0.0
 71
     5
 72
     1
  1
\P\Ftxt.shx,bigfont.shx|c128;    精密ロックナット
 73
     1
 44
1.0
  0
MTEXT
  5
8724
330
18
100
AcDbEntity
  8
0
370
    25
100
AcDbMText
 10
98.80029230536003
 20
29.80688815403971
 30
0.0
 40
5.0
 41
0.0
 71
     1
 72
     5
  1
\Ftxt.shx,bigfont.shx|c128;品  名
  7
JL
 73
     1
 44
1.0
  0
LINE
  5
8725
330
18
100
AcDbEntity
  8
図框線
100
AcDbLine
 10
96.00000000000022
 20
32.0
 30
0.0
 11
96.00000000000022
 21
0.19104161092514
 31
0.0
  0
LINE
  5
8726
330
18
100
AcDbEntity
  8
図框線
100
AcDbLine
 10
76.00000000000022
 20
32.0
 30
0.0
 11
76.00000000000022
 21
12.0
 31
0.0
  0
LINE
  5
8727
330
18
100
AcDbEntity
  8
図框線
100
AcDbLine
 10
153.2235601908685
 20
32.0
 30
0.0
 11
153.2235601908685
 21
12.0
 31
0.0
  0
MTEXT
  5
8728
330
18
100
AcDbEntity
  8
0
100
AcDbMText
 10
135.8579515249403
 20
49.00617587486397
 30
0.0
 40
4.4
 41
163.6058628849672
 71
     1
 72
     5
  1
\Ftxt.shx,bigfont.shx|c128;表 面 処 理
  7
JL
 73
     1
 44
1.0
  0
MTEXT
  5
8729
330
18
100
AcDbEntity
  8
0
100
AcDbMText
 10
136.1480173733753
 20
41.71770302125605
 30
0.0
 40
4.4
 41
166.1718
 71
     1
 72
     5
  1
\Ftxt.shx,bigfont.shx|c128;等     　級
  7
JL
 73
     1
 44
1.0
  0
LINE
  5
872A
330
18
100
AcDbEntity
  8
図框線
100
AcDbLine
 10
192.6157900786393
 20
64.73491348924483
 30
0.0
 11
192.6157900786393
 21
35.93491348924499
 31
0.0
  0
MTEXT
  5
872B
330
18
100
AcDbEntity
  8
0
100
AcDbMText
 10
161.3627933880818
 20
55.83344641471445
 30
0.0
 40
4.4
 41
291.8960056857887
 71
     1
 72
     5
  1
\Ftxt.shx,bigfont.shx|c128;調質　HRC30%%d%%p２%%d
  7
JL
 73
     1
 44
1.0
  0
MTEXT
  5
872C
330
18
100
AcDbEntity
  8
0
370
    25
100
AcDbMText
 10
157.2494735287425
 20
29.58569764093568
 30
0.0
 40
5.0
 41
0.0
 71
     1
 72
     5
  1
\Ftxt.shx,bigfont.shx|c128;型  番
  7
JL
 73
     1
 44
1.0
  0
MTEXT
  5
872D
330
18
100
AcDbEntity
  8
0
100
AcDbMText
 10
172.7872651223392
 20
11.23700203391422
 30
0.0
 40
5.0
 41
0.0
 71
     1
 72
     5
  1
\Ftxt.shx,bigfont.shx|c128;変更
  7
JL
 73
     1
 44
1.0
  0
LINE
  5
872E
330
18
100
AcDbEntity
  8
図框線
100
AcDbLine
 10
171.0000000000002
 20
12.00907027842731
 30
0.0
 11
171.0000000000002
 21
0.0
 31
0.0
  0
MTEXT
  5
872F
330
18
100
AcDbEntity
  8
0
100
AcDbMText
 10
161.6234323895182
 20
41.7183135927072
 30
0.0
 40
4.4
 41
290.783364796891
 71
     1
 72
     5
  1
\Ftxt.shx,bigfont.shx|c128;ＩＳＯ - ４Ｈ
  7
JL
 73
     1
 44
1.0
  0
MTEXT
  5
8730
330
18
100
AcDbEntity
  8
0
100
AcDbMText
 10
161.7978935876485
 20
48.65328293790913
 30
0.0
 40
4.4
 41
291.4548
 71
     1
 72
     5
  1
\Ftxt.shx,bigfont.shx|c128;黒  　    染
  7
JL
 73
     1
 44
1.0
  0
MTEXT
  5
8731
330
18
100
AcDbEntity
  8
0
100
AcDbMText
 10
60.06318600759027
 20
270.095850257545
 30
0.0
 40
5.0
 41
0.0
 71
     1
 72
     5
  1
\Ftxt.shx,bigfont.shx|c128;M8X1.25-5L
  7
JL
 73
     1
 44
1.0
  0
MTEXT
  5
8732
330
18
100
AcDbEntity
  8
0
100
AcDbMText
 10
60.06318600759027
 20
262.095850257545
 30
0.0
 40
5.0
 41
0.0
 71
     1
 72
     5
  1
\Ftxt.shx,bigfont.shx|c128;%%c7X6L
  7
JL
 73
     1
 44
1.0
  0
LINE
  5
8733
330
18
100
AcDbEntity
  8
図框線
100
AcDbLine
 10
0.0
 20
263.9999999999999
 30
0.0
 11
198.0
 21
263.9999999999999
 31
0.0
  0
LINE
  5
8734
330
18
100
AcDbEntity
  8
図框線
100
AcDbLine
 10
0.0
 20
271.9999999999999
 30
0.0
 11
198.0
 21
271.9999999999999
 31
0.0
  0
LINE
  5
8735
330
18
100
AcDbEntity
  8
図框線
 62
     9
100
AcDbLine
 10
0.0
 20
279.9999999999999
 30
0.0
 11
198.0
 21
279.9999999999999
 31
0.0
  0
LINE
  5
8736
330
18
100
AcDbEntity
  8
図框線
100
AcDbLine
 10
0.0
 20
290.0
 30
0.0
 11
198.0
 21
290.0
 31
0.0
  0
MTEXT
  5
8737
330
18
100
AcDbEntity
  8
0
100
AcDbMText
 10
59.41630259681756
 20
287.3155952051104
 30
0.0
 40
5.0
 41
0.0
 71
     1
 72
     5
  1
\Ftxt.shx,bigfont.shx|c128;図    番 / 規　　格
  7
JL
 73
     1
 44
1.0
  0
LINE
  5
8738
330
18
100
AcDbEntity
  8
図框線
100
AcDbLine
 10
0.0
 20
263.9999999999999
 30
0.0
 11
198.0
 21
263.9999999999999
 31
0.0
  0
LINE
  5
8739
330
18
100
AcDbEntity
  8
図框線
100
AcDbLine
 10
0.0
 20
255.9999999999999
 30
0.0
 11
198.0
 21
255.9999999999999
 31
0.0
  0
MTEXT
  5
873A
330
18
100
AcDbEntity
  8
0
100
AcDbMText
 10
22.01434914141259
 20
286.7888025819827
 30
0.0
 40
5.0
 41
0.0
 71
     1
 72
     5
  1
\Ftxt.shx,bigfont.shx|c128;品　          名
  7
JL
 73
     1
 44
1.0
  0
MTEXT
  5
873B
330
18
100
AcDbEntity
  8
0
100
AcDbMText
 10
18.86503761304243
 20
270.5298549795346
 30
0.0
 40
6.0
 41
0.0
 71
     1
 72
     5
  1
\Ftxt.shx,bigfont.shx|c128;セットスクリュ-
  7
JL
 73
     1
 44
1.0
  0
MTEXT
  5
873C
330
18
100
AcDbEntity
  8
0
100
AcDbMText
 10
18.66941459004761
 20
278.3660650505403
 30
0.0
 40
6.0
 41
0.0
 71
     1
 72
     5
  1
\Ftxt.shx,bigfont.shx|c128;ロックナット　  
  7
JL
 73
     1
 44
1.0
  0
MTEXT
  5
873D
330
18
100
AcDbEntity
  8
0
100
AcDbMText
 10
18.86503761304243
 20
262.5298549795346
 30
0.0
 40
6.0
 41
0.0
 71
     1
 72
     5
  1
\Ftxt.shx,bigfont.shx|c128;ロックピン 
  7
JL
 73
     1
 44
1.0
  0
LINE
  5
873E
330
18
100
AcDbEntity
  8
図框線
100
AcDbLine
 10
15.0
 20
289.9999999999998
 30
0.0
 11
15.00000000000034
 21
255.9999999999999
 31
0.0
  0
LINE
  5
873F
330
18
100
AcDbEntity
  8
0
100
AcDbLine
 10
15.0
 20
289.9999999999998
 30
0.0
 11
15.0
 21
263.9999999999999
 31
0.0
  0
MTEXT
  5
8740
330
18
100
AcDbEntity
  8
0
100
AcDbMText
 10
6.215289087390715
 20
262.7436409356394
 30
0.0
 40
5.0
 41
0.0
 71
     1
 72
     5
  1
\Ftxt.shx,bigfont.shx|c128;3
  7
JL
 73
     1
 44
1.0
  0
MTEXT
  5
8741
330
18
100
AcDbEntity
  8
0
100
AcDbMText
 10
7.101957026667037
 20
278.5798510066454
 30
0.0
 40
5.0
 41
0.0
 71
     1
 72
     5
  1
\Ftxt.shx,bigfont.shx|c128;1
  7
JL
 73
     1
 44
1.0
  0
MTEXT
  5
8742
330
18
100
AcDbEntity
  8
0
100
AcDbMText
 10
6.215289087390715
 20
270.7436409356394
 30
0.0
 40
5.0
 41
0.0
 71
     1
 72
     5
  1
\Ftxt.shx,bigfont.shx|c128;2
  7
JL
 73
     1
 44
1.0
  0
MTEXT
  5
8743
330
18
100
AcDbEntity
  8
0
100
AcDbMText
 10
2.209083991842589
 20
287.0885254164057
 30
0.0
 40
5.0
 41
0.0
 71
     1
 72
     5
  1
\Ftxt.shx,bigfont.shx|c128;照   号
  7
JL
 73
     1
 44
1.0
  0
LINE
  5
8744
330
18
100
AcDbEntity
  8
図框線
 62
     9
100
AcDbLine
 10
55.0
 20
289.9999999999998
 30
0.0
 11
55.0
 21
256.0
 31
0.0
  0
MTEXT
  5
8745
330
18
100
AcDbEntity
  8
0
100
AcDbMText
 10
146.3353765925381
 20
287.5804049742369
 30
0.0
 40
5.0
 41
0.0
 71
     1
 72
     5
  1
\Ftxt.shx,bigfont.shx|c128;備           考
  7
JL
 73
     1
 44
1.0
  0
LINE
  5
8746
330
18
100
AcDbEntity
  8
図框線
 62
     9
100
AcDbLine
 10
95.0
 20
289.9999999999999
 30
0.0
 11
95.0
 21
255.9999999999999
 31
0.0
  0
MTEXT
  5
8747
330
18
100
AcDbEntity
  8
0
100
AcDbMText
 10
96.783870297764
 20
262.3660650505403
 30
0.0
 40
5.0
 41
0.0
 71
     1
 72
     5
  1
\Ftxt.shx,bigfont.shx|c128;C3604
  7
JL
 73
     1
 44
1.0
  0
MTEXT
  5
8748
330
18
100
AcDbEntity
  8
0
100
AcDbMText
 10
96.783870297764
 20
278.3660650505403
 30
0.0
 40
5.0
 41
0.0
 71
     1
 72
     5
  1
\Ftxt.shx,bigfont.shx|c128;SCM-440
  7
JL
 73
     1
 44
1.0
  0
MTEXT
  5
8749
330
18
100
AcDbEntity
  8
0
100
AcDbMText
 10
96.783870297764
 20
270.3660650505403
 30
0.0
 40
5.0
 41
0.0
 71
     1
 72
     5
  1
\Ftxt.shx,bigfont.shx|c128;SCM435
  7
JL
 73
     1
 44
1.0
  0
MTEXT
  5
874A
330
18
100
AcDbEntity
  8
0
100
AcDbMText
 10
99.80032499445428
 20
287.5804049742369
 30
0.0
 40
5.0
 41
0.0
 71
     1
 72
     5
  1
\Ftxt.shx,bigfont.shx|c128;材　質
  7
JL
 73
     1
 44
1.0
  0
LINE
  5
874B
330
18
100
AcDbEntity
  8
図框線
 62
     9
100
AcDbLine
 10
115.0
 20
289.9999999999999
 30
0.0
 11
115.0
 21
255.9999999999999
 31
0.0
  0
LINE
  5
874C
330
18
100
AcDbEntity
  8
図框線
100
AcDbLine
 10
130.0
 20
289.9999999999999
 30
0.0
 11
130.0
 21
255.9999999999999
 31
0.0
  0
MTEXT
  5
874D
330
18
100
AcDbEntity
  8
0
100
AcDbMText
 10
121.2152890873906
 20
262.7436409356394
 30
0.0
 40
5.0
 41
0.0
 71
     1
 72
     5
  1
\Ftxt.shx,bigfont.shx|c128;3
  7
JL
 73
     1
 44
1.0
  0
MTEXT
  5
874E
330
18
100
AcDbEntity
  8
0
100
AcDbMText
 10
122.1019570266669
 20
278.5798510066454
 30
0.0
 40
5.0
 41
0.0
 71
     1
 72
     5
  1
\Ftxt.shx,bigfont.shx|c128;1
  7
JL
 73
     1
 44
1.0
  0
MTEXT
  5
874F
330
18
100
AcDbEntity
  8
0
100
AcDbMText
 10
121.2152890873906
 20
270.7436409356394
 30
0.0
 40
5.0
 41
0.0
 71
     1
 72
     5
  1
\Ftxt.shx,bigfont.shx|c128;3
  7
JL
 73
     1
 44
1.0
  0
MTEXT
  5
8750
330
18
100
AcDbEntity
  8
0
100
AcDbMText
 10
116.4337403119173
 20
287.5804049742369
 30
0.0
 40
5.0
 41
0.0
 71
     1
 72
     5
  1
\Ftxt.shx,bigfont.shx|c128;数   量
  7
JL
 73
     1
 44
1.0
  0
DIMENSION
  5
8751
330
18
100
AcDbEntity
  8
0
100
AcDbDimension
  2
*D2
 10
107.0587548640795
 20
80.43359779784488
 30
0.0
 11
89.55875486407961
 21
80.43359779784488
 31
0.0
 12
-235.9282477051581
 22
-3.474541644784153
 32
0.0
 70
   160
  1
M<>X1.5P
 71
     5
 42
-1.0
  3
A
100
AcDbAlignedDimension
 13
72.05875486407967
 23
100.9961367535432
 33
0.0
 14
107.0587548640795
 24
100.9961367535433
 34
0.0
100
AcDbRotatedDimension
  0
DIMENSION
  5
8752
330
18
100
AcDbEntity
  8
0
100
AcDbDimension
  2
*D3
 10
65.15875486407958
 20
164.1172653380804
 30
0.0
 11
70.15875486407958
 21
164.1172653380804
 31
0.0
 12
-238.4282477051581
 22
-3.474541644784153
 32
0.0
 70
   160
 71
     5
 42
-1.0
  3
A
100
AcDbAlignedDimension
 13
63.1734162133659
 23
193.6132711069616
 33
0.0
 14
65.15875486407958
 24
193.6132711069616
 34
0.0
100
AcDbRotatedDimension
  0
DIMENSION
  5
8753
330
18
100
AcDbEntity
  8
DIM
100
AcDbDimension
  2
*D4
 10
53.70985846459086
 20
198.6132711069616
 30
0.0
 11
52.83545442373508
 21
208.2913626733522
 31
0.0
 12
-235.9282477051581
 22
-3.474541644784153
 32
0.0
 70
   160
  1
<>      (3等分)
 71
     5
 42
-1.0
  3
A
100
AcDbAlignedDimension
 13
63.17694294753374
 23
193.6132711069616
 33
0.0
 14
63.17694294753374
 24
198.6132711069616
 34
0.0
 50
90.0
100
AcDbRotatedDimension
  0
LINE
  5
8754
330
18
100
AcDbEntity
  8
DIM
 62
     6
100
AcDbLine
 10
53.70985846459086
 20
202.6132711069617
 30
0.0
 11
53.70985846459086
 21
222.5295799693561
 31
0.0
  0
LINE
  5
8755
330
18
100
AcDbEntity
  8
DIM
 62
     6
100
AcDbLine
 10
70.15875486407958
 20
164.1172653380804
 30
0.0
 11
81.96197817490872
 21
164.1172653380804
 31
0.0
  0
MTEXT
  5
8756
102
{ACAD_REACTORS
330
8757
102
}
330
18
100
AcDbEntity
  8
DIM
 62
     3
100
AcDbMText
 10
78.25633525993078
 20
126.9823633676049
 30
0.0
 40
3.0
 41
0.0
 71
     4
 72
     1
  1
\A1;C1.5
  7
TXT
 73
     1
 44
1.0
  0
LEADER
  5
8757
330
18
100
AcDbEntity
  8
DIM
 62
     6
100
AcDbLeader
  3
A
 73
     0
 74
     0
 75
     1
 40
3.0
 41
8.0
 76
     3
 10
72.18375486407968
 20
116.6461367535433
 30
0.0
 10
74.75633525993078
 20
124.4823633676049
 30
0.0
 10
77.25633525993078
 20
124.4823633676049
 30
0.0
340
8756
  0
DIMENSION
  5
8758
330
18
100
AcDbEntity
  8
DIM
100
AcDbDimension
  2
*D5
 10
113.5587548640796
 20
136.5873599716988
 30
0.0
 11
89.55875486407961
 21
139.0873599716988
 31
0.0
 12
-235.9282477051581
 22
-3.474541644784153
 32
0.0
 70
    32
  1
%%c<>%%p0.5
 71
     5
 42
-1.0
  3
A
100
AcDbAlignedDimension
 13
65.55875486407962
 23
118.3961367535433
 33
0.0
 14
113.5587548640796
 24
118.3961367535432
 34
0.0
100
AcDbRotatedDimension
  0
DIMENSION
  5
8759
330
18
100
AcDbEntity
  8
DIM
100
AcDbDimension
  2
*D6
 10
116.0587548640797
 20
142.0948300621137
 30
0.0
 11
85.48969873616574
 21
142.920950811999
 31
0.0
 12
-235.9282477051581
 22
-3.474541644784153
 32
0.0
 70
   160
  1
%%c<>
 71
     5
 42
-1.0
  3
A
100
AcDbAlignedDimension
 13
63.05875486407967
 23
116.3961367535432
 33
0.0
 14
116.0587548640797
 24
116.3961367535433
 34
0.0
100
AcDbRotatedDimension
  0
MTEXT
  5
875B
102
{ACAD_REACTORS
330
875C
102
}
330
18
100
AcDbEntity
  8
DIM
 62
     3
100
AcDbMText
 10
95.98420988178753
 20
93.31627885702562
 30
0.0
 40
3.0
 41
0.0
 71
     6
 72
     1
  1
\A1;C1.5
  7
TXT
 73
     1
 44
1.0
  0
LEADER
  5
875C
330
18
100
AcDbEntity
  8
DIM
 62
     6
100
AcDbLeader
  3
A
 73
     0
 75
     1
 40
3.0
 41
8.0
 76
     3
 10
106.9337548640796
 20
101.1461367535432
 30
0.0
 10
99.48420988178753
 20
90.81627885702562
 30
0.0
 10
96.98420988178753
 20
90.81627885702562
 30
0.0
340
875B
  0
MTEXT
  5
875D
102
{ACAD_REACTORS
330
875E
102
}
330
18
100
AcDbEntity
  8
DIM
 62
     3
100
AcDbMText
 10
128.6214731720322
 20
132.5610102061655
 30
0.0
 40
3.0
 41
0.0
 71
     4
 72
     1
  1
\A1;R1.5
  7
TXT
 73
     1
 44
1.0
  0
LEADER
  5
875E
330
18
100
AcDbEntity
  8
DIM
 62
     6
100
AcDbLeader
  3
A
 73
     0
 74
     0
 75
     1
 40
3.0
 41
8.0
 76
     3
 10
115.6194150358595
 20
117.456796925323
 30
0.0
 10
125.1214731720322
 20
130.0610102061656
 30
0.0
 10
127.6214731720322
 20
130.0610102061656
 30
0.0
340
875D
1001
ACAD
1000
DSTYLE
1002
{
1070
    45
1040
0.0
1002
}
  0
DIMENSION
  5
875F
330
18
100
AcDbEntity
  8
0
100
AcDbDimension
  2
*D7
 10
52.6098584645909
 20
117.8961367535433
 30
0.0
 11
52.6098584645909
 21
128.5561340146934
 31
0.0
 12
-238.4282477051581
 22
-3.474541644784153
 32
0.0
 70
   160
 71
     5
 42
-1.0
  3
A
100
AcDbAlignedDimension
 13
65.55875486407962
 23
118.3961367535432
 33
0.0
 14
64.55875486407956
 24
117.8961367535433
 34
0.0
 50
90.0
100
AcDbRotatedDimension
  0
DIMENSION
  5
8760
330
18
100
AcDbEntity
  8
DIM
100
AcDbDimension
  2
*D8
 10
107.5587548640797
 20
130.7442651600702
 30
0.0
 11
89.55875486407967
 21
133.2442651600702
 31
0.0
 12
-235.9282477051581
 22
-3.474541644784153
 32
0.0
 70
    32
  1
%%c<>
 71
     5
 42
-1.0
  3
A
100
AcDbAlignedDimension
 13
71.55875486407968
 23
118.3961367535433
 33
0.0
 14
107.5587548640797
 24
118.3961367535431
 34
0.0
100
AcDbRotatedDimension
  0
DIMENSION
  5
8761
330
18
100
AcDbEntity
  8
DIM
100
AcDbDimension
  2
*D9
 10
131.4820307377179
 20
104.3700902257417
 30
0.0
 11
128.9820307377179
 21
111.3831134896424
 31
0.0
 12
-235.9282477051581
 22
-3.474541644784153
 32
0.0
 70
    32
 71
     5
 42
-1.0
  3
A
100
AcDbAlignedDimension
 13
113.5587548640796
 23
118.3961367535432
 33
0.0
 14
113.793716894242
 24
104.3700902257417
 34
0.0
 50
90.0
100
AcDbRotatedDimension
  0
DIMENSION
  5
8762
330
18
100
AcDbEntity
  8
DIM
100
AcDbDimension
  2
*D10
 10
141.6310516641061
 20
118.3961367535432
 30
0.0
 11
139.1310516641061
 21
109.3961367535432
 31
0.0
 12
-235.9282477051581
 22
-3.474541644784153
 32
0.0
 70
    32
  1
<>%%p0.2
 71
     5
 42
-1.0
  3
A
100
AcDbAlignedDimension
 13
111.4993537873212
 23
100.3961367535433
 33
0.0
 14
113.5587548640796
 24
118.3961367535432
 34
0.0
 50
90.0
100
AcDbRotatedDimension
  0
DIMENSION
  5
8764
330
18
100
AcDbEntity
  8
DIM
100
AcDbDimension
  2
*D11
 10
98.77648997055985
 20
118.3961367535433
 30
0.0
 11
98.77648997055985
 21
125.9819504412155
 31
0.0
 12
-235.9282477051581
 22
-3.474541644784153
 32
0.0
 70
   160
 71
     5
 42
-1.0
  3
A
100
AcDbAlignedDimension
 13
102.5587548640796
 23
117.3961367535433
 33
0.0
 14
102.5587548640796
 24
118.3961367535433
 34
0.0
 50
90.0
100
AcDbRotatedDimension
  0
LINE
  5
8765
330
18
100
AcDbEntity
  8
中心線
  6
CENTER
 48
0.15
100
AcDbLine
 10
89.55875486407961
 20
224.6132711069616
 30
0.0
 11
89.55875486407951
 21
167.6132711069616
 31
0.0
  0
LINE
  5
8766
330
18
100
AcDbEntity
  8
中心線
  6
CENTER
 48
0.15
100
AcDbLine
 10
89.55875486407967
 20
98.99650908686991
 30
0.0
 11
89.55875486407961
 21
120.0081601713233
 31
0.0
  0
LINE
  5
8770
330
18
100
AcDbEntity
  8
中心線
  6
CENTER
 48
0.15
100
AcDbLine
 10
82.18375486407962
 20
208.8871458127822
 30
0.0
 11
75.30875486407961
 21
220.7949951148182
 31
0.0
  0
LINE
  5
8771
330
18
100
AcDbEntity
  8
中心線
  6
CENTER
 48
0.15
100
AcDbLine
 10
63.55875486407962
 20
196.1132711069616
 30
0.0
 11
118.0587548640795
 21
196.1132711069613
 31
0.0
  0
LINE
  5
8772
330
18
100
AcDbEntity
  8
本体外線
100
AcDbLine
 10
65.15875486407963
 20
193.6132711069616
 30
0.0
 11
65.15875486407958
 21
198.6132711069616
 31
0.0
  0
LINE
  5
8773
330
18
100
AcDbEntity
  8
本体外線
 48
0.08
100
AcDbLine
 10
63.17694294753374
 20
198.6132711069616
 30
0.0
 11
65.15875486407958
 21
198.6132711069616
 31
0.0
  0
LINE
  5
8774
330
18
100
AcDbEntity
  8
本体外線
 48
0.08
100
AcDbLine
 10
63.17694294753374
 20
193.6132711069616
 30
0.0
 11
65.15875486407958
 21
193.6132711069616
 31
0.0
  0
LINE
  5
8775
330
18
100
AcDbEntity
  8
中心線
  6
CENTER
 48
0.15
100
AcDbLine
 10
75.30875486407956
 20
171.4315470991051
 30
0.0
 11
82.18375486407962
 21
183.3393964011411
 31
0.0
  0
LINE
  5
877B
102
{ACAD_REACTORS
330
8AB7
102
}
330
18
100
AcDbEntity
  8
本体外線
100
AcDbLine
 10
67.61815594083805
 20
100.3961367535432
 30
0.0
 11
111.4993537873212
 21
100.3961367535433
 31
0.0
  0
LINE
  5
877C
330
18
100
AcDbEntity
  8
本体外線
100
AcDbLine
 10
63.05875486407967
 20
116.3961367535432
 30
0.0
 11
63.05875486407967
 21
108.293251070573
 31
0.0
  0
LINE
  5
877D
102
{ACAD_REACTORS
330
8AB7
102
}
330
18
100
AcDbEntity
  8
本体外線
100
AcDbLine
 10
116.0587548640797
 20
116.3961367535433
 30
0.0
 11
116.0587548640797
 21
108.2932510705732
 31
0.0
  0
LINE
  5
877E
102
{ACAD_REACTORS
330
8AB7
102
}
330
18
100
AcDbEntity
  8
本体外線
100
AcDbLine
 10
65.55875486407962
 20
118.3961367535433
 30
0.0
 11
113.5587548640796
 21
118.3961367535432
 31
0.0
  0
LINE
  5
877F
102
{ACAD_REACTORS
330
8AB7
102
}
330
18
100
AcDbEntity
  8
本体外線
100
AcDbLine
 10
65.55875486407962
 20
118.3961367535432
 30
0.0
 11
65.55875486407962
 21
117.8961367535432
 31
0.0
  0
LINE
  5
8780
102
{ACAD_REACTORS
330
8AB7
102
}
330
18
100
AcDbEntity
  8
0
100
AcDbLine
 10
72.05875486407967
 20
116.7961367535433
 30
0.0
 11
72.05875486407967
 21
100.9961367535432
 31
0.0
  0
LINE
  5
8781
102
{ACAD_REACTORS
330
8AB7
102
}
330
18
100
AcDbEntity
  8
本体外線
100
AcDbLine
 10
72.80875486407968
 20
115.8961367535433
 30
0.0
 11
72.80875486407961
 21
101.8961367535432
 31
0.0
  0
LINE
  5
8782
102
{ACAD_REACTORS
330
8AB7
102
}
330
18
100
AcDbEntity
  8
本体外線
100
AcDbLine
 10
106.3087548640796
 20
115.8961367535432
 30
0.0
 11
106.3087548640796
 21
101.8961367535432
 31
0.0
  0
LINE
  5
8783
102
{ACAD_REACTORS
330
8AB7
102
}
330
18
100
AcDbEntity
  8
0
100
AcDbLine
 10
107.0587548640796
 20
116.7961367535432
 30
0.0
 11
107.0587548640796
 21
112.858819908478
 31
0.0
  0
LINE
  5
8784
102
{ACAD_REACTORS
330
8AB7
102
}
330
18
100
AcDbEntity
  8
本体外線
100
AcDbLine
 10
113.5587548640796
 20
118.3961367535432
 30
0.0
 11
113.5587548640796
 21
117.8961367535433
 31
0.0
  0
LINE
  5
8785
102
{ACAD_REACTORS
330
8AB7
102
}
330
18
100
AcDbEntity
  8
本体外線
100
AcDbLine
 10
64.55875486407967
 20
117.8961367535432
 30
0.0
 11
65.55875486407962
 21
117.8961367535432
 31
0.0
  0
LINE
  5
8786
102
{ACAD_REACTORS
330
8AB7
102
}
330
18
100
AcDbEntity
  8
本体外線
100
AcDbLine
 10
113.5587548640796
 20
117.8961367535433
 30
0.0
 11
114.5587548640796
 21
117.8961367535433
 31
0.0
  0
ARC
  5
8787
330
18
100
AcDbEntity
  8
本体外線
100
AcDbCircle
 10
64.55875486407967
 20
116.3961367535432
 30
0.0
 40
1.5
100
AcDbArc
 50
90.0
 51
179.9999999999999
  0
ARC
  5
8788
102
{ACAD_REACTORS
330
8AB7
102
}
330
18
100
AcDbEntity
  8
本体外線
100
AcDbCircle
 10
114.5587548640796
 20
116.3961367535433
 30
0.0
 40
1.5
100
AcDbArc
 50
360.0
 51
89.99999999999934
  0
LINE
  5
8789
102
{ACAD_REACTORS
330
8AB7
102
}
330
18
100
AcDbEntity
  8
本体外線
100
AcDbLine
 10
72.80875486407961
 20
101.8961367535432
 30
0.0
 11
71.55875486407968
 21
100.3961367535432
 31
0.0
  0
LINE
  5
878A
102
{ACAD_REACTORS
330
8AB7
102
}
330
18
100
AcDbEntity
  8
本体外線
100
AcDbLine
 10
106.3087548640796
 20
101.8961367535432
 30
0.0
 11
107.5587548640796
 21
100.3961367535432
 31
0.0
  0
LINE
  5
878B
330
18
100
AcDbEntity
  8
本体外線
100
AcDbLine
 10
72.80875486407961
 20
101.8961367535432
 30
0.0
 11
106.3087548640796
 21
101.8961367535432
 31
0.0
  0
POINT
  5
878C
330
18
100
AcDbEntity
  8
本体外線
100
AcDbPoint
 10
113.5587548640796
 20
118.3961367535432
 30
0.0
  0
POINT
  5
878D
330
18
100
AcDbEntity
  8
本体外線
100
AcDbPoint
 10
112.3696536951212
 20
118.3961367535432
 30
0.0
  0
LINE
  5
878E
102
{ACAD_REACTORS
330
8AB7
102
}
330
18
100
AcDbEntity
  8
本体外線
100
AcDbLine
 10
65.15875486407958
 20
117.8961367535432
 30
0.0
 11
65.15875486407958
 21
104.6559443746785
 31
0.0
  0
LINE
  5
878F
330
18
100
AcDbEntity
  8
本体外線
100
AcDbLine
 10
72.05875486407967
 20
116.6334717355673
 30
0.0
 11
72.06508737306762
 21
116.6398042445553
 31
0.0
  0
LINE
  5
879A
330
18
100
AcDbEntity
  8
本体外線
100
AcDbLine
 10
71.55875486407968
 20
117.3961367535433
 30
0.0
 11
107.5587548640796
 21
117.3961367535432
 31
0.0
  0
LINE
  5
87A4
102
{ACAD_REACTORS
330
8AB7
102
}
330
18
100
AcDbEntity
  8
本体外線
100
AcDbLine
 10
72.80875486407968
 20
115.8961367535433
 30
0.0
 11
71.55875486407968
 21
117.3961367535433
 31
0.0
  0
LINE
  5
87A5
102
{ACAD_REACTORS
330
8AB7
102
}
330
18
100
AcDbEntity
  8
本体外線
100
AcDbLine
 10
106.3087548640796
 20
115.8961367535432
 30
0.0
 11
107.5587548640796
 21
117.3961367535432
 31
0.0
  0
LINE
  5
87A6
330
18
100
AcDbEntity
  8
本体外線
100
AcDbLine
 10
72.80875486407973
 20
115.8961367535433
 30
0.0
 11
106.3087548640796
 21
115.8961367535432
 31
0.0
  0
LINE
  5
87A8
102
{ACAD_REACTORS
330
8AB7
102
}
330
18
100
AcDbEntity
  8
0
100
AcDbLine
 10
107.0587548640796
 20
103.6212156014441
 30
0.0
 11
107.0587548640795
 21
100.9961367535433
 31
0.0
  0
LINE
  5
87B4
102
{ACAD_REACTORS
330
8AB7
102
}
330
18
100
AcDbEntity
  8
本体外線
100
AcDbLine
 10
71.55875486407968
 20
118.3961367535433
 30
0.0
 11
71.55875486407968
 21
117.3961367535433
 31
0.0
  0
LINE
  5
87B5
102
{ACAD_REACTORS
330
8AB7
102
}
330
18
100
AcDbEntity
  8
本体外線
100
AcDbLine
 10
107.5587548640797
 20
118.3961367535432
 30
0.0
 11
107.5587548640796
 21
117.3961367535432
 31
0.0
  0
ARC
  5
88E9
330
18
100
AcDbEntity
  8
0
100
AcDbCircle
 10
89.55875486407956
 20
196.1132711069616
 30
0.0
 40
17.5
100
AcDbArc
 50
166.0712712387816
 51
103.2798697834064
  0
CIRCLE
  5
88EC
330
18
100
AcDbEntity
  8
本体外線
100
AcDbCircle
 10
89.55875486407956
 20
196.1132711069616
 30
0.0
 40
16.75
  0
CIRCLE
  5
88ED
330
18
100
AcDbEntity
  8
本体外線
100
AcDbCircle
 10
89.55875486407956
 20
196.1132711069616
 30
0.0
 40
24.0
  0
ARC
  5
88EE
330
18
100
AcDbEntity
  8
本体外線
100
AcDbCircle
 10
89.55875486407956
 20
196.1132711069616
 30
0.0
 40
26.5
100
AcDbArc
 50
185.4133122739711
 51
294.5866877260284
  0
LINE
  5
88F2
330
18
100
AcDbEntity
  8
本体外線
100
AcDbLine
 10
103.9238183735404
 20
176.2322512546212
 30
0.0
 11
99.59369135461827
 21
173.7322512546211
 31
0.0
  0
LINE
  5
88F3
330
18
100
AcDbEntity
  8
本体外線
 48
0.08
100
AcDbLine
 10
100.5845973128912
 20
172.0159517893697
 30
0.0
 11
99.59369135461827
 21
173.7322512546211
 31
0.0
  0
LINE
  5
88F4
330
18
100
AcDbEntity
  8
本体外線
 48
0.08
100
AcDbLine
 10
104.9147243318134
 20
174.5159517893697
 30
0.0
 11
103.9238183735404
 21
176.2322512546211
 31
0.0
  0
LINE
  5
88F5
330
18
100
AcDbEntity
  8
本体外線
100
AcDbLine
 10
99.59369135461855
 20
218.4942909593017
 30
0.0
 11
103.9238183735407
 21
215.9942909593017
 31
0.0
  0
LINE
  5
88F6
330
18
100
AcDbEntity
  8
本体外線
 48
0.08
100
AcDbLine
 10
104.9147243318136
 20
217.7105904245532
 30
0.0
 11
103.9238183735407
 21
215.9942909593017
 31
0.0
  0
LINE
  5
88F7
330
18
100
AcDbEntity
  8
本体外線
 48
0.08
100
AcDbLine
 10
100.5845973128915
 20
220.2105904245532
 30
0.0
 11
99.59369135461862
 21
218.4942909593017
 31
0.0
  0
ARC
  5
88F8
330
18
100
AcDbEntity
  8
本体外線
100
AcDbCircle
 10
89.55875486407956
 20
196.1132711069616
 30
0.0
 40
26.5
100
AcDbArc
 50
65.41331227397073
 51
174.5866877260288
  0
ARC
  5
88F9
330
18
100
AcDbEntity
  8
本体外線
100
AcDbCircle
 10
89.55875486407956
 20
196.1132711069616
 30
0.0
 40
26.5
100
AcDbArc
 50
305.4133122739706
 51
54.58668772602848
  0
LINE
  5
89A3
330
18
100
AcDbEntity
  8
本体内線
  6
HIDDEN
 48
0.2
100
AcDbLine
 10
114.7290798352303
 20
105.9901863630501
 30
0.0
 11
113.6931177884009
 21
106.5882993296572
 31
0.0
  0
DIMENSION
  5
89D4
330
18
100
AcDbEntity
  8
DIM
100
AcDbDimension
  2
*D12
 10
113.5587548640796
 20
118.3961367535432
 30
0.0
 11
158.28274341898
 21
100.1188280108667
 31
0.0
 12
-235.9282477051581
 22
-3.474541644784153
 32
0.0
 70
    34
  1
30%%d
 71
     5
 42
-1.0
  3
A
100
AcDb2LineAngularDimension
 13
115.0600423370099
 23
103.6507678963404
 33
0.0
 14
105.3087548640797
 24
109.1898801835873
 34
0.0
 15
65.55875486407962
 25
118.3961367535433
 35
0.0
 16
158.8079963548239
 26
93.39348292101126
 36
0.0
1001
ACAD
1000
DSTYLE
1002
{
1070
    79
1070
     2
1070
   179
1070
     1
1002
}
  0
LWPOLYLINE
  5
89E2
102
{ACAD_REACTORS
330
8AB7
102
}
330
18
100
AcDbEntity
  8
本体外線
100
AcDbPolyline
 90
        2
 70
     0
 43
0.0
 10
67.61815594083805
 20
100.3961367535433
 10
63.05875486407956
 20
108.2932510705732
  0
HATCH
  5
8AB7
330
18
100
AcDbEntity
  8
剖面線
100
AcDbHatch
 10
0.0
 20
0.0
 30
0.0
210
0.0
220
0.0
230
1.0
  2
ANSI31
 70
     0
 71
     1
 91
        6
 92
        7
 72
     0
 73
     1
 93
       10
 10
65.15875486407958
 20
104.6559443746785
 10
67.6181559408381
 20
100.3961367535433
 10
71.55875486407968
 20
100.3961367535433
 10
72.05875486407967
 20
100.9961367535433
 10
72.05875486407966
 20
116.7961367535433
 10
71.55875486407968
 20
117.3961367535433
 10
71.55875486407968
 20
118.3961367535433
 10
65.55875486407962
 20
118.3961367535433
 10
65.55875486407962
 20
117.8961367535432
 10
65.15875486407958
 20
117.8961367535432
 97
       10
330
87A4
330
87B4
330
877E
330
877F
330
8785
330
878E
330
89E2
330
877B
330
8789
330
8780
 92
        7
 72
     0
 73
     1
 93
        4
 10
72.05875486407967
 20
100.9961367535432
 10
72.80875486407961
 20
101.8961367535432
 10
72.80875486407968
 20
115.8961367535433
 10
72.05875486407967
 20
116.7961367535433
 97
        4
330
87A4
330
8780
330
8789
330
8781
 92
        7
 72
     0
 73
     1
 93
        4
 10
106.3087548640796
 20
113.2918326103703
 10
107.0587548640796
 20
112.8588199084781
 10
107.0587548640796
 20
116.7961367535433
 10
106.3087548640797
 20
115.8961367535432
 97
        4
330
87A5
330
8782
330
81BF
330
8783
 92
        7
 72
     1
 73
     1
 93
       11
 10
107.0587548640796
 20
112.8588199084781
 42
0.0
 10
115.0928838392285
 20
108.2203133819717
 42
0.0
 10
115.0928838392285
 20
106.6203133819723
 42
0.0
 10
116.0587548640797
 20
108.2932510705732
 42
0.0
 10
116.0587548640797
 20
116.3961367535433
 42
0.4142135623730946
 10
114.5587548640796
 20
117.8961367535433
 42
0.0
 10
113.5587548640796
 20
117.8961367535433
 42
0.0
 10
113.5587548640796
 20
118.3961367535433
 42
0.0
 10
107.5587548640796
 20
118.3961367535433
 42
0.0
 10
107.5587548640796
 20
117.3961367535432
 42
0.0
 10
107.0587548640796
 20
116.7961367535433
 42
0.0
 97
       10
330
8788
330
8786
330
8784
330
877E
330
87B5
330
87A5
330
8783
330
81BF
330
81B6
330
877D
 92
        7
 72
     0
 73
     1
 93
        7
 10
107.0587548640795
 20
100.9961367535433
 10
107.5587548640796
 20
100.3961367535433
 10
111.4993537873212
 20
100.3961367535433
 10
112.4785244852835
 20
102.0921101516967
 10
111.0928838392282
 20
101.2921101516965
 10
107.22560042579
 20
103.5248872714776
 10
107.0587548640796
 20
103.6212156014441
 97
        6
330
87A8
330
878A
330
877B
330
81B6
330
81C0
330
836B
 92
        7
 72
     0
 73
     1
 93
        4
 10
106.3087548640796
 20
101.8961367535432
 10
107.0587548640795
 20
100.9961367535433
 10
107.0587548640796
 20
103.621215601444
 10
106.3087548640796
 20
104.0542283033363
 97
        4
330
836B
330
8782
330
878A
330
87A8
 75
     0
 76
     1
 52
0.0
 41
0.5
 77
     0
 78
     1
 53
45.0
 43
-235.9282477051581
 44
-3.474541644784153
 45
-1.122532015133643
 46
1.122532015133644
 79
     0
 47
0.0786814981565192
 98
        6
 10
66.72967061073904
 20
112.8475473363088
 10
72.39928161380999
 20
111.9820508918368
 10
106.4169452469086
 20
114.7359034059486
 10
108.3855603938725
 20
114.7359034059486
 10
107.7556038807897
 20
101.5174116180392
 10
106.495689661961
 20
102.7763156644657
  0
MTEXT
  5
8AC4
330
18
100
AcDbEntity
  8
0
100
AcDbMText
 10
49.8194827894979
 20
19.37399834316261
 30
0.0
 40
5.0
 41
0.0
 71
     1
 72
     5
  1
\Ftxt.shx,bigfont.shx|c128;小柳
  7
JL
 73
     1
 44
1.0
  0
ENDSEC
  0
SECTION
  2
OBJECTS
  0
DICTIONARY
  5
C
330
0
100
AcDbDictionary
281
     1
  3
ACAD_COLOR
350
8AC8
  3
ACAD_GROUP
350
D
  3
ACAD_LAYOUT
350
5CF3
  3
ACAD_MATERIAL
350
8AC7
  3
ACAD_MLINESTYLE
350
1B
  3
ACAD_PLOTSETTINGS
350
5CF4
  3
ACAD_PLOTSTYLENAME
350
5CF1
  3
ACAD_TABLESTYLE
350
8AC9
  3
ACDBVARIABLEDICTIONARY
350
45D
  0
DICTIONARY
  5
45F
330
18
100
AcDbDictionary
280
     1
281
     1
  3
ACAD_LAYOUTSELFREF
360
5D8B
  3
ACAD_SORTENTS
360
460
  0
DICTIONARY
  5
5D89
330
15
100
AcDbDictionary
280
     1
281
     1
  3
ACAD_LAYOUTSELFREF
360
5D8A
  0
DICTIONARY
  5
8AC8
102
{ACAD_REACTORS
330
C
102
}
330
C
100
AcDbDictionary
281
     1
  0
DICTIONARY
  5
D
102
{ACAD_REACTORS
330
C
102
}
330
C
100
AcDbDictionary
281
     1
  0
DICTIONARY
  5
5CF3
102
{ACAD_REACTORS
330
C
102
}
330
C
100
AcDbDictionary
281
     1
  3
Model
350
5CF5
  3
配置1
350
5CF6
  0
DICTIONARY
  5
8AC7
102
{ACAD_REACTORS
330
C
102
}
330
C
100
AcDbDictionary
281
     1
  0
DICTIONARY
  5
1B
102
{ACAD_REACTORS
330
C
102
}
330
C
100
AcDbDictionary
281
     1
  3
STANDARD
350
1C
  0
DICTIONARY
  5
5CF4
102
{ACAD_REACTORS
330
C
102
}
330
C
100
AcDbDictionary
281
     1
  0
ACDBDICTIONARYWDFLT
  5
5CF1
102
{ACAD_REACTORS
330
C
102
}
330
C
100
AcDbDictionary
281
     1
  3
Normal
350
5CF2
100
AcDbDictionaryWithDefault
340
5CF2
  0
DICTIONARY
  5
8AC9
102
{ACAD_REACTORS
330
C
102
}
330
C
100
AcDbDictionary
281
     1
  3
Standard
350
8ACA
  0
DICTIONARY
  5
45D
102
{ACAD_REACTORS
330
C
102
}
330
C
100
AcDbDictionary
281
     1
  3
CTABLESTYLE
350
8AD2
  3
SORTENTS
350
45E
  0
XRECORD
  5
5D8B
102
{ACAD_REACTORS
330
45F
102
}
330
45F
100
AcDbXrecord
280
     1
340
18
  0
SORTENTSTABLE
  5
460
102
{ACAD_REACTORS
330
45F
102
}
330
45F
100
AcDbSortentsTable
330
18
331
C0
  5
CB
  0
XRECORD
  5
5D8A
102
{ACAD_REACTORS
330
5D89
102
}
330
5D89
100
AcDbXrecord
280
     1
340
15
  0
LAYOUT
  5
5CF5
102
{ACAD_REACTORS
330
5CF3
102
}
330
5CF3
100
AcDbPlotSettings
  1

  2
EPSON STYLUS COLOR 440
  4

  6

 40
0.0
 41
0.0
 42
0.0
 43
0.0
 44
0.0
 45
0.0
 46
0.0
 47
0.0
 48
0.0
 49
0.0
140
0.0
141
0.0
142
1.0
143
1.0
 70
  1712
 72
     0
 73
     0
 74
     0
  7
a.ctb
 75
     0
147
1.0
 76
     0
 77
     2
 78
   300
148
0.0
149
0.0
100
AcDbLayout
  1
Model
 70
     1
 71
     0
 10
0.0
 20
0.0
 11
12.0
 21
9.0
 12
0.0
 22
0.0
 32
0.0
 14
0.0
 24
0.0
 34
0.0
 15
0.0
 25
0.0
 35
0.0
146
0.0
 13
0.0
 23
0.0
 33
0.0
 16
1.0
 26
0.0
 36
0.0
 17
0.0
 27
1.0
 37
0.0
 76
     0
330
18
  0
LAYOUT
  5
5CF6
102
{ACAD_REACTORS
330
5CF3
102
}
330
5CF3
100
AcDbPlotSettings
  1

  2
EPSON STYLUS COLOR 440
  4

  6

 40
0.0
 41
0.0
 42
0.0
 43
0.0
 44
0.0
 45
0.0
 46
0.0
 47
0.0
 48
0.0
 49
0.0
140
0.0
141
0.0
142
1.0
143
1.0
 70
   688
 72
     0
 73
     0
 74
     5
  7
a.ctb
 75
    16
147
1.0
 76
     0
 77
     2
 78
   300
148
0.0
149
0.0
100
AcDbLayout
  1
ｰtｸm1
 70
     1
 71
     1
 10
0.0
 20
0.0
 11
420.0
 21
297.0
 12
0.0
 22
0.0
 32
0.0
 14
1.000000000000000E+20
 24
1.000000000000000E+20
 34
1.000000000000000E+20
 15
-1.000000000000000E+20
 25
-1.000000000000000E+20
 35
-1.000000000000000E+20
146
0.0
 13
0.0
 23
0.0
 33
0.0
 16
1.0
 26
0.0
 36
0.0
 17
0.0
 27
1.0
 37
0.0
 76
     0
330
15
  0
MLINESTYLE
  5
1C
102
{ACAD_REACTORS
330
1B
102
}
330
1B
100
AcDbMlineStyle
  2
STANDARD
 70
     0
  3

 62
   256
 51
90.0
 52
90.0
 71
     2
 49
0.5
 62
   256
  6
BYLAYER
 49
-0.5
 62
   256
  6
BYLAYER
  0
ACDBPLACEHOLDER
  5
5CF2
102
{ACAD_REACTORS
330
5CF1
102
}
330
5CF1
  0
TABLESTYLE
  5
8ACA
102
{ACAD_REACTORS
330
8AC9
102
}
330
8AC9
100
AcDbTableStyle
  3
Standard
 70
     0
 71
     8
 40
1.5
 41
1.5
280
     0
281
     0
  7
STANDARD
140
4.5
170
     2
 62
     0
 63
     7
283
     0
274
    -2
284
     1
 64
     0
275
    -2
285
     1
 65
     0
276
    -2
286
     1
 66
     0
277
    -2
287
     1
 67
     0
278
    -2
288
     1
 68
     0
279
    -2
289
     1
 69
     0
  7
STANDARD
140
6.0
170
     5
 62
     0
 63
     7
283
     0
274
    -2
284
     1
 64
     0
275
    -2
285
     1
 65
     0
276
    -2
286
     1
 66
     0
277
    -2
287
     1
 67
     0
278
    -2
288
     1
 68
     0
279
    -2
289
     1
 69
     0
  7
STANDARD
140
4.5
170
     5
 62
     0
 63
     7
283
     0
274
    -2
284
     1
 64
     0
275
    -2
285
     1
 65
     0
276
    -2
286
     1
 66
     0
277
    -2
287
     1
 67
     0
278
    -2
288
     1
 68
     0
279
    -2
289
     1
 69
     0
  0
DICTIONARYVAR
  5
8AD2
102
{ACAD_REACTORS
330
45D
102
}
330
45D
100
DictionaryVariables
280
     0
  1
STANDARD
  0
DICTIONARYVAR
  5
45E
102
{ACAD_REACTORS
330
45D
102
}
330
45D
100
DictionaryVariables
280
     0
  1
127
  0
ENDSEC
  0
EOF
