  0
SECTION
  2
HEADER
  9
$ACADVER
  1
AC1018
  9
$ACADMAINTVER
 70
    76
  9
$DWGCODEPAGE
  3
ANSI_932
  9
$INSBASE
 10
0.0
 20
0.0
 30
0.0
  9
$EXTMIN
 10
0.0
 20
0.0
 30
0.0
  9
$EXTMAX
 10
95.0
 20
140.0
 30
1.919191919191921
  9
$LIMMIN
 10
0.0
 20
0.0
  9
$LIMMAX
 10
420.0
 20
297.0
  9
$ORTHOMODE
 70
     1
  9
$REGENMODE
 70
     1
  9
$FILLMODE
 70
     1
  9
$QTEXTMODE
 70
     0
  9
$MIRRTEXT
 70
     1
  9
$LTSCALE
 40
1.0
  9
$ATTMODE
 70
     1
  9
$TEXTSIZE
 40
1.25
  9
$TRACEWID
 40
1.0
  9
$TEXTSTYLE
  7
TXT
  9
$CLAYER
  8
mark
  9
$CELTYPE
  6
BYLAYER
  9
$CECOLOR
 62
   256
  9
$CELTSCALE
 40
1.0
  9
$DISPSILH
 70
     0
  9
$DIMSCALE
 40
1.0
  9
$DIMASZ
 40
1.25
  9
$DIMEXO
 40
0.4
  9
$DIMDLI
 40
0.38
  9
$DIMRND
 40
0.0
  9
$DIMDLE
 40
0.0
  9
$DIMEXE
 40
0.4
  9
$DIMTP
 40
0.0
  9
$DIMTM
 40
0.0
  9
$DIMTXT
 40
1.25
  9
$DIMCEN
 40
0.09
  9
$DIMTSZ
 40
0.0
  9
$DIMTOL
 70
     0
  9
$DIMLIM
 70
     0
  9
$DIMTIH
 70
     0
  9
$DIMTOH
 70
     0
  9
$DIMSE1
 70
     0
  9
$DIMSE2
 70
     0
  9
$DIMTAD
 70
     3
  9
$DIMZIN
 70
     8
  9
$DIMBLK
  1
Open30
  9
$DIMASO
 70
     1
  9
$DIMSHO
 70
     1
  9
$DIMPOST
  1

  9
$DIMAPOST
  1

  9
$DIMALT
 70
     0
  9
$DIMALTD
 70
     2
  9
$DIMALTF
 40
25.4
  9
$DIMLFAC
 40
1.0
  9
$DIMTOFL
 70
     1
  9
$DIMTVP
 40
0.0
  9
$DIMTIX
 70
     0
  9
$DIMSOXD
 70
     0
  9
$DIMSAH
 70
     0
  9
$DIMBLK1
  1

  9
$DIMBLK2
  1

  9
$DIMSTYLE
  2
STANDARD
  9
$DIMCLRD
 70
   256
  9
$DIMCLRE
 70
   256
  9
$DIMCLRT
 70
     3
  9
$DIMTFAC
 40
1.0
  9
$DIMGAP
 40
0.4
  9
$DIMJUST
 70
     0
  9
$DIMSD1
 70
     0
  9
$DIMSD2
 70
     0
  9
$DIMTOLJ
 70
     1
  9
$DIMTZIN
 70
     0
  9
$DIMALTZ
 70
     0
  9
$DIMALTTZ
 70
     0
  9
$DIMUPT
 70
     0
  9
$DIMDEC
 70
     2
  9
$DIMTDEC
 70
     2
  9
$DIMALTU
 70
     2
  9
$DIMALTTD
 70
     2
  9
$DIMTXSTY
  7
STANDARD
  9
$DIMAUNIT
 70
     0
  9
$DIMADEC
 70
     2
  9
$DIMALTRND
 40
0.0
  9
$DIMAZIN
 70
     2
  9
$DIMDSEP
 70
    46
  9
$DIMATFIT
 70
     3
  9
$DIMFRAC
 70
     0
  9
$DIMLDRBLK
  1
Open30
  9
$DIMLUNIT
 70
     2
  9
$DIMLWD
 70
    -2
  9
$DIMLWE
 70
    -2
  9
$DIMTMOVE
 70
     0
  9
$LUNITS
 70
     2
  9
$LUPREC
 70
     2
  9
$SKETCHINC
 40
1.0
  9
$FILLETRAD
 40
1.0
  9
$AUNITS
 70
     0
  9
$AUPREC
 70
     2
  9
$MENU
  1
.
  9
$ELEVATION
 40
0.0
  9
$PELEVATION
 40
0.0
  9
$THICKNESS
 40
0.0
  9
$LIMCHECK
 70
     0
  9
$CHAMFERA
 40
1.5
  9
$CHAMFERB
 40
1.5
  9
$CHAMFERC
 40
1.75
  9
$CHAMFERD
 40
0.0174532925199433
  9
$SKPOLY
 70
     0
  9
$TDCREATE
 40
2451555.620234838
  9
$TDUCREATE
 40
2451555.245234838
  9
$TDUPDATE
 40
2455846.618332697
  9
$TDUUPDATE
 40
2455846.243332697
  9
$TDINDWG
 40
2.5154255440
  9
$TDUSRTIMER
 40
2.5154255440
  9
$USRTIMER
 70
     1
  9
$ANGBASE
 50
0.0
  9
$ANGDIR
 70
     0
  9
$PDMODE
 70
     0
  9
$PDSIZE
 40
0.0
  9
$PLINEWID
 40
0.0
  9
$SPLFRAME
 70
     0
  9
$SPLINETYPE
 70
     6
  9
$SPLINESEGS
 70
     8
  9
$HANDSEED
  5
A14D
  9
$SURFTAB1
 70
     6
  9
$SURFTAB2
 70
     6
  9
$SURFTYPE
 70
     6
  9
$SURFU
 70
     6
  9
$SURFV
 70
     6
  9
$UCSBASE
  2

  9
$UCSNAME
  2

  9
$UCSORG
 10
0.0
 20
0.0
 30
0.0
  9
$UCSXDIR
 10
1.0
 20
0.0
 30
0.0
  9
$UCSYDIR
 10
0.0
 20
1.0
 30
0.0
  9
$UCSORTHOREF
  2

  9
$UCSORTHOVIEW
 70
     0
  9
$UCSORGTOP
 10
0.0
 20
0.0
 30
0.0
  9
$UCSORGBOTTOM
 10
0.0
 20
0.0
 30
0.0
  9
$UCSORGLEFT
 10
0.0
 20
0.0
 30
0.0
  9
$UCSORGRIGHT
 10
0.0
 20
0.0
 30
0.0
  9
$UCSORGFRONT
 10
0.0
 20
0.0
 30
0.0
  9
$UCSORGBACK
 10
0.0
 20
0.0
 30
0.0
  9
$PUCSBASE
  2

  9
$PUCSNAME
  2

  9
$PUCSORG
 10
0.0
 20
0.0
 30
0.0
  9
$PUCSXDIR
 10
1.0
 20
0.0
 30
0.0
  9
$PUCSYDIR
 10
0.0
 20
1.0
 30
0.0
  9
$PUCSORTHOREF
  2

  9
$PUCSORTHOVIEW
 70
     0
  9
$PUCSORGTOP
 10
0.0
 20
0.0
 30
0.0
  9
$PUCSORGBOTTOM
 10
0.0
 20
0.0
 30
0.0
  9
$PUCSORGLEFT
 10
0.0
 20
0.0
 30
0.0
  9
$PUCSORGRIGHT
 10
0.0
 20
0.0
 30
0.0
  9
$PUCSORGFRONT
 10
0.0
 20
0.0
 30
0.0
  9
$PUCSORGBACK
 10
0.0
 20
0.0
 30
0.0
  9
$USERI1
 70
     0
  9
$USERI2
 70
     0
  9
$USERI3
 70
     0
  9
$USERI4
 70
     0
  9
$USERI5
 70
     0
  9
$USERR1
 40
0.0
  9
$USERR2
 40
0.0
  9
$USERR3
 40
0.0
  9
$USERR4
 40
0.0
  9
$USERR5
 40
0.0
  9
$WORLDVIEW
 70
     1
  9
$SHADEDGE
 70
     3
  9
$SHADEDIF
 70
    70
  9
$TILEMODE
 70
     1
  9
$MAXACTVP
 70
    48
  9
$PINSBASE
 10
0.0
 20
0.0
 30
0.0
  9
$PLIMCHECK
 70
     0
  9
$PEXTMIN
 10
1.000000000000000E+20
 20
1.000000000000000E+20
 30
1.000000000000000E+20
  9
$PEXTMAX
 10
-1.000000000000000E+20
 20
-1.000000000000000E+20
 30
-1.000000000000000E+20
  9
$PLIMMIN
 10
0.0
 20
0.0
  9
$PLIMMAX
 10
420.0
 20
297.0
  9
$UNITMODE
 70
     0
  9
$VISRETAIN
 70
     1
  9
$PLINEGEN
 70
     0
  9
$PSLTSCALE
 70
     1
  9
$TREEDEPTH
 70
  3020
  9
$CMLSTYLE
  2
STANDARD
  9
$CMLJUST
 70
     0
  9
$CMLSCALE
 40
20.0
  9
$PROXYGRAPHICS
 70
     1
  9
$MEASUREMENT
 70
     1
  9
$CELWEIGHT
370
    -1
  9
$ENDCAPS
280
     0
  9
$JOINSTYLE
280
     0
  9
$LWDISPLAY
290
     0
  9
$INSUNITS
 70
     0
  9
$HYPERLINKBASE
  1

  9
$STYLESHEET
  1
monochrome.ctb
  9
$XEDIT
290
     1
  9
$CEPSNTYPE
380
     0
  9
$PSTYLEMODE
290
     1
  9
$FINGERPRINTGUID
  2
{1CF51E8A-A506-11D4-A7D9-AF69F5C20846}
  9
$VERSIONGUID
  2
{3B8367EA-70BB-4535-9A63-27476B56AC72}
  9
$EXTNAMES
290
     1
  9
$PSVPSCALE
 40
0.0
  9
$OLESTARTUP
290
     0
  9
$SORTENTS
280
   127
  9
$INDEXCTL
280
     0
  9
$HIDETEXT
280
     0
  9
$XCLIPFRAME
290
     0
  9
$HALOGAP
280
     0
  9
$OBSCOLOR
 70
   257
  9
$OBSLTYPE
280
     0
  9
$INTERSECTIONDISPLAY
280
     0
  9
$INTERSECTIONCOLOR
 70
   257
  9
$DIMASSOC
280
     1
  9
$PROJECTNAME
  1

  0
ENDSEC
  0
SECTION
  2
CLASSES
  0
CLASS
  1
DICTIONARYVAR
  2
AcDbDictionaryVar
  3
ObjectDBX Classes
 90
        0
 91
        2
280
     0
281
     0
  0
CLASS
  1
SORTENTSTABLE
  2
AcDbSortentsTable
  3
ObjectDBX Classes
 90
        0
 91
        1
280
     0
281
     0
  0
CLASS
  1
ACDBDICTIONARYWDFLT
  2
AcDbDictionaryWithDefault
  3
ObjectDBX Classes
 90
        0
 91
        1
280
     0
281
     0
  0
CLASS
  1
TABLESTYLE
  2
AcDbTableStyle
  3
ObjectDBX Classes
 90
     2047
 91
        1
280
     0
281
     0
  0
ENDSEC
  0
SECTION
  2
TABLES
  0
TABLE
  2
VPORT
  5
8
330
0
100
AcDbSymbolTable
 70
     2
  0
VPORT
  5
A14C
330
8
100
AcDbSymbolTableRecord
100
AcDbViewportTableRecord
  2
*Active
 70
     0
 10
0.0
 20
0.0
 11
1.0
 21
1.0
 12
122.9938118069894
 22
69.99779088134857
 13
0.0
 23
0.0
 14
10.0
 24
10.0
 15
10.0
 25
10.0
 16
0.0
 26
0.0
 36
1.0
 17
0.0
 27
0.0
 37
0.0
 40
141.7417949905759
 41
2.47104247104247
 42
50.0
 43
0.0
 44
0.0
 50
0.0
 51
0.0
 71
     0
 72
 20000
 73
     1
 74
     1
 75
     0
 76
     0
 77
     0
 78
     0
281
     0
 65
     1
110
0.0
120
0.0
130
0.0
111
1.0
121
0.0
131
0.0
112
0.0
122
1.0
132
0.0
 79
     0
146
0.0
  0
ENDTAB
  0
TABLE
  2
LTYPE
  5
5
330
0
100
AcDbSymbolTable
 70
     7
  0
LTYPE
  5
12
330
5
100
AcDbSymbolTableRecord
100
AcDbLinetypeTableRecord
  2
BYBLOCK
 70
     0
  3

 72
    65
 73
     0
 40
0.0
  0
LTYPE
  5
13
330
5
100
AcDbSymbolTableRecord
100
AcDbLinetypeTableRecord
  2
BYLAYER
 70
     0
  3

 72
    65
 73
     0
 40
0.0
  0
LTYPE
  5
14
330
5
100
AcDbSymbolTableRecord
100
AcDbLinetypeTableRecord
  2
CONTINUOUS
 70
     0
  3
Solid line
 72
    65
 73
     0
 40
0.0
  0
LTYPE
  5
9D
330
5
100
AcDbSymbolTableRecord
100
AcDbLinetypeTableRecord
  2
CENTERX2
 70
     0
  3
Center (2x) ________  __  ________  __  _____
 72
    65
 73
     4
 40
101.6
 49
63.5
 74
     0
 49
-12.7
 74
     0
 49
12.7
 74
     0
 49
-12.7
 74
     0
  0
LTYPE
  5
A1
330
5
100
AcDbSymbolTableRecord
100
AcDbLinetypeTableRecord
  2
DASHED
 70
     0
  3
Dashed __ __ __ __ __ __ __ __ __ __ __ __ __ _
 72
    65
 73
     2
 40
19.05
 49
12.7
 74
     0
 49
-6.349999999999999
 74
     0
  0
LTYPE
  5
A2
330
5
100
AcDbSymbolTableRecord
100
AcDbLinetypeTableRecord
  2
DASHED2
 70
     0
  3
Dashed (.5x) _ _ _ _ _ _ _ _ _ _ _ _ _ _ _ _ _
 72
    65
 73
     2
 40
9.524999999999998
 49
6.349999999999999
 74
     0
 49
-3.174999999999999
 74
     0
  0
LTYPE
  5
A5
330
5
100
AcDbSymbolTableRecord
100
AcDbLinetypeTableRecord
  2
DIVIDE2
 70
     0
  3
Divide (.5x) __..__..__..__..__..__..__..__.._
 72
    65
 73
     6
 40
15.875
 49
6.349999999999999
 74
     0
 49
-3.174999999999999
 74
     0
 49
0.0
 74
     0
 49
-3.174999999999999
 74
     0
 49
0.0
 74
     0
 49
-3.174999999999999
 74
     0
  0
LTYPE
  5
650B
330
5
100
AcDbSymbolTableRecord
100
AcDbLinetypeTableRecord
  2
CENTER
 70
     0
  3
Center ____ _ ____ _ ____ _ ____ _ ____ _ ____
 72
    65
 73
     4
 40
50.8
 49
31.75
 74
     0
 49
-6.349999999999999
 74
     0
 49
6.349999999999999
 74
     0
 49
-6.349999999999999
 74
     0
  0
LTYPE
  5
650C
330
5
100
AcDbSymbolTableRecord
100
AcDbLinetypeTableRecord
  2
HIDDEN
 70
     0
  3
Hidden __ __ __ __ __ __ __ __ __ __ __ __ __ _
 72
    65
 73
     2
 40
9.524999999999998
 49
6.349999999999999
 74
     0
 49
-3.174999999999999
 74
     0
  0
ENDTAB
  0
TABLE
  2
LAYER
  5
2
102
{ACAD_XDICTIONARY
360
7BFE
102
}
330
0
100
AcDbSymbolTable
 70
     9
  0
LAYER
  5
E
330
2
100
AcDbSymbolTableRecord
100
AcDbLayerTableRecord
  2
0
 70
     0
 62
     7
  6
CONTINUOUS
370
    -3
390
5CF2
  0
LAYER
  5
B9
330
2
100
AcDbSymbolTableRecord
100
AcDbLayerTableRecord
  2
dim
 70
     0
 62
     3
  6
CONTINUOUS
370
    -3
390
5CF2
  0
LAYER
  5
F2
330
2
100
AcDbSymbolTableRecord
100
AcDbLayerTableRecord
  2
DEFPOINTS
 70
     0
 62
     4
  6
CONTINUOUS
290
     0
370
    -3
390
5CF2
  0
LAYER
  5
5F8B
330
2
100
AcDbSymbolTableRecord
100
AcDbLayerTableRecord
  2
mark
 70
     0
 62
     6
  6
CONTINUOUS
370
    -3
390
5CF2
  0
LAYER
  5
644E
330
2
100
AcDbSymbolTableRecord
100
AcDbLayerTableRecord
  2
frame
 70
     0
 62
     9
  6
CONTINUOUS
370
    -3
390
5CF2
  0
LAYER
  5
650D
330
2
100
AcDbSymbolTableRecord
100
AcDbLayerTableRecord
  2
center
 70
     0
 62
     1
  6
CENTER
370
    -3
390
5CF2
  0
LAYER
  5
650E
330
2
100
AcDbSymbolTableRecord
100
AcDbLayerTableRecord
  2
bowle
 70
     0
 62
     4
  6
HIDDEN
370
    -3
390
5CF2
  0
LAYER
  5
650F
330
2
100
AcDbSymbolTableRecord
100
AcDbLayerTableRecord
  2
contour
 70
     0
 62
     2
  6
CONTINUOUS
370
    -3
390
5CF2
  0
LAYER
  5
6510
330
2
100
AcDbSymbolTableRecord
100
AcDbLayerTableRecord
  2
section
 70
     0
 62
     5
  6
CONTINUOUS
370
    -3
390
5CF2
  0
ENDTAB
  0
TABLE
  2
STYLE
  5
3
330
0
100
AcDbSymbolTable
 70
     5
  0
STYLE
  5
F
330
3
100
AcDbSymbolTableRecord
100
AcDbTextStyleTableRecord
  2
STANDARD
 70
     0
 40
0.0
 41
1.0
 50
0.0
 71
     0
 42
2.5
  3
txt
  4

  0
STYLE
  5
BE
330
3
100
AcDbSymbolTableRecord
100
AcDbTextStyleTableRecord
  2
ISOCP3
 70
     0
 40
0.0
 41
1.0
 50
0.0
 71
     0
 42
2.5
  3
isocp3.shx
  4

  0
STYLE
  5
2A37
330
3
100
AcDbSymbolTableRecord
100
AcDbTextStyleTableRecord
  2
TXT
 70
     0
 40
0.0
 41
1.0
 50
0.0
 71
     0
 42
1.25
  3
txt.shx
  4
bigfont.shx
  0
STYLE
  5
5DCB
330
3
100
AcDbSymbolTableRecord
100
AcDbTextStyleTableRecord
  2
LKK
 70
     0
 40
50.0
 41
1.5
 50
0.0
 71
     0
 42
50.0
  3
MS PGothic.ttf
  4

1001
ACAD
1000
MS PGothic
1071
    32818
  0
STYLE
  5
5DCC
330
3
100
AcDbSymbolTableRecord
100
AcDbTextStyleTableRecord
  2
JL
 70
     0
 40
10.0
 41
0.5
 50
0.0
 71
     0
 42
5.0
  3
MS Mincho.ttf
  4

1001
ACAD
1000
MS Mincho
1071
    32785
  0
ENDTAB
  0
TABLE
  2
VIEW
  5
6
330
0
100
AcDbSymbolTable
 70
     0
  0
ENDTAB
  0
TABLE
  2
UCS
  5
7
330
0
100
AcDbSymbolTable
 70
     0
  0
ENDTAB
  0
TABLE
  2
APPID
  5
9
330
0
100
AcDbSymbolTable
 70
    11
  0
APPID
  5
10
330
9
100
AcDbSymbolTableRecord
100
AcDbRegAppTableRecord
  2
ACAD
 70
     0
  0
APPID
  5
7C91
330
9
100
AcDbSymbolTableRecord
100
AcDbRegAppTableRecord
  2
ACAD_DSTYLE_DIMEXT_LENGTH
 70
     0
  0
APPID
  5
7C92
330
9
100
AcDbSymbolTableRecord
100
AcDbRegAppTableRecord
  2
ACAD_DSTYLE_DIMEXT_ENABLED
 70
     0
  0
APPID
  5
7C93
330
9
100
AcDbSymbolTableRecord
100
AcDbRegAppTableRecord
  2
ACAD_DSTYLE_DIMJOGGED_JOGANGLE_SYMBOL
 70
     0
  0
APPID
  5
7C94
330
9
100
AcDbSymbolTableRecord
100
AcDbRegAppTableRecord
  2
ACAD_DSTYLE_DIMARC_LENGTH_SYMBOL
 70
     0
  0
APPID
  5
7F1C
330
9
100
AcDbSymbolTableRecord
100
AcDbRegAppTableRecord
  2
ACAD_EXEMPT_FROM_CAD_STANDARDS
 70
     0
  0
APPID
  5
7F49
330
9
100
AcDbSymbolTableRecord
100
AcDbRegAppTableRecord
  2
ACAD_DSTYLE_DIMTEXT_FILL
 70
     0
  0
APPID
  5
7F4C
330
9
100
AcDbSymbolTableRecord
100
AcDbRegAppTableRecord
  2
ACAD_DSTYLE_DIM_LINETYPE
 70
     0
  0
APPID
  5
7F4D
330
9
100
AcDbSymbolTableRecord
100
AcDbRegAppTableRecord
  2
ACAD_DSTYLE_DIM_EXT1_LINETYPE
 70
     0
  0
APPID
  5
7F4E
330
9
100
AcDbSymbolTableRecord
100
AcDbRegAppTableRecord
  2
ACAD_DSTYLE_DIM_EXT2_LINETYPE
 70
     0
  0
APPID
  5
8C73
330
9
100
AcDbSymbolTableRecord
100
AcDbRegAppTableRecord
  2
ACAD_PSEXT
 70
     0
  0
ENDTAB
  0
TABLE
  2
DIMSTYLE
  5
A
330
0
100
AcDbSymbolTable
 70
     1
100
AcDbDimStyleTable
 71
     1
340
1D
  0
DIMSTYLE
105
1D
102
{ACAD_REACTORS
330
9DFE
330
9E3D
330
9E61
330
9E6E
330
9E7D
330
9E8A
330
A045
330
A062
330
A090
102
}
330
A
100
AcDbSymbolTableRecord
100
AcDbDimStyleTableRecord
  2
STANDARD
 70
     0
 41
1.25
 42
0.4
 44
0.4
 73
     0
 74
     0
 77
     3
 78
     8
 79
     2
140
1.25
147
0.4
172
     1
176
   256
177
   256
178
     3
179
     2
271
     2
272
     2
340
F
341
7C04
342
7C04
1001
ACAD_DSTYLE_DIMEXT_LENGTH
1070
   378
1040
0.18
1001
ACAD_DSTYLE_DIMEXT_ENABLED
1070
   383
1070
     0
1001
ACAD_DSTYLE_DIMARC_LENGTH_SYMBOL
1070
   379
1070
     0
1001
ACAD_DSTYLE_DIMJOGGED_JOGANGLE_SYMBOL
1070
   384
1040
1.570796326794896
  0
ENDTAB
  0
TABLE
  2
BLOCK_RECORD
  5
1
330
0
100
AcDbSymbolTable
 70
    13
  0
BLOCK_RECORD
  5
18
102
{ACAD_XDICTIONARY
360
45F
102
}
330
1
100
AcDbSymbolTableRecord
100
AcDbBlockTableRecord
  2
*MODEL_SPACE
340
5CF5
  0
BLOCK_RECORD
  5
15
102
{ACAD_XDICTIONARY
360
5D89
102
}
330
1
100
AcDbSymbolTableRecord
100
AcDbBlockTableRecord
  2
*PAPER_SPACE
340
5CF6
  0
BLOCK_RECORD
  5
639D
330
1
100
AcDbSymbolTableRecord
100
AcDbBlockTableRecord
  2
A$C255C26A2
340
0
  0
BLOCK_RECORD
  5
7C04
330
1
100
AcDbSymbolTableRecord
100
AcDbBlockTableRecord
  2
_Open30
340
0
102
{BLKREFS
331
9F5E
331
9F5F
331
9F67
331
9F68
331
9F70
331
9F71
331
9F7B
331
9F7C
331
9F84
331
9F85
331
9F8D
331
9F8E
331
A052
331
A083
331
A084
331
A096
331
A097
102
}
  0
BLOCK_RECORD
  5
7C0A
102
{ACAD_XDICTIONARY
360
7C0B
102
}
330
1
100
AcDbSymbolTableRecord
100
AcDbBlockTableRecord
  2
A
340
0
310
2800000020000000200000000100080000000000000400000000000000000000000000000000000000000000000080000080000000808000800000008000800080800000C0C0C000C0DCC000F0CAA6000020400000206000002080000020A0000020C0000020E00000400000004020000040400000406000004080000040A0
310
000040C0000040E00000600000006020000060400000606000006080000060A0000060C0000060E00000800000008020000080400000806000008080000080A0000080C0000080E00000A0000000A0200000A0400000A0600000A0800000A0A00000A0C00000A0E00000C0000000C0200000C0400000C0600000C0800000C0
310
A00000C0C00000C0E00000E0000000E0200000E0400000E0600000E0800000E0A00000E0C00000E0E00040000000400020004000400040006000400080004000A0004000C0004000E00040200000402020004020400040206000402080004020A0004020C0004020E000404000004040200040404000404060004040800040
310
40A0004040C0004040E00040600000406020004060400040606000406080004060A0004060C0004060E00040800000408020004080400040806000408080004080A0004080C0004080E00040A0000040A0200040A0400040A0600040A0800040A0A00040A0C00040A0E00040C0000040C0200040C0400040C0600040C08000
310
40C0A00040C0C00040C0E00040E0000040E0200040E0400040E0600040E0800040E0A00040E0C00040E0E00080000000800020008000400080006000800080008000A0008000C0008000E00080200000802020008020400080206000802080008020A0008020C0008020E00080400000804020008040400080406000804080
310
008040A0008040C0008040E00080600000806020008060400080606000806080008060A0008060C0008060E00080800000808020008080400080806000808080008080A0008080C0008080E00080A0000080A0200080A0400080A0600080A0800080A0A00080A0C00080A0E00080C0000080C0200080C0400080C0600080C0
310
800080C0A00080C0C00080C0E00080E0000080E0200080E0400080E0600080E0800080E0A00080E0C00080E0E000C0000000C0002000C0004000C0006000C0008000C000A000C000C000C000E000C0200000C0202000C0204000C0206000C0208000C020A000C020C000C020E000C0400000C0402000C0404000C0406000C0
310
408000C040A000C040C000C040E000C0600000C0602000C0604000C0606000C0608000C060A000C060C000C060E000C0800000C0802000C0804000C0806000C0808000C080A000C080C000C080E000C0A00000C0A02000C0A04000C0A06000C0A08000C0A0A000C0A0C000C0A0E000C0C00000C0C02000C0C04000C0C06000
310
C0C08000C0C0A000F0FBFF00A4A0A000808080000000FF0000FF000000FFFF00FF000000FF00FF00FFFF0000FFFFFF0000000000000000000000000000000000000000000000000000000000000000000000000000000000000000000000000000000000000000000000000000000000000000000000000000000000000000
310
00000000000000000000000000000000000000000000000000000000000000000000000000000000000000000000000000000000000000000000000000000000000000000000000000000000000000000000000000000000000000000000000000000000000000000000000000000000000000000000000000000000000000
310
00000000000000000000000000000000000000000000000000000000000000000000000000000000000000000000000000000000000000000000000000000000000000000000000000000000000000000000000000000000000000000000000000000000000000000000000000000000000000000000000000000000000000
310
000000000000FDFDFDFDFDFDFDFDFDFDFDFD0000FD0000000000000000000000000000000000FD0000FA0000000000FA00FD0000FDFD00000000000000000000000000000000FD0000FA0000000000FA00FD0000FDFDFD000000000000000000000000000000FD0000FA0000000000FA00FD0000FDFDFDFD00000000000000
310
00000000000000FD0000FAFAFAFAFAFAFA00FD0000FDFDFDFDFD00000000000000000000000000FD000000FA00000000FA00FD0000FDFDFDFDFDFDFDFDFDFDFDFDFDFDFDFDFDFDFD000000FA000000FA0000FD0000FDFDFDFDFD00000000000000000000000000FD00000000FA0000FA0000FD0000FDFDFDFD000000000000
310
0000000000000000FD00000000FA00FA000000FD0000FDFD00000000000000000000000000000000FD0000000000FAFA000000FD0000FD0000000000000000000000000000000000FD0000000000FA00000000FD0000000000000000000000000000000000000000FDFDFDFDFDFDFDFDFDFDFDFD0000000000000000000000
310
00000000000000000000000000000000000000000000000000000000000000000000000000000000000000000000000000000000000000000000000000000000000000000000000000000000000000000000000000000000000000000000000000000000000000000000000000000000000000000000000000000000000000
310
00000000000000000000000000000000000000000000000000000000000000000000000000000000000000000000000000000000000000000000000000000000000000000000000000000000000000000000000000000000000000000000000000000000000000000000000000000000000000000000000000000000000000
310
0000000000000000000000000000000000000000000000000000000000000000000000000000000000000000000000000000000000000000
  0
BLOCK_RECORD
  5
8E72
102
{ACAD_XDICTIONARY
360
8E73
102
}
330
1
100
AcDbSymbolTableRecord
100
AcDbBlockTableRecord
  2
LS
340
0
310
2800000020000000200000000100080000000000000400000000000000000000000000000000000000000000000080000080000000808000800000008000800080800000C0C0C000C0DCC000F0CAA6000020400000206000002080000020A0000020C0000020E00000400000004020000040400000406000004080000040A0
310
000040C0000040E00000600000006020000060400000606000006080000060A0000060C0000060E00000800000008020000080400000806000008080000080A0000080C0000080E00000A0000000A0200000A0400000A0600000A0800000A0A00000A0C00000A0E00000C0000000C0200000C0400000C0600000C0800000C0
310
A00000C0C00000C0E00000E0000000E0200000E0400000E0600000E0800000E0A00000E0C00000E0E00040000000400020004000400040006000400080004000A0004000C0004000E00040200000402020004020400040206000402080004020A0004020C0004020E000404000004040200040404000404060004040800040
310
40A0004040C0004040E00040600000406020004060400040606000406080004060A0004060C0004060E00040800000408020004080400040806000408080004080A0004080C0004080E00040A0000040A0200040A0400040A0600040A0800040A0A00040A0C00040A0E00040C0000040C0200040C0400040C0600040C08000
310
40C0A00040C0C00040C0E00040E0000040E0200040E0400040E0600040E0800040E0A00040E0C00040E0E00080000000800020008000400080006000800080008000A0008000C0008000E00080200000802020008020400080206000802080008020A0008020C0008020E00080400000804020008040400080406000804080
310
008040A0008040C0008040E00080600000806020008060400080606000806080008060A0008060C0008060E00080800000808020008080400080806000808080008080A0008080C0008080E00080A0000080A0200080A0400080A0600080A0800080A0A00080A0C00080A0E00080C0000080C0200080C0400080C0600080C0
310
800080C0A00080C0C00080C0E00080E0000080E0200080E0400080E0600080E0800080E0A00080E0C00080E0E000C0000000C0002000C0004000C0006000C0008000C000A000C000C000C000E000C0200000C0202000C0204000C0206000C0208000C020A000C020C000C020E000C0400000C0402000C0404000C0406000C0
310
408000C040A000C040C000C040E000C0600000C0602000C0604000C0606000C0608000C060A000C060C000C060E000C0800000C0802000C0804000C0806000C0808000C080A000C080C000C080E000C0A00000C0A02000C0A04000C0A06000C0A08000C0A0A000C0A0C000C0A0E000C0C00000C0C02000C0C04000C0C06000
310
C0C08000C0C0A000F0FBFF00A4A0A000808080000000FF0000FF000000FFFF00FF000000FF00FF00FFFF0000FFFFFF00000000000000000000000000000000000000000000000000000000000000000000000000000000000000FBFBFEFBFEFBFBFEFBFEFBFB00000000000000000000000000000000000000FBFBFBFEFBFE
310
FBFBFEFBFEFBFBFB000000000000000000000000000000000000FB0000FE00FE0000FE00FE0000FB000000000000000000000000000000000000FB0000FE00FE0000FE00FE0000FB000000000000000000000000000000000000FB0000FEFEFEFEFEFEFEFE0000FB000000000000000000000000000000000000FB000000FE
310
FE0000FEFE000000FB000000000000000000000000000000000000FB0000000000FEFE0000000000FB000000000000000000000000000000000000FBFBFBFEFBFBFBFBFBFBFEFBFBFB000000000000000000000000000000000000000000FBFE0000000000FE000000000000000000000000000000000000000000000000FB
310
FBFBFBFBFBFEFB000000000000000000000000000000000000000000000000FBFE00000000FEFB000000000000000000000000000000000000000000000000FBFE00000000FEFB000000000000000000000000000000000000000000000000FBFE00000000FEFB000000000000000000000000000000000000000000000000
310
FBFE00000000FEFB000000000000000000000000000000000000000000000000FBFE00000000FEFB000000000000000000000000000000000000000000000000FBFE00000000FEFB000000000000000000000000000000000000000000000000FBFE00000000FEFB0000000000000000000000000000000000000000000000
310
00FBFE00000000FEFB000000000000000000000000000000000000000000000000FBFE00000000FEFB000000000000000000000000000000000000000000000000FBFE00000000FEFB000000000000000000000000000000000000000000000000FBFE00000000FEFB00000000000000000000000000000000000000000000
310
0000FBFE00000000FEFB000000000000000000000000000000000000000000000000FBFE00000000FEFB000000000000000000000000000000000000000000000000FBFE00000000FEFB000000000000000000000000000000000000000000000000FBFE00000000FEFB000000000000000000000000000000000000000000
310
000000FBFE00000000FEFB000000000000000000000000000000000000000000000000FBFE00000000FEFB000000000000000000000000000000000000000000000000FBFEFBFBFBFBFEFB00000000000000000000000000000000000000000000000000FE00000000FEFB0000000000000000000000000000000000000000
310
0000000000FBFBFBFBFBFB000000000000000000000000000000000000000000000000000000000000000000000000000000000000000000
102
{BLKREFS
331
9D79
102
}
  0
BLOCK_RECORD
  5
9DFF
330
1
100
AcDbSymbolTableRecord
100
AcDbBlockTableRecord
  2
*D4
340
0
  0
BLOCK_RECORD
  5
9E3E
330
1
100
AcDbSymbolTableRecord
100
AcDbBlockTableRecord
  2
*D5
340
0
  0
BLOCK_RECORD
  5
9E62
330
1
100
AcDbSymbolTableRecord
100
AcDbBlockTableRecord
  2
*D6
340
0
  0
BLOCK_RECORD
  5
9E6F
330
1
100
AcDbSymbolTableRecord
100
AcDbBlockTableRecord
  2
*D7
340
0
  0
BLOCK_RECORD
  5
9E7E
330
1
100
AcDbSymbolTableRecord
100
AcDbBlockTableRecord
  2
*D8
340
0
  0
BLOCK_RECORD
  5
9E8B
330
1
100
AcDbSymbolTableRecord
100
AcDbBlockTableRecord
  2
*D9
340
0
  0
BLOCK_RECORD
  5
A046
330
1
100
AcDbSymbolTableRecord
100
AcDbBlockTableRecord
  2
*D10
340
0
  0
BLOCK_RECORD
  5
A063
330
1
100
AcDbSymbolTableRecord
100
AcDbBlockTableRecord
  2
*D11
340
0
  0
BLOCK_RECORD
  5
A091
330
1
100
AcDbSymbolTableRecord
100
AcDbBlockTableRecord
  2
*D12
340
0
  0
ENDTAB
  0
ENDSEC
  0
SECTION
  2
BLOCKS
  0
BLOCK
  5
19
330
18
100
AcDbEntity
  8
0
100
AcDbBlockBegin
  2
*MODEL_SPACE
 70
     0
 10
0.0
 20
0.0
 30
0.0
  3
*MODEL_SPACE
  1

  0
ENDBLK
  5
1A
330
18
100
AcDbEntity
  8
0
100
AcDbBlockEnd
  0
BLOCK
  5
16
330
15
100
AcDbEntity
 67
     1
  8
0
100
AcDbBlockBegin
  2
*PAPER_SPACE
 70
     0
 10
0.0
 20
0.0
 30
0.0
  3
*PAPER_SPACE
  1

  0
ENDBLK
  5
17
330
15
100
AcDbEntity
 67
     1
  8
0
100
AcDbBlockEnd
  0
BLOCK
  5
63A1
330
639D
100
AcDbEntity
  8
0
100
AcDbBlockBegin
  2
A$C255C26A2
 70
     0
 10
0.0
 20
0.0
 30
0.0
  3
A$C255C26A2
  1

  0
LWPOLYLINE
  5
639E
330
639D
100
AcDbEntity
  8
0
100
AcDbPolyline
 90
        3
 70
     1
 43
0.0
 10
7.014806023851633
 20
0.0000006939811783
 10
5.611844869720698
 20
2.430000693981241
 10
8.417767177982568
 20
2.430000693981241
  0
LWPOLYLINE
  5
639F
330
639D
100
AcDbEntity
  8
0
100
AcDbPolyline
 90
        3
 70
     1
 43
0.0
 10
4.20888371558999
 20
0.0000006939811783
 10
2.805922561459283
 20
2.430000693981241
 10
5.611844869720698
 20
2.430000693981241
  0
LWPOLYLINE
  5
63A0
330
639D
100
AcDbEntity
  8
0
100
AcDbPolyline
 90
        3
 70
     1
 43
0.0
 10
1.402961407328348
 20
0.0000006939811783
 10
0.0000002531974133
 20
2.430000693981241
 10
2.805922561459283
 20
2.430000693981241
  0
ENDBLK
  5
63A2
330
639D
100
AcDbEntity
  8
0
100
AcDbBlockEnd
  0
BLOCK
  5
7C05
330
7C04
100
AcDbEntity
  8
0
100
AcDbBlockBegin
  2
_Open30
 70
     0
 10
0.0
 20
0.0
 30
0.0
  3
_Open30
  1

  0
LINE
  5
7C06
330
7C04
100
AcDbEntity
  8
0
  6
ByBlock
 62
     0
370
    -2
100
AcDbLine
 10
-1.0
 20
0.26794919
 30
0.0
 11
0.0
 21
0.0
 31
0.0
  0
LINE
  5
7C07
330
7C04
100
AcDbEntity
  8
0
  6
ByBlock
 62
     0
370
    -2
100
AcDbLine
 10
0.0
 20
0.0
 30
0.0
 11
-1.0
 21
-0.26794919
 31
0.0
  0
LINE
  5
7C08
330
7C04
100
AcDbEntity
  8
0
  6
ByBlock
 62
     0
370
    -2
100
AcDbLine
 10
0.0
 20
0.0
 30
0.0
 11
-1.0
 21
0.0
 31
0.0
  0
ENDBLK
  5
7C09
330
7C04
100
AcDbEntity
  8
0
100
AcDbBlockEnd
  0
BLOCK
  5
7C0E
330
7C0A
100
AcDbEntity
  8
0
100
AcDbBlockBegin
  2
A
 70
     0
 10
0.0
 20
0.0
 30
0.0
  3
A
  1

  0
MTEXT
  5
7C0F
330
7C0A
100
AcDbEntity
  8
mark
 62
     3
100
AcDbMText
 10
10.65641897020822
 20
-5.596245361730467
 30
0.0
 40
2.5
 41
0.0
 71
     5
 72
     1
  1
A
 73
     1
 44
1.0
1001
ACAD
1000
ACAD_MTEXT_DEFINED_HEIGHT_BEGIN
1070
    46
1040
0.0
1000
ACAD_MTEXT_DEFINED_HEIGHT_END
  0
LWPOLYLINE
  5
7C10
330
7C0A
100
AcDbEntity
  8
mark
100
AcDbPolyline
 90
        4
 70
     1
 43
0.0
 10
9.07926800414657
 20
-7.141145101782569
 10
12.07926800414657
 20
-7.141145101782569
 10
12.07926800414657
 20
-4.141145101782569
 10
9.07926800414657
 20
-4.141145101782569
  0
HATCH
  5
7C11
330
7C0A
100
AcDbEntity
  8
mark
100
AcDbHatch
 10
0.0
 20
0.0
 30
0.0
210
0.0
220
0.0
230
1.0
  2
SOLID
 70
     1
 71
     0
 91
        1
 92
        7
 72
     0
 73
     1
 93
        3
 10
5.32926800414657
 20
-5.641145101782569
 10
4.07926800414657
 20
-4.391145101782541
 10
4.07926800414657
 20
-6.891145101782541
 97
        0
 75
     0
 76
     1
 47
0.0398277943677868
 98
        1
 10
4.589689734415287
 20
-5.732163331855076
450
        0
451
        0
460
0.0
461
0.0
452
        1
462
1.0
453
        2
463
0.0
 63
     5
421
      255
463
1.0
 63
     7
421
 16777215
470
LINEAR
1001
ACAD
1010
0.0
1020
0.0
1030
0.0
  0
LINE
  5
7C12
330
7C0A
100
AcDbEntity
  8
mark
100
AcDbLine
 10
5.32926800414657
 20
-5.641145101782569
 30
0.0
 11
9.07926800414657
 21
-5.641145101782569
 31
0.0
  0
LINE
  5
7C13
330
7C0A
100
AcDbEntity
  8
mark
100
AcDbLine
 10
5.32926800414657
 20
-5.641145101782569
 30
0.0
 11
4.07926800414657
 21
-4.391145101782569
 31
0.0
  0
LINE
  5
7C14
330
7C0A
100
AcDbEntity
  8
mark
100
AcDbLine
 10
5.32926800414657
 20
-5.641145101782569
 30
0.0
 11
4.07926800414657
 21
-6.891145101782569
 31
0.0
  0
ENDBLK
  5
7C15
330
7C0A
100
AcDbEntity
  8
0
100
AcDbBlockEnd
  0
BLOCK
  5
8E76
330
8E72
100
AcDbEntity
  8
0
100
AcDbBlockBegin
  2
LS
 70
     0
 10
0.0
 20
0.0
 30
0.0
  3
LS
  1

  0
LINE
  5
8E78
330
8E72
100
AcDbEntity
  8
contour
100
AcDbLine
 10
310.7457309951603
 20
181.0160360664828
 30
0.0
 11
310.7457309951603
 21
184.7160360664827
 31
0.0
  0
LINE
  5
8E79
330
8E72
100
AcDbEntity
  8
contour
100
AcDbLine
 10
310.7457309951603
 20
184.7160360664827
 30
0.0
 11
303.7457309951603
 21
184.7160360664827
 31
0.0
  0
LINE
  5
8E7A
330
8E72
100
AcDbEntity
  8
contour
100
AcDbLine
 10
308.4457309951603
 20
196.7160360664827
 30
0.0
 11
306.0457309951603
 21
196.7160360664826
 31
0.0
  0
LINE
  5
8E7B
330
8E72
100
AcDbEntity
  8
contour
100
AcDbLine
 10
309.2457309951603
 20
195.9160360664826
 30
0.0
 11
308.4457309951603
 21
196.7160360664826
 31
0.0
  0
LINE
  5
8E7C
330
8E72
100
AcDbEntity
  8
contour
100
AcDbLine
 10
303.7457309951603
 20
184.7160360664827
 30
0.0
 11
303.7457309951603
 21
181.0160360664827
 31
0.0
  0
LINE
  5
8E7D
330
8E72
100
AcDbEntity
  8
contour
100
AcDbLine
 10
304.0457309951603
 20
180.7160360664827
 30
0.0
 11
310.4457309951603
 21
180.7160360664828
 31
0.0
  0
LINE
  5
8E7E
330
8E72
100
AcDbEntity
  8
contour
100
AcDbLine
 10
310.7457309951603
 20
181.0160360664828
 30
0.0
 11
310.4457309951603
 21
180.7160360664828
 31
0.0
  0
LINE
  5
8E7F
330
8E72
100
AcDbEntity
  8
contour
100
AcDbLine
 10
303.7457309951603
 20
181.0160360664827
 30
0.0
 11
304.0457309951603
 21
180.7160360664827
 31
0.0
  0
LINE
  5
8E80
330
8E72
100
AcDbEntity
  8
contour
100
AcDbLine
 10
309.2457309951603
 20
184.7160360664826
 30
0.0
 11
309.2457309951603
 21
195.9160360664827
 31
0.0
  0
LINE
  5
8E81
330
8E72
100
AcDbEntity
  8
contour
100
AcDbLine
 10
305.2457309951603
 20
184.7160360664826
 30
0.0
 11
305.2457309951603
 21
195.9160360664827
 31
0.0
  0
LINE
  5
8E82
330
8E72
100
AcDbEntity
  8
contour
100
AcDbLine
 10
306.0457309951603
 20
196.7160360664826
 30
0.0
 11
305.2457309951603
 21
195.9160360664826
 31
0.0
  0
LINE
  5
8E83
330
8E72
100
AcDbEntity
  8
contour
100
AcDbLine
 10
309.2457309951603
 20
195.9160360664827
 30
0.0
 11
305.2457309951603
 21
195.9160360664827
 31
0.0
  0
LINE
  5
8E84
330
8E72
100
AcDbEntity
  8
contour
 62
     4
100
AcDbLine
 10
308.8667309951603
 20
185.3724833225513
 30
0.0
 11
308.8667309951603
 21
196.2950360664826
 31
0.0
  0
LINE
  5
8E85
330
8E72
100
AcDbEntity
  8
contour
 62
     4
100
AcDbLine
 10
305.6247309951603
 20
185.3724833225513
 30
0.0
 11
305.6247309951603
 21
196.2950360664826
 31
0.0
  0
LINE
  5
8E86
330
8E72
100
AcDbEntity
  8
contour
100
AcDbLine
 10
310.7457309951603
 20
181.0160360664828
 30
0.0
 11
303.7457309951603
 21
181.0160360664828
 31
0.0
  0
LINE
  5
8E87
330
8E72
100
AcDbEntity
  8
bowle
 48
0.1
100
AcDbLine
 10
308.1117563989447
 20
180.7160360664827
 30
0.0
 11
308.1117563989447
 21
182.9160360664827
 31
0.0
  0
LINE
  5
8E88
330
8E72
100
AcDbEntity
  8
bowle
 48
0.1
100
AcDbLine
 10
308.9777818027293
 20
180.7160360664827
 30
0.0
 11
308.9777818027293
 21
182.9160360664827
 31
0.0
  0
LINE
  5
8E89
330
8E72
100
AcDbEntity
  8
bowle
 48
0.1
100
AcDbLine
 10
306.3797055913759
 20
180.7160360664827
 30
0.0
 11
306.3797055913759
 21
182.9160360664826
 31
0.0
  0
LINE
  5
8E8A
330
8E72
100
AcDbEntity
  8
bowle
 48
0.1
100
AcDbLine
 10
305.5136801875914
 20
180.7160360664827
 30
0.0
 11
305.5136801875914
 21
182.9160360664826
 31
0.0
  0
LINE
  5
8E8B
330
8E72
100
AcDbEntity
  8
bowle
 48
0.1
100
AcDbLine
 10
308.9777818027292
 20
182.9160360664827
 30
0.0
 11
305.5136801875914
 21
182.9160360664827
 31
0.0
  0
LINE
  5
8E8C
330
8E72
100
AcDbEntity
  8
bowle
 48
0.1
100
AcDbLine
 10
305.5136801875914
 20
182.9160360664826
 30
0.0
 11
307.2457309951603
 21
183.9160360664826
 31
0.0
  0
LINE
  5
8E8D
330
8E72
100
AcDbEntity
  8
bowle
 48
0.1
100
AcDbLine
 10
308.9777818027292
 20
182.9160360664826
 30
0.0
 11
307.2457309951603
 21
183.9160360664826
 31
0.0
  0
LINE
  5
8E8E
330
8E72
100
AcDbEntity
  8
contour
 62
     4
100
AcDbLine
 10
305.6247309951603
 20
185.3724833225513
 30
0.0
 11
305.2457309951603
 21
184.7160360664826
 31
0.0
  0
LINE
  5
8E8F
330
8E72
100
AcDbEntity
  8
contour
100
AcDbLine
 10
305.2457309951603
 20
185.3724833225513
 30
0.0
 11
309.2457309951603
 21
185.3724833225513
 31
0.0
  0
LINE
  5
8E90
330
8E72
100
AcDbEntity
  8
contour
 62
     4
100
AcDbLine
 10
309.2457309951603
 20
184.7160360664827
 30
0.0
 11
308.8667309951603
 21
185.3724833225513
 31
0.0
  0
ENDBLK
  5
8E77
330
8E72
100
AcDbEntity
  8
0
100
AcDbBlockEnd
  0
BLOCK
  5
9E09
330
9DFF
100
AcDbEntity
  8
0
100
AcDbBlockBegin
  2
*D4
 70
     1
 10
0.0
 20
0.0
 30
0.0
  3
*D4
  1

  0
LINE
  5
9F5B
330
9DFF
100
AcDbEntity
  8
mark
370
    -2
100
AcDbLine
 10
18.5910567593748
 20
55.17770338959253
 30
0.0
 11
15.69148922616529
 21
55.17770338959254
 31
0.0
  0
LINE
  5
9F5C
330
9DFF
100
AcDbEntity
  8
mark
370
    -2
100
AcDbLine
 10
20.59105675937483
 20
61.67770338959253
 30
0.0
 11
15.69148922616529
 21
61.67770338959254
 31
0.0
  0
LINE
  5
9F5D
330
9DFF
100
AcDbEntity
  8
mark
370
    -2
100
AcDbLine
 10
16.09148922616529
 20
56.42770338959253
 30
0.0
 11
16.09148922616529
 21
60.42770338959253
 31
0.0
  0
INSERT
  5
9F5E
330
9DFF
100
AcDbEntity
  8
mark
370
    -2
100
AcDbBlockReference
  2
_Open30
 10
16.09148922616529
 20
55.17770338959253
 30
0.0
 41
1.25
 42
1.25
 43
1.25
 50
270.0
  0
INSERT
  5
9F5F
330
9DFF
100
AcDbEntity
  8
mark
370
    -2
100
AcDbBlockReference
  2
_Open30
 10
16.09148922616529
 20
61.67770338959253
 30
0.0
 41
1.25
 42
1.25
 43
1.25
 50
90.0
  0
MTEXT
  5
9F60
330
9DFF
100
AcDbEntity
  8
mark
 62
     3
100
AcDbMText
 10
15.06648922616528
 20
58.42770338959254
 30
0.0
 40
1.25
 41
0.0
 71
     5
 72
     1
  1
\A1;6.5
 11
0.0000000000000001
 21
1.0
 31
0.0
 73
     1
 44
1.0
  0
POINT
  5
9F61
330
9DFF
100
AcDbEntity
  8
DEFPOINTS
 62
     0
100
AcDbPoint
 10
18.9910567593748
 20
55.17770338959253
 30
0.0
  0
POINT
  5
9F62
330
9DFF
100
AcDbEntity
  8
DEFPOINTS
 62
     0
100
AcDbPoint
 10
20.99105675937483
 20
61.67770338959253
 30
0.0
  0
POINT
  5
9F63
330
9DFF
100
AcDbEntity
  8
DEFPOINTS
 62
     0
100
AcDbPoint
 10
16.09148922616529
 20
61.67770338959253
 30
0.0
  0
ENDBLK
  5
9E0A
330
9DFF
100
AcDbEntity
  8
0
100
AcDbBlockEnd
  0
BLOCK
  5
9E48
330
9E3E
100
AcDbEntity
  8
0
100
AcDbBlockBegin
  2
*D5
 70
     1
 10
0.0
 20
0.0
 30
0.0
  3
*D5
  1

  0
LINE
  5
9F64
330
9E3E
100
AcDbEntity
  8
mark
370
    -2
100
AcDbLine
 10
28.9910567593748
 20
41.96570338959252
 30
0.0
 11
28.9910567593748
 21
34.33080508968906
 31
0.0
  0
LINE
  5
9F65
330
9E3E
100
AcDbEntity
  8
mark
370
    -2
100
AcDbLine
 10
58.99105675937477
 20
41.96570338959252
 30
0.0
 11
58.99105675937477
 21
34.33080508968906
 31
0.0
  0
LINE
  5
9F66
330
9E3E
100
AcDbEntity
  8
mark
370
    -2
100
AcDbLine
 10
30.2410567593748
 20
34.73080508968906
 30
0.0
 11
57.74105675937477
 21
34.73080508968906
 31
0.0
  0
INSERT
  5
9F67
330
9E3E
100
AcDbEntity
  8
mark
370
    -2
100
AcDbBlockReference
  2
_Open30
 10
28.9910567593748
 20
34.73080508968906
 30
0.0
 41
1.25
 42
1.25
 43
1.25
 50
180.0
  0
INSERT
  5
9F68
330
9E3E
100
AcDbEntity
  8
mark
370
    -2
100
AcDbBlockReference
  2
_Open30
 10
58.99105675937477
 20
34.73080508968906
 30
0.0
 41
1.25
 42
1.25
 43
1.25
  0
MTEXT
  5
9F69
330
9E3E
100
AcDbEntity
  8
mark
 62
     3
100
AcDbMText
 10
43.99105675937478
 20
35.75580508968906
 30
0.0
 40
1.25
 41
0.0
 71
     5
 72
     1
  1
\A1;M30X1.5P
 73
     1
 44
1.0
  0
POINT
  5
9F6A
330
9E3E
100
AcDbEntity
  8
DEFPOINTS
 62
     0
100
AcDbPoint
 10
28.9910567593748
 20
42.36570338959252
 30
0.0
  0
POINT
  5
9F6B
330
9E3E
100
AcDbEntity
  8
DEFPOINTS
 62
     0
100
AcDbPoint
 10
58.99105675937477
 20
42.36570338959252
 30
0.0
  0
POINT
  5
9F6C
330
9E3E
100
AcDbEntity
  8
DEFPOINTS
 62
     0
100
AcDbPoint
 10
58.99105675937477
 20
34.73080508968906
 30
0.0
  0
ENDBLK
  5
9E49
330
9E3E
100
AcDbEntity
  8
0
100
AcDbBlockEnd
  0
BLOCK
  5
9E6C
330
9E62
100
AcDbEntity
  8
0
100
AcDbBlockBegin
  2
*D6
 70
     1
 10
0.0
 20
0.0
 30
0.0
  3
*D6
  1

  0
LINE
  5
9F6D
330
9E62
100
AcDbEntity
  8
mark
370
    -2
100
AcDbLine
 10
67.3910567593748
 20
61.67770338959253
 30
0.0
 11
72.89202718701805
 21
61.67770338959253
 31
0.0
  0
LINE
  5
9F6E
330
9E62
100
AcDbEntity
  8
mark
370
    -2
100
AcDbLine
 10
67.3910567593748
 20
48.77770338959253
 30
0.0
 11
72.89202718701805
 21
48.77770338959253
 31
0.0
  0
LINE
  5
9F6F
330
9E62
100
AcDbEntity
  8
mark
370
    -2
100
AcDbLine
 10
72.49202718701804
 20
60.42770338959253
 30
0.0
 11
72.49202718701804
 21
50.02770338959253
 31
0.0
  0
INSERT
  5
9F70
330
9E62
100
AcDbEntity
  8
mark
370
    -2
100
AcDbBlockReference
  2
_Open30
 10
72.49202718701804
 20
61.67770338959253
 30
0.0
 41
1.25
 42
1.25
 43
1.25
 50
90.0
  0
INSERT
  5
9F71
330
9E62
100
AcDbEntity
  8
mark
370
    -2
100
AcDbBlockReference
  2
_Open30
 10
72.49202718701804
 20
48.77770338959253
 30
0.0
 41
1.25
 42
1.25
 43
1.25
 50
270.0
  0
MTEXT
  5
9F72
330
9E62
100
AcDbEntity
  8
mark
 62
     3
100
AcDbMText
 10
71.46702718701802
 20
55.22770338959254
 30
0.0
 40
1.25
 41
0.0
 71
     5
 72
     1
  1
\A1;12.9
 11
0.0000000000000001
 21
1.0
 31
0.0
 73
     1
 44
1.0
  0
POINT
  5
9F73
330
9E62
100
AcDbEntity
  8
DEFPOINTS
 62
     0
100
AcDbPoint
 10
66.9910567593748
 20
61.67770338959253
 30
0.0
  0
POINT
  5
9F74
330
9E62
100
AcDbEntity
  8
DEFPOINTS
 62
     0
100
AcDbPoint
 10
66.9910567593748
 20
48.77770338959253
 30
0.0
  0
POINT
  5
9F75
330
9E62
100
AcDbEntity
  8
DEFPOINTS
 62
     0
100
AcDbPoint
 10
72.49202718701804
 20
48.77770338959253
 30
0.0
  0
ENDBLK
  5
9E6D
330
9E62
100
AcDbEntity
  8
0
100
AcDbBlockEnd
  0
BLOCK
  5
9E7B
330
9E6F
100
AcDbEntity
  8
0
100
AcDbBlockBegin
  2
*D7
 70
     1
 10
0.0
 20
0.0
 30
0.0
  3
*D7
  1

  0
LINE
  5
9F76
330
9E6F
100
AcDbEntity
  8
mark
370
    -2
100
AcDbLine
 10
67.3910567593748
 20
48.77770338959253
 30
0.0
 11
72.89202718701805
 21
48.77770338959253
 31
0.0
  0
LINE
  5
9F77
330
9E6F
100
AcDbEntity
  8
mark
370
    -2
100
AcDbLine
 10
67.3910567593748
 20
46.77770338959253
 30
0.0
 11
72.89202718701805
 21
46.77770338959253
 31
0.0
  0
LINE
  5
9F78
330
9E6F
100
AcDbEntity
  8
mark
370
    -2
100
AcDbLine
 10
72.49202718701804
 20
50.02770338959253
 30
0.0
 11
72.49202718701804
 21
51.27770338959253
 31
0.0
  0
LINE
  5
9F79
330
9E6F
100
AcDbEntity
  8
mark
370
    -2
100
AcDbLine
 10
72.49202718701804
 20
45.52770338959253
 30
0.0
 11
72.49202718701804
 21
44.27770338959253
 31
0.0
  0
LINE
  5
9F7A
330
9E6F
100
AcDbEntity
  8
mark
370
    -2
100
AcDbLine
 10
72.49202718701804
 20
48.77770338959253
 30
0.0
 11
72.49202718701804
 21
46.77770338959253
 31
0.0
  0
INSERT
  5
9F7B
330
9E6F
100
AcDbEntity
  8
mark
370
    -2
100
AcDbBlockReference
  2
_Open30
 10
72.49202718701804
 20
48.77770338959253
 30
0.0
 41
1.25
 42
1.25
 43
1.25
 50
270.0
  0
INSERT
  5
9F7C
330
9E6F
100
AcDbEntity
  8
mark
370
    -2
100
AcDbBlockReference
  2
_Open30
 10
72.49202718701804
 20
46.77770338959253
 30
0.0
 41
1.25
 42
1.25
 43
1.25
 50
90.0
  0
MTEXT
  5
9F7D
330
9E6F
100
AcDbEntity
  8
mark
 62
     3
100
AcDbMText
 10
71.46702718701802
 20
47.77770338959253
 30
0.0
 40
1.25
 41
0.0
 71
     5
 72
     1
  1
\A1;2
 11
0.0000000000000001
 21
1.0
 31
0.0
 73
     1
 44
1.0
  0
POINT
  5
9F7E
330
9E6F
100
AcDbEntity
  8
DEFPOINTS
 62
     0
100
AcDbPoint
 10
66.9910567593748
 20
48.77770338959253
 30
0.0
  0
POINT
  5
9F7F
330
9E6F
100
AcDbEntity
  8
DEFPOINTS
 62
     0
100
AcDbPoint
 10
66.9910567593748
 20
46.77770338959253
 30
0.0
  0
POINT
  5
9F80
330
9E6F
100
AcDbEntity
  8
DEFPOINTS
 62
     0
100
AcDbPoint
 10
72.49202718701804
 20
46.77770338959253
 30
0.0
  0
ENDBLK
  5
9E7C
330
9E6F
100
AcDbEntity
  8
0
100
AcDbBlockEnd
  0
BLOCK
  5
9E88
330
9E7E
100
AcDbEntity
  8
0
100
AcDbBlockBegin
  2
*D8
 70
     1
 10
0.0
 20
0.0
 30
0.0
  3
*D8
  1

  0
LINE
  5
9F81
330
9E7E
100
AcDbEntity
  8
mark
370
    -2
100
AcDbLine
 10
67.3910567593748
 20
61.67770338959253
 30
0.0
 11
76.24472424825777
 21
61.67770338959253
 31
0.0
  0
LINE
  5
9F82
330
9E7E
100
AcDbEntity
  8
mark
370
    -2
100
AcDbLine
 10
67.39105675937508
 20
41.67770338959253
 30
0.0
 11
76.24472424825777
 21
41.67770338959253
 31
0.0
  0
LINE
  5
9F83
330
9E7E
100
AcDbEntity
  8
mark
370
    -2
100
AcDbLine
 10
75.84472424825776
 20
60.42770338959253
 30
0.0
 11
75.84472424825776
 21
42.92770338959253
 31
0.0
  0
INSERT
  5
9F84
330
9E7E
100
AcDbEntity
  8
mark
370
    -2
100
AcDbBlockReference
  2
_Open30
 10
75.84472424825776
 20
61.67770338959253
 30
0.0
 41
1.25
 42
1.25
 43
1.25
 50
90.0
  0
INSERT
  5
9F85
330
9E7E
100
AcDbEntity
  8
mark
370
    -2
100
AcDbBlockReference
  2
_Open30
 10
75.84472424825776
 20
41.67770338959253
 30
0.0
 41
1.25
 42
1.25
 43
1.25
 50
270.0
  0
MTEXT
  5
9F86
330
9E7E
100
AcDbEntity
  8
mark
 62
     3
100
AcDbMText
 10
74.81972424825774
 20
51.67770338959254
 30
0.0
 40
1.25
 41
0.0
 71
     5
 72
     1
  1
\A1;20%%P0.2
 11
0.0000000000000001
 21
1.0
 31
0.0
 73
     1
 44
1.0
  0
POINT
  5
9F87
330
9E7E
100
AcDbEntity
  8
DEFPOINTS
 62
     0
100
AcDbPoint
 10
66.9910567593748
 20
61.67770338959253
 30
0.0
  0
POINT
  5
9F88
330
9E7E
100
AcDbEntity
  8
DEFPOINTS
 62
     0
100
AcDbPoint
 10
66.99105675937508
 20
41.67770338959253
 30
0.0
  0
POINT
  5
9F89
330
9E7E
100
AcDbEntity
  8
DEFPOINTS
 62
     0
100
AcDbPoint
 10
75.84472424825776
 20
41.67770338959253
 30
0.0
  0
ENDBLK
  5
9E89
330
9E7E
100
AcDbEntity
  8
0
100
AcDbBlockEnd
  0
BLOCK
  5
9E95
330
9E8B
100
AcDbEntity
  8
0
100
AcDbBlockBegin
  2
*D9
 70
     1
 10
0.0
 20
0.0
 30
0.0
  3
*D9
  1

  0
LINE
  5
9F8A
330
9E8B
100
AcDbEntity
  8
mark
370
    -2
100
AcDbLine
 10
19.99105675937483
 20
61.07770338959253
 30
0.0
 11
19.99105675937483
 21
67.07402179561544
 31
0.0
  0
LINE
  5
9F8B
330
9E8B
100
AcDbEntity
  8
mark
370
    -2
100
AcDbLine
 10
67.9910567593748
 20
61.07770338959253
 30
0.0
 11
67.9910567593748
 21
67.07402179561544
 31
0.0
  0
LINE
  5
9F8C
330
9E8B
100
AcDbEntity
  8
mark
370
    -2
100
AcDbLine
 10
21.24105675937483
 20
66.67402179561543
 30
0.0
 11
66.7410567593748
 21
66.67402179561543
 31
0.0
  0
INSERT
  5
9F8D
330
9E8B
100
AcDbEntity
  8
mark
370
    -2
100
AcDbBlockReference
  2
_Open30
 10
19.99105675937483
 20
66.67402179561543
 30
0.0
 41
1.25
 42
1.25
 43
1.25
 50
180.0
  0
INSERT
  5
9F8E
330
9E8B
100
AcDbEntity
  8
mark
370
    -2
100
AcDbBlockReference
  2
_Open30
 10
67.9910567593748
 20
66.67402179561543
 30
0.0
 41
1.25
 42
1.25
 43
1.25
  0
MTEXT
  5
9F8F
330
9E8B
100
AcDbEntity
  8
mark
 62
     3
100
AcDbMText
 10
43.99105675937481
 20
67.69902179561544
 30
0.0
 40
1.25
 41
0.0
 71
     5
 72
     1
  1
\A1;%%C48
 73
     1
 44
1.0
  0
POINT
  5
9F90
330
9E8B
100
AcDbEntity
  8
DEFPOINTS
 62
     0
100
AcDbPoint
 10
19.99105675937483
 20
60.67770338959252
 30
0.0
  0
POINT
  5
9F91
330
9E8B
100
AcDbEntity
  8
DEFPOINTS
 62
     0
100
AcDbPoint
 10
67.9910567593748
 20
60.67770338959252
 30
0.0
  0
POINT
  5
9F92
330
9E8B
100
AcDbEntity
  8
DEFPOINTS
 62
     0
100
AcDbPoint
 10
67.9910567593748
 20
66.67402179561543
 30
0.0
  0
ENDBLK
  5
9E96
330
9E8B
100
AcDbEntity
  8
0
100
AcDbBlockEnd
  0
BLOCK
  5
A04D
330
A046
100
AcDbEntity
  8
0
100
AcDbBlockBegin
  2
*D10
 70
     1
 10
0.0
 20
0.0
 30
0.0
  3
*D10
  1

  0
LINE
  5
A04F
330
A046
100
AcDbEntity
  8
mark
370
    -2
100
AcDbLine
 10
16.58874169512749
 20
38.27538832534517
 30
0.0
 11
19.40006650170507
 21
41.0867131319228
 31
0.0
  0
MTEXT
  5
A050
330
A046
100
AcDbEntity
  8
mark
 62
     3
100
AcDbMText
 10
16.73605560787468
 20
39.87227113952478
 30
0.0
 40
1.25
 41
0.0
 71
     5
 72
     1
  1
\A1;R1
 11
0.7071067811865417
 21
0.7071067811865534
 31
0.0
 73
     1
 44
1.0
  0
LINE
  5
A051
330
A046
100
AcDbEntity
  8
mark
370
    -2
100
AcDbLine
 10
20.9910567593748
 20
42.67770338959254
 30
0.0
 11
20.28394997818825
 21
41.97059660840599
 31
0.0
  0
INSERT
  5
A052
330
A046
100
AcDbEntity
  8
mark
370
    -2
100
AcDbBlockReference
  2
_Open30
 10
20.28394997818825
 20
41.97059660840599
 30
0.0
 41
1.25
 42
1.25
 43
1.25
 50
45.00000000000047
  0
POINT
  5
A053
330
A046
100
AcDbEntity
  8
DEFPOINTS
 62
     0
100
AcDbPoint
 10
20.28394997818825
 20
41.97059660840599
 30
0.0
  0
POINT
  5
A054
330
A046
100
AcDbEntity
  8
DEFPOINTS
 62
     0
100
AcDbPoint
 10
20.9910567593748
 20
42.67770338959254
 30
0.0
  0
ENDBLK
  5
A04E
330
A046
100
AcDbEntity
  8
0
100
AcDbBlockEnd
  0
BLOCK
  5
A06C
330
A063
100
AcDbEntity
  8
0
100
AcDbBlockBegin
  2
*D11
 70
     1
 10
0.0
 20
0.0
 30
0.0
  3
*D11
  1

  0
LINE
  5
A07F
330
A063
100
AcDbEntity
  8
mark
370
    -2
100
AcDbLine
 10
76.50266564772621
 20
107.2627952430897
 30
0.0
 11
64.03246253137414
 21
103.9175459496897
 31
0.0
  0
LINE
  5
A080
330
A063
100
AcDbEntity
  8
mark
370
    -2
100
AcDbLine
 10
23.94965098737549
 20
93.16495469323943
 30
0.0
 11
22.74233738665264
 21
92.84108146262346
 31
0.0
  0
MTEXT
  5
A081
330
A063
100
AcDbEntity
  8
mark
 62
     3
100
AcDbMText
 10
72.02758951076744
 20
107.1235543982681
 30
0.0
 40
1.25
 41
0.0
 71
     5
 72
     1
  1
\A1;P.C.D 39
 11
0.9658508805782798
 21
0.2590985844927788
 31
0.0
 73
     1
 44
1.0
  0
LINE
  5
A082
330
A063
100
AcDbEntity
  8
mark
370
    -2
100
AcDbLine
 10
25.15696458809834
 20
93.48882792385539
 30
0.0
 11
62.82514893065127
 21
103.5936727190737
 31
0.0
  0
INSERT
  5
A083
330
A063
100
AcDbEntity
  8
mark
370
    -2
100
AcDbBlockReference
  2
_Open30
 10
25.15696458809834
 20
93.48882792385539
 30
0.0
 41
1.25
 42
1.25
 43
1.25
 50
15.01658206882886
  0
INSERT
  5
A084
330
A063
100
AcDbEntity
  8
mark
370
    -2
100
AcDbBlockReference
  2
_Open30
 10
62.82514893065127
 20
103.5936727190737
 30
0.0
 41
1.25
 42
1.25
 43
1.25
 50
195.0165820688288
  0
POINT
  5
A085
330
A063
100
AcDbEntity
  8
DEFPOINTS
 62
     0
100
AcDbPoint
 10
62.82514893065127
 20
103.5936727190737
 30
0.0
  0
POINT
  5
A086
330
A063
100
AcDbEntity
  8
DEFPOINTS
 62
     0
100
AcDbPoint
 10
25.15696458809834
 20
93.48882792385539
 30
0.0
  0
ENDBLK
  5
A06D
330
A063
100
AcDbEntity
  8
0
100
AcDbBlockEnd
  0
BLOCK
  5
A09A
330
A091
100
AcDbEntity
  8
0
100
AcDbBlockBegin
  2
*D12
 70
     1
 10
0.0
 20
0.0
 30
0.0
  3
*D12
  1

  0
LINE
  5
A092
330
A091
100
AcDbEntity
  8
mark
370
    -2
100
AcDbLine
 10
10.4108524518971
 20
109.648127166301
 30
0.0
 11
23.57864205647184
 21
105.2927928116449
 31
0.0
  0
LINE
  5
A093
330
A091
100
AcDbEntity
  8
mark
370
    -2
100
AcDbLine
 10
64.40347146227782
 20
91.78970783128427
 30
0.0
 11
65.59023975895823
 21
91.3971762911575
 31
0.0
  0
MTEXT
  5
A094
330
A091
100
AcDbEntity
  8
mark
 62
     3
100
AcDbMText
 10
15.5628752822903
 20
109.023673801263
 30
0.0
 40
1.25
 41
0.0
 71
     5
 72
     1
  1
\A1;P.C.D 40.5
 11
0.949414637344325
 21
-0.3140252321014091
 31
0.0
 73
     1
 44
1.0
  0
LINE
  5
A095
330
A091
100
AcDbEntity
  8
mark
370
    -2
100
AcDbLine
 10
63.21670316559742
 20
92.18223937141102
 30
0.0
 11
24.76541035315225
 21
104.9002612715181
 31
0.0
  0
INSERT
  5
A096
330
A091
100
AcDbEntity
  8
mark
370
    -2
100
AcDbBlockReference
  2
_Open30
 10
63.21670316559742
 20
92.18223937141102
 30
0.0
 41
1.25
 42
1.25
 43
1.25
 50
161.6980220197243
  0
INSERT
  5
A097
330
A091
100
AcDbEntity
  8
mark
370
    -2
100
AcDbBlockReference
  2
_Open30
 10
24.76541035315225
 20
104.9002612715181
 30
0.0
 41
1.25
 42
1.25
 43
1.25
 50
341.6980220197244
  0
POINT
  5
A098
330
A091
100
AcDbEntity
  8
DEFPOINTS
 62
     0
100
AcDbPoint
 10
24.76541035315225
 20
104.9002612715181
 30
0.0
  0
POINT
  5
A099
330
A091
100
AcDbEntity
  8
DEFPOINTS
 62
     0
100
AcDbPoint
 10
63.21670316559742
 20
92.18223937141102
 30
0.0
  0
ENDBLK
  5
A09B
330
A091
100
AcDbEntity
  8
0
100
AcDbBlockEnd
  0
ENDSEC
  0
SECTION
  2
ENTITIES
  0
MTEXT
  5
C0
330
18
100
AcDbEntity
  8
0
100
AcDbMText
 10
41.26970765600413
 20
233.6950877649332
 30
0.0
 40
2.5
 41
0.0
 71
     1
 72
     5
  1

  7
ISOCP3
 73
     1
 44
1.0
  0
LWPOLYLINE
  5
7D6C
330
18
100
AcDbEntity
  8
frame
100
AcDbPolyline
 90
        4
 70
     1
 43
0.0
 10
95.0
 20
140.0
 10
0.0
 20
140.0
 10
0.0
 20
0.0
 10
95.0
 20
0.0
  0
MTEXT
  5
7D6D
330
18
100
AcDbEntity
  8
0
100
AcDbMText
 10
8.549751843445875
 20
9.53802950808307
 30
0.0
 40
2.25
 41
0.0
 71
     1
 72
     5
  1
{\Ftxt,bigfont|c128;林彦旭}
  7
JL
 73
     1
 44
1.0
1001
ACAD
1000
ACAD_MTEXT_DEFINED_HEIGHT_BEGIN
1070
    46
1040
0.0
1000
ACAD_MTEXT_DEFINED_HEIGHT_END
  0
MTEXT
  5
7D6E
330
18
100
AcDbEntity
  8
0
100
AcDbMText
 10
38.97647364614426
 20
14.46789489935338
 30
0.0
 40
2.25
 41
0.0
 71
     1
 72
     5
  1
{\Ftxt,bigfont|c128;2 : 1}
  7
JL
 73
     1
 44
1.0
1001
ACAD
1000
ACAD_MTEXT_DEFINED_HEIGHT_BEGIN
1070
    46
1040
0.0
1000
ACAD_MTEXT_DEFINED_HEIGHT_END
  0
MTEXT
  5
7D6F
330
18
100
AcDbEntity
  8
0
 48
2.0
370
    25
100
AcDbMText
 10
70.1097250232828
 20
1.745010827316946
 30
0.0
 40
2.25
 41
0.0
 71
     5
 72
     1
  1
{\Ftxt,bigfont|c128;N L 4 0 2 7 0}
 73
     1
 44
1.0
1001
ACAD
1000
ACAD_MTEXT_DEFINED_HEIGHT_BEGIN
1070
    46
1040
0.0
1000
ACAD_MTEXT_DEFINED_HEIGHT_END
  0
MTEXT
  5
7D70
330
18
100
AcDbEntity
  8
0
 48
2.0
100
AcDbMText
 10
85.46644998221655
 20
10.88218563911846
 30
0.0
 40
2.159090909090911
 41
0.0
 71
     5
 72
     1
  1
\P{\Ftxt,bigfont|c128;MKR30X1.5P}
 73
     1
 44
1.0
1001
ACAD
1000
ACAD_MTEXT_DEFINED_HEIGHT_BEGIN
1070
    46
1040
0.0
1000
ACAD_MTEXT_DEFINED_HEIGHT_END
  0
MTEXT
  5
7D71
330
18
100
AcDbEntity
  8
0
100
AcDbMText
 10
7.6880338568387
 20
14.18870179917354
 30
0.0
 40
2.25
 41
0.0
 71
     1
 72
     5
  1
{\Ftxt,bigfont|c128;06.07.05}
  7
JL
 73
     1
 44
1.0
1001
ACAD
1000
ACAD_MTEXT_DEFINED_HEIGHT_BEGIN
1070
    46
1040
0.0
1000
ACAD_MTEXT_DEFINED_HEIGHT_END
  0
LINE
  5
7D72
330
18
100
AcDbEntity
  8
0
 62
     7
 48
5.0
100
AcDbLine
 39
1.919191919191921
 10
23.96471206996267
 20
13.82856453508043
 30
0.0
 11
26.52290072143927
 21
14.46811169794961
 31
0.0
  0
MTEXT
  5
7D73
330
18
100
AcDbEntity
  8
0
100
AcDbMText
 10
7.456177741632075
 20
4.621097525024651
 30
0.0
 40
3.0
 41
0.0
 71
     1
 72
     5
  1
\Ftxt.shx,bigfont.shx|c128;日機株式会社
  7
LKK
 73
     1
 44
1.0
  0
LINE
  5
7D74
330
18
100
AcDbEntity
  8
frame
100
AcDbLine
 10
0.0
 20
6.0
 30
0.0
 11
95.0
 21
6.000000000000028
 31
0.0
  0
LINE
  5
7D75
330
18
100
AcDbEntity
  8
frame
100
AcDbLine
 10
0.0
 20
11.0
 30
0.0
 11
46.06060606060611
 21
11.0
 31
0.0
  0
LINE
  5
7D76
330
18
100
AcDbEntity
  8
frame
100
AcDbLine
 10
0.0
 20
16.0
 30
0.0
 11
95.0
 21
16.0
 31
0.0
  0
LINE
  5
7D77
330
18
100
AcDbEntity
  8
frame
100
AcDbLine
 10
6.095386662468996
 20
16.0
 30
0.0
 11
6.095386662468996
 21
6.0
 31
0.0
  0
LINE
  5
7D78
330
18
100
AcDbEntity
  8
frame
100
AcDbLine
 10
15.35353535353533
 20
16.0
 30
0.0
 11
15.35353535353539
 21
6.0
 31
0.0
  0
MTEXT
  5
7D79
330
18
100
AcDbEntity
  8
0
100
AcDbMText
 10
1.415137392110977
 20
14.54095044791415
 30
0.0
 40
2.25
 41
0.0
 71
     1
 72
     5
  1
\Ftxt.shx,bigfont.shx|c128;日 付
  7
JL
 73
     1
 44
1.0
  0
MTEXT
  5
7D7A
330
18
100
AcDbEntity
  8
0
100
AcDbMText
 10
1.485316538719445
 20
9.760819214633187
 30
0.0
 40
2.25
 41
0.0
 71
     1
 72
     5
  1
\Ftxt.shx,bigfont.shx|c128;製 図
  7
JL
 73
     1
 44
1.0
  0
LINE
  5
7D7B
330
18
100
AcDbEntity
  8
0
 62
     7
370
    25
100
AcDbLine
 10
26.52290072143927
 20
11.90992304647298
 30
0.0
 11
26.52290072143927
 21
14.46811169794961
 31
0.0
  0
MTEXT
  5
7D7C
330
18
100
AcDbEntity
  8
0
100
AcDbMText
 10
32.00374426245418
 20
14.56121351896189
 30
0.0
 40
2.25
 41
0.0
 71
     1
 72
     5
  1
\Ftxt.shx,bigfont.shx|c128;尺 度
  7
JL
 73
     1
 44
1.0
  0
LINE
  5
7D7D
330
18
100
AcDbEntity
  8
frame
100
AcDbLine
 10
30.70707070707073
 20
16.0
 30
0.0
 11
30.70707070707073
 21
6.0
 31
0.0
  0
LINE
  5
7D7E
330
18
100
AcDbEntity
  8
0
 62
     7
370
    25
100
AcDbLine
 10
19.8076555113131
 20
11.59444509166317
 30
0.0
 11
19.8076555113131
 21
14.68228996214836
 31
0.0
  0
CIRCLE
  5
7D7F
330
18
100
AcDbEntity
  8
0
 62
     7
100
AcDbCircle
 10
19.8076555113131
 20
13.18901737221125
 30
0.0
 40
1.279094325738339
  0
LINE
  5
7D80
330
18
100
AcDbEntity
  8
0
 62
     7
370
    25
100
AcDbLine
 10
23.59660993459988
 20
13.18901737221131
 30
0.0
 11
26.75256290812121
 21
13.18901737221131
 31
0.0
  0
LINE
  5
7D81
330
18
100
AcDbEntity
  8
0
 62
     7
100
AcDbLine
 10
23.96471206996267
 20
12.54947020934213
 30
0.0
 11
26.52290072143927
 21
11.90992304647298
 31
0.0
  0
LINE
  5
7D82
330
18
100
AcDbEntity
  8
frame
100
AcDbLine
 10
21.3711209799755
 20
11.0
 30
0.0
 11
21.3711209799755
 21
6.0
 31
0.0
  0
LINE
  5
7D83
330
18
100
AcDbEntity
  8
0
 62
     7
370
    25
100
AcDbLine
 10
18.20916114243306
 20
13.18901737221125
 30
0.0
 11
21.50162633809634
 21
13.18901737221131
 31
0.0
  0
CIRCLE
  5
7D84
330
18
100
AcDbEntity
  8
0
 62
     7
100
AcDbCircle
 10
19.8076555113131
 20
13.18901737221125
 30
0.0
 40
0.6395471628691697
  0
MTEXT
  5
7D85
330
18
100
AcDbEntity
  8
0
100
AcDbMText
 10
16.85092016231203
 20
9.705069078926328
 30
0.0
 40
2.25
 41
0.0
 71
     1
 72
     5
  1
\Ftxt.shx,bigfont.shx|c128;検 図
  7
JL
 73
     1
 44
1.0
  0
LINE
  5
7D86
330
18
100
AcDbEntity
  8
0
 62
     7
370
    25
100
AcDbLine
 10
23.96471206996267
 20
12.54947020934213
 30
0.0
 11
23.96471206996267
 21
13.82856453508043
 31
0.0
  0
MTEXT
  5
7D87
330
18
100
AcDbEntity
  8
0
100
AcDbMText
 10
32.14410124959915
 20
9.660292673744407
 30
0.0
 40
2.25
 41
0.0
 71
     1
 72
     5
  1
\Ftxt.shx,bigfont.shx|c128;承 認
  7
JL
 73
     1
 44
1.0
  0
MTEXT
  5
7D88
330
18
100
AcDbEntity
  8
0
100
AcDbMText
 10
46.85564357803349
 20
5.351341098095701
 30
0.0
 40
2.25
 41
0.0
 71
     1
 72
     5
  1
\Ftxt.shx,bigfont.shx|c128;図  面  番  号
  7
JL
 73
     1
 44
1.0
  0
MTEXT
  5
7D89
330
18
100
AcDbEntity
  8
0
 48
2.0
100
AcDbMText
 10
58.45190950106922
 20
10.9378736574792
 30
0.0
 40
2.25
 41
0.0
 71
     5
 72
     1
  1
\P\Ftxt.shx,bigfont.shx|c128;    精密ロックナット
 73
     1
 44
1.0
  0
MTEXT
  5
7D8A
330
18
100
AcDbEntity
  8
0
100
AcDbMText
 10
47.4041806515616
 20
14.51931228986637
 30
0.0
 40
2.25
 41
0.0
 71
     1
 72
     5
  1
\Ftxt.shx,bigfont.shx|c128;品  名
  7
JL
 73
     1
 44
1.0
  0
LINE
  5
7D8B
330
18
100
AcDbEntity
  8
frame
100
AcDbLine
 10
46.06060606060611
 20
16.0
 30
0.0
 11
46.06060606060611
 21
0.0916613789792393
 31
0.0
  0
LINE
  5
7D8C
330
18
100
AcDbEntity
  8
frame
100
AcDbLine
 10
36.70707070707073
 20
16.0
 30
0.0
 11
36.70707070707073
 21
6.0
 31
0.0
  0
LINE
  5
7D8D
330
18
100
AcDbEntity
  8
frame
100
AcDbLine
 10
73.51635463703281
 20
16.0
 30
0.0
 11
73.51635463703286
 21
6.0
 31
0.0
  0
MTEXT
  5
7D8E
330
18
100
AcDbEntity
  8
0
100
AcDbMText
 10
75.44797972338654
 20
14.52258891415195
 30
0.0
 40
2.25
 41
0.0
 71
     1
 72
     5
  1
\Ftxt.shx,bigfont.shx|c128;型  番
  7
JL
 73
     1
 44
1.0
  0
MTEXT
  5
7D8F
330
18
100
AcDbEntity
  8
0
100
AcDbMText
 10
82.90298074051628
 20
5.391490874857822
 30
0.0
 40
2.25
 41
0.0
 71
     1
 72
     5
  1
\Ftxt.shx,bigfont.shx|c128;変更
  7
JL
 73
     1
 44
1.0
  0
LINE
  5
7D90
330
18
100
AcDbEntity
  8
frame
100
AcDbLine
 10
82.04545454545462
 20
6.000000000000028
 30
0.0
 11
82.04545454545467
 21
0.0
 31
0.0
  0
LINE
  5
7D91
330
18
100
AcDbEntity
  8
frame
100
AcDbLine
 10
62.30789503931965
 20
21.56745674462246
 30
0.0
 11
92.30789503931964
 21
21.56745674462241
 31
0.0
  0
LINE
  5
7D92
330
18
100
AcDbEntity
  8
frame
100
AcDbLine
 10
62.30789503931965
 20
25.16745674462248
 30
0.0
 11
92.30789503931964
 21
25.16745674462248
 31
0.0
  0
LINE
  5
7D93
330
18
100
AcDbEntity
  8
frame
100
AcDbLine
 10
62.30789503931965
 20
28.76745674462245
 30
0.0
 11
92.30789503931964
 21
28.7674567446224
 31
0.0
  0
LINE
  5
7D94
330
18
100
AcDbEntity
  8
frame
100
AcDbLine
 10
62.30789503931965
 20
32.36745674462247
 30
0.0
 11
92.30789503931964
 21
32.36745674462242
 31
0.0
  0
LINE
  5
7D95
330
18
100
AcDbEntity
  8
frame
100
AcDbLine
 10
62.30789503931965
 20
17.96745674462244
 30
0.0
 11
92.30789503931964
 21
17.96745674462244
 31
0.0
  0
MTEXT
  5
7D96
330
18
100
AcDbEntity
  8
0
 62
     7
 48
2.0
100
AcDbMText
 10
77.25059502225531
 20
32.76404094991455
 30
0.0
 40
2.4
 41
0.0
 71
     5
 72
     1
  1
\P\Ftxt.shx,bigfont.shx|c128;諸　　　　元
 73
     1
 44
1.0
  0
LINE
  5
7D97
330
18
100
AcDbEntity
  8
frame
100
AcDbLine
 10
62.30789503931965
 20
32.36745674462242
 30
0.0
 11
62.30789503931965
 21
17.96745674462244
 31
0.0
  0
MTEXT
  5
7D98
330
18
100
AcDbEntity
  8
0
100
AcDbMText
 10
64.06911294615975
 20
28.00420216106204
 30
0.0
 40
2.2
 41
81.95814342112454
 71
     1
 72
     5
  1
\Ftxt.shx,bigfont.shx|c128;熱　処　理
  7
JL
 73
     1
 44
1.0
  0
LINE
  5
7D99
330
18
100
AcDbEntity
  8
frame
100
AcDbLine
 10
74.30789503931965
 20
28.7674567446224
 30
0.0
 11
74.30789503931965
 21
17.96745674462244
 31
0.0
  0
MTEXT
  5
7D9A
330
18
100
AcDbEntity
  8
0
100
AcDbMText
 10
63.92897576247015
 20
24.50308793743199
 30
0.0
 40
2.2
 41
81.80293144248363
 71
     1
 72
     5
  1
\Ftxt.shx,bigfont.shx|c128;表 面 処 理
  7
JL
 73
     1
 44
1.0
  0
MTEXT
  5
7D9B
330
18
100
AcDbEntity
  8
0
100
AcDbMText
 10
64.07400868668765
 20
20.85885151062803
 30
0.0
 40
2.2
 41
83.0859
 71
     1
 72
     5
  1
\Ftxt.shx,bigfont.shx|c128;等     　級
  7
JL
 73
     1
 44
1.0
  0
LINE
  5
7D9C
330
18
100
AcDbEntity
  8
frame
100
AcDbLine
 10
92.30789503931964
 20
32.36745674462242
 30
0.0
 11
92.30789503931964
 21
17.96745674462249
 31
0.0
  0
MTEXT
  5
7D9D
330
18
100
AcDbEntity
  8
0
100
AcDbMText
 10
76.68139669404093
 20
27.91672320735723
 30
0.0
 40
2.2
 41
145.9480028428943
 71
     1
 72
     5
  1
\Ftxt.shx,bigfont.shx|c128;調質　HRC30%%d%%p２%%d
  7
JL
 73
     1
 44
1.0
  0
MTEXT
  5
7D9E
330
18
100
AcDbEntity
  8
0
100
AcDbMText
 10
76.81171619475913
 20
20.8591567963536
 30
0.0
 40
2.2
 41
145.3916823984455
 71
     1
 72
     5
  1
\Ftxt.shx,bigfont.shx|c128;ＩＳＯ - ４Ｈ
  7
JL
 73
     1
 44
1.0
  0
MTEXT
  5
7D9F
330
18
100
AcDbEntity
  8
0
100
AcDbMText
 10
76.89894679382428
 20
24.32664146895457
 30
0.0
 40
2.2
 41
145.7274
 71
     1
 72
     5
  1
\Ftxt.shx,bigfont.shx|c128;黒  　    染
  7
JL
 73
     1
 44
1.0
  0
MTEXT
  5
7DA0
330
18
100
AcDbEntity
  8
0
100
AcDbMText
 10
28.81819530667213
 20
130.4500291639737
 30
0.0
 40
2.5
 41
0.0
 71
     1
 72
     5
  1
{\Ftxt,bigfont|c128;M4X0.7P-12L}
  7
JL
 73
     1
 44
1.0
1001
ACAD
1000
ACAD_MTEXT_DEFINED_HEIGHT_BEGIN
1070
    46
1040
0.0
1000
ACAD_MTEXT_DEFINED_HEIGHT_END
  0
LINE
  5
7DA2
330
18
100
AcDbEntity
  8
frame
100
AcDbLine
 10
0.0
 20
127.0
 30
0.0
 11
95.0
 21
127.0
 31
0.0
  0
LINE
  5
7DA3
330
18
100
AcDbEntity
  8
frame
100
AcDbLine
 10
0.0
 20
131.0
 30
0.0
 11
95.0
 21
131.0
 31
0.0
  0
LINE
  5
7DA4
330
18
100
AcDbEntity
  8
frame
 62
     9
100
AcDbLine
 10
0.0
 20
135.0
 30
0.0
 11
95.0
 21
135.0
 31
0.0
  0
MTEXT
  5
7DA5
330
18
100
AcDbEntity
  8
0
100
AcDbMText
 10
28.50782195301855
 20
138.712028002452
 30
0.0
 40
2.5
 41
0.0
 71
     1
 72
     5
  1
\Ftxt.shx,bigfont.shx|c128;図    番 / 規　　格
  7
JL
 73
     1
 44
1.0
  0
LINE
  5
7DA6
330
18
100
AcDbEntity
  8
frame
100
AcDbLine
 10
0.0
 20
127.0
 30
0.0
 11
95.0
 21
127.0
 31
0.0
  0
MTEXT
  5
7DA8
330
18
100
AcDbEntity
  8
0
100
AcDbMText
 10
10.56244024461716
 20
138.7318990693371
 30
0.0
 40
2.5
 41
0.0
 71
     1
 72
     5
  1
\Ftxt.shx,bigfont.shx|c128;品　          名
  7
JL
 73
     1
 44
1.0
  0
MTEXT
  5
7DA9
330
18
100
AcDbEntity
  8
0
100
AcDbMText
 10
9.051406935550659
 20
130.3953618644555
 30
0.0
 40
2.5
 41
0.0
 71
     1
 72
     5
  1
\Ftxt.shx,bigfont.shx|c128;セットスクリュ-
  7
JL
 73
     1
 44
1.0
  0
MTEXT
  5
7DAA
330
18
100
AcDbEntity
  8
0
100
AcDbMText
 10
8.957547404315789
 20
134.4180615141482
 30
0.0
 40
2.5
 41
0.0
 71
     1
 72
     5
  1
\Ftxt.shx,bigfont.shx|c128;ロックナット　  
  7
JL
 73
     1
 44
1.0
  0
LINE
  5
7DAC
330
18
100
AcDbEntity
  8
frame
 62
     9
100
AcDbLine
 10
7.196969696969688
 20
139.9999999999999
 30
0.0
 11
7.196969696969818
 21
127.0
 31
0.0
  0
LINE
  5
7DAD
330
18
100
AcDbEntity
  8
frame
 62
     9
100
AcDbLine
 10
7.196969696969688
 20
139.9999999999999
 30
0.0
 11
7.196969696969688
 21
127.5252525252525
 31
0.0
  0
MTEXT
  5
7DAE
330
18
100
AcDbEntity
  8
0
100
AcDbMText
 10
3.407504634006897
 20
134.364083721706
 30
0.0
 40
2.5
 41
0.0
 71
     1
 72
     5
  1
\Ftxt.shx,bigfont.shx|c128;1
  7
JL
 73
     1
 44
1.0
  0
MTEXT
  5
7DAF
330
18
100
AcDbEntity
  8
0
100
AcDbMText
 10
1.059914036490113
 20
138.7367391319745
 30
0.0
 40
2.5
 41
0.0
 71
     1
 72
     5
  1
\Ftxt.shx,bigfont.shx|c128;照   号
  7
JL
 73
     1
 44
1.0
  0
LINE
  5
7DB0
330
18
100
AcDbEntity
  8
frame
 62
     9
100
AcDbLine
 10
26.38888888888891
 20
139.9999999999999
 30
0.0
 11
26.38888888888892
 21
127.0
 31
0.0
  0
MTEXT
  5
7DB1
330
18
100
AcDbEntity
  8
0
100
AcDbMText
 10
72.78681871864256
 20
138.8390831947097
 30
0.0
 40
2.5
 41
0.0
 71
     1
 72
     5
  1
\Ftxt.shx,bigfont.shx|c128;備           考
  7
JL
 73
     1
 44
1.0
  0
LINE
  5
7DB2
330
18
100
AcDbEntity
  8
frame
 62
     9
100
AcDbLine
 10
45.58080808080808
 20
140.0
 30
0.0
 11
45.58080808080808
 21
127.0
 31
0.0
  0
MTEXT
  5
7DB4
330
18
100
AcDbEntity
  8
0
100
AcDbMText
 10
46.43670544589684
 20
134.4180615141482
 30
0.0
 40
2.5
 41
0.0
 71
     1
 72
     5
  1
\Ftxt.shx,bigfont.shx|c128;SCM-440
  7
JL
 73
     1
 44
1.0
  0
MTEXT
  5
7DB5
330
18
100
AcDbEntity
  8
0
100
AcDbMText
 10
46.43670544589684
 20
130.382501006292
 30
0.0
 40
2.5
 41
0.0
 71
     1
 72
     5
  1
\Ftxt.shx,bigfont.shx|c128;SCM435
  7
JL
 73
     1
 44
1.0
  0
MTEXT
  5
7DB6
330
18
100
AcDbEntity
  8
0
100
AcDbMText
 10
47.88399431552096
 20
138.7822749741459
 30
0.0
 40
2.5
 41
0.0
 71
     1
 72
     5
  1
\Ftxt.shx,bigfont.shx|c128;材　質
  7
JL
 73
     1
 44
1.0
  0
LINE
  5
7DB7
330
18
100
AcDbEntity
  8
frame
 62
     9
100
AcDbLine
 10
55.17676767676772
 20
140.0
 30
0.0
 11
55.17676767676773
 21
127.0
 31
0.0
  0
LINE
  5
7DB8
330
18
100
AcDbEntity
  8
frame
100
AcDbLine
 10
62.37373737373736
 20
140.0
 30
0.0
 11
62.37373737373741
 21
127.0
 31
0.0
  0
MTEXT
  5
7DBA
330
18
100
AcDbEntity
  8
0
100
AcDbMText
 10
58.58427231077456
 20
134.5206355839966
 30
0.0
 40
2.5
 41
0.0
 71
     1
 72
     5
  1
\Ftxt.shx,bigfont.shx|c128;1
  7
JL
 73
     1
 44
1.0
  0
MTEXT
  5
7DBB
330
18
100
AcDbEntity
  8
0
100
AcDbMText
 10
58.29695351334419
 20
130.2546145075339
 30
0.0
 40
2.5
 41
0.0
 71
     1
 72
     5
  1
{\Ftxt,bigfont|c128;4}
  7
JL
 73
     1
 44
1.0
1001
ACAD
1000
ACAD_MTEXT_DEFINED_HEIGHT_BEGIN
1070
    46
1040
0.0
1000
ACAD_MTEXT_DEFINED_HEIGHT_END
  0
MTEXT
  5
7DBC
330
18
100
AcDbEntity
  8
0
100
AcDbMText
 10
56.21119479596313
 20
138.7822749741459
 30
0.0
 40
2.5
 41
0.0
 71
     1
 72
     5
  1
\Ftxt.shx,bigfont.shx|c128;数   量
  7
JL
 73
     1
 44
1.0
  0
MTEXT
  5
7DBD
330
18
100
AcDbEntity
  8
0
100
AcDbMText
 10
3.202009849527996
 20
130.364083721706
 30
0.0
 40
2.5
 41
0.0
 71
     1
 72
     5
  1
{\Ftxt,bigfont|c128;2}
  7
JL
 73
     1
 44
1.0
1001
ACAD
1000
ACAD_MTEXT_DEFINED_HEIGHT_BEGIN
1070
    46
1040
0.0
1000
ACAD_MTEXT_DEFINED_HEIGHT_END
  0
CIRCLE
  5
9A9B
330
18
100
AcDbEntity
  8
contour
100
AcDbCircle
 10
43.99105675937479
 20
98.54125032146459
 30
0.0
 40
24.0
  0
CIRCLE
  5
9A9D
330
18
100
AcDbEntity
  8
center
 48
0.2
100
AcDbCircle
 10
43.99105675937479
 20
98.54125032146459
 30
0.0
 40
19.5
  0
ARC
  5
9AA0
330
18
100
AcDbEntity
  8
contour
 62
     4
100
AcDbCircle
 10
63.49105675937479
 20
98.54125032146459
 30
0.0
 40
2.000000000000028
100
AcDbArc
 50
165.5224878140701
 51
104.477512185929
  0
CIRCLE
  5
9AA1
330
18
100
AcDbEntity
  8
contour
100
AcDbCircle
 10
63.49105675937479
 20
98.54125032146459
 30
0.0
 40
1.620999999999952
  0
CIRCLE
  5
9AA2
330
18
100
AcDbEntity
  8
bowle
 48
0.2
100
AcDbCircle
 10
63.49105675937479
 20
98.54125032146459
 30
0.0
 40
3.5
  0
CIRCLE
  5
9AA9
330
18
100
AcDbEntity
  8
contour
100
AcDbCircle
 10
43.99105675937483
 20
118.0412503214646
 30
0.0
 40
1.620999999999952
  0
CIRCLE
  5
9AAA
330
18
100
AcDbEntity
  8
bowle
 48
0.2
100
AcDbCircle
 10
43.99105675937483
 20
118.0412503214646
 30
0.0
 40
3.5
  0
CIRCLE
  5
9AAC
330
18
100
AcDbEntity
  8
contour
100
AcDbCircle
 10
24.49105675937477
 20
98.54125032146468
 30
0.0
 40
1.620999999999952
  0
CIRCLE
  5
9AAD
330
18
100
AcDbEntity
  8
bowle
 48
0.2
100
AcDbCircle
 10
24.49105675937477
 20
98.54125032146468
 30
0.0
 40
3.5
  0
CIRCLE
  5
9AAF
330
18
100
AcDbEntity
  8
contour
100
AcDbCircle
 10
43.99105675937474
 20
79.04125032146462
 30
0.0
 40
1.620999999999952
  0
CIRCLE
  5
9AB0
330
18
100
AcDbEntity
  8
bowle
 48
0.2
100
AcDbCircle
 10
43.99105675937474
 20
79.04125032146462
 30
0.0
 40
3.5
  0
ARC
  5
9AB1
330
18
100
AcDbEntity
  8
contour
 62
     4
100
AcDbCircle
 10
43.99105675937483
 20
118.0412503214646
 30
0.0
 40
2.000000000000028
100
AcDbArc
 50
165.5224878140701
 51
104.4775121859299
  0
ARC
  5
9AB2
330
18
100
AcDbEntity
  8
contour
 62
     4
100
AcDbCircle
 10
43.99105675937474
 20
79.04125032146462
 30
0.0
 40
2.000000000000028
100
AcDbArc
 50
165.5224878140701
 51
104.4775121859299
  0
ARC
  5
9AB3
330
18
100
AcDbEntity
  8
contour
 62
     4
100
AcDbCircle
 10
24.4910567593748
 20
98.54125032146459
 30
0.0
 40
2.000000000000028
100
AcDbArc
 50
165.5224878140701
 51
104.477512185929
  0
ARC
  5
9AB4
330
18
100
AcDbEntity
  8
contour
 62
     4
100
AcDbCircle
 10
43.99105675937479
 20
98.54125032146459
 30
0.0
 40
15.0
100
AcDbArc
 50
172.3377443392343
 51
97.6622556607656
  0
CIRCLE
  5
9AB5
330
18
100
AcDbEntity
  8
contour
100
AcDbCircle
 10
43.99105675937479
 20
98.54125032146459
 30
0.0
 40
14.188
  0
LINE
  5
9AB6
330
18
100
AcDbEntity
  8
center
 48
0.2
100
AcDbLine
 10
43.99105675937483
 20
123.5412503214646
 30
0.0
 11
43.99105675937479
 21
73.54125032146459
 31
0.0
  0
LINE
  5
9AB7
330
18
100
AcDbEntity
  8
center
 48
0.2
100
AcDbLine
 10
18.99105675937477
 20
98.54125032146463
 30
0.0
 11
68.99105675937483
 21
98.54125032146459
 31
0.0
  0
CIRCLE
  5
9AC0
330
18
100
AcDbEntity
  8
bowle
 48
0.2
100
AcDbCircle
 10
58.30996907840239
 20
84.222338002437
 30
0.0
 40
2.149999999999999
  0
LINE
  5
9AC2
330
18
100
AcDbEntity
  8
center
 48
0.1
100
AcDbLine
 10
61.66872628903849
 20
80.86358079180092
 30
0.0
 11
53.316380989663
 21
89.21592609117642
 31
0.0
  0
LINE
  5
9AC3
330
18
100
AcDbEntity
  8
bowle
 48
0.2
100
AcDbLine
 10
56.71897882073267
 20
85.81332826010674
 30
0.0
 11
59.50736649985867
 21
86.56047448691344
 31
0.0
  0
LINE
  5
9AC4
330
18
100
AcDbEntity
  8
bowle
 48
0.2
100
AcDbLine
 10
56.71897882073267
 20
85.81332826010674
 30
0.0
 11
55.97183259392597
 21
83.02494058098067
 31
0.0
  0
LINE
  5
9AC5
330
18
100
AcDbEntity
  8
bowle
 48
0.2
100
AcDbLine
 10
62.37583307022504
 20
83.69200791654709
 30
0.0
 11
59.50736649985865
 21
86.56047448691348
 31
0.0
  0
LINE
  5
9AC6
330
18
100
AcDbEntity
  8
bowle
 48
0.2
100
AcDbLine
 10
58.84029916429233
 20
80.15647401061437
 30
0.0
 11
55.971832593926
 21
83.02494058098067
 31
0.0
  0
LINE
  5
9AC7
330
18
100
AcDbEntity
  8
bowle
 48
0.2
100
AcDbLine
 10
59.50736649985867
 20
86.56047448691344
 30
0.0
 11
55.97183259392597
 21
83.02494058098067
 31
0.0
  0
LINE
  5
9AC9
330
18
100
AcDbEntity
  8
bowle
 48
0.2
100
AcDbLine
 10
62.37583307022504
 20
83.69200791654709
 30
0.0
 11
58.84029916429231
 21
80.15647401061434
 31
0.0
  0
LINE
  5
9ACA
330
18
100
AcDbEntity
  8
bowle
 48
0.2
100
AcDbLine
 10
58.84029916429231
 20
80.15647401061434
 30
0.0
 11
58.84029916429227
 21
79.68654268649979
 31
0.0
  0
LINE
  5
9ACB
330
18
100
AcDbEntity
  8
bowle
 48
0.2
100
AcDbLine
 10
62.37583307022504
 20
83.69200791654709
 30
0.0
 11
62.84576439433957
 21
83.6920079165471
 31
0.0
  0
CIRCLE
  5
9AF9
330
18
100
AcDbEntity
  8
bowle
 48
0.2
100
AcDbCircle
 10
58.30996907840239
 20
84.222338002437
 30
0.0
 40
2.650000000000034
  0
CIRCLE
  5
9AFD
330
18
100
AcDbEntity
  8
bowle
 48
0.2
100
AcDbCircle
 10
58.30996907840241
 20
112.8601626404922
 30
0.0
 40
2.149999999999999
  0
LINE
  5
9AFE
330
18
100
AcDbEntity
  8
center
 48
0.1
100
AcDbLine
 10
61.66872628903852
 20
116.2189198511283
 30
0.0
 11
53.316380989663
 21
107.8665745517527
 31
0.0
  0
LINE
  5
9AFF
330
18
100
AcDbEntity
  8
bowle
 48
0.2
100
AcDbLine
 10
56.71897882073267
 20
111.2691723828224
 30
0.0
 11
55.97183259392597
 21
114.0575600619485
 31
0.0
  0
LINE
  5
9B00
330
18
100
AcDbEntity
  8
bowle
 48
0.2
100
AcDbLine
 10
56.71897882073267
 20
111.2691723828224
 30
0.0
 11
59.50736649985874
 21
110.5220261560157
 31
0.0
  0
LINE
  5
9B01
330
18
100
AcDbEntity
  8
bowle
 48
0.2
100
AcDbLine
 10
58.84029916429233
 20
116.9260266323148
 30
0.0
 11
55.97183259392593
 21
114.0575600619484
 31
0.0
  0
LINE
  5
9B02
330
18
100
AcDbEntity
  8
bowle
 48
0.2
100
AcDbLine
 10
62.37583307022504
 20
113.3904927263821
 30
0.0
 11
59.50736649985876
 21
110.5220261560158
 31
0.0
  0
LINE
  5
9B03
330
18
100
AcDbEntity
  8
bowle
 48
0.2
100
AcDbLine
 10
55.97183259392597
 20
114.0575600619485
 30
0.0
 11
59.50736649985874
 21
110.5220261560157
 31
0.0
  0
LINE
  5
9B04
330
18
100
AcDbEntity
  8
bowle
 48
0.2
100
AcDbLine
 10
58.84029916429233
 20
116.9260266323148
 30
0.0
 11
62.37583307022507
 21
113.3904927263821
 31
0.0
  0
LINE
  5
9B05
330
18
100
AcDbEntity
  8
bowle
 48
0.2
100
AcDbLine
 10
62.37583307022507
 20
113.3904927263821
 30
0.0
 11
62.84576439433966
 21
113.390492726382
 31
0.0
  0
LINE
  5
9B06
330
18
100
AcDbEntity
  8
bowle
 48
0.2
100
AcDbLine
 10
58.84029916429233
 20
116.9260266323148
 30
0.0
 11
58.84029916429233
 21
117.3959579564294
 31
0.0
  0
CIRCLE
  5
9B07
330
18
100
AcDbEntity
  8
bowle
 48
0.2
100
AcDbCircle
 10
58.30996907840241
 20
112.8601626404922
 30
0.0
 40
2.650000000000034
  0
CIRCLE
  5
9B09
330
18
100
AcDbEntity
  8
bowle
 48
0.2
100
AcDbCircle
 10
29.67214444034724
 20
112.8601626404922
 30
0.0
 40
2.149999999999999
  0
LINE
  5
9B0A
330
18
100
AcDbEntity
  8
center
 48
0.1
100
AcDbLine
 10
26.31338722971114
 20
116.2189198511283
 30
0.0
 11
34.66573252908665
 21
107.8665745517528
 31
0.0
  0
LINE
  5
9B0B
330
18
100
AcDbEntity
  8
bowle
 48
0.2
100
AcDbLine
 10
31.26313469801698
 20
111.2691723828225
 30
0.0
 11
28.47474701889095
 21
110.5220261560158
 31
0.0
  0
LINE
  5
9B0C
330
18
100
AcDbEntity
  8
bowle
 48
0.2
100
AcDbLine
 10
31.26313469801698
 20
111.2691723828225
 30
0.0
 11
32.01028092482366
 21
114.0575600619485
 31
0.0
  0
LINE
  5
9B0D
330
18
100
AcDbEntity
  8
bowle
 48
0.2
100
AcDbLine
 10
25.60628044852462
 20
113.3904927263821
 30
0.0
 11
28.47474701889098
 21
110.5220261560157
 31
0.0
  0
LINE
  5
9B0E
330
18
100
AcDbEntity
  8
bowle
 48
0.2
100
AcDbLine
 10
29.14181435445732
 20
116.9260266323148
 30
0.0
 11
32.01028092482366
 21
114.0575600619485
 31
0.0
  0
LINE
  5
9B0F
330
18
100
AcDbEntity
  8
bowle
 48
0.2
100
AcDbLine
 10
28.47474701889095
 20
110.5220261560158
 30
0.0
 11
32.01028092482366
 21
114.0575600619485
 31
0.0
  0
LINE
  5
9B10
330
18
100
AcDbEntity
  8
bowle
 48
0.2
100
AcDbLine
 10
25.60628044852462
 20
113.3904927263821
 30
0.0
 11
29.14181435445735
 21
116.9260266323148
 31
0.0
  0
LINE
  5
9B11
330
18
100
AcDbEntity
  8
bowle
 48
0.2
100
AcDbLine
 10
29.14181435445735
 20
116.9260266323148
 30
0.0
 11
29.14181435445735
 21
117.3959579564294
 31
0.0
  0
LINE
  5
9B12
330
18
100
AcDbEntity
  8
bowle
 48
0.2
100
AcDbLine
 10
25.60628044852462
 20
113.3904927263821
 30
0.0
 11
25.13634912441006
 21
113.3904927263821
 31
0.0
  0
CIRCLE
  5
9B13
330
18
100
AcDbEntity
  8
bowle
 48
0.2
100
AcDbCircle
 10
29.67214444034724
 20
112.8601626404922
 30
0.0
 40
2.650000000000034
  0
CIRCLE
  5
9B15
330
18
100
AcDbEntity
  8
bowle
 48
0.2
100
AcDbCircle
 10
29.67214444034718
 20
84.22233800243708
 30
0.0
 40
2.149999999999999
  0
LINE
  5
9B16
330
18
100
AcDbEntity
  8
center
 48
0.1
100
AcDbLine
 10
26.31338722971108
 20
80.86358079180099
 30
0.0
 11
34.6657325290866
 21
89.21592609117642
 31
0.0
  0
LINE
  5
9B17
330
18
100
AcDbEntity
  8
bowle
 48
0.2
100
AcDbLine
 10
31.26313469801696
 20
85.8133282601068
 30
0.0
 11
32.01028092482366
 21
83.02494058098076
 31
0.0
  0
LINE
  5
9B18
330
18
100
AcDbEntity
  8
bowle
 48
0.2
100
AcDbLine
 10
31.26313469801696
 20
85.8133282601068
 30
0.0
 11
28.47474701889087
 21
86.56047448691351
 31
0.0
  0
LINE
  5
9B19
330
18
100
AcDbEntity
  8
bowle
 48
0.2
100
AcDbLine
 10
29.14181435445727
 20
80.15647401061443
 30
0.0
 11
32.01028092482366
 21
83.02494058098082
 31
0.0
  0
LINE
  5
9B1A
330
18
100
AcDbEntity
  8
bowle
 48
0.2
100
AcDbLine
 10
25.60628044852456
 20
83.69200791654714
 30
0.0
 11
28.47474701889087
 21
86.56047448691348
 31
0.0
  0
LINE
  5
9B1B
330
18
100
AcDbEntity
  8
bowle
 48
0.2
100
AcDbLine
 10
32.01028092482366
 20
83.02494058098076
 30
0.0
 11
28.47474701889087
 21
86.56047448691351
 31
0.0
  0
LINE
  5
9B1C
330
18
100
AcDbEntity
  8
bowle
 48
0.2
100
AcDbLine
 10
29.14181435445727
 20
80.15647401061443
 30
0.0
 11
25.60628044852456
 21
83.69200791654717
 31
0.0
  0
LINE
  5
9B1D
330
18
100
AcDbEntity
  8
bowle
 48
0.2
100
AcDbLine
 10
25.60628044852456
 20
83.69200791654717
 30
0.0
 11
25.13634912441001
 21
83.69200791654717
 31
0.0
  0
LINE
  5
9B1E
330
18
100
AcDbEntity
  8
bowle
 48
0.2
100
AcDbLine
 10
29.14181435445727
 20
80.15647401061443
 30
0.0
 11
29.1418143544573
 21
79.68654268649988
 31
0.0
  0
CIRCLE
  5
9B1F
330
18
100
AcDbEntity
  8
bowle
 48
0.2
100
AcDbCircle
 10
29.67214444034718
 20
84.22233800243708
 30
0.0
 40
2.650000000000034
  0
CIRCLE
  5
9CE8
330
18
100
AcDbEntity
  8
contour
100
AcDbCircle
 10
43.99105675937479
 20
98.54125032146459
 30
0.0
 40
15.68800000000004
  0
INSERT
  5
9D79
102
{ACAD_REACTORS
330
A033
102
}
330
18
100
AcDbEntity
  8
contour
100
AcDbBlockReference
  2
LS
 10
370.7367877545352
 20
-139.0383326768902
 30
0.0
 41
-1.0
  0
LINE
  5
9D7A
102
{ACAD_REACTORS
330
A033
102
}
330
18
100
AcDbEntity
  8
contour
100
AcDbLine
 10
66.9910567593748
 20
61.67770338959253
 30
0.0
 11
20.99105675937483
 21
61.67770338959253
 31
0.0
  0
ARC
  5
9D7B
102
{ACAD_REACTORS
330
A033
102
}
330
18
100
AcDbEntity
  8
contour
100
AcDbCircle
 10
66.9910567593748
 20
60.67770338959252
 30
0.0
 40
1.0
100
AcDbArc
 50
0.0
 51
90.0
  0
LINE
  5
9D7C
330
18
100
AcDbEntity
  8
center
 48
0.1
100
AcDbLine
 10
26.9910567593748
 20
55.17770338959253
 30
0.0
 11
18.9910567593748
 21
55.17770338959253
 31
0.0
  0
LINE
  5
9D7D
102
{ACAD_REACTORS
330
A033
102
}
330
18
100
AcDbEntity
  8
contour
100
AcDbLine
 10
19.99105675937483
 20
60.67770338959252
 30
0.0
 11
19.99105675937483
 21
49.77770338959253
 31
0.0
  0
ARC
  5
9D7E
102
{ACAD_REACTORS
330
A033
102
}
330
18
100
AcDbEntity
  8
contour
100
AcDbCircle
 10
20.99105675937483
 20
60.67770338959252
 30
0.0
 40
1.0
100
AcDbArc
 50
90.0
 51
180.0
  0
LINE
  5
9D7F
102
{ACAD_REACTORS
330
A033
102
}
330
18
100
AcDbEntity
  8
contour
100
AcDbLine
 10
19.99105675937483
 20
45.77770338959253
 30
0.0
 11
19.9910567593748
 21
42.67770338959254
 31
0.0
  0
ARC
  5
9D80
102
{ACAD_REACTORS
330
A033
102
}
330
18
100
AcDbEntity
  8
contour
100
AcDbCircle
 10
20.99105675937483
 20
45.77770338959253
 30
0.0
 40
1.0
100
AcDbArc
 50
90.0
 51
180.0
  0
LINE
  5
9D81
102
{ACAD_REACTORS
330
A033
102
}
330
18
100
AcDbEntity
  8
contour
100
AcDbLine
 10
20.9910567593748
 20
41.67770338959253
 30
0.0
 11
66.9910567593748
 21
41.67770338959253
 31
0.0
  0
ARC
  5
9D82
102
{ACAD_REACTORS
330
A033
102
}
330
18
100
AcDbEntity
  8
contour
100
AcDbCircle
 10
20.9910567593748
 20
42.67770338959253
 30
0.0
 40
1.0
100
AcDbArc
 50
179.9999999999996
 51
270.0
  0
LINE
  5
9D83
102
{ACAD_REACTORS
330
A033
102
}
330
18
100
AcDbEntity
  8
contour
100
AcDbLine
 10
23.74105675937483
 20
45.67770338959252
 30
0.0
 11
25.89105675937481
 21
44.43640031083483
 31
0.0
  0
LINE
  5
9D84
102
{ACAD_REACTORS
330
A033
102
}
330
18
100
AcDbEntity
  8
contour
100
AcDbLine
 10
20.99105675937483
 20
46.77770338959253
 30
0.0
 11
27.2410567593748
 21
46.77770338959253
 31
0.0
  0
LINE
  5
9D85
102
{ACAD_REACTORS
330
A033
102
}
330
18
100
AcDbEntity
  8
contour
100
AcDbLine
 10
65.49105675937482
 20
46.77770338959253
 30
0.0
 11
66.9910567593748
 21
46.77770338959253
 31
0.0
  0
ARC
  5
9D86
102
{ACAD_REACTORS
330
A033
102
}
330
18
100
AcDbEntity
  8
contour
100
AcDbCircle
 10
66.9910567593748
 20
45.77770338959253
 30
0.0
 40
1.0
100
AcDbArc
 50
0.0
 51
90.0
  0
LINE
  5
9D87
102
{ACAD_REACTORS
330
A033
102
}
330
18
100
AcDbEntity
  8
contour
100
AcDbLine
 10
20.99105675937483
 20
48.77770338959253
 30
0.0
 11
27.2410567593748
 21
48.77770338959253
 31
0.0
  0
ARC
  5
9D88
102
{ACAD_REACTORS
330
A033
102
}
330
18
100
AcDbEntity
  8
contour
100
AcDbCircle
 10
20.99105675937483
 20
49.77770338959253
 30
0.0
 40
1.0
100
AcDbArc
 50
179.9999999999999
 51
270.0
  0
LINE
  5
9D89
102
{ACAD_REACTORS
330
A033
102
}
330
18
100
AcDbEntity
  8
contour
100
AcDbLine
 10
65.49105675937482
 20
48.77770338959253
 30
0.0
 11
66.9910567593748
 21
48.77770338959253
 31
0.0
  0
LINE
  5
9D8A
102
{ACAD_REACTORS
330
A033
102
}
330
18
100
AcDbEntity
  8
contour
100
AcDbLine
 10
67.9910567593748
 20
42.67770338959253
 30
0.0
 11
67.9910567593748
 21
45.77770338959253
 31
0.0
  0
ARC
  5
9D8B
102
{ACAD_REACTORS
330
A033
102
}
330
18
100
AcDbEntity
  8
contour
100
AcDbCircle
 10
66.9910567593748
 20
42.67770338959253
 30
0.0
 40
1.0
100
AcDbArc
 50
270.0
 51
0.0
  0
LINE
  5
9D8C
102
{ACAD_REACTORS
330
A033
102
}
330
18
100
AcDbEntity
  8
contour
100
AcDbLine
 10
67.9910567593748
 20
49.77770338959253
 30
0.0
 11
67.9910567593748
 21
60.67770338959252
 31
0.0
  0
ARC
  5
9D8D
102
{ACAD_REACTORS
330
A033
102
}
330
18
100
AcDbEntity
  8
contour
100
AcDbCircle
 10
66.9910567593748
 20
49.77770338959253
 30
0.0
 40
1.0
100
AcDbArc
 50
270.0
 51
0.0
  0
LINE
  5
9D8E
330
18
100
AcDbEntity
  8
center
 48
0.2
100
AcDbLine
 10
43.99105675937479
 20
62.67770338959253
 30
0.0
 11
43.99105675937479
 21
40.67770338959252
 31
0.0
  0
LINE
  5
9D8F
102
{ACAD_REACTORS
330
A033
102
}
330
18
100
AcDbEntity
  8
contour
100
AcDbLine
 10
66.2410567593748
 20
51.57770338959252
 30
0.0
 11
66.2410567593748
 21
49.57770338959252
 31
0.0
  0
LINE
  5
9D90
102
{ACAD_REACTORS
330
A033
102
}
330
18
100
AcDbEntity
  8
contour
100
AcDbLine
 10
60.7410567593748
 20
46.77770338959253
 30
0.0
 11
60.7410567593748
 21
48.77770338959253
 31
0.0
  0
LINE
  5
9D91
102
{ACAD_REACTORS
330
A033
102
}
330
18
100
AcDbEntity
  8
contour
100
AcDbLine
 10
27.2410567593748
 20
46.77770338959253
 30
0.0
 11
27.2410567593748
 21
48.77770338959253
 31
0.0
  0
LINE
  5
9D92
102
{ACAD_REACTORS
330
A033
102
}
330
18
100
AcDbEntity
  8
contour
100
AcDbLine
 10
21.59105675937482
 20
44.43640031083482
 30
0.0
 11
21.5910567593748
 21
42.17770338959253
 31
0.0
  0
LINE
  5
9D93
102
{ACAD_REACTORS
330
A033
102
}
330
18
100
AcDbEntity
  8
contour
100
AcDbLine
 10
21.09105675937479
 20
41.67770338959253
 30
0.0
 11
21.5910567593748
 21
42.17770338959253
 31
0.0
  0
LINE
  5
9D94
102
{ACAD_REACTORS
330
A033
102
}
330
18
100
AcDbEntity
  8
contour
100
AcDbLine
 10
25.89105675937478
 20
44.43640031083483
 30
0.0
 11
25.89105675937478
 21
42.17770338959253
 31
0.0
  0
LINE
  5
9D95
102
{ACAD_REACTORS
330
A033
102
}
330
18
100
AcDbEntity
  8
contour
100
AcDbLine
 10
26.39105675937481
 20
41.67770338959253
 30
0.0
 11
25.89105675937481
 21
42.17770338959253
 31
0.0
  0
LINE
  5
9D96
330
18
100
AcDbEntity
  8
contour
100
AcDbLine
 10
25.89105675937481
 20
42.17770338959253
 30
0.0
 11
21.5910567593748
 21
42.17770338959253
 31
0.0
  0
LINE
  5
9D97
330
18
100
AcDbEntity
  8
center
 48
0.1
100
AcDbLine
 10
23.7410567593748
 20
40.67770338959252
 30
0.0
 11
23.7410567593748
 21
46.67770338959253
 31
0.0
  0
LINE
  5
9D98
102
{ACAD_REACTORS
330
A033
102
}
330
18
100
AcDbEntity
  8
contour
100
AcDbLine
 10
23.74105675937483
 20
45.67770338959253
 30
0.0
 11
21.5910567593748
 21
44.43640031083482
 31
0.0
  0
LINE
  5
9D99
330
18
100
AcDbEntity
  8
contour
100
AcDbLine
 10
25.89105675937478
 20
44.43640031083483
 30
0.0
 11
21.5910567593748
 21
44.43640031083482
 31
0.0
  0
LINE
  5
9D9A
102
{ACAD_REACTORS
330
A033
102
}
330
18
100
AcDbEntity
  8
contour
100
AcDbLine
 10
25.9910567593748
 20
55.17770338959253
 30
0.0
 11
24.54768108640073
 21
57.67770338959254
 31
0.0
  0
LINE
  5
9D9B
102
{ACAD_REACTORS
330
A033
102
}
330
18
100
AcDbEntity
  8
contour
100
AcDbLine
 10
25.9910567593748
 20
55.17770338959253
 30
0.0
 11
24.5476810864007
 21
52.67770338959253
 31
0.0
  0
LINE
  5
9D9C
102
{ACAD_REACTORS
330
A033
102
}
330
18
100
AcDbEntity
  8
contour
100
AcDbLine
 10
20.4910567593748
 20
57.67770338959253
 30
0.0
 11
24.54768108640079
 21
57.67770338959253
 31
0.0
  0
LINE
  5
9D9D
102
{ACAD_REACTORS
330
A033
102
}
330
18
100
AcDbEntity
  8
contour
100
AcDbLine
 10
20.4910567593748
 20
52.67770338959254
 30
0.0
 11
24.54768108640067
 21
52.67770338959253
 31
0.0
  0
LINE
  5
9D9E
330
18
100
AcDbEntity
  8
contour
100
AcDbLine
 10
24.54768108640073
 20
57.67770338959254
 30
0.0
 11
24.5476810864007
 21
52.67770338959253
 31
0.0
  0
LINE
  5
9D9F
330
18
100
AcDbEntity
  8
contour
100
AcDbLine
 10
20.4910567593748
 20
57.67770338959253
 30
0.0
 11
20.4910567593748
 21
52.67770338959253
 31
0.0
  0
LINE
  5
9DA0
102
{ACAD_REACTORS
330
A033
102
}
330
18
100
AcDbEntity
  8
contour
100
AcDbLine
 10
20.4910567593748
 20
52.67770338959253
 30
0.0
 11
19.9910567593748
 21
52.17770338959253
 31
0.0
  0
LINE
  5
9DA1
102
{ACAD_REACTORS
330
A033
102
}
330
18
100
AcDbEntity
  8
contour
100
AcDbLine
 10
20.4910567593748
 20
57.67770338959253
 30
0.0
 11
19.9910567593748
 21
58.17770338959254
 31
0.0
  0
LINE
  5
9DA2
102
{ACAD_REACTORS
330
A033
102
}
330
18
100
AcDbEntity
  8
contour
100
AcDbLine
 10
66.991056759375
 20
41.97770338959265
 30
0.0
 11
66.99105675937508
 21
41.67770338959253
 31
0.0
  0
LINE
  5
9DA3
102
{ACAD_REACTORS
330
A033
102
}
330
18
100
AcDbEntity
  8
contour
100
AcDbLine
 10
59.99105675937483
 20
41.97770338959259
 30
0.0
 11
59.99105675937483
 21
41.67770338959253
 31
0.0
  0
LINE
  5
9DA4
102
{ACAD_REACTORS
330
A033
102
}
330
18
100
AcDbEntity
  8
contour
 62
     4
100
AcDbLine
 10
65.49105675937477
 20
56.87770338959252
 30
0.0
 11
65.49105675937477
 21
61.67770338959253
 31
0.0
  0
LINE
  5
9DA5
102
{ACAD_REACTORS
330
A033
102
}
330
18
100
AcDbEntity
  8
contour
 62
     4
100
AcDbLine
 10
61.49105675937483
 20
56.87770338959252
 30
0.0
 11
61.49105675937483
 21
61.67770338959253
 31
0.0
  0
LINE
  5
9DA6
102
{ACAD_REACTORS
330
A033
102
}
330
18
100
AcDbEntity
  8
contour
100
AcDbLine
 10
61.87005675937479
 20
57.25670338959236
 30
0.0
 11
61.87005675937479
 21
61.67770338959253
 31
0.0
  0
LINE
  5
9DA7
102
{ACAD_REACTORS
330
A033
102
}
330
18
100
AcDbEntity
  8
contour
100
AcDbLine
 10
65.09105675937482
 20
57.27770338959246
 30
0.0
 11
65.09105675937482
 21
61.67770338959253
 31
0.0
  0
LINE
  5
9DA8
102
{ACAD_REACTORS
330
A033
102
}
330
18
100
AcDbEntity
  8
contour
100
AcDbLine
 10
60.7410567593748
 20
48.77770338959253
 30
0.0
 11
61.49105675937483
 21
48.77770338959253
 31
0.0
  0
LINE
  5
9DA9
102
{ACAD_REACTORS
330
A033
102
}
330
18
100
AcDbEntity
  8
contour
100
AcDbLine
 10
21.7410567593748
 20
49.57770338959258
 30
0.0
 11
61.49105675937483
 21
49.57770338959252
 31
0.0
  0
LINE
  5
9DAA
102
{ACAD_REACTORS
330
A033
102
}
330
18
100
AcDbEntity
  8
contour
100
AcDbLine
 10
21.7410567593748
 20
51.57770338959258
 30
0.0
 11
61.49105675937483
 21
51.57770338959252
 31
0.0
  0
LINE
  5
9DAB
102
{ACAD_REACTORS
330
A033
102
}
330
18
100
AcDbEntity
  8
contour
100
AcDbLine
 10
60.7410567593748
 20
46.77770338959253
 30
0.0
 11
61.49105675937483
 21
46.77770338959253
 31
0.0
  0
LINE
  5
9DAC
102
{ACAD_REACTORS
330
A033
102
}
330
18
100
AcDbEntity
  8
contour
100
AcDbLine
 10
21.7410567593748
 20
51.57770338959252
 30
0.0
 11
21.7410567593748
 21
49.57770338959252
 31
0.0
  0
LINE
  5
9DAD
102
{ACAD_REACTORS
330
A033
102
}
330
18
100
AcDbEntity
  8
contour
100
AcDbLine
 10
66.2410567593748
 20
51.57770338959252
 30
0.0
 11
65.49105675937486
 21
51.57770338959252
 31
0.0
  0
LINE
  5
9DAE
102
{ACAD_REACTORS
330
A033
102
}
330
18
100
AcDbEntity
  8
contour
100
AcDbLine
 10
66.2410567593748
 20
49.57770338959252
 30
0.0
 11
65.49105675937486
 21
49.57770338959252
 31
0.0
  0
LINE
  5
9DAF
102
{ACAD_REACTORS
330
A033
102
}
330
18
100
AcDbEntity
  8
contour
100
AcDbLine
 10
58.17905675937481
 20
60.17770338959252
 30
0.0
 11
58.17905675937478
 21
53.07770338959251
 31
0.0
  0
LINE
  5
9DB0
102
{ACAD_REACTORS
330
A033
102
}
330
18
100
AcDbEntity
  8
contour
100
AcDbLine
 10
59.67905675937482
 20
61.67770338959252
 30
0.0
 11
58.17905675937481
 21
60.17770338959252
 31
0.0
  0
LINE
  5
9DB1
102
{ACAD_REACTORS
330
A033
102
}
330
18
100
AcDbEntity
  8
contour
 62
     4
100
AcDbLine
 10
58.9910567593748
 20
60.98970338959251
 30
0.0
 11
58.9910567593748
 21
52.26570338959252
 31
0.0
  0
LINE
  5
9DB2
102
{ACAD_REACTORS
330
A033
102
}
330
18
100
AcDbEntity
  8
contour
100
AcDbLine
 10
59.67905675937479
 20
51.57770338959252
 30
0.0
 11
58.17905675937478
 21
53.07770338959252
 31
0.0
  0
LINE
  5
9DB3
102
{ACAD_REACTORS
330
A033
102
}
330
18
100
AcDbEntity
  8
contour
100
AcDbLine
 10
58.17905675937478
 20
48.07770338959252
 30
0.0
 11
58.17905675937476
 21
43.17770338959251
 31
0.0
  0
LINE
  5
9DB4
102
{ACAD_REACTORS
330
A033
102
}
330
18
100
AcDbEntity
  8
contour
100
AcDbLine
 10
59.67905675937479
 20
49.57770338959252
 30
0.0
 11
58.17905675937478
 21
48.07770338959252
 31
0.0
  0
LINE
  5
9DB5
102
{ACAD_REACTORS
330
A033
102
}
330
18
100
AcDbEntity
  8
contour
 62
     4
100
AcDbLine
 10
58.99105675937477
 20
48.88970338959251
 30
0.0
 11
58.99105675937477
 21
42.36570338959252
 31
0.0
  0
LINE
  5
9DB6
102
{ACAD_REACTORS
330
A033
102
}
330
18
100
AcDbEntity
  8
contour
100
AcDbLine
 10
59.67905675937476
 20
41.67770338959253
 30
0.0
 11
58.17905675937476
 21
43.17770338959252
 31
0.0
  0
LINE
  5
9DB7
102
{ACAD_REACTORS
330
A033
102
}
330
18
100
AcDbEntity
  8
contour
100
AcDbLine
 10
29.80305675937476
 20
60.17770338959252
 30
0.0
 11
29.80305675937478
 21
53.07770338959251
 31
0.0
  0
LINE
  5
9DB8
102
{ACAD_REACTORS
330
A033
102
}
330
18
100
AcDbEntity
  8
contour
100
AcDbLine
 10
28.30305675937476
 20
61.67770338959252
 30
0.0
 11
29.80305675937476
 21
60.17770338959252
 31
0.0
  0
LINE
  5
9DB9
102
{ACAD_REACTORS
330
A033
102
}
330
18
100
AcDbEntity
  8
contour
 62
     4
100
AcDbLine
 10
28.99105675937477
 20
60.98970338959251
 30
0.0
 11
28.99105675937477
 21
52.26570338959252
 31
0.0
  0
LINE
  5
9DBA
102
{ACAD_REACTORS
330
A033
102
}
330
18
100
AcDbEntity
  8
contour
100
AcDbLine
 10
28.30305675937479
 20
51.57770338959252
 30
0.0
 11
29.80305675937478
 21
53.07770338959252
 31
0.0
  0
LINE
  5
9DBB
102
{ACAD_REACTORS
330
A033
102
}
330
18
100
AcDbEntity
  8
contour
100
AcDbLine
 10
29.80305675937478
 20
48.07770338959252
 30
0.0
 11
29.80305675937481
 21
43.17770338959251
 31
0.0
  0
LINE
  5
9DBC
102
{ACAD_REACTORS
330
A033
102
}
330
18
100
AcDbEntity
  8
contour
100
AcDbLine
 10
28.30305675937479
 20
49.57770338959252
 30
0.0
 11
29.80305675937478
 21
48.07770338959252
 31
0.0
  0
LINE
  5
9DBD
102
{ACAD_REACTORS
330
A033
102
}
330
18
100
AcDbEntity
  8
contour
 62
     4
100
AcDbLine
 10
28.9910567593748
 20
48.88970338959251
 30
0.0
 11
28.9910567593748
 21
42.36570338959252
 31
0.0
  0
LINE
  5
9DBE
102
{ACAD_REACTORS
330
A033
102
}
330
18
100
AcDbEntity
  8
contour
100
AcDbLine
 10
28.30305675937481
 20
41.67770338959253
 30
0.0
 11
29.80305675937481
 21
43.17770338959252
 31
0.0
  0
LINE
  5
9DBF
330
18
100
AcDbEntity
  8
contour
100
AcDbLine
 10
58.17905675937481
 20
60.17770338959252
 30
0.0
 11
29.80305675937476
 21
60.1777033895924
 31
0.0
  0
LINE
  5
9DC0
330
18
100
AcDbEntity
  8
contour
100
AcDbLine
 10
29.80305675937478
 20
53.07770338959252
 30
0.0
 11
58.17905675937478
 21
53.07770338959252
 31
0.0
  0
LINE
  5
9DC1
330
18
100
AcDbEntity
  8
contour
100
AcDbLine
 10
58.17905675937478
 20
48.07770338959252
 30
0.0
 11
29.80305675937478
 21
48.07770338959235
 31
0.0
  0
LINE
  5
9DC2
330
18
100
AcDbEntity
  8
contour
100
AcDbLine
 10
29.80305675937481
 20
43.17770338959252
 30
0.0
 11
58.17905675937476
 21
43.17770338959252
 31
0.0
  0
LINE
  5
9DC3
330
18
100
AcDbEntity
  8
center
 48
0.2
100
AcDbLine
 10
63.49105675937483
 20
62.67770338959253
 30
0.0
 11
63.49105675937483
 21
40.67770338959252
 31
0.0
  0
DIMENSION
  5
9DFE
330
18
100
AcDbEntity
  8
mark
100
AcDbDimension
  2
*D4
 10
16.09148922616529
 20
61.67770338959253
 30
0.0
 11
15.06648922616528
 21
58.42770338959254
 31
0.0
 70
    32
 71
     5
 42
6.5
  3
STANDARD
100
AcDbAlignedDimension
 13
18.9910567593748
 23
55.17770338959253
 33
0.0
 14
20.99105675937483
 24
61.67770338959253
 34
0.0
 50
90.0
100
AcDbRotatedDimension
  0
DIMENSION
  5
9E3D
330
18
100
AcDbEntity
  8
mark
100
AcDbDimension
  2
*D5
 10
58.99105675937477
 20
34.73080508968906
 30
0.0
 11
43.99105675937478
 21
35.75580508968906
 31
0.0
 70
    32
  1
M30X1.5P
 71
     5
 42
29.99999999999997
  3
STANDARD
100
AcDbAlignedDimension
 13
28.9910567593748
 23
42.36570338959252
 33
0.0
 14
58.99105675937477
 24
42.36570338959252
 34
0.0
100
AcDbRotatedDimension
  0
DIMENSION
  5
9E61
330
18
100
AcDbEntity
  8
mark
100
AcDbDimension
  2
*D6
 10
72.49202718701804
 20
48.77770338959253
 30
0.0
 11
71.46702718701802
 21
55.22770338959254
 31
0.0
 70
    32
 71
     5
 42
12.9
  3
STANDARD
100
AcDbAlignedDimension
 13
66.9910567593748
 23
61.67770338959253
 33
0.0
 14
66.9910567593748
 24
48.77770338959253
 34
0.0
 50
90.0
100
AcDbRotatedDimension
  0
DIMENSION
  5
9E6E
330
18
100
AcDbEntity
  8
mark
100
AcDbDimension
  2
*D7
 10
72.49202718701804
 20
46.77770338959253
 30
0.0
 11
71.46702718701802
 21
47.77770338959253
 31
0.0
 70
    32
 71
     5
 42
2.0
  3
STANDARD
100
AcDbAlignedDimension
 13
66.9910567593748
 23
48.77770338959253
 33
0.0
 14
66.9910567593748
 24
46.77770338959253
 34
0.0
 50
90.0
100
AcDbRotatedDimension
  0
DIMENSION
  5
9E7D
330
18
100
AcDbEntity
  8
mark
100
AcDbDimension
  2
*D8
 10
75.84472424825776
 20
41.67770338959253
 30
0.0
 11
74.81972424825774
 21
51.67770338959254
 31
0.0
 70
    32
  1
20%%P0.2
 71
     5
 42
20.0
  3
STANDARD
100
AcDbAlignedDimension
 13
66.9910567593748
 23
61.67770338959253
 33
0.0
 14
66.99105675937508
 24
41.67770338959253
 34
0.0
 50
90.0
100
AcDbRotatedDimension
  0
DIMENSION
  5
9E8A
330
18
100
AcDbEntity
  8
mark
100
AcDbDimension
  2
*D9
 10
67.9910567593748
 20
66.67402179561543
 30
0.0
 11
43.99105675937481
 21
67.69902179561544
 31
0.0
 70
    32
  1
%%C48
 71
     5
 42
47.99999999999997
  3
STANDARD
100
AcDbAlignedDimension
 13
19.99105675937483
 23
60.67770338959252
 33
0.0
 14
67.9910567593748
 24
60.67770338959252
 34
0.0
100
AcDbRotatedDimension
  0
HATCH
  5
9EBA
330
18
100
AcDbEntity
  8
mark
100
AcDbHatch
 10
0.0
 20
0.0
 30
0.0
210
0.0
220
0.0
230
1.0
  2
SOLID
 70
     1
 71
     0
 91
        1
 92
        7
 72
     0
 73
     1
 93
        3
 10
28.9910567593748
 20
28.2891384230224
 10
28.9910567593748
 20
30.37247175635574
 10
30.03272342604146
 20
29.33080508968906
 97
        0
 75
     0
 76
     1
 47
0.0340840503434746
 98
        1
 10
29.48526867778526
 20
29.23450600401953
450
        0
451
        0
460
0.0
461
0.0
452
        1
462
1.0
453
        2
463
0.0
 63
     5
421
      255
463
1.0
 63
     7
421
 16777215
470
LINEAR
1001
ACAD
1010
0.0
1020
0.0
1030
0.0
  0
TOLERANCE
  5
9EBB
330
18
100
AcDbEntity
  8
mark
100
AcDbFcf
  3
STANDARD
 10
35.24105675937483
 20
30.37247175635572
 30
0.0
  1
%%v%%v%%vA%%v%%v
 11
-0.0000000000000002
 21
-1.0
 31
0.0
  0
LINE
  5
9EBC
330
18
100
AcDbEntity
  8
mark
100
AcDbLine
 10
33.99105675937483
 20
29.33080508968906
 30
0.0
 11
30.03272342604146
 21
29.33080508968906
 31
0.0
  0
LINE
  5
9EBD
330
18
100
AcDbEntity
  8
mark
100
AcDbLine
 10
28.9910567593748
 20
28.2891384230224
 30
0.0
 11
30.03272342604146
 21
29.33080508968906
 31
0.0
  0
LINE
  5
9EBE
330
18
100
AcDbEntity
  8
mark
100
AcDbLine
 10
30.03272342604146
 20
29.33080508968906
 30
0.0
 11
28.9910567593748
 21
30.37247175635574
 31
0.0
  0
TOLERANCE
  5
9EBF
330
18
100
AcDbEntity
  8
mark
100
AcDbFcf
  3
STANDARD
 10
80.84472424825776
 20
66.67770338959252
 30
0.0
  1
{\Fgdt;h}%%v0.005%%v%%vA%%v%%v
  0
LINE
  5
9EC0
330
18
100
AcDbEntity
  8
mark
100
AcDbLine
 10
28.9910567593748
 20
34.33080508968906
 30
0.0
 11
28.9910567593748
 21
30.37247175635574
 31
0.0
  0
LINE
  5
9EC1
330
18
100
AcDbEntity
  8
mark
100
AcDbLine
 10
75.84472424825776
 20
66.67770338959252
 30
0.0
 11
80.84472424825776
 21
66.67770338959252
 31
0.0
  0
TEXT
  5
9EC5
330
18
100
AcDbEntity
  8
dim
100
AcDbText
 10
76.42872355852265
 20
34.04864114270036
 30
0.0
 40
2.5
  1
2
  7
TXT
100
AcDbText
  0
LINE
  5
9EC7
330
18
100
AcDbEntity
  8
mark
100
AcDbLine
 10
75.84472424825776
 20
61.67770338959252
 30
0.0
 11
75.84472424825776
 21
66.67770338959252
 31
0.0
  0
LEADER
  5
9F14
330
18
100
AcDbEntity
  8
mark
100
AcDbLeader
  3
STANDARD
 76
     2
 10
64.77566645020127
 20
86.54125032146447
 30
0.0
 10
75.84472424825776
 20
80.15052682208102
 30
0.0
211
0.8660254037844383
221
-0.5000000000000005
231
0.0
1001
ACAD
1000
DSTYLE
1002
{
1070
   147
1040
0.4
1070
    77
1070
     0
1002
}
  0
TEXT
  5
9F15
330
18
100
AcDbEntity
  8
dim
100
AcDbText
 10
76.78833726742962
 20
78.8954355504129
 30
0.0
 40
2.5
  1
1
  7
TXT
100
AcDbText
  0
MTEXT
  5
9F1D
330
18
100
AcDbEntity
  8
mark
 62
     3
100
AcDbMText
 10
46.12973770432484
 20
68.64110417206106
 30
0.0
 40
0.6200000000000001
 41
0.0
 71
     1
 72
     1
  1
+0\P-0.2
 73
     1
 44
1.0
1001
ACAD
1000
ACAD_MTEXT_DEFINED_HEIGHT_BEGIN
1070
    46
1040
0.0
1000
ACAD_MTEXT_DEFINED_HEIGHT_END
  0
LEADER
  5
9F1E
330
18
100
AcDbEntity
  8
mark
100
AcDbLeader
  3
STANDARD
 76
     2
 10
63.49105675937483
 20
41.67770338959253
 30
0.0
 10
75.84472424825776
 20
34.74867248262638
 30
0.0
211
0.8660254037844383
221
-0.5000000000000005
231
0.0
1001
ACAD
1000
DSTYLE
1002
{
1070
   147
1040
0.4
1070
    77
1070
     0
1002
}
  0
LEADER
  5
9F3A
330
18
100
AcDbEntity
  8
mark
100
AcDbLeader
  3
STANDARD
 76
     3
 10
19.99105675937483
 20
55.17770338959253
 30
0.0
 10
14.09105675937482
 20
49.27770338959254
 30
0.0
 10
4.913736876135857
 20
49.27770338959254
 30
0.0
1001
ACAD
1000
DSTYLE
1002
{
1070
   147
1040
0.4
1070
    77
1070
     0
1002
}
  0
TEXT
  5
9F3B
330
18
100
AcDbEntity
  8
dim
100
AcDbText
 10
4.990505591768538
 20
49.71292292163212
 30
0.0
 40
1.25
  1
4-%%C5深さ6
  7
TXT
100
AcDbText
  0
LEADER
  5
9F3C
330
18
100
AcDbEntity
  8
mark
100
AcDbLeader
  3
STANDARD
 76
     3
 10
23.7410567593748
 20
41.67770338959253
 30
0.0
 10
16.77982862615209
 20
34.71647525636984
 30
0.0
 10
5.901222749515994
 20
34.71647525636984
 30
0.0
1001
ACAD
1000
DSTYLE
1002
{
1070
   147
1040
0.4
1070
    77
1070
     0
1002
}
  0
TEXT
  5
9F3D
330
18
100
AcDbEntity
  8
dim
100
AcDbText
 10
6.095497841144492
 20
35.03682836971864
 30
0.0
 40
1.25
  1
4-%%C4.3深さ4
  7
TXT
100
AcDbText
  0
HATCH
  5
A033
330
18
100
AcDbEntity
  8
section
100
AcDbHatch
 10
0.0
 20
0.0
 30
0.0
210
0.0
220
0.0
230
1.0
  2
ANSI31
 70
     0
 71
     1
 91
       11
 92
        7
 72
     1
 73
     1
 93
       34
 10
28.99105675937477
 20
60.98970338959248
 42
0.0
 10
28.30305675937476
 20
61.67770338959253
 42
0.0
 10
20.99105675937483
 20
61.67770338959253
 42
0.4142135623730951
 10
19.99105675937483
 20
60.67770338959252
 42
0.0
 10
19.99105675937483
 20
58.17770338959252
 42
0.0
 10
20.49105675937481
 20
57.67770338959253
 42
0.0
 10
24.54768108640073
 20
57.67770338959254
 42
0.0
 10
25.9910567593748
 20
55.17770338959253
 42
0.0
 10
24.54768108640069
 20
52.67770338959252
 42
0.0
 10
20.49105675937481
 20
52.67770338959254
 42
0.0
 10
19.99105675937482
 20
52.17770338959256
 42
0.0
 10
19.99105675937483
 20
49.77770338959253
 42
0.4142135623730956
 10
20.99105675937483
 20
48.77770338959253
 42
0.0
 10
27.2410567593748
 20
48.77770338959253
 42
0.0
 10
27.2410567593748
 20
46.77770338959253
 42
0.0
 10
20.99105675937483
 20
46.77770338959253
 42
0.414213562373093
 10
19.99105675937483
 20
45.77770338959253
 42
0.0
 10
19.9910567593748
 20
42.67770338959254
 42
0.414213562373097
 10
20.9910567593748
 20
41.67770338959253
 42
0.0
 10
21.09105675937479
 20
41.67770338959253
 42
0.0
 10
21.5910567593748
 20
42.17770338959253
 42
0.0
 10
21.59105675937483
 20
44.43640031083485
 42
0.0
 10
23.74105675937483
 20
45.67770338959253
 42
0.0
 10
25.89105675937478
 20
44.43640031083485
 42
0.0
 10
25.89105675937478
 20
42.17770338959256
 42
0.0
 10
26.3910567593748
 20
41.67770338959253
 42
0.0
 10
28.30305675937481
 20
41.67770338959253
 42
0.0
 10
28.9910567593748
 20
42.36570338959252
 42
0.0
 10
28.9910567593748
 20
48.8897033895925
 42
0.0
 10
28.30305675937473
 20
49.57770338959257
 42
0.0
 10
21.7410567593748
 20
49.57770338959259
 42
0.0
 10
21.7410567593748
 20
51.57770338959258
 42
0.0
 10
28.30305675937483
 20
51.57770338959256
 42
0.0
 10
28.99105675937478
 20
52.26570338959252
 42
0.0
 97
       32
330
9DB8
330
9D7A
330
9D7E
330
9D7D
330
9DA1
330
9D9C
330
9D9A
330
9D9B
330
9D9D
330
9DA0
330
9D88
330
9D87
330
9D91
330
9D84
330
9D80
330
9D7F
330
9D82
330
9D81
330
9D93
330
9D92
330
9D98
330
9D83
330
9D94
330
9D95
330
9DBE
330
9DBD
330
9DBC
330
9DA9
330
9DAC
330
9DAA
330
9DBA
330
9DB9
 92
        7
 72
     0
 73
     1
 93
        4
 10
29.80305675937479
 20
48.07770338959252
 10
28.9910567593748
 20
48.8897033895925
 10
28.9910567593748
 20
42.36570338959252
 10
29.80305675937481
 20
43.17770338959252
 97
        4
330
9DBC
330
9DBD
330
9DBE
330
9DBB
 92
        7
 72
     0
 73
     1
 93
        4
 10
29.80305675937476
 20
60.17770338959251
 10
28.99105675937477
 20
60.98970338959249
 10
28.99105675937478
 20
52.26570338959252
 10
29.80305675937478
 20
53.07770338959252
 97
        4
330
9DB8
330
9DB9
330
9DBA
330
9DB7
 92
        7
 72
     0
 73
     1
 93
        4
 10
58.9910567593748
 20
60.98970338959251
 10
58.17905675937482
 20
60.17770338959253
 10
58.17905675937478
 20
53.07770338959251
 10
58.9910567593748
 20
52.26570338959251
 97
        4
330
9DB0
330
9DAF
330
9DB2
330
9DB1
 92
        7
 72
     0
 73
     1
 93
        7
 10
61.49105675937483
 20
56.87770338959251
 10
61.49105675937484
 20
61.67770338959253
 10
59.67905675937482
 20
61.67770338959252
 10
58.9910567593748
 20
60.98970338959251
 10
58.9910567593748
 20
52.2657033895925
 10
59.67905675937479
 20
51.57770338959253
 10
61.49105675937483
 20
51.57770338959252
 97
        7
330
9DA5
330
9D7A
330
9DB0
330
9DB1
330
9DB2
330
9DAA
330
9D79
 92
        7
 72
     0
 73
     1
 93
        4
 10
58.99105675937477
 20
48.8897033895925
 10
58.1790567593748
 20
48.07770338959254
 10
58.17905675937476
 20
43.17770338959252
 10
58.99105675937477
 20
42.36570338959253
 97
        4
330
9DB4
330
9DB3
330
9DB6
330
9DB5
 92
        7
 72
     0
 73
     1
 93
       13
 10
60.7410567593748
 20
48.77770338959253
 10
61.49105675937484
 20
48.77770338959254
 10
61.49105675937482
 20
49.57770338959252
 10
59.67905675937479
 20
49.57770338959252
 10
58.99105675937477
 20
48.8897033895925
 10
58.99105675937477
 20
42.36570338959249
 10
59.67905675937476
 20
41.67770338959253
 10
59.99105675937483
 20
41.67770338959253
 10
59.99105675937483
 20
41.97770338959259
 10
59.99105675937483
 20
45.67770338959252
 10
61.49105675937483
 20
45.67770338959252
 10
61.49105675937481
 20
46.77770338959254
 10
60.7410567593748
 20
46.77770338959255
 97
       10
330
9DA8
330
9D79
330
9DA9
330
9DB4
330
9DB5
330
9DB6
330
9D81
330
9DA3
330
9DAB
330
9D90
 92
        7
 72
     1
 73
     1
 93
       11
 10
67.9910567593748
 20
60.67770338959252
 42
0.4142135623730951
 10
66.9910567593748
 20
61.67770338959253
 42
0.0
 10
65.49105675937477
 20
61.67770338959253
 42
0.0
 10
65.49105675937477
 20
56.87770338959252
 42
0.0
 10
65.4910567593748
 20
51.57770338959252
 42
0.0
 10
66.2410567593748
 20
51.57770338959252
 42
0.0
 10
66.24105675937482
 20
49.57770338959253
 42
0.0
 10
65.49105675937482
 20
49.57770338959253
 42
0.0
 10
65.49105675937482
 20
48.77770338959253
 42
0.0
 10
66.9910567593748
 20
48.77770338959253
 42
0.4142135623730951
 10
67.9910567593748
 20
49.77770338959253
 42
0.0
 97
       10
330
9D7B
330
9D7A
330
9DA4
330
9D79
330
9DAD
330
9D8F
330
9DAE
330
9D89
330
9D8D
330
9D8C
 92
        7
 72
     1
 73
     1
 93
        8
 10
67.9910567593748
 20
45.77770338959253
 42
0.4142135623730951
 10
66.9910567593748
 20
46.77770338959253
 42
0.0
 10
65.49105675937482
 20
46.77770338959253
 42
0.0
 10
65.49105675937482
 20
45.67770338959252
 42
0.0
 10
66.99105675937483
 20
45.67770338959252
 42
0.0
 10
66.99105675937483
 20
41.97770338959247
 42
0.0
 10
66.99105675937508
 20
41.67770338959253
 42
0.4142135623730118
 10
67.9910567593748
 20
42.67770338959253
 42
0.0
 97
        6
330
9D86
330
9D85
330
9D79
330
9DA2
330
9D8B
330
9D8A
 92
        7
 72
     0
 73
     1
 93
        4
 10
61.87005675937479
 20
61.67770338959252
 10
61.49105675937485
 20
61.67770338959253
 10
61.49105675937484
 20
56.87770338959245
 10
61.87005675937478
 20
57.25670338959241
 97
        3
330
9D7A
330
9D79
330
9DA6
 92
        7
 72
     0
 73
     1
 93
        4
 10
65.49105675937475
 20
61.67770338959252
 10
65.09105675937482
 20
61.67770338959253
 10
65.09105675937482
 20
57.27770338959246
 10
65.49105675937477
 20
56.87770338959253
 97
        4
330
9D7A
330
9DA7
330
9D79
330
9DA4
 75
     0
 76
     1
 52
0.0
 41
0.5
 77
     0
 78
     1
 53
45.0
 43
0.0
 44
0.0
 45
-1.122532015133643
 46
1.122532015133644
 79
     0
 47
0.0322698829724259
 98
       11
 10
25.93533498805056
 20
58.60989928356332
 10
29.57873111913637
 20
46.56248130608753
 10
29.48531052936278
 20
55.80817417252245
 10
58.66600194195706
 20
56.09727521296377
 10
60.25414913924982
 20
56.28405666230583
 10
58.57258175630602
 20
46.01106481321664
 10
60.06730795970276
 20
46.85158234652891
 10
67.4475204075253
 20
53.66911333769803
 10
67.1672590423272
 20
45.17054727990438
 10
61.82777904466331
 20
58.67753119941085
 10
65.41087040266808
 20
59.03249982140176
1001
ACAD
1010
0.0
1020
0.0
1030
0.0
  0
LEADER
  5
A042
330
18
100
AcDbEntity
  8
mark
100
AcDbLeader
  3
STANDARD
 76
     2
 10
58.92905675937476
 20
42.42770338959252
 30
0.0
 10
53.30565928147378
 20
36.80430591169155
 30
0.0
1001
ACAD
1000
DSTYLE
1002
{
1070
   147
1040
0.4
1070
    77
1070
     0
1002
}
  0
TEXT
  5
A043
330
18
100
AcDbEntity
  8
dim
100
AcDbText
 10
53.42732488421707
 20
37.77335002622842
 30
0.0
 40
1.25
  1
C1.5
 50
45.00000000000007
  7
TXT
100
AcDbText
  0
DIMENSION
  5
A045
330
18
100
AcDbEntity
  8
mark
100
AcDbDimension
  2
*D10
 10
20.9910567593748
 20
42.67770338959254
 30
0.0
 11
17.4608400585909
 21
39.14748668880858
 31
0.0
 70
   164
 71
     5
 42
1.000000000000007
  3
STANDARD
100
AcDbRadialDimension
 15
20.28394997818825
 25
41.97059660840599
 35
0.0
 40
0.0
1001
ACAD
1000
DSTYLE
1002
{
1070
   288
1070
     1
1002
}
  0
DIMENSION
  5
A062
330
18
100
AcDbEntity
  8
mark
100
AcDbDimension
  2
*D11
 10
25.15696458809834
 20
93.48882792385539
 30
0.0
 11
72.29316555987253
 21
106.1335572456753
 31
0.0
 70
   163
  1
P.C.D 39
 71
     5
 42
39.00000000000003
  3
STANDARD
100
AcDbDiametricDimension
 15
62.82514893065127
 25
103.5936727190737
 35
0.0
 40
0.0
1001
ACAD
1000
DSTYLE
1002
{
1070
   288
1070
     1
1002
}
  0
ARC
  5
A06E
330
18
100
AcDbEntity
  8
center
 48
0.1
100
AcDbCircle
 10
43.99105675937483
 20
98.54125032146459
 30
0.0
 40
20.25000000000001
100
AcDbArc
 50
121.8141120601633
 51
164.7897481647558
  0
ARC
  5
A06F
330
18
100
AcDbEntity
  8
center
 48
0.1
100
AcDbCircle
 10
43.99105675937477
 20
98.54125032146459
 30
0.0
 40
20.25
100
AcDbArc
 50
31.81411206016342
 51
58.18588793983639
  0
ARC
  5
A071
330
18
100
AcDbEntity
  8
center
 48
0.1
100
AcDbCircle
 10
43.99105675937479
 20
98.54125032146463
 30
0.0
 40
20.25000000000001
100
AcDbArc
 50
290.0000000000001
 51
344.7897481647557
  0
ARC
  5
A072
330
18
100
AcDbEntity
  8
center
 48
0.1
100
AcDbCircle
 10
43.99105675937486
 20
98.5412503214647
 30
0.0
 40
20.25
100
AcDbArc
 50
211.8141120601635
 51
238.1858879398365
  0
DIMENSION
  5
A090
330
18
100
AcDbEntity
  8
mark
100
AcDbDimension
  2
*D12
 10
63.21670316559742
 20
92.18223937141102
 30
0.0
 11
15.24099941938635
 21
108.050523797985
 31
0.0
 70
   163
  1
P.C.D 40.5
 71
     5
 42
40.50000000000001
  3
STANDARD
100
AcDbDiametricDimension
 15
24.76541035315225
 25
104.9002612715181
 35
0.0
 40
0.0
1001
ACAD
1000
DSTYLE
1002
{
1070
   288
1070
     1
1002
}
  0
MTEXT
  5
A0A7
330
18
100
AcDbEntity
  8
0
100
AcDbMText
 10
23.82548616095238
 20
9.53802950808307
 30
0.0
 40
2.25
 41
0.0
 71
     1
 72
     5
  1
{\Ftxt,bigfont|c128;小\~柳}
  7
JL
 73
     1
 44
1.0
1001
ACAD
1000
ACAD_MTEXT_DEFINED_HEIGHT_BEGIN
1070
    46
1040
0.0
1000
ACAD_MTEXT_DEFINED_HEIGHT_END
  0
MTEXT
  5
A0D0
330
18
100
AcDbEntity
  8
dim
100
AcDbMText
 10
5.055839878608594
 20
20.46495499215439
 30
0.0
 40
2.25
 41
0.0
 71
     1
 72
     5
  1
{\Ftxt,bigfont|c128;07.10.03\~寸法一部変更  林}
  7
JL
 73
     1
 44
1.0
1001
ACAD
1000
ACAD_MTEXT_DEFINED_HEIGHT_BEGIN
1070
    46
1040
0.0
1000
ACAD_MTEXT_DEFINED_HEIGHT_END
  0
CIRCLE
  5
A0D1
330
18
100
AcDbEntity
  8
dim
100
AcDbCircle
 10
22.2651827197974
 20
19.35734620374637
 30
0.0
 40
1.415637055873787
  0
LWPOLYLINE
  5
A0D6
330
18
100
AcDbEntity
  8
mark
100
AcDbPolyline
 90
        3
 70
     1
 43
0.0
 10
68.20972735914529
 20
52.05900508139075
 10
70.45972735914529
 20
50.75996697571409
 10
70.45972735914529
 20
53.35804318706741
  0
TEXT
  5
A0D7
330
18
100
AcDbEntity
  8
dim
100
AcDbText
 10
70.18011989117354
 20
51.86862327923518
 30
0.0
 40
1.25
  1
1
 50
90.0
  7
TXT
100
AcDbText
  0
MTEXT
  5
A0F3
330
18
100
AcDbEntity
  8
mark
 62
     3
100
AcDbMText
 10
69.82109769584049
 20
55.84396482984892
 30
0.0
 40
1.25
 41
0.0
 71
     5
 72
     1
  1
12.25
 11
0.0000000000000001
 21
1.0
 31
0.0
 73
     1
 44
1.0
1001
ACAD
1000
ACAD_MTEXT_DEFINED_HEIGHT_BEGIN
1070
    46
1040
0.0
1000
ACAD_MTEXT_DEFINED_HEIGHT_END
  0
LINE
  5
A0F4
330
18
100
AcDbEntity
  8
mark
 62
     1
100
AcDbLine
 10
71.17024531797165
 20
57.13709150069843
 30
0.0
 11
71.17024531797165
 21
53.27700240216251
 31
0.0
  0
LINE
  5
A0F5
330
18
100
AcDbEntity
  8
mark
 62
     1
100
AcDbLine
 10
71.64891552417691
 20
57.15623802380054
 30
0.0
 11
71.64891552417691
 21
53.26605460747856
 31
0.0
  0
LWPOLYLINE
  5
A133
330
18
100
AcDbEntity
  8
mark
100
AcDbPolyline
 90
        3
 70
     1
 43
0.0
 10
4.143786049811413
 20
21.82644654675219
 10
2.700410376837356
 20
24.32644654675219
 10
1.257034703863285
 20
21.82644654675219
  0
MTEXT
  5
A134
330
18
100
AcDbEntity
  8
dim
100
AcDbMText
 10
2.26793499816789
 20
23.32169287728468
 30
0.0
 40
1.25
 41
4.581557073439626
 71
     1
 72
     5
  1
2
 73
     1
 44
1.0
1001
ACAD
1000
ACAD_MTEXT_DEFINED_HEIGHT_BEGIN
1070
    46
1040
0.0
1000
ACAD_MTEXT_DEFINED_HEIGHT_END
  0
MTEXT
  5
A135
330
18
100
AcDbEntity
  8
dim
100
AcDbMText
 10
5.025385305547246
 20
24.05672553797734
 30
0.0
 40
2.25
 41
0.0
 71
     1
 72
     5
  1
{\Ftxt,bigfont|c128;08.08.08 振れ精度の変更  林}
  7
JL
 73
     1
 44
1.0
1001
ACAD
1000
ACAD_MTEXT_DEFINED_HEIGHT_BEGIN
1070
    46
1040
0.0
1000
ACAD_MTEXT_DEFINED_HEIGHT_END
  0
CIRCLE
  5
A136
330
18
100
AcDbEntity
  8
dim
100
AcDbCircle
 10
23.91253695256012
 20
22.90181622799395
 30
0.0
 40
1.381204854054431
  0
LWPOLYLINE
  5
A137
330
18
100
AcDbEntity
  8
mark
100
AcDbPolyline
 90
        3
 70
     1
 43
0.0
 10
4.143786049811414
 20
18.23467600092923
 10
2.700410376837357
 20
20.73467600092924
 10
1.257034703863286
 20
18.23467600092923
  0
MTEXT
  5
A138
330
18
100
AcDbEntity
  8
dim
100
AcDbMText
 10
2.526435907311327
 20
19.90877988827041
 30
0.0
 40
1.25
 41
4.581557073439626
 71
     1
 72
     5
  1
1
 73
     1
 44
1.0
1001
ACAD
1000
ACAD_MTEXT_DEFINED_HEIGHT_BEGIN
1070
    46
1040
0.0
1000
ACAD_MTEXT_DEFINED_HEIGHT_END
  0
LWPOLYLINE
  5
A139
330
18
100
AcDbEntity
  8
mark
100
AcDbPolyline
 90
        3
 70
     1
 43
0.0
 10
83.97496863615279
 20
68.64258500877514
 10
82.53159296317873
 20
71.14258500877514
 10
81.08821729020466
 20
68.64258500877514
  0
MTEXT
  5
A13A
330
18
100
AcDbEntity
  8
dim
100
AcDbMText
 10
82.09911758450926
 20
70.13783133930764
 30
0.0
 40
1.25
 41
4.581557073439626
 71
     1
 72
     5
  1
2
 73
     1
 44
1.0
1001
ACAD
1000
ACAD_MTEXT_DEFINED_HEIGHT_BEGIN
1070
    46
1040
0.0
1000
ACAD_MTEXT_DEFINED_HEIGHT_END
  0
MTEXT
  5
A13B
330
18
100
AcDbEntity
  8
dim
100
AcDbMText
 10
84.60104601251657
 20
70.13783133930764
 30
0.0
 40
1.25
 41
4.581557073439626
 71
     1
 72
     5
  1
0.007
 73
     1
 44
1.0
1001
ACAD
1000
ACAD_MTEXT_DEFINED_HEIGHT_BEGIN
1070
    46
1040
0.0
1000
ACAD_MTEXT_DEFINED_HEIGHT_END
  0
LINE
  5
A13C
330
18
100
AcDbEntity
  8
mark
 62
     1
100
AcDbLine
 10
84.2673102648796
 20
66.87230464683068
 30
0.0
 11
89.26064943460028
 21
66.87230464683068
 31
0.0
  0
LINE
  5
A13D
330
18
100
AcDbEntity
  8
mark
 62
     1
100
AcDbLine
 10
84.2673102648796
 20
66.50067753425514
 30
0.0
 11
89.26064943460028
 21
66.50067753425514
 31
0.0
  0
LWPOLYLINE
  5
A13E
330
18
100
AcDbEntity
  8
mark
100
AcDbPolyline
 90
        3
 70
     1
 43
0.0
 10
90.89562525204927
 20
1.295788023990382
 10
89.45224957907521
 20
3.795788023990382
 10
88.00887390610114
 20
1.295788023990382
  0
MTEXT
  5
A13F
330
18
100
AcDbEntity
  8
dim
100
AcDbMText
 10
89.01977420040575
 20
2.791034354522878
 30
0.0
 40
1.25
 41
4.581557073439626
 71
     1
 72
     5
  1
2
 73
     1
 44
1.0
1001
ACAD
1000
ACAD_MTEXT_DEFINED_HEIGHT_BEGIN
1070
    46
1040
0.0
1000
ACAD_MTEXT_DEFINED_HEIGHT_END
  0
ENDSEC
  0
SECTION
  2
OBJECTS
  0
DICTIONARY
  5
C
330
0
100
AcDbDictionary
281
     1
  3
ACAD_COLOR
350
7873
  3
ACAD_GROUP
350
D
  3
ACAD_LAYOUT
350
5CF3
  3
ACAD_MATERIAL
350
7872
  3
ACAD_MLINESTYLE
350
1B
  3
ACAD_PLOTSETTINGS
350
5CF4
  3
ACAD_PLOTSTYLENAME
350
5CF1
  3
ACAD_TABLESTYLE
350
7874
  3
AcadDim
350
9E4A
  3
ACDBVARIABLEDICTIONARY
350
45D
  0
DICTIONARY
  5
7BFE
330
2
100
AcDbDictionary
280
     1
281
     1
  3
ACAD_LAYERFILTERS
360
7C00
  3
ACLYDICTIONARY
360
7BFF
  0
DICTIONARY
  5
45F
330
18
100
AcDbDictionary
280
     1
281
     1
  3
ACAD_LAYOUTSELFREF
360
5D8B
  3
ACAD_SORTENTS
360
460
  0
DICTIONARY
  5
5D89
330
15
100
AcDbDictionary
280
     1
281
     1
  3
ACAD_LAYOUTSELFREF
360
5D8A
  0
DICTIONARY
  5
7C0B
330
7C0A
100
AcDbDictionary
280
     1
281
     1
  3
AcDbBlockTableRecordData
360
7C0C
  0
DICTIONARY
  5
8E73
330
8E72
100
AcDbDictionary
280
     1
281
     1
  3
AcDbBlockTableRecordData
360
8E74
  0
DICTIONARY
  5
7873
102
{ACAD_REACTORS
330
C
102
}
330
C
100
AcDbDictionary
281
     1
  0
DICTIONARY
  5
D
102
{ACAD_REACTORS
330
C
102
}
330
C
100
AcDbDictionary
281
     1
  0
DICTIONARY
  5
5CF3
102
{ACAD_REACTORS
330
C
102
}
330
C
100
AcDbDictionary
281
     1
  3
Model
350
5CF5
  3
配置1
350
5CF6
  0
DICTIONARY
  5
7872
102
{ACAD_REACTORS
330
C
102
}
330
C
100
AcDbDictionary
281
     1
  0
DICTIONARY
  5
1B
102
{ACAD_REACTORS
330
C
102
}
330
C
100
AcDbDictionary
281
     1
  3
STANDARD
350
1C
  0
DICTIONARY
  5
5CF4
102
{ACAD_REACTORS
330
C
102
}
330
C
100
AcDbDictionary
281
     1
  0
ACDBDICTIONARYWDFLT
  5
5CF1
102
{ACAD_REACTORS
330
C
102
}
330
C
100
AcDbDictionary
281
     1
  3
Normal
350
5CF2
100
AcDbDictionaryWithDefault
340
5CF2
  0
DICTIONARY
  5
7874
102
{ACAD_REACTORS
330
C
102
}
330
C
100
AcDbDictionary
281
     1
  3
Standard
350
7875
  0
XRECORD
  5
9E4A
102
{ACAD_REACTORS
330
C
102
}
330
C
100
AcDbXrecord
280
     1
 90
   990106
  3

 60
     0
 61
     0
 62
     1
 63
     3
 64
     0
 65
     0
 66
     0
 67
     3
 68
     1
 69
     0
 70
     0
 71
     0
 72
     0
 40
0.0
170
     0
  0
DICTIONARY
  5
45D
102
{ACAD_REACTORS
330
C
102
}
330
C
100
AcDbDictionary
281
     1
  3
CTABLESTYLE
350
7880
  3
SORTENTS
350
45E
  0
DICTIONARY
  5
7C00
102
{ACAD_REACTORS
330
7BFE
102
}
330
7BFE
100
AcDbDictionary
281
     1
  0
DICTIONARY
  5
7BFF
102
{ACAD_REACTORS
330
7BFE
102
}
330
7BFE
100
AcDbDictionary
281
     1
1001
ACAD
1000
<All
  0
XRECORD
  5
5D8B
102
{ACAD_REACTORS
330
45F
102
}
330
45F
100
AcDbXrecord
280
     1
340
18
  0
SORTENTSTABLE
  5
460
102
{ACAD_REACTORS
330
45F
102
}
330
45F
100
AcDbSortentsTable
330
18
331
9DA0
  5
9DA2
331
7D9C
  5
7D9C
331
9AAA
  5
9AAC
331
9B19
  5
9B1E
331
9DA8
  5
9DAA
331
7DA4
  5
7DA4
331
7D6D
  5
7D6D
331
9AB2
  5
9AB3
331
C0
  5
CB
331
9D79
  5
9D7B
331
7DAC
  5
7DAC
331
7D75
  5
7D75
331
9AC2
  5
9AC4
331
9DB0
  5
9DB2
331
9F1E
  5
9F3A
331
A0F3
  5
A0F3
331
9DB8
  5
9DBA
331
7DB4
  5
7DB4
331
9ACA
  5
9ACD
331
9D81
  5
9D83
331
7DBC
  5
7DBC
331
7D7D
  5
7D7D
331
9DC0
  5
9DC2
331
9D89
  5
9D8B
331
7D85
  5
7D85
331
9B02
  5
9B06
331
9D91
  5
9D93
331
7D8D
  5
7D8D
331
9A9B
  5
9A9B
331
9B0A
  5
9B0E
331
A045
  5
A045
331
9D99
  5
9D9B
331
7D95
  5
7D95
331
9B12
  5
9B16
331
9EBF
  5
9EC0
331
9DA1
  5
9DA3
331
7D9D
  5
7D9D
331
9B1A
  5
9B1F
331
9EC7
  5
9F14
331
9DA9
  5
9DAB
331
7D6E
  5
7D6E
331
7DA5
  5
7DA5
331
9AB3
  5
9AB4
331
9D7A
  5
9D7C
331
7DAD
  5
7DAD
331
7D76
  5
7D76
331
9AC3
  5
9AC5
331
9DB1
  5
9DB3
331
9DB9
  5
9DBB
331
7DB5
  5
7DB5
331
9ACB
  5
9AFE
331
9D82
  5
9D84
331
7DBD
  5
7DBD
331
7D7E
  5
7D7E
331
9DC1
  5
9DC3
331
9D8A
  5
9D8C
331
7D86
  5
7D86
331
9B03
  5
9B07
331
9D92
  5
9D94
331
7D8E
  5
7D8E
331
9B0B
  5
9B0F
331
9D9A
  5
9D9C
331
7D96
  5
7D96
331
9B13
  5
9B19
331
9EC0
  5
9EC1
331
9DA2
  5
9DA4
331
7D9E
  5
7D9E
331
9AAC
  5
9AAD
331
9B1B
  5
9B20
331
9E61
  5
9E6E
331
9DAA
  5
9DAC
331
7D6F
  5
7D6F
331
7DA6
  5
7DA6
331
9AB4
  5
9AB5
331
9D7B
  5
9D7D
331
7DAE
  5
7DAE
331
7D77
  5
7D77
331
9AC4
  5
9AC6
331
9DB2
  5
9DB4
331
A06E
  5
A06E
331
9DBA
  5
9DBC
331
7DB6
  5
7DB6
331
9D83
  5
9D85
331
7D7F
  5
7D7F
331
9DC2
  5
9DF1
331
9D8B
  5
9D8D
331
7D87
  5
7D87
331
9B04
  5
9B08
331
9D93
  5
9D95
331
7D8F
  5
7D8F
331
9A9D
  5
9A9E
331
9B0C
  5
9B10
331
9D9B
  5
9D9D
331
7D97
  5
7D97
331
9EC1
  5
9EC5
331
9DA3
  5
9DA5
331
7D9F
  5
7D9F
331
9AAD
  5
9AAF
331
9B1C
  5
9B23
331
9DAB
  5
9DAD
331
7D70
  5
7D70
331
9AB5
  5
9AB6
331
A0D6
  5
A0D6
331
9D7C
  5
9D7E
331
7DAF
  5
7DAF
331
9AC5
  5
9AC7
331
9DB3
  5
9DB5
331
A06F
  5
A06F
331
9DBB
  5
9DBD
331
7DB7
  5
7DB7
331
7D78
  5
7D78
331
9D84
  5
9D86
331
7D80
  5
7D80
331
9AFD
  5
9B01
331
9DC3
  5
9DFE
331
9E8A
  5
9EBA
331
9D8C
  5
9D8E
331
7D88
  5
7D88
331
9B05
  5
9B09
331
9D94
  5
9D96
331
9B0D
  5
9B11
331
7D90
  5
7D90
331
9EBA
  5
9EBB
331
9D9C
  5
9D9E
331
9B15
  5
9B1A
331
7D98
  5
7D98
331
9DA4
  5
9DA6
331
7DA0
  5
7DA0
331
9B1D
  5
9B24
331
A0A7
  5
A0A7
331
9DAC
  5
9DAE
331
7DA8
  5
7DA8
331
7D71
  5
7D71
331
9AB6
  5
9ABE
331
A0D7
  5
A0D7
331
9D7D
  5
9D7F
331
7DB0
  5
7DB0
331
9AC6
  5
9AC9
331
9DB4
  5
9DB6
331
9F3A
  5
9F3B
331
9DBC
  5
9DBE
331
7DB8
  5
7DB8
331
7D79
  5
7D79
331
9D85
  5
9D87
331
7D81
  5
7D81
331
9AFE
  5
9B02
331
9D8D
  5
9D8F
331
7D89
  5
7D89
331
9B06
  5
9B0A
331
A090
  5
A090
331
9D95
  5
9D97
331
7D91
  5
7D91
331
9B0E
  5
9B12
331
9EBB
  5
9EBC
331
9D9D
  5
9D9F
331
9B16
  5
9B1B
331
7D99
  5
7D99
331
9DA5
  5
9DA7
331
9AAF
  5
9AB0
331
9B1E
  5
9B25
331
A0D0
  5
A0D0
331
9DAD
  5
9DAF
331
7D72
  5
7D72
331
7DA9
  5
7DA9
331
9AB7
  5
9AC2
331
9D7E
  5
9D80
331
7DB1
  5
7DB1
331
9AC7
  5
9ACA
331
9DB5
  5
9DB7
331
9F3B
  5
9F3C
331
A071
  5
A071
331
9DBD
  5
9DBF
331
7D7A
  5
7D7A
331
9D86
  5
9D88
331
7D82
  5
7D82
331
9AFF
  5
9B03
331
9D8E
  5
9D90
331
7D8A
  5
7D8A
331
9B07
  5
9B0B
331
A042
  5
A042
331
9D96
  5
9D98
331
9B0F
  5
9B13
331
7D92
  5
7D92
331
9AA0
  5
9AA1
331
9EBC
  5
9EBD
331
9E3D
  5
9E61
331
9D9E
  5
9DA0
331
9B17
  5
9B1C
331
7D9A
  5
7D9A
331
9DA6
  5
9DA8
331
7DA2
  5
7DA2
331
9AB0
  5
9AB1
331
9B1F
  5
9CE9
331
A0D1
  5
A0D1
331
9F14
  5
9F15
331
A062
  5
A062
331
9DAE
  5
9DB0
331
7DAA
  5
7DAA
331
7D73
  5
7D73
331
9AC0
  5
9AC3
331
9D7F
  5
9D81
331
7DB2
  5
7DB2
331
9DB6
  5
9DB8
331
9F3C
  5
9F3D
331
A072
  5
A072
331
9DBE
  5
9DC0
331
7DBA
  5
7DBA
331
7D7B
  5
7D7B
331
9E7D
  5
9E8A
331
9D87
  5
9D89
331
7D83
  5
7D83
331
9B00
  5
9B04
331
A033
  5
9D7A
331
9D8F
  5
9D91
331
7D8B
  5
7D8B
331
9DFE
  5
9E3D
331
A043
  5
A043
331
9D97
  5
9D99
331
7D93
  5
7D93
331
9AA1
  5
9AA2
331
9B10
  5
9B14
331
9EBD
  5
9EBE
331
9D9F
  5
9DA1
331
7D9B
  5
7D9B
331
9AA9
  5
9AAA
331
9B18
  5
9B1D
331
9EC5
  5
9EC7
331
9DA7
  5
9DA9
331
7DA3
  5
7DA3
331
7D6C
  5
7D6C
331
9AB1
  5
9AB2
331
9CE8
  5
9CEA
331
9F15
  5
9F1D
331
9DAF
  5
9DB1
331
7D74
  5
7D74
331
9F1D
  5
9F1E
331
9E6E
  5
9E7D
331
9DB7
  5
9DB9
331
9AC9
  5
9ACB
331
9F3D
  5
9FB1
331
9DBF
  5
9DC1
331
7D7C
  5
7D7C
331
7DBB
  5
7DBB
331
9AF9
  5
9B00
331
9D80
  5
9D82
331
7D84
  5
7D84
331
9B01
  5
9B05
331
9D88
  5
9D8A
331
7D8C
  5
7D8C
331
9B09
  5
9B0D
331
9D90
  5
9D92
331
7D94
  5
7D94
331
9AA2
  5
9AA7
331
9B11
  5
9B15
331
9D98
  5
9D9A
331
9EBE
  5
9EBF
  0
XRECORD
  5
5D8A
102
{ACAD_REACTORS
330
5D89
102
}
330
5D89
100
AcDbXrecord
280
     1
340
15
  0
DICTIONARY
  5
7C0C
102
{ACAD_REACTORS
330
7C0B
102
}
330
7C0B
100
AcDbDictionary
280
     1
281
     1
  3
Edit
360
7C0D
  0
DICTIONARY
  5
8E74
102
{ACAD_REACTORS
330
8E73
102
}
330
8E73
100
AcDbDictionary
280
     1
281
     1
  3
Edit
360
8E75
  0
LAYOUT
  5
5CF5
102
{ACAD_REACTORS
330
5CF3
102
}
330
5CF3
100
AcDbPlotSettings
  1

  2
hp LaserJet 1300 PCL 6
  4
A4
  6

 40
5.027083396911621
 41
5.069413185119628
 42
5.027084350585937
 43
5.027069091796875
 44
209.9733276367187
 45
296.9683227539062
 46
4.959579944610595
 47
3.435920238494873
 48
0.0
 49
0.0
140
95.0
141
140.0
142
1.0
143
0.5
 70
 11956
 72
     1
 73
     0
 74
     4
  7
LIN.ctb
 75
    27
147
2.0
 76
     0
 77
     2
 78
   300
148
0.0
149
0.0
100
AcDbLayout
  1
Model
 70
     1
 71
     0
 10
0.0
 20
0.0
 11
12.0
 21
9.0
 12
0.0
 22
0.0
 32
0.0
 14
0.0
 24
0.0
 34
0.0
 15
0.0
 25
0.0
 35
0.0
146
0.0
 13
0.0
 23
0.0
 33
0.0
 16
1.0
 26
0.0
 36
0.0
 17
0.0
 27
1.0
 37
0.0
 76
     0
330
18
1001
ACAD_PSEXT
1000
hp LaserJet 1300 PCL 6
1000
hp LaserJet 1300 PCL 6
1000
HP 1300
1000

1070
     0
  0
LAYOUT
  5
5CF6
102
{ACAD_REACTORS
330
5CF3
102
}
330
5CF3
100
AcDbPlotSettings
  1

  2
EPSON STYLUS COLOR 440
  4

  6

 40
0.0
 41
0.0
 42
0.0
 43
0.0
 44
0.0
 45
0.0
 46
0.0
 47
0.0
 48
0.0
 49
0.0
140
0.0
141
0.0
142
1.0
143
1.0
 70
   688
 72
     0
 73
     0
 74
     5
  7
LIN.ctb
 75
    16
147
1.0
 76
     0
 77
     2
 78
   300
148
0.0
149
0.0
100
AcDbLayout
  1
ｰtｸm1
 70
     1
 71
     1
 10
0.0
 20
0.0
 11
420.0
 21
297.0
 12
0.0
 22
0.0
 32
0.0
 14
1.000000000000000E+20
 24
1.000000000000000E+20
 34
1.000000000000000E+20
 15
-1.000000000000000E+20
 25
-1.000000000000000E+20
 35
-1.000000000000000E+20
146
0.0
 13
0.0
 23
0.0
 33
0.0
 16
1.0
 26
0.0
 36
0.0
 17
0.0
 27
1.0
 37
0.0
 76
     0
330
15
  0
MLINESTYLE
  5
1C
102
{ACAD_REACTORS
330
1B
102
}
330
1B
100
AcDbMlineStyle
  2
STANDARD
 70
     0
  3

 62
   256
 51
90.0
 52
90.0
 71
     2
 49
0.5
 62
   256
  6
BYLAYER
 49
-0.5
 62
   256
  6
BYLAYER
  0
ACDBPLACEHOLDER
  5
5CF2
102
{ACAD_REACTORS
330
5CF1
102
}
330
5CF1
  0
TABLESTYLE
  5
7875
102
{ACAD_REACTORS
330
7874
102
}
330
7874
100
AcDbTableStyle
  3
Standard
 70
     0
 71
     8
 40
1.5
 41
1.5
280
     0
281
     0
  7
STANDARD
140
4.5
170
     2
 62
     0
 63
     7
283
     0
274
    -2
284
     1
 64
     0
275
    -2
285
     1
 65
     0
276
    -2
286
     1
 66
     0
277
    -2
287
     1
 67
     0
278
    -2
288
     1
 68
     0
279
    -2
289
     1
 69
     0
  7
STANDARD
140
6.0
170
     5
 62
     0
 63
     7
283
     0
274
    -2
284
     1
 64
     0
275
    -2
285
     1
 65
     0
276
    -2
286
     1
 66
     0
277
    -2
287
     1
 67
     0
278
    -2
288
     1
 68
     0
279
    -2
289
     1
 69
     0
  7
STANDARD
140
4.5
170
     5
 62
     0
 63
     7
283
     0
274
    -2
284
     1
 64
     0
275
    -2
285
     1
 65
     0
276
    -2
286
     1
 66
     0
277
    -2
287
     1
 67
     0
278
    -2
288
     1
 68
     0
279
    -2
289
     1
 69
     0
  0
DICTIONARYVAR
  5
7880
102
{ACAD_REACTORS
330
45D
102
}
330
45D
100
DictionaryVariables
280
     0
  1
STANDARD
  0
DICTIONARYVAR
  5
45E
102
{ACAD_REACTORS
330
45D
102
}
330
45D
100
DictionaryVariables
280
     0
  1
127
  0
XRECORD
  5
7C0D
102
{ACAD_REACTORS
330
7C0C
102
}
330
7C0C
100
AcDbXrecord
280
     1
1070
     0
1070
     1
1070
     1
  0
XRECORD
  5
8E75
102
{ACAD_REACTORS
330
8E74
102
}
330
8E74
100
AcDbXrecord
280
     1
1070
     0
1070
     1
1070
     1
  0
ENDSEC
  0
EOF
