  0
SECTION
  2
HEADER
  9
$ACADVER
  1
AC1018
  9
$ACADMAINTVER
 70
    76
  9
$DWGCODEPAGE
  3
ANSI_932
  9
$INSBASE
 10
0.0
 20
0.0
 30
0.0
  9
$EXTMIN
 10
0.0
 20
0.0
 30
0.0
  9
$EXTMAX
 10
190.0
 20
280.0
 30
3.838383838383842
  9
$LIMMIN
 10
0.0
 20
0.0
  9
$LIMMAX
 10
420.0
 20
297.0
  9
$ORTHOMODE
 70
     0
  9
$REGENMODE
 70
     1
  9
$FILLMODE
 70
     1
  9
$QTEXTMODE
 70
     0
  9
$MIRRTEXT
 70
     1
  9
$LTSCALE
 40
1.0
  9
$ATTMODE
 70
     1
  9
$TEXTSIZE
 40
1.25
  9
$TRACEWID
 40
1.0
  9
$TEXTSTYLE
  7
TXT
  9
$CLAYER
  8
section
  9
$CELTYPE
  6
BYLAYER
  9
$CECOLOR
 62
   256
  9
$CELTSCALE
 40
1.0
  9
$DISPSILH
 70
     0
  9
$DIMSCALE
 40
1.0
  9
$DIMASZ
 40
2.5
  9
$DIMEXO
 40
0.85
  9
$DIMDLI
 40
0.38
  9
$DIMRND
 40
0.0
  9
$DIMDLE
 40
0.0
  9
$DIMEXE
 40
0.85
  9
$DIMTP
 40
0.0
  9
$DIMTM
 40
0.0
  9
$DIMTXT
 40
2.5
  9
$DIMCEN
 40
0.09
  9
$DIMTSZ
 40
0.0
  9
$DIMTOL
 70
     0
  9
$DIMLIM
 70
     0
  9
$DIMTIH
 70
     0
  9
$DIMTOH
 70
     0
  9
$DIMSE1
 70
     0
  9
$DIMSE2
 70
     0
  9
$DIMTAD
 70
     3
  9
$DIMZIN
 70
     8
  9
$DIMBLK
  1
Open30
  9
$DIMASO
 70
     1
  9
$DIMSHO
 70
     1
  9
$DIMPOST
  1

  9
$DIMAPOST
  1

  9
$DIMALT
 70
     0
  9
$DIMALTD
 70
     2
  9
$DIMALTF
 40
25.4
  9
$DIMLFAC
 40
1.0
  9
$DIMTOFL
 70
     1
  9
$DIMTVP
 40
0.0
  9
$DIMTIX
 70
     0
  9
$DIMSOXD
 70
     0
  9
$DIMSAH
 70
     0
  9
$DIMBLK1
  1

  9
$DIMBLK2
  1

  9
$DIMSTYLE
  2
STANDARD
  9
$DIMCLRD
 70
   256
  9
$DIMCLRE
 70
   256
  9
$DIMCLRT
 70
     3
  9
$DIMTFAC
 40
1.0
  9
$DIMGAP
 40
0.85
  9
$DIMJUST
 70
     0
  9
$DIMSD1
 70
     0
  9
$DIMSD2
 70
     0
  9
$DIMTOLJ
 70
     1
  9
$DIMTZIN
 70
     0
  9
$DIMALTZ
 70
     0
  9
$DIMALTTZ
 70
     0
  9
$DIMUPT
 70
     0
  9
$DIMDEC
 70
     2
  9
$DIMTDEC
 70
     2
  9
$DIMALTU
 70
     2
  9
$DIMALTTD
 70
     2
  9
$DIMTXSTY
  7
STANDARD
  9
$DIMAUNIT
 70
     0
  9
$DIMADEC
 70
     2
  9
$DIMALTRND
 40
0.0
  9
$DIMAZIN
 70
     2
  9
$DIMDSEP
 70
    46
  9
$DIMATFIT
 70
     3
  9
$DIMFRAC
 70
     0
  9
$DIMLDRBLK
  1
Open30
  9
$DIMLUNIT
 70
     2
  9
$DIMLWD
 70
    -2
  9
$DIMLWE
 70
    -2
  9
$DIMTMOVE
 70
     0
  9
$LUNITS
 70
     2
  9
$LUPREC
 70
     2
  9
$SKETCHINC
 40
1.0
  9
$FILLETRAD
 40
1.0
  9
$AUNITS
 70
     0
  9
$AUPREC
 70
     2
  9
$MENU
  1
.
  9
$ELEVATION
 40
0.0
  9
$PELEVATION
 40
0.0
  9
$THICKNESS
 40
0.0
  9
$LIMCHECK
 70
     0
  9
$CHAMFERA
 40
1.5
  9
$CHAMFERB
 40
1.5
  9
$CHAMFERC
 40
1.75
  9
$CHAMFERD
 40
0.0174532925199433
  9
$SKPOLY
 70
     0
  9
$TDCREATE
 40
2451555.620234838
  9
$TDUCREATE
 40
2451555.245234838
  9
$TDUPDATE
 40
2455846.620429236
  9
$TDUUPDATE
 40
2455846.245429236
  9
$TDINDWG
 40
2.6939076505
  9
$TDUSRTIMER
 40
2.6939076505
  9
$USRTIMER
 70
     1
  9
$ANGBASE
 50
0.0
  9
$ANGDIR
 70
     0
  9
$PDMODE
 70
     0
  9
$PDSIZE
 40
0.0
  9
$PLINEWID
 40
0.0
  9
$SPLFRAME
 70
     0
  9
$SPLINETYPE
 70
     6
  9
$SPLINESEGS
 70
     8
  9
$HANDSEED
  5
AC25
  9
$SURFTAB1
 70
     6
  9
$SURFTAB2
 70
     6
  9
$SURFTYPE
 70
     6
  9
$SURFU
 70
     6
  9
$SURFV
 70
     6
  9
$UCSBASE
  2

  9
$UCSNAME
  2

  9
$UCSORG
 10
0.0
 20
0.0
 30
0.0
  9
$UCSXDIR
 10
1.0
 20
0.0
 30
0.0
  9
$UCSYDIR
 10
0.0
 20
1.0
 30
0.0
  9
$UCSORTHOREF
  2

  9
$UCSORTHOVIEW
 70
     0
  9
$UCSORGTOP
 10
0.0
 20
0.0
 30
0.0
  9
$UCSORGBOTTOM
 10
0.0
 20
0.0
 30
0.0
  9
$UCSORGLEFT
 10
0.0
 20
0.0
 30
0.0
  9
$UCSORGRIGHT
 10
0.0
 20
0.0
 30
0.0
  9
$UCSORGFRONT
 10
0.0
 20
0.0
 30
0.0
  9
$UCSORGBACK
 10
0.0
 20
0.0
 30
0.0
  9
$PUCSBASE
  2

  9
$PUCSNAME
  2

  9
$PUCSORG
 10
0.0
 20
0.0
 30
0.0
  9
$PUCSXDIR
 10
1.0
 20
0.0
 30
0.0
  9
$PUCSYDIR
 10
0.0
 20
1.0
 30
0.0
  9
$PUCSORTHOREF
  2

  9
$PUCSORTHOVIEW
 70
     0
  9
$PUCSORGTOP
 10
0.0
 20
0.0
 30
0.0
  9
$PUCSORGBOTTOM
 10
0.0
 20
0.0
 30
0.0
  9
$PUCSORGLEFT
 10
0.0
 20
0.0
 30
0.0
  9
$PUCSORGRIGHT
 10
0.0
 20
0.0
 30
0.0
  9
$PUCSORGFRONT
 10
0.0
 20
0.0
 30
0.0
  9
$PUCSORGBACK
 10
0.0
 20
0.0
 30
0.0
  9
$USERI1
 70
     0
  9
$USERI2
 70
     0
  9
$USERI3
 70
     0
  9
$USERI4
 70
     0
  9
$USERI5
 70
     0
  9
$USERR1
 40
0.0
  9
$USERR2
 40
0.0
  9
$USERR3
 40
0.0
  9
$USERR4
 40
0.0
  9
$USERR5
 40
0.0
  9
$WORLDVIEW
 70
     1
  9
$SHADEDGE
 70
     3
  9
$SHADEDIF
 70
    70
  9
$TILEMODE
 70
     1
  9
$MAXACTVP
 70
    48
  9
$PINSBASE
 10
0.0
 20
0.0
 30
0.0
  9
$PLIMCHECK
 70
     0
  9
$PEXTMIN
 10
1.000000000000000E+20
 20
1.000000000000000E+20
 30
1.000000000000000E+20
  9
$PEXTMAX
 10
-1.000000000000000E+20
 20
-1.000000000000000E+20
 30
-1.000000000000000E+20
  9
$PLIMMIN
 10
0.0
 20
0.0
  9
$PLIMMAX
 10
420.0
 20
297.0
  9
$UNITMODE
 70
     0
  9
$VISRETAIN
 70
     1
  9
$PLINEGEN
 70
     0
  9
$PSLTSCALE
 70
     1
  9
$TREEDEPTH
 70
  3020
  9
$CMLSTYLE
  2
STANDARD
  9
$CMLJUST
 70
     0
  9
$CMLSCALE
 40
20.0
  9
$PROXYGRAPHICS
 70
     1
  9
$MEASUREMENT
 70
     1
  9
$CELWEIGHT
370
    -1
  9
$ENDCAPS
280
     0
  9
$JOINSTYLE
280
     0
  9
$LWDISPLAY
290
     0
  9
$INSUNITS
 70
     0
  9
$HYPERLINKBASE
  1

  9
$STYLESHEET
  1
monochrome.ctb
  9
$XEDIT
290
     1
  9
$CEPSNTYPE
380
     0
  9
$PSTYLEMODE
290
     1
  9
$FINGERPRINTGUID
  2
{1CF51E8A-A506-11D4-A7D9-AF69F5C20846}
  9
$VERSIONGUID
  2
{CCE8C2A9-BB1F-40E4-BCF9-5460B909E151}
  9
$EXTNAMES
290
     1
  9
$PSVPSCALE
 40
0.0
  9
$OLESTARTUP
290
     0
  9
$SORTENTS
280
   127
  9
$INDEXCTL
280
     0
  9
$HIDETEXT
280
     0
  9
$XCLIPFRAME
290
     0
  9
$HALOGAP
280
     0
  9
$OBSCOLOR
 70
   257
  9
$OBSLTYPE
280
     0
  9
$INTERSECTIONDISPLAY
280
     0
  9
$INTERSECTIONCOLOR
 70
   257
  9
$DIMASSOC
280
     1
  9
$PROJECTNAME
  1

  0
ENDSEC
  0
SECTION
  2
CLASSES
  0
CLASS
  1
DICTIONARYVAR
  2
AcDbDictionaryVar
  3
ObjectDBX Classes
 90
        0
 91
        2
280
     0
281
     0
  0
CLASS
  1
SORTENTSTABLE
  2
AcDbSortentsTable
  3
ObjectDBX Classes
 90
        0
 91
        1
280
     0
281
     0
  0
CLASS
  1
ACDBDICTIONARYWDFLT
  2
AcDbDictionaryWithDefault
  3
ObjectDBX Classes
 90
        0
 91
        1
280
     0
281
     0
  0
CLASS
  1
TABLESTYLE
  2
AcDbTableStyle
  3
ObjectDBX Classes
 90
     2047
 91
        1
280
     0
281
     0
  0
ENDSEC
  0
SECTION
  2
TABLES
  0
TABLE
  2
VPORT
  5
8
330
0
100
AcDbSymbolTable
 70
     2
  0
VPORT
  5
AC24
330
8
100
AcDbSymbolTableRecord
100
AcDbViewportTableRecord
  2
*Active
 70
     0
 10
0.0
 20
0.0
 11
1.0
 21
1.0
 12
245.9773133268003
 22
140.0025194298455
 13
0.0
 23
0.0
 14
10.0
 24
10.0
 15
10.0
 25
10.0
 16
0.0
 26
0.0
 36
1.0
 17
0.0
 27
0.0
 37
0.0
 40
283.4227054808517
 41
2.47104247104247
 42
50.0
 43
0.0
 44
0.0
 50
0.0
 51
0.0
 71
     0
 72
 20000
 73
     1
 74
     1
 75
     0
 76
     0
 77
     0
 78
     0
281
     0
 65
     1
110
0.0
120
0.0
130
0.0
111
1.0
121
0.0
131
0.0
112
0.0
122
1.0
132
0.0
 79
     0
146
0.0
  0
ENDTAB
  0
TABLE
  2
LTYPE
  5
5
330
0
100
AcDbSymbolTable
 70
     7
  0
LTYPE
  5
12
330
5
100
AcDbSymbolTableRecord
100
AcDbLinetypeTableRecord
  2
BYBLOCK
 70
     0
  3

 72
    65
 73
     0
 40
0.0
  0
LTYPE
  5
13
330
5
100
AcDbSymbolTableRecord
100
AcDbLinetypeTableRecord
  2
BYLAYER
 70
     0
  3

 72
    65
 73
     0
 40
0.0
  0
LTYPE
  5
14
330
5
100
AcDbSymbolTableRecord
100
AcDbLinetypeTableRecord
  2
CONTINUOUS
 70
     0
  3
Solid line
 72
    65
 73
     0
 40
0.0
  0
LTYPE
  5
9D
330
5
100
AcDbSymbolTableRecord
100
AcDbLinetypeTableRecord
  2
CENTERX2
 70
     0
  3
Center (2x) ________  __  ________  __  _____
 72
    65
 73
     4
 40
101.6
 49
63.5
 74
     0
 49
-12.7
 74
     0
 49
12.7
 74
     0
 49
-12.7
 74
     0
  0
LTYPE
  5
A1
330
5
100
AcDbSymbolTableRecord
100
AcDbLinetypeTableRecord
  2
DASHED
 70
     0
  3
Dashed __ __ __ __ __ __ __ __ __ __ __ __ __ _
 72
    65
 73
     2
 40
19.05
 49
12.7
 74
     0
 49
-6.349999999999999
 74
     0
  0
LTYPE
  5
A2
330
5
100
AcDbSymbolTableRecord
100
AcDbLinetypeTableRecord
  2
DASHED2
 70
     0
  3
Dashed (.5x) _ _ _ _ _ _ _ _ _ _ _ _ _ _ _ _ _
 72
    65
 73
     2
 40
9.524999999999998
 49
6.349999999999999
 74
     0
 49
-3.174999999999999
 74
     0
  0
LTYPE
  5
A5
330
5
100
AcDbSymbolTableRecord
100
AcDbLinetypeTableRecord
  2
DIVIDE2
 70
     0
  3
Divide (.5x) __..__..__..__..__..__..__..__.._
 72
    65
 73
     6
 40
15.875
 49
6.349999999999999
 74
     0
 49
-3.174999999999999
 74
     0
 49
0.0
 74
     0
 49
-3.174999999999999
 74
     0
 49
0.0
 74
     0
 49
-3.174999999999999
 74
     0
  0
LTYPE
  5
650B
330
5
100
AcDbSymbolTableRecord
100
AcDbLinetypeTableRecord
  2
CENTER
 70
     0
  3
Center ____ _ ____ _ ____ _ ____ _ ____ _ ____
 72
    65
 73
     4
 40
50.8
 49
31.75
 74
     0
 49
-6.349999999999999
 74
     0
 49
6.349999999999999
 74
     0
 49
-6.349999999999999
 74
     0
  0
LTYPE
  5
650C
330
5
100
AcDbSymbolTableRecord
100
AcDbLinetypeTableRecord
  2
HIDDEN
 70
     0
  3
Hidden __ __ __ __ __ __ __ __ __ __ __ __ __ _
 72
    65
 73
     2
 40
9.524999999999998
 49
6.349999999999999
 74
     0
 49
-3.174999999999999
 74
     0
  0
ENDTAB
  0
TABLE
  2
LAYER
  5
2
102
{ACAD_XDICTIONARY
360
7BFE
102
}
330
0
100
AcDbSymbolTable
 70
     9
  0
LAYER
  5
E
330
2
100
AcDbSymbolTableRecord
100
AcDbLayerTableRecord
  2
0
 70
     0
 62
     7
  6
CONTINUOUS
370
    -3
390
5CF2
  0
LAYER
  5
B9
330
2
100
AcDbSymbolTableRecord
100
AcDbLayerTableRecord
  2
dim
 70
     0
 62
     3
  6
CONTINUOUS
370
    -3
390
5CF2
  0
LAYER
  5
F2
330
2
100
AcDbSymbolTableRecord
100
AcDbLayerTableRecord
  2
DEFPOINTS
 70
     0
 62
     4
  6
CONTINUOUS
290
     0
370
    -3
390
5CF2
  0
LAYER
  5
5F8B
330
2
100
AcDbSymbolTableRecord
100
AcDbLayerTableRecord
  2
mark
 70
     0
 62
     6
  6
CONTINUOUS
370
    -3
390
5CF2
  0
LAYER
  5
644E
330
2
100
AcDbSymbolTableRecord
100
AcDbLayerTableRecord
  2
frame
 70
     0
 62
     9
  6
CONTINUOUS
370
    -3
390
5CF2
  0
LAYER
  5
650D
330
2
100
AcDbSymbolTableRecord
100
AcDbLayerTableRecord
  2
center
 70
     0
 62
     1
  6
CENTER
370
    -3
390
5CF2
  0
LAYER
  5
650E
330
2
100
AcDbSymbolTableRecord
100
AcDbLayerTableRecord
  2
bowle
 70
     0
 62
     4
  6
HIDDEN
370
    -3
390
5CF2
  0
LAYER
  5
650F
330
2
100
AcDbSymbolTableRecord
100
AcDbLayerTableRecord
  2
contour
 70
     0
 62
     2
  6
CONTINUOUS
370
    -3
390
5CF2
  0
LAYER
  5
6510
330
2
100
AcDbSymbolTableRecord
100
AcDbLayerTableRecord
  2
section
 70
     0
 62
     5
  6
CONTINUOUS
370
    -3
390
5CF2
  0
ENDTAB
  0
TABLE
  2
STYLE
  5
3
330
0
100
AcDbSymbolTable
 70
     5
  0
STYLE
  5
F
330
3
100
AcDbSymbolTableRecord
100
AcDbTextStyleTableRecord
  2
STANDARD
 70
     0
 40
0.0
 41
1.0
 50
0.0
 71
     0
 42
2.5
  3
txt
  4

  0
STYLE
  5
BE
330
3
100
AcDbSymbolTableRecord
100
AcDbTextStyleTableRecord
  2
ISOCP3
 70
     0
 40
0.0
 41
1.0
 50
0.0
 71
     0
 42
2.5
  3
isocp3.shx
  4

  0
STYLE
  5
2A37
330
3
100
AcDbSymbolTableRecord
100
AcDbTextStyleTableRecord
  2
TXT
 70
     0
 40
0.0
 41
1.0
 50
0.0
 71
     0
 42
1.25
  3
txt.shx
  4
bigfont.shx
  0
STYLE
  5
5DCB
330
3
100
AcDbSymbolTableRecord
100
AcDbTextStyleTableRecord
  2
LKK
 70
     0
 40
50.0
 41
1.5
 50
0.0
 71
     0
 42
50.0
  3
MS PGothic.ttf
  4

1001
ACAD
1000
MS PGothic
1071
    32818
  0
STYLE
  5
5DCC
330
3
100
AcDbSymbolTableRecord
100
AcDbTextStyleTableRecord
  2
JL
 70
     0
 40
10.0
 41
0.5
 50
0.0
 71
     0
 42
5.0
  3
MS Mincho.ttf
  4

1001
ACAD
1000
MS Mincho
1071
    32785
  0
ENDTAB
  0
TABLE
  2
VIEW
  5
6
330
0
100
AcDbSymbolTable
 70
     0
  0
ENDTAB
  0
TABLE
  2
UCS
  5
7
330
0
100
AcDbSymbolTable
 70
     0
  0
ENDTAB
  0
TABLE
  2
APPID
  5
9
330
0
100
AcDbSymbolTable
 70
    11
  0
APPID
  5
10
330
9
100
AcDbSymbolTableRecord
100
AcDbRegAppTableRecord
  2
ACAD
 70
     0
  0
APPID
  5
7C91
330
9
100
AcDbSymbolTableRecord
100
AcDbRegAppTableRecord
  2
ACAD_DSTYLE_DIMEXT_LENGTH
 70
     0
  0
APPID
  5
7C92
330
9
100
AcDbSymbolTableRecord
100
AcDbRegAppTableRecord
  2
ACAD_DSTYLE_DIMEXT_ENABLED
 70
     0
  0
APPID
  5
7C93
330
9
100
AcDbSymbolTableRecord
100
AcDbRegAppTableRecord
  2
ACAD_DSTYLE_DIMJOGGED_JOGANGLE_SYMBOL
 70
     0
  0
APPID
  5
7C94
330
9
100
AcDbSymbolTableRecord
100
AcDbRegAppTableRecord
  2
ACAD_DSTYLE_DIMARC_LENGTH_SYMBOL
 70
     0
  0
APPID
  5
7F1C
330
9
100
AcDbSymbolTableRecord
100
AcDbRegAppTableRecord
  2
ACAD_EXEMPT_FROM_CAD_STANDARDS
 70
     0
  0
APPID
  5
7F49
330
9
100
AcDbSymbolTableRecord
100
AcDbRegAppTableRecord
  2
ACAD_DSTYLE_DIMTEXT_FILL
 70
     0
  0
APPID
  5
7F4C
330
9
100
AcDbSymbolTableRecord
100
AcDbRegAppTableRecord
  2
ACAD_DSTYLE_DIM_LINETYPE
 70
     0
  0
APPID
  5
7F4D
330
9
100
AcDbSymbolTableRecord
100
AcDbRegAppTableRecord
  2
ACAD_DSTYLE_DIM_EXT1_LINETYPE
 70
     0
  0
APPID
  5
7F4E
330
9
100
AcDbSymbolTableRecord
100
AcDbRegAppTableRecord
  2
ACAD_DSTYLE_DIM_EXT2_LINETYPE
 70
     0
  0
APPID
  5
8C73
330
9
100
AcDbSymbolTableRecord
100
AcDbRegAppTableRecord
  2
ACAD_PSEXT
 70
     0
  0
ENDTAB
  0
TABLE
  2
DIMSTYLE
  5
A
330
0
100
AcDbSymbolTable
 70
     1
100
AcDbDimStyleTable
 71
     1
340
1D
  0
DIMSTYLE
105
1D
102
{ACAD_REACTORS
330
A914
330
A921
330
A956
330
A98C
330
A999
330
A9CB
330
AA18
330
AA25
102
}
330
A
100
AcDbSymbolTableRecord
100
AcDbDimStyleTableRecord
  2
STANDARD
 70
     0
 41
2.5
 42
0.85
 44
0.85
 73
     0
 74
     0
 77
     3
 78
     8
 79
     2
140
2.5
147
0.85
172
     1
176
   256
177
   256
178
     3
179
     2
271
     2
272
     2
340
F
341
7C04
342
7C04
1001
ACAD_DSTYLE_DIMEXT_LENGTH
1070
   378
1040
0.18
1001
ACAD_DSTYLE_DIMEXT_ENABLED
1070
   383
1070
     0
1001
ACAD_DSTYLE_DIMARC_LENGTH_SYMBOL
1070
   379
1070
     0
1001
ACAD_DSTYLE_DIMJOGGED_JOGANGLE_SYMBOL
1070
   384
1040
1.570796326794896
  0
ENDTAB
  0
TABLE
  2
BLOCK_RECORD
  5
1
330
0
100
AcDbSymbolTable
 70
    14
  0
BLOCK_RECORD
  5
18
102
{ACAD_XDICTIONARY
360
45F
102
}
330
1
100
AcDbSymbolTableRecord
100
AcDbBlockTableRecord
  2
*MODEL_SPACE
340
5CF5
  0
BLOCK_RECORD
  5
15
102
{ACAD_XDICTIONARY
360
5D89
102
}
330
1
100
AcDbSymbolTableRecord
100
AcDbBlockTableRecord
  2
*PAPER_SPACE
340
5CF6
  0
BLOCK_RECORD
  5
639D
330
1
100
AcDbSymbolTableRecord
100
AcDbBlockTableRecord
  2
A$C255C26A2
340
0
  0
BLOCK_RECORD
  5
7C04
330
1
100
AcDbSymbolTableRecord
100
AcDbBlockTableRecord
  2
_Open30
340
0
102
{BLKREFS
331
A931
331
A932
331
A951
331
A952
331
A982
331
A983
331
AACB
331
AACC
331
AAD4
331
AAD5
331
AADD
331
AADE
331
AAE6
331
AAE7
331
AAEF
331
AAF0
331
AAF8
102
}
  0
BLOCK_RECORD
  5
7C0A
102
{ACAD_XDICTIONARY
360
7C0B
102
}
330
1
100
AcDbSymbolTableRecord
100
AcDbBlockTableRecord
  2
A
340
0
310
2800000020000000200000000100080000000000000400000000000000000000000000000000000000000000000080000080000000808000800000008000800080800000C0C0C000C0DCC000F0CAA6000020400000206000002080000020A0000020C0000020E00000400000004020000040400000406000004080000040A0
310
000040C0000040E00000600000006020000060400000606000006080000060A0000060C0000060E00000800000008020000080400000806000008080000080A0000080C0000080E00000A0000000A0200000A0400000A0600000A0800000A0A00000A0C00000A0E00000C0000000C0200000C0400000C0600000C0800000C0
310
A00000C0C00000C0E00000E0000000E0200000E0400000E0600000E0800000E0A00000E0C00000E0E00040000000400020004000400040006000400080004000A0004000C0004000E00040200000402020004020400040206000402080004020A0004020C0004020E000404000004040200040404000404060004040800040
310
40A0004040C0004040E00040600000406020004060400040606000406080004060A0004060C0004060E00040800000408020004080400040806000408080004080A0004080C0004080E00040A0000040A0200040A0400040A0600040A0800040A0A00040A0C00040A0E00040C0000040C0200040C0400040C0600040C08000
310
40C0A00040C0C00040C0E00040E0000040E0200040E0400040E0600040E0800040E0A00040E0C00040E0E00080000000800020008000400080006000800080008000A0008000C0008000E00080200000802020008020400080206000802080008020A0008020C0008020E00080400000804020008040400080406000804080
310
008040A0008040C0008040E00080600000806020008060400080606000806080008060A0008060C0008060E00080800000808020008080400080806000808080008080A0008080C0008080E00080A0000080A0200080A0400080A0600080A0800080A0A00080A0C00080A0E00080C0000080C0200080C0400080C0600080C0
310
800080C0A00080C0C00080C0E00080E0000080E0200080E0400080E0600080E0800080E0A00080E0C00080E0E000C0000000C0002000C0004000C0006000C0008000C000A000C000C000C000E000C0200000C0202000C0204000C0206000C0208000C020A000C020C000C020E000C0400000C0402000C0404000C0406000C0
310
408000C040A000C040C000C040E000C0600000C0602000C0604000C0606000C0608000C060A000C060C000C060E000C0800000C0802000C0804000C0806000C0808000C080A000C080C000C080E000C0A00000C0A02000C0A04000C0A06000C0A08000C0A0A000C0A0C000C0A0E000C0C00000C0C02000C0C04000C0C06000
310
C0C08000C0C0A000F0FBFF00A4A0A000808080000000FF0000FF000000FFFF00FF000000FF00FF00FFFF0000FFFFFF0000000000000000000000000000000000000000000000000000000000000000000000000000000000000000000000000000000000000000000000000000000000000000000000000000000000000000
310
00000000000000000000000000000000000000000000000000000000000000000000000000000000000000000000000000000000000000000000000000000000000000000000000000000000000000000000000000000000000000000000000000000000000000000000000000000000000000000000000000000000000000
310
00000000000000000000000000000000000000000000000000000000000000000000000000000000000000000000000000000000000000000000000000000000000000000000000000000000000000000000000000000000000000000000000000000000000000000000000000000000000000000000000000000000000000
310
000000000000FDFDFDFDFDFDFDFDFDFDFDFD0000FD0000000000000000000000000000000000FD0000FA0000000000FA00FD0000FDFD00000000000000000000000000000000FD0000FA0000000000FA00FD0000FDFDFD000000000000000000000000000000FD0000FA0000000000FA00FD0000FDFDFDFD00000000000000
310
00000000000000FD0000FAFAFAFAFAFAFA00FD0000FDFDFDFDFD00000000000000000000000000FD000000FA00000000FA00FD0000FDFDFDFDFDFDFDFDFDFDFDFDFDFDFDFDFDFDFD000000FA000000FA0000FD0000FDFDFDFDFD00000000000000000000000000FD00000000FA0000FA0000FD0000FDFDFDFD000000000000
310
0000000000000000FD00000000FA00FA000000FD0000FDFD00000000000000000000000000000000FD0000000000FAFA000000FD0000FD0000000000000000000000000000000000FD0000000000FA00000000FD0000000000000000000000000000000000000000FDFDFDFDFDFDFDFDFDFDFDFD0000000000000000000000
310
00000000000000000000000000000000000000000000000000000000000000000000000000000000000000000000000000000000000000000000000000000000000000000000000000000000000000000000000000000000000000000000000000000000000000000000000000000000000000000000000000000000000000
310
00000000000000000000000000000000000000000000000000000000000000000000000000000000000000000000000000000000000000000000000000000000000000000000000000000000000000000000000000000000000000000000000000000000000000000000000000000000000000000000000000000000000000
310
0000000000000000000000000000000000000000000000000000000000000000000000000000000000000000000000000000000000000000
  0
BLOCK_RECORD
  5
8E72
102
{ACAD_XDICTIONARY
360
8E73
102
}
330
1
100
AcDbSymbolTableRecord
100
AcDbBlockTableRecord
  2
LS
340
0
310
2800000020000000200000000100080000000000000400000000000000000000000000000000000000000000000080000080000000808000800000008000800080800000C0C0C000C0DCC000F0CAA6000020400000206000002080000020A0000020C0000020E00000400000004020000040400000406000004080000040A0
310
000040C0000040E00000600000006020000060400000606000006080000060A0000060C0000060E00000800000008020000080400000806000008080000080A0000080C0000080E00000A0000000A0200000A0400000A0600000A0800000A0A00000A0C00000A0E00000C0000000C0200000C0400000C0600000C0800000C0
310
A00000C0C00000C0E00000E0000000E0200000E0400000E0600000E0800000E0A00000E0C00000E0E00040000000400020004000400040006000400080004000A0004000C0004000E00040200000402020004020400040206000402080004020A0004020C0004020E000404000004040200040404000404060004040800040
310
40A0004040C0004040E00040600000406020004060400040606000406080004060A0004060C0004060E00040800000408020004080400040806000408080004080A0004080C0004080E00040A0000040A0200040A0400040A0600040A0800040A0A00040A0C00040A0E00040C0000040C0200040C0400040C0600040C08000
310
40C0A00040C0C00040C0E00040E0000040E0200040E0400040E0600040E0800040E0A00040E0C00040E0E00080000000800020008000400080006000800080008000A0008000C0008000E00080200000802020008020400080206000802080008020A0008020C0008020E00080400000804020008040400080406000804080
310
008040A0008040C0008040E00080600000806020008060400080606000806080008060A0008060C0008060E00080800000808020008080400080806000808080008080A0008080C0008080E00080A0000080A0200080A0400080A0600080A0800080A0A00080A0C00080A0E00080C0000080C0200080C0400080C0600080C0
310
800080C0A00080C0C00080C0E00080E0000080E0200080E0400080E0600080E0800080E0A00080E0C00080E0E000C0000000C0002000C0004000C0006000C0008000C000A000C000C000C000E000C0200000C0202000C0204000C0206000C0208000C020A000C020C000C020E000C0400000C0402000C0404000C0406000C0
310
408000C040A000C040C000C040E000C0600000C0602000C0604000C0606000C0608000C060A000C060C000C060E000C0800000C0802000C0804000C0806000C0808000C080A000C080C000C080E000C0A00000C0A02000C0A04000C0A06000C0A08000C0A0A000C0A0C000C0A0E000C0C00000C0C02000C0C04000C0C06000
310
C0C08000C0C0A000F0FBFF00A4A0A000808080000000FF0000FF000000FFFF00FF000000FF00FF00FFFF0000FFFFFF00000000000000000000000000000000000000000000000000000000000000000000000000000000000000FBFBFEFBFEFBFBFEFBFEFBFB00000000000000000000000000000000000000FBFBFBFEFBFE
310
FBFBFEFBFEFBFBFB000000000000000000000000000000000000FB0000FE00FE0000FE00FE0000FB000000000000000000000000000000000000FB0000FE00FE0000FE00FE0000FB000000000000000000000000000000000000FB0000FEFEFEFEFEFEFEFE0000FB000000000000000000000000000000000000FB000000FE
310
FE0000FEFE000000FB000000000000000000000000000000000000FB0000000000FEFE0000000000FB000000000000000000000000000000000000FBFBFBFEFBFBFBFBFBFBFEFBFBFB000000000000000000000000000000000000000000FBFE0000000000FE000000000000000000000000000000000000000000000000FB
310
FBFBFBFBFBFEFB000000000000000000000000000000000000000000000000FBFE00000000FEFB000000000000000000000000000000000000000000000000FBFE00000000FEFB000000000000000000000000000000000000000000000000FBFE00000000FEFB000000000000000000000000000000000000000000000000
310
FBFE00000000FEFB000000000000000000000000000000000000000000000000FBFE00000000FEFB000000000000000000000000000000000000000000000000FBFE00000000FEFB000000000000000000000000000000000000000000000000FBFE00000000FEFB0000000000000000000000000000000000000000000000
310
00FBFE00000000FEFB000000000000000000000000000000000000000000000000FBFE00000000FEFB000000000000000000000000000000000000000000000000FBFE00000000FEFB000000000000000000000000000000000000000000000000FBFE00000000FEFB00000000000000000000000000000000000000000000
310
0000FBFE00000000FEFB000000000000000000000000000000000000000000000000FBFE00000000FEFB000000000000000000000000000000000000000000000000FBFE00000000FEFB000000000000000000000000000000000000000000000000FBFE00000000FEFB000000000000000000000000000000000000000000
310
000000FBFE00000000FEFB000000000000000000000000000000000000000000000000FBFE00000000FEFB000000000000000000000000000000000000000000000000FBFEFBFBFBFBFEFB00000000000000000000000000000000000000000000000000FE00000000FEFB0000000000000000000000000000000000000000
310
0000000000FBFBFBFBFBFB000000000000000000000000000000000000000000000000000000000000000000000000000000000000000000
  0
BLOCK_RECORD
  5
9D15
102
{ACAD_XDICTIONARY
360
9D16
102
}
330
1
100
AcDbSymbolTableRecord
100
AcDbBlockTableRecord
  2
LS2
340
0
310
2800000020000000200000000100080000000000000400000000000000000000000000000000000000000000000080000080000000808000800000008000800080800000C0C0C000C0DCC000F0CAA6000020400000206000002080000020A0000020C0000020E00000400000004020000040400000406000004080000040A0
310
000040C0000040E00000600000006020000060400000606000006080000060A0000060C0000060E00000800000008020000080400000806000008080000080A0000080C0000080E00000A0000000A0200000A0400000A0600000A0800000A0A00000A0C00000A0E00000C0000000C0200000C0400000C0600000C0800000C0
310
A00000C0C00000C0E00000E0000000E0200000E0400000E0600000E0800000E0A00000E0C00000E0E00040000000400020004000400040006000400080004000A0004000C0004000E00040200000402020004020400040206000402080004020A0004020C0004020E000404000004040200040404000404060004040800040
310
40A0004040C0004040E00040600000406020004060400040606000406080004060A0004060C0004060E00040800000408020004080400040806000408080004080A0004080C0004080E00040A0000040A0200040A0400040A0600040A0800040A0A00040A0C00040A0E00040C0000040C0200040C0400040C0600040C08000
310
40C0A00040C0C00040C0E00040E0000040E0200040E0400040E0600040E0800040E0A00040E0C00040E0E00080000000800020008000400080006000800080008000A0008000C0008000E00080200000802020008020400080206000802080008020A0008020C0008020E00080400000804020008040400080406000804080
310
008040A0008040C0008040E00080600000806020008060400080606000806080008060A0008060C0008060E00080800000808020008080400080806000808080008080A0008080C0008080E00080A0000080A0200080A0400080A0600080A0800080A0A00080A0C00080A0E00080C0000080C0200080C0400080C0600080C0
310
800080C0A00080C0C00080C0E00080E0000080E0200080E0400080E0600080E0800080E0A00080E0C00080E0E000C0000000C0002000C0004000C0006000C0008000C000A000C000C000C000E000C0200000C0202000C0204000C0206000C0208000C020A000C020C000C020E000C0400000C0402000C0404000C0406000C0
310
408000C040A000C040C000C040E000C0600000C0602000C0604000C0606000C0608000C060A000C060C000C060E000C0800000C0802000C0804000C0806000C0808000C080A000C080C000C080E000C0A00000C0A02000C0A04000C0A06000C0A08000C0A0A000C0A0C000C0A0E000C0C00000C0C02000C0C04000C0C06000
310
C0C08000C0C0A000F0FBFF00A4A0A000808080000000FF0000FF000000FFFF00FF000000FF00FF00FFFF0000FFFFFF0000000000000000000000000000000000000000000000000000000000000000000000000000000000000000FBFBFEFEFBFBFEFEFBFB00000000000000000000000000000000000000000000FBFBFEFE
310
FBFBFEFEFBFB00000000000000000000000000000000000000000000FB00FEFE0000FEFE00FB00000000000000000000000000000000000000000000FB00FEFE0000FEFE00FB00000000000000000000000000000000000000000000FB00FEFEFEFEFEFE00FB00000000000000000000000000000000000000000000FB0000
310
FEFEFE000000FB00000000000000000000000000000000000000000000FBFBFEFBFBFBFBFEFBFB000000000000000000000000000000000000000000000000FBFBFBFBFBFE0000000000000000000000000000000000000000000000000000FE00000000FE0000000000000000000000000000000000000000000000000000
310
FE00000000FE0000000000000000000000000000000000000000000000000000FE00000000FE0000000000000000000000000000000000000000000000000000FE00000000FE0000000000000000000000000000000000000000000000000000FE00000000FE00000000000000000000000000000000000000000000000000
310
00FE00000000FE0000000000000000000000000000000000000000000000000000FE00000000FE0000000000000000000000000000000000000000000000000000FE00000000FE0000000000000000000000000000000000000000000000000000FE00000000FE000000000000000000000000000000000000000000000000
310
0000FE00000000FE0000000000000000000000000000000000000000000000000000FE00000000FE0000000000000000000000000000000000000000000000000000FE00000000FE0000000000000000000000000000000000000000000000000000FE00000000FE0000000000000000000000000000000000000000000000
310
000000FE00000000FE0000000000000000000000000000000000000000000000000000FE00000000FE0000000000000000000000000000000000000000000000000000FE00000000FE0000000000000000000000000000000000000000000000000000FE00000000FE00000000000000000000000000000000000000000000
310
00000000FE00000000FE0000000000000000000000000000000000000000000000000000FE00000000FE0000000000000000000000000000000000000000000000000000FEFBFBFBFBFE0000000000000000000000000000000000000000000000000000FEFB000000FE000000000000000000000000000000000000000000
310
000000000000FBFBFBFB00000000000000000000000000000000000000000000000000000000000000000000000000000000000000000000
  0
BLOCK_RECORD
  5
A4B0
102
{ACAD_XDICTIONARY
360
A4B1
102
}
330
1
100
AcDbSymbolTableRecord
100
AcDbBlockTableRecord
  2
ls1
340
0
310
2800000020000000200000000100080000000000000400000000000000000000000000000000000000000000000080000080000000808000800000008000800080800000C0C0C000C0DCC000F0CAA6000020400000206000002080000020A0000020C0000020E00000400000004020000040400000406000004080000040A0
310
000040C0000040E00000600000006020000060400000606000006080000060A0000060C0000060E00000800000008020000080400000806000008080000080A0000080C0000080E00000A0000000A0200000A0400000A0600000A0800000A0A00000A0C00000A0E00000C0000000C0200000C0400000C0600000C0800000C0
310
A00000C0C00000C0E00000E0000000E0200000E0400000E0600000E0800000E0A00000E0C00000E0E00040000000400020004000400040006000400080004000A0004000C0004000E00040200000402020004020400040206000402080004020A0004020C0004020E000404000004040200040404000404060004040800040
310
40A0004040C0004040E00040600000406020004060400040606000406080004060A0004060C0004060E00040800000408020004080400040806000408080004080A0004080C0004080E00040A0000040A0200040A0400040A0600040A0800040A0A00040A0C00040A0E00040C0000040C0200040C0400040C0600040C08000
310
40C0A00040C0C00040C0E00040E0000040E0200040E0400040E0600040E0800040E0A00040E0C00040E0E00080000000800020008000400080006000800080008000A0008000C0008000E00080200000802020008020400080206000802080008020A0008020C0008020E00080400000804020008040400080406000804080
310
008040A0008040C0008040E00080600000806020008060400080606000806080008060A0008060C0008060E00080800000808020008080400080806000808080008080A0008080C0008080E00080A0000080A0200080A0400080A0600080A0800080A0A00080A0C00080A0E00080C0000080C0200080C0400080C0600080C0
310
800080C0A00080C0C00080C0E00080E0000080E0200080E0400080E0600080E0800080E0A00080E0C00080E0E000C0000000C0002000C0004000C0006000C0008000C000A000C000C000C000E000C0200000C0202000C0204000C0206000C0208000C020A000C020C000C020E000C0400000C0402000C0404000C0406000C0
310
408000C040A000C040C000C040E000C0600000C0602000C0604000C0606000C0608000C060A000C060C000C060E000C0800000C0802000C0804000C0806000C0808000C080A000C080C000C080E000C0A00000C0A02000C0A04000C0A06000C0A08000C0A0A000C0A0C000C0A0E000C0C00000C0C02000C0C04000C0C06000
310
C0C08000C0C0A000F0FBFF00A4A0A000808080000000FF0000FF000000FFFF00FF000000FF00FF00FFFF0000FFFFFF0000000000000000000000000000000000000000000000000000000000000000000000000000000000000000FBFBFEFEFBFBFEFEFBFB00000000000000000000000000000000000000000000FBFBFEFE
310
FBFBFEFEFBFB00000000000000000000000000000000000000000000FB00FEFE0000FEFE00FB00000000000000000000000000000000000000000000FB00FEFEFEFEFEFE00FB00000000000000000000000000000000000000000000FB0000FEFE00FE0000FB00000000000000000000000000000000000000000000FB0000
310
0000FE000000FB00000000000000000000000000000000000000000000FBFBFEFBFBFBFBFBFBFB000000000000000000000000000000000000000000000000FE00000000FE0000000000000000000000000000000000000000000000000000FE00000000FE0000000000000000000000000000000000000000000000000000
310
FE00000000FE0000000000000000000000000000000000000000000000000000FE00000000FE0000000000000000000000000000000000000000000000000000FE00000000FE0000000000000000000000000000000000000000000000000000FE00000000FE00000000000000000000000000000000000000000000000000
310
00FE00000000FE0000000000000000000000000000000000000000000000000000FE00000000FE0000000000000000000000000000000000000000000000000000FE00000000FE0000000000000000000000000000000000000000000000000000FE00000000FE000000000000000000000000000000000000000000000000
310
0000FE00000000FE0000000000000000000000000000000000000000000000000000FE00000000FE0000000000000000000000000000000000000000000000000000FE00000000FE0000000000000000000000000000000000000000000000000000FE00000000FE0000000000000000000000000000000000000000000000
310
000000FE00000000FE0000000000000000000000000000000000000000000000000000FE00000000FE0000000000000000000000000000000000000000000000000000FE00000000FE0000000000000000000000000000000000000000000000000000FE00000000FE00000000000000000000000000000000000000000000
310
00000000FE00000000FE0000000000000000000000000000000000000000000000000000FE00000000FE0000000000000000000000000000000000000000000000000000FE00000000FE0000000000000000000000000000000000000000000000000000FEFBFBFBFBFE000000000000000000000000000000000000000000
310
000000000000FBFBFBFB00000000000000000000000000000000000000000000000000000000000000000000000000000000000000000000
102
{BLKREFS
331
A4CF
102
}
  0
BLOCK_RECORD
  5
A915
330
1
100
AcDbSymbolTableRecord
100
AcDbBlockTableRecord
  2
*D6
340
0
  0
BLOCK_RECORD
  5
A922
330
1
100
AcDbSymbolTableRecord
100
AcDbBlockTableRecord
  2
*D7
340
0
  0
BLOCK_RECORD
  5
A957
330
1
100
AcDbSymbolTableRecord
100
AcDbBlockTableRecord
  2
*D8
340
0
  0
BLOCK_RECORD
  5
A98D
330
1
100
AcDbSymbolTableRecord
100
AcDbBlockTableRecord
  2
*D9
340
0
  0
BLOCK_RECORD
  5
A99A
330
1
100
AcDbSymbolTableRecord
100
AcDbBlockTableRecord
  2
*D10
340
0
  0
BLOCK_RECORD
  5
A9CC
330
1
100
AcDbSymbolTableRecord
100
AcDbBlockTableRecord
  2
*D11
340
0
  0
BLOCK_RECORD
  5
AA19
330
1
100
AcDbSymbolTableRecord
100
AcDbBlockTableRecord
  2
*D12
340
0
  0
BLOCK_RECORD
  5
AA26
330
1
100
AcDbSymbolTableRecord
100
AcDbBlockTableRecord
  2
*D13
340
0
  0
ENDTAB
  0
ENDSEC
  0
SECTION
  2
BLOCKS
  0
BLOCK
  5
19
330
18
100
AcDbEntity
  8
0
100
AcDbBlockBegin
  2
*MODEL_SPACE
 70
     0
 10
0.0
 20
0.0
 30
0.0
  3
*MODEL_SPACE
  1

  0
ENDBLK
  5
1A
330
18
100
AcDbEntity
  8
0
100
AcDbBlockEnd
  0
BLOCK
  5
16
330
15
100
AcDbEntity
 67
     1
  8
0
100
AcDbBlockBegin
  2
*PAPER_SPACE
 70
     0
 10
0.0
 20
0.0
 30
0.0
  3
*PAPER_SPACE
  1

  0
ENDBLK
  5
17
330
15
100
AcDbEntity
 67
     1
  8
0
100
AcDbBlockEnd
  0
BLOCK
  5
63A1
330
639D
100
AcDbEntity
  8
0
100
AcDbBlockBegin
  2
A$C255C26A2
 70
     0
 10
0.0
 20
0.0
 30
0.0
  3
A$C255C26A2
  1

  0
LWPOLYLINE
  5
639E
330
639D
100
AcDbEntity
  8
0
100
AcDbPolyline
 90
        3
 70
     1
 43
0.0
 10
7.014806023851633
 20
0.0000006939811783
 10
5.611844869720698
 20
2.430000693981241
 10
8.417767177982568
 20
2.430000693981241
  0
LWPOLYLINE
  5
639F
330
639D
100
AcDbEntity
  8
0
100
AcDbPolyline
 90
        3
 70
     1
 43
0.0
 10
4.20888371558999
 20
0.0000006939811783
 10
2.805922561459283
 20
2.430000693981241
 10
5.611844869720698
 20
2.430000693981241
  0
LWPOLYLINE
  5
63A0
330
639D
100
AcDbEntity
  8
0
100
AcDbPolyline
 90
        3
 70
     1
 43
0.0
 10
1.402961407328348
 20
0.0000006939811783
 10
0.0000002531974133
 20
2.430000693981241
 10
2.805922561459283
 20
2.430000693981241
  0
ENDBLK
  5
63A2
330
639D
100
AcDbEntity
  8
0
100
AcDbBlockEnd
  0
BLOCK
  5
7C05
330
7C04
100
AcDbEntity
  8
0
100
AcDbBlockBegin
  2
_Open30
 70
     0
 10
0.0
 20
0.0
 30
0.0
  3
_Open30
  1

  0
LINE
  5
7C06
330
7C04
100
AcDbEntity
  8
0
  6
ByBlock
 62
     0
370
    -2
100
AcDbLine
 10
-1.0
 20
0.26794919
 30
0.0
 11
0.0
 21
0.0
 31
0.0
  0
LINE
  5
7C07
330
7C04
100
AcDbEntity
  8
0
  6
ByBlock
 62
     0
370
    -2
100
AcDbLine
 10
0.0
 20
0.0
 30
0.0
 11
-1.0
 21
-0.26794919
 31
0.0
  0
LINE
  5
7C08
330
7C04
100
AcDbEntity
  8
0
  6
ByBlock
 62
     0
370
    -2
100
AcDbLine
 10
0.0
 20
0.0
 30
0.0
 11
-1.0
 21
0.0
 31
0.0
  0
ENDBLK
  5
7C09
330
7C04
100
AcDbEntity
  8
0
100
AcDbBlockEnd
  0
BLOCK
  5
7C0E
330
7C0A
100
AcDbEntity
  8
0
100
AcDbBlockBegin
  2
A
 70
     0
 10
0.0
 20
0.0
 30
0.0
  3
A
  1

  0
MTEXT
  5
7C0F
330
7C0A
100
AcDbEntity
  8
mark
 62
     3
100
AcDbMText
 10
10.65641897020822
 20
-5.596245361730467
 30
0.0
 40
2.5
 41
0.0
 71
     5
 72
     1
  1
A
 73
     1
 44
1.0
1001
ACAD
1000
ACAD_MTEXT_DEFINED_HEIGHT_BEGIN
1070
    46
1040
0.0
1000
ACAD_MTEXT_DEFINED_HEIGHT_END
  0
LWPOLYLINE
  5
7C10
330
7C0A
100
AcDbEntity
  8
mark
100
AcDbPolyline
 90
        4
 70
     1
 43
0.0
 10
9.07926800414657
 20
-7.141145101782569
 10
12.07926800414657
 20
-7.141145101782569
 10
12.07926800414657
 20
-4.141145101782569
 10
9.07926800414657
 20
-4.141145101782569
  0
HATCH
  5
7C11
330
7C0A
100
AcDbEntity
  8
mark
100
AcDbHatch
 10
0.0
 20
0.0
 30
0.0
210
0.0
220
0.0
230
1.0
  2
SOLID
 70
     1
 71
     0
 91
        1
 92
        7
 72
     0
 73
     1
 93
        3
 10
5.32926800414657
 20
-5.641145101782569
 10
4.07926800414657
 20
-4.391145101782541
 10
4.07926800414657
 20
-6.891145101782541
 97
        0
 75
     0
 76
     1
 47
0.0398277943677868
 98
        1
 10
4.589689734415287
 20
-5.732163331855076
450
        0
451
        0
460
0.0
461
0.0
452
        1
462
1.0
453
        2
463
0.0
 63
     5
421
      255
463
1.0
 63
     7
421
 16777215
470
LINEAR
1001
ACAD
1010
0.0
1020
0.0
1030
0.0
  0
LINE
  5
7C12
330
7C0A
100
AcDbEntity
  8
mark
100
AcDbLine
 10
5.32926800414657
 20
-5.641145101782569
 30
0.0
 11
9.07926800414657
 21
-5.641145101782569
 31
0.0
  0
LINE
  5
7C13
330
7C0A
100
AcDbEntity
  8
mark
100
AcDbLine
 10
5.32926800414657
 20
-5.641145101782569
 30
0.0
 11
4.07926800414657
 21
-4.391145101782569
 31
0.0
  0
LINE
  5
7C14
330
7C0A
100
AcDbEntity
  8
mark
100
AcDbLine
 10
5.32926800414657
 20
-5.641145101782569
 30
0.0
 11
4.07926800414657
 21
-6.891145101782569
 31
0.0
  0
ENDBLK
  5
7C15
330
7C0A
100
AcDbEntity
  8
0
100
AcDbBlockEnd
  0
BLOCK
  5
8E76
330
8E72
100
AcDbEntity
  8
0
100
AcDbBlockBegin
  2
LS
 70
     0
 10
0.0
 20
0.0
 30
0.0
  3
LS
  1

  0
LINE
  5
8E78
330
8E72
100
AcDbEntity
  8
contour
100
AcDbLine
 10
310.7457309951603
 20
181.0160360664828
 30
0.0
 11
310.7457309951603
 21
184.7160360664827
 31
0.0
  0
LINE
  5
8E79
330
8E72
100
AcDbEntity
  8
contour
100
AcDbLine
 10
310.7457309951603
 20
184.7160360664827
 30
0.0
 11
303.7457309951603
 21
184.7160360664827
 31
0.0
  0
LINE
  5
8E7A
330
8E72
100
AcDbEntity
  8
contour
100
AcDbLine
 10
308.4457309951603
 20
196.7160360664827
 30
0.0
 11
306.0457309951603
 21
196.7160360664826
 31
0.0
  0
LINE
  5
8E7B
330
8E72
100
AcDbEntity
  8
contour
100
AcDbLine
 10
309.2457309951603
 20
195.9160360664826
 30
0.0
 11
308.4457309951603
 21
196.7160360664826
 31
0.0
  0
LINE
  5
8E7C
330
8E72
100
AcDbEntity
  8
contour
100
AcDbLine
 10
303.7457309951603
 20
184.7160360664827
 30
0.0
 11
303.7457309951603
 21
181.0160360664827
 31
0.0
  0
LINE
  5
8E7D
330
8E72
100
AcDbEntity
  8
contour
100
AcDbLine
 10
304.0457309951603
 20
180.7160360664827
 30
0.0
 11
310.4457309951603
 21
180.7160360664828
 31
0.0
  0
LINE
  5
8E7E
330
8E72
100
AcDbEntity
  8
contour
100
AcDbLine
 10
310.7457309951603
 20
181.0160360664828
 30
0.0
 11
310.4457309951603
 21
180.7160360664828
 31
0.0
  0
LINE
  5
8E7F
330
8E72
100
AcDbEntity
  8
contour
100
AcDbLine
 10
303.7457309951603
 20
181.0160360664827
 30
0.0
 11
304.0457309951603
 21
180.7160360664827
 31
0.0
  0
LINE
  5
8E80
330
8E72
100
AcDbEntity
  8
contour
100
AcDbLine
 10
309.2457309951603
 20
184.7160360664826
 30
0.0
 11
309.2457309951603
 21
195.9160360664827
 31
0.0
  0
LINE
  5
8E81
330
8E72
100
AcDbEntity
  8
contour
100
AcDbLine
 10
305.2457309951603
 20
184.7160360664826
 30
0.0
 11
305.2457309951603
 21
195.9160360664827
 31
0.0
  0
LINE
  5
8E82
330
8E72
100
AcDbEntity
  8
contour
100
AcDbLine
 10
306.0457309951603
 20
196.7160360664826
 30
0.0
 11
305.2457309951603
 21
195.9160360664826
 31
0.0
  0
LINE
  5
8E83
330
8E72
100
AcDbEntity
  8
contour
100
AcDbLine
 10
309.2457309951603
 20
195.9160360664827
 30
0.0
 11
305.2457309951603
 21
195.9160360664827
 31
0.0
  0
LINE
  5
8E84
330
8E72
100
AcDbEntity
  8
contour
 62
     4
100
AcDbLine
 10
308.8667309951603
 20
185.3724833225513
 30
0.0
 11
308.8667309951603
 21
196.2950360664826
 31
0.0
  0
LINE
  5
8E85
330
8E72
100
AcDbEntity
  8
contour
 62
     4
100
AcDbLine
 10
305.6247309951603
 20
185.3724833225513
 30
0.0
 11
305.6247309951603
 21
196.2950360664826
 31
0.0
  0
LINE
  5
8E86
330
8E72
100
AcDbEntity
  8
contour
100
AcDbLine
 10
310.7457309951603
 20
181.0160360664828
 30
0.0
 11
303.7457309951603
 21
181.0160360664828
 31
0.0
  0
LINE
  5
8E87
330
8E72
100
AcDbEntity
  8
bowle
 48
0.1
100
AcDbLine
 10
308.1117563989447
 20
180.7160360664827
 30
0.0
 11
308.1117563989447
 21
182.9160360664827
 31
0.0
  0
LINE
  5
8E88
330
8E72
100
AcDbEntity
  8
bowle
 48
0.1
100
AcDbLine
 10
308.9777818027293
 20
180.7160360664827
 30
0.0
 11
308.9777818027293
 21
182.9160360664827
 31
0.0
  0
LINE
  5
8E89
330
8E72
100
AcDbEntity
  8
bowle
 48
0.1
100
AcDbLine
 10
306.3797055913759
 20
180.7160360664827
 30
0.0
 11
306.3797055913759
 21
182.9160360664826
 31
0.0
  0
LINE
  5
8E8A
330
8E72
100
AcDbEntity
  8
bowle
 48
0.1
100
AcDbLine
 10
305.5136801875914
 20
180.7160360664827
 30
0.0
 11
305.5136801875914
 21
182.9160360664826
 31
0.0
  0
LINE
  5
8E8B
330
8E72
100
AcDbEntity
  8
bowle
 48
0.1
100
AcDbLine
 10
308.9777818027292
 20
182.9160360664827
 30
0.0
 11
305.5136801875914
 21
182.9160360664827
 31
0.0
  0
LINE
  5
8E8C
330
8E72
100
AcDbEntity
  8
bowle
 48
0.1
100
AcDbLine
 10
305.5136801875914
 20
182.9160360664826
 30
0.0
 11
307.2457309951603
 21
183.9160360664826
 31
0.0
  0
LINE
  5
8E8D
330
8E72
100
AcDbEntity
  8
bowle
 48
0.1
100
AcDbLine
 10
308.9777818027292
 20
182.9160360664826
 30
0.0
 11
307.2457309951603
 21
183.9160360664826
 31
0.0
  0
LINE
  5
8E8E
330
8E72
100
AcDbEntity
  8
contour
 62
     4
100
AcDbLine
 10
305.6247309951603
 20
185.3724833225513
 30
0.0
 11
305.2457309951603
 21
184.7160360664826
 31
0.0
  0
LINE
  5
8E8F
330
8E72
100
AcDbEntity
  8
contour
100
AcDbLine
 10
305.2457309951603
 20
185.3724833225513
 30
0.0
 11
309.2457309951603
 21
185.3724833225513
 31
0.0
  0
LINE
  5
8E90
330
8E72
100
AcDbEntity
  8
contour
 62
     4
100
AcDbLine
 10
309.2457309951603
 20
184.7160360664827
 30
0.0
 11
308.8667309951603
 21
185.3724833225513
 31
0.0
  0
ENDBLK
  5
8E77
330
8E72
100
AcDbEntity
  8
0
100
AcDbBlockEnd
  0
BLOCK
  5
9D19
330
9D15
100
AcDbEntity
  8
0
100
AcDbBlockBegin
  2
LS2
 70
     0
 10
0.0
 20
0.0
 30
0.0
  3
LS2
  1

  0
LINE
  5
9D1B
330
9D15
100
AcDbEntity
  8
contour
100
AcDbLine
 10
143.2797554375081
 20
0.0655328110734672
 30
0.0
 11
143.2797554375081
 21
3.765532811073398
 31
0.0
  0
LINE
  5
9D1C
330
9D15
100
AcDbEntity
  8
contour
100
AcDbLine
 10
143.2797554375081
 20
3.765532811073398
 30
0.0
 11
136.2797554375081
 21
3.765532811073398
 31
0.0
  0
LINE
  5
9D1D
330
9D15
100
AcDbEntity
  8
contour
100
AcDbLine
 10
140.979755437508
 20
19.7655328110734
 30
0.0
 11
138.5797554375081
 21
19.76553281107334
 31
0.0
  0
LINE
  5
9D1E
330
9D15
100
AcDbEntity
  8
contour
100
AcDbLine
 10
141.7797554375081
 20
18.96553281107333
 30
0.0
 11
140.9797554375081
 21
19.76553281107334
 31
0.0
  0
LINE
  5
9D1F
330
9D15
100
AcDbEntity
  8
contour
100
AcDbLine
 10
136.2797554375081
 20
3.765532811073398
 30
0.0
 11
136.2797554375081
 21
0.0655328110733535
 31
0.0
  0
LINE
  5
9D20
330
9D15
100
AcDbEntity
  8
contour
100
AcDbLine
 10
136.5797554375081
 20
-0.2344671889266578
 30
0.0
 11
142.9797554375081
 21
-0.2344671889265442
 31
0.0
  0
LINE
  5
9D21
330
9D15
100
AcDbEntity
  8
contour
100
AcDbLine
 10
143.2797554375081
 20
0.0655328110734672
 30
0.0
 11
142.9797554375081
 21
-0.2344671889265442
 31
0.0
  0
LINE
  5
9D22
330
9D15
100
AcDbEntity
  8
contour
100
AcDbLine
 10
136.2797554375081
 20
0.0655328110733535
 30
0.0
 11
136.5797554375081
 21
-0.2344671889266578
 31
0.0
  0
LINE
  5
9D23
330
9D15
100
AcDbEntity
  8
contour
100
AcDbLine
 10
141.7797554375081
 20
3.765532811073342
 30
0.0
 11
141.7797554375081
 21
18.96553281107339
 31
0.0
  0
LINE
  5
9D24
330
9D15
100
AcDbEntity
  8
contour
100
AcDbLine
 10
137.7797554375081
 20
3.765532811073342
 30
0.0
 11
137.7797554375081
 21
18.96553281107339
 31
0.0
  0
LINE
  5
9D25
330
9D15
100
AcDbEntity
  8
contour
100
AcDbLine
 10
138.5797554375081
 20
19.76553281107334
 30
0.0
 11
137.7797554375081
 21
18.96553281107333
 31
0.0
  0
LINE
  5
9D26
330
9D15
100
AcDbEntity
  8
contour
100
AcDbLine
 10
141.7797554375081
 20
18.96553281107339
 30
0.0
 11
137.7797554375081
 21
18.96553281107339
 31
0.0
  0
LINE
  5
9D27
330
9D15
100
AcDbEntity
  8
contour
 62
     4
100
AcDbLine
 10
141.400755437508
 20
4.42198006714193
 30
0.0
 11
141.4007554375081
 21
19.34453281107327
 31
0.0
  0
LINE
  5
9D28
330
9D15
100
AcDbEntity
  8
contour
 62
     4
100
AcDbLine
 10
138.1587554375081
 20
4.42198006714193
 30
0.0
 11
138.1587554375081
 21
19.34453281107336
 31
0.0
  0
LINE
  5
9D29
330
9D15
100
AcDbEntity
  8
contour
100
AcDbLine
 10
143.2797554375081
 20
0.0655328110734672
 30
0.0
 11
136.2797554375081
 21
0.0655328110735241
 31
0.0
  0
LINE
  5
9D2A
330
9D15
100
AcDbEntity
  8
bowle
 48
0.1
100
AcDbLine
 10
140.6457808412925
 20
-0.234467188926601
 30
0.0
 11
140.6457808412925
 21
1.965532811073387
 31
0.0
  0
LINE
  5
9D2B
330
9D15
100
AcDbEntity
  8
bowle
 48
0.1
100
AcDbLine
 10
141.511806245077
 20
-0.2344671889266578
 30
0.0
 11
141.511806245077
 21
1.965532811073387
 31
0.0
  0
LINE
  5
9D2C
330
9D15
100
AcDbEntity
  8
bowle
 48
0.1
100
AcDbLine
 10
138.9137300337237
 20
-0.234467188926601
 30
0.0
 11
138.9137300337237
 21
1.96553281107333
 31
0.0
  0
LINE
  5
9D2D
330
9D15
100
AcDbEntity
  8
bowle
 48
0.1
100
AcDbLine
 10
138.0477046299392
 20
-0.2344671889266578
 30
0.0
 11
138.0477046299391
 21
1.96553281107333
 31
0.0
  0
LINE
  5
9D2E
330
9D15
100
AcDbEntity
  8
bowle
 48
0.1
100
AcDbLine
 10
141.511806245077
 20
1.965532811073387
 30
0.0
 11
138.0477046299391
 21
1.965532811073387
 31
0.0
  0
LINE
  5
9D2F
330
9D15
100
AcDbEntity
  8
bowle
 48
0.1
100
AcDbLine
 10
138.0477046299391
 20
1.96553281107333
 30
0.0
 11
139.779755437508
 21
2.96553281107333
 31
0.0
  0
LINE
  5
9D30
330
9D15
100
AcDbEntity
  8
bowle
 48
0.1
100
AcDbLine
 10
141.511806245077
 20
1.96553281107333
 30
0.0
 11
139.779755437508
 21
2.96553281107333
 31
0.0
  0
LINE
  5
9D31
330
9D15
100
AcDbEntity
  8
contour
 62
     4
100
AcDbLine
 10
138.1587554375081
 20
4.421980067141987
 30
0.0
 11
137.7797554375081
 21
3.765532811073342
 31
0.0
  0
LINE
  5
9D32
330
9D15
100
AcDbEntity
  8
contour
100
AcDbLine
 10
137.7797554375081
 20
4.42198006714193
 30
0.0
 11
141.7797554375081
 21
4.42198006714193
 31
0.0
  0
LINE
  5
9D33
330
9D15
100
AcDbEntity
  8
contour
 62
     4
100
AcDbLine
 10
141.7797554375081
 20
3.765532811073398
 30
0.0
 11
141.400755437508
 21
4.42198006714193
 31
0.0
  0
ENDBLK
  5
9D1A
330
9D15
100
AcDbEntity
  8
0
100
AcDbBlockEnd
  0
BLOCK
  5
A4B4
330
A4B0
100
AcDbEntity
  8
0
100
AcDbBlockBegin
  2
ls1
 70
     0
 10
0.0
 20
0.0
 30
0.0
  3
ls1
  1

  0
LINE
  5
A4B6
330
A4B0
100
AcDbEntity
  8
contour
100
AcDbLine
 10
312.2788343297738
 20
4.477662871771769
 30
0.0
 11
312.2788343297738
 21
8.177662871771701
 31
0.0
  0
LINE
  5
A4B7
330
A4B0
100
AcDbEntity
  8
contour
100
AcDbLine
 10
312.2788343297738
 20
8.177662871771701
 30
0.0
 11
319.2788343297737
 21
8.177662871771701
 31
0.0
  0
LINE
  5
A4B8
330
A4B0
100
AcDbEntity
  8
contour
100
AcDbLine
 10
314.5788343297738
 20
26.1776628717717
 30
0.0
 11
316.9788343297738
 21
26.17766287177165
 31
0.0
  0
LINE
  5
A4B9
330
A4B0
100
AcDbEntity
  8
contour
100
AcDbLine
 10
313.7788343297738
 20
25.37766287177163
 30
0.0
 11
314.5788343297738
 21
26.17766287177165
 31
0.0
  0
LINE
  5
A4BA
330
A4B0
100
AcDbEntity
  8
contour
100
AcDbLine
 10
319.2788343297737
 20
8.177662871771701
 30
0.0
 11
319.2788343297737
 21
4.477662871771656
 31
0.0
  0
LINE
  5
A4BB
330
A4B0
100
AcDbEntity
  8
contour
100
AcDbLine
 10
318.9788343297738
 20
4.177662871771644
 30
0.0
 11
312.5788343297738
 21
4.177662871771758
 31
0.0
  0
LINE
  5
A4BC
330
A4B0
100
AcDbEntity
  8
contour
100
AcDbLine
 10
312.2788343297738
 20
4.477662871771769
 30
0.0
 11
312.5788343297738
 21
4.177662871771758
 31
0.0
  0
LINE
  5
A4BD
330
A4B0
100
AcDbEntity
  8
contour
100
AcDbLine
 10
319.2788343297737
 20
4.477662871771656
 30
0.0
 11
318.9788343297738
 21
4.177662871771644
 31
0.0
  0
LINE
  5
A4BE
330
A4B0
100
AcDbEntity
  8
contour
100
AcDbLine
 10
313.7788343297738
 20
8.177662871771644
 30
0.0
 11
313.7788343297738
 21
25.3776628717716
 31
0.0
  0
LINE
  5
A4BF
330
A4B0
100
AcDbEntity
  8
contour
100
AcDbLine
 10
317.7788343297738
 20
8.177662871771644
 30
0.0
 11
317.7788343297738
 21
25.37766287177162
 31
0.0
  0
LINE
  5
A4C0
330
A4B0
100
AcDbEntity
  8
contour
100
AcDbLine
 10
316.9788343297738
 20
26.17766287177165
 30
0.0
 11
317.7788343297738
 21
25.37766287177163
 31
0.0
  0
LINE
  5
A4C1
330
A4B0
100
AcDbEntity
  8
contour
100
AcDbLine
 10
313.7788343297738
 20
25.37766287177169
 30
0.0
 11
317.7788343297738
 21
25.37766287177169
 31
0.0
  0
LINE
  5
A4C2
330
A4B0
100
AcDbEntity
  8
contour
 62
     4
100
AcDbLine
 10
314.1578343297738
 20
8.834110127840233
 30
0.0
 11
314.1578343297738
 21
25.75666287177164
 31
0.0
  0
LINE
  5
A4C3
330
A4B0
100
AcDbEntity
  8
contour
 62
     4
100
AcDbLine
 10
317.3998343297737
 20
8.834110127840233
 30
0.0
 11
317.3998343297737
 21
25.75666287177173
 31
0.0
  0
LINE
  5
A4C4
330
A4B0
100
AcDbEntity
  8
contour
100
AcDbLine
 10
312.2788343297738
 20
4.477662871771769
 30
0.0
 11
319.2788343297737
 21
4.477662871771826
 31
0.0
  0
LINE
  5
A4C5
330
A4B0
100
AcDbEntity
  8
bowle
 48
0.1
100
AcDbLine
 10
314.9128089259893
 20
4.177662871771701
 30
0.0
 11
314.9128089259893
 21
6.37766287177169
 31
0.0
  0
LINE
  5
A4C6
330
A4B0
100
AcDbEntity
  8
bowle
 48
0.1
100
AcDbLine
 10
314.0467835222048
 20
4.177662871771644
 30
0.0
 11
314.0467835222048
 21
6.37766287177169
 31
0.0
  0
LINE
  5
A4C7
330
A4B0
100
AcDbEntity
  8
bowle
 48
0.1
100
AcDbLine
 10
316.6448597335582
 20
4.177662871771701
 30
0.0
 11
316.6448597335582
 21
6.377662871771633
 31
0.0
  0
LINE
  5
A4C8
330
A4B0
100
AcDbEntity
  8
bowle
 48
0.1
100
AcDbLine
 10
317.5108851373427
 20
4.177662871771644
 30
0.0
 11
317.5108851373427
 21
6.377662871771633
 31
0.0
  0
LINE
  5
A4C9
330
A4B0
100
AcDbEntity
  8
bowle
 48
0.1
100
AcDbLine
 10
314.0467835222049
 20
6.37766287177169
 30
0.0
 11
317.5108851373427
 21
6.37766287177169
 31
0.0
  0
LINE
  5
A4CA
330
A4B0
100
AcDbEntity
  8
bowle
 48
0.1
100
AcDbLine
 10
317.5108851373427
 20
6.377662871771633
 30
0.0
 11
315.7788343297739
 21
7.377662871771633
 31
0.0
  0
LINE
  5
A4CB
330
A4B0
100
AcDbEntity
  8
bowle
 48
0.1
100
AcDbLine
 10
314.0467835222049
 20
6.377662871771633
 30
0.0
 11
315.7788343297739
 21
7.377662871771633
 31
0.0
  0
LINE
  5
A4CC
330
A4B0
100
AcDbEntity
  8
contour
 62
     4
100
AcDbLine
 10
317.3998343297737
 20
8.83411012784029
 30
0.0
 11
317.7788343297738
 21
8.177662871771644
 31
0.0
  0
LINE
  5
A4CD
330
A4B0
100
AcDbEntity
  8
contour
100
AcDbLine
 10
317.7788343297738
 20
8.834110127840233
 30
0.0
 11
313.7788343297738
 21
8.834110127840233
 31
0.0
  0
LINE
  5
A4CE
330
A4B0
100
AcDbEntity
  8
contour
 62
     4
100
AcDbLine
 10
313.7788343297738
 20
8.177662871771701
 30
0.0
 11
314.1578343297738
 21
8.834110127840233
 31
0.0
  0
ENDBLK
  5
A4B5
330
A4B0
100
AcDbEntity
  8
0
100
AcDbBlockEnd
  0
BLOCK
  5
A91E
330
A915
100
AcDbEntity
  8
0
100
AcDbBlockBegin
  2
*D6
 70
     1
 10
0.0
 20
0.0
 30
0.0
  3
*D6
  1

  0
LINE
  5
A92D
330
A915
100
AcDbEntity
  8
mark
370
    -2
100
AcDbLine
 10
150.5824936394949
 20
206.6766112853931
 30
0.0
 11
127.0108915474482
 21
202.5403264547044
 31
0.0
  0
LINE
  5
A92E
330
A915
100
AcDbEntity
  8
mark
370
    -2
100
AcDbLine
 10
62.98910845255175
 20
191.3059466609603
 30
0.0
 11
60.52673217967114
 21
190.8738551304317
 31
0.0
  0
MTEXT
  5
A92F
330
A915
100
AcDbEntity
  8
mark
 62
     3
100
AcDbMText
 10
141.7900019796896
 20
207.2658140151032
 30
0.0
 40
2.5
 41
0.0
 71
     5
 72
     1
  1
\A1;P.C.D 60
 11
0.984950509152247
 21
0.1728366122114459
 31
0.0
 73
     1
 44
1.0
  0
LINE
  5
A930
330
A915
100
AcDbEntity
  8
mark
370
    -2
100
AcDbLine
 10
65.45148472543236
 20
191.7380381914889
 30
0.0
 11
124.5485152745676
 21
202.1082349241758
 31
0.0
  0
INSERT
  5
A931
330
A915
100
AcDbEntity
  8
mark
370
    -2
100
AcDbBlockReference
  2
_Open30
 10
65.45148472543236
 20
191.7380381914889
 30
0.0
 41
2.5
 42
2.5
 43
2.5
 50
9.952786822972266
  0
INSERT
  5
A932
330
A915
100
AcDbEntity
  8
mark
370
    -2
100
AcDbBlockReference
  2
_Open30
 10
124.5485152745676
 20
202.1082349241758
 30
0.0
 41
2.5
 42
2.5
 43
2.5
 50
189.9527868229722
  0
POINT
  5
A933
330
A915
100
AcDbEntity
  8
DEFPOINTS
 62
     0
100
AcDbPoint
 10
124.5485152745676
 20
202.1082349241758
 30
0.0
  0
POINT
  5
A934
330
A915
100
AcDbEntity
  8
DEFPOINTS
 62
     0
100
AcDbPoint
 10
65.45148472543236
 20
191.7380381914889
 30
0.0
  0
ENDBLK
  5
A91F
330
A915
100
AcDbEntity
  8
0
100
AcDbBlockEnd
  0
BLOCK
  5
A92B
330
A922
100
AcDbEntity
  8
0
100
AcDbBlockBegin
  2
*D7
 70
     1
 10
0.0
 20
0.0
 30
0.0
  3
*D7
  1

  0
LINE
  5
A94D
330
A922
100
AcDbEntity
  8
mark
370
    -2
100
AcDbLine
 10
38.69895320579534
 20
209.1998611170003
 30
0.0
 11
62.51336810645923
 21
204.0070089602392
 31
0.0
  0
LINE
  5
A94E
330
A922
100
AcDbEntity
  8
mark
370
    -2
100
AcDbLine
 10
127.4866318935408
 20
189.8392641554256
 30
0.0
 11
129.9292357953107
 21
189.3066421702822
 31
0.0
  0
MTEXT
  5
A94F
330
A922
100
AcDbEntity
  8
mark
 62
     3
100
AcDbMText
 10
48.93305530640749
 20
209.1176096406794
 30
0.0
 40
2.5
 41
0.0
 71
     5
 72
     1
  1
\A1;P.C.D 61.5
 11
0.9770415607079925
 21
-0.2130487940573478
 31
0.0
 73
     1
 44
1.0
  0
LINE
  5
A950
330
A922
100
AcDbEntity
  8
mark
370
    -2
100
AcDbLine
 10
125.0440279917708
 20
190.3718861405689
 30
0.0
 11
64.95597200822921
 21
203.4743869750958
 31
0.0
  0
INSERT
  5
A951
330
A922
100
AcDbEntity
  8
mark
370
    -2
100
AcDbBlockReference
  2
_Open30
 10
125.0440279917708
 20
190.3718861405689
 30
0.0
 41
2.5
 42
2.5
 43
2.5
 50
167.6989205310029
  0
INSERT
  5
A952
330
A922
100
AcDbEntity
  8
mark
370
    -2
100
AcDbBlockReference
  2
_Open30
 10
64.95597200822921
 20
203.4743869750958
 30
0.0
 41
2.5
 42
2.5
 43
2.5
 50
347.6989205310029
  0
POINT
  5
A953
330
A922
100
AcDbEntity
  8
DEFPOINTS
 62
     0
100
AcDbPoint
 10
64.95597200822921
 20
203.4743869750958
 30
0.0
  0
POINT
  5
A954
330
A922
100
AcDbEntity
  8
DEFPOINTS
 62
     0
100
AcDbPoint
 10
125.0440279917708
 20
190.3718861405689
 30
0.0
  0
ENDBLK
  5
A92C
330
A922
100
AcDbEntity
  8
0
100
AcDbBlockEnd
  0
BLOCK
  5
A961
330
A957
100
AcDbEntity
  8
0
100
AcDbBlockBegin
  2
*D8
 70
     1
 10
0.0
 20
0.0
 30
0.0
  3
*D8
  1

  0
LINE
  5
AAC8
330
A957
100
AcDbEntity
  8
mark
370
    -2
100
AcDbLine
 10
129.8499999999999
 20
103.3719133182735
 30
0.0
 11
140.2198360983364
 21
103.3719133182735
 31
0.0
  0
LINE
  5
AAC9
330
A957
100
AcDbEntity
  8
mark
370
    -2
100
AcDbLine
 10
129.8499999999999
 20
121.2719133182735
 30
0.0
 11
140.2198360983364
 21
121.2719133182735
 31
0.0
  0
LINE
  5
AACA
330
A957
100
AcDbEntity
  8
mark
370
    -2
100
AcDbLine
 10
139.3698360983364
 20
105.8719133182735
 30
0.0
 11
139.3698360983364
 21
118.7719133182735
 31
0.0
  0
INSERT
  5
AACB
330
A957
100
AcDbEntity
  8
mark
370
    -2
100
AcDbBlockReference
  2
_Open30
 10
139.3698360983364
 20
103.3719133182735
 30
0.0
 41
2.5
 42
2.5
 43
2.5
 50
270.0
  0
INSERT
  5
AACC
330
A957
100
AcDbEntity
  8
mark
370
    -2
100
AcDbBlockReference
  2
_Open30
 10
139.3698360983364
 20
121.2719133182735
 30
0.0
 41
2.5
 42
2.5
 43
2.5
 50
90.0
  0
MTEXT
  5
AACD
330
A957
100
AcDbEntity
  8
mark
 62
     3
100
AcDbMText
 10
137.2698360983364
 20
112.3219133182735
 30
0.0
 40
2.5
 41
0.0
 71
     5
 72
     1
  1
\A1;17.9
 11
0.0000000000000001
 21
1.0
 31
0.0
 73
     1
 44
1.0
  0
POINT
  5
AACE
330
A957
100
AcDbEntity
  8
DEFPOINTS
 62
     0
100
AcDbPoint
 10
128.9999999999999
 20
103.3719133182735
 30
0.0
  0
POINT
  5
AACF
330
A957
100
AcDbEntity
  8
DEFPOINTS
 62
     0
100
AcDbPoint
 10
128.9999999999999
 20
121.2719133182735
 30
0.0
  0
POINT
  5
AAD0
330
A957
100
AcDbEntity
  8
DEFPOINTS
 62
     0
100
AcDbPoint
 10
139.3698360983364
 20
121.2719133182735
 30
0.0
  0
ENDBLK
  5
A962
330
A957
100
AcDbEntity
  8
0
100
AcDbBlockEnd
  0
BLOCK
  5
A997
330
A98D
100
AcDbEntity
  8
0
100
AcDbBlockBegin
  2
*D9
 70
     1
 10
0.0
 20
0.0
 30
0.0
  3
*D9
  1

  0
LINE
  5
AAD1
330
A98D
100
AcDbEntity
  8
mark
370
    -2
100
AcDbLine
 10
129.85
 20
121.2719133182735
 30
0.0
 11
146.3949553920943
 21
121.2719133182735
 31
0.0
  0
LINE
  5
AAD2
330
A98D
100
AcDbEntity
  8
mark
370
    -2
100
AcDbLine
 10
129.85
 20
96.27191331827349
 30
0.0
 11
146.3949553920943
 21
96.27191331827349
 31
0.0
  0
LINE
  5
AAD3
330
A98D
100
AcDbEntity
  8
mark
370
    -2
100
AcDbLine
 10
145.5449553920943
 20
118.7719133182735
 30
0.0
 11
145.5449553920943
 21
98.77191331827349
 31
0.0
  0
INSERT
  5
AAD4
330
A98D
100
AcDbEntity
  8
mark
370
    -2
100
AcDbBlockReference
  2
_Open30
 10
145.5449553920943
 20
121.2719133182735
 30
0.0
 41
2.5
 42
2.5
 43
2.5
 50
90.0
  0
INSERT
  5
AAD5
330
A98D
100
AcDbEntity
  8
mark
370
    -2
100
AcDbBlockReference
  2
_Open30
 10
145.5449553920943
 20
96.27191331827349
 30
0.0
 41
2.5
 42
2.5
 43
2.5
 50
270.0
  0
MTEXT
  5
AAD6
330
A98D
100
AcDbEntity
  8
mark
 62
     3
100
AcDbMText
 10
143.4449553920943
 20
108.7719133182735
 30
0.0
 40
2.5
 41
0.0
 71
     5
 72
     1
  1
\A1;25%%P0.2
 11
0.0000000000000001
 21
1.0
 31
0.0
 73
     1
 44
1.0
  0
POINT
  5
AAD7
330
A98D
100
AcDbEntity
  8
DEFPOINTS
 62
     0
100
AcDbPoint
 10
129.0
 20
121.2719133182735
 30
0.0
  0
POINT
  5
AAD8
330
A98D
100
AcDbEntity
  8
DEFPOINTS
 62
     0
100
AcDbPoint
 10
129.0
 20
96.27191331827349
 30
0.0
  0
POINT
  5
AAD9
330
A98D
100
AcDbEntity
  8
DEFPOINTS
 62
     0
100
AcDbPoint
 10
145.5449553920943
 20
96.27191331827349
 30
0.0
  0
ENDBLK
  5
A998
330
A98D
100
AcDbEntity
  8
0
100
AcDbBlockEnd
  0
BLOCK
  5
A9A4
330
A99A
100
AcDbEntity
  8
0
100
AcDbBlockBegin
  2
*D10
 70
     1
 10
0.0
 20
0.0
 30
0.0
  3
*D10
  1

  0
LINE
  5
AADA
330
A99A
100
AcDbEntity
  8
mark
370
    -2
100
AcDbLine
 10
57.15000000000003
 20
112.2719133182735
 30
0.0
 11
52.32289301746768
 21
112.2719133182735
 31
0.0
  0
LINE
  5
AADB
330
A99A
100
AcDbEntity
  8
mark
370
    -2
100
AcDbLine
 10
60.15000000000003
 20
121.2719133182735
 30
0.0
 11
52.32289301746768
 21
121.2719133182735
 31
0.0
  0
LINE
  5
AADC
330
A99A
100
AcDbEntity
  8
mark
370
    -2
100
AcDbLine
 10
53.17289301746768
 20
114.7719133182735
 30
0.0
 11
53.17289301746768
 21
118.7719133182735
 31
0.0
  0
INSERT
  5
AADD
330
A99A
100
AcDbEntity
  8
mark
370
    -2
100
AcDbBlockReference
  2
_Open30
 10
53.17289301746768
 20
112.2719133182735
 30
0.0
 41
2.5
 42
2.5
 43
2.5
 50
270.0
  0
INSERT
  5
AADE
330
A99A
100
AcDbEntity
  8
mark
370
    -2
100
AcDbBlockReference
  2
_Open30
 10
53.17289301746768
 20
121.2719133182735
 30
0.0
 41
2.5
 42
2.5
 43
2.5
 50
90.0
  0
MTEXT
  5
AADF
330
A99A
100
AcDbEntity
  8
mark
 62
     3
100
AcDbMText
 10
51.07289301746766
 20
116.7719133182735
 30
0.0
 40
2.5
 41
0.0
 71
     5
 72
     1
  1
\A1;9
 11
0.0000000000000001
 21
1.0
 31
0.0
 73
     1
 44
1.0
  0
POINT
  5
AAE0
330
A99A
100
AcDbEntity
  8
DEFPOINTS
 62
     0
100
AcDbPoint
 10
58.00000000000003
 20
112.2719133182735
 30
0.0
  0
POINT
  5
AAE1
330
A99A
100
AcDbEntity
  8
DEFPOINTS
 62
     0
100
AcDbPoint
 10
61.00000000000003
 20
121.2719133182735
 30
0.0
  0
POINT
  5
AAE2
330
A99A
100
AcDbEntity
  8
DEFPOINTS
 62
     0
100
AcDbPoint
 10
53.17289301746768
 20
121.2719133182735
 30
0.0
  0
ENDBLK
  5
A9A5
330
A99A
100
AcDbEntity
  8
0
100
AcDbBlockEnd
  0
BLOCK
  5
A9D6
330
A9CC
100
AcDbEntity
  8
0
100
AcDbBlockBegin
  2
*D11
 70
     1
 10
0.0
 20
0.0
 30
0.0
  3
*D11
  1

  0
LINE
  5
AAE3
330
A9CC
100
AcDbEntity
  8
mark
370
    -2
100
AcDbLine
 10
60.00000000000003
 20
121.1219133182735
 30
0.0
 11
60.00000000000003
 21
130.4299037643982
 31
0.0
  0
LINE
  5
AAE4
330
A9CC
100
AcDbEntity
  8
mark
370
    -2
100
AcDbLine
 10
130.0
 20
121.1219133182732
 30
0.0
 11
130.0
 21
130.4299037643982
 31
0.0
  0
LINE
  5
AAE5
330
A9CC
100
AcDbEntity
  8
mark
370
    -2
100
AcDbLine
 10
62.50000000000003
 20
129.5799037643982
 30
0.0
 11
127.5
 21
129.5799037643982
 31
0.0
  0
INSERT
  5
AAE6
330
A9CC
100
AcDbEntity
  8
mark
370
    -2
100
AcDbBlockReference
  2
_Open30
 10
60.00000000000003
 20
129.5799037643982
 30
0.0
 41
2.5
 42
2.5
 43
2.5
 50
180.0
  0
INSERT
  5
AAE7
330
A9CC
100
AcDbEntity
  8
mark
370
    -2
100
AcDbBlockReference
  2
_Open30
 10
130.0
 20
129.5799037643982
 30
0.0
 41
2.5
 42
2.5
 43
2.5
  0
MTEXT
  5
AAE8
330
A9CC
100
AcDbEntity
  8
mark
 62
     3
100
AcDbMText
 10
95.00000000000003
 20
131.6799037643981
 30
0.0
 40
2.5
 41
0.0
 71
     5
 72
     1
  1
\A1;%%C70
 73
     1
 44
1.0
  0
POINT
  5
AAE9
330
A9CC
100
AcDbEntity
  8
DEFPOINTS
 62
     0
100
AcDbPoint
 10
60.00000000000003
 20
120.2719133182735
 30
0.0
  0
POINT
  5
AAEA
330
A9CC
100
AcDbEntity
  8
DEFPOINTS
 62
     0
100
AcDbPoint
 10
130.0
 20
120.2719133182732
 30
0.0
  0
POINT
  5
AAEB
330
A9CC
100
AcDbEntity
  8
DEFPOINTS
 62
     0
100
AcDbPoint
 10
130.0
 20
129.5799037643982
 30
0.0
  0
ENDBLK
  5
A9D7
330
A9CC
100
AcDbEntity
  8
0
100
AcDbBlockEnd
  0
BLOCK
  5
AA23
330
AA19
100
AcDbEntity
  8
0
100
AcDbBlockBegin
  2
*D12
 70
     1
 10
0.0
 20
0.0
 30
0.0
  3
*D12
  1

  0
LINE
  5
AAEC
330
AA19
100
AcDbEntity
  8
mark
370
    -2
100
AcDbLine
 10
70.0
 20
96.10991331827349
 30
0.0
 11
70.0
 21
82.87386803481561
 31
0.0
  0
LINE
  5
AAED
330
AA19
100
AcDbEntity
  8
mark
370
    -2
100
AcDbLine
 10
120.0
 20
96.10991331827349
 30
0.0
 11
120.0
 21
82.87386803481561
 31
0.0
  0
LINE
  5
AAEE
330
AA19
100
AcDbEntity
  8
mark
370
    -2
100
AcDbLine
 10
72.5
 20
83.7238680348156
 30
0.0
 11
117.5
 21
83.7238680348156
 31
0.0
  0
INSERT
  5
AAEF
330
AA19
100
AcDbEntity
  8
mark
370
    -2
100
AcDbBlockReference
  2
_Open30
 10
70.0
 20
83.7238680348156
 30
0.0
 41
2.5
 42
2.5
 43
2.5
 50
180.0
  0
INSERT
  5
AAF0
330
AA19
100
AcDbEntity
  8
mark
370
    -2
100
AcDbBlockReference
  2
_Open30
 10
120.0
 20
83.7238680348156
 30
0.0
 41
2.5
 42
2.5
 43
2.5
  0
MTEXT
  5
AAF1
330
AA19
100
AcDbEntity
  8
mark
 62
     3
100
AcDbMText
 10
95.0
 20
85.8238680348156
 30
0.0
 40
2.5
 41
0.0
 71
     5
 72
     1
  1
\A1;M50X1.5P
 73
     1
 44
1.0
  0
POINT
  5
AAF2
330
AA19
100
AcDbEntity
  8
DEFPOINTS
 62
     0
100
AcDbPoint
 10
70.0
 20
96.95991331827348
 30
0.0
  0
POINT
  5
AAF3
330
AA19
100
AcDbEntity
  8
DEFPOINTS
 62
     0
100
AcDbPoint
 10
120.0
 20
96.95991331827348
 30
0.0
  0
POINT
  5
AAF4
330
AA19
100
AcDbEntity
  8
DEFPOINTS
 62
     0
100
AcDbPoint
 10
120.0
 20
83.7238680348156
 30
0.0
  0
ENDBLK
  5
AA24
330
AA19
100
AcDbEntity
  8
0
100
AcDbBlockEnd
  0
BLOCK
  5
AA2D
330
AA26
100
AcDbEntity
  8
0
100
AcDbBlockBegin
  2
*D13
 70
     1
 10
0.0
 20
0.0
 30
0.0
  3
*D13
  1

  0
LINE
  5
AAF5
330
AA26
100
AcDbEntity
  8
mark
370
    -2
100
AcDbLine
 10
53.19825518090872
 20
89.47016849918169
 30
0.0
 11
58.52512626584719
 21
94.7970395841205
 31
0.0
  0
MTEXT
  5
AAF6
330
AA26
100
AcDbEntity
  8
mark
 62
     3
100
AcDbMText
 10
53.49288300640302
 20
92.73464480565957
 30
0.0
 40
2.5
 41
0.0
 71
     5
 72
     1
  1
\A1;R1
 11
0.707106781186523
 21
0.7071067811865721
 31
0.0
 73
     1
 44
1.0
  0
LINE
  5
AAF7
330
AA26
100
AcDbEntity
  8
mark
370
    -2
100
AcDbLine
 10
60.99999999999996
 20
97.27191331827345
 30
0.0
 11
60.2928932188135
 21
96.56480653708696
 31
0.0
  0
INSERT
  5
AAF8
330
AA26
100
AcDbEntity
  8
mark
370
    -2
100
AcDbBlockReference
  2
_Open30
 10
60.2928932188135
 20
96.56480653708696
 30
0.0
 41
2.5
 42
2.5
 43
2.5
 50
45.00000000000199
  0
POINT
  5
AAF9
330
AA26
100
AcDbEntity
  8
DEFPOINTS
 62
     0
100
AcDbPoint
 10
60.2928932188135
 20
96.56480653708696
 30
0.0
  0
POINT
  5
AAFA
330
AA26
100
AcDbEntity
  8
DEFPOINTS
 62
     0
100
AcDbPoint
 10
60.99999999999996
 20
97.27191331827345
 30
0.0
  0
ENDBLK
  5
AA2E
330
AA26
100
AcDbEntity
  8
0
100
AcDbBlockEnd
  0
ENDSEC
  0
SECTION
  2
ENTITIES
  0
MTEXT
  5
C0
330
18
100
AcDbEntity
  8
0
100
AcDbMText
 10
41.26970765600413
 20
233.6950877649332
 30
0.0
 40
2.5
 41
0.0
 71
     1
 72
     5
  1

  7
ISOCP3
 73
     1
 44
1.0
  0
LWPOLYLINE
  5
7D6C
330
18
100
AcDbEntity
  8
frame
100
AcDbPolyline
 90
        4
 70
     1
 43
0.0
 10
190.0
 20
280.0
 10
0.0
 20
280.0
 10
0.0
 20
0.0
 10
190.0
 20
0.0
  0
MTEXT
  5
7D6D
330
18
100
AcDbEntity
  8
0
100
AcDbMText
 10
17.09950368689175
 20
19.07605901616614
 30
0.0
 40
4.5
 41
0.0
 71
     1
 72
     5
  1
{\Ftxt,bigfont|c128;林彦旭}
  7
JL
 73
     1
 44
1.0
1001
ACAD
1000
ACAD_MTEXT_DEFINED_HEIGHT_BEGIN
1070
    46
1040
0.0
1000
ACAD_MTEXT_DEFINED_HEIGHT_END
  0
MTEXT
  5
7D6E
330
18
100
AcDbEntity
  8
0
100
AcDbMText
 10
77.95294729228851
 20
28.93578979870677
 30
0.0
 40
4.5
 41
0.0
 71
     1
 72
     5
  1
{\Ftxt,bigfont|c128;1 : 1}
  7
JL
 73
     1
 44
1.0
1001
ACAD
1000
ACAD_MTEXT_DEFINED_HEIGHT_BEGIN
1070
    46
1040
0.0
1000
ACAD_MTEXT_DEFINED_HEIGHT_END
  0
MTEXT
  5
7D6F
330
18
100
AcDbEntity
  8
0
 48
2.0
370
    25
100
AcDbMText
 10
140.2194500465656
 20
3.490021654633892
 30
0.0
 40
4.5
 41
0.0
 71
     5
 72
     1
  1
{\Ftxt,bigfont|c128;N L 4 0 2 7 8}
 73
     1
 44
1.0
1001
ACAD
1000
ACAD_MTEXT_DEFINED_HEIGHT_BEGIN
1070
    46
1040
0.0
1000
ACAD_MTEXT_DEFINED_HEIGHT_END
  0
MTEXT
  5
7D70
330
18
100
AcDbEntity
  8
0
 48
2.0
100
AcDbMText
 10
169.3719724439363
 20
21.76437127823692
 30
0.0
 40
4.318181818181822
 41
0.0
 71
     5
 72
     1
  1
\P{\Ftxt,bigfont|c128;MKR50X1.5P}
 73
     1
 44
1.0
1001
ACAD
1000
ACAD_MTEXT_DEFINED_HEIGHT_BEGIN
1070
    46
1040
0.0
1000
ACAD_MTEXT_DEFINED_HEIGHT_END
  0
MTEXT
  5
7D71
330
18
100
AcDbEntity
  8
0
100
AcDbMText
 10
15.3760677136774
 20
28.37740359834709
 30
0.0
 40
4.5
 41
0.0
 71
     1
 72
     5
  1
{\Ftxt,bigfont|c128;06.10.17}
  7
JL
 73
     1
 44
1.0
1001
ACAD
1000
ACAD_MTEXT_DEFINED_HEIGHT_BEGIN
1070
    46
1040
0.0
1000
ACAD_MTEXT_DEFINED_HEIGHT_END
  0
LINE
  5
7D72
330
18
100
AcDbEntity
  8
0
 62
     7
 48
5.0
100
AcDbLine
 39
3.838383838383842
 10
47.92942413992534
 20
27.65712907016086
 30
0.0
 11
53.04580144287854
 21
28.93622339589922
 31
0.0
  0
MTEXT
  5
7D73
330
18
100
AcDbEntity
  8
0
100
AcDbMText
 10
14.91235548326415
 20
9.242195050049303
 30
0.0
 40
6.0
 41
0.0
 71
     1
 72
     5
  1
\Ftxt.shx,bigfont.shx|c128;日機株式会社
  7
LKK
 73
     1
 44
1.0
  0
LINE
  5
7D74
330
18
100
AcDbEntity
  8
frame
100
AcDbLine
 10
0.0
 20
12.0
 30
0.0
 11
190.0
 21
12.00000000000005
 31
0.0
  0
LINE
  5
7D75
330
18
100
AcDbEntity
  8
frame
100
AcDbLine
 10
0.0
 20
22.0
 30
0.0
 11
92.12121212121223
 21
22.0
 31
0.0
  0
LINE
  5
7D76
330
18
100
AcDbEntity
  8
frame
100
AcDbLine
 10
0.0
 20
32.0
 30
0.0
 11
190.0
 21
32.0
 31
0.0
  0
LINE
  5
7D77
330
18
100
AcDbEntity
  8
frame
100
AcDbLine
 10
12.19077332493799
 20
32.0
 30
0.0
 11
12.19077332493799
 21
12.0
 31
0.0
  0
LINE
  5
7D78
330
18
100
AcDbEntity
  8
frame
100
AcDbLine
 10
30.70707070707067
 20
32.0
 30
0.0
 11
30.70707070707078
 21
12.0
 31
0.0
  0
MTEXT
  5
7D79
330
18
100
AcDbEntity
  8
0
100
AcDbMText
 10
2.830274784221955
 20
29.08190089582831
 30
0.0
 40
4.5
 41
0.0
 71
     1
 72
     5
  1
\Ftxt.shx,bigfont.shx|c128;日 付
  7
JL
 73
     1
 44
1.0
  0
MTEXT
  5
7D7A
330
18
100
AcDbEntity
  8
0
100
AcDbMText
 10
2.97063307743889
 20
19.52163842926637
 30
0.0
 40
4.5
 41
0.0
 71
     1
 72
     5
  1
\Ftxt.shx,bigfont.shx|c128;製 図
  7
JL
 73
     1
 44
1.0
  0
LINE
  5
7D7B
330
18
100
AcDbEntity
  8
0
 62
     7
370
    25
100
AcDbLine
 10
53.04580144287854
 20
23.81984609294597
 30
0.0
 11
53.04580144287854
 21
28.93622339589922
 31
0.0
  0
MTEXT
  5
7D7C
330
18
100
AcDbEntity
  8
0
100
AcDbMText
 10
64.00748852490835
 20
29.12242703792379
 30
0.0
 40
4.5
 41
0.0
 71
     1
 72
     5
  1
\Ftxt.shx,bigfont.shx|c128;尺 度
  7
JL
 73
     1
 44
1.0
  0
LINE
  5
7D7D
330
18
100
AcDbEntity
  8
frame
100
AcDbLine
 10
61.41414141414145
 20
32.0
 30
0.0
 11
61.41414141414145
 21
12.0
 31
0.0
  0
LINE
  5
7D7E
330
18
100
AcDbEntity
  8
0
 62
     7
370
    25
100
AcDbLine
 10
39.6153110226262
 20
23.18889018332635
 30
0.0
 11
39.6153110226262
 21
29.36457992429672
 31
0.0
  0
CIRCLE
  5
7D7F
330
18
100
AcDbEntity
  8
0
 62
     7
100
AcDbCircle
 10
39.6153110226262
 20
26.37803474442251
 30
0.0
 40
2.558188651476678
  0
LINE
  5
7D80
330
18
100
AcDbEntity
  8
0
 62
     7
370
    25
100
AcDbLine
 10
47.19321986919976
 20
26.37803474442262
 30
0.0
 11
53.50512581624241
 21
26.37803474442262
 31
0.0
  0
LINE
  5
7D81
330
18
100
AcDbEntity
  8
0
 62
     7
100
AcDbLine
 10
47.92942413992534
 20
25.09894041868427
 30
0.0
 11
53.04580144287854
 21
23.81984609294597
 31
0.0
  0
LINE
  5
7D82
330
18
100
AcDbEntity
  8
frame
100
AcDbLine
 10
42.742241959951
 20
22.0
 30
0.0
 11
42.742241959951
 21
12.0
 31
0.0
  0
LINE
  5
7D83
330
18
100
AcDbEntity
  8
0
 62
     7
370
    25
100
AcDbLine
 10
36.41832228486612
 20
26.37803474442251
 30
0.0
 11
43.00325267619268
 21
26.37803474442262
 31
0.0
  0
CIRCLE
  5
7D84
330
18
100
AcDbEntity
  8
0
 62
     7
100
AcDbCircle
 10
39.6153110226262
 20
26.37803474442251
 30
0.0
 40
1.279094325738339
  0
MTEXT
  5
7D85
330
18
100
AcDbEntity
  8
0
100
AcDbMText
 10
33.70184032462407
 20
19.41013815785266
 30
0.0
 40
4.5
 41
0.0
 71
     1
 72
     5
  1
\Ftxt.shx,bigfont.shx|c128;検 図
  7
JL
 73
     1
 44
1.0
  0
LINE
  5
7D86
330
18
100
AcDbEntity
  8
0
 62
     7
370
    25
100
AcDbLine
 10
47.92942413992534
 20
25.09894041868427
 30
0.0
 11
47.92942413992534
 21
27.65712907016086
 31
0.0
  0
MTEXT
  5
7D87
330
18
100
AcDbEntity
  8
0
100
AcDbMText
 10
64.28820249919829
 20
19.32058534748881
 30
0.0
 40
4.5
 41
0.0
 71
     1
 72
     5
  1
\Ftxt.shx,bigfont.shx|c128;承 認
  7
JL
 73
     1
 44
1.0
  0
MTEXT
  5
7D88
330
18
100
AcDbEntity
  8
0
100
AcDbMText
 10
93.71128715606699
 20
10.7026821961914
 30
0.0
 40
4.5
 41
0.0
 71
     1
 72
     5
  1
\Ftxt.shx,bigfont.shx|c128;図  面  番  号
  7
JL
 73
     1
 44
1.0
  0
MTEXT
  5
7D89
330
18
100
AcDbEntity
  8
0
 48
2.0
100
AcDbMText
 10
116.9038190021384
 20
21.8757473149584
 30
0.0
 40
4.5
 41
0.0
 71
     5
 72
     1
  1
\P\Ftxt.shx,bigfont.shx|c128;    精密ロックナット
 73
     1
 44
1.0
  0
MTEXT
  5
7D8A
330
18
100
AcDbEntity
  8
0
100
AcDbMText
 10
94.8083613031232
 20
29.03862457973275
 30
0.0
 40
4.5
 41
0.0
 71
     1
 72
     5
  1
\Ftxt.shx,bigfont.shx|c128;品  名
  7
JL
 73
     1
 44
1.0
  0
LINE
  5
7D8B
330
18
100
AcDbEntity
  8
frame
100
AcDbLine
 10
92.12121212121223
 20
32.0
 30
0.0
 11
92.12121212121223
 21
0.1833227579584786
 31
0.0
  0
LINE
  5
7D8C
330
18
100
AcDbEntity
  8
frame
100
AcDbLine
 10
73.41414141414145
 20
32.0
 30
0.0
 11
73.41414141414145
 21
12.0
 31
0.0
  0
LINE
  5
7D8D
330
18
100
AcDbEntity
  8
frame
100
AcDbLine
 10
147.0327092740656
 20
32.0
 30
0.0
 11
147.0327092740657
 21
12.0
 31
0.0
  0
MTEXT
  5
7D8E
330
18
100
AcDbEntity
  8
0
100
AcDbMText
 10
150.895959446773
 20
29.04517782830391
 30
0.0
 40
4.5
 41
0.0
 71
     1
 72
     5
  1
\Ftxt.shx,bigfont.shx|c128;型  番
  7
JL
 73
     1
 44
1.0
  0
MTEXT
  5
7D8F
330
18
100
AcDbEntity
  8
0
100
AcDbMText
 10
165.8059614810325
 20
10.78298174971564
 30
0.0
 40
4.5
 41
0.0
 71
     1
 72
     5
  1
\Ftxt.shx,bigfont.shx|c128;変更
  7
JL
 73
     1
 44
1.0
  0
LINE
  5
7D90
330
18
100
AcDbEntity
  8
frame
100
AcDbLine
 10
164.0909090909092
 20
12.00000000000005
 30
0.0
 11
164.0909090909093
 21
0.0
 31
0.0
  0
LINE
  5
7D91
330
18
100
AcDbEntity
  8
frame
100
AcDbLine
 10
124.6157900786393
 20
43.13491348924492
 30
0.0
 11
184.6157900786393
 21
43.13491348924481
 31
0.0
  0
LINE
  5
7D92
330
18
100
AcDbEntity
  8
frame
100
AcDbLine
 10
124.6157900786393
 20
50.33491348924497
 30
0.0
 11
184.6157900786393
 21
50.33491348924497
 31
0.0
  0
LINE
  5
7D93
330
18
100
AcDbEntity
  8
frame
100
AcDbLine
 10
124.6157900786393
 20
57.5349134892449
 30
0.0
 11
184.6157900786393
 21
57.53491348924478
 31
0.0
  0
LINE
  5
7D94
330
18
100
AcDbEntity
  8
frame
100
AcDbLine
 10
124.6157900786393
 20
64.73491348924494
 30
0.0
 11
184.6157900786393
 21
64.73491348924483
 31
0.0
  0
LINE
  5
7D95
330
18
100
AcDbEntity
  8
frame
100
AcDbLine
 10
124.6157900786393
 20
35.93491348924488
 30
0.0
 11
184.6157900786393
 21
35.93491348924488
 31
0.0
  0
MTEXT
  5
7D96
330
18
100
AcDbEntity
  8
0
 62
     7
 48
2.0
100
AcDbMText
 10
154.5011900445106
 20
65.52808189982909
 30
0.0
 40
4.8
 41
0.0
 71
     5
 72
     1
  1
\P\Ftxt.shx,bigfont.shx|c128;諸　　　　元
 73
     1
 44
1.0
  0
LINE
  5
7D97
330
18
100
AcDbEntity
  8
frame
100
AcDbLine
 10
124.6157900786393
 20
64.73491348924483
 30
0.0
 11
124.6157900786393
 21
35.93491348924488
 31
0.0
  0
MTEXT
  5
7D98
330
18
100
AcDbEntity
  8
0
100
AcDbMText
 10
128.1382258923195
 20
56.00840432212407
 30
0.0
 40
4.4
 41
163.916286842249
 71
     1
 72
     5
  1
\Ftxt.shx,bigfont.shx|c128;熱　処　理
  7
JL
 73
     1
 44
1.0
  0
LINE
  5
7D99
330
18
100
AcDbEntity
  8
frame
100
AcDbLine
 10
148.6157900786393
 20
57.53491348924478
 30
0.0
 11
148.6157900786393
 21
35.93491348924488
 31
0.0
  0
MTEXT
  5
7D9A
330
18
100
AcDbEntity
  8
0
100
AcDbMText
 10
127.8579515249403
 20
49.00617587486397
 30
0.0
 40
4.4
 41
163.6058628849672
 71
     1
 72
     5
  1
\Ftxt.shx,bigfont.shx|c128;表 面 処 理
  7
JL
 73
     1
 44
1.0
  0
MTEXT
  5
7D9B
330
18
100
AcDbEntity
  8
0
100
AcDbMText
 10
128.1480173733753
 20
41.71770302125605
 30
0.0
 40
4.4
 41
166.1718
 71
     1
 72
     5
  1
\Ftxt.shx,bigfont.shx|c128;等     　級
  7
JL
 73
     1
 44
1.0
  0
LINE
  5
7D9C
330
18
100
AcDbEntity
  8
frame
100
AcDbLine
 10
184.6157900786393
 20
64.73491348924483
 30
0.0
 11
184.6157900786393
 21
35.93491348924499
 31
0.0
  0
MTEXT
  5
7D9D
330
18
100
AcDbEntity
  8
0
100
AcDbMText
 10
153.3627933880818
 20
55.83344641471445
 30
0.0
 40
4.4
 41
291.8960056857887
 71
     1
 72
     5
  1
\Ftxt.shx,bigfont.shx|c128;調質　HRC30%%d%%p２%%d
  7
JL
 73
     1
 44
1.0
  0
MTEXT
  5
7D9E
330
18
100
AcDbEntity
  8
0
100
AcDbMText
 10
153.6234323895182
 20
41.7183135927072
 30
0.0
 40
4.4
 41
290.783364796891
 71
     1
 72
     5
  1
\Ftxt.shx,bigfont.shx|c128;ＩＳＯ - ４Ｈ
  7
JL
 73
     1
 44
1.0
  0
MTEXT
  5
7D9F
330
18
100
AcDbEntity
  8
0
100
AcDbMText
 10
153.7978935876485
 20
48.65328293790913
 30
0.0
 40
4.4
 41
291.4548
 71
     1
 72
     5
  1
\Ftxt.shx,bigfont.shx|c128;黒  　    染
  7
JL
 73
     1
 44
1.0
  0
MTEXT
  5
7DA0
330
18
100
AcDbEntity
  8
0
100
AcDbMText
 10
57.63639061334425
 20
260.9000583279474
 30
0.0
 40
5.0
 41
0.0
 71
     1
 72
     5
  1
{\Ftxt,bigfont|c128;M4X0.7P-18L}
  7
JL
 73
     1
 44
1.0
1001
ACAD
1000
ACAD_MTEXT_DEFINED_HEIGHT_BEGIN
1070
    46
1040
0.0
1000
ACAD_MTEXT_DEFINED_HEIGHT_END
  0
LINE
  5
7DA2
330
18
100
AcDbEntity
  8
frame
100
AcDbLine
 10
0.0
 20
254.0
 30
0.0
 11
190.0
 21
254.0
 31
0.0
  0
LINE
  5
7DA3
330
18
100
AcDbEntity
  8
frame
100
AcDbLine
 10
0.0
 20
262.0
 30
0.0
 11
190.0
 21
262.0
 31
0.0
  0
LINE
  5
7DA4
330
18
100
AcDbEntity
  8
frame
 62
     9
100
AcDbLine
 10
0.0
 20
270.0
 30
0.0
 11
190.0
 21
270.0
 31
0.0
  0
MTEXT
  5
7DA5
330
18
100
AcDbEntity
  8
0
100
AcDbMText
 10
57.0156439060371
 20
277.4240560049041
 30
0.0
 40
5.0
 41
0.0
 71
     1
 72
     5
  1
\Ftxt.shx,bigfont.shx|c128;図    番 / 規　　格
  7
JL
 73
     1
 44
1.0
  0
LINE
  5
7DA6
330
18
100
AcDbEntity
  8
frame
100
AcDbLine
 10
0.0
 20
254.0
 30
0.0
 11
190.0
 21
254.0
 31
0.0
  0
MTEXT
  5
7DA8
330
18
100
AcDbEntity
  8
0
100
AcDbMText
 10
21.12488048923433
 20
277.4637981386743
 30
0.0
 40
5.0
 41
0.0
 71
     1
 72
     5
  1
\Ftxt.shx,bigfont.shx|c128;品　          名
  7
JL
 73
     1
 44
1.0
  0
MTEXT
  5
7DA9
330
18
100
AcDbEntity
  8
0
100
AcDbMText
 10
18.10281387110132
 20
260.7907237289111
 30
0.0
 40
5.0
 41
0.0
 71
     1
 72
     5
  1
\Ftxt.shx,bigfont.shx|c128;セットスクリュ-
  7
JL
 73
     1
 44
1.0
  0
MTEXT
  5
7DAA
330
18
100
AcDbEntity
  8
0
100
AcDbMText
 10
17.91509480863158
 20
268.8361230282964
 30
0.0
 40
5.0
 41
0.0
 71
     1
 72
     5
  1
\Ftxt.shx,bigfont.shx|c128;ロックナット　  
  7
JL
 73
     1
 44
1.0
  0
LINE
  5
7DAC
330
18
100
AcDbEntity
  8
frame
 62
     9
100
AcDbLine
 10
14.39393939393937
 20
279.9999999999999
 30
0.0
 11
14.39393939393964
 21
254.0
 31
0.0
  0
LINE
  5
7DAD
330
18
100
AcDbEntity
  8
frame
 62
     9
100
AcDbLine
 10
14.39393939393937
 20
279.9999999999999
 30
0.0
 11
14.39393939393937
 21
255.0505050505051
 31
0.0
  0
MTEXT
  5
7DAE
330
18
100
AcDbEntity
  8
0
100
AcDbMText
 10
6.815009268013795
 20
268.7281674434121
 30
0.0
 40
5.0
 41
0.0
 71
     1
 72
     5
  1
\Ftxt.shx,bigfont.shx|c128;1
  7
JL
 73
     1
 44
1.0
  0
MTEXT
  5
7DAF
330
18
100
AcDbEntity
  8
0
100
AcDbMText
 10
2.119828072980226
 20
277.4734782639491
 30
0.0
 40
5.0
 41
0.0
 71
     1
 72
     5
  1
\Ftxt.shx,bigfont.shx|c128;照   号
  7
JL
 73
     1
 44
1.0
  0
LINE
  5
7DB0
330
18
100
AcDbEntity
  8
frame
 62
     9
100
AcDbLine
 10
52.77777777777783
 20
279.9999999999999
 30
0.0
 11
52.77777777777784
 21
254.0
 31
0.0
  0
MTEXT
  5
7DB1
330
18
100
AcDbEntity
  8
0
100
AcDbMText
 10
145.5736374372851
 20
277.6781663894194
 30
0.0
 40
5.0
 41
0.0
 71
     1
 72
     5
  1
\Ftxt.shx,bigfont.shx|c128;備           考
  7
JL
 73
     1
 44
1.0
  0
LINE
  5
7DB2
330
18
100
AcDbEntity
  8
frame
 62
     9
100
AcDbLine
 10
91.16161616161617
 20
280.0
 30
0.0
 11
91.16161616161617
 21
254.0
 31
0.0
  0
MTEXT
  5
7DB4
330
18
100
AcDbEntity
  8
0
100
AcDbMText
 10
92.87341089179369
 20
268.8361230282964
 30
0.0
 40
5.0
 41
0.0
 71
     1
 72
     5
  1
\Ftxt.shx,bigfont.shx|c128;SCM-440
  7
JL
 73
     1
 44
1.0
  0
MTEXT
  5
7DB5
330
18
100
AcDbEntity
  8
0
100
AcDbMText
 10
92.87341089179369
 20
260.765002012584
 30
0.0
 40
5.0
 41
0.0
 71
     1
 72
     5
  1
\Ftxt.shx,bigfont.shx|c128;SCM435
  7
JL
 73
     1
 44
1.0
  0
MTEXT
  5
7DB6
330
18
100
AcDbEntity
  8
0
100
AcDbMText
 10
95.76798863104192
 20
277.5645499482919
 30
0.0
 40
5.0
 41
0.0
 71
     1
 72
     5
  1
\Ftxt.shx,bigfont.shx|c128;材　質
  7
JL
 73
     1
 44
1.0
  0
LINE
  5
7DB7
330
18
100
AcDbEntity
  8
frame
 62
     9
100
AcDbLine
 10
110.3535353535354
 20
280.0
 30
0.0
 11
110.3535353535354
 21
254.0
 31
0.0
  0
LINE
  5
7DB8
330
18
100
AcDbEntity
  8
frame
100
AcDbLine
 10
124.7474747474747
 20
280.0
 30
0.0
 11
124.7474747474748
 21
254.0
 31
0.0
  0
MTEXT
  5
7DBA
330
18
100
AcDbEntity
  8
0
100
AcDbMText
 10
117.1685446215491
 20
269.0412711679932
 30
0.0
 40
5.0
 41
0.0
 71
     1
 72
     5
  1
\Ftxt.shx,bigfont.shx|c128;1
  7
JL
 73
     1
 44
1.0
  0
MTEXT
  5
7DBB
330
18
100
AcDbEntity
  8
0
100
AcDbMText
 10
116.5939070266884
 20
260.5092290150679
 30
0.0
 40
5.0
 41
0.0
 71
     1
 72
     5
  1
{\Ftxt,bigfont|c128;6}
  7
JL
 73
     1
 44
1.0
1001
ACAD
1000
ACAD_MTEXT_DEFINED_HEIGHT_BEGIN
1070
    46
1040
0.0
1000
ACAD_MTEXT_DEFINED_HEIGHT_END
  0
MTEXT
  5
7DBC
330
18
100
AcDbEntity
  8
0
100
AcDbMText
 10
112.4223895919262
 20
277.5645499482919
 30
0.0
 40
5.0
 41
0.0
 71
     1
 72
     5
  1
\Ftxt.shx,bigfont.shx|c128;数   量
  7
JL
 73
     1
 44
1.0
  0
MTEXT
  5
7DBD
330
18
100
AcDbEntity
  8
0
100
AcDbMText
 10
6.404019699055993
 20
260.7281674434121
 30
0.0
 40
5.0
 41
0.0
 71
     1
 72
     5
  1
{\Ftxt,bigfont|c128;2}
  7
JL
 73
     1
 44
1.0
1001
ACAD
1000
ACAD_MTEXT_DEFINED_HEIGHT_BEGIN
1070
    46
1040
0.0
1000
ACAD_MTEXT_DEFINED_HEIGHT_END
  0
LINE
  5
9DEC
330
18
100
AcDbEntity
  8
contour
100
AcDbLine
 10
61.00000000000003
 20
121.2719133182735
 30
0.0
 11
129.0
 21
121.2719133182735
 31
0.0
  0
LINE
  5
9DED
330
18
100
AcDbEntity
  8
contour
100
AcDbLine
 10
130.0
 20
120.2719133182735
 30
0.0
 11
129.9999999999999
 21
104.3719133182735
 31
0.0
  0
LINE
  5
9DEE
330
18
100
AcDbEntity
  8
contour
100
AcDbLine
 10
129.0
 20
96.27191331827351
 30
0.0
 11
61.00000000000003
 21
96.27191331827351
 31
0.0
  0
LINE
  5
9DEF
330
18
100
AcDbEntity
  8
contour
100
AcDbLine
 10
60.00000000000003
 20
97.2719133182735
 30
0.0
 11
60.0
 21
100.3719133182735
 31
0.0
  0
LINE
  5
9DF0
330
18
100
AcDbEntity
  8
contour
100
AcDbLine
 10
129.0
 20
101.3719133182735
 30
0.0
 11
127.0000000000002
 21
101.3719133182735
 31
0.0
  0
LINE
  5
9DF1
330
18
100
AcDbEntity
  8
contour
100
AcDbLine
 10
128.9999999999999
 20
103.3719133182735
 30
0.0
 11
127.0000000000001
 21
103.3719133182735
 31
0.0
  0
LINE
  5
9DF3
330
18
100
AcDbEntity
  8
contour
100
AcDbLine
 10
68.0
 20
101.3719133182735
 30
0.0
 11
68.0
 21
103.3719133182735
 31
0.0
  0
LINE
  5
9DF4
330
18
100
AcDbEntity
  8
contour
100
AcDbLine
 10
122.0
 20
101.3719133182735
 30
0.0
 11
122.0
 21
103.3719133182735
 31
0.0
  0
LINE
  5
9DF5
330
18
100
AcDbEntity
  8
contour
100
AcDbLine
 10
60.00000000000003
 20
104.3719133182735
 30
0.0
 11
60.00000000000003
 21
120.2719133182735
 31
0.0
  0
LINE
  5
9DF6
330
18
100
AcDbEntity
  8
contour
100
AcDbLine
 10
68.0
 20
103.3719133182735
 30
0.0
 11
61.00000000000003
 21
103.3719133182735
 31
0.0
  0
LINE
  5
9DF7
330
18
100
AcDbEntity
  8
contour
100
AcDbLine
 10
68.0
 20
101.3719133182735
 30
0.0
 11
61.0
 21
101.3719133182735
 31
0.0
  0
LINE
  5
9DF8
330
18
100
AcDbEntity
  8
contour
100
AcDbLine
 10
130.0
 20
100.3719133182735
 30
0.0
 11
130.0
 21
97.2719133182735
 31
0.0
  0
LINE
  5
9DF9
330
18
100
AcDbEntity
  8
contour
100
AcDbLine
 10
123.0000000000001
 20
104.1719133182735
 30
0.0
 11
61.99999999999997
 21
104.1719133182735
 31
0.0
  0
LINE
  5
9DFA
330
18
100
AcDbEntity
  8
contour
100
AcDbLine
 10
123.0000000000001
 20
106.1719133182735
 30
0.0
 11
61.99999999999997
 21
106.1719133182735
 31
0.0
  0
LINE
  5
9DFC
330
18
100
AcDbEntity
  8
contour
100
AcDbLine
 10
62.0
 20
106.1719133182735
 30
0.0
 11
62.0
 21
104.1719133182735
 31
0.0
  0
LINE
  5
9DFD
330
18
100
AcDbEntity
  8
contour
100
AcDbLine
 10
128.0
 20
106.1719133182735
 30
0.0
 11
128.0
 21
104.1719133182735
 31
0.0
  0
LINE
  5
9E13
330
18
100
AcDbEntity
  8
contour
100
AcDbLine
 10
64.25
 20
100.2719133182735
 30
0.0
 11
66.40000000000004
 21
99.03061023951577
 31
0.0
  0
LINE
  5
9E14
330
18
100
AcDbEntity
  8
center
 48
0.2
100
AcDbLine
 10
58.00000000000003
 20
112.2719133182735
 30
0.0
 11
69.00000000000005
 21
112.2719133182735
 31
0.0
  0
LINE
  5
9E15
330
18
100
AcDbEntity
  8
contour
100
AcDbLine
 10
60.5
 20
109.2719133182735
 30
0.0
 11
65.26794919243113
 21
109.2719133182735
 31
0.0
  0
LINE
  5
9E16
330
18
100
AcDbEntity
  8
contour
100
AcDbLine
 10
60.00000000000003
 20
108.7719133182736
 30
0.0
 11
60.5
 21
109.2719133182735
 31
0.0
  0
LINE
  5
9E17
330
18
100
AcDbEntity
  8
contour
100
AcDbLine
 10
60.49999999999994
 20
115.2719133182735
 30
0.0
 11
65.2679491924311
 21
115.2719133182735
 31
0.0
  0
LINE
  5
9E18
330
18
100
AcDbEntity
  8
contour
100
AcDbLine
 10
67.00000000000006
 20
112.2719133182735
 30
0.0
 11
65.26794919243113
 21
115.2719133182735
 31
0.0
  0
LINE
  5
9E19
330
18
100
AcDbEntity
  8
contour
100
AcDbLine
 10
67.00000000000006
 20
112.2719133182735
 30
0.0
 11
65.26794919243116
 21
109.2719133182735
 31
0.0
  0
LINE
  5
9E1A
330
18
100
AcDbEntity
  8
contour
100
AcDbLine
 10
60.00000000000003
 20
115.7719133182734
 30
0.0
 11
60.5
 21
115.2719133182735
 31
0.0
  0
LINE
  5
9E1B
330
18
100
AcDbEntity
  8
contour
100
AcDbLine
 10
60.5
 20
115.2719133182735
 30
0.0
 11
60.5
 21
109.2719133182735
 31
0.0
  0
LINE
  5
9E1D
330
18
100
AcDbEntity
  8
contour
100
AcDbLine
 10
65.2679491924311
 20
115.2719133182735
 30
0.0
 11
65.26794919243108
 21
109.2719133182735
 31
0.0
  0
LINE
  5
9E1E
330
18
100
AcDbEntity
  8
contour
100
AcDbLine
 10
62.10000000000002
 20
99.03061023951577
 30
0.0
 11
62.09999999999997
 21
96.77191331827351
 31
0.0
  0
LINE
  5
9E1F
330
18
100
AcDbEntity
  8
contour
100
AcDbLine
 10
61.59999999999996
 20
96.27191331827351
 30
0.0
 11
62.09999999999997
 21
96.77191331827351
 31
0.0
  0
LINE
  5
9E20
330
18
100
AcDbEntity
  8
contour
100
AcDbLine
 10
66.40000000000009
 20
99.03061023951577
 30
0.0
 11
66.40000000000006
 21
96.77191331827351
 31
0.0
  0
LINE
  5
9E21
330
18
100
AcDbEntity
  8
contour
100
AcDbLine
 10
66.90000000000006
 20
96.27191331827351
 30
0.0
 11
66.40000000000006
 21
96.77191331827351
 31
0.0
  0
LINE
  5
9E22
330
18
100
AcDbEntity
  8
contour
100
AcDbLine
 10
64.25
 20
100.2719133182735
 30
0.0
 11
62.09999999999999
 21
99.03061023951577
 31
0.0
  0
LINE
  5
9E23
330
18
100
AcDbEntity
  8
contour
100
AcDbLine
 10
66.40000000000004
 20
99.03061023951577
 30
0.0
 11
62.09999999999999
 21
99.03061023951577
 31
0.0
  0
LINE
  5
9E24
330
18
100
AcDbEntity
  8
contour
100
AcDbLine
 10
66.40000000000006
 20
96.77191331827351
 30
0.0
 11
62.09999999999993
 21
96.77191331827362
 31
0.0
  0
LINE
  5
9E25
330
18
100
AcDbEntity
  8
center
 48
0.2
100
AcDbLine
 10
125.0000000000002
 20
123.2719133182735
 30
0.0
 11
125.0000000000002
 21
94.27191331827351
 31
0.0
  0
LINE
  5
9E26
330
18
100
AcDbEntity
  8
contour
100
AcDbLine
 10
121.5
 20
96.57191331827357
 30
0.0
 11
121.5
 21
96.27191331827351
 31
0.0
  0
LINE
  5
9E29
330
18
100
AcDbEntity
  8
contour
100
AcDbLine
 10
128.5000000000002
 20
96.57191331827363
 30
0.0
 11
128.5000000000002
 21
96.27191331827351
 31
0.0
  0
LINE
  5
9E2E
330
18
100
AcDbEntity
  8
contour
100
AcDbLine
 10
70.81200000000001
 20
102.6719133182734
 30
0.0
 11
70.81199999999999
 21
97.77191331827349
 31
0.0
  0
LINE
  5
9E2F
330
18
100
AcDbEntity
  8
contour
 62
     4
100
AcDbLine
 10
69.99999999999997
 20
103.4839133182735
 30
0.0
 11
70.0
 21
96.95991331827348
 31
0.0
  0
LINE
  5
9E30
330
18
100
AcDbEntity
  8
contour
100
AcDbLine
 10
69.31200000000001
 20
96.27191331827351
 30
0.0
 11
70.81200000000001
 21
97.77191331827351
 31
0.0
  0
LINE
  5
9E31
330
18
100
AcDbEntity
  8
contour
100
AcDbLine
 10
70.81199999999999
 20
102.6719133182735
 30
0.0
 11
69.31199999999998
 21
104.1719133182735
 31
0.0
  0
LINE
  5
9E32
330
18
100
AcDbEntity
  8
contour
100
AcDbLine
 10
69.31199999999998
 20
106.1719133182735
 30
0.0
 11
70.81199999999999
 21
107.6719133182735
 31
0.0
  0
LINE
  5
9E33
330
18
100
AcDbEntity
  8
contour
100
AcDbLine
 10
70.81200000000001
 20
119.7719133182735
 30
0.0
 11
69.31200000000001
 21
121.2719133182735
 31
0.0
  0
LINE
  5
9E34
330
18
100
AcDbEntity
  8
contour
100
AcDbLine
 10
70.81199999999999
 20
107.6719133182735
 30
0.0
 11
70.81200000000009
 21
119.7719133182735
 31
0.0
  0
LINE
  5
9E35
330
18
100
AcDbEntity
  8
contour
 62
     4
100
AcDbLine
 10
69.99999999999997
 20
106.8599133182735
 30
0.0
 11
69.99999999999994
 21
120.5839133182736
 31
0.0
  0
LINE
  5
9E36
330
18
100
AcDbEntity
  8
contour
100
AcDbLine
 10
119.188
 20
119.7719133182735
 30
0.0
 11
120.688
 21
121.2719133182735
 31
0.0
  0
LINE
  5
9E37
330
18
100
AcDbEntity
  8
contour
100
AcDbLine
 10
119.188
 20
102.6719133182735
 30
0.0
 11
120.688
 21
104.1719133182735
 31
0.0
  0
LINE
  5
9E38
330
18
100
AcDbEntity
  8
contour
100
AcDbLine
 10
119.188
 20
102.6719133182734
 30
0.0
 11
119.188
 21
97.77191331827349
 31
0.0
  0
LINE
  5
9E39
330
18
100
AcDbEntity
  8
contour
100
AcDbLine
 10
120.688
 20
106.1719133182735
 30
0.0
 11
119.188
 21
107.6719133182735
 31
0.0
  0
LINE
  5
9E3A
330
18
100
AcDbEntity
  8
contour
100
AcDbLine
 10
120.688
 20
96.27191331827351
 30
0.0
 11
119.188
 21
97.77191331827351
 31
0.0
  0
LINE
  5
9E3B
330
18
100
AcDbEntity
  8
contour
 62
     4
100
AcDbLine
 10
120.0
 20
103.4839133182735
 30
0.0
 11
120.0
 21
96.95991331827348
 31
0.0
  0
LINE
  5
9E3C
330
18
100
AcDbEntity
  8
contour
100
AcDbLine
 10
119.188
 20
107.6719133182735
 30
0.0
 11
119.188
 21
119.7719133182735
 31
0.0
  0
LINE
  5
9E3D
330
18
100
AcDbEntity
  8
contour
 62
     4
100
AcDbLine
 10
120.0
 20
106.8599133182735
 30
0.0
 11
120.0
 21
120.5839133182736
 31
0.0
  0
LINE
  5
9E3E
330
18
100
AcDbEntity
  8
contour
100
AcDbLine
 10
70.81200000000009
 20
119.7719133182735
 30
0.0
 11
119.188
 21
119.7719133182735
 31
0.0
  0
LINE
  5
9E3F
330
18
100
AcDbEntity
  8
contour
100
AcDbLine
 10
119.188
 20
107.6719133182735
 30
0.0
 11
70.81200000000001
 21
107.6719133182736
 31
0.0
  0
LINE
  5
9E40
330
18
100
AcDbEntity
  8
contour
100
AcDbLine
 10
70.81200000000004
 20
102.6719133182734
 30
0.0
 11
119.188
 21
102.6719133182734
 31
0.0
  0
LINE
  5
9E41
330
18
100
AcDbEntity
  8
contour
100
AcDbLine
 10
119.188
 20
97.77191331827351
 30
0.0
 11
70.81199999999999
 21
97.77191331827348
 31
0.0
  0
ARC
  5
9E43
330
18
100
AcDbEntity
  8
contour
100
AcDbCircle
 10
61.00000000000003
 20
120.2719133182735
 30
0.0
 40
1.0
100
AcDbArc
 50
90.0
 51
180.0
  0
ARC
  5
9E44
330
18
100
AcDbEntity
  8
contour
100
AcDbCircle
 10
61.00000000000003
 20
104.3719133182735
 30
0.0
 40
1.0
100
AcDbArc
 50
180.0
 51
270.0
  0
ARC
  5
9E45
330
18
100
AcDbEntity
  8
contour
100
AcDbCircle
 10
61.0
 20
100.3719133182735
 30
0.0
 40
1.0
100
AcDbArc
 50
90.0
 51
180.0
  0
ARC
  5
9E46
330
18
100
AcDbEntity
  8
contour
100
AcDbCircle
 10
61.00000000000003
 20
97.2719133182735
 30
0.0
 40
1.0
100
AcDbArc
 50
180.0
 51
270.0
  0
ARC
  5
9E47
330
18
100
AcDbEntity
  8
contour
100
AcDbCircle
 10
129.0
 20
97.2719133182735
 30
0.0
 40
1.0
100
AcDbArc
 50
270.0
 51
0.0
  0
ARC
  5
9E48
330
18
100
AcDbEntity
  8
contour
100
AcDbCircle
 10
129.0
 20
100.3719133182735
 30
0.0
 40
1.0
100
AcDbArc
 50
0.0
 51
90.0
  0
ARC
  5
9E49
330
18
100
AcDbEntity
  8
contour
100
AcDbCircle
 10
128.9999999999999
 20
104.3719133182735
 30
0.0
 40
1.0
100
AcDbArc
 50
270.0
 51
0.0
  0
ARC
  5
9E4A
330
18
100
AcDbEntity
  8
contour
100
AcDbCircle
 10
129.0
 20
120.2719133182735
 30
0.0
 40
1.0
100
AcDbArc
 50
0.0
 51
90.0
  0
LINE
  5
9E4B
330
18
100
AcDbEntity
  8
contour
100
AcDbLine
 10
128.0
 20
106.1719133182735
 30
0.0
 11
127.0000000000002
 21
106.1719133182735
 31
0.0
  0
LINE
  5
9E4C
330
18
100
AcDbEntity
  8
contour
100
AcDbLine
 10
128.0
 20
104.1719133182735
 30
0.0
 11
127.0000000000002
 21
104.1719133182735
 31
0.0
  0
LINE
  5
9E4D
330
18
100
AcDbEntity
  8
contour
100
AcDbLine
 10
122.0
 20
103.3719133182735
 30
0.0
 11
123.0000000000002
 21
103.3719133182735
 31
0.0
  0
LINE
  5
9E4E
330
18
100
AcDbEntity
  8
contour
100
AcDbLine
 10
122.0
 20
101.3719133182735
 30
0.0
 11
123.0000000000002
 21
101.3719133182735
 31
0.0
  0
LINE
  5
9E4F
330
18
100
AcDbEntity
  8
center
 48
0.2
100
AcDbLine
 10
95.0
 20
123.2719133182735
 30
0.0
 11
95.0
 21
94.2719133182735
 31
0.0
  0
LINE
  5
9E50
330
18
100
AcDbEntity
  8
center
 48
0.1
100
AcDbLine
 10
64.25
 20
102.2719133182735
 30
0.0
 11
64.25
 21
94.2719133182735
 31
0.0
  0
INSERT
  5
A4CF
330
18
100
AcDbEntity
  8
contour
100
AcDbBlockReference
  2
ls1
 10
-190.7788343297736
 20
92.09425044650179
 30
0.0
  0
LINE
  5
A4D0
330
18
100
AcDbEntity
  8
contour
100
AcDbLine
 10
123.4000000000002
 20
117.8719133182734
 30
0.0
 11
123.4000000000002
 21
121.2719133182735
 31
0.0
  0
LINE
  5
A4D1
330
18
100
AcDbEntity
  8
contour
 62
     4
100
AcDbLine
 10
123.0000000000001
 20
117.4719133182734
 30
0.0
 11
123.0000000000001
 21
121.2719133182735
 31
0.0
  0
LINE
  5
A4D2
330
18
100
AcDbEntity
  8
contour
100
AcDbLine
 10
126.6210000000001
 20
117.8509133182735
 30
0.0
 11
126.6210000000001
 21
121.2719133182735
 31
0.0
  0
LINE
  5
A4D3
330
18
100
AcDbEntity
  8
contour
 62
     4
100
AcDbLine
 10
127.0000000000002
 20
117.4719133182734
 30
0.0
 11
127.0000000000002
 21
121.2719133182735
 31
0.0
  0
LINE
  5
A578
330
18
100
AcDbEntity
  8
center
 48
0.3
100
AcDbLine
 10
95.0
 20
159.9231365578324
 30
0.0
 11
95.0
 21
233.9231365578323
 31
0.0
  0
LINE
  5
A579
330
18
100
AcDbEntity
  8
center
 48
0.3
100
AcDbLine
 10
132.0
 20
196.9231365578323
 30
0.0
 11
58.00000000000003
 21
196.9231365578323
 31
0.0
  0
CIRCLE
  5
A580
330
18
100
AcDbEntity
  8
contour
100
AcDbCircle
 10
95.0
 20
196.9231365578323
 30
0.0
 40
24.18799999999988
  0
ARC
  5
A581
330
18
100
AcDbEntity
  8
contour
 62
     4
100
AcDbCircle
 10
95.0
 20
196.9231365578323
 30
0.0
 40
25.00000000000006
100
AcDbArc
 50
168.4630409671842
 51
101.5369590328148
  0
CIRCLE
  5
A582
330
18
100
AcDbEntity
  8
contour
100
AcDbCircle
 10
95.0
 20
196.9231365578323
 30
0.0
 40
25.68799999999999
  0
CIRCLE
  5
A583
330
18
100
AcDbEntity
  8
contour
100
AcDbCircle
 10
95.0
 20
196.9231365578323
 30
0.0
 40
34.99999999999997
  0
CIRCLE
  5
A58C
330
18
100
AcDbEntity
  8
contour
100
AcDbCircle
 10
125.0000000000001
 20
196.9231365578323
 30
0.0
 40
1.600000000000022
  0
ARC
  5
A58D
330
18
100
AcDbEntity
  8
contour
 62
     4
100
AcDbCircle
 10
125.0000000000001
 20
196.9231365578323
 30
0.0
 40
2.0
100
AcDbArc
 50
168.4630409671834
 51
101.5369590328148
  0
CIRCLE
  5
A58E
330
18
100
AcDbEntity
  8
bowle
 48
0.2
100
AcDbCircle
 10
125.0000000000001
 20
196.9231365578323
 30
0.0
 40
3.5
  0
CIRCLE
  5
A592
330
18
100
AcDbEntity
  8
bowle
 48
0.2
100
AcDbCircle
 10
68.36971883362853
 20
181.5481365578323
 30
0.0
 40
2.150000000000062
  0
CIRCLE
  5
A593
330
18
100
AcDbEntity
  8
bowle
 48
0.2
100
AcDbCircle
 10
68.36971883362853
 20
181.5481365578323
 30
0.0
 40
2.650000000000062
  0
LINE
  5
A594
330
18
100
AcDbEntity
  8
center
 48
0.2
100
AcDbLine
 10
62.95706005997579
 20
178.4231365578324
 30
0.0
 11
75.78462834083101
 21
185.8291365578324
 31
0.0
  0
LINE
  5
A595
330
18
100
AcDbEntity
  8
bowle
 48
0.2
100
AcDbLine
 10
66.62212356943687
 20
177.075060346479
 30
0.0
 11
70.75128869403576
 21
179.4590349426946
 31
0.0
  0
LINE
  5
A596
330
18
100
AcDbEntity
  8
bowle
 48
0.2
100
AcDbLine
 10
66.49758481647151
 20
176.6102753929013
 30
0.0
 11
66.62212356943687
 21
177.075060346479
 31
0.0
  0
LINE
  5
A597
330
18
100
AcDbEntity
  8
bowle
 48
0.2
100
AcDbLine
 10
63.62212356943683
 20
182.2712127691857
 30
0.0
 11
67.7512886940357
 21
184.6551873654012
 31
0.0
  0
LINE
  5
A598
330
18
100
AcDbEntity
  8
bowle
 48
0.2
100
AcDbLine
 10
70.75128869403579
 20
182.9231365578324
 30
0.0
 11
67.75128869403573
 21
184.6551873654012
 31
0.0
  0
LINE
  5
A599
330
18
100
AcDbEntity
  8
bowle
 48
0.2
100
AcDbLine
 10
70.75128869403579
 20
182.9231365578324
 30
0.0
 11
70.75128869403576
 21
179.4590349426946
 31
0.0
  0
LINE
  5
A59A
330
18
100
AcDbEntity
  8
bowle
 48
0.2
100
AcDbLine
 10
63.15733861585909
 20
182.395751522151
 30
0.0
 11
63.62212356943686
 21
182.2712127691857
 31
0.0
  0
LINE
  5
A59B
330
18
100
AcDbEntity
  8
bowle
 48
0.2
100
AcDbLine
 10
63.62212356943686
 20
182.2712127691857
 30
0.0
 11
66.62212356943687
 21
177.075060346479
 31
0.0
  0
LINE
  5
A59C
330
18
100
AcDbEntity
  8
bowle
 48
0.2
100
AcDbLine
 10
67.7512886940357
 20
184.6551873654012
 30
0.0
 11
70.7512886940357
 21
179.4590349426946
 31
0.0
  0
CIRCLE
  5
A59E
330
18
100
AcDbEntity
  8
bowle
 48
0.2
100
AcDbCircle
 10
95.0
 20
166.1731365578324
 30
0.0
 40
2.150000000000062
  0
CIRCLE
  5
A59F
330
18
100
AcDbEntity
  8
bowle
 48
0.2
100
AcDbCircle
 10
95.0
 20
166.1731365578324
 30
0.0
 40
2.650000000000062
  0
LINE
  5
A5A1
330
18
100
AcDbEntity
  8
bowle
 48
0.2
100
AcDbLine
 10
98.0
 20
162.4231365578324
 30
0.0
 11
98.00000000000006
 21
167.1910857502635
 31
0.0
  0
LINE
  5
A5A2
330
18
100
AcDbEntity
  8
bowle
 48
0.2
100
AcDbLine
 10
98.34024620061246
 20
162.0828903572199
 30
0.0
 11
98.0
 21
162.4231365578324
 31
0.0
  0
LINE
  5
A5A3
330
18
100
AcDbEntity
  8
bowle
 48
0.2
100
AcDbLine
 10
92.0
 20
162.4231365578323
 30
0.0
 11
92.0
 21
167.1910857502635
 31
0.0
  0
LINE
  5
A5A4
330
18
100
AcDbEntity
  8
bowle
 48
0.2
100
AcDbLine
 10
95.0
 20
168.9231365578324
 30
0.0
 11
92.0
 21
167.1910857502635
 31
0.0
  0
LINE
  5
A5A5
330
18
100
AcDbEntity
  8
bowle
 48
0.2
100
AcDbLine
 10
95.0
 20
168.9231365578324
 30
0.0
 11
98.0
 21
167.1910857502636
 31
0.0
  0
LINE
  5
A5A6
330
18
100
AcDbEntity
  8
bowle
 48
0.2
100
AcDbLine
 10
91.65975379938755
 20
162.0828903572199
 30
0.0
 11
92.0
 21
162.4231365578324
 31
0.0
  0
LINE
  5
A5A7
330
18
100
AcDbEntity
  8
bowle
 48
0.2
100
AcDbLine
 10
92.0
 20
162.4231365578324
 30
0.0
 11
98.0
 21
162.4231365578324
 31
0.0
  0
LINE
  5
A5A8
330
18
100
AcDbEntity
  8
bowle
 48
0.2
100
AcDbLine
 10
92.0
 20
167.1910857502635
 30
0.0
 11
98.0
 21
167.1910857502635
 31
0.0
  0
CIRCLE
  5
A5A9
330
18
100
AcDbEntity
  8
bowle
 48
0.2
100
AcDbCircle
 10
121.6302811663715
 20
181.5481365578324
 30
0.0
 40
2.150000000000062
  0
CIRCLE
  5
A5AA
330
18
100
AcDbEntity
  8
bowle
 48
0.2
100
AcDbCircle
 10
121.6302811663715
 20
181.5481365578324
 30
0.0
 40
2.650000000000062
  0
LINE
  5
A5AB
330
18
100
AcDbEntity
  8
center
 48
0.2
100
AcDbLine
 10
127.0429399400242
 20
178.4231365578324
 30
0.0
 11
114.215371659169
 21
185.8291365578325
 31
0.0
  0
LINE
  5
A5AC
330
18
100
AcDbEntity
  8
bowle
 48
0.2
100
AcDbLine
 10
126.3778764305631
 20
182.2712127691857
 30
0.0
 11
122.2487113059643
 21
184.6551873654013
 31
0.0
  0
LINE
  5
A5AD
330
18
100
AcDbEntity
  8
bowle
 48
0.2
100
AcDbLine
 10
126.8426613841409
 20
182.3957515221509
 30
0.0
 11
126.3778764305631
 21
182.2712127691857
 31
0.0
  0
LINE
  5
A5AE
330
18
100
AcDbEntity
  8
bowle
 48
0.2
100
AcDbLine
 10
123.3778764305631
 20
177.075060346479
 30
0.0
 11
119.2487113059643
 21
179.4590349426946
 31
0.0
  0
LINE
  5
A5AF
330
18
100
AcDbEntity
  8
bowle
 48
0.2
100
AcDbLine
 10
119.2487113059642
 20
182.9231365578324
 30
0.0
 11
119.2487113059642
 21
179.4590349426946
 31
0.0
  0
LINE
  5
A5B0
330
18
100
AcDbEntity
  8
bowle
 48
0.2
100
AcDbLine
 10
119.2487113059642
 20
182.9231365578324
 30
0.0
 11
122.2487113059642
 21
184.6551873654012
 31
0.0
  0
LINE
  5
A5B1
330
18
100
AcDbEntity
  8
bowle
 48
0.2
100
AcDbLine
 10
123.5024151835284
 20
176.6102753929012
 30
0.0
 11
123.3778764305631
 21
177.075060346479
 31
0.0
  0
LINE
  5
A5B2
330
18
100
AcDbEntity
  8
bowle
 48
0.2
100
AcDbLine
 10
123.3778764305631
 20
177.075060346479
 30
0.0
 11
126.3778764305631
 21
182.2712127691857
 31
0.0
  0
LINE
  5
A5B3
330
18
100
AcDbEntity
  8
bowle
 48
0.2
100
AcDbLine
 10
119.2487113059643
 20
179.4590349426946
 30
0.0
 11
122.2487113059643
 21
184.6551873654012
 31
0.0
  0
CIRCLE
  5
A5B4
330
18
100
AcDbEntity
  8
bowle
 48
0.2
100
AcDbCircle
 10
121.6302811663714
 20
212.2981365578324
 30
0.0
 40
2.150000000000062
  0
CIRCLE
  5
A5B5
330
18
100
AcDbEntity
  8
bowle
 48
0.2
100
AcDbCircle
 10
121.6302811663714
 20
212.2981365578324
 30
0.0
 40
2.650000000000062
  0
LINE
  5
A5B6
330
18
100
AcDbEntity
  8
center
 48
0.2
100
AcDbLine
 10
127.0429399400242
 20
215.4231365578323
 30
0.0
 11
114.215371659169
 21
208.0171365578324
 31
0.0
  0
LINE
  5
A5B7
330
18
100
AcDbEntity
  8
bowle
 48
0.2
100
AcDbLine
 10
123.3778764305631
 20
216.7712127691857
 30
0.0
 11
119.2487113059642
 21
214.3872381729702
 31
0.0
  0
LINE
  5
A5B8
330
18
100
AcDbEntity
  8
bowle
 48
0.2
100
AcDbLine
 10
123.5024151835284
 20
217.2359977227634
 30
0.0
 11
123.3778764305631
 21
216.7712127691857
 31
0.0
  0
LINE
  5
A5B9
330
18
100
AcDbEntity
  8
bowle
 48
0.2
100
AcDbLine
 10
126.3778764305631
 20
211.5750603464791
 30
0.0
 11
122.2487113059643
 21
209.1910857502635
 31
0.0
  0
LINE
  5
A5BA
330
18
100
AcDbEntity
  8
bowle
 48
0.2
100
AcDbLine
 10
119.2487113059642
 20
210.9231365578324
 30
0.0
 11
122.2487113059642
 21
209.1910857502635
 31
0.0
  0
LINE
  5
A5BB
330
18
100
AcDbEntity
  8
bowle
 48
0.2
100
AcDbLine
 10
119.2487113059642
 20
210.9231365578324
 30
0.0
 11
119.2487113059642
 21
214.3872381729701
 31
0.0
  0
LINE
  5
A5BC
330
18
100
AcDbEntity
  8
bowle
 48
0.2
100
AcDbLine
 10
126.8426613841409
 20
211.4505215935138
 30
0.0
 11
126.3778764305631
 21
211.5750603464791
 31
0.0
  0
LINE
  5
A5BD
330
18
100
AcDbEntity
  8
bowle
 48
0.2
100
AcDbLine
 10
126.3778764305631
 20
211.5750603464791
 30
0.0
 11
123.3778764305631
 21
216.7712127691857
 31
0.0
  0
LINE
  5
A5BE
330
18
100
AcDbEntity
  8
bowle
 48
0.2
100
AcDbLine
 10
122.2487113059643
 20
209.1910857502635
 30
0.0
 11
119.2487113059643
 21
214.3872381729702
 31
0.0
  0
CIRCLE
  5
A5BF
330
18
100
AcDbEntity
  8
bowle
 48
0.2
100
AcDbCircle
 10
94.99999999999994
 20
227.6731365578324
 30
0.0
 40
2.150000000000062
  0
CIRCLE
  5
A5C0
330
18
100
AcDbEntity
  8
bowle
 48
0.2
100
AcDbCircle
 10
94.99999999999994
 20
227.6731365578324
 30
0.0
 40
2.650000000000062
  0
LINE
  5
A5C2
330
18
100
AcDbEntity
  8
bowle
 48
0.2
100
AcDbLine
 10
92.0
 20
231.4231365578324
 30
0.0
 11
91.99999999999993
 21
226.6551873654012
 31
0.0
  0
LINE
  5
A5C3
330
18
100
AcDbEntity
  8
bowle
 48
0.2
100
AcDbLine
 10
91.65975379938755
 20
231.7633827584449
 30
0.0
 11
92.0
 21
231.4231365578324
 31
0.0
  0
LINE
  5
A5C4
330
18
100
AcDbEntity
  8
bowle
 48
0.2
100
AcDbLine
 10
98.0
 20
231.4231365578324
 30
0.0
 11
98.0
 21
226.6551873654013
 31
0.0
  0
LINE
  5
A5C5
330
18
100
AcDbEntity
  8
bowle
 48
0.2
100
AcDbLine
 10
94.99999999999994
 20
224.9231365578323
 30
0.0
 11
98.0
 21
226.6551873654012
 31
0.0
  0
LINE
  5
A5C6
330
18
100
AcDbEntity
  8
bowle
 48
0.2
100
AcDbLine
 10
94.99999999999994
 20
224.9231365578323
 30
0.0
 11
92.0
 21
226.6551873654012
 31
0.0
  0
LINE
  5
A5C7
330
18
100
AcDbEntity
  8
bowle
 48
0.2
100
AcDbLine
 10
98.34024620061246
 20
231.7633827584449
 30
0.0
 11
98.0
 21
231.4231365578324
 31
0.0
  0
LINE
  5
A5C8
330
18
100
AcDbEntity
  8
bowle
 48
0.2
100
AcDbLine
 10
98.0
 20
231.4231365578324
 30
0.0
 11
92.0
 21
231.4231365578324
 31
0.0
  0
LINE
  5
A5C9
330
18
100
AcDbEntity
  8
bowle
 48
0.2
100
AcDbLine
 10
98.0
 20
226.6551873654013
 30
0.0
 11
92.0
 21
226.6551873654013
 31
0.0
  0
CIRCLE
  5
A5CA
330
18
100
AcDbEntity
  8
bowle
 48
0.2
100
AcDbCircle
 10
68.36971883362849
 20
212.2981365578324
 30
0.0
 40
2.150000000000062
  0
CIRCLE
  5
A5CB
330
18
100
AcDbEntity
  8
bowle
 48
0.2
100
AcDbCircle
 10
68.36971883362849
 20
212.2981365578324
 30
0.0
 40
2.650000000000062
  0
LINE
  5
A5CC
330
18
100
AcDbEntity
  8
center
 48
0.2
100
AcDbLine
 10
62.95706005997579
 20
215.4231365578324
 30
0.0
 11
75.78462834083092
 21
208.0171365578323
 31
0.0
  0
LINE
  5
A5CD
330
18
100
AcDbEntity
  8
bowle
 48
0.2
100
AcDbLine
 10
63.62212356943683
 20
211.5750603464792
 30
0.0
 11
67.75128869403568
 21
209.1910857502635
 31
0.0
  0
LINE
  5
A5CE
330
18
100
AcDbEntity
  8
bowle
 48
0.2
100
AcDbLine
 10
63.15733861585909
 20
211.4505215935139
 30
0.0
 11
63.62212356943683
 21
211.5750603464792
 31
0.0
  0
LINE
  5
A5CF
330
18
100
AcDbEntity
  8
bowle
 48
0.2
100
AcDbLine
 10
66.62212356943683
 20
216.7712127691858
 30
0.0
 11
70.75128869403568
 21
214.3872381729702
 31
0.0
  0
LINE
  5
A5D0
330
18
100
AcDbEntity
  8
bowle
 48
0.2
100
AcDbLine
 10
70.75128869403574
 20
210.9231365578324
 30
0.0
 11
70.75128869403574
 21
214.3872381729702
 31
0.0
  0
LINE
  5
A5D1
330
18
100
AcDbEntity
  8
bowle
 48
0.2
100
AcDbLine
 10
70.75128869403574
 20
210.9231365578324
 30
0.0
 11
67.75128869403573
 21
209.1910857502635
 31
0.0
  0
LINE
  5
A5D2
330
18
100
AcDbEntity
  8
bowle
 48
0.2
100
AcDbLine
 10
66.49758481647154
 20
217.2359977227635
 30
0.0
 11
66.62212356943683
 21
216.7712127691858
 31
0.0
  0
LINE
  5
A5D3
330
18
100
AcDbEntity
  8
bowle
 48
0.2
100
AcDbLine
 10
66.62212356943683
 20
216.7712127691858
 30
0.0
 11
63.62212356943683
 21
211.5750603464792
 31
0.0
  0
LINE
  5
A5D4
330
18
100
AcDbEntity
  8
bowle
 48
0.2
100
AcDbLine
 10
70.75128869403568
 20
214.3872381729702
 30
0.0
 11
67.75128869403565
 21
209.1910857502635
 31
0.0
  0
CIRCLE
  5
A5D5
330
18
100
AcDbEntity
  8
contour
100
AcDbCircle
 10
110.0000000000001
 20
222.9038986713657
 30
0.0
 40
1.600000000000022
  0
CIRCLE
  5
A5D6
330
18
100
AcDbEntity
  8
bowle
 48
0.2
100
AcDbCircle
 10
110.0000000000001
 20
222.9038986713657
 30
0.0
 40
3.5
  0
CIRCLE
  5
A5D7
330
18
100
AcDbEntity
  8
contour
100
AcDbCircle
 10
79.99999999999992
 20
222.9038986713657
 30
0.0
 40
1.600000000000022
  0
CIRCLE
  5
A5D8
330
18
100
AcDbEntity
  8
bowle
 48
0.2
100
AcDbCircle
 10
79.99999999999992
 20
222.9038986713657
 30
0.0
 40
3.499999999999999
  0
CIRCLE
  5
A5D9
330
18
100
AcDbEntity
  8
contour
100
AcDbCircle
 10
64.99999999999983
 20
196.9231365578324
 30
0.0
 40
1.600000000000022
  0
CIRCLE
  5
A5DA
330
18
100
AcDbEntity
  8
bowle
 48
0.2
100
AcDbCircle
 10
64.99999999999983
 20
196.9231365578324
 30
0.0
 40
3.5
  0
CIRCLE
  5
A5DB
330
18
100
AcDbEntity
  8
contour
100
AcDbCircle
 10
79.99999999999985
 20
170.9423744442991
 30
0.0
 40
1.600000000000022
  0
CIRCLE
  5
A5DC
330
18
100
AcDbEntity
  8
bowle
 48
0.2
100
AcDbCircle
 10
79.99999999999985
 20
170.9423744442991
 30
0.0
 40
3.5
  0
CIRCLE
  5
A5DD
330
18
100
AcDbEntity
  8
contour
100
AcDbCircle
 10
110.0
 20
170.9423744442991
 30
0.0
 40
1.600000000000022
  0
CIRCLE
  5
A5DE
330
18
100
AcDbEntity
  8
bowle
 48
0.2
100
AcDbCircle
 10
110.0
 20
170.9423744442991
 30
0.0
 40
3.5
  0
LINE
  5
A5DF
330
18
100
AcDbEntity
  8
center
 48
0.2
100
AcDbLine
 10
106.0939999999999
 20
216.1385082170014
 30
0.0
 11
113.5
 21
228.9660764978566
 31
0.0
  0
CIRCLE
  5
A5E2
330
18
100
AcDbEntity
  8
center
 48
0.2
100
AcDbCircle
 10
95.0
 20
196.9231365578323
 30
0.0
 40
30.00000000000021
  0
LINE
  5
A5E3
330
18
100
AcDbEntity
  8
center
 48
0.2
100
AcDbLine
 10
83.90600000000006
 20
216.1385082170014
 30
0.0
 11
76.5
 21
228.9660764978566
 31
0.0
  0
LINE
  5
A5E4
330
18
100
AcDbEntity
  8
center
 48
0.2
100
AcDbLine
 10
106.0939999999999
 20
177.7077648986633
 30
0.0
 11
113.5
 21
164.8801966178081
 31
0.0
  0
LINE
  5
A5E5
330
18
100
AcDbEntity
  8
center
 48
0.2
100
AcDbLine
 10
83.90600000000006
 20
177.7077648986633
 30
0.0
 11
76.5
 21
164.8801966178081
 31
0.0
  0
ARC
  5
A5E8
330
18
100
AcDbEntity
  8
contour
 62
     4
100
AcDbCircle
 10
110.0
 20
222.9038986713657
 30
0.0
 40
2.0
100
AcDbArc
 50
168.4630409671834
 51
101.5369590328148
  0
ARC
  5
A5E9
330
18
100
AcDbEntity
  8
contour
 62
     4
100
AcDbCircle
 10
79.99999999999983
 20
222.9038986713657
 30
0.0
 40
2.0
100
AcDbArc
 50
168.4630409671842
 51
101.5369590328148
  0
ARC
  5
A5EA
330
18
100
AcDbEntity
  8
contour
 62
     4
100
AcDbCircle
 10
64.99999999999977
 20
196.9231365578323
 30
0.0
 40
2.0
100
AcDbArc
 50
168.4630409671834
 51
101.5369590328148
  0
ARC
  5
A5EB
330
18
100
AcDbEntity
  8
contour
 62
     4
100
AcDbCircle
 10
79.9999999999998
 20
170.9423744442991
 30
0.0
 40
2.0
100
AcDbArc
 50
168.4630409671842
 51
101.5369590328148
  0
ARC
  5
A5EC
330
18
100
AcDbEntity
  8
contour
 62
     4
100
AcDbCircle
 10
109.9999999999999
 20
170.9423744442991
 30
0.0
 40
2.0
100
AcDbArc
 50
168.4630409671834
 51
101.5369590328148
  0
ARC
  5
A5EF
330
18
100
AcDbEntity
  8
center
 48
0.2
100
AcDbCircle
 10
95.0
 20
196.9231365578323
 30
0.0
 40
30.75000000000003
100
AcDbArc
 50
137.9597190469371
 51
170.0
  0
ARC
  5
A5F1
330
18
100
AcDbEntity
  8
center
 48
0.2
100
AcDbCircle
 10
95.0
 20
196.9231365578323
 30
0.0
 40
30.75000000000003
100
AcDbArc
 50
197.9597190469362
 51
222.0402809530629
  0
ARC
  5
A5F2
330
18
100
AcDbEntity
  8
center
 48
0.2
100
AcDbCircle
 10
95.0
 20
196.9231365578323
 30
0.0
 40
30.75000000000003
100
AcDbArc
 50
257.9597190469367
 51
282.0402809530633
  0
ARC
  5
A5F3
330
18
100
AcDbEntity
  8
center
 48
0.2
100
AcDbCircle
 10
95.0
 20
196.9231365578323
 30
0.0
 40
30.75000000000003
100
AcDbArc
 50
317.9597190469349
 51
350.0
  0
ARC
  5
A5F4
330
18
100
AcDbEntity
  8
center
 48
0.2
100
AcDbCircle
 10
95.0
 20
196.9231365578323
 30
0.0
 40
30.75000000000003
100
AcDbArc
 50
17.95971904693621
 51
42.04028095306115
  0
ARC
  5
A5F5
330
18
100
AcDbEntity
  8
center
 48
0.2
100
AcDbCircle
 10
95.0
 20
196.9231365578324
 30
0.0
 40
30.75000000000003
100
AcDbArc
 50
77.95971904693672
 51
102.0402809530617
  0
DIMENSION
  5
A914
330
18
100
AcDbEntity
  8
mark
100
AcDbDimension
  2
*D6
 10
65.45148472543236
 20
191.7380381914889
 30
0.0
 11
142.1529588653336
 21
205.1974179458835
 31
0.0
 70
   163
  1
P.C.D 60
 71
     5
 42
60.00000000000044
  3
STANDARD
100
AcDbDiametricDimension
 15
124.5485152745676
 25
202.1082349241758
 35
0.0
 40
0.0
1001
ACAD
1000
DSTYLE
1002
{
1070
   288
1070
     1
1002
}
  0
DIMENSION
  5
A921
330
18
100
AcDbEntity
  8
mark
100
AcDbDimension
  2
*D7
 10
125.0440279917708
 20
190.3718861405689
 30
0.0
 11
48.48565283888707
 21
207.0658223631926
 31
0.0
 70
   163
  1
P.C.D 61.5
 71
     5
 42
61.50000000000006
  3
STANDARD
100
AcDbDiametricDimension
 15
64.95597200822921
 25
203.4743869750958
 35
0.0
 40
0.0
1001
ACAD
1000
DSTYLE
1002
{
1070
   288
1070
     1
1002
}
  0
DIMENSION
  5
A956
330
18
100
AcDbEntity
  8
mark
100
AcDbDimension
  2
*D8
 10
139.3698360983364
 20
121.2719133182735
 30
0.0
 11
137.2698360983364
 21
112.3219133182735
 31
0.0
 70
    32
 71
     5
 42
17.9
  3
STANDARD
100
AcDbAlignedDimension
 13
128.9999999999999
 23
103.3719133182735
 33
0.0
 14
128.9999999999999
 24
121.2719133182735
 34
0.0
 50
90.0
100
AcDbRotatedDimension
  0
LINE
  5
A97D
330
18
100
AcDbEntity
  8
mark
100
AcDbLine
 10
129.8499999999999
 20
103.3719133182735
 30
0.0
 11
140.2198360983365
 21
103.3719133182735
 31
0.0
  0
LINE
  5
A97E
330
18
100
AcDbEntity
  8
mark
100
AcDbLine
 10
129.8499999999999
 20
101.3719133182735
 30
0.0
 11
140.2198360983365
 21
101.3719133182735
 31
0.0
  0
LINE
  5
A97F
330
18
100
AcDbEntity
  8
mark
100
AcDbLine
 10
139.3698360983365
 20
105.8719133182735
 30
0.0
 11
139.3698360983365
 21
108.3719133182735
 31
0.0
  0
LINE
  5
A980
330
18
100
AcDbEntity
  8
mark
100
AcDbLine
 10
139.3698360983365
 20
98.8719133182735
 30
0.0
 11
139.3698360983365
 21
97.6219133182735
 31
0.0
  0
LINE
  5
A981
330
18
100
AcDbEntity
  8
mark
100
AcDbLine
 10
139.3698360983365
 20
103.3719133182735
 30
0.0
 11
139.3698360983365
 21
101.3719133182735
 31
0.0
  0
INSERT
  5
A982
330
18
100
AcDbEntity
  8
mark
100
AcDbBlockReference
  2
_Open30
 10
139.3698360983365
 20
103.3719133182735
 30
0.0
 41
2.5
 42
2.5
 43
2.5
 50
270.0
  0
INSERT
  5
A983
330
18
100
AcDbEntity
  8
mark
100
AcDbBlockReference
  2
_Open30
 10
139.3698360983365
 20
101.3719133182735
 30
0.0
 41
2.5
 42
2.5
 43
2.5
 50
90.0
  0
MTEXT
  5
A984
330
18
100
AcDbEntity
  8
mark
 62
     3
100
AcDbMText
 10
137.2698360983364
 20
102.3719133182735
 30
0.0
 40
2.5
 41
0.0
 71
     5
 72
     1
  1
\A1;2
 11
0.0000000000000001
 21
1.0
 31
0.0
 73
     1
 44
1.0
  0
DIMENSION
  5
A98C
330
18
100
AcDbEntity
  8
mark
100
AcDbDimension
  2
*D9
 10
145.5449553920943
 20
96.27191331827349
 30
0.0
 11
143.4449553920943
 21
108.7719133182735
 31
0.0
 70
    32
  1
25%%P0.2
 71
     5
 42
25.00000000000002
  3
STANDARD
100
AcDbAlignedDimension
 13
129.0
 23
121.2719133182735
 33
0.0
 14
129.0
 24
96.27191331827349
 34
0.0
 50
90.0
100
AcDbRotatedDimension
  0
DIMENSION
  5
A999
330
18
100
AcDbEntity
  8
mark
100
AcDbDimension
  2
*D10
 10
53.17289301746768
 20
121.2719133182735
 30
0.0
 11
51.07289301746766
 21
116.7719133182735
 31
0.0
 70
    32
 71
     5
 42
9.0
  3
STANDARD
100
AcDbAlignedDimension
 13
58.00000000000003
 23
112.2719133182735
 33
0.0
 14
61.00000000000003
 24
121.2719133182735
 34
0.0
 50
90.0
100
AcDbRotatedDimension
  0
LEADER
  5
A9BB
330
18
100
AcDbEntity
  8
mark
100
AcDbLeader
  3
STANDARD
 76
     2
 10
119.938
 20
97.0219133182735
 30
0.0
 10
111.1064647466879
 20
88.19037806496149
 30
0.0
1001
ACAD
1000
DSTYLE
1002
{
1070
   147
1040
0.85
1070
    77
1070
     0
1002
}
  0
MTEXT
  5
A9BC
330
18
100
AcDbEntity
  8
mark
 62
     3
100
AcDbMText
 10
112.4114559612393
 20
92.27941110635692
 30
0.0
 40
2.5
 41
0.0
 71
     5
 72
     1
  1
C1.5
 11
0.7071067811865476
 21
0.7071067811865475
 31
0.0
 73
     1
 44
1.0
1001
ACAD
1000
ACAD_MTEXT_DEFINED_HEIGHT_BEGIN
1070
    46
1040
0.0
1000
ACAD_MTEXT_DEFINED_HEIGHT_END
  0
LEADER
  5
A9BD
330
18
100
AcDbEntity
  8
mark
100
AcDbLeader
  3
STANDARD
 76
     3
 10
60.00000000000003
 20
112.3219133182735
 30
0.0
 10
52.9289321881346
 20
105.250845506408
 30
0.0
 10
34.20348574161474
 20
105.250845506408
 30
0.0
1001
ACAD
1000
DSTYLE
1002
{
1070
   147
1040
0.85
1070
    77
1070
     0
1002
}
  0
MTEXT
  5
A9BE
330
18
100
AcDbEntity
  8
mark
 62
     3
100
AcDbMText
 10
43.23149480909686
 20
107.4048414255195
 30
0.0
 40
2.5
 41
0.0
 71
     5
 72
     1
  1
{\Ftxt,bigfont|c136;6-%%C6\Ftxt,bigfont|c128;深さ7}
 73
     1
 44
1.0
1001
ACAD
1000
ACAD_MTEXT_DEFINED_HEIGHT_BEGIN
1070
    46
1040
0.0
1000
ACAD_MTEXT_DEFINED_HEIGHT_END
  0
LEADER
  5
A9BF
330
18
100
AcDbEntity
  8
mark
100
AcDbLeader
  3
STANDARD
 76
     3
 10
64.25
 20
96.27191331827351
 30
0.0
 10
53.42893218813458
 20
85.45084550640806
 30
0.0
 10
31.68319009836171
 20
85.45084550640806
 30
0.0
1001
ACAD
1000
DSTYLE
1002
{
1070
   147
1040
0.85
1070
    77
1070
     0
1002
}
  0
MTEXT
  5
A9C0
330
18
100
AcDbEntity
  8
mark
 62
     3
100
AcDbMText
 10
42.21957986712641
 20
87.60484142551957
 30
0.0
 40
2.5
 41
0.0
 71
     5
 72
     1
  1
{\Ftxt,bigfont|c136;6-%%C4.3\Ftxt,bigfont|c128;深さ4}
 73
     1
 44
1.0
1001
ACAD
1000
ACAD_MTEXT_DEFINED_HEIGHT_BEGIN
1070
    46
1040
0.0
1000
ACAD_MTEXT_DEFINED_HEIGHT_END
  0
TOLERANCE
  5
A9C1
330
18
100
AcDbEntity
  8
mark
100
AcDbFcf
  3
STANDARD
 10
150.5449553920944
 20
126.2719133182735
 30
0.0
  1
{\Fgdt;h}%%v0.005%%v%%vA%%v%%v
  0
TOLERANCE
  5
A9C2
330
18
100
AcDbEntity
  8
mark
100
AcDbFcf
  3
STANDARD
 10
80.0
 20
72.87386803481561
 30
0.0
  1
%%v%%v%%vA%%v%%v
  0
HATCH
  5
A9C3
330
18
100
AcDbEntity
  8
mark
100
AcDbHatch
 10
0.0
 20
0.0
 30
0.0
210
0.0
220
0.0
230
1.0
  2
SOLID
 70
     1
 71
     0
 91
        2
 92
        7
 72
     0
 73
     1
 93
        3
 10
70.0
 20
75.37386803481557
 10
70.0
 20
72.87386803481561
 10
72.5
 20
72.87386803481561
 97
        0
 92
        7
 72
     0
 73
     1
 93
        3
 10
72.5
 20
72.87386803481561
 10
70.0
 20
72.87386803481561
 10
70.0
 20
70.37386803481563
 97
        0
 75
     0
 76
     1
 47
0.1023763232943895
 98
        2
 10
70.9003217270938
 20
73.81252335244005
 10
70.59307784954478
 20
72.37925512176173
450
        0
451
        0
460
0.0
461
0.0
452
        1
462
1.0
453
        2
463
0.0
 63
     5
421
      255
463
1.0
 63
     7
421
 16777215
470
LINEAR
1001
ACAD
1010
0.0
1020
0.0
1030
0.0
  0
LINE
  5
A9C4
330
18
100
AcDbEntity
  8
mark
100
AcDbLine
 10
70.0
 20
72.87386803481561
 30
0.0
 11
80.0
 21
72.87386803481561
 31
0.0
  0
LINE
  5
A9C5
330
18
100
AcDbEntity
  8
mark
100
AcDbLine
 10
70.0
 20
75.37386803481561
 30
0.0
 11
72.5
 21
72.87386803481561
 31
0.0
  0
LINE
  5
A9C6
330
18
100
AcDbEntity
  8
mark
100
AcDbLine
 10
72.5
 20
72.87386803481561
 30
0.0
 11
70.0
 21
70.37386803481561
 31
0.0
  0
LINE
  5
A9C7
330
18
100
AcDbEntity
  8
mark
100
AcDbLine
 10
70.0
 20
70.37386803481561
 30
0.0
 11
70.0
 21
72.87386803481561
 31
0.0
  0
LINE
  5
A9C8
330
18
100
AcDbEntity
  8
mark
100
AcDbLine
 10
70.0
 20
82.87386803481561
 30
0.0
 11
70.0
 21
72.87386803481561
 31
0.0
  0
LINE
  5
A9C9
330
18
100
AcDbEntity
  8
mark
100
AcDbLine
 10
145.5449553920943
 20
121.2719133182735
 30
0.0
 11
145.5449553920943
 21
126.2719133182735
 31
0.0
  0
LINE
  5
A9CA
330
18
100
AcDbEntity
  8
mark
100
AcDbLine
 10
145.5449553920943
 20
126.2719133182735
 30
0.0
 11
150.5449553920944
 21
126.2719133182735
 31
0.0
  0
DIMENSION
  5
A9CB
330
18
100
AcDbEntity
  8
mark
100
AcDbDimension
  2
*D11
 10
130.0
 20
129.5799037643982
 30
0.0
 11
95.00000000000003
 21
131.6799037643981
 31
0.0
 70
    32
  1
%%C70
 71
     5
 42
70.0
  3
STANDARD
100
AcDbAlignedDimension
 13
60.00000000000003
 23
120.2719133182735
 33
0.0
 14
130.0
 24
120.2719133182732
 34
0.0
100
AcDbRotatedDimension
  0
MTEXT
  5
AA17
330
18
100
AcDbEntity
  8
mark
 62
     3
100
AcDbMText
 10
99.10413723837976
 20
131.9757756976082
 30
0.0
 40
1.25
 41
0.0
 71
     4
 72
     1
  1
+0\P-0.2
 73
     1
 44
1.0
1001
ACAD
1000
ACAD_MTEXT_DEFINED_HEIGHT_BEGIN
1070
    46
1040
0.0
1000
ACAD_MTEXT_DEFINED_HEIGHT_END
  0
DIMENSION
  5
AA18
330
18
100
AcDbEntity
  8
mark
100
AcDbDimension
  2
*D12
 10
120.0
 20
83.7238680348156
 30
0.0
 11
95.0
 21
85.8238680348156
 31
0.0
 70
    32
  1
M50X1.5P
 71
     5
 42
50.0
  3
STANDARD
100
AcDbAlignedDimension
 13
70.0
 23
96.95991331827348
 33
0.0
 14
120.0
 24
96.95991331827348
 34
0.0
100
AcDbRotatedDimension
  0
DIMENSION
  5
AA25
330
18
100
AcDbEntity
  8
mark
100
AcDbDimension
  2
*D13
 10
60.99999999999996
 20
97.27191331827345
 30
0.0
 11
53.49288300640302
 21
92.73464480565957
 31
0.0
 70
    36
 71
     5
 42
0.9999999999999147
  3
STANDARD
100
AcDbRadialDimension
 15
60.2928932188135
 25
96.56480653708696
 35
0.0
 40
0.0
1001
ACAD
1000
DSTYLE
1002
{
1070
   288
1070
     1
1002
}
  0
LEADER
  5
AA36
330
18
100
AcDbEntity
  8
mark
100
AcDbLeader
  3
STANDARD
 76
     2
 10
119.7487373415291
 20
172.1743992163032
 30
0.0
 10
136.8226248310754
 20
155.100511726757
 30
0.0
211
0.7071067811865476
221
-0.7071067811865475
231
0.0
1001
ACAD
1000
DSTYLE
1002
{
1070
   147
1040
0.85
1070
    77
1070
     0
1002
}
  0
LEADER
  5
AA38
330
18
100
AcDbEntity
  8
mark
100
AcDbLeader
  3
STANDARD
 76
     2
 10
125.0000000000002
 20
96.27191331827351
 30
0.0
 10
136.8226248310754
 20
84.44928848719838
 30
0.0
211
0.7071067811865476
221
-0.7071067811865475
231
0.0
1001
ACAD
1000
DSTYLE
1002
{
1070
   147
1040
0.85
1070
    77
1070
     0
1002
}
  0
MTEXT
  5
AA39
330
18
100
AcDbEntity
  8
mark
 62
     3
100
AcDbMText
 10
139.3725178454392
 20
154.6991257060203
 30
0.0
 40
5.0
 41
0.0
 71
     4
 72
     1
  1
1
 73
     1
 44
1.0
1001
ACAD
1000
ACAD_MTEXT_DEFINED_HEIGHT_BEGIN
1070
    46
1040
0.0
1000
ACAD_MTEXT_DEFINED_HEIGHT_END
  0
MTEXT
  5
AA3A
330
18
100
AcDbEntity
  8
mark
 62
     3
100
AcDbMText
 10
139.3725178454392
 20
84.04790246646163
 30
0.0
 40
5.0
 41
0.0
 71
     4
 72
     1
  1
2
 73
     1
 44
1.0
1001
ACAD
1000
ACAD_MTEXT_DEFINED_HEIGHT_BEGIN
1070
    46
1040
0.0
1000
ACAD_MTEXT_DEFINED_HEIGHT_END
  0
HATCH
  5
AAC5
330
18
100
AcDbEntity
  8
section
100
AcDbHatch
 10
0.0
 20
0.0
 30
0.0
210
0.0
220
0.0
230
1.0
  2
ANSI31
 70
     0
 71
     0
 91
       12
 92
        7
 72
     1
 73
     1
 93
       28
 10
69.99999999999994
 20
120.5839133182736
 42
0.0
 10
69.31199999999996
 20
121.2719133182735
 42
0.0
 10
61.00000000000003
 20
121.2719133182735
 42
0.4142135623730951
 10
60.00000000000003
 20
120.2719133182735
 42
0.0
 10
60.00000000000003
 20
115.7719133182734
 42
0.0
 10
60.49999999999997
 20
115.2719133182735
 42
0.0
 10
65.26794919243115
 20
115.2719133182735
 42
0.0
 10
67.00000000000007
 20
112.2719133182735
 42
0.0
 10
65.26794919243115
 20
109.2719133182735
 42
0.0
 10
60.50000000000001
 20
109.2719133182735
 42
0.0
 10
60.00000000000002
 20
108.7719133182736
 42
0.0
 10
60.00000000000003
 20
104.3719133182735
 42
0.4142135623730951
 10
61.00000000000003
 20
103.3719133182735
 42
0.0
 10
68.00000000000001
 20
103.3719133182735
 42
0.0
 10
68.0
 20
101.3719133182735
 42
0.0
 10
64.25
 20
101.3719133182735
 42
0.0
 10
64.24999999999998
 20
100.2719133182735
 42
0.0
 10
66.40000000000009
 20
99.03061023951572
 42
0.0
 10
66.40000000000006
 20
96.77191331827351
 42
0.0
 10
66.90000000000004
 20
96.27191331827351
 42
0.0
 10
69.31200000000003
 20
96.27191331827352
 42
0.0
 10
70.0
 20
96.9599133182735
 42
0.0
 10
69.99999999999997
 20
103.4839133182735
 42
0.0
 10
69.31199999999996
 20
104.1719133182735
 42
0.0
 10
62.00000000000001
 20
104.1719133182735
 42
0.0
 10
62.0
 20
106.1719133182735
 42
0.0
 10
69.31199999999996
 20
106.1719133182734
 42
0.0
 10
69.99999999999997
 20
106.8599133182734
 42
0.0
 97
        0
 92
        7
 72
     1
 73
     1
 93
        9
 10
64.25
 20
100.2719133182735
 42
0.0
 10
64.25
 20
101.3719133182735
 42
0.0
 10
61.0
 20
101.3719133182735
 42
0.4142135623730951
 10
60.0
 20
100.3719133182735
 42
0.0
 10
60.00000000000003
 20
97.2719133182735
 42
0.4142135623730951
 10
61.00000000000003
 20
96.27191331827351
 42
0.0
 10
61.59999999999996
 20
96.27191331827351
 42
0.0
 10
62.09999999999997
 20
96.77191331827351
 42
0.0
 10
62.1
 20
99.03061023951577
 42
0.0
 97
        0
 92
        7
 72
     0
 73
     1
 93
        4
 10
70.81200000000001
 20
102.6719133182735
 10
69.99999999999997
 20
103.4839133182735
 10
70.0
 20
96.9599133182735
 10
70.81199999999997
 20
97.77191331827348
 97
        0
 92
        7
 72
     0
 73
     1
 93
        4
 10
70.81200000000009
 20
119.7719133182734
 10
69.99999999999996
 20
120.5839133182736
 10
69.99999999999997
 20
106.8599133182735
 10
70.81199999999999
 20
107.6719133182735
 97
        0
 92
        7
 72
     0
 73
     1
 93
        4
 10
120.0
 20
120.5839133182735
 10
119.188
 20
119.7719133182735
 10
119.188
 20
107.6719133182734
 10
120.0
 20
106.8599133182734
 97
        0
 92
        7
 72
     0
 73
     1
 93
        4
 10
120.0
 20
103.4839133182735
 10
119.188
 20
102.6719133182735
 10
119.188
 20
97.77191331827353
 10
120.0
 20
96.9599133182735
 97
        0
 92
        7
 72
     0
 73
     1
 93
       13
 10
123.0000000000001
 20
101.3719133182735
 10
122.0
 20
101.3719133182735
 10
122.0
 20
103.3719133182735
 10
123.0000000000001
 20
103.3719133182735
 10
123.0000000000001
 20
104.1719133182735
 10
120.6879999999999
 20
104.1719133182735
 10
120.0
 20
103.4839133182735
 10
120.0
 20
96.9599133182735
 10
120.688
 20
96.27191331827351
 10
121.5
 20
96.27191331827351
 10
121.5
 20
96.57191331827357
 10
121.5000000000001
 20
100.2719133182735
 10
123.0000000000001
 20
100.2719133182735
 97
        0
 92
        7
 72
     0
 73
     1
 93
        7
 10
123.0000000000001
 20
117.4719133182734
 10
123.0000000000002
 20
121.2719133182735
 10
120.688
 20
121.2719133182735
 10
120.0
 20
120.5839133182735
 10
120.0
 20
106.8599133182735
 10
120.688
 20
106.1719133182735
 10
123.0000000000001
 20
106.1719133182735
 97
        0
 92
        7
 72
     1
 73
     1
 93
       11
 10
130.0
 20
120.2719133182735
 42
0.4142135623730951
 10
129.0
 20
121.2719133182735
 42
0.0
 10
127.0000000000002
 20
121.2719133182735
 42
0.0
 10
127.0000000000002
 20
117.4719133182734
 42
0.0
 10
127.0000000000002
 20
106.1719133182735
 42
0.0
 10
128.0
 20
106.1719133182735
 42
0.0
 10
128.0
 20
104.1719133182735
 42
0.0
 10
127.0000000000002
 20
104.1719133182735
 42
0.0
 10
127.0000000000002
 20
103.3719133182735
 42
0.0
 10
128.9999999999999
 20
103.3719133182735
 42
0.4142135623730951
 10
129.9999999999999
 20
104.3719133182735
 42
0.0
 97
        0
 92
        7
 72
     1
 73
     1
 93
        9
 10
130.0
 20
100.3719133182735
 42
0.4142135623730909
 10
129.0
 20
101.3719133182735
 42
0.0
 10
127.0000000000001
 20
101.3719133182735
 42
0.0
 10
127.0000000000002
 20
100.2719133182735
 42
0.0
 10
128.5000000000001
 20
100.2719133182735
 42
0.0
 10
128.5000000000001
 20
96.57191331827347
 42
0.0
 10
128.5000000000002
 20
96.27191331827349
 42
0.0
 10
129.0
 20
96.27191331827351
 42
0.4142135623730951
 10
130.0
 20
97.2719133182735
 42
0.0
 97
        0
 92
        7
 72
     0
 73
     1
 93
        4
 10
123.4000000000002
 20
121.2719133182735
 10
123.0000000000001
 20
121.2719133182735
 10
123.0000000000001
 20
117.4719133182734
 10
123.4000000000002
 20
117.8719133182734
 97
        0
 92
        7
 72
     0
 73
     1
 93
        4
 10
127.0000000000002
 20
121.2719133182735
 10
126.6210000000001
 20
121.2719133182735
 10
126.6210000000001
 20
117.8509133182735
 10
127.0000000000002
 20
117.4719133182734
 97
        0
 75
     0
 76
     1
 52
0.0
 41
0.5
 77
     0
 78
     1
 53
45.0
 43
0.0
 44
-5.405082060092013
 45
-1.122532015133643
 46
1.122532015133644
 79
     0
 47
0.0747570517324056
 98
       12
 10
67.18959232703832
 20
115.2777421204345
 10
62.48516877633483
 20
99.8044790431884
 10
70.32077657425862
 20
100.1722659312044
 10
70.39556281445015
 20
110.9372817667716
 10
119.8176085457867
 20
110.2697553385754
 10
119.59325265096
 20
100.4765814408778
 10
121.3133107436349
 20
100.9251242768683
 10
121.2385259163172
 20
113.7833373933949
 10
127.2961195350278
 20
112.8862525948572
 10
128.8666065601935
 20
99.95328233899876
 10
123.2577233182628
 20
119.016331032515
 10
126.8474091582482
 20
118.9415738931833
1001
ACAD
1010
0.0
1020
0.0
1030
0.0
  0
MTEXT
  5
AB8A
330
18
100
AcDbEntity
  8
0
100
AcDbMText
 10
47.65097232190476
 20
19.07605901616614
 30
0.0
 40
4.5
 41
0.0
 71
     1
 72
     5
  1
{\Ftxt,bigfont|c128;小\~柳}
  7
JL
 73
     1
 44
1.0
1001
ACAD
1000
ACAD_MTEXT_DEFINED_HEIGHT_BEGIN
1070
    46
1040
0.0
1000
ACAD_MTEXT_DEFINED_HEIGHT_END
  0
MTEXT
  5
ABA1
330
18
100
AcDbEntity
  8
dim
100
AcDbMText
 10
9.705429806960296
 20
40.15119867688383
 30
0.0
 40
4.5
 41
0.0
 71
     1
 72
     5
  1
{\Ftxt,bigfont|c128;07.10.03\~寸法一部変更  林}
  7
JL
 73
     1
 44
1.0
1001
ACAD
1000
ACAD_MTEXT_DEFINED_HEIGHT_BEGIN
1070
    46
1040
0.0
1000
ACAD_MTEXT_DEFINED_HEIGHT_END
  0
CIRCLE
  5
ABA4
330
18
100
AcDbEntity
  8
dim
100
AcDbCircle
 10
44.08895496327636
 20
37.82860523248655
 30
0.0
 40
2.750054604459023
  0
LWPOLYLINE
  5
ABA7
330
18
100
AcDbEntity
  8
mark
100
AcDbPolyline
 90
        3
 70
     1
 43
0.0
 10
130.334427885818
 20
106.3841564607457
 10
134.834427885818
 20
103.7860802493924
 10
134.834427885818
 20
108.9822326720991
  0
TEXT
  5
ABA8
330
18
100
AcDbEntity
  8
dim
100
AcDbText
 10
134.2752129498745
 20
106.0033928564346
 30
0.0
 40
2.5
  1
1
 50
90.0
  7
TXT
100
AcDbText
  0
MTEXT
  5
ABC4
330
18
100
AcDbEntity
  8
mark
 62
     3
100
AcDbMText
 10
133.5828456686133
 20
113.9432292296004
 30
0.0
 40
2.5
 41
0.0
 71
     5
 72
     1
  1
17.25
 11
0.0000000000000001
 21
1.0
 31
0.0
 73
     1
 44
1.0
1001
ACAD
1000
ACAD_MTEXT_DEFINED_HEIGHT_BEGIN
1070
    46
1040
0.0
1000
ACAD_MTEXT_DEFINED_HEIGHT_END
  0
LINE
  5
ABC5
330
18
100
AcDbEntity
  8
mark
 62
     1
100
AcDbLine
 10
136.7009125895538
 20
115.9864021010703
 30
0.0
 11
136.7009125895538
 21
108.7429828202866
 31
0.0
  0
LINE
  5
ABC6
330
18
100
AcDbEntity
  8
mark
 62
     1
100
AcDbLine
 10
137.7157849376351
 20
115.9864021010703
 30
0.0
 11
137.7157849376351
 21
108.7429828202866
 31
0.0
  0
LWPOLYLINE
  5
AC0B
330
18
100
AcDbEntity
  8
mark
100
AcDbPolyline
 90
        3
 70
     1
 43
0.0
 10
7.945171659473835
 20
43.22858793340273
 10
5.05842031352572
 20
48.22858793340273
 10
2.171668967577581
 20
43.22858793340273
  0
MTEXT
  5
AC0C
330
18
100
AcDbEntity
  8
dim
100
AcDbMText
 10
4.266721653806859
 20
46.26635245428994
 30
0.0
 40
2.5
 41
9.163114146879252
 71
     1
 72
     5
  1
2
 73
     1
 44
1.0
1001
ACAD
1000
ACAD_MTEXT_DEFINED_HEIGHT_BEGIN
1070
    46
1040
0.0
1000
ACAD_MTEXT_DEFINED_HEIGHT_END
  0
MTEXT
  5
AC0D
330
18
100
AcDbEntity
  8
dim
100
AcDbMText
 10
9.708370170945499
 20
47.68914591585303
 30
0.0
 40
4.5
 41
0.0
 71
     1
 72
     5
  1
{\Ftxt,bigfont|c128;08.08.08 振れ精度の変更  林}
  7
JL
 73
     1
 44
1.0
1001
ACAD
1000
ACAD_MTEXT_DEFINED_HEIGHT_BEGIN
1070
    46
1040
0.0
1000
ACAD_MTEXT_DEFINED_HEIGHT_END
  0
CIRCLE
  5
AC0E
330
18
100
AcDbEntity
  8
dim
100
AcDbCircle
 10
47.48267346497124
 20
45.37932729588624
 30
0.0
 40
2.762409708108862
  0
LWPOLYLINE
  5
AC0F
330
18
100
AcDbEntity
  8
mark
100
AcDbPolyline
 90
        3
 70
     1
 43
0.0
 10
7.942231295488632
 20
35.69064069443354
 10
5.055479949540517
 20
40.69064069443354
 10
2.168728603592377
 20
35.69064069443354
  0
MTEXT
  5
AC10
330
18
100
AcDbEntity
  8
dim
100
AcDbMText
 10
4.693694886056539
 20
38.96710727844058
 30
0.0
 40
2.5
 41
9.163114146879252
 71
     1
 72
     5
  1
1
 73
     1
 44
1.0
1001
ACAD
1000
ACAD_MTEXT_DEFINED_HEIGHT_BEGIN
1070
    46
1040
0.0
1000
ACAD_MTEXT_DEFINED_HEIGHT_END
  0
LWPOLYLINE
  5
AC11
330
18
100
AcDbEntity
  8
mark
100
AcDbPolyline
 90
        3
 70
     1
 43
0.0
 10
156.8171093586948
 20
130.2259633354908
 10
153.9303580127467
 20
135.2259633354908
 10
151.0436066667985
 20
130.2259633354908
  0
MTEXT
  5
AC12
330
18
100
AcDbEntity
  8
dim
100
AcDbMText
 10
153.1386593530278
 20
133.2637278563781
 30
0.0
 40
2.5
 41
9.163114146879252
 71
     1
 72
     5
  1
2
 73
     1
 44
1.0
1001
ACAD
1000
ACAD_MTEXT_DEFINED_HEIGHT_BEGIN
1070
    46
1040
0.0
1000
ACAD_MTEXT_DEFINED_HEIGHT_END
  0
MTEXT
  5
AC13
330
18
100
AcDbEntity
  8
dim
100
AcDbMText
 10
158.0323164037922
 20
133.2637278563781
 30
0.0
 40
2.5
 41
9.163114146879252
 71
     1
 72
     5
  1
0.007
 73
     1
 44
1.0
1001
ACAD
1000
ACAD_MTEXT_DEFINED_HEIGHT_BEGIN
1070
    46
1040
0.0
1000
ACAD_MTEXT_DEFINED_HEIGHT_END
  0
LINE
  5
AC14
330
18
100
AcDbEntity
  8
mark
 62
     1
100
AcDbLine
 10
157.4004558713284
 20
126.8030076048724
 30
0.0
 11
167.3988300911749
 21
126.8030076048724
 31
0.0
  0
LINE
  5
AC15
330
18
100
AcDbEntity
  8
mark
 62
     1
100
AcDbLine
 10
157.4004558713284
 20
125.815325255072
 30
0.0
 11
167.3988300911749
 21
125.815325255072
 31
0.0
  0
LWPOLYLINE
  5
AC16
330
18
100
AcDbEntity
  8
mark
100
AcDbPolyline
 90
        3
 70
     1
 43
0.0
 10
181.9809346580721
 20
2.59139397936326
 10
179.094183312124
 20
7.59139397936326
 10
176.2074319661758
 20
2.59139397936326
  0
MTEXT
  5
AC17
330
18
100
AcDbEntity
  8
dim
100
AcDbMText
 10
178.3024846524051
 20
5.629158500250468
 30
0.0
 40
2.5
 41
9.163114146879252
 71
     1
 72
     5
  1
2
 73
     1
 44
1.0
1001
ACAD
1000
ACAD_MTEXT_DEFINED_HEIGHT_BEGIN
1070
    46
1040
0.0
1000
ACAD_MTEXT_DEFINED_HEIGHT_END
  0
ENDSEC
  0
SECTION
  2
OBJECTS
  0
DICTIONARY
  5
C
330
0
100
AcDbDictionary
281
     1
  3
ACAD_COLOR
350
7873
  3
ACAD_GROUP
350
D
  3
ACAD_LAYOUT
350
5CF3
  3
ACAD_MATERIAL
350
7872
  3
ACAD_MLINESTYLE
350
1B
  3
ACAD_PLOTSETTINGS
350
5CF4
  3
ACAD_PLOTSTYLENAME
350
5CF1
  3
ACAD_TABLESTYLE
350
7874
  3
AcadDim
350
9A73
  3
ACDBVARIABLEDICTIONARY
350
45D
  0
DICTIONARY
  5
7BFE
330
2
100
AcDbDictionary
280
     1
281
     1
  3
ACAD_LAYERFILTERS
360
7C00
  3
ACLYDICTIONARY
360
7BFF
  0
DICTIONARY
  5
45F
330
18
100
AcDbDictionary
280
     1
281
     1
  3
ACAD_LAYOUTSELFREF
360
5D8B
  3
ACAD_SORTENTS
360
460
  0
DICTIONARY
  5
5D89
330
15
100
AcDbDictionary
280
     1
281
     1
  3
ACAD_LAYOUTSELFREF
360
5D8A
  0
DICTIONARY
  5
7C0B
330
7C0A
100
AcDbDictionary
280
     1
281
     1
  3
AcDbBlockTableRecordData
360
7C0C
  0
DICTIONARY
  5
8E73
330
8E72
100
AcDbDictionary
280
     1
281
     1
  3
AcDbBlockTableRecordData
360
8E74
  0
DICTIONARY
  5
9D16
330
9D15
100
AcDbDictionary
280
     1
281
     1
  3
AcDbBlockTableRecordData
360
9D17
  0
DICTIONARY
  5
A4B1
330
A4B0
100
AcDbDictionary
280
     1
281
     1
  3
AcDbBlockTableRecordData
360
A4B2
  0
DICTIONARY
  5
7873
102
{ACAD_REACTORS
330
C
102
}
330
C
100
AcDbDictionary
281
     1
  0
DICTIONARY
  5
D
102
{ACAD_REACTORS
330
C
102
}
330
C
100
AcDbDictionary
281
     1
  0
DICTIONARY
  5
5CF3
102
{ACAD_REACTORS
330
C
102
}
330
C
100
AcDbDictionary
281
     1
  3
Model
350
5CF5
  3
配置1
350
5CF6
  0
DICTIONARY
  5
7872
102
{ACAD_REACTORS
330
C
102
}
330
C
100
AcDbDictionary
281
     1
  0
DICTIONARY
  5
1B
102
{ACAD_REACTORS
330
C
102
}
330
C
100
AcDbDictionary
281
     1
  3
STANDARD
350
1C
  0
DICTIONARY
  5
5CF4
102
{ACAD_REACTORS
330
C
102
}
330
C
100
AcDbDictionary
281
     1
  0
ACDBDICTIONARYWDFLT
  5
5CF1
102
{ACAD_REACTORS
330
C
102
}
330
C
100
AcDbDictionary
281
     1
  3
Normal
350
5CF2
100
AcDbDictionaryWithDefault
340
5CF2
  0
DICTIONARY
  5
7874
102
{ACAD_REACTORS
330
C
102
}
330
C
100
AcDbDictionary
281
     1
  3
Standard
350
7875
  0
XRECORD
  5
9A73
102
{ACAD_REACTORS
330
C
102
}
330
C
100
AcDbXrecord
280
     1
 90
   990106
  3

 60
     0
 61
     0
 62
     1
 63
     3
 64
     0
 65
     0
 66
     0
 67
     3
 68
     1
 69
     0
 70
     0
 71
     0
 72
     0
 40
0.0
170
     0
  0
DICTIONARY
  5
45D
102
{ACAD_REACTORS
330
C
102
}
330
C
100
AcDbDictionary
281
     1
  3
CTABLESTYLE
350
7880
  3
SORTENTS
350
45E
  0
DICTIONARY
  5
7C00
102
{ACAD_REACTORS
330
7BFE
102
}
330
7BFE
100
AcDbDictionary
281
     1
  0
DICTIONARY
  5
7BFF
102
{ACAD_REACTORS
330
7BFE
102
}
330
7BFE
100
AcDbDictionary
281
     1
1001
ACAD
1000
<All
  0
XRECORD
  5
5D8B
102
{ACAD_REACTORS
330
45F
102
}
330
45F
100
AcDbXrecord
280
     1
340
18
  0
SORTENTSTABLE
  5
460
102
{ACAD_REACTORS
330
45F
102
}
330
45F
100
AcDbSortentsTable
330
18
331
7D9C
  5
7D9C
331
9E19
  5
9E45
331
9E50
  5
A4D0
331
A5C6
  5
A5C9
331
A9CB
  5
AA17
331
AA3A
  5
AA3B
331
7D6D
  5
7D6D
331
C0
  5
CB
331
7DA4
  5
7DA4
331
9E21
  5
9E4C
331
A5CE
  5
A5D2
331
A984
  5
A98C
331
9E29
  5
A498
331
7D75
  5
7D75
331
7DAC
  5
7DAC
331
A597
  5
A59B
331
ABA1
  5
ABA1
331
A5D6
  5
A5DA
331
A98C
  5
A999
331
7DB4
  5
7DB4
331
A59F
  5
A5A3
331
A5DE
  5
A5E2
331
7D7D
  5
7D7D
331
7DBC
  5
7DBC
331
9E31
  5
9E32
331
A5A7
  5
A5AA
331
7D85
  5
7D85
331
9E39
  5
A4A2
331
A4D0
  5
A4D2
331
A5AF
  5
A5B2
331
7D8D
  5
7D8D
331
9DFA
  5
9E33
331
9E41
  5
A4AA
331
A578
  5
A580
331
A5B7
  5
A5BA
331
A9BC
  5
A9BD
331
7D95
  5
7D95
331
9E49
  5
9E26
331
A580
  5
A588
331
A5BF
  5
A5C3
331
A9C4
  5
A9C5
331
7D9D
  5
7D9D
331
9E1A
  5
9E46
331
A5C7
  5
A5CA
331
A97D
  5
A97E
331
7DA5
  5
7DA5
331
7D6E
  5
7D6E
331
9E22
  5
9E4D
331
A5CF
  5
A5D3
331
AB8A
  5
AB8A
331
7DAD
  5
7DAD
331
7D76
  5
7D76
331
A598
  5
A59C
331
A5D7
  5
A5DB
331
7DB5
  5
7DB5
331
A5DF
  5
A5E3
331
7D7E
  5
7D7E
331
7DBD
  5
7DBD
331
9E32
  5
A49A
331
A5A8
  5
A5AB
331
9DF3
  5
9E3A
331
7D86
  5
7D86
331
9E3A
  5
A4A3
331
A4D1
  5
A4D3
331
A5B0
  5
A5B3
331
A5EF
  5
A5F1
331
7D8E
  5
7D8E
331
A579
  5
A583
331
A5B8
  5
A5BB
331
A956
  5
A97D
331
A9BD
  5
A9BE
331
9E4A
  5
9E23
331
7D96
  5
7D96
331
9E13
  5
9E3E
331
A581
  5
A58E
331
A9C5
  5
A9C6
331
A5C0
  5
A5C4
331
7D9E
  5
7D9E
331
9E1B
  5
9E47
331
A5C8
  5
A5CB
331
A97E
  5
A97F
331
7DA6
  5
7DA6
331
7D6F
  5
7D6F
331
9E23
  5
9E4E
331
A5D0
  5
A5D4
331
7D77
  5
7D77
331
7DAE
  5
7DAE
331
A599
  5
A59D
331
A5D8
  5
A5DC
331
7DB6
  5
7DB6
331
A5A1
  5
A5A4
331
7D7F
  5
7D7F
331
9DEC
  5
9E22
331
9E33
  5
9E24
331
A5A9
  5
A5AC
331
A5E8
  5
A5EA
331
7D87
  5
7D87
331
9DF4
  5
9E3B
331
9E3B
  5
A4A4
331
A4D2
  5
A4D6
331
A5B1
  5
A5B4
331
AA25
  5
AA36
331
9E43
  5
9E39
331
7D8F
  5
7D8F
331
9DFC
  5
9E3D
331
A5B9
  5
A5BC
331
A9BE
  5
A9BF
331
7D97
  5
7D97
331
9E14
  5
9E3F
331
9E4B
  5
A4AB
331
A582
  5
A58F
331
A9C6
  5
A9C7
331
7D9F
  5
7D9F
331
A5C9
  5
A5CC
331
A97F
  5
A980
331
7D70
  5
7D70
331
9E24
  5
9E4F
331
A592
  5
A596
331
A5D1
  5
A5D5
331
AAC5
  5
9E21
331
7DAF
  5
7DAF
331
A59A
  5
A59E
331
ABA4
  5
ABA4
331
A5D9
  5
A5DD
331
7DB7
  5
7DB7
331
7D78
  5
7D78
331
A5A2
  5
A5A5
331
7D80
  5
7D80
331
9DED
  5
9E25
331
9E34
  5
A49D
331
A5AA
  5
A5AD
331
A5E9
  5
A5EB
331
7D88
  5
7D88
331
9DF5
  5
9E37
331
9E3C
  5
A4A5
331
A4D3
  5
A578
331
A5B2
  5
A5B5
331
A5F1
  5
A5F2
331
ABC4
  5
ABC4
331
9E44
  5
9E38
331
7D90
  5
7D90
331
9DFD
  5
9E3C
331
A5BA
  5
A5BD
331
A9BF
  5
A9C0
331
9E15
  5
9E40
331
9E4C
  5
A4AC
331
A583
  5
A592
331
A9C7
  5
A9C8
331
AA36
  5
AA38
331
7D98
  5
7D98
331
A5C2
  5
A5C5
331
7DA0
  5
7DA0
331
9E1D
  5
9E48
331
A5CA
  5
A5CE
331
A921
  5
A956
331
A980
  5
A981
331
7DA8
  5
7DA8
331
7D71
  5
7D71
331
9E25
  5
9E50
331
A593
  5
A597
331
A5D2
  5
A5D6
331
7DB0
  5
7DB0
331
A59B
  5
A59F
331
A5DA
  5
A5DE
331
AA17
  5
AA18
331
7D79
  5
7D79
331
7DB8
  5
7DB8
331
A5A3
  5
A5A6
331
A5E2
  5
A5E4
331
7D81
  5
7D81
331
9DEE
  5
9E2B
331
9E35
  5
A49E
331
A5AB
  5
A5AE
331
A5EA
  5
A5EC
331
7D89
  5
7D89
331
9DF6
  5
9E30
331
9E3D
  5
A4A6
331
A5B3
  5
A5B6
331
A5F2
  5
A5F3
331
7D91
  5
7D91
331
9E45
  5
9E36
331
A5BB
  5
A5BE
331
A9C0
  5
A9C1
331
9E16
  5
9E41
331
9E4D
  5
A4AD
331
7D99
  5
7D99
331
A5C3
  5
A5C6
331
A9C8
  5
A9C9
331
9E1E
  5
9E49
331
A58C
  5
A593
331
A5CB
  5
A5CF
331
A981
  5
A982
331
7DA9
  5
7DA9
331
7D72
  5
7D72
331
9E26
  5
9E51
331
A594
  5
A598
331
A5D3
  5
A5D7
331
7DB1
  5
7DB1
331
9E2E
  5
A499
331
A59C
  5
A5A1
331
A5DB
  5
A5DF
331
7D7A
  5
7D7A
331
A5A4
  5
A5A7
331
A5E3
  5
A5E5
331
A999
  5
A9BB
331
AA18
  5
AA25
331
7D82
  5
7D82
331
9DEF
  5
9E34
331
9E36
  5
A49F
331
A5AC
  5
A5AF
331
A5EB
  5
A5EF
331
7D8A
  5
7D8A
331
9DF7
  5
9E2E
331
9E3E
  5
A4A7
331
A5B4
  5
A5B7
331
A5F3
  5
A5F4
331
7D92
  5
7D92
331
9E46
  5
9E35
331
A5BC
  5
A5BF
331
A9C1
  5
A9C2
331
9E17
  5
9E43
331
9E4E
  5
A4AE
331
7D9A
  5
7D9A
331
A5C4
  5
A5C7
331
A9C9
  5
A9CA
331
AA38
  5
AA39
331
7DA2
  5
7DA2
331
9E1F
  5
9E4A
331
A58D
  5
A594
331
A5CC
  5
A5D0
331
A982
  5
A983
331
7D73
  5
7D73
331
7DAA
  5
7DAA
331
A595
  5
A599
331
A5D4
  5
A5D8
331
7DB2
  5
7DB2
331
9E2F
  5
A49C
331
ABA7
  5
ABA7
331
A5DC
  5
A5E0
331
7D7B
  5
7D7B
331
7DBA
  5
7DBA
331
A5A5
  5
A5A8
331
A5E4
  5
A5E8
331
7D83
  5
7D83
331
9DF0
  5
9E2C
331
9E37
  5
A4A0
331
A5AD
  5
A5B0
331
A5EC
  5
A5F0
331
7D8B
  5
7D8B
331
9DF8
  5
9E29
331
9E3F
  5
A4A8
331
A5B5
  5
A5B8
331
A5F4
  5
A5F5
331
7D93
  5
7D93
331
9E47
  5
9E2A
331
A5BD
  5
A5C0
331
A914
  5
A921
331
A9C2
  5
A9C3
331
9E4F
  5
A4CF
331
7D9B
  5
7D9B
331
9E18
  5
9E44
331
A5C5
  5
A5C8
331
A9CA
  5
A9CB
331
AA39
  5
AA3A
331
7D6C
  5
7D6C
331
7DA3
  5
7DA3
331
9E20
  5
9E4B
331
A58E
  5
A595
331
A5CD
  5
A5D1
331
A983
  5
A984
331
7D74
  5
7D74
331
A596
  5
A59A
331
A5D5
  5
A5D9
331
A59E
  5
A5A2
331
A5DD
  5
A5E1
331
7DBB
  5
7DBB
331
7D7C
  5
7D7C
331
9E30
  5
A49B
331
ABA8
  5
ABA8
331
A5A6
  5
A5A9
331
A5E5
  5
A5E9
331
7D84
  5
7D84
331
9DF1
  5
9E2F
331
9E38
  5
A4A1
331
A4CF
  5
A4D1
331
A5AE
  5
A5B1
331
7D8C
  5
7D8C
331
9DF9
  5
9E31
331
9E40
  5
A4A9
331
A5B6
  5
A5B9
331
A5F5
  5
A914
331
A9BB
  5
A9BC
331
7D94
  5
7D94
331
9E48
  5
9E2D
331
A9C3
  5
A9C4
331
A5BE
  5
A5C2
  0
XRECORD
  5
5D8A
102
{ACAD_REACTORS
330
5D89
102
}
330
5D89
100
AcDbXrecord
280
     1
340
15
  0
DICTIONARY
  5
7C0C
102
{ACAD_REACTORS
330
7C0B
102
}
330
7C0B
100
AcDbDictionary
280
     1
281
     1
  3
Edit
360
7C0D
  0
DICTIONARY
  5
8E74
102
{ACAD_REACTORS
330
8E73
102
}
330
8E73
100
AcDbDictionary
280
     1
281
     1
  3
Edit
360
8E75
  0
DICTIONARY
  5
9D17
102
{ACAD_REACTORS
330
9D16
102
}
330
9D16
100
AcDbDictionary
280
     1
281
     1
  3
Edit
360
9D18
  0
DICTIONARY
  5
A4B2
102
{ACAD_REACTORS
330
A4B1
102
}
330
A4B1
100
AcDbDictionary
280
     1
281
     1
  3
Edit
360
A4B3
  0
LAYOUT
  5
5CF5
102
{ACAD_REACTORS
330
5CF3
102
}
330
5CF3
100
AcDbPlotSettings
  1

  2
hp LaserJet 1300 PCL 6
  4
A4
  6

 40
5.027083396911621
 41
5.069413185119628
 42
5.027084350585937
 43
5.027069091796875
 44
209.9733276367187
 45
296.9683227539062
 46
4.959579944610595
 47
3.435920238494873
 48
0.0
 49
0.0
140
190.0
141
280.0
142
1.0
143
1.0
 70
 11940
 72
     1
 73
     0
 74
     4
  7
LIN.ctb
 75
    27
147
2.0
 76
     0
 77
     2
 78
   300
148
0.0
149
0.0
100
AcDbLayout
  1
Model
 70
     1
 71
     0
 10
0.0
 20
0.0
 11
12.0
 21
9.0
 12
0.0
 22
0.0
 32
0.0
 14
0.0
 24
0.0
 34
0.0
 15
0.0
 25
0.0
 35
0.0
146
0.0
 13
0.0
 23
0.0
 33
0.0
 16
1.0
 26
0.0
 36
0.0
 17
0.0
 27
1.0
 37
0.0
 76
     0
330
18
1001
ACAD_PSEXT
1000
hp LaserJet 1300 PCL 6
1000
hp LaserJet 1300 PCL 6
1000
HP 1300
1000

1070
     0
  0
LAYOUT
  5
5CF6
102
{ACAD_REACTORS
330
5CF3
102
}
330
5CF3
100
AcDbPlotSettings
  1

  2
EPSON STYLUS COLOR 440
  4

  6

 40
0.0
 41
0.0
 42
0.0
 43
0.0
 44
0.0
 45
0.0
 46
0.0
 47
0.0
 48
0.0
 49
0.0
140
0.0
141
0.0
142
1.0
143
1.0
 70
   688
 72
     0
 73
     0
 74
     5
  7
LIN.ctb
 75
    16
147
1.0
 76
     0
 77
     2
 78
   300
148
0.0
149
0.0
100
AcDbLayout
  1
ｰtｸm1
 70
     1
 71
     1
 10
0.0
 20
0.0
 11
420.0
 21
297.0
 12
0.0
 22
0.0
 32
0.0
 14
1.000000000000000E+20
 24
1.000000000000000E+20
 34
1.000000000000000E+20
 15
-1.000000000000000E+20
 25
-1.000000000000000E+20
 35
-1.000000000000000E+20
146
0.0
 13
0.0
 23
0.0
 33
0.0
 16
1.0
 26
0.0
 36
0.0
 17
0.0
 27
1.0
 37
0.0
 76
     0
330
15
  0
MLINESTYLE
  5
1C
102
{ACAD_REACTORS
330
1B
102
}
330
1B
100
AcDbMlineStyle
  2
STANDARD
 70
     0
  3

 62
   256
 51
90.0
 52
90.0
 71
     2
 49
0.5
 62
   256
  6
BYLAYER
 49
-0.5
 62
   256
  6
BYLAYER
  0
ACDBPLACEHOLDER
  5
5CF2
102
{ACAD_REACTORS
330
5CF1
102
}
330
5CF1
  0
TABLESTYLE
  5
7875
102
{ACAD_REACTORS
330
7874
102
}
330
7874
100
AcDbTableStyle
  3
Standard
 70
     0
 71
     8
 40
1.5
 41
1.5
280
     0
281
     0
  7
STANDARD
140
4.5
170
     2
 62
     0
 63
     7
283
     0
274
    -2
284
     1
 64
     0
275
    -2
285
     1
 65
     0
276
    -2
286
     1
 66
     0
277
    -2
287
     1
 67
     0
278
    -2
288
     1
 68
     0
279
    -2
289
     1
 69
     0
  7
STANDARD
140
6.0
170
     5
 62
     0
 63
     7
283
     0
274
    -2
284
     1
 64
     0
275
    -2
285
     1
 65
     0
276
    -2
286
     1
 66
     0
277
    -2
287
     1
 67
     0
278
    -2
288
     1
 68
     0
279
    -2
289
     1
 69
     0
  7
STANDARD
140
4.5
170
     5
 62
     0
 63
     7
283
     0
274
    -2
284
     1
 64
     0
275
    -2
285
     1
 65
     0
276
    -2
286
     1
 66
     0
277
    -2
287
     1
 67
     0
278
    -2
288
     1
 68
     0
279
    -2
289
     1
 69
     0
  0
DICTIONARYVAR
  5
7880
102
{ACAD_REACTORS
330
45D
102
}
330
45D
100
DictionaryVariables
280
     0
  1
STANDARD
  0
DICTIONARYVAR
  5
45E
102
{ACAD_REACTORS
330
45D
102
}
330
45D
100
DictionaryVariables
280
     0
  1
127
  0
XRECORD
  5
7C0D
102
{ACAD_REACTORS
330
7C0C
102
}
330
7C0C
100
AcDbXrecord
280
     1
1070
     0
1070
     1
1070
     1
  0
XRECORD
  5
8E75
102
{ACAD_REACTORS
330
8E74
102
}
330
8E74
100
AcDbXrecord
280
     1
1070
     0
1070
     1
1070
     1
  0
XRECORD
  5
9D18
102
{ACAD_REACTORS
330
9D17
102
}
330
9D17
100
AcDbXrecord
280
     1
1070
     0
1070
     1
1070
     1
  0
XRECORD
  5
A4B3
102
{ACAD_REACTORS
330
A4B2
102
}
330
A4B2
100
AcDbXrecord
280
     1
1070
     0
1070
     1
1070
     1
  0
ENDSEC
  0
EOF
