  0
SECTION
  2
HEADER
  9
$ACADVER
  1
AC1018
  9
$ACADMAINTVER
 70
    76
  9
$DWGCODEPAGE
  3
ANSI_932
  9
$INSBASE
 10
0.0
 20
0.0
 30
0.0
  9
$EXTMIN
 10
0.0
 20
0.0
 30
0.0
  9
$EXTMAX
 10
190.0
 20
280.0
 30
0.0
  9
$LIMMIN
 10
0.0
 20
0.0
  9
$LIMMAX
 10
420.0
 20
297.0
  9
$ORTHOMODE
 70
     1
  9
$REGENMODE
 70
     1
  9
$FILLMODE
 70
     1
  9
$QTEXTMODE
 70
     0
  9
$MIRRTEXT
 70
     1
  9
$LTSCALE
 40
1.0
  9
$ATTMODE
 70
     1
  9
$TEXTSIZE
 40
2.5
  9
$TRACEWID
 40
1.0
  9
$TEXTSTYLE
  7
STANDARD
  9
$CLAYER
  8
mark
  9
$CELTYPE
  6
BYLAYER
  9
$CECOLOR
 62
   256
  9
$CELTSCALE
 40
1.0
  9
$DISPSILH
 70
     0
  9
$DIMSCALE
 40
1.0
  9
$DIMASZ
 40
2.5
  9
$DIMEXO
 40
0.85
  9
$DIMDLI
 40
0.38
  9
$DIMRND
 40
0.0
  9
$DIMDLE
 40
0.0
  9
$DIMEXE
 40
0.85
  9
$DIMTP
 40
0.0
  9
$DIMTM
 40
0.0
  9
$DIMTXT
 40
2.5
  9
$DIMCEN
 40
0.09
  9
$DIMTSZ
 40
0.0
  9
$DIMTOL
 70
     0
  9
$DIMLIM
 70
     0
  9
$DIMTIH
 70
     0
  9
$DIMTOH
 70
     0
  9
$DIMSE1
 70
     0
  9
$DIMSE2
 70
     0
  9
$DIMTAD
 70
     3
  9
$DIMZIN
 70
     8
  9
$DIMBLK
  1
Open30
  9
$DIMASO
 70
     1
  9
$DIMSHO
 70
     1
  9
$DIMPOST
  1

  9
$DIMAPOST
  1

  9
$DIMALT
 70
     0
  9
$DIMALTD
 70
     2
  9
$DIMALTF
 40
25.4
  9
$DIMLFAC
 40
1.0
  9
$DIMTOFL
 70
     1
  9
$DIMTVP
 40
0.0
  9
$DIMTIX
 70
     0
  9
$DIMSOXD
 70
     0
  9
$DIMSAH
 70
     0
  9
$DIMBLK1
  1

  9
$DIMBLK2
  1

  9
$DIMSTYLE
  2
STANDARD
  9
$DIMCLRD
 70
   256
  9
$DIMCLRE
 70
   256
  9
$DIMCLRT
 70
     3
  9
$DIMTFAC
 40
1.0
  9
$DIMGAP
 40
0.85
  9
$DIMJUST
 70
     0
  9
$DIMSD1
 70
     0
  9
$DIMSD2
 70
     0
  9
$DIMTOLJ
 70
     1
  9
$DIMTZIN
 70
     0
  9
$DIMALTZ
 70
     0
  9
$DIMALTTZ
 70
     0
  9
$DIMUPT
 70
     0
  9
$DIMDEC
 70
     2
  9
$DIMTDEC
 70
     2
  9
$DIMALTU
 70
     2
  9
$DIMALTTD
 70
     2
  9
$DIMTXSTY
  7
STANDARD
  9
$DIMAUNIT
 70
     0
  9
$DIMADEC
 70
     2
  9
$DIMALTRND
 40
0.0
  9
$DIMAZIN
 70
     2
  9
$DIMDSEP
 70
    46
  9
$DIMATFIT
 70
     3
  9
$DIMFRAC
 70
     0
  9
$DIMLDRBLK
  1
Open30
  9
$DIMLUNIT
 70
     2
  9
$DIMLWD
 70
    -2
  9
$DIMLWE
 70
    -2
  9
$DIMTMOVE
 70
     0
  9
$LUNITS
 70
     2
  9
$LUPREC
 70
     2
  9
$SKETCHINC
 40
1.0
  9
$FILLETRAD
 40
1.0
  9
$AUNITS
 70
     0
  9
$AUPREC
 70
     2
  9
$MENU
  1
.
  9
$ELEVATION
 40
0.0
  9
$PELEVATION
 40
0.0
  9
$THICKNESS
 40
0.0
  9
$LIMCHECK
 70
     0
  9
$CHAMFERA
 40
1.0
  9
$CHAMFERB
 40
1.0
  9
$CHAMFERC
 40
1.75
  9
$CHAMFERD
 40
0.0174532925199433
  9
$SKPOLY
 70
     0
  9
$TDCREATE
 40
2451555.620234838
  9
$TDUCREATE
 40
2451555.245234838
  9
$TDUPDATE
 40
2455846.621114456
  9
$TDUUPDATE
 40
2455846.246114457
  9
$TDINDWG
 40
3.0867880208
  9
$TDUSRTIMER
 40
3.0867880208
  9
$USRTIMER
 70
     1
  9
$ANGBASE
 50
0.0
  9
$ANGDIR
 70
     0
  9
$PDMODE
 70
     0
  9
$PDSIZE
 40
0.0
  9
$PLINEWID
 40
0.0
  9
$SPLFRAME
 70
     0
  9
$SPLINETYPE
 70
     6
  9
$SPLINESEGS
 70
     8
  9
$HANDSEED
  5
DB78
  9
$SURFTAB1
 70
     6
  9
$SURFTAB2
 70
     6
  9
$SURFTYPE
 70
     6
  9
$SURFU
 70
     6
  9
$SURFV
 70
     6
  9
$UCSBASE
  2

  9
$UCSNAME
  2

  9
$UCSORG
 10
0.0
 20
0.0
 30
0.0
  9
$UCSXDIR
 10
1.0
 20
0.0
 30
0.0
  9
$UCSYDIR
 10
0.0
 20
1.0
 30
0.0
  9
$UCSORTHOREF
  2

  9
$UCSORTHOVIEW
 70
     1
  9
$UCSORGTOP
 10
0.0
 20
0.0
 30
0.0
  9
$UCSORGBOTTOM
 10
0.0
 20
0.0
 30
0.0
  9
$UCSORGLEFT
 10
0.0
 20
0.0
 30
0.0
  9
$UCSORGRIGHT
 10
0.0
 20
0.0
 30
0.0
  9
$UCSORGFRONT
 10
0.0
 20
0.0
 30
0.0
  9
$UCSORGBACK
 10
0.0
 20
0.0
 30
0.0
  9
$PUCSBASE
  2

  9
$PUCSNAME
  2

  9
$PUCSORG
 10
0.0
 20
0.0
 30
0.0
  9
$PUCSXDIR
 10
1.0
 20
0.0
 30
0.0
  9
$PUCSYDIR
 10
0.0
 20
1.0
 30
0.0
  9
$PUCSORTHOREF
  2

  9
$PUCSORTHOVIEW
 70
     0
  9
$PUCSORGTOP
 10
0.0
 20
0.0
 30
0.0
  9
$PUCSORGBOTTOM
 10
0.0
 20
0.0
 30
0.0
  9
$PUCSORGLEFT
 10
0.0
 20
0.0
 30
0.0
  9
$PUCSORGRIGHT
 10
0.0
 20
0.0
 30
0.0
  9
$PUCSORGFRONT
 10
0.0
 20
0.0
 30
0.0
  9
$PUCSORGBACK
 10
0.0
 20
0.0
 30
0.0
  9
$USERI1
 70
     0
  9
$USERI2
 70
     0
  9
$USERI3
 70
     0
  9
$USERI4
 70
     0
  9
$USERI5
 70
     0
  9
$USERR1
 40
0.0
  9
$USERR2
 40
0.0
  9
$USERR3
 40
0.0
  9
$USERR4
 40
0.0
  9
$USERR5
 40
0.0
  9
$WORLDVIEW
 70
     1
  9
$SHADEDGE
 70
     3
  9
$SHADEDIF
 70
    70
  9
$TILEMODE
 70
     1
  9
$MAXACTVP
 70
    48
  9
$PINSBASE
 10
0.0
 20
0.0
 30
0.0
  9
$PLIMCHECK
 70
     0
  9
$PEXTMIN
 10
1.000000000000000E+20
 20
1.000000000000000E+20
 30
1.000000000000000E+20
  9
$PEXTMAX
 10
-1.000000000000000E+20
 20
-1.000000000000000E+20
 30
-1.000000000000000E+20
  9
$PLIMMIN
 10
0.0
 20
0.0
  9
$PLIMMAX
 10
420.0
 20
297.0
  9
$UNITMODE
 70
     0
  9
$VISRETAIN
 70
     1
  9
$PLINEGEN
 70
     0
  9
$PSLTSCALE
 70
     1
  9
$TREEDEPTH
 70
  3020
  9
$CMLSTYLE
  2
STANDARD
  9
$CMLJUST
 70
     0
  9
$CMLSCALE
 40
20.0
  9
$PROXYGRAPHICS
 70
     1
  9
$MEASUREMENT
 70
     1
  9
$CELWEIGHT
370
    -1
  9
$ENDCAPS
280
     0
  9
$JOINSTYLE
280
     0
  9
$LWDISPLAY
290
     0
  9
$INSUNITS
 70
     0
  9
$HYPERLINKBASE
  1

  9
$STYLESHEET
  1
LIN.ctb
  9
$XEDIT
290
     1
  9
$CEPSNTYPE
380
     0
  9
$PSTYLEMODE
290
     1
  9
$FINGERPRINTGUID
  2
{1CF51E8A-A506-11D4-A7D9-AF69F5C20846}
  9
$VERSIONGUID
  2
{6BEAE74D-136A-45B0-845F-55E968ED0ADF}
  9
$EXTNAMES
290
     1
  9
$PSVPSCALE
 40
0.0
  9
$OLESTARTUP
290
     0
  9
$SORTENTS
280
   127
  9
$INDEXCTL
280
     0
  9
$HIDETEXT
280
     0
  9
$XCLIPFRAME
290
     0
  9
$HALOGAP
280
     0
  9
$OBSCOLOR
 70
   257
  9
$OBSLTYPE
280
     0
  9
$INTERSECTIONDISPLAY
280
     0
  9
$INTERSECTIONCOLOR
 70
   257
  9
$DIMASSOC
280
     1
  9
$PROJECTNAME
  1

  0
ENDSEC
  0
SECTION
  2
CLASSES
  0
CLASS
  1
DICTIONARYVAR
  2
AcDbDictionaryVar
  3
ObjectDBX Classes
 90
        0
 91
        2
280
     0
281
     0
  0
CLASS
  1
SORTENTSTABLE
  2
AcDbSortentsTable
  3
ObjectDBX Classes
 90
        0
 91
        2
280
     0
281
     0
  0
CLASS
  1
ACDBDICTIONARYWDFLT
  2
AcDbDictionaryWithDefault
  3
ObjectDBX Classes
 90
        0
 91
        1
280
     0
281
     0
  0
CLASS
  1
TABLESTYLE
  2
AcDbTableStyle
  3
ObjectDBX Classes
 90
     2047
 91
        1
280
     0
281
     0
  0
ENDSEC
  0
SECTION
  2
TABLES
  0
TABLE
  2
VPORT
  5
8
330
0
100
AcDbSymbolTable
 70
     2
  0
VPORT
  5
DB77
330
8
100
AcDbSymbolTableRecord
100
AcDbViewportTableRecord
  2
*Active
 70
     0
 10
0.0
 20
0.0
 11
1.0
 21
1.0
 12
245.9818592148257
 22
139.9979717125071
 13
0.0
 23
0.0
 14
10.0
 24
10.0
 15
10.0
 25
10.0
 16
0.0
 26
0.0
 36
1.0
 17
0.0
 27
0.0
 37
0.0
 40
283.4333968572492
 41
2.47104247104247
 42
50.0
 43
0.0
 44
0.0
 50
0.0
 51
0.0
 71
     0
 72
 20000
 73
     1
 74
     1
 75
     0
 76
     0
 77
     0
 78
     0
281
     0
 65
     1
110
0.0
120
0.0
130
0.0
111
1.0
121
0.0
131
0.0
112
0.0
122
1.0
132
0.0
 79
     1
146
0.0
  0
ENDTAB
  0
TABLE
  2
LTYPE
  5
5
330
0
100
AcDbSymbolTable
 70
     7
  0
LTYPE
  5
12
330
5
100
AcDbSymbolTableRecord
100
AcDbLinetypeTableRecord
  2
BYBLOCK
 70
     0
  3

 72
    65
 73
     0
 40
0.0
  0
LTYPE
  5
13
330
5
100
AcDbSymbolTableRecord
100
AcDbLinetypeTableRecord
  2
BYLAYER
 70
     0
  3

 72
    65
 73
     0
 40
0.0
  0
LTYPE
  5
14
330
5
100
AcDbSymbolTableRecord
100
AcDbLinetypeTableRecord
  2
CONTINUOUS
 70
     0
  3
Solid line
 72
    65
 73
     0
 40
0.0
  0
LTYPE
  5
9D
330
5
100
AcDbSymbolTableRecord
100
AcDbLinetypeTableRecord
  2
CENTERX2
 70
     0
  3
Center (2x) ________  __  ________  __  _____
 72
    65
 73
     4
 40
101.6
 49
63.5
 74
     0
 49
-12.7
 74
     0
 49
12.7
 74
     0
 49
-12.7
 74
     0
  0
LTYPE
  5
A1
330
5
100
AcDbSymbolTableRecord
100
AcDbLinetypeTableRecord
  2
DASHED
 70
     0
  3
Dashed __ __ __ __ __ __ __ __ __ __ __ __ __ _
 72
    65
 73
     2
 40
19.05
 49
12.7
 74
     0
 49
-6.349999999999999
 74
     0
  0
LTYPE
  5
A2
330
5
100
AcDbSymbolTableRecord
100
AcDbLinetypeTableRecord
  2
DASHED2
 70
     0
  3
Dashed (.5x) _ _ _ _ _ _ _ _ _ _ _ _ _ _ _ _ _
 72
    65
 73
     2
 40
9.524999999999998
 49
6.349999999999999
 74
     0
 49
-3.174999999999999
 74
     0
  0
LTYPE
  5
A5
330
5
100
AcDbSymbolTableRecord
100
AcDbLinetypeTableRecord
  2
DIVIDE2
 70
     0
  3
Divide (.5x) __..__..__..__..__..__..__..__.._
 72
    65
 73
     6
 40
15.875
 49
6.349999999999999
 74
     0
 49
-3.174999999999999
 74
     0
 49
0.0
 74
     0
 49
-3.174999999999999
 74
     0
 49
0.0
 74
     0
 49
-3.174999999999999
 74
     0
  0
LTYPE
  5
650B
330
5
100
AcDbSymbolTableRecord
100
AcDbLinetypeTableRecord
  2
CENTER
 70
     0
  3
Center ____ _ ____ _ ____ _ ____ _ ____ _ ____
 72
    65
 73
     4
 40
50.8
 49
31.75
 74
     0
 49
-6.349999999999999
 74
     0
 49
6.349999999999999
 74
     0
 49
-6.349999999999999
 74
     0
  0
LTYPE
  5
650C
330
5
100
AcDbSymbolTableRecord
100
AcDbLinetypeTableRecord
  2
HIDDEN
 70
     0
  3
Hidden __ __ __ __ __ __ __ __ __ __ __ __ __ _
 72
    65
 73
     2
 40
9.524999999999998
 49
6.349999999999999
 74
     0
 49
-3.174999999999999
 74
     0
  0
ENDTAB
  0
TABLE
  2
LAYER
  5
2
102
{ACAD_XDICTIONARY
360
7BFE
102
}
330
0
100
AcDbSymbolTable
 70
     9
  0
LAYER
  5
E
330
2
100
AcDbSymbolTableRecord
100
AcDbLayerTableRecord
  2
0
 70
     0
 62
     7
  6
CONTINUOUS
370
    -3
390
5CF2
  0
LAYER
  5
B9
330
2
100
AcDbSymbolTableRecord
100
AcDbLayerTableRecord
  2
dim
 70
     0
 62
     3
  6
CONTINUOUS
370
    -3
390
5CF2
  0
LAYER
  5
F2
330
2
100
AcDbSymbolTableRecord
100
AcDbLayerTableRecord
  2
DEFPOINTS
 70
     0
 62
     4
  6
CONTINUOUS
290
     0
370
    -3
390
5CF2
  0
LAYER
  5
5F8B
330
2
100
AcDbSymbolTableRecord
100
AcDbLayerTableRecord
  2
mark
 70
     0
 62
     6
  6
CONTINUOUS
370
    -3
390
5CF2
  0
LAYER
  5
644E
330
2
100
AcDbSymbolTableRecord
100
AcDbLayerTableRecord
  2
frame
 70
     0
 62
     9
  6
CONTINUOUS
370
    -3
390
5CF2
  0
LAYER
  5
650D
330
2
100
AcDbSymbolTableRecord
100
AcDbLayerTableRecord
  2
center
 70
     0
 62
     1
  6
CENTER
370
    -3
390
5CF2
  0
LAYER
  5
650E
330
2
100
AcDbSymbolTableRecord
100
AcDbLayerTableRecord
  2
bowle
 70
     0
 62
     4
  6
HIDDEN
370
    -3
390
5CF2
  0
LAYER
  5
650F
330
2
100
AcDbSymbolTableRecord
100
AcDbLayerTableRecord
  2
contour
 70
     0
 62
     2
  6
CONTINUOUS
370
    -3
390
5CF2
  0
LAYER
  5
6510
330
2
100
AcDbSymbolTableRecord
100
AcDbLayerTableRecord
  2
section
 70
     0
 62
     5
  6
CONTINUOUS
370
    -3
390
5CF2
  0
ENDTAB
  0
TABLE
  2
STYLE
  5
3
330
0
100
AcDbSymbolTable
 70
     4
  0
STYLE
  5
F
330
3
100
AcDbSymbolTableRecord
100
AcDbTextStyleTableRecord
  2
STANDARD
 70
     0
 40
0.0
 41
1.0
 50
0.0
 71
     0
 42
2.5
  3
txt.shx
  4
bigfont.shx
  0
STYLE
  5
BE
330
3
100
AcDbSymbolTableRecord
100
AcDbTextStyleTableRecord
  2
CN
 70
     0
 40
0.0
 41
1.0
 50
0.0
 71
     0
 42
2.5
  3
txt.shx
  4
gbcbig.shx
  0
STYLE
  5
5DCC
330
3
100
AcDbSymbolTableRecord
100
AcDbTextStyleTableRecord
  2
TW
 70
     0
 40
0.0
 41
1.0
 50
0.0
 71
     0
 42
5.0
  3
txt.shx
  4
chineset.shx
  0
STYLE
  5
DB4B
330
3
100
AcDbSymbolTableRecord
100
AcDbTextStyleTableRecord
  2
JL
 70
     0
 40
10.0
 41
0.5
 50
0.0
 71
     0
 42
5.0
  3
MS Mincho.ttf
  4

1001
ACAD
1000
MS Mincho
1071
    32785
  0
ENDTAB
  0
TABLE
  2
VIEW
  5
6
330
0
100
AcDbSymbolTable
 70
     0
  0
ENDTAB
  0
TABLE
  2
UCS
  5
7
330
0
100
AcDbSymbolTable
 70
     0
  0
ENDTAB
  0
TABLE
  2
APPID
  5
9
330
0
100
AcDbSymbolTable
 70
    11
  0
APPID
  5
10
330
9
100
AcDbSymbolTableRecord
100
AcDbRegAppTableRecord
  2
ACAD
 70
     0
  0
APPID
  5
7C91
330
9
100
AcDbSymbolTableRecord
100
AcDbRegAppTableRecord
  2
ACAD_DSTYLE_DIMEXT_LENGTH
 70
     0
  0
APPID
  5
7C92
330
9
100
AcDbSymbolTableRecord
100
AcDbRegAppTableRecord
  2
ACAD_DSTYLE_DIMEXT_ENABLED
 70
     0
  0
APPID
  5
7C93
330
9
100
AcDbSymbolTableRecord
100
AcDbRegAppTableRecord
  2
ACAD_DSTYLE_DIMJOGGED_JOGANGLE_SYMBOL
 70
     0
  0
APPID
  5
7C94
330
9
100
AcDbSymbolTableRecord
100
AcDbRegAppTableRecord
  2
ACAD_DSTYLE_DIMARC_LENGTH_SYMBOL
 70
     0
  0
APPID
  5
7F1C
330
9
100
AcDbSymbolTableRecord
100
AcDbRegAppTableRecord
  2
ACAD_EXEMPT_FROM_CAD_STANDARDS
 70
     0
  0
APPID
  5
7F49
330
9
100
AcDbSymbolTableRecord
100
AcDbRegAppTableRecord
  2
ACAD_DSTYLE_DIMTEXT_FILL
 70
     0
  0
APPID
  5
7F4C
330
9
100
AcDbSymbolTableRecord
100
AcDbRegAppTableRecord
  2
ACAD_DSTYLE_DIM_LINETYPE
 70
     0
  0
APPID
  5
7F4D
330
9
100
AcDbSymbolTableRecord
100
AcDbRegAppTableRecord
  2
ACAD_DSTYLE_DIM_EXT1_LINETYPE
 70
     0
  0
APPID
  5
7F4E
330
9
100
AcDbSymbolTableRecord
100
AcDbRegAppTableRecord
  2
ACAD_DSTYLE_DIM_EXT2_LINETYPE
 70
     0
  0
APPID
  5
8C73
330
9
100
AcDbSymbolTableRecord
100
AcDbRegAppTableRecord
  2
ACAD_PSEXT
 70
     0
  0
ENDTAB
  0
TABLE
  2
DIMSTYLE
  5
A
330
0
100
AcDbSymbolTable
 70
     1
100
AcDbDimStyleTable
 71
     1
340
1D
  0
DIMSTYLE
105
1D
102
{ACAD_REACTORS
330
D8F4
330
D912
330
D91E
330
D92B
330
D938
330
D952
330
D9AF
330
D9F8
102
}
330
A
100
AcDbSymbolTableRecord
100
AcDbDimStyleTableRecord
  2
STANDARD
 70
     0
 41
2.5
 42
0.85
 44
0.85
 73
     0
 74
     0
 77
     3
 78
     8
 79
     2
140
2.5
147
0.85
172
     1
176
   256
177
   256
178
     3
179
     2
271
     2
272
     2
340
F
341
7C04
342
7C04
1001
ACAD_DSTYLE_DIMEXT_LENGTH
1070
   378
1040
0.18
1001
ACAD_DSTYLE_DIMEXT_ENABLED
1070
   383
1070
     0
1001
ACAD_DSTYLE_DIMARC_LENGTH_SYMBOL
1070
   379
1070
     0
1001
ACAD_DSTYLE_DIMJOGGED_JOGANGLE_SYMBOL
1070
   384
1040
1.570796326794896
  0
ENDTAB
  0
TABLE
  2
BLOCK_RECORD
  5
1
330
0
100
AcDbSymbolTable
 70
    15
  0
BLOCK_RECORD
  5
18
102
{ACAD_XDICTIONARY
360
45F
102
}
330
1
100
AcDbSymbolTableRecord
100
AcDbBlockTableRecord
  2
*MODEL_SPACE
340
5CF5
  0
BLOCK_RECORD
  5
15
102
{ACAD_XDICTIONARY
360
5D89
102
}
330
1
100
AcDbSymbolTableRecord
100
AcDbBlockTableRecord
  2
*PAPER_SPACE
340
5CF6
  0
BLOCK_RECORD
  5
639D
330
1
100
AcDbSymbolTableRecord
100
AcDbBlockTableRecord
  2
A$C255C26A2
340
0
  0
BLOCK_RECORD
  5
7C04
330
1
100
AcDbSymbolTableRecord
100
AcDbBlockTableRecord
  2
_Open30
340
0
102
{BLKREFS
331
DA46
331
DA47
331
DA4E
331
DA4F
331
DA55
331
DA56
331
DA5E
331
DA5F
331
DA69
331
DA6A
331
DA72
331
DA73
331
DA7B
331
DA7C
331
DA84
331
DA85
102
}
  0
BLOCK_RECORD
  5
7C0A
102
{ACAD_XDICTIONARY
360
7C0B
102
}
330
1
100
AcDbSymbolTableRecord
100
AcDbBlockTableRecord
  2
A
340
0
310
2800000020000000200000000100080000000000000400000000000000000000000000000000000000000000000080000080000000808000800000008000800080800000C0C0C000C0DCC000F0CAA6000020400000206000002080000020A0000020C0000020E00000400000004020000040400000406000004080000040A0
310
000040C0000040E00000600000006020000060400000606000006080000060A0000060C0000060E00000800000008020000080400000806000008080000080A0000080C0000080E00000A0000000A0200000A0400000A0600000A0800000A0A00000A0C00000A0E00000C0000000C0200000C0400000C0600000C0800000C0
310
A00000C0C00000C0E00000E0000000E0200000E0400000E0600000E0800000E0A00000E0C00000E0E00040000000400020004000400040006000400080004000A0004000C0004000E00040200000402020004020400040206000402080004020A0004020C0004020E000404000004040200040404000404060004040800040
310
40A0004040C0004040E00040600000406020004060400040606000406080004060A0004060C0004060E00040800000408020004080400040806000408080004080A0004080C0004080E00040A0000040A0200040A0400040A0600040A0800040A0A00040A0C00040A0E00040C0000040C0200040C0400040C0600040C08000
310
40C0A00040C0C00040C0E00040E0000040E0200040E0400040E0600040E0800040E0A00040E0C00040E0E00080000000800020008000400080006000800080008000A0008000C0008000E00080200000802020008020400080206000802080008020A0008020C0008020E00080400000804020008040400080406000804080
310
008040A0008040C0008040E00080600000806020008060400080606000806080008060A0008060C0008060E00080800000808020008080400080806000808080008080A0008080C0008080E00080A0000080A0200080A0400080A0600080A0800080A0A00080A0C00080A0E00080C0000080C0200080C0400080C0600080C0
310
800080C0A00080C0C00080C0E00080E0000080E0200080E0400080E0600080E0800080E0A00080E0C00080E0E000C0000000C0002000C0004000C0006000C0008000C000A000C000C000C000E000C0200000C0202000C0204000C0206000C0208000C020A000C020C000C020E000C0400000C0402000C0404000C0406000C0
310
408000C040A000C040C000C040E000C0600000C0602000C0604000C0606000C0608000C060A000C060C000C060E000C0800000C0802000C0804000C0806000C0808000C080A000C080C000C080E000C0A00000C0A02000C0A04000C0A06000C0A08000C0A0A000C0A0C000C0A0E000C0C00000C0C02000C0C04000C0C06000
310
C0C08000C0C0A000F0FBFF00A4A0A000808080000000FF0000FF000000FFFF00FF000000FF00FF00FFFF0000FFFFFF0000000000000000000000000000000000000000000000000000000000000000000000000000000000000000000000000000000000000000000000000000000000000000000000000000000000000000
310
00000000000000000000000000000000000000000000000000000000000000000000000000000000000000000000000000000000000000000000000000000000000000000000000000000000000000000000000000000000000000000000000000000000000000000000000000000000000000000000000000000000000000
310
00000000000000000000000000000000000000000000000000000000000000000000000000000000000000000000000000000000000000000000000000000000000000000000000000000000000000000000000000000000000000000000000000000000000000000000000000000000000000000000000000000000000000
310
000000000000FDFDFDFDFDFDFDFDFDFDFDFD0000FD0000000000000000000000000000000000FD0000FA0000000000FA00FD0000FDFD00000000000000000000000000000000FD0000FA0000000000FA00FD0000FDFDFD000000000000000000000000000000FD0000FA0000000000FA00FD0000FDFDFDFD00000000000000
310
00000000000000FD0000FAFAFAFAFAFAFA00FD0000FDFDFDFDFD00000000000000000000000000FD000000FA00000000FA00FD0000FDFDFDFDFDFDFDFDFDFDFDFDFDFDFDFDFDFDFD000000FA000000FA0000FD0000FDFDFDFDFD00000000000000000000000000FD00000000FA0000FA0000FD0000FDFDFDFD000000000000
310
0000000000000000FD00000000FA00FA000000FD0000FDFD00000000000000000000000000000000FD0000000000FAFA000000FD0000FD0000000000000000000000000000000000FD0000000000FA00000000FD0000000000000000000000000000000000000000FDFDFDFDFDFDFDFDFDFDFDFD0000000000000000000000
310
00000000000000000000000000000000000000000000000000000000000000000000000000000000000000000000000000000000000000000000000000000000000000000000000000000000000000000000000000000000000000000000000000000000000000000000000000000000000000000000000000000000000000
310
00000000000000000000000000000000000000000000000000000000000000000000000000000000000000000000000000000000000000000000000000000000000000000000000000000000000000000000000000000000000000000000000000000000000000000000000000000000000000000000000000000000000000
310
0000000000000000000000000000000000000000000000000000000000000000000000000000000000000000000000000000000000000000
  0
BLOCK_RECORD
  5
8E72
102
{ACAD_XDICTIONARY
360
8E73
102
}
330
1
100
AcDbSymbolTableRecord
100
AcDbBlockTableRecord
  2
LS
340
0
310
2800000020000000200000000100080000000000000400000000000000000000000000000000000000000000000080000080000000808000800000008000800080800000C0C0C000C0DCC000F0CAA6000020400000206000002080000020A0000020C0000020E00000400000004020000040400000406000004080000040A0
310
000040C0000040E00000600000006020000060400000606000006080000060A0000060C0000060E00000800000008020000080400000806000008080000080A0000080C0000080E00000A0000000A0200000A0400000A0600000A0800000A0A00000A0C00000A0E00000C0000000C0200000C0400000C0600000C0800000C0
310
A00000C0C00000C0E00000E0000000E0200000E0400000E0600000E0800000E0A00000E0C00000E0E00040000000400020004000400040006000400080004000A0004000C0004000E00040200000402020004020400040206000402080004020A0004020C0004020E000404000004040200040404000404060004040800040
310
40A0004040C0004040E00040600000406020004060400040606000406080004060A0004060C0004060E00040800000408020004080400040806000408080004080A0004080C0004080E00040A0000040A0200040A0400040A0600040A0800040A0A00040A0C00040A0E00040C0000040C0200040C0400040C0600040C08000
310
40C0A00040C0C00040C0E00040E0000040E0200040E0400040E0600040E0800040E0A00040E0C00040E0E00080000000800020008000400080006000800080008000A0008000C0008000E00080200000802020008020400080206000802080008020A0008020C0008020E00080400000804020008040400080406000804080
310
008040A0008040C0008040E00080600000806020008060400080606000806080008060A0008060C0008060E00080800000808020008080400080806000808080008080A0008080C0008080E00080A0000080A0200080A0400080A0600080A0800080A0A00080A0C00080A0E00080C0000080C0200080C0400080C0600080C0
310
800080C0A00080C0C00080C0E00080E0000080E0200080E0400080E0600080E0800080E0A00080E0C00080E0E000C0000000C0002000C0004000C0006000C0008000C000A000C000C000C000E000C0200000C0202000C0204000C0206000C0208000C020A000C020C000C020E000C0400000C0402000C0404000C0406000C0
310
408000C040A000C040C000C040E000C0600000C0602000C0604000C0606000C0608000C060A000C060C000C060E000C0800000C0802000C0804000C0806000C0808000C080A000C080C000C080E000C0A00000C0A02000C0A04000C0A06000C0A08000C0A0A000C0A0C000C0A0E000C0C00000C0C02000C0C04000C0C06000
310
C0C08000C0C0A000F0FBFF00A4A0A000808080000000FF0000FF000000FFFF00FF000000FF00FF00FFFF0000FFFFFF00000000000000000000000000000000000000000000000000000000000000000000000000000000000000FBFBFEFBFEFBFBFEFBFEFBFB00000000000000000000000000000000000000FBFBFBFEFBFE
310
FBFBFEFBFEFBFBFB000000000000000000000000000000000000FB0000FE00FE0000FE00FE0000FB000000000000000000000000000000000000FB0000FE00FE0000FE00FE0000FB000000000000000000000000000000000000FB0000FEFEFEFEFEFEFEFE0000FB000000000000000000000000000000000000FB000000FE
310
FE0000FEFE000000FB000000000000000000000000000000000000FB0000000000FEFE0000000000FB000000000000000000000000000000000000FBFBFBFEFBFBFBFBFBFBFEFBFBFB000000000000000000000000000000000000000000FBFE0000000000FE000000000000000000000000000000000000000000000000FB
310
FBFBFBFBFBFEFB000000000000000000000000000000000000000000000000FBFE00000000FEFB000000000000000000000000000000000000000000000000FBFE00000000FEFB000000000000000000000000000000000000000000000000FBFE00000000FEFB000000000000000000000000000000000000000000000000
310
FBFE00000000FEFB000000000000000000000000000000000000000000000000FBFE00000000FEFB000000000000000000000000000000000000000000000000FBFE00000000FEFB000000000000000000000000000000000000000000000000FBFE00000000FEFB0000000000000000000000000000000000000000000000
310
00FBFE00000000FEFB000000000000000000000000000000000000000000000000FBFE00000000FEFB000000000000000000000000000000000000000000000000FBFE00000000FEFB000000000000000000000000000000000000000000000000FBFE00000000FEFB00000000000000000000000000000000000000000000
310
0000FBFE00000000FEFB000000000000000000000000000000000000000000000000FBFE00000000FEFB000000000000000000000000000000000000000000000000FBFE00000000FEFB000000000000000000000000000000000000000000000000FBFE00000000FEFB000000000000000000000000000000000000000000
310
000000FBFE00000000FEFB000000000000000000000000000000000000000000000000FBFE00000000FEFB000000000000000000000000000000000000000000000000FBFEFBFBFBFBFEFB00000000000000000000000000000000000000000000000000FE00000000FEFB0000000000000000000000000000000000000000
310
0000000000FBFBFBFBFBFB000000000000000000000000000000000000000000000000000000000000000000000000000000000000000000
  0
BLOCK_RECORD
  5
9D15
102
{ACAD_XDICTIONARY
360
9D16
102
}
330
1
100
AcDbSymbolTableRecord
100
AcDbBlockTableRecord
  2
LS2
340
0
310
2800000020000000200000000100080000000000000400000000000000000000000000000000000000000000000080000080000000808000800000008000800080800000C0C0C000C0DCC000F0CAA6000020400000206000002080000020A0000020C0000020E00000400000004020000040400000406000004080000040A0
310
000040C0000040E00000600000006020000060400000606000006080000060A0000060C0000060E00000800000008020000080400000806000008080000080A0000080C0000080E00000A0000000A0200000A0400000A0600000A0800000A0A00000A0C00000A0E00000C0000000C0200000C0400000C0600000C0800000C0
310
A00000C0C00000C0E00000E0000000E0200000E0400000E0600000E0800000E0A00000E0C00000E0E00040000000400020004000400040006000400080004000A0004000C0004000E00040200000402020004020400040206000402080004020A0004020C0004020E000404000004040200040404000404060004040800040
310
40A0004040C0004040E00040600000406020004060400040606000406080004060A0004060C0004060E00040800000408020004080400040806000408080004080A0004080C0004080E00040A0000040A0200040A0400040A0600040A0800040A0A00040A0C00040A0E00040C0000040C0200040C0400040C0600040C08000
310
40C0A00040C0C00040C0E00040E0000040E0200040E0400040E0600040E0800040E0A00040E0C00040E0E00080000000800020008000400080006000800080008000A0008000C0008000E00080200000802020008020400080206000802080008020A0008020C0008020E00080400000804020008040400080406000804080
310
008040A0008040C0008040E00080600000806020008060400080606000806080008060A0008060C0008060E00080800000808020008080400080806000808080008080A0008080C0008080E00080A0000080A0200080A0400080A0600080A0800080A0A00080A0C00080A0E00080C0000080C0200080C0400080C0600080C0
310
800080C0A00080C0C00080C0E00080E0000080E0200080E0400080E0600080E0800080E0A00080E0C00080E0E000C0000000C0002000C0004000C0006000C0008000C000A000C000C000C000E000C0200000C0202000C0204000C0206000C0208000C020A000C020C000C020E000C0400000C0402000C0404000C0406000C0
310
408000C040A000C040C000C040E000C0600000C0602000C0604000C0606000C0608000C060A000C060C000C060E000C0800000C0802000C0804000C0806000C0808000C080A000C080C000C080E000C0A00000C0A02000C0A04000C0A06000C0A08000C0A0A000C0A0C000C0A0E000C0C00000C0C02000C0C04000C0C06000
310
C0C08000C0C0A000F0FBFF00A4A0A000808080000000FF0000FF000000FFFF00FF000000FF00FF00FFFF0000FFFFFF0000000000000000000000000000000000000000000000000000000000000000000000000000000000000000FBFBFEFEFBFBFEFEFBFB00000000000000000000000000000000000000000000FBFBFEFE
310
FBFBFEFEFBFB00000000000000000000000000000000000000000000FB00FEFE0000FEFE00FB00000000000000000000000000000000000000000000FB00FEFE0000FEFE00FB00000000000000000000000000000000000000000000FB00FEFEFEFEFEFE00FB00000000000000000000000000000000000000000000FB0000
310
FEFEFE000000FB00000000000000000000000000000000000000000000FBFBFEFBFBFBFBFEFBFB000000000000000000000000000000000000000000000000FBFBFBFBFBFE0000000000000000000000000000000000000000000000000000FE00000000FE0000000000000000000000000000000000000000000000000000
310
FE00000000FE0000000000000000000000000000000000000000000000000000FE00000000FE0000000000000000000000000000000000000000000000000000FE00000000FE0000000000000000000000000000000000000000000000000000FE00000000FE00000000000000000000000000000000000000000000000000
310
00FE00000000FE0000000000000000000000000000000000000000000000000000FE00000000FE0000000000000000000000000000000000000000000000000000FE00000000FE0000000000000000000000000000000000000000000000000000FE00000000FE000000000000000000000000000000000000000000000000
310
0000FE00000000FE0000000000000000000000000000000000000000000000000000FE00000000FE0000000000000000000000000000000000000000000000000000FE00000000FE0000000000000000000000000000000000000000000000000000FE00000000FE0000000000000000000000000000000000000000000000
310
000000FE00000000FE0000000000000000000000000000000000000000000000000000FE00000000FE0000000000000000000000000000000000000000000000000000FE00000000FE0000000000000000000000000000000000000000000000000000FE00000000FE00000000000000000000000000000000000000000000
310
00000000FE00000000FE0000000000000000000000000000000000000000000000000000FE00000000FE0000000000000000000000000000000000000000000000000000FEFBFBFBFBFE0000000000000000000000000000000000000000000000000000FEFB000000FE000000000000000000000000000000000000000000
310
000000000000FBFBFBFB00000000000000000000000000000000000000000000000000000000000000000000000000000000000000000000
  0
BLOCK_RECORD
  5
A518
102
{ACAD_XDICTIONARY
360
A519
102
}
330
1
100
AcDbSymbolTableRecord
100
AcDbBlockTableRecord
  2
LS3
340
0
310
2800000020000000200000000100080000000000000400000000000000000000000000000000000000000000000080000080000000808000800000008000800080800000C0C0C000C0DCC000F0CAA6000020400000206000002080000020A0000020C0000020E00000400000004020000040400000406000004080000040A0
310
000040C0000040E00000600000006020000060400000606000006080000060A0000060C0000060E00000800000008020000080400000806000008080000080A0000080C0000080E00000A0000000A0200000A0400000A0600000A0800000A0A00000A0C00000A0E00000C0000000C0200000C0400000C0600000C0800000C0
310
A00000C0C00000C0E00000E0000000E0200000E0400000E0600000E0800000E0A00000E0C00000E0E00040000000400020004000400040006000400080004000A0004000C0004000E00040200000402020004020400040206000402080004020A0004020C0004020E000404000004040200040404000404060004040800040
310
40A0004040C0004040E00040600000406020004060400040606000406080004060A0004060C0004060E00040800000408020004080400040806000408080004080A0004080C0004080E00040A0000040A0200040A0400040A0600040A0800040A0A00040A0C00040A0E00040C0000040C0200040C0400040C0600040C08000
310
40C0A00040C0C00040C0E00040E0000040E0200040E0400040E0600040E0800040E0A00040E0C00040E0E00080000000800020008000400080006000800080008000A0008000C0008000E00080200000802020008020400080206000802080008020A0008020C0008020E00080400000804020008040400080406000804080
310
008040A0008040C0008040E00080600000806020008060400080606000806080008060A0008060C0008060E00080800000808020008080400080806000808080008080A0008080C0008080E00080A0000080A0200080A0400080A0600080A0800080A0A00080A0C00080A0E00080C0000080C0200080C0400080C0600080C0
310
800080C0A00080C0C00080C0E00080E0000080E0200080E0400080E0600080E0800080E0A00080E0C00080E0E000C0000000C0002000C0004000C0006000C0008000C000A000C000C000C000E000C0200000C0202000C0204000C0206000C0208000C020A000C020C000C020E000C0400000C0402000C0404000C0406000C0
310
408000C040A000C040C000C040E000C0600000C0602000C0604000C0606000C0608000C060A000C060C000C060E000C0800000C0802000C0804000C0806000C0808000C080A000C080C000C080E000C0A00000C0A02000C0A04000C0A06000C0A08000C0A0A000C0A0C000C0A0E000C0C00000C0C02000C0C04000C0C06000
310
C0C08000C0C0A000F0FBFF00A4A0A000808080000000FF0000FF000000FFFF00FF000000FF00FF00FFFF0000FFFFFF0000000000000000000000000000000000000000000000000000000000000000000000000000000000000000FBFBFEFEFBFBFEFEFBFB00000000000000000000000000000000000000000000FBFBFEFE
310
FBFBFEFEFBFB00000000000000000000000000000000000000000000FB00FEFE0000FEFE00FB00000000000000000000000000000000000000000000FB00FEFEFEFEFEFE00FB00000000000000000000000000000000000000000000FB0000FEFE00FE0000FB00000000000000000000000000000000000000000000FB0000
310
0000FE000000FB00000000000000000000000000000000000000000000FBFBFEFBFBFBFBFBFBFB000000000000000000000000000000000000000000000000FE00000000FE0000000000000000000000000000000000000000000000000000FE00000000FE0000000000000000000000000000000000000000000000000000
310
FE00000000FE0000000000000000000000000000000000000000000000000000FE00000000FE0000000000000000000000000000000000000000000000000000FE00000000FE0000000000000000000000000000000000000000000000000000FE00000000FE00000000000000000000000000000000000000000000000000
310
00FE00000000FE0000000000000000000000000000000000000000000000000000FE00000000FE0000000000000000000000000000000000000000000000000000FE00000000FE0000000000000000000000000000000000000000000000000000FE00000000FE000000000000000000000000000000000000000000000000
310
0000FE00000000FE0000000000000000000000000000000000000000000000000000FE00000000FE0000000000000000000000000000000000000000000000000000FE00000000FE0000000000000000000000000000000000000000000000000000FE00000000FE0000000000000000000000000000000000000000000000
310
000000FE00000000FE0000000000000000000000000000000000000000000000000000FE00000000FE0000000000000000000000000000000000000000000000000000FE00000000FE0000000000000000000000000000000000000000000000000000FE00000000FE00000000000000000000000000000000000000000000
310
00000000FE00000000FE0000000000000000000000000000000000000000000000000000FE00000000FE0000000000000000000000000000000000000000000000000000FE00000000FE0000000000000000000000000000000000000000000000000000FEFBFBFBFBFE000000000000000000000000000000000000000000
310
000000000000FBFBFBFB00000000000000000000000000000000000000000000000000000000000000000000000000000000000000000000
102
{BLKREFS
331
D65C
102
}
  0
BLOCK_RECORD
  5
A627
102
{ACAD_XDICTIONARY
360
A628
102
}
330
1
100
AcDbSymbolTableRecord
100
AcDbBlockTableRecord
  2
LS4
340
0
310
2800000020000000200000000100080000000000000400000000000000000000000000000000000000000000000080000080000000808000800000008000800080800000C0C0C000C0DCC000F0CAA6000020400000206000002080000020A0000020C0000020E00000400000004020000040400000406000004080000040A0
310
000040C0000040E00000600000006020000060400000606000006080000060A0000060C0000060E00000800000008020000080400000806000008080000080A0000080C0000080E00000A0000000A0200000A0400000A0600000A0800000A0A00000A0C00000A0E00000C0000000C0200000C0400000C0600000C0800000C0
310
A00000C0C00000C0E00000E0000000E0200000E0400000E0600000E0800000E0A00000E0C00000E0E00040000000400020004000400040006000400080004000A0004000C0004000E00040200000402020004020400040206000402080004020A0004020C0004020E000404000004040200040404000404060004040800040
310
40A0004040C0004040E00040600000406020004060400040606000406080004060A0004060C0004060E00040800000408020004080400040806000408080004080A0004080C0004080E00040A0000040A0200040A0400040A0600040A0800040A0A00040A0C00040A0E00040C0000040C0200040C0400040C0600040C08000
310
40C0A00040C0C00040C0E00040E0000040E0200040E0400040E0600040E0800040E0A00040E0C00040E0E00080000000800020008000400080006000800080008000A0008000C0008000E00080200000802020008020400080206000802080008020A0008020C0008020E00080400000804020008040400080406000804080
310
008040A0008040C0008040E00080600000806020008060400080606000806080008060A0008060C0008060E00080800000808020008080400080806000808080008080A0008080C0008080E00080A0000080A0200080A0400080A0600080A0800080A0A00080A0C00080A0E00080C0000080C0200080C0400080C0600080C0
310
800080C0A00080C0C00080C0E00080E0000080E0200080E0400080E0600080E0800080E0A00080E0C00080E0E000C0000000C0002000C0004000C0006000C0008000C000A000C000C000C000E000C0200000C0202000C0204000C0206000C0208000C020A000C020C000C020E000C0400000C0402000C0404000C0406000C0
310
408000C040A000C040C000C040E000C0600000C0602000C0604000C0606000C0608000C060A000C060C000C060E000C0800000C0802000C0804000C0806000C0808000C080A000C080C000C080E000C0A00000C0A02000C0A04000C0A06000C0A08000C0A0A000C0A0C000C0A0E000C0C00000C0C02000C0C04000C0C06000
310
C0C08000C0C0A000F0FBFF00A4A0A000808080000000FF0000FF000000FFFF00FF000000FF00FF00FFFF0000FFFFFF0000000000000000000000000000000000000000000000000000000000000000000000000000000000000000FBFBFEFEFBFBFEFEFBFB000000000000000000000000000000000000000000FBFBFBFEFE
310
FBFBFEFEFBFBFB0000000000000000000000000000000000000000FB0000FEFE0000FEFE0000FB0000000000000000000000000000000000000000FB0000FEFEFEFEFEFE0000FB0000000000000000000000000000000000000000FB000000FEFE00FE000000FB0000000000000000000000000000000000000000FB000000
310
0000FE00000000FB0000000000000000000000000000000000000000FB00000000000000000000FB0000000000000000000000000000000000000000FBFBFEFEFBFBFBFBFBFBFBFB00000000000000000000000000000000000000000000FBFE00000000FEFB000000000000000000000000000000000000000000000000FB
310
FE00000000FEFB000000000000000000000000000000000000000000000000FBFE00000000FEFB000000000000000000000000000000000000000000000000FBFE00000000FEFB000000000000000000000000000000000000000000000000FBFE00000000FEFB000000000000000000000000000000000000000000000000
310
FBFE00000000FEFB000000000000000000000000000000000000000000000000FBFE00000000FEFB000000000000000000000000000000000000000000000000FBFE00000000FEFB000000000000000000000000000000000000000000000000FBFE00000000FEFB0000000000000000000000000000000000000000000000
310
00FBFE00000000FEFB000000000000000000000000000000000000000000000000FBFE00000000FEFB000000000000000000000000000000000000000000000000FBFE00000000FEFB000000000000000000000000000000000000000000000000FBFE00000000FEFB00000000000000000000000000000000000000000000
310
0000FBFE00000000FEFB000000000000000000000000000000000000000000000000FBFE00000000FEFB000000000000000000000000000000000000000000000000FBFE00000000FEFB000000000000000000000000000000000000000000000000FBFE00000000FEFB000000000000000000000000000000000000000000
310
000000FBFE00000000FEFB000000000000000000000000000000000000000000000000FBFE00000000FEFB000000000000000000000000000000000000000000000000FBFEFBFBFBFBFEFB00000000000000000000000000000000000000000000000000FE00000000FE000000000000000000000000000000000000000000
310
000000000000FBFBFBFB00000000000000000000000000000000000000000000000000000000000000000000000000000000000000000000
  0
BLOCK_RECORD
  5
D8F5
330
1
100
AcDbSymbolTableRecord
100
AcDbBlockTableRecord
  2
*D7
340
0
  0
BLOCK_RECORD
  5
D913
330
1
100
AcDbSymbolTableRecord
100
AcDbBlockTableRecord
  2
*D8
340
0
  0
BLOCK_RECORD
  5
D91F
330
1
100
AcDbSymbolTableRecord
100
AcDbBlockTableRecord
  2
*D9
340
0
  0
BLOCK_RECORD
  5
D92C
330
1
100
AcDbSymbolTableRecord
100
AcDbBlockTableRecord
  2
*D10
340
0
  0
BLOCK_RECORD
  5
D939
330
1
100
AcDbSymbolTableRecord
100
AcDbBlockTableRecord
  2
*D11
340
0
  0
BLOCK_RECORD
  5
D953
330
1
100
AcDbSymbolTableRecord
100
AcDbBlockTableRecord
  2
*D12
340
0
  0
BLOCK_RECORD
  5
D9B0
330
1
100
AcDbSymbolTableRecord
100
AcDbBlockTableRecord
  2
*D13
340
0
  0
BLOCK_RECORD
  5
D9F9
330
1
100
AcDbSymbolTableRecord
100
AcDbBlockTableRecord
  2
*D14
340
0
  0
ENDTAB
  0
ENDSEC
  0
SECTION
  2
BLOCKS
  0
BLOCK
  5
19
330
18
100
AcDbEntity
  8
0
100
AcDbBlockBegin
  2
*MODEL_SPACE
 70
     0
 10
0.0
 20
0.0
 30
0.0
  3
*MODEL_SPACE
  1

  0
ENDBLK
  5
1A
330
18
100
AcDbEntity
  8
0
100
AcDbBlockEnd
  0
BLOCK
  5
16
330
15
100
AcDbEntity
 67
     1
  8
0
100
AcDbBlockBegin
  2
*PAPER_SPACE
 70
     0
 10
0.0
 20
0.0
 30
0.0
  3
*PAPER_SPACE
  1

  0
ENDBLK
  5
17
330
15
100
AcDbEntity
 67
     1
  8
0
100
AcDbBlockEnd
  0
BLOCK
  5
63A1
330
639D
100
AcDbEntity
  8
0
100
AcDbBlockBegin
  2
A$C255C26A2
 70
     0
 10
0.0
 20
0.0
 30
0.0
  3
A$C255C26A2
  1

  0
LWPOLYLINE
  5
639E
330
639D
100
AcDbEntity
  8
0
100
AcDbPolyline
 90
        3
 70
     1
 43
0.0
 10
7.014806023851633
 20
0.0000006939811783
 10
5.611844869720698
 20
2.430000693981241
 10
8.417767177982568
 20
2.430000693981241
  0
LWPOLYLINE
  5
639F
330
639D
100
AcDbEntity
  8
0
100
AcDbPolyline
 90
        3
 70
     1
 43
0.0
 10
4.20888371558999
 20
0.0000006939811783
 10
2.805922561459283
 20
2.430000693981241
 10
5.611844869720698
 20
2.430000693981241
  0
LWPOLYLINE
  5
63A0
330
639D
100
AcDbEntity
  8
0
100
AcDbPolyline
 90
        3
 70
     1
 43
0.0
 10
1.402961407328348
 20
0.0000006939811783
 10
0.0000002531974133
 20
2.430000693981241
 10
2.805922561459283
 20
2.430000693981241
  0
ENDBLK
  5
63A2
330
639D
100
AcDbEntity
  8
0
100
AcDbBlockEnd
  0
BLOCK
  5
7C05
330
7C04
100
AcDbEntity
  8
0
100
AcDbBlockBegin
  2
_Open30
 70
     0
 10
0.0
 20
0.0
 30
0.0
  3
_Open30
  1

  0
LINE
  5
7C06
330
7C04
100
AcDbEntity
  8
0
  6
ByBlock
 62
     0
370
    -2
100
AcDbLine
 10
-1.0
 20
0.26794919
 30
0.0
 11
0.0
 21
0.0
 31
0.0
  0
LINE
  5
7C07
330
7C04
100
AcDbEntity
  8
0
  6
ByBlock
 62
     0
370
    -2
100
AcDbLine
 10
0.0
 20
0.0
 30
0.0
 11
-1.0
 21
-0.26794919
 31
0.0
  0
LINE
  5
7C08
330
7C04
100
AcDbEntity
  8
0
  6
ByBlock
 62
     0
370
    -2
100
AcDbLine
 10
0.0
 20
0.0
 30
0.0
 11
-1.0
 21
0.0
 31
0.0
  0
ENDBLK
  5
7C09
330
7C04
100
AcDbEntity
  8
0
100
AcDbBlockEnd
  0
BLOCK
  5
7C0E
330
7C0A
100
AcDbEntity
  8
0
100
AcDbBlockBegin
  2
A
 70
     0
 10
0.0
 20
0.0
 30
0.0
  3
A
  1

  0
MTEXT
  5
7C0F
330
7C0A
100
AcDbEntity
  8
mark
 62
     3
100
AcDbMText
 10
10.65641897020822
 20
-5.596245361730467
 30
0.0
 40
2.5
 41
0.0
 71
     5
 72
     1
  1
A
 73
     1
 44
1.0
1001
ACAD
1000
ACAD_MTEXT_DEFINED_HEIGHT_BEGIN
1070
    46
1040
0.0
1000
ACAD_MTEXT_DEFINED_HEIGHT_END
  0
LWPOLYLINE
  5
7C10
330
7C0A
100
AcDbEntity
  8
mark
100
AcDbPolyline
 90
        4
 70
     1
 43
0.0
 10
9.07926800414657
 20
-7.141145101782569
 10
12.07926800414657
 20
-7.141145101782569
 10
12.07926800414657
 20
-4.141145101782569
 10
9.07926800414657
 20
-4.141145101782569
  0
HATCH
  5
7C11
330
7C0A
100
AcDbEntity
  8
mark
100
AcDbHatch
 10
0.0
 20
0.0
 30
0.0
210
0.0
220
0.0
230
1.0
  2
SOLID
 70
     1
 71
     0
 91
        1
 92
        7
 72
     0
 73
     1
 93
        3
 10
5.32926800414657
 20
-5.641145101782569
 10
4.07926800414657
 20
-4.391145101782541
 10
4.07926800414657
 20
-6.891145101782541
 97
        0
 75
     0
 76
     1
 47
0.0398277943677868
 98
        1
 10
4.589689734415287
 20
-5.732163331855076
450
        0
451
        0
460
0.0
461
0.0
452
        1
462
1.0
453
        2
463
0.0
 63
     5
421
      255
463
1.0
 63
     7
421
 16777215
470
LINEAR
1001
ACAD
1010
0.0
1020
0.0
1030
0.0
  0
LINE
  5
7C12
330
7C0A
100
AcDbEntity
  8
mark
100
AcDbLine
 10
5.32926800414657
 20
-5.641145101782569
 30
0.0
 11
9.07926800414657
 21
-5.641145101782569
 31
0.0
  0
LINE
  5
7C13
330
7C0A
100
AcDbEntity
  8
mark
100
AcDbLine
 10
5.32926800414657
 20
-5.641145101782569
 30
0.0
 11
4.07926800414657
 21
-4.391145101782569
 31
0.0
  0
LINE
  5
7C14
330
7C0A
100
AcDbEntity
  8
mark
100
AcDbLine
 10
5.32926800414657
 20
-5.641145101782569
 30
0.0
 11
4.07926800414657
 21
-6.891145101782569
 31
0.0
  0
ENDBLK
  5
7C15
330
7C0A
100
AcDbEntity
  8
0
100
AcDbBlockEnd
  0
BLOCK
  5
8E76
330
8E72
100
AcDbEntity
  8
0
100
AcDbBlockBegin
  2
LS
 70
     0
 10
0.0
 20
0.0
 30
0.0
  3
LS
  1

  0
LINE
  5
8E78
330
8E72
100
AcDbEntity
  8
contour
100
AcDbLine
 10
310.7457309951603
 20
181.0160360664828
 30
0.0
 11
310.7457309951603
 21
184.7160360664827
 31
0.0
  0
LINE
  5
8E79
330
8E72
100
AcDbEntity
  8
contour
100
AcDbLine
 10
310.7457309951603
 20
184.7160360664827
 30
0.0
 11
303.7457309951603
 21
184.7160360664827
 31
0.0
  0
LINE
  5
8E7A
330
8E72
100
AcDbEntity
  8
contour
100
AcDbLine
 10
308.4457309951603
 20
196.7160360664827
 30
0.0
 11
306.0457309951603
 21
196.7160360664826
 31
0.0
  0
LINE
  5
8E7B
330
8E72
100
AcDbEntity
  8
contour
100
AcDbLine
 10
309.2457309951603
 20
195.9160360664826
 30
0.0
 11
308.4457309951603
 21
196.7160360664826
 31
0.0
  0
LINE
  5
8E7C
330
8E72
100
AcDbEntity
  8
contour
100
AcDbLine
 10
303.7457309951603
 20
184.7160360664827
 30
0.0
 11
303.7457309951603
 21
181.0160360664827
 31
0.0
  0
LINE
  5
8E7D
330
8E72
100
AcDbEntity
  8
contour
100
AcDbLine
 10
304.0457309951603
 20
180.7160360664827
 30
0.0
 11
310.4457309951603
 21
180.7160360664828
 31
0.0
  0
LINE
  5
8E7E
330
8E72
100
AcDbEntity
  8
contour
100
AcDbLine
 10
310.7457309951603
 20
181.0160360664828
 30
0.0
 11
310.4457309951603
 21
180.7160360664828
 31
0.0
  0
LINE
  5
8E7F
330
8E72
100
AcDbEntity
  8
contour
100
AcDbLine
 10
303.7457309951603
 20
181.0160360664827
 30
0.0
 11
304.0457309951603
 21
180.7160360664827
 31
0.0
  0
LINE
  5
8E80
330
8E72
100
AcDbEntity
  8
contour
100
AcDbLine
 10
309.2457309951603
 20
184.7160360664826
 30
0.0
 11
309.2457309951603
 21
195.9160360664827
 31
0.0
  0
LINE
  5
8E81
330
8E72
100
AcDbEntity
  8
contour
100
AcDbLine
 10
305.2457309951603
 20
184.7160360664826
 30
0.0
 11
305.2457309951603
 21
195.9160360664827
 31
0.0
  0
LINE
  5
8E82
330
8E72
100
AcDbEntity
  8
contour
100
AcDbLine
 10
306.0457309951603
 20
196.7160360664826
 30
0.0
 11
305.2457309951603
 21
195.9160360664826
 31
0.0
  0
LINE
  5
8E83
330
8E72
100
AcDbEntity
  8
contour
100
AcDbLine
 10
309.2457309951603
 20
195.9160360664827
 30
0.0
 11
305.2457309951603
 21
195.9160360664827
 31
0.0
  0
LINE
  5
8E84
330
8E72
100
AcDbEntity
  8
contour
 62
     4
100
AcDbLine
 10
308.8667309951603
 20
185.3724833225513
 30
0.0
 11
308.8667309951603
 21
196.2950360664826
 31
0.0
  0
LINE
  5
8E85
330
8E72
100
AcDbEntity
  8
contour
 62
     4
100
AcDbLine
 10
305.6247309951603
 20
185.3724833225513
 30
0.0
 11
305.6247309951603
 21
196.2950360664826
 31
0.0
  0
LINE
  5
8E86
330
8E72
100
AcDbEntity
  8
contour
100
AcDbLine
 10
310.7457309951603
 20
181.0160360664828
 30
0.0
 11
303.7457309951603
 21
181.0160360664828
 31
0.0
  0
LINE
  5
8E87
330
8E72
100
AcDbEntity
  8
bowle
 48
0.1
100
AcDbLine
 10
308.1117563989447
 20
180.7160360664827
 30
0.0
 11
308.1117563989447
 21
182.9160360664827
 31
0.0
  0
LINE
  5
8E88
330
8E72
100
AcDbEntity
  8
bowle
 48
0.1
100
AcDbLine
 10
308.9777818027293
 20
180.7160360664827
 30
0.0
 11
308.9777818027293
 21
182.9160360664827
 31
0.0
  0
LINE
  5
8E89
330
8E72
100
AcDbEntity
  8
bowle
 48
0.1
100
AcDbLine
 10
306.3797055913759
 20
180.7160360664827
 30
0.0
 11
306.3797055913759
 21
182.9160360664826
 31
0.0
  0
LINE
  5
8E8A
330
8E72
100
AcDbEntity
  8
bowle
 48
0.1
100
AcDbLine
 10
305.5136801875914
 20
180.7160360664827
 30
0.0
 11
305.5136801875914
 21
182.9160360664826
 31
0.0
  0
LINE
  5
8E8B
330
8E72
100
AcDbEntity
  8
bowle
 48
0.1
100
AcDbLine
 10
308.9777818027292
 20
182.9160360664827
 30
0.0
 11
305.5136801875914
 21
182.9160360664827
 31
0.0
  0
LINE
  5
8E8C
330
8E72
100
AcDbEntity
  8
bowle
 48
0.1
100
AcDbLine
 10
305.5136801875914
 20
182.9160360664826
 30
0.0
 11
307.2457309951603
 21
183.9160360664826
 31
0.0
  0
LINE
  5
8E8D
330
8E72
100
AcDbEntity
  8
bowle
 48
0.1
100
AcDbLine
 10
308.9777818027292
 20
182.9160360664826
 30
0.0
 11
307.2457309951603
 21
183.9160360664826
 31
0.0
  0
LINE
  5
8E8E
330
8E72
100
AcDbEntity
  8
contour
 62
     4
100
AcDbLine
 10
305.6247309951603
 20
185.3724833225513
 30
0.0
 11
305.2457309951603
 21
184.7160360664826
 31
0.0
  0
LINE
  5
8E8F
330
8E72
100
AcDbEntity
  8
contour
100
AcDbLine
 10
305.2457309951603
 20
185.3724833225513
 30
0.0
 11
309.2457309951603
 21
185.3724833225513
 31
0.0
  0
LINE
  5
8E90
330
8E72
100
AcDbEntity
  8
contour
 62
     4
100
AcDbLine
 10
309.2457309951603
 20
184.7160360664827
 30
0.0
 11
308.8667309951603
 21
185.3724833225513
 31
0.0
  0
ENDBLK
  5
8E77
330
8E72
100
AcDbEntity
  8
0
100
AcDbBlockEnd
  0
BLOCK
  5
9D19
330
9D15
100
AcDbEntity
  8
0
100
AcDbBlockBegin
  2
LS2
 70
     0
 10
0.0
 20
0.0
 30
0.0
  3
LS2
  1

  0
LINE
  5
9D1B
330
9D15
100
AcDbEntity
  8
contour
100
AcDbLine
 10
143.2797554375081
 20
0.0655328110734672
 30
0.0
 11
143.2797554375081
 21
3.765532811073398
 31
0.0
  0
LINE
  5
9D1C
330
9D15
100
AcDbEntity
  8
contour
100
AcDbLine
 10
143.2797554375081
 20
3.765532811073398
 30
0.0
 11
136.2797554375081
 21
3.765532811073398
 31
0.0
  0
LINE
  5
9D1D
330
9D15
100
AcDbEntity
  8
contour
100
AcDbLine
 10
140.979755437508
 20
19.7655328110734
 30
0.0
 11
138.5797554375081
 21
19.76553281107334
 31
0.0
  0
LINE
  5
9D1E
330
9D15
100
AcDbEntity
  8
contour
100
AcDbLine
 10
141.7797554375081
 20
18.96553281107333
 30
0.0
 11
140.9797554375081
 21
19.76553281107334
 31
0.0
  0
LINE
  5
9D1F
330
9D15
100
AcDbEntity
  8
contour
100
AcDbLine
 10
136.2797554375081
 20
3.765532811073398
 30
0.0
 11
136.2797554375081
 21
0.0655328110733535
 31
0.0
  0
LINE
  5
9D20
330
9D15
100
AcDbEntity
  8
contour
100
AcDbLine
 10
136.5797554375081
 20
-0.2344671889266578
 30
0.0
 11
142.9797554375081
 21
-0.2344671889265442
 31
0.0
  0
LINE
  5
9D21
330
9D15
100
AcDbEntity
  8
contour
100
AcDbLine
 10
143.2797554375081
 20
0.0655328110734672
 30
0.0
 11
142.9797554375081
 21
-0.2344671889265442
 31
0.0
  0
LINE
  5
9D22
330
9D15
100
AcDbEntity
  8
contour
100
AcDbLine
 10
136.2797554375081
 20
0.0655328110733535
 30
0.0
 11
136.5797554375081
 21
-0.2344671889266578
 31
0.0
  0
LINE
  5
9D23
330
9D15
100
AcDbEntity
  8
contour
100
AcDbLine
 10
141.7797554375081
 20
3.765532811073342
 30
0.0
 11
141.7797554375081
 21
18.96553281107339
 31
0.0
  0
LINE
  5
9D24
330
9D15
100
AcDbEntity
  8
contour
100
AcDbLine
 10
137.7797554375081
 20
3.765532811073342
 30
0.0
 11
137.7797554375081
 21
18.96553281107339
 31
0.0
  0
LINE
  5
9D25
330
9D15
100
AcDbEntity
  8
contour
100
AcDbLine
 10
138.5797554375081
 20
19.76553281107334
 30
0.0
 11
137.7797554375081
 21
18.96553281107333
 31
0.0
  0
LINE
  5
9D26
330
9D15
100
AcDbEntity
  8
contour
100
AcDbLine
 10
141.7797554375081
 20
18.96553281107339
 30
0.0
 11
137.7797554375081
 21
18.96553281107339
 31
0.0
  0
LINE
  5
9D27
330
9D15
100
AcDbEntity
  8
contour
 62
     4
100
AcDbLine
 10
141.400755437508
 20
4.42198006714193
 30
0.0
 11
141.4007554375081
 21
19.34453281107327
 31
0.0
  0
LINE
  5
9D28
330
9D15
100
AcDbEntity
  8
contour
 62
     4
100
AcDbLine
 10
138.1587554375081
 20
4.42198006714193
 30
0.0
 11
138.1587554375081
 21
19.34453281107336
 31
0.0
  0
LINE
  5
9D29
330
9D15
100
AcDbEntity
  8
contour
100
AcDbLine
 10
143.2797554375081
 20
0.0655328110734672
 30
0.0
 11
136.2797554375081
 21
0.0655328110735241
 31
0.0
  0
LINE
  5
9D2A
330
9D15
100
AcDbEntity
  8
bowle
 48
0.1
100
AcDbLine
 10
140.6457808412925
 20
-0.234467188926601
 30
0.0
 11
140.6457808412925
 21
1.965532811073387
 31
0.0
  0
LINE
  5
9D2B
330
9D15
100
AcDbEntity
  8
bowle
 48
0.1
100
AcDbLine
 10
141.511806245077
 20
-0.2344671889266578
 30
0.0
 11
141.511806245077
 21
1.965532811073387
 31
0.0
  0
LINE
  5
9D2C
330
9D15
100
AcDbEntity
  8
bowle
 48
0.1
100
AcDbLine
 10
138.9137300337237
 20
-0.234467188926601
 30
0.0
 11
138.9137300337237
 21
1.96553281107333
 31
0.0
  0
LINE
  5
9D2D
330
9D15
100
AcDbEntity
  8
bowle
 48
0.1
100
AcDbLine
 10
138.0477046299392
 20
-0.2344671889266578
 30
0.0
 11
138.0477046299391
 21
1.96553281107333
 31
0.0
  0
LINE
  5
9D2E
330
9D15
100
AcDbEntity
  8
bowle
 48
0.1
100
AcDbLine
 10
141.511806245077
 20
1.965532811073387
 30
0.0
 11
138.0477046299391
 21
1.965532811073387
 31
0.0
  0
LINE
  5
9D2F
330
9D15
100
AcDbEntity
  8
bowle
 48
0.1
100
AcDbLine
 10
138.0477046299391
 20
1.96553281107333
 30
0.0
 11
139.779755437508
 21
2.96553281107333
 31
0.0
  0
LINE
  5
9D30
330
9D15
100
AcDbEntity
  8
bowle
 48
0.1
100
AcDbLine
 10
141.511806245077
 20
1.96553281107333
 30
0.0
 11
139.779755437508
 21
2.96553281107333
 31
0.0
  0
LINE
  5
9D31
330
9D15
100
AcDbEntity
  8
contour
 62
     4
100
AcDbLine
 10
138.1587554375081
 20
4.421980067141987
 30
0.0
 11
137.7797554375081
 21
3.765532811073342
 31
0.0
  0
LINE
  5
9D32
330
9D15
100
AcDbEntity
  8
contour
100
AcDbLine
 10
137.7797554375081
 20
4.42198006714193
 30
0.0
 11
141.7797554375081
 21
4.42198006714193
 31
0.0
  0
LINE
  5
9D33
330
9D15
100
AcDbEntity
  8
contour
 62
     4
100
AcDbLine
 10
141.7797554375081
 20
3.765532811073398
 30
0.0
 11
141.400755437508
 21
4.42198006714193
 31
0.0
  0
ENDBLK
  5
9D1A
330
9D15
100
AcDbEntity
  8
0
100
AcDbBlockEnd
  0
BLOCK
  5
A51C
330
A518
100
AcDbEntity
  8
0
100
AcDbBlockBegin
  2
LS3
 70
     0
 10
0.0
 20
0.0
 30
0.0
  3
LS3
  1

  0
LINE
  5
A51E
330
A518
100
AcDbEntity
  8
contour
100
AcDbLine
 10
329.8877449821333
 20
4.477662871771769
 30
0.0
 11
329.8877449821333
 21
8.177662871771701
 31
0.0
  0
LINE
  5
A51F
330
A518
100
AcDbEntity
  8
contour
100
AcDbLine
 10
329.8877449821333
 20
8.177662871771701
 30
0.0
 11
336.8877449821333
 21
8.177662871771701
 31
0.0
  0
LINE
  5
A520
330
A518
100
AcDbEntity
  8
contour
100
AcDbLine
 10
332.1877449821334
 20
26.1776628717717
 30
0.0
 11
334.5877449821334
 21
26.17766287177165
 31
0.0
  0
LINE
  5
A521
330
A518
100
AcDbEntity
  8
contour
100
AcDbLine
 10
331.3877449821333
 20
25.37766287177163
 30
0.0
 11
332.1877449821334
 21
26.17766287177165
 31
0.0
  0
LINE
  5
A522
330
A518
100
AcDbEntity
  8
contour
100
AcDbLine
 10
336.8877449821333
 20
8.177662871771701
 30
0.0
 11
336.8877449821333
 21
4.477662871771656
 31
0.0
  0
LINE
  5
A523
330
A518
100
AcDbEntity
  8
contour
100
AcDbLine
 10
336.5877449821334
 20
4.177662871771644
 30
0.0
 11
330.1877449821334
 21
4.177662871771758
 31
0.0
  0
LINE
  5
A524
330
A518
100
AcDbEntity
  8
contour
100
AcDbLine
 10
329.8877449821333
 20
4.477662871771769
 30
0.0
 11
330.1877449821334
 21
4.177662871771758
 31
0.0
  0
LINE
  5
A525
330
A518
100
AcDbEntity
  8
contour
100
AcDbLine
 10
336.8877449821333
 20
4.477662871771656
 30
0.0
 11
336.5877449821334
 21
4.177662871771644
 31
0.0
  0
LINE
  5
A526
330
A518
100
AcDbEntity
  8
contour
100
AcDbLine
 10
331.3877449821333
 20
8.177662871771644
 30
0.0
 11
331.3877449821334
 21
25.37766287177168
 31
0.0
  0
LINE
  5
A527
330
A518
100
AcDbEntity
  8
contour
100
AcDbLine
 10
335.3877449821333
 20
8.177662871771644
 30
0.0
 11
335.3877449821333
 21
25.37766287177166
 31
0.0
  0
LINE
  5
A528
330
A518
100
AcDbEntity
  8
contour
100
AcDbLine
 10
334.5877449821334
 20
26.17766287177165
 30
0.0
 11
335.3877449821333
 21
25.37766287177163
 31
0.0
  0
LINE
  5
A529
330
A518
100
AcDbEntity
  8
contour
100
AcDbLine
 10
331.3877449821333
 20
25.37766287177169
 30
0.0
 11
335.3877449821333
 21
25.37766287177169
 31
0.0
  0
LINE
  5
A52A
330
A518
100
AcDbEntity
  8
contour
 62
     4
100
AcDbLine
 10
331.7667449821333
 20
8.834110127840233
 30
0.0
 11
331.7667449821333
 21
25.75666287177167
 31
0.0
  0
LINE
  5
A52B
330
A518
100
AcDbEntity
  8
contour
 62
     4
100
AcDbLine
 10
335.0087449821333
 20
8.834110127840233
 30
0.0
 11
335.0087449821334
 21
25.75666287177161
 31
0.0
  0
LINE
  5
A52C
330
A518
100
AcDbEntity
  8
contour
100
AcDbLine
 10
329.8877449821333
 20
4.477662871771769
 30
0.0
 11
336.8877449821333
 21
4.477662871771826
 31
0.0
  0
LINE
  5
A52D
330
A518
100
AcDbEntity
  8
bowle
 48
0.1
100
AcDbLine
 10
332.5217195783489
 20
4.177662871771701
 30
0.0
 11
332.5217195783489
 21
6.37766287177169
 31
0.0
  0
LINE
  5
A52E
330
A518
100
AcDbEntity
  8
bowle
 48
0.1
100
AcDbLine
 10
331.6556941745643
 20
4.177662871771644
 30
0.0
 11
331.6556941745643
 21
6.37766287177169
 31
0.0
  0
LINE
  5
A52F
330
A518
100
AcDbEntity
  8
bowle
 48
0.1
100
AcDbLine
 10
334.2537703859177
 20
4.177662871771701
 30
0.0
 11
334.2537703859177
 21
6.377662871771633
 31
0.0
  0
LINE
  5
A530
330
A518
100
AcDbEntity
  8
bowle
 48
0.1
100
AcDbLine
 10
335.1197957897023
 20
4.177662871771644
 30
0.0
 11
335.1197957897023
 21
6.377662871771633
 31
0.0
  0
LINE
  5
A531
330
A518
100
AcDbEntity
  8
bowle
 48
0.1
100
AcDbLine
 10
331.6556941745645
 20
6.37766287177169
 30
0.0
 11
335.1197957897023
 21
6.37766287177169
 31
0.0
  0
LINE
  5
A532
330
A518
100
AcDbEntity
  8
bowle
 48
0.1
100
AcDbLine
 10
335.1197957897023
 20
6.377662871771633
 30
0.0
 11
333.3877449821334
 21
7.377662871771633
 31
0.0
  0
LINE
  5
A533
330
A518
100
AcDbEntity
  8
bowle
 48
0.1
100
AcDbLine
 10
331.6556941745645
 20
6.377662871771633
 30
0.0
 11
333.3877449821334
 21
7.377662871771633
 31
0.0
  0
LINE
  5
A534
330
A518
100
AcDbEntity
  8
contour
 62
     4
100
AcDbLine
 10
335.0087449821333
 20
8.83411012784029
 30
0.0
 11
335.3877449821333
 21
8.177662871771644
 31
0.0
  0
LINE
  5
A535
330
A518
100
AcDbEntity
  8
contour
100
AcDbLine
 10
335.3877449821333
 20
8.834110127840233
 30
0.0
 11
331.3877449821333
 21
8.834110127840233
 31
0.0
  0
LINE
  5
A536
330
A518
100
AcDbEntity
  8
contour
 62
     4
100
AcDbLine
 10
331.3877449821333
 20
8.177662871771701
 30
0.0
 11
331.7667449821333
 21
8.834110127840233
 31
0.0
  0
ENDBLK
  5
A51D
330
A518
100
AcDbEntity
  8
0
100
AcDbBlockEnd
  0
BLOCK
  5
A62B
330
A627
100
AcDbEntity
  8
0
100
AcDbBlockBegin
  2
LS4
 70
     0
 10
0.0
 20
0.0
 30
0.0
  3
LS4
  1

  0
LINE
  5
A62D
330
A627
100
AcDbEntity
  8
contour
100
AcDbLine
 10
402.9074768226647
 20
108.9417821167274
 30
0.0
 11
410.8074768226646
 21
108.9417821167274
 31
0.0
  0
LINE
  5
A62E
330
A627
100
AcDbEntity
  8
contour
100
AcDbLine
 10
411.1074768226647
 20
109.2417821167273
 30
0.0
 11
411.1074768226647
 21
113.9417821167274
 31
0.0
  0
LINE
  5
A62F
330
A627
100
AcDbEntity
  8
contour
100
AcDbLine
 10
410.8074768226646
 20
108.9417821167274
 30
0.0
 11
411.1074768226647
 21
109.2417821167273
 31
0.0
  0
LINE
  5
A630
330
A627
100
AcDbEntity
  8
contour
100
AcDbLine
 10
411.1074768226647
 20
113.9417821167274
 30
0.0
 11
402.6074768226647
 21
113.9417821167274
 31
0.0
  0
LINE
  5
A631
330
A627
100
AcDbEntity
  8
contour
100
AcDbLine
 10
408.4574768226646
 20
131.9417821167274
 30
0.0
 11
405.2574768226646
 21
131.9417821167273
 31
0.0
  0
LINE
  5
A632
330
A627
100
AcDbEntity
  8
contour
100
AcDbLine
 10
409.3574768226646
 20
131.0417821167273
 30
0.0
 11
408.4574768226646
 21
131.9417821167274
 31
0.0
  0
LINE
  5
A633
330
A627
100
AcDbEntity
  8
contour
100
AcDbLine
 10
402.6074768226647
 20
113.9417821167274
 30
0.0
 11
402.6074768226647
 21
109.2417821167273
 31
0.0
  0
LINE
  5
A634
330
A627
100
AcDbEntity
  8
contour
100
AcDbLine
 10
402.9074768226647
 20
108.9417821167274
 30
0.0
 11
402.6074768226647
 21
109.2417821167273
 31
0.0
  0
LINE
  5
A635
330
A627
100
AcDbEntity
  8
contour
100
AcDbLine
 10
402.6074768226647
 20
109.2417821167273
 30
0.0
 11
411.1074768226647
 21
109.2417821167273
 31
0.0
  0
LINE
  5
A636
330
A627
100
AcDbEntity
  8
contour
100
AcDbLine
 10
404.3574768226647
 20
113.9417821167274
 30
0.0
 11
404.3574768226647
 21
131.0417821167273
 31
0.0
  0
LINE
  5
A637
330
A627
100
AcDbEntity
  8
contour
100
AcDbLine
 10
405.2574768226646
 20
131.9417821167273
 30
0.0
 11
404.3574768226647
 21
131.0417821167273
 31
0.0
  0
LINE
  5
A638
330
A627
100
AcDbEntity
  8
contour
100
AcDbLine
 10
409.3574768226647
 20
113.9417821167274
 30
0.0
 11
409.3574768226646
 21
131.0417821167273
 31
0.0
  0
LINE
  5
A639
330
A627
100
AcDbEntity
  8
contour
100
AcDbLine
 10
404.3574768226647
 20
131.0417821167273
 30
0.0
 11
409.3574768226646
 21
131.0417821167273
 31
0.0
  0
LINE
  5
A63A
330
A627
100
AcDbEntity
  8
contour
 62
     4
100
AcDbLine
 10
404.7904768226646
 20
114.6917601164047
 30
0.0
 11
404.7904768226647
 21
131.4747821167274
 31
0.0
  0
LINE
  5
A63B
330
A627
100
AcDbEntity
  8
contour
 62
     4
100
AcDbLine
 10
408.9244768226647
 20
114.6917601164048
 30
0.0
 11
408.9244768226647
 21
131.4747821167273
 31
0.0
  0
LINE
  5
A63C
330
A627
100
AcDbEntity
  8
contour
 62
     4
100
AcDbLine
 10
408.9244768226646
 20
114.6917601164048
 30
0.0
 11
409.3574768226647
 21
113.9417821167274
 31
0.0
  0
LINE
  5
A63D
330
A627
100
AcDbEntity
  8
contour
100
AcDbLine
 10
409.3574768226647
 20
114.6917601164048
 30
0.0
 11
404.3574768226647
 21
114.6917601164048
 31
0.0
  0
LINE
  5
A63E
330
A627
100
AcDbEntity
  8
contour
 62
     4
100
AcDbLine
 10
404.7904768226647
 20
114.6917601164048
 30
0.0
 11
404.3574768226647
 21
113.9417821167274
 31
0.0
  0
LINE
  5
A63F
330
A627
100
AcDbEntity
  8
bowle
 48
0.2
100
AcDbLine
 10
404.5480757459062
 20
108.9417821167274
 30
0.0
 11
404.5480757459062
 21
111.4417821167274
 31
0.0
  0
LINE
  5
A640
330
A627
100
AcDbEntity
  8
bowle
 48
0.2
100
AcDbLine
 10
409.1668778994232
 20
108.9417821167274
 30
0.0
 11
409.1668778994232
 21
111.4417821167274
 31
0.0
  0
LINE
  5
A641
330
A627
100
AcDbEntity
  8
bowle
 48
0.2
100
AcDbLine
 10
404.5480757459062
 20
111.4417821167274
 30
0.0
 11
409.1668778994232
 21
111.4417821167274
 31
0.0
  0
LINE
  5
A642
330
A627
100
AcDbEntity
  8
bowle
 48
0.2
100
AcDbLine
 10
405.7027762842854
 20
111.4417821167274
 30
0.0
 11
405.7027762842854
 21
108.9417821167274
 31
0.0
  0
LINE
  5
A643
330
A627
100
AcDbEntity
  8
bowle
 48
0.2
100
AcDbLine
 10
408.0121773610439
 20
111.4417821167274
 30
0.0
 11
408.0121773610439
 21
108.9417821167274
 31
0.0
  0
LINE
  5
A644
330
A627
100
AcDbEntity
  8
bowle
 48
0.2
100
AcDbLine
 10
409.1668778994232
 20
111.4417821167274
 30
0.0
 11
406.8574768226646
 21
112.7751154500606
 31
0.0
  0
LINE
  5
A645
330
A627
100
AcDbEntity
  8
bowle
 48
0.2
100
AcDbLine
 10
404.5480757459062
 20
111.4417821167274
 30
0.0
 11
406.8574768226646
 21
112.7751154500606
 31
0.0
  0
ENDBLK
  5
A62C
330
A627
100
AcDbEntity
  8
0
100
AcDbBlockEnd
  0
BLOCK
  5
D8FE
330
D8F5
100
AcDbEntity
  8
0
100
AcDbBlockBegin
  2
*D7
 70
     1
 10
0.0
 20
0.0
 30
0.0
  3
*D7
  1

  0
LINE
  5
DA42
330
D8F5
100
AcDbEntity
  8
mark
370
    -2
100
AcDbLine
 10
151.5824745172331
 20
207.297993806339
 30
0.0
 11
129.4749117981689
 21
203.424812436393
 31
0.0
  0
LINE
  5
DA43
330
D8F5
100
AcDbEntity
  8
mark
370
    -2
100
AcDbLine
 10
60.52508820183117
 20
191.345001757665
 30
0.0
 11
58.06259450196197
 21
190.9135799477104
 31
0.0
  0
MTEXT
  5
DA44
330
D8F5
100
AcDbEntity
  8
mark
 62
     3
100
AcDbMText
 10
143.077434362637
 20
207.9399203959793
 30
0.0
 40
2.5
 41
0.0
 71
     5
 72
     1
  1
\A1;P.C.D 65
 11
0.9849974799476816
 21
0.172568723981828
 31
0.0
 73
     1
 44
1.0
  0
LINE
  5
DA45
330
D8F5
100
AcDbEntity
  8
mark
370
    -2
100
AcDbLine
 10
62.98758190170037
 20
191.7764235676195
 30
0.0
 11
127.0124180982997
 21
202.9933906264384
 31
0.0
  0
INSERT
  5
DA46
330
D8F5
100
AcDbEntity
  8
mark
370
    -2
100
AcDbBlockReference
  2
_Open30
 10
62.98758190170037
 20
191.7764235676195
 30
0.0
 41
2.5
 42
2.5
 43
2.5
 50
9.937203807655423
  0
INSERT
  5
DA47
330
D8F5
100
AcDbEntity
  8
mark
370
    -2
100
AcDbBlockReference
  2
_Open30
 10
127.0124180982997
 20
202.9933906264384
 30
0.0
 41
2.5
 42
2.5
 43
2.5
 50
189.9372038076554
  0
POINT
  5
DA48
330
D8F5
100
AcDbEntity
  8
DEFPOINTS
 62
     0
100
AcDbPoint
 10
127.0124180982997
 20
202.9933906264384
 30
0.0
  0
POINT
  5
DA49
330
D8F5
100
AcDbEntity
  8
DEFPOINTS
 62
     0
100
AcDbPoint
 10
62.98758190170037
 20
191.7764235676195
 30
0.0
  0
ENDBLK
  5
D8FF
330
D8F5
100
AcDbEntity
  8
0
100
AcDbBlockEnd
  0
BLOCK
  5
D91C
330
D913
100
AcDbEntity
  8
0
100
AcDbBlockBegin
  2
*D8
 70
     1
 10
0.0
 20
0.0
 30
0.0
  3
*D8
  1

  0
LINE
  5
DA4A
330
D913
100
AcDbEntity
  8
mark
370
    -2
100
AcDbLine
 10
152.6060092557096
 20
217.6484171965475
 30
0.0
 11
128.7243839889589
 21
209.2478082837237
 31
0.0
  0
LINE
  5
DA4B
330
D913
100
AcDbEntity
  8
mark
370
    -2
100
AcDbLine
 10
61.27561601104105
 20
185.5220059103339
 30
0.0
 11
58.91726748034464
 21
184.6924324007748
 31
0.0
  0
MTEXT
  5
DA4C
330
D913
100
AcDbEntity
  8
mark
 62
     3
100
AcDbMText
 10
142.5386626790463
 20
216.3332578843511
 30
0.0
 40
2.5
 41
0.0
 71
     5
 72
     1
  1
\A1;P.C.D 66.5
 11
0.9433394122785582
 21
0.3318294038236277
 31
0.0
 73
     1
 44
1.0
  0
LINE
  5
DA4D
330
D913
100
AcDbEntity
  8
mark
370
    -2
100
AcDbLine
 10
63.63396454173744
 20
186.351579419893
 30
0.0
 11
126.3660354582625
 21
208.4182347741647
 31
0.0
  0
INSERT
  5
DA4E
330
D913
100
AcDbEntity
  8
mark
370
    -2
100
AcDbBlockReference
  2
_Open30
 10
63.63396454173744
 20
186.351579419893
 30
0.0
 41
2.5
 42
2.5
 43
2.5
 50
19.37985052504505
  0
INSERT
  5
DA4F
330
D913
100
AcDbEntity
  8
mark
370
    -2
100
AcDbBlockReference
  2
_Open30
 10
126.3660354582625
 20
208.4182347741647
 30
0.0
 41
2.5
 42
2.5
 43
2.5
 50
199.3798505250451
  0
POINT
  5
DA50
330
D913
100
AcDbEntity
  8
DEFPOINTS
 62
     0
100
AcDbPoint
 10
126.3660354582625
 20
208.4182347741647
 30
0.0
  0
POINT
  5
DA51
330
D913
100
AcDbEntity
  8
DEFPOINTS
 62
     0
100
AcDbPoint
 10
63.63396454173744
 20
186.351579419893
 30
0.0
  0
ENDBLK
  5
D91D
330
D913
100
AcDbEntity
  8
0
100
AcDbBlockEnd
  0
BLOCK
  5
D929
330
D91F
100
AcDbEntity
  8
0
100
AcDbBlockBegin
  2
*D9
 70
     1
 10
0.0
 20
0.0
 30
0.0
  3
*D9
  1

  0
LINE
  5
DA52
330
D91F
100
AcDbEntity
  8
mark
370
    -2
100
AcDbLine
 10
57.65
 20
121.4093089688329
 30
0.0
 11
47.92461258560839
 21
121.4093089688329
 31
0.0
  0
LINE
  5
DA53
330
D91F
100
AcDbEntity
  8
mark
370
    -2
100
AcDbLine
 10
54.64999999999989
 20
112.4093089688328
 30
0.0
 11
47.92461258560839
 21
112.4093089688328
 31
0.0
  0
LINE
  5
DA54
330
D91F
100
AcDbEntity
  8
mark
370
    -2
100
AcDbLine
 10
48.77461258560839
 20
118.9093089688328
 30
0.0
 11
48.77461258560839
 21
114.9093089688328
 31
0.0
  0
INSERT
  5
DA55
330
D91F
100
AcDbEntity
  8
mark
370
    -2
100
AcDbBlockReference
  2
_Open30
 10
48.77461258560839
 20
121.4093089688329
 30
0.0
 41
2.5
 42
2.5
 43
2.5
 50
90.0
  0
INSERT
  5
DA56
330
D91F
100
AcDbEntity
  8
mark
370
    -2
100
AcDbBlockReference
  2
_Open30
 10
48.77461258560839
 20
112.4093089688328
 30
0.0
 41
2.5
 42
2.5
 43
2.5
 50
270.0
  0
MTEXT
  5
DA57
330
D91F
100
AcDbEntity
  8
mark
 62
     3
100
AcDbMText
 10
46.67461258560837
 20
116.9093089688329
 30
0.0
 40
2.5
 41
0.0
 71
     5
 72
     1
  1
\A1;9
 11
0.0000000000000001
 21
1.0
 31
0.0
 73
     1
 44
1.0
  0
POINT
  5
DA58
330
D91F
100
AcDbEntity
  8
DEFPOINTS
 62
     0
100
AcDbPoint
 10
58.5
 20
121.4093089688329
 30
0.0
  0
POINT
  5
DA59
330
D91F
100
AcDbEntity
  8
DEFPOINTS
 62
     0
100
AcDbPoint
 10
55.49999999999989
 20
112.4093089688328
 30
0.0
  0
POINT
  5
DA5A
330
D91F
100
AcDbEntity
  8
DEFPOINTS
 62
     0
100
AcDbPoint
 10
48.77461258560839
 20
112.4093089688328
 30
0.0
  0
ENDBLK
  5
D92A
330
D91F
100
AcDbEntity
  8
0
100
AcDbBlockEnd
  0
BLOCK
  5
D936
330
D92C
100
AcDbEntity
  8
0
100
AcDbBlockBegin
  2
*D10
 70
     1
 10
0.0
 20
0.0
 30
0.0
  3
*D10
  1

  0
LINE
  5
DA5B
330
D92C
100
AcDbEntity
  8
mark
370
    -2
100
AcDbLine
 10
132.3499999999999
 20
121.4093089688329
 30
0.0
 11
142.9833500426961
 21
121.4093089688329
 31
0.0
  0
LINE
  5
DA5C
330
D92C
100
AcDbEntity
  8
mark
370
    -2
100
AcDbLine
 10
132.3500000000001
 20
104.1593089688329
 30
0.0
 11
142.9833500426961
 21
104.1593089688329
 31
0.0
  0
LINE
  5
DA5D
330
D92C
100
AcDbEntity
  8
mark
370
    -2
100
AcDbLine
 10
142.1333500426961
 20
118.9093089688328
 30
0.0
 11
142.1333500426961
 21
106.6593089688329
 31
0.0
  0
INSERT
  5
DA5E
330
D92C
100
AcDbEntity
  8
mark
370
    -2
100
AcDbBlockReference
  2
_Open30
 10
142.1333500426961
 20
121.4093089688329
 30
0.0
 41
2.5
 42
2.5
 43
2.5
 50
90.0
  0
INSERT
  5
DA5F
330
D92C
100
AcDbEntity
  8
mark
370
    -2
100
AcDbBlockReference
  2
_Open30
 10
142.1333500426961
 20
104.1593089688329
 30
0.0
 41
2.5
 42
2.5
 43
2.5
 50
270.0
  0
MTEXT
  5
DA60
330
D92C
100
AcDbEntity
  8
mark
 62
     3
100
AcDbMText
 10
140.0333500426961
 20
112.7843089688329
 30
0.0
 40
2.5
 41
0.0
 71
     5
 72
     1
  1
\A1;17.25
 11
0.0000000000000001
 21
1.0
 31
0.0
 73
     1
 44
1.0
  0
POINT
  5
DA61
330
D92C
100
AcDbEntity
  8
DEFPOINTS
 62
     0
100
AcDbPoint
 10
131.4999999999999
 20
121.4093089688329
 30
0.0
  0
POINT
  5
DA62
330
D92C
100
AcDbEntity
  8
DEFPOINTS
 62
     0
100
AcDbPoint
 10
131.5000000000001
 20
104.1593089688329
 30
0.0
  0
POINT
  5
DA63
330
D92C
100
AcDbEntity
  8
DEFPOINTS
 62
     0
100
AcDbPoint
 10
142.1333500426961
 20
104.1593089688329
 30
0.0
  0
ENDBLK
  5
D937
330
D92C
100
AcDbEntity
  8
0
100
AcDbBlockEnd
  0
BLOCK
  5
D945
330
D939
100
AcDbEntity
  8
0
100
AcDbBlockBegin
  2
*D11
 70
     1
 10
0.0
 20
0.0
 30
0.0
  3
*D11
  1

  0
LINE
  5
DA64
330
D939
100
AcDbEntity
  8
mark
370
    -2
100
AcDbLine
 10
132.3499999999999
 20
104.1593089688329
 30
0.0
 11
142.9833500426961
 21
104.1593089688329
 31
0.0
  0
LINE
  5
DA65
330
D939
100
AcDbEntity
  8
mark
370
    -2
100
AcDbLine
 10
132.3499999999999
 20
102.1593089688328
 30
0.0
 11
142.9833500426961
 21
102.1593089688328
 31
0.0
  0
LINE
  5
DA66
330
D939
100
AcDbEntity
  8
mark
370
    -2
100
AcDbLine
 10
142.1333500426961
 20
106.6593089688329
 30
0.0
 11
142.1333500426961
 21
109.1593089688329
 31
0.0
  0
LINE
  5
DA67
330
D939
100
AcDbEntity
  8
mark
370
    -2
100
AcDbLine
 10
142.1333500426961
 20
99.65930896883287
 30
0.0
 11
142.1333500426961
 21
97.15930896883287
 31
0.0
  0
LINE
  5
DA68
330
D939
100
AcDbEntity
  8
mark
370
    -2
100
AcDbLine
 10
142.1333500426961
 20
104.1593089688329
 30
0.0
 11
142.1333500426961
 21
102.1593089688328
 31
0.0
  0
INSERT
  5
DA69
330
D939
100
AcDbEntity
  8
mark
370
    -2
100
AcDbBlockReference
  2
_Open30
 10
142.1333500426961
 20
104.1593089688329
 30
0.0
 41
2.5
 42
2.5
 43
2.5
 50
270.0
  0
INSERT
  5
DA6A
330
D939
100
AcDbEntity
  8
mark
370
    -2
100
AcDbBlockReference
  2
_Open30
 10
142.1333500426961
 20
102.1593089688328
 30
0.0
 41
2.5
 42
2.5
 43
2.5
 50
90.0
  0
MTEXT
  5
DA6B
330
D939
100
AcDbEntity
  8
mark
 62
     3
100
AcDbMText
 10
140.0333500426961
 20
103.1593089688329
 30
0.0
 40
2.5
 41
0.0
 71
     5
 72
     1
  1
\A1;2
 11
0.0000000000000001
 21
1.0
 31
0.0
 73
     1
 44
1.0
  0
POINT
  5
DA6C
330
D939
100
AcDbEntity
  8
DEFPOINTS
 62
     0
100
AcDbPoint
 10
131.4999999999999
 20
104.1593089688329
 30
0.0
  0
POINT
  5
DA6D
330
D939
100
AcDbEntity
  8
DEFPOINTS
 62
     0
100
AcDbPoint
 10
131.4999999999999
 20
102.1593089688328
 30
0.0
  0
POINT
  5
DA6E
330
D939
100
AcDbEntity
  8
DEFPOINTS
 62
     0
100
AcDbPoint
 10
142.1333500426961
 20
102.1593089688328
 30
0.0
  0
ENDBLK
  5
D946
330
D939
100
AcDbEntity
  8
0
100
AcDbBlockEnd
  0
BLOCK
  5
D95D
330
D953
100
AcDbEntity
  8
0
100
AcDbBlockBegin
  2
*D12
 70
     1
 10
0.0
 20
0.0
 30
0.0
  3
*D12
  1

  0
LINE
  5
DA6F
330
D953
100
AcDbEntity
  8
mark
370
    -2
100
AcDbLine
 10
132.3499999999999
 20
121.4093089688329
 30
0.0
 11
152.8602459368773
 21
121.4093089688329
 31
0.0
  0
LINE
  5
DA70
330
D953
100
AcDbEntity
  8
mark
370
    -2
100
AcDbLine
 10
132.35
 20
96.40930896883288
 30
0.0
 11
152.8602459368773
 21
96.40930896883288
 31
0.0
  0
LINE
  5
DA71
330
D953
100
AcDbEntity
  8
mark
370
    -2
100
AcDbLine
 10
152.0102459368773
 20
118.9093089688328
 30
0.0
 11
152.0102459368773
 21
98.90930896883288
 31
0.0
  0
INSERT
  5
DA72
330
D953
100
AcDbEntity
  8
mark
370
    -2
100
AcDbBlockReference
  2
_Open30
 10
152.0102459368773
 20
121.4093089688329
 30
0.0
 41
2.5
 42
2.5
 43
2.5
 50
90.0
  0
INSERT
  5
DA73
330
D953
100
AcDbEntity
  8
mark
370
    -2
100
AcDbBlockReference
  2
_Open30
 10
152.0102459368773
 20
96.40930896883288
 30
0.0
 41
2.5
 42
2.5
 43
2.5
 50
270.0
  0
MTEXT
  5
DA74
330
D953
100
AcDbEntity
  8
mark
 62
     3
100
AcDbMText
 10
149.9102459368773
 20
108.9093089688329
 30
0.0
 40
2.5
 41
0.0
 71
     5
 72
     1
  1
\A1;25%%p0.2
 11
0.0000000000000001
 21
1.0
 31
0.0
 73
     1
 44
1.0
  0
POINT
  5
DA75
330
D953
100
AcDbEntity
  8
DEFPOINTS
 62
     0
100
AcDbPoint
 10
131.4999999999999
 20
121.4093089688329
 30
0.0
  0
POINT
  5
DA76
330
D953
100
AcDbEntity
  8
DEFPOINTS
 62
     0
100
AcDbPoint
 10
131.5
 20
96.40930896883288
 30
0.0
  0
POINT
  5
DA77
330
D953
100
AcDbEntity
  8
DEFPOINTS
 62
     0
100
AcDbPoint
 10
152.0102459368773
 20
96.40930896883288
 30
0.0
  0
ENDBLK
  5
D95E
330
D953
100
AcDbEntity
  8
0
100
AcDbBlockEnd
  0
BLOCK
  5
D9BA
330
D9B0
100
AcDbEntity
  8
0
100
AcDbBlockBegin
  2
*D13
 70
     1
 10
0.0
 20
0.0
 30
0.0
  3
*D13
  1

  0
LINE
  5
DA78
330
D9B0
100
AcDbEntity
  8
mark
370
    -2
100
AcDbLine
 10
67.5
 20
96.47680896883295
 30
0.0
 11
67.5
 21
83.78230073015069
 31
0.0
  0
LINE
  5
DA79
330
D9B0
100
AcDbEntity
  8
mark
370
    -2
100
AcDbLine
 10
122.4999999999999
 20
96.47680896883295
 30
0.0
 11
122.4999999999999
 21
83.78230073015069
 31
0.0
  0
LINE
  5
DA7A
330
D9B0
100
AcDbEntity
  8
mark
370
    -2
100
AcDbLine
 10
70.0
 20
84.63230073015068
 30
0.0
 11
119.9999999999999
 21
84.63230073015068
 31
0.0
  0
INSERT
  5
DA7B
330
D9B0
100
AcDbEntity
  8
mark
370
    -2
100
AcDbBlockReference
  2
_Open30
 10
67.5
 20
84.63230073015068
 30
0.0
 41
2.5
 42
2.5
 43
2.5
 50
180.0
  0
INSERT
  5
DA7C
330
D9B0
100
AcDbEntity
  8
mark
370
    -2
100
AcDbBlockReference
  2
_Open30
 10
122.4999999999999
 20
84.63230073015068
 30
0.0
 41
2.5
 42
2.5
 43
2.5
  0
MTEXT
  5
DA7D
330
D9B0
100
AcDbEntity
  8
mark
 62
     3
100
AcDbMText
 10
94.99999999999994
 20
86.73230073015067
 30
0.0
 40
2.5
 41
0.0
 71
     5
 72
     1
  1
\A1;M55x2.0P
 73
     1
 44
1.0
  0
POINT
  5
DA7E
330
D9B0
100
AcDbEntity
  8
DEFPOINTS
 62
     0
100
AcDbPoint
 10
67.5
 20
97.32680896883294
 30
0.0
  0
POINT
  5
DA7F
330
D9B0
100
AcDbEntity
  8
DEFPOINTS
 62
     0
100
AcDbPoint
 10
122.4999999999999
 20
97.32680896883294
 30
0.0
  0
POINT
  5
DA80
330
D9B0
100
AcDbEntity
  8
DEFPOINTS
 62
     0
100
AcDbPoint
 10
122.4999999999999
 20
84.63230073015068
 30
0.0
  0
ENDBLK
  5
D9BB
330
D9B0
100
AcDbEntity
  8
0
100
AcDbBlockEnd
  0
BLOCK
  5
DA03
330
D9F9
100
AcDbEntity
  8
0
100
AcDbBlockBegin
  2
*D14
 70
     1
 10
0.0
 20
0.0
 30
0.0
  3
*D14
  1

  0
LINE
  5
DA81
330
D9F9
100
AcDbEntity
  8
mark
370
    -2
100
AcDbLine
 10
57.5
 20
121.2593089688329
 30
0.0
 11
57.5
 21
129.0516966300454
 31
0.0
  0
LINE
  5
DA82
330
D9F9
100
AcDbEntity
  8
mark
370
    -2
100
AcDbLine
 10
132.4999999999999
 20
121.2593089688329
 30
0.0
 11
132.4999999999999
 21
129.0516966300454
 31
0.0
  0
LINE
  5
DA83
330
D9F9
100
AcDbEntity
  8
mark
370
    -2
100
AcDbLine
 10
60.0
 20
128.2016966300455
 30
0.0
 11
129.9999999999999
 21
128.2016966300455
 31
0.0
  0
INSERT
  5
DA84
330
D9F9
100
AcDbEntity
  8
mark
370
    -2
100
AcDbBlockReference
  2
_Open30
 10
57.5
 20
128.2016966300455
 30
0.0
 41
2.5
 42
2.5
 43
2.5
 50
180.0
  0
INSERT
  5
DA85
330
D9F9
100
AcDbEntity
  8
mark
370
    -2
100
AcDbBlockReference
  2
_Open30
 10
132.4999999999999
 20
128.2016966300455
 30
0.0
 41
2.5
 42
2.5
 43
2.5
  0
MTEXT
  5
DA86
330
D9F9
100
AcDbEntity
  8
mark
 62
     3
100
AcDbMText
 10
94.99999999999998
 20
130.3016966300455
 30
0.0
 40
2.5
 41
0.0
 71
     5
 72
     1
  1
\A1;%%c75
 73
     1
 44
1.0
  0
POINT
  5
DA87
330
D9F9
100
AcDbEntity
  8
DEFPOINTS
 62
     0
100
AcDbPoint
 10
57.5
 20
120.4093089688329
 30
0.0
  0
POINT
  5
DA88
330
D9F9
100
AcDbEntity
  8
DEFPOINTS
 62
     0
100
AcDbPoint
 10
132.4999999999999
 20
120.4093089688329
 30
0.0
  0
POINT
  5
DA89
330
D9F9
100
AcDbEntity
  8
DEFPOINTS
 62
     0
100
AcDbPoint
 10
132.4999999999999
 20
128.2016966300455
 30
0.0
  0
ENDBLK
  5
DA04
330
D9F9
100
AcDbEntity
  8
0
100
AcDbBlockEnd
  0
ENDSEC
  0
SECTION
  2
ENTITIES
  0
MTEXT
  5
C0
330
18
100
AcDbEntity
  8
0
100
AcDbMText
 10
41.26970765600413
 20
233.6950877649332
 30
0.0
 40
2.5
 41
0.0
 71
     1
 72
     5
  1

  7
CN
 73
     1
 44
1.0
  0
LWPOLYLINE
  5
AF44
330
18
100
AcDbEntity
  8
frame
100
AcDbPolyline
 90
        4
 70
     1
 43
0.0
 10
190.0
 20
280.0
 10
0.0
 20
280.0
 10
0.0
 20
0.0
 10
190.0
 20
0.0
  0
MTEXT
  5
AF45
330
18
100
AcDbEntity
  8
0
100
AcDbMText
 10
17.09950368689175
 20
19.07605901616614
 30
0.0
 40
5.0
 41
0.0
 71
     1
 72
     5
  1
{\Ftxt,bigfont|c128;\W0.5;林彦旭}
 73
     1
 44
1.0
1001
ACAD
1000
ACAD_MTEXT_DEFINED_HEIGHT_BEGIN
1070
    46
1040
0.0
1000
ACAD_MTEXT_DEFINED_HEIGHT_END
  0
MTEXT
  5
AF46
330
18
100
AcDbEntity
  8
0
100
AcDbMText
 10
77.95294729228851
 20
28.93578979870677
 30
0.0
 40
4.5
 41
0.0
 71
     1
 72
     5
  1
{\Ftxt,bigfont|c128;\W0.5;1 : 1}
 73
     1
 44
1.0
1001
ACAD
1000
ACAD_MTEXT_DEFINED_HEIGHT_BEGIN
1070
    46
1040
0.0
1000
ACAD_MTEXT_DEFINED_HEIGHT_END
  0
MTEXT
  5
AF47
330
18
100
AcDbEntity
  8
0
100
AcDbMText
 10
126.3732928177675
 20
8.303263321280269
 30
0.0
 40
5.0
 41
0.0
 71
     1
 72
     5
  1
{\Ftxt,bigfont|c128;\W0.5;N L 4 0 2 8 1}
 73
     1
 44
1.0
1001
ACAD
1000
ACAD_MTEXT_DEFINED_HEIGHT_BEGIN
1070
    46
1040
0.0
1000
ACAD_MTEXT_DEFINED_HEIGHT_END
  0
MTEXT
  5
AF48
330
18
100
AcDbEntity
  8
0
100
AcDbMText
 10
151.5700116201594
 20
27.85218499726989
 30
0.0
 40
5.0
 41
0.0
 71
     1
 72
     5
  1
\P{\Ftxt,bigfont|c128;\W0.5;MKR55X2.0P}
 73
     1
 44
1.0
1001
ACAD
1000
ACAD_MTEXT_DEFINED_HEIGHT_BEGIN
1070
    46
1040
0.0
1000
ACAD_MTEXT_DEFINED_HEIGHT_END
  0
MTEXT
  5
AF49
330
18
100
AcDbEntity
  8
0
100
AcDbMText
 10
15.3760677136774
 20
28.37740359834709
 30
0.0
 40
4.5
 41
0.0
 71
     1
 72
     5
  1
{\Ftxt,bigfont|c128;\W0.5;08.07.07}
 73
     1
 44
1.0
1001
ACAD
1000
ACAD_MTEXT_DEFINED_HEIGHT_BEGIN
1070
    46
1040
0.0
1000
ACAD_MTEXT_DEFINED_HEIGHT_END
  0
MTEXT
  5
AF4A
330
18
100
AcDbEntity
  8
0
100
AcDbMText
 10
9.2763627141411
 20
9.242195050049303
 30
0.0
 40
7.0
 41
0.0
 71
     1
 72
     5
  1
{\Ftxt,bigfont|c128;\W1.5;日機株式会社}
 73
     1
 44
1.0
1001
ACAD
1000
ACAD_MTEXT_DEFINED_HEIGHT_BEGIN
1070
    46
1040
0.0
1000
ACAD_MTEXT_DEFINED_HEIGHT_END
  0
LINE
  5
AF4B
330
18
100
AcDbEntity
  8
frame
100
AcDbLine
 10
0.0
 20
12.0
 30
0.0
 11
190.0
 21
12.00000000000005
 31
0.0
  0
LINE
  5
AF4C
330
18
100
AcDbEntity
  8
frame
100
AcDbLine
 10
0.0
 20
22.0
 30
0.0
 11
92.12121212121223
 21
22.0
 31
0.0
  0
LINE
  5
AF4D
330
18
100
AcDbEntity
  8
frame
100
AcDbLine
 10
0.0
 20
32.0
 30
0.0
 11
190.0
 21
32.0
 31
0.0
  0
LINE
  5
AF4E
330
18
100
AcDbEntity
  8
frame
100
AcDbLine
 10
12.19077332493799
 20
32.0
 30
0.0
 11
12.19077332493799
 21
12.0
 31
0.0
  0
LINE
  5
AF4F
330
18
100
AcDbEntity
  8
frame
100
AcDbLine
 10
30.70707070707067
 20
32.0
 30
0.0
 11
30.70707070707078
 21
12.0
 31
0.0
  0
MTEXT
  5
AF50
330
18
100
AcDbEntity
  8
0
100
AcDbMText
 10
2.830274784221955
 20
29.08190089582831
 30
0.0
 40
5.0
 41
0.0
 71
     1
 72
     5
  1
{\Ftxt,bigfont|c128;\W0.5;日 付}
 73
     1
 44
1.0
1001
ACAD
1000
ACAD_MTEXT_DEFINED_HEIGHT_BEGIN
1070
    46
1040
0.0
1000
ACAD_MTEXT_DEFINED_HEIGHT_END
  0
MTEXT
  5
AF51
330
18
100
AcDbEntity
  8
0
100
AcDbMText
 10
2.97063307743889
 20
19.52163842926637
 30
0.0
 40
5.0
 41
0.0
 71
     1
 72
     5
  1
{\Ftxt,bigfont|c128;\W0.5;製 図}
 73
     1
 44
1.0
1001
ACAD
1000
ACAD_MTEXT_DEFINED_HEIGHT_BEGIN
1070
    46
1040
0.0
1000
ACAD_MTEXT_DEFINED_HEIGHT_END
  0
LINE
  5
AF52
330
18
100
AcDbEntity
  8
0
 62
     7
370
    25
100
AcDbLine
 10
53.04580144287854
 20
23.81984609294597
 30
0.0
 11
53.04580144287854
 21
28.93622339589922
 31
0.0
  0
MTEXT
  5
AF53
330
18
100
AcDbEntity
  8
0
100
AcDbMText
 10
64.00748852490835
 20
29.12242703792379
 30
0.0
 40
5.0
 41
0.0
 71
     1
 72
     5
  1
{\Ftxt,bigfont|c128;\W0.5;尺 度}
 73
     1
 44
1.0
1001
ACAD
1000
ACAD_MTEXT_DEFINED_HEIGHT_BEGIN
1070
    46
1040
0.0
1000
ACAD_MTEXT_DEFINED_HEIGHT_END
  0
LINE
  5
AF54
330
18
100
AcDbEntity
  8
frame
100
AcDbLine
 10
61.41414141414145
 20
32.0
 30
0.0
 11
61.41414141414145
 21
12.0
 31
0.0
  0
LINE
  5
AF55
330
18
100
AcDbEntity
  8
0
 62
     7
370
    25
100
AcDbLine
 10
39.6153110226262
 20
23.18889018332635
 30
0.0
 11
39.6153110226262
 21
29.36457992429672
 31
0.0
  0
CIRCLE
  5
AF56
330
18
100
AcDbEntity
  8
0
 62
     7
100
AcDbCircle
 10
39.6153110226262
 20
26.37803474442251
 30
0.0
 40
2.558188651476678
  0
LINE
  5
AF57
330
18
100
AcDbEntity
  8
0
 62
     7
370
    25
100
AcDbLine
 10
47.19321986919976
 20
26.37803474442262
 30
0.0
 11
53.50512581624241
 21
26.37803474442262
 31
0.0
  0
LINE
  5
AF58
330
18
100
AcDbEntity
  8
0
 62
     7
100
AcDbLine
 10
47.92942413992534
 20
25.09894041868427
 30
0.0
 11
53.04580144287854
 21
23.81984609294597
 31
0.0
  0
LINE
  5
AF59
330
18
100
AcDbEntity
  8
frame
100
AcDbLine
 10
42.742241959951
 20
22.0
 30
0.0
 11
42.742241959951
 21
12.0
 31
0.0
  0
LINE
  5
AF5A
330
18
100
AcDbEntity
  8
0
 62
     7
370
    25
100
AcDbLine
 10
36.41832228486612
 20
26.37803474442251
 30
0.0
 11
43.00325267619268
 21
26.37803474442262
 31
0.0
  0
CIRCLE
  5
AF5B
330
18
100
AcDbEntity
  8
0
 62
     7
100
AcDbCircle
 10
39.6153110226262
 20
26.37803474442251
 30
0.0
 40
1.279094325738339
  0
MTEXT
  5
AF5C
330
18
100
AcDbEntity
  8
0
100
AcDbMText
 10
33.70184032462407
 20
19.41013815785266
 30
0.0
 40
5.0
 41
0.0
 71
     1
 72
     5
  1
{\Ftxt,bigfont|c128;\W0.5;検 図}
 73
     1
 44
1.0
1001
ACAD
1000
ACAD_MTEXT_DEFINED_HEIGHT_BEGIN
1070
    46
1040
0.0
1000
ACAD_MTEXT_DEFINED_HEIGHT_END
  0
LINE
  5
AF5D
330
18
100
AcDbEntity
  8
0
 62
     7
370
    25
100
AcDbLine
 10
47.92942413992534
 20
25.09894041868427
 30
0.0
 11
47.92942413992534
 21
27.65712907016086
 31
0.0
  0
MTEXT
  5
AF5E
330
18
100
AcDbEntity
  8
0
100
AcDbMText
 10
64.28820249919829
 20
19.32058534748881
 30
0.0
 40
5.0
 41
0.0
 71
     1
 72
     5
  1
{\Ftxt,bigfont|c128;\W0.5;承 認}
 73
     1
 44
1.0
1001
ACAD
1000
ACAD_MTEXT_DEFINED_HEIGHT_BEGIN
1070
    46
1040
0.0
1000
ACAD_MTEXT_DEFINED_HEIGHT_END
  0
MTEXT
  5
AF5F
330
18
100
AcDbEntity
  8
0
100
AcDbMText
 10
93.71128715606699
 20
8.296061362868272
 30
0.0
 40
5.0
 41
0.0
 71
     1
 72
     5
  1
{\Ftxt,bigfont|c128;\W0.5;図  面  番  号}
 73
     1
 44
1.0
1001
ACAD
1000
ACAD_MTEXT_DEFINED_HEIGHT_BEGIN
1070
    46
1040
0.0
1000
ACAD_MTEXT_DEFINED_HEIGHT_END
  0
MTEXT
  5
AF60
330
18
100
AcDbEntity
  8
0
100
AcDbMText
 10
99.83012938662671
 20
27.61736863466092
 30
0.0
 40
5.0
 41
0.0
 71
     1
 72
     5
  1
\P{\Ftxt,bigfont|c128;    \W0.5;精密ロックナット}
 73
     1
 44
1.0
1001
ACAD
1000
ACAD_MTEXT_DEFINED_HEIGHT_BEGIN
1070
    46
1040
0.0
1000
ACAD_MTEXT_DEFINED_HEIGHT_END
  0
MTEXT
  5
AF61
330
18
100
AcDbEntity
  8
0
100
AcDbMText
 10
94.8083613031232
 20
29.03862457973275
 30
0.0
 40
5.0
 41
0.0
 71
     1
 72
     5
  1
{\Ftxt,bigfont|c128;\W0.5;品  名}
 73
     1
 44
1.0
1001
ACAD
1000
ACAD_MTEXT_DEFINED_HEIGHT_BEGIN
1070
    46
1040
0.0
1000
ACAD_MTEXT_DEFINED_HEIGHT_END
  0
LINE
  5
AF62
330
18
100
AcDbEntity
  8
frame
100
AcDbLine
 10
92.12121212121223
 20
32.0
 30
0.0
 11
92.12121212121223
 21
0.1833227579584786
 31
0.0
  0
LINE
  5
AF63
330
18
100
AcDbEntity
  8
frame
100
AcDbLine
 10
73.41414141414145
 20
32.0
 30
0.0
 11
73.41414141414145
 21
12.0
 31
0.0
  0
LINE
  5
AF64
330
18
100
AcDbEntity
  8
frame
100
AcDbLine
 10
147.0327092740656
 20
32.0
 30
0.0
 11
147.0327092740657
 21
12.0
 31
0.0
  0
MTEXT
  5
AF65
330
18
100
AcDbEntity
  8
0
100
AcDbMText
 10
150.895959446773
 20
29.04517782830391
 30
0.0
 40
5.0
 41
0.0
 71
     1
 72
     5
  1
{\Ftxt,bigfont|c128;\W0.5;型  番}
 73
     1
 44
1.0
1001
ACAD
1000
ACAD_MTEXT_DEFINED_HEIGHT_BEGIN
1070
    46
1040
0.0
1000
ACAD_MTEXT_DEFINED_HEIGHT_END
  0
MTEXT
  5
AF66
330
18
100
AcDbEntity
  8
0
100
AcDbMText
 10
165.8059614810325
 20
8.576913178763106
 30
0.0
 40
5.0
 41
0.0
 71
     1
 72
     5
  1
{\Ftxt,bigfont|c128;\W0.5;変更}
 73
     1
 44
1.0
1001
ACAD
1000
ACAD_MTEXT_DEFINED_HEIGHT_BEGIN
1070
    46
1040
0.0
1000
ACAD_MTEXT_DEFINED_HEIGHT_END
  0
LINE
  5
AF67
330
18
100
AcDbEntity
  8
frame
100
AcDbLine
 10
164.0909090909092
 20
12.00000000000005
 30
0.0
 11
164.0909090909093
 21
0.0
 31
0.0
  0
LINE
  5
AF68
330
18
100
AcDbEntity
  8
frame
100
AcDbLine
 10
124.6157900786393
 20
43.13491348924492
 30
0.0
 11
184.6157900786393
 21
43.13491348924481
 31
0.0
  0
LINE
  5
AF69
330
18
100
AcDbEntity
  8
frame
100
AcDbLine
 10
124.6157900786393
 20
50.33491348924497
 30
0.0
 11
184.6157900786393
 21
50.33491348924497
 31
0.0
  0
LINE
  5
AF6A
330
18
100
AcDbEntity
  8
frame
100
AcDbLine
 10
124.6157900786393
 20
57.5349134892449
 30
0.0
 11
184.6157900786393
 21
57.53491348924478
 31
0.0
  0
LINE
  5
AF6B
330
18
100
AcDbEntity
  8
frame
100
AcDbLine
 10
124.6157900786393
 20
64.73491348924494
 30
0.0
 11
184.6157900786393
 21
64.73491348924483
 31
0.0
  0
LINE
  5
AF6C
330
18
100
AcDbEntity
  8
frame
100
AcDbLine
 10
124.6157900786393
 20
35.93491348924488
 30
0.0
 11
184.6157900786393
 21
35.93491348924488
 31
0.0
  0
MTEXT
  5
AF6D
330
18
100
AcDbEntity
  8
0
 48
2.0
100
AcDbMText
 10
154.5011900445106
 20
65.52808189982909
 30
0.0
 40
5.0
 41
0.0
 71
     5
 72
     1
  1
\P{\Ftxt,bigfont|c128;\H1.042x;\W0.5;諸　　　　元}
 73
     1
 44
1.0
1001
ACAD
1000
ACAD_MTEXT_DEFINED_HEIGHT_BEGIN
1070
    46
1040
0.0
1000
ACAD_MTEXT_DEFINED_HEIGHT_END
  0
LINE
  5
AF6E
330
18
100
AcDbEntity
  8
frame
100
AcDbLine
 10
124.6157900786393
 20
64.73491348924483
 30
0.0
 11
124.6157900786393
 21
35.93491348924488
 31
0.0
  0
MTEXT
  5
AF6F
330
18
100
AcDbEntity
  8
0
 48
2.0
100
AcDbMText
 10
135.799177113669
 20
54.01970870242223
 30
0.0
 40
5.0
 41
0.0
 71
     5
 72
     1
  1
{\Ftxt,bigfont|c128;\W0.5;熱　処　理}
 73
     1
 44
1.0
1001
ACAD
1000
ACAD_MTEXT_DEFINED_HEIGHT_BEGIN
1070
    46
1040
0.0
1000
ACAD_MTEXT_DEFINED_HEIGHT_END
  0
LINE
  5
AF70
330
18
100
AcDbEntity
  8
0
100
AcDbLine
 10
148.6157900786393
 20
57.53491348924478
 30
0.0
 11
148.6157900786393
 21
35.93491348924488
 31
0.0
  0
MTEXT
  5
AF71
330
18
100
AcDbEntity
  8
0
 48
2.0
100
AcDbMText
 10
136.1158625954765
 20
46.61974099088547
 30
0.0
 40
5.0
 41
0.0
 71
     5
 72
     1
  1
{\Ftxt,bigfont|c128;\W0.5;表 面 処 理}
 73
     1
 44
1.0
1001
ACAD
1000
ACAD_MTEXT_DEFINED_HEIGHT_BEGIN
1070
    46
1040
0.0
1000
ACAD_MTEXT_DEFINED_HEIGHT_END
  0
MTEXT
  5
AF72
330
18
100
AcDbEntity
  8
0
 48
2.0
100
AcDbMText
 10
136.3064351357138
 20
39.53013776941589
 30
0.0
 40
5.0
 41
0.0
 71
     5
 72
     1
  1
{\Ftxt,bigfont|c128;\W0.5;等     　級}
 73
     1
 44
1.0
1001
ACAD
1000
ACAD_MTEXT_DEFINED_HEIGHT_BEGIN
1070
    46
1040
0.0
1000
ACAD_MTEXT_DEFINED_HEIGHT_END
  0
LINE
  5
AF73
330
18
100
AcDbEntity
  8
frame
100
AcDbLine
 10
184.6157900786393
 20
64.73491348924483
 30
0.0
 11
184.6157900786393
 21
35.93491348924499
 31
0.0
  0
MTEXT
  5
AF74
330
18
100
AcDbEntity
  8
0
 48
2.0
100
AcDbMText
 10
167.1483511063784
 20
53.94720739886157
 30
0.0
 40
5.0
 41
0.0
 71
     5
 72
     1
  1
{\Ftxt,bigfont|c128;\W0.5;調質　HRC30%%D%%P２%%D}
 73
     1
 44
1.0
1001
ACAD
1000
ACAD_MTEXT_DEFINED_HEIGHT_BEGIN
1070
    46
1040
0.0
1000
ACAD_MTEXT_DEFINED_HEIGHT_END
  0
MTEXT
  5
AF75
330
18
100
AcDbEntity
  8
0
 48
2.0
100
AcDbMText
 10
161.5295505616327
 20
39.48145527421412
 30
0.0
 40
5.0
 41
0.0
 71
     5
 72
     1
  1
{\Ftxt,bigfont|c128;\W0.5;ＩＳＯ - ４Ｈ}
 73
     1
 44
1.0
1001
ACAD
1000
ACAD_MTEXT_DEFINED_HEIGHT_BEGIN
1070
    46
1040
0.0
1000
ACAD_MTEXT_DEFINED_HEIGHT_END
  0
MTEXT
  5
AF76
330
18
100
AcDbEntity
  8
0
 48
2.0
100
AcDbMText
 10
161.3126275617533
 20
46.86379586210626
 30
0.0
 40
5.0
 41
0.0
 71
     5
 72
     1
  1
{\Ftxt,bigfont|c128;\W0.5;黒  　    染}
 73
     1
 44
1.0
1001
ACAD
1000
ACAD_MTEXT_DEFINED_HEIGHT_BEGIN
1070
    46
1040
0.0
1000
ACAD_MTEXT_DEFINED_HEIGHT_END
  0
MTEXT
  5
AF77
330
18
100
AcDbEntity
  8
0
100
AcDbMText
 10
57.63639061334425
 20
260.2464527942954
 30
0.0
 40
5.0
 41
0.0
 71
     1
 72
     5
  1
{\Ftxt,bigfont|c128;\W0.5;M4X0.7P-18L}
 73
     1
 44
1.0
1001
ACAD
1000
ACAD_MTEXT_DEFINED_HEIGHT_BEGIN
1070
    46
1040
0.0
1000
ACAD_MTEXT_DEFINED_HEIGHT_END
  0
LINE
  5
AF78
330
18
100
AcDbEntity
  8
frame
100
AcDbLine
 10
0.0
 20
254.0
 30
0.0
 11
190.0
 21
254.0
 31
0.0
  0
LINE
  5
AF79
330
18
100
AcDbEntity
  8
frame
100
AcDbLine
 10
0.0
 20
262.0
 30
0.0
 11
190.0
 21
262.0
 31
0.0
  0
LINE
  5
AF7A
330
18
100
AcDbEntity
  8
frame
 62
     9
100
AcDbLine
 10
0.0
 20
270.0
 30
0.0
 11
190.0
 21
270.0
 31
0.0
  0
MTEXT
  5
AF7B
330
18
100
AcDbEntity
  8
0
100
AcDbMText
 10
57.0156439060371
 20
277.4240560049041
 30
0.0
 40
5.0
 41
0.0
 71
     1
 72
     5
  1
{\Ftxt,bigfont|c128;\W0.5;図    番 / 規　　格}
 73
     1
 44
1.0
1001
ACAD
1000
ACAD_MTEXT_DEFINED_HEIGHT_BEGIN
1070
    46
1040
0.0
1000
ACAD_MTEXT_DEFINED_HEIGHT_END
  0
LINE
  5
AF7C
330
18
100
AcDbEntity
  8
frame
100
AcDbLine
 10
0.0
 20
254.0
 30
0.0
 11
190.0
 21
254.0
 31
0.0
  0
MTEXT
  5
AF7D
330
18
100
AcDbEntity
  8
0
100
AcDbMText
 10
21.12488048923433
 20
277.4637981386743
 30
0.0
 40
5.0
 41
0.0
 71
     1
 72
     5
  1
{\Ftxt,bigfont|c128;\W0.5;品　          名}
 73
     1
 44
1.0
1001
ACAD
1000
ACAD_MTEXT_DEFINED_HEIGHT_BEGIN
1070
    46
1040
0.0
1000
ACAD_MTEXT_DEFINED_HEIGHT_END
  0
MTEXT
  5
AF7E
330
18
100
AcDbEntity
  8
0
100
AcDbMText
 10
21.00789435981875
 20
260.7907237289111
 30
0.0
 40
5.0
 41
0.0
 71
     1
 72
     5
  1
{\Ftxt,bigfont|c128;\W0.5;セットスクリュ-}
 73
     1
 44
1.0
1001
ACAD
1000
ACAD_MTEXT_DEFINED_HEIGHT_BEGIN
1070
    46
1040
0.0
1000
ACAD_MTEXT_DEFINED_HEIGHT_END
  0
MTEXT
  5
AF7F
330
18
100
AcDbEntity
  8
0
100
AcDbMText
 10
20.82017529734901
 20
268.8361230282964
 30
0.0
 40
5.0
 41
0.0
 71
     1
 72
     5
  1
{\Ftxt,bigfont|c128;\W0.5;ロックナット　  }
 73
     1
 44
1.0
1001
ACAD
1000
ACAD_MTEXT_DEFINED_HEIGHT_BEGIN
1070
    46
1040
0.0
1000
ACAD_MTEXT_DEFINED_HEIGHT_END
  0
LINE
  5
AF80
330
18
100
AcDbEntity
  8
frame
 62
     9
100
AcDbLine
 10
14.39393939393937
 20
279.9999999999999
 30
0.0
 11
14.39393939393963
 21
254.0
 31
0.0
  0
LINE
  5
AF81
330
18
100
AcDbEntity
  8
frame
 62
     9
100
AcDbLine
 10
14.39393939393937
 20
279.9999999999999
 30
0.0
 11
14.39393939393937
 21
255.0505050505051
 31
0.0
  0
MTEXT
  5
AF82
330
18
100
AcDbEntity
  8
0
100
AcDbMText
 10
6.815009268013795
 20
268.7281674434121
 30
0.0
 40
5.0
 41
0.0
 71
     1
 72
     5
  1
{\Ftxt,bigfont|c128;1}
 73
     1
 44
1.0
1001
ACAD
1000
ACAD_MTEXT_DEFINED_HEIGHT_BEGIN
1070
    46
1040
0.0
1000
ACAD_MTEXT_DEFINED_HEIGHT_END
  0
MTEXT
  5
AF83
330
18
100
AcDbEntity
  8
0
100
AcDbMText
 10
2.119828072980226
 20
277.4734782639491
 30
0.0
 40
5.0
 41
0.0
 71
     1
 72
     5
  1
{\Ftxt,bigfont|c128;\W0.5;照   号}
 73
     1
 44
1.0
1001
ACAD
1000
ACAD_MTEXT_DEFINED_HEIGHT_BEGIN
1070
    46
1040
0.0
1000
ACAD_MTEXT_DEFINED_HEIGHT_END
  0
LINE
  5
AF84
330
18
100
AcDbEntity
  8
frame
 62
     9
100
AcDbLine
 10
52.77777777777783
 20
279.9999999999999
 30
0.0
 11
52.77777777777783
 21
254.0
 31
0.0
  0
MTEXT
  5
AF85
330
18
100
AcDbEntity
  8
0
100
AcDbMText
 10
145.5736374372851
 20
277.6781663894194
 30
0.0
 40
5.0
 41
0.0
 71
     1
 72
     5
  1
{\Ftxt,bigfont|c128;\W0.5;備           考}
 73
     1
 44
1.0
1001
ACAD
1000
ACAD_MTEXT_DEFINED_HEIGHT_BEGIN
1070
    46
1040
0.0
1000
ACAD_MTEXT_DEFINED_HEIGHT_END
  0
LINE
  5
AF86
330
18
100
AcDbEntity
  8
frame
 62
     9
100
AcDbLine
 10
91.16161616161617
 20
280.0
 30
0.0
 11
91.16161616161617
 21
254.0
 31
0.0
  0
MTEXT
  5
AF87
330
18
100
AcDbEntity
  8
0
100
AcDbMText
 10
92.87341089179369
 20
268.8361230282964
 30
0.0
 40
5.0
 41
0.0
 71
     1
 72
     5
  1
{\Ftxt,bigfont|c128;\W0.5;SCM440}
 73
     1
 44
1.0
1001
ACAD
1000
ACAD_MTEXT_DEFINED_HEIGHT_BEGIN
1070
    46
1040
0.0
1000
ACAD_MTEXT_DEFINED_HEIGHT_END
  0
MTEXT
  5
AF88
330
18
100
AcDbEntity
  8
0
100
AcDbMText
 10
92.87341089179369
 20
260.765002012584
 30
0.0
 40
5.0
 41
0.0
 71
     1
 72
     5
  1
{\Ftxt,bigfont|c128;\W0.5;SCM435}
 73
     1
 44
1.0
1001
ACAD
1000
ACAD_MTEXT_DEFINED_HEIGHT_BEGIN
1070
    46
1040
0.0
1000
ACAD_MTEXT_DEFINED_HEIGHT_END
  0
MTEXT
  5
AF89
330
18
100
AcDbEntity
  8
0
100
AcDbMText
 10
95.76798863104192
 20
277.5645499482919
 30
0.0
 40
5.0
 41
0.0
 71
     1
 72
     5
  1
{\Ftxt,bigfont|c128;\W0.5;材　質}
 73
     1
 44
1.0
1001
ACAD
1000
ACAD_MTEXT_DEFINED_HEIGHT_BEGIN
1070
    46
1040
0.0
1000
ACAD_MTEXT_DEFINED_HEIGHT_END
  0
LINE
  5
AF8A
330
18
100
AcDbEntity
  8
frame
 62
     9
100
AcDbLine
 10
110.3535353535354
 20
280.0
 30
0.0
 11
110.3535353535354
 21
254.0
 31
0.0
  0
LINE
  5
AF8B
330
18
100
AcDbEntity
  8
frame
100
AcDbLine
 10
124.7474747474747
 20
280.0
 30
0.0
 11
124.7474747474748
 21
254.0
 31
0.0
  0
MTEXT
  5
AF8C
330
18
100
AcDbEntity
  8
0
100
AcDbMText
 10
117.1685446215491
 20
269.0412711679932
 30
0.0
 40
5.0
 41
0.0
 71
     1
 72
     5
  1
\Ftxt.shx,bigfont.shx|c128;1
 73
     1
 44
1.0
  0
MTEXT
  5
AF8D
330
18
100
AcDbEntity
  8
0
100
AcDbMText
 10
116.5939070266884
 20
260.5092290150679
 30
0.0
 40
5.0
 41
0.0
 71
     1
 72
     5
  1
{\Ftxt,bigfont|c128;6}
 73
     1
 44
1.0
1001
ACAD
1000
ACAD_MTEXT_DEFINED_HEIGHT_BEGIN
1070
    46
1040
0.0
1000
ACAD_MTEXT_DEFINED_HEIGHT_END
  0
MTEXT
  5
AF8E
330
18
100
AcDbEntity
  8
0
100
AcDbMText
 10
112.4223895919262
 20
277.5645499482919
 30
0.0
 40
5.0
 41
0.0
 71
     1
 72
     5
  1
{\Ftxt,bigfont|c128;\W0.5;数   量}
 73
     1
 44
1.0
1001
ACAD
1000
ACAD_MTEXT_DEFINED_HEIGHT_BEGIN
1070
    46
1040
0.0
1000
ACAD_MTEXT_DEFINED_HEIGHT_END
  0
MTEXT
  5
AF8F
330
18
100
AcDbEntity
  8
0
100
AcDbMText
 10
6.404019699055993
 20
260.7281674434121
 30
0.0
 40
5.0
 41
0.0
 71
     1
 72
     5
  1
{\Ftxt,bigfont|c128;2}
 73
     1
 44
1.0
1001
ACAD
1000
ACAD_MTEXT_DEFINED_HEIGHT_BEGIN
1070
    46
1040
0.0
1000
ACAD_MTEXT_DEFINED_HEIGHT_END
  0
LINE
  5
AFC8
330
18
100
AcDbEntity
  8
0
 62
     7
100
AcDbLine
 10
47.92942413992534
 20
27.65712907016098
 30
0.0
 11
53.04580144287854
 21
28.93622339589928
 31
0.0
  0
MTEXT
  5
D413
330
18
100
AcDbEntity
  8
dim
100
AcDbMText
 10
33.83754582220053
 20
93.58383456769809
 30
0.0
 40
2.5
 41
54.08337224291063
 71
     1
 72
     5
  1
6-%%C4.3{\Ftxt,bigfont|c128;深さ}4
 73
     1
 44
1.0
1001
ACAD
1000
ACAD_MTEXT_DEFINED_HEIGHT_BEGIN
1070
    46
1040
0.0
1000
ACAD_MTEXT_DEFINED_HEIGHT_END
  0
CIRCLE
  5
D629
330
18
100
AcDbEntity
  8
contour
100
AcDbCircle
 10
94.99999999999994
 20
197.384907097029
 30
0.0
 40
37.5
  0
LINE
  5
D62A
330
18
100
AcDbEntity
  8
center
 48
0.25
100
AcDbLine
 10
95.00000000000012
 20
236.884907097029
 30
0.0
 11
95.0
 21
157.884907097029
 31
0.0
  0
LINE
  5
D62B
330
18
100
AcDbEntity
  8
center
 48
0.25
100
AcDbLine
 10
55.49999999999994
 20
197.384907097029
 30
0.0
 11
134.4999999999999
 21
197.3849070970289
 31
0.0
  0
CIRCLE
  5
D62C
330
18
100
AcDbEntity
  8
bowle
 48
0.2
100
AcDbCircle
 10
66.20465532416694
 20
214.0099070970289
 30
0.0
 40
2.149999999999999
  0
CIRCLE
  5
D62D
330
18
100
AcDbEntity
  8
bowle
 48
0.2
100
AcDbCircle
 10
66.20465532416694
 20
214.0099070970289
 30
0.0
 40
2.649999999999999
  0
LINE
  5
D62E
330
18
100
AcDbEntity
  8
bowle
 48
0.2
100
AcDbLine
 10
61.45706005997528
 20
213.2868308856757
 30
0.0
 11
60.97886726058352
 21
213.1586995112523
 31
0.0
  0
LINE
  5
D62F
330
18
100
AcDbEntity
  8
bowle
 48
0.2
100
AcDbLine
 10
61.45706005997528
 20
213.2868308856757
 30
0.0
 11
65.58622518457418
 21
210.9028562894601
 31
0.0
  0
LINE
  5
D630
330
18
100
AcDbEntity
  8
bowle
 48
0.2
100
AcDbLine
 10
68.58622518457423
 20
212.6349070970289
 30
0.0
 11
68.58622518457417
 21
216.0990087121667
 31
0.0
  0
LINE
  5
D631
330
18
100
AcDbEntity
  8
bowle
 48
0.2
100
AcDbLine
 10
68.58622518457417
 20
216.0990087121667
 30
0.0
 11
64.45706005997528
 21
218.4829833083823
 31
0.0
  0
LINE
  5
D632
330
18
100
AcDbEntity
  8
bowle
 48
0.2
100
AcDbLine
 10
68.58622518457423
 20
212.6349070970289
 30
0.0
 11
65.58622518457418
 21
210.9028562894601
 31
0.0
  0
LINE
  5
D633
330
18
100
AcDbEntity
  8
bowle
 48
0.2
100
AcDbLine
 10
65.58622518457418
 20
210.9028562894601
 30
0.0
 11
68.58622518457417
 21
216.0990087121667
 31
0.0
  0
LINE
  5
D634
330
18
100
AcDbEntity
  8
bowle
 48
0.2
100
AcDbLine
 10
64.45706005997528
 20
218.4829833083823
 30
0.0
 11
64.32892868555189
 21
218.9611761077741
 31
0.0
  0
LINE
  5
D635
330
18
100
AcDbEntity
  8
bowle
 48
0.2
100
AcDbLine
 10
64.45706005997528
 20
218.4829833083823
 30
0.0
 11
61.45706005997528
 21
213.2868308856757
 31
0.0
  0
LINE
  5
D636
102
{ACAD_REACTORS
330
DB18
102
}
330
18
100
AcDbEntity
  8
contour
100
AcDbLine
 10
57.5
 20
120.4093089688329
 30
0.0
 11
57.49999999999989
 21
105.1593089688328
 31
0.0
  0
ARC
  5
D637
102
{ACAD_REACTORS
330
DB18
102
}
330
18
100
AcDbEntity
  8
contour
100
AcDbCircle
 10
58.49999999999994
 20
105.1593089688328
 30
0.0
 40
1.0
100
AcDbArc
 50
180.0
 51
270.0
  0
LINE
  5
D638
102
{ACAD_REACTORS
330
DB18
102
}
330
18
100
AcDbEntity
  8
contour
100
AcDbLine
 10
57.49999999999994
 20
101.1593089688328
 30
0.0
 11
57.49999999999994
 21
97.40930896883288
 31
0.0
  0
ARC
  5
D639
102
{ACAD_REACTORS
330
DB18
102
}
330
18
100
AcDbEntity
  8
contour
100
AcDbCircle
 10
58.49999999999994
 20
97.40930896883288
 30
0.0
 40
1.0
100
AcDbArc
 50
180.0
 51
270.0
  0
LINE
  5
D63A
102
{ACAD_REACTORS
330
DB18
102
}
330
18
100
AcDbEntity
  8
contour
100
AcDbLine
 10
58.49999999999994
 20
96.40930896883288
 30
0.0
 11
131.5
 21
96.40930896883288
 31
0.0
  0
ARC
  5
D63B
102
{ACAD_REACTORS
330
DB18
102
}
330
18
100
AcDbEntity
  8
contour
100
AcDbCircle
 10
131.5
 20
97.40930896883288
 30
0.0
 40
1.0
100
AcDbArc
 50
270.0
 51
0.0
  0
LINE
  5
D63C
102
{ACAD_REACTORS
330
DB18
102
}
330
18
100
AcDbEntity
  8
contour
100
AcDbLine
 10
58.49999999999994
 20
102.1593089688328
 30
0.0
 11
65.49999999999994
 21
102.1593089688328
 31
0.0
  0
ARC
  5
D63D
102
{ACAD_REACTORS
330
DB18
102
}
330
18
100
AcDbEntity
  8
contour
100
AcDbCircle
 10
58.49999999999994
 20
101.1593089688328
 30
0.0
 40
1.0
100
AcDbArc
 50
90.0
 51
180.0
  0
LINE
  5
D63E
102
{ACAD_REACTORS
330
DB18
102
}
330
18
100
AcDbEntity
  8
contour
100
AcDbLine
 10
129.4999999999999
 20
102.1593089688328
 30
0.0
 11
131.4999999999999
 21
102.1593089688328
 31
0.0
  0
LINE
  5
D63F
102
{ACAD_REACTORS
330
DB18
102
}
330
18
100
AcDbEntity
  8
contour
100
AcDbLine
 10
58.49999999999994
 20
104.1593089688328
 30
0.0
 11
65.49999999999994
 21
104.1593089688328
 31
0.0
  0
LINE
  5
D640
102
{ACAD_REACTORS
330
DB18
102
}
330
18
100
AcDbEntity
  8
contour
100
AcDbLine
 10
59.49999999999988
 20
104.9593089688329
 30
0.0
 11
125.4999999999999
 21
104.9593089688329
 31
0.0
  0
LINE
  5
D641
102
{ACAD_REACTORS
330
DB18
102
}
330
18
100
AcDbEntity
  8
contour
100
AcDbLine
 10
68.58249999999992
 20
102.9593089688329
 30
0.0
 11
66.58249999999992
 21
104.9593089688329
 31
0.0
  0
LINE
  5
D642
102
{ACAD_REACTORS
330
DB18
102
}
330
18
100
AcDbEntity
  8
contour
100
AcDbLine
 10
59.49999999999988
 20
106.9593089688329
 30
0.0
 11
125.4999999999999
 21
106.9593089688329
 31
0.0
  0
LINE
  5
D643
102
{ACAD_REACTORS
330
DB18
102
}
330
18
100
AcDbEntity
  8
contour
100
AcDbLine
 10
129.4999999999999
 20
104.1593089688328
 30
0.0
 11
131.4999999999999
 21
104.1593089688329
 31
0.0
  0
LINE
  5
D644
102
{ACAD_REACTORS
330
DB18
102
}
330
18
100
AcDbEntity
  8
contour
100
AcDbLine
 10
132.5
 20
97.40930896883288
 30
0.0
 11
132.4999999999999
 21
101.1593089688328
 31
0.0
  0
ARC
  5
D645
102
{ACAD_REACTORS
330
DB18
102
}
330
18
100
AcDbEntity
  8
contour
100
AcDbCircle
 10
131.4999999999999
 20
101.1593089688328
 30
0.0
 40
1.0
100
AcDbArc
 50
0.0
 51
90.0
  0
LINE
  5
D646
102
{ACAD_REACTORS
330
DB18
102
}
330
18
100
AcDbEntity
  8
contour
100
AcDbLine
 10
132.4999999999999
 20
105.1593089688329
 30
0.0
 11
132.4999999999999
 21
120.4093089688329
 31
0.0
  0
ARC
  5
D647
102
{ACAD_REACTORS
330
DB18
102
}
330
18
100
AcDbEntity
  8
contour
100
AcDbCircle
 10
131.4999999999999
 20
105.1593089688329
 30
0.0
 40
1.0
100
AcDbArc
 50
270.0
 51
0.0
  0
ARC
  5
D648
102
{ACAD_REACTORS
330
DB18
102
}
330
18
100
AcDbEntity
  8
contour
100
AcDbCircle
 10
131.4999999999999
 20
120.4093089688329
 30
0.0
 40
1.0
100
AcDbArc
 50
0.0
 51
90.0
  0
LINE
  5
D649
102
{ACAD_REACTORS
330
DB18
102
}
330
18
100
AcDbEntity
  8
contour
100
AcDbLine
 10
131.4999999999999
 20
121.4093089688329
 30
0.0
 11
58.5
 21
121.4093089688329
 31
0.0
  0
LINE
  5
D64A
102
{ACAD_REACTORS
330
DB18
102
}
330
18
100
AcDbEntity
  8
contour
100
AcDbLine
 10
68.58249999999992
 20
119.4093089688329
 30
0.0
 11
66.58249999999992
 21
121.4093089688329
 31
0.0
  0
ARC
  5
D64B
102
{ACAD_REACTORS
330
DB18
102
}
330
18
100
AcDbEntity
  8
contour
100
AcDbCircle
 10
58.5
 20
120.4093089688329
 30
0.0
 40
1.0
100
AcDbArc
 50
90.0
 51
180.0
  0
LINE
  5
D64C
330
18
100
AcDbEntity
  8
center
 48
0.25
100
AcDbLine
 10
94.99999999999994
 20
123.4093089688329
 30
0.0
 11
94.99999999999994
 21
94.40930896883291
 31
0.0
  0
LINE
  5
D64D
102
{ACAD_REACTORS
330
DB18
102
}
330
18
100
AcDbEntity
  8
contour
100
AcDbLine
 10
59.49999999999994
 20
106.9593089688329
 30
0.0
 11
59.49999999999994
 21
104.9593089688328
 31
0.0
  0
LINE
  5
D64E
330
18
100
AcDbEntity
  8
center
 48
0.25
100
AcDbLine
 10
94.99999999999994
 20
123.4093089688329
 30
0.0
 11
94.99999999999994
 21
94.40930896883291
 31
0.0
  0
LINE
  5
D64F
102
{ACAD_REACTORS
330
DB18
102
}
330
18
100
AcDbEntity
  8
contour
100
AcDbLine
 10
65.49999999999994
 20
102.1593089688328
 30
0.0
 11
65.49999999999994
 21
104.1593089688328
 31
0.0
  0
LINE
  5
D650
102
{ACAD_REACTORS
330
DB18
102
}
330
18
100
AcDbEntity
  8
contour
100
AcDbLine
 10
124.4999999999999
 20
102.1593089688328
 30
0.0
 11
124.4999999999999
 21
104.1593089688328
 31
0.0
  0
LINE
  5
D651
102
{ACAD_REACTORS
330
DB18
102
}
330
18
100
AcDbEntity
  8
contour
100
AcDbLine
 10
130.4999999999999
 20
106.9593089688329
 30
0.0
 11
130.4999999999999
 21
104.9593089688328
 31
0.0
  0
LINE
  5
D652
102
{ACAD_REACTORS
330
DB18
102
}
330
18
100
AcDbEntity
  8
contour
100
AcDbLine
 10
57.99999999999982
 20
109.4093089688328
 30
0.0
 11
57.49999999999994
 21
108.9093089688329
 31
0.0
  0
LINE
  5
D653
102
{ACAD_REACTORS
330
DB18
102
}
330
18
100
AcDbEntity
  8
contour
100
AcDbLine
 10
57.99999999999982
 20
109.4093089688328
 30
0.0
 11
62.76794919243099
 21
109.4093089688328
 31
0.0
  0
LINE
  5
D654
102
{ACAD_REACTORS
330
DB18
102
}
330
18
100
AcDbEntity
  8
contour
100
AcDbLine
 10
64.49999999999994
 20
112.4093089688328
 30
0.0
 11
62.76794919243099
 21
115.4093089688328
 31
0.0
  0
LINE
  5
D655
102
{ACAD_REACTORS
330
DB18
102
}
330
18
100
AcDbEntity
  8
contour
100
AcDbLine
 10
62.76794919243099
 20
115.4093089688328
 30
0.0
 11
57.99999999999982
 21
115.4093089688329
 31
0.0
  0
LINE
  5
D656
102
{ACAD_REACTORS
330
DB18
102
}
330
18
100
AcDbEntity
  8
contour
100
AcDbLine
 10
64.49999999999994
 20
112.4093089688328
 30
0.0
 11
62.76794919243099
 21
109.4093089688328
 31
0.0
  0
LINE
  5
D657
330
18
100
AcDbEntity
  8
contour
100
AcDbLine
 10
62.76794919243099
 20
109.4093089688328
 30
0.0
 11
62.76794919243099
 21
115.4093089688328
 31
0.0
  0
LINE
  5
D658
102
{ACAD_REACTORS
330
DB18
102
}
330
18
100
AcDbEntity
  8
contour
100
AcDbLine
 10
57.99999999999982
 20
115.4093089688328
 30
0.0
 11
57.49999999999994
 21
115.9093089688327
 31
0.0
  0
LINE
  5
D659
330
18
100
AcDbEntity
  8
contour
100
AcDbLine
 10
57.99999999999982
 20
115.4093089688328
 30
0.0
 11
57.99999999999982
 21
109.4093089688328
 31
0.0
  0
LINE
  5
D65A
330
18
100
AcDbEntity
  8
center
 48
0.2
100
AcDbLine
 10
66.49999999999995
 20
112.4093089688328
 30
0.0
 11
55.49999999999989
 21
112.4093089688328
 31
0.0
  0
LINE
  5
D65B
330
18
100
AcDbEntity
  8
center
 48
0.25
100
AcDbLine
 10
127.5000000000001
 20
123.4093089688328
 30
0.0
 11
127.5000000000001
 21
94.40930896883287
 31
0.0
  0
INSERT
  5
D65C
102
{ACAD_REACTORS
330
DB18
102
}
330
18
100
AcDbEntity
  8
contour
100
AcDbBlockReference
  2
LS3
 10
-205.8877449821334
 20
92.23164609706117
 30
0.0
  0
LINE
  5
D65D
102
{ACAD_REACTORS
330
DB18
102
}
330
18
100
AcDbEntity
  8
contour
100
AcDbLine
 10
123.9999999999999
 20
96.70930896883294
 30
0.0
 11
123.9999999999998
 21
96.40930896883288
 31
0.0
  0
LINE
  5
D65E
102
{ACAD_REACTORS
330
DB18
102
}
330
18
100
AcDbEntity
  8
contour
100
AcDbLine
 10
130.9999999999999
 20
96.709308968833
 30
0.0
 11
130.9999999999998
 21
96.40930896883288
 31
0.0
  0
LINE
  5
D65F
102
{ACAD_REACTORS
330
DB18
102
}
330
18
100
AcDbEntity
  8
contour
 62
     4
100
AcDbLine
 10
125.4999999999999
 20
117.6093089688328
 30
0.0
 11
125.4999999999999
 21
121.4093089688328
 31
0.0
  0
LINE
  5
D660
102
{ACAD_REACTORS
330
DB18
102
}
330
18
100
AcDbEntity
  8
contour
 62
     4
100
AcDbLine
 10
129.4999999999999
 20
117.6093089688328
 30
0.0
 11
129.4999999999998
 21
121.4093089688328
 31
0.0
  0
LINE
  5
D661
102
{ACAD_REACTORS
330
DB18
102
}
330
18
100
AcDbEntity
  8
contour
100
AcDbLine
 10
129.0999999999999
 20
118.0093089688328
 30
0.0
 11
129.0999999999999
 21
121.4093089688328
 31
0.0
  0
LINE
  5
D662
102
{ACAD_REACTORS
330
DB18
102
}
330
18
100
AcDbEntity
  8
contour
100
AcDbLine
 10
125.8999999999999
 20
118.0093089688328
 30
0.0
 11
125.8999999999999
 21
121.4093089688328
 31
0.0
  0
LINE
  5
D663
102
{ACAD_REACTORS
330
DB18
102
}
330
18
100
AcDbEntity
  8
contour
100
AcDbLine
 10
124.4999999999999
 20
104.1593089688328
 30
0.0
 11
125.4999999999998
 21
104.1593089688328
 31
0.0
  0
LINE
  5
D664
102
{ACAD_REACTORS
330
DB18
102
}
330
18
100
AcDbEntity
  8
contour
100
AcDbLine
 10
124.4999999999999
 20
102.1593089688328
 30
0.0
 11
125.4999999999998
 21
102.1593089688328
 31
0.0
  0
LINE
  5
D665
102
{ACAD_REACTORS
330
DB18
102
}
330
18
100
AcDbEntity
  8
contour
100
AcDbLine
 10
130.4999999999999
 20
106.9593089688329
 30
0.0
 11
129.4999999999999
 21
106.9593089688329
 31
0.0
  0
LINE
  5
D666
102
{ACAD_REACTORS
330
DB18
102
}
330
18
100
AcDbEntity
  8
contour
100
AcDbLine
 10
130.4999999999999
 20
104.9593089688328
 30
0.0
 11
129.4999999999999
 21
104.9593089688328
 31
0.0
  0
LINE
  5
D667
102
{ACAD_REACTORS
330
DB18
102
}
330
18
100
AcDbEntity
  8
contour
 62
     4
100
AcDbLine
 10
67.49999999999994
 20
120.4918089688328
 30
0.0
 11
67.5
 21
107.8768089688329
 31
0.0
  0
LINE
  5
D668
102
{ACAD_REACTORS
330
DB18
102
}
330
18
100
AcDbEntity
  8
contour
 62
     4
100
AcDbLine
 10
67.5
 20
104.0418089688328
 30
0.0
 11
67.5
 21
97.32680896883294
 31
0.0
  0
LINE
  5
D669
102
{ACAD_REACTORS
330
DB18
102
}
330
18
100
AcDbEntity
  8
contour
100
AcDbLine
 10
68.58249999999992
 20
119.4093089688328
 30
0.0
 11
68.58249999999992
 21
108.9593089688329
 31
0.0
  0
LINE
  5
D66A
330
18
100
AcDbEntity
  8
center
 48
0.1
100
AcDbLine
 10
73.61956483136919
 20
209.7289070970287
 30
0.0
 11
60.79199655051451
 21
217.1349070970292
 31
0.0
  0
CIRCLE
  5
D66B
330
18
100
AcDbEntity
  8
bowle
 48
0.2
100
AcDbCircle
 10
127.5000000000001
 20
197.3849070970288
 30
0.0
 40
3.5
  0
CIRCLE
  5
D66C
330
18
100
AcDbEntity
  8
contour
100
AcDbCircle
 10
127.5000000000001
 20
197.3849070970288
 30
0.0
 40
1.62099999999998
  0
ARC
  5
D66D
330
18
100
AcDbEntity
  8
contour
 62
     4
100
AcDbCircle
 10
127.5000000000001
 20
197.384907097029
 30
0.0
 40
2.0
100
AcDbArc
 50
165.5224878140702
 51
104.4775121859299
  0
CIRCLE
  5
D66E
330
18
100
AcDbEntity
  8
center
 48
0.25
100
AcDbCircle
 10
95.00000000000005
 20
197.384907097029
 30
0.0
 40
32.50000000000011
  0
CIRCLE
  5
D66F
330
18
100
AcDbEntity
  8
bowle
 48
0.2
100
AcDbCircle
 10
111.2500000000002
 20
225.5307327200233
 30
0.0
 40
3.5
  0
CIRCLE
  5
D670
330
18
100
AcDbEntity
  8
contour
100
AcDbCircle
 10
111.2500000000002
 20
225.5307327200233
 30
0.0
 40
1.62099999999998
  0
ARC
  5
D671
330
18
100
AcDbEntity
  8
contour
 62
     4
100
AcDbCircle
 10
111.25
 20
225.5307327200233
 30
0.0
 40
2.0
100
AcDbArc
 50
225.5224878140714
 51
164.4775121859289
  0
CIRCLE
  5
D672
330
18
100
AcDbEntity
  8
bowle
 48
0.2
100
AcDbCircle
 10
78.75000000000006
 20
225.5307327200234
 30
0.0
 40
3.499999999999999
  0
CIRCLE
  5
D673
330
18
100
AcDbEntity
  8
contour
100
AcDbCircle
 10
78.75000000000006
 20
225.5307327200234
 30
0.0
 40
1.62099999999998
  0
ARC
  5
D674
330
18
100
AcDbEntity
  8
contour
 62
     4
100
AcDbCircle
 10
78.74999999999994
 20
225.5307327200233
 30
0.0
 40
1.999999999999999
100
AcDbArc
 50
285.5224878140696
 51
224.4775121859277
  0
CIRCLE
  5
D675
330
18
100
AcDbEntity
  8
bowle
 48
0.2
100
AcDbCircle
 10
62.49999999999989
 20
197.384907097029
 30
0.0
 40
3.5
  0
CIRCLE
  5
D676
330
18
100
AcDbEntity
  8
contour
100
AcDbCircle
 10
62.49999999999989
 20
197.384907097029
 30
0.0
 40
1.62099999999998
  0
ARC
  5
D677
330
18
100
AcDbEntity
  8
contour
 62
     4
100
AcDbCircle
 10
62.49999999999989
 20
197.3849070970289
 30
0.0
 40
2.0
100
AcDbArc
 50
345.5224878140703
 51
284.4775121859299
  0
CIRCLE
  5
D678
330
18
100
AcDbEntity
  8
bowle
 48
0.2
100
AcDbCircle
 10
78.74999999999994
 20
169.2390814740345
 30
0.0
 40
3.5
  0
CIRCLE
  5
D679
330
18
100
AcDbEntity
  8
contour
100
AcDbCircle
 10
78.74999999999994
 20
169.2390814740345
 30
0.0
 40
1.62099999999998
  0
ARC
  5
D67A
330
18
100
AcDbEntity
  8
contour
 62
     4
100
AcDbCircle
 10
78.75000000000006
 20
169.2390814740345
 30
0.0
 40
2.0
100
AcDbArc
 50
45.52248781407141
 51
344.4775121859302
  0
CIRCLE
  5
D67B
330
18
100
AcDbEntity
  8
bowle
 48
0.2
100
AcDbCircle
 10
111.25
 20
169.2390814740346
 30
0.0
 40
3.5
  0
CIRCLE
  5
D67C
330
18
100
AcDbEntity
  8
contour
100
AcDbCircle
 10
111.25
 20
169.2390814740346
 30
0.0
 40
1.62099999999998
  0
ARC
  5
D67D
330
18
100
AcDbEntity
  8
contour
 62
     4
100
AcDbCircle
 10
111.2500000000001
 20
169.2390814740346
 30
0.0
 40
2.0
100
AcDbArc
 50
105.5224878140696
 51
44.47751218592769
  0
ARC
  5
D67E
330
18
100
AcDbEntity
  8
center
 48
0.1
100
AcDbCircle
 10
95.00000000000005
 20
197.384907097029
 30
0.0
 40
33.25000000000044
100
AcDbArc
 50
141.9806626346137
 51
158.0193373653876
  0
CIRCLE
  5
D67F
330
18
100
AcDbEntity
  8
bowle
 48
0.2
100
AcDbCircle
 10
66.20465532416716
 20
180.7599070970285
 30
0.0
 40
2.149999999999999
  0
CIRCLE
  5
D680
330
18
100
AcDbEntity
  8
bowle
 48
0.2
100
AcDbCircle
 10
66.20465532416716
 20
180.7599070970285
 30
0.0
 40
2.649999999999999
  0
LINE
  5
D681
330
18
100
AcDbEntity
  8
bowle
 48
0.2
100
AcDbLine
 10
64.4570600599755
 20
176.2868308856752
 30
0.0
 11
64.32892868555206
 21
175.8086380862835
 31
0.0
  0
LINE
  5
D682
330
18
100
AcDbEntity
  8
bowle
 48
0.2
100
AcDbLine
 10
64.4570600599755
 20
176.2868308856752
 30
0.0
 11
68.5862251845744
 21
178.6708054818909
 31
0.0
  0
LINE
  5
D683
330
18
100
AcDbEntity
  8
bowle
 48
0.2
100
AcDbLine
 10
68.5862251845744
 20
182.1349070970286
 30
0.0
 11
65.5862251845744
 21
183.8669579045975
 31
0.0
  0
LINE
  5
D684
330
18
100
AcDbEntity
  8
bowle
 48
0.2
100
AcDbLine
 10
65.5862251845744
 20
183.8669579045975
 30
0.0
 11
61.4570600599755
 21
181.4829833083819
 31
0.0
  0
LINE
  5
D685
330
18
100
AcDbEntity
  8
bowle
 48
0.2
100
AcDbLine
 10
68.5862251845744
 20
182.1349070970286
 30
0.0
 11
68.5862251845744
 21
178.6708054818909
 31
0.0
  0
LINE
  5
D686
330
18
100
AcDbEntity
  8
bowle
 48
0.2
100
AcDbLine
 10
68.5862251845744
 20
178.6708054818909
 30
0.0
 11
65.5862251845744
 21
183.8669579045975
 31
0.0
  0
LINE
  5
D687
330
18
100
AcDbEntity
  8
bowle
 48
0.2
100
AcDbLine
 10
61.4570600599755
 20
181.4829833083819
 30
0.0
 11
60.97886726058362
 21
181.6111146828053
 31
0.0
  0
LINE
  5
D688
330
18
100
AcDbEntity
  8
bowle
 48
0.2
100
AcDbLine
 10
61.4570600599755
 20
181.4829833083819
 30
0.0
 11
64.4570600599755
 21
176.2868308856752
 31
0.0
  0
LINE
  5
D689
330
18
100
AcDbEntity
  8
center
 48
0.1
100
AcDbLine
 10
73.61956483136964
 20
185.0409070970284
 30
0.0
 11
60.79199655051439
 21
177.6349070970289
 31
0.0
  0
ARC
  5
D68A
330
18
100
AcDbEntity
  8
center
 48
0.1
100
AcDbCircle
 10
94.99999999999994
 20
197.384907097029
 30
0.0
 40
33.25000000000044
100
AcDbArc
 50
196.7884131676438
 51
218.0193373653863
  0
CIRCLE
  5
D68B
330
18
100
AcDbEntity
  8
bowle
 48
0.2
100
AcDbCircle
 10
95.00000000000017
 20
164.1349070970286
 30
0.0
 40
2.149999999999999
  0
CIRCLE
  5
D68C
330
18
100
AcDbEntity
  8
bowle
 48
0.2
100
AcDbCircle
 10
95.00000000000017
 20
164.1349070970286
 30
0.0
 40
2.649999999999999
  0
LINE
  5
D68D
330
18
100
AcDbEntity
  8
bowle
 48
0.2
100
AcDbLine
 10
98.00000000000018
 20
160.3849070970285
 30
0.0
 11
98.35006142496849
 21
160.0348456720602
 31
0.0
  0
LINE
  5
D68E
330
18
100
AcDbEntity
  8
bowle
 48
0.2
100
AcDbLine
 10
98.00000000000018
 20
160.3849070970285
 30
0.0
 11
98.00000000000018
 21
165.1528562894597
 31
0.0
  0
LINE
  5
D68F
330
18
100
AcDbEntity
  8
bowle
 48
0.2
100
AcDbLine
 10
95.00000000000017
 20
166.8849070970287
 30
0.0
 11
92.00000000000017
 21
165.1528562894597
 31
0.0
  0
LINE
  5
D690
330
18
100
AcDbEntity
  8
bowle
 48
0.2
100
AcDbLine
 10
92.00000000000017
 20
165.1528562894597
 30
0.0
 11
92.00000000000017
 21
160.3849070970285
 31
0.0
  0
LINE
  5
D691
330
18
100
AcDbEntity
  8
bowle
 48
0.2
100
AcDbLine
 10
95.00000000000017
 20
166.8849070970287
 30
0.0
 11
98.00000000000018
 21
165.1528562894597
 31
0.0
  0
LINE
  5
D692
330
18
100
AcDbEntity
  8
bowle
 48
0.2
100
AcDbLine
 10
98.00000000000018
 20
165.1528562894597
 30
0.0
 11
92.00000000000017
 21
165.1528562894597
 31
0.0
  0
LINE
  5
D693
330
18
100
AcDbEntity
  8
bowle
 48
0.2
100
AcDbLine
 10
92.00000000000017
 20
160.3849070970285
 30
0.0
 11
91.64993857503175
 21
160.0348456720602
 31
0.0
  0
LINE
  5
D694
330
18
100
AcDbEntity
  8
bowle
 48
0.2
100
AcDbLine
 10
92.00000000000017
 20
160.3849070970285
 30
0.0
 11
98.00000000000018
 21
160.3849070970285
 31
0.0
  0
ARC
  5
D695
330
18
100
AcDbEntity
  8
center
 48
0.1
100
AcDbCircle
 10
94.99999999999984
 20
197.384907097029
 30
0.0
 40
33.25000000000044
100
AcDbArc
 50
261.9806626346165
 51
278.0193373653901
  0
CIRCLE
  5
D696
330
18
100
AcDbEntity
  8
bowle
 48
0.2
100
AcDbCircle
 10
123.7953446758329
 20
180.759907097029
 30
0.0
 40
2.149999999999999
  0
CIRCLE
  5
D697
330
18
100
AcDbEntity
  8
bowle
 48
0.2
100
AcDbCircle
 10
123.7953446758329
 20
180.759907097029
 30
0.0
 40
2.649999999999999
  0
LINE
  5
D698
330
18
100
AcDbEntity
  8
bowle
 48
0.2
100
AcDbLine
 10
128.5429399400245
 20
181.4829833083822
 30
0.0
 11
129.0211327394163
 21
181.6111146828056
 31
0.0
  0
LINE
  5
D699
330
18
100
AcDbEntity
  8
bowle
 48
0.2
100
AcDbLine
 10
128.5429399400245
 20
181.4829833083822
 30
0.0
 11
124.4137748154256
 21
183.8669579045978
 31
0.0
  0
LINE
  5
D69A
330
18
100
AcDbEntity
  8
bowle
 48
0.2
100
AcDbLine
 10
121.4137748154256
 20
182.134907097029
 30
0.0
 11
121.4137748154256
 21
178.6708054818912
 31
0.0
  0
LINE
  5
D69B
330
18
100
AcDbEntity
  8
bowle
 48
0.2
100
AcDbLine
 10
121.4137748154256
 20
178.6708054818912
 30
0.0
 11
125.5429399400245
 21
176.2868308856756
 31
0.0
  0
LINE
  5
D69C
330
18
100
AcDbEntity
  8
bowle
 48
0.2
100
AcDbLine
 10
121.4137748154256
 20
182.134907097029
 30
0.0
 11
124.4137748154256
 21
183.8669579045978
 31
0.0
  0
LINE
  5
D69D
330
18
100
AcDbEntity
  8
bowle
 48
0.2
100
AcDbLine
 10
124.4137748154256
 20
183.8669579045978
 30
0.0
 11
121.4137748154256
 21
178.6708054818912
 31
0.0
  0
LINE
  5
D69E
330
18
100
AcDbEntity
  8
bowle
 48
0.2
100
AcDbLine
 10
125.5429399400245
 20
176.2868308856756
 30
0.0
 11
125.6710713144479
 21
175.8086380862838
 31
0.0
  0
LINE
  5
D69F
330
18
100
AcDbEntity
  8
bowle
 48
0.2
100
AcDbLine
 10
125.5429399400245
 20
176.2868308856756
 30
0.0
 11
128.5429399400245
 21
181.4829833083822
 31
0.0
  0
LINE
  5
D6A0
330
18
100
AcDbEntity
  8
center
 48
0.1
100
AcDbLine
 10
116.3804351686306
 20
185.0409070970291
 30
0.0
 11
129.2080034494853
 21
177.6349070970287
 31
0.0
  0
ARC
  5
D6A1
330
18
100
AcDbEntity
  8
center
 48
0.1
100
AcDbCircle
 10
94.99999999999976
 20
197.3849070970289
 30
0.0
 40
33.25000000000044
100
AcDbArc
 50
321.9806626346137
 51
338.0193373653846
  0
CIRCLE
  5
D6A2
330
18
100
AcDbEntity
  8
bowle
 48
0.2
100
AcDbCircle
 10
123.7953446758327
 20
214.0099070970293
 30
0.0
 40
2.149999999999999
  0
CIRCLE
  5
D6A3
330
18
100
AcDbEntity
  8
bowle
 48
0.2
100
AcDbCircle
 10
123.7953446758327
 20
214.0099070970293
 30
0.0
 40
2.649999999999999
  0
LINE
  5
D6A4
330
18
100
AcDbEntity
  8
bowle
 48
0.2
100
AcDbLine
 10
125.5429399400244
 20
218.4829833083825
 30
0.0
 11
125.6710713144478
 21
218.9611761077743
 31
0.0
  0
LINE
  5
D6A5
330
18
100
AcDbEntity
  8
bowle
 48
0.2
100
AcDbLine
 10
125.5429399400244
 20
218.4829833083825
 30
0.0
 11
121.4137748154255
 21
216.0990087121669
 31
0.0
  0
LINE
  5
D6A6
330
18
100
AcDbEntity
  8
bowle
 48
0.2
100
AcDbLine
 10
121.4137748154255
 20
212.6349070970292
 30
0.0
 11
124.4137748154255
 21
210.9028562894603
 31
0.0
  0
LINE
  5
D6A7
330
18
100
AcDbEntity
  8
bowle
 48
0.2
100
AcDbLine
 10
124.4137748154255
 20
210.9028562894603
 30
0.0
 11
128.5429399400244
 21
213.2868308856759
 31
0.0
  0
LINE
  5
D6A8
330
18
100
AcDbEntity
  8
bowle
 48
0.2
100
AcDbLine
 10
121.4137748154255
 20
212.6349070970292
 30
0.0
 11
121.4137748154255
 21
216.0990087121669
 31
0.0
  0
LINE
  5
D6A9
330
18
100
AcDbEntity
  8
bowle
 48
0.2
100
AcDbLine
 10
121.4137748154255
 20
216.0990087121669
 30
0.0
 11
124.4137748154255
 21
210.9028562894603
 31
0.0
  0
LINE
  5
D6AA
330
18
100
AcDbEntity
  8
bowle
 48
0.2
100
AcDbLine
 10
128.5429399400244
 20
213.2868308856759
 30
0.0
 11
129.0211327394162
 21
213.1586995112524
 31
0.0
  0
LINE
  5
D6AB
330
18
100
AcDbEntity
  8
bowle
 48
0.2
100
AcDbLine
 10
128.5429399400244
 20
213.2868308856759
 30
0.0
 11
125.5429399400244
 21
218.4829833083825
 31
0.0
  0
LINE
  5
D6AC
330
18
100
AcDbEntity
  8
center
 48
0.1
100
AcDbLine
 10
116.3804351686303
 20
209.7289070970294
 30
0.0
 11
129.2080034494855
 21
217.1349070970289
 31
0.0
  0
ARC
  5
D6AD
330
18
100
AcDbEntity
  8
center
 48
0.1
100
AcDbCircle
 10
94.99999999999994
 20
197.3849070970288
 30
0.0
 40
33.25000000000044
100
AcDbArc
 50
16.78841316764378
 51
38.01933736538624
  0
CIRCLE
  5
D6AE
330
18
100
AcDbEntity
  8
bowle
 48
0.2
100
AcDbCircle
 10
94.99999999999976
 20
230.6349070970294
 30
0.0
 40
2.149999999999999
  0
CIRCLE
  5
D6AF
330
18
100
AcDbEntity
  8
bowle
 48
0.2
100
AcDbCircle
 10
94.99999999999976
 20
230.6349070970294
 30
0.0
 40
2.649999999999999
  0
LINE
  5
D6B0
330
18
100
AcDbEntity
  8
bowle
 48
0.2
100
AcDbLine
 10
91.99999999999977
 20
234.3849070970294
 30
0.0
 11
91.64993857503146
 21
234.7349685219978
 31
0.0
  0
LINE
  5
D6B1
330
18
100
AcDbEntity
  8
bowle
 48
0.2
100
AcDbLine
 10
91.99999999999977
 20
234.3849070970294
 30
0.0
 11
91.99999999999977
 21
229.6169579045982
 31
0.0
  0
LINE
  5
D6B2
330
18
100
AcDbEntity
  8
bowle
 48
0.2
100
AcDbLine
 10
94.99999999999976
 20
227.8849070970293
 30
0.0
 11
97.99999999999977
 21
229.6169579045982
 31
0.0
  0
LINE
  5
D6B3
330
18
100
AcDbEntity
  8
bowle
 48
0.2
100
AcDbLine
 10
97.99999999999977
 20
229.6169579045982
 30
0.0
 11
97.99999999999977
 21
234.3849070970294
 31
0.0
  0
LINE
  5
D6B4
330
18
100
AcDbEntity
  8
bowle
 48
0.2
100
AcDbLine
 10
94.99999999999976
 20
227.8849070970293
 30
0.0
 11
91.99999999999977
 21
229.6169579045982
 31
0.0
  0
LINE
  5
D6B5
330
18
100
AcDbEntity
  8
bowle
 48
0.2
100
AcDbLine
 10
91.99999999999977
 20
229.6169579045982
 30
0.0
 11
97.99999999999977
 21
229.6169579045982
 31
0.0
  0
LINE
  5
D6B6
330
18
100
AcDbEntity
  8
bowle
 48
0.2
100
AcDbLine
 10
97.99999999999977
 20
234.3849070970294
 30
0.0
 11
98.35006142496821
 21
234.7349685219978
 31
0.0
  0
LINE
  5
D6B7
330
18
100
AcDbEntity
  8
bowle
 48
0.2
100
AcDbLine
 10
97.99999999999977
 20
234.3849070970294
 30
0.0
 11
91.99999999999977
 21
234.3849070970294
 31
0.0
  0
ARC
  5
D6B8
330
18
100
AcDbEntity
  8
center
 48
0.1
100
AcDbCircle
 10
95.0
 20
197.3849070970289
 30
0.0
 40
33.25000000000044
100
AcDbArc
 50
81.98066263461321
 51
98.01933736538678
  0
LINE
  5
D6B9
330
18
100
AcDbEntity
  8
center
 48
0.1
100
AcDbLine
 10
75.24999999999995
 20
231.5929105465144
 30
0.0
 11
82.6559999999999
 21
218.7653422656593
 31
0.0
  0
LINE
  5
D6BA
330
18
100
AcDbEntity
  8
center
 48
0.1
100
AcDbLine
 10
107.344
 20
176.0044719283987
 30
0.0
 11
114.75
 21
163.1769036475437
 31
0.0
  0
LINE
  5
D6BB
330
18
100
AcDbEntity
  8
center
 48
0.1
100
AcDbLine
 10
114.7500000000001
 20
231.5929105465144
 30
0.0
 11
107.3440000000002
 21
218.7653422656593
 31
0.0
  0
LINE
  5
D6BC
330
18
100
AcDbEntity
  8
center
 48
0.1
100
AcDbLine
 10
82.65600000000006
 20
176.0044719283987
 30
0.0
 11
75.25000000000011
 21
163.1769036475437
 31
0.0
  0
LINE
  5
D6BD
102
{ACAD_REACTORS
330
DB18
102
}
330
18
100
AcDbEntity
  8
contour
100
AcDbLine
 10
63.89999999999981
 20
96.90930896883287
 30
0.0
 11
64.3999999999998
 21
96.40930896883288
 31
0.0
  0
LINE
  5
D6BE
102
{ACAD_REACTORS
330
DB18
102
}
330
18
100
AcDbEntity
  8
contour
100
AcDbLine
 10
63.89999999999981
 20
99.16800589007522
 30
0.0
 11
61.74999999999982
 21
100.4093089688329
 31
0.0
  0
LINE
  5
D6BF
102
{ACAD_REACTORS
330
DB18
102
}
330
18
100
AcDbEntity
  8
contour
100
AcDbLine
 10
59.59999999999991
 20
99.16800589007525
 30
0.0
 11
59.59999999999991
 21
96.90930896883287
 31
0.0
  0
LINE
  5
D6C0
102
{ACAD_REACTORS
330
DB18
102
}
330
18
100
AcDbEntity
  8
contour
100
AcDbLine
 10
59.09999999999991
 20
96.40930896883288
 30
0.0
 11
59.59999999999991
 21
96.90930896883287
 31
0.0
  0
LINE
  5
D6C1
102
{ACAD_REACTORS
330
DB18
102
}
330
18
100
AcDbEntity
  8
contour
100
AcDbLine
 10
63.89999999999975
 20
99.16800589007525
 30
0.0
 11
63.89999999999981
 21
96.90930896883299
 31
0.0
  0
LINE
  5
D6C2
102
{ACAD_REACTORS
330
DB18
102
}
330
18
100
AcDbEntity
  8
contour
100
AcDbLine
 10
59.59999999999991
 20
99.16800589007522
 30
0.0
 11
61.74999999999982
 21
100.4093089688329
 31
0.0
  0
LINE
  5
D6C3
330
18
100
AcDbEntity
  8
contour
100
AcDbLine
 10
59.59999999999991
 20
99.16800589007522
 30
0.0
 11
63.89999999999981
 21
99.16800589007522
 31
0.0
  0
LINE
  5
D6C4
330
18
100
AcDbEntity
  8
contour
100
AcDbLine
 10
59.59999999999991
 20
96.90930896883287
 30
0.0
 11
63.89999999999981
 21
96.90930896883299
 31
0.0
  0
LINE
  5
D6C5
102
{ACAD_REACTORS
330
DB18
102
}
330
18
100
AcDbEntity
  8
center
 48
0.15
100
AcDbLine
 10
61.74999999999982
 20
103.1593089688328
 30
0.0
 11
61.74999999999982
 21
95.40930896883287
 31
0.0
  0
LINE
  5
D6C6
102
{ACAD_REACTORS
330
DB18
102
}
330
18
100
AcDbEntity
  8
contour
100
AcDbLine
 10
68.58249999999992
 20
102.9593089688329
 30
0.0
 11
68.58249999999992
 21
98.40930896883287
 31
0.0
  0
LINE
  5
D6C7
102
{ACAD_REACTORS
330
DB18
102
}
330
18
100
AcDbEntity
  8
contour
100
AcDbLine
 10
66.58249999999992
 20
106.9593089688329
 30
0.0
 11
68.58249999999992
 21
108.9593089688329
 31
0.0
  0
LINE
  5
D6C8
102
{ACAD_REACTORS
330
DB18
102
}
330
18
100
AcDbEntity
  8
contour
100
AcDbLine
 10
66.58249999999992
 20
96.40930896883288
 30
0.0
 11
68.58249999999992
 21
98.40930896883287
 31
0.0
  0
LINE
  5
D6C9
102
{ACAD_REACTORS
330
DB18
102
}
330
18
100
AcDbEntity
  8
contour
100
AcDbLine
 10
121.4174999999999
 20
102.9593089688329
 30
0.0
 11
123.4174999999999
 21
104.9593089688329
 31
0.0
  0
LINE
  5
D6CA
102
{ACAD_REACTORS
330
DB18
102
}
330
18
100
AcDbEntity
  8
contour
100
AcDbLine
 10
121.4174999999999
 20
119.4093089688329
 30
0.0
 11
123.4174999999999
 21
121.4093089688329
 31
0.0
  0
LINE
  5
D6CB
102
{ACAD_REACTORS
330
DB18
102
}
330
18
100
AcDbEntity
  8
contour
 62
     4
100
AcDbLine
 10
122.4999999999999
 20
120.4918089688328
 30
0.0
 11
122.4999999999999
 21
107.8768089688329
 31
0.0
  0
LINE
  5
D6CC
102
{ACAD_REACTORS
330
DB18
102
}
330
18
100
AcDbEntity
  8
contour
 62
     4
100
AcDbLine
 10
122.4999999999999
 20
104.0418089688328
 30
0.0
 11
122.4999999999999
 21
97.32680896883294
 31
0.0
  0
LINE
  5
D6CD
102
{ACAD_REACTORS
330
DB18
102
}
330
18
100
AcDbEntity
  8
contour
100
AcDbLine
 10
121.4174999999999
 20
119.4093089688329
 30
0.0
 11
121.4174999999999
 21
108.9593089688329
 31
0.0
  0
LINE
  5
D6CE
102
{ACAD_REACTORS
330
DB18
102
}
330
18
100
AcDbEntity
  8
contour
100
AcDbLine
 10
121.4174999999999
 20
102.9593089688329
 30
0.0
 11
121.4174999999999
 21
98.40930896883287
 31
0.0
  0
LINE
  5
D6CF
102
{ACAD_REACTORS
330
DB18
102
}
330
18
100
AcDbEntity
  8
contour
100
AcDbLine
 10
123.4174999999999
 20
106.9593089688329
 30
0.0
 11
121.4174999999999
 21
108.9593089688329
 31
0.0
  0
LINE
  5
D6D0
102
{ACAD_REACTORS
330
DB18
102
}
330
18
100
AcDbEntity
  8
contour
100
AcDbLine
 10
123.4174999999999
 20
96.40930896883288
 30
0.0
 11
121.4174999999999
 21
98.40930896883287
 31
0.0
  0
LINE
  5
D6D1
330
18
100
AcDbEntity
  8
contour
100
AcDbLine
 10
68.58249999999992
 20
119.4093089688329
 30
0.0
 11
121.4174999999999
 21
119.4093089688329
 31
0.0
  0
LINE
  5
D6D2
330
18
100
AcDbEntity
  8
contour
100
AcDbLine
 10
121.4174999999999
 20
108.9593089688329
 30
0.0
 11
68.58249999999998
 21
108.9593089688329
 31
0.0
  0
LINE
  5
D6D3
330
18
100
AcDbEntity
  8
contour
100
AcDbLine
 10
68.58249999999992
 20
102.9593089688329
 30
0.0
 11
121.4174999999999
 21
102.9593089688329
 31
0.0
  0
LINE
  5
D6D4
330
18
100
AcDbEntity
  8
contour
100
AcDbLine
 10
121.4174999999999
 20
98.40930896883287
 30
0.0
 11
68.58249999999992
 21
98.40930896883286
 31
0.0
  0
CIRCLE
  5
D6D5
330
18
100
AcDbEntity
  8
contour
100
AcDbCircle
 10
95.00000000000005
 20
197.384907097029
 30
0.0
 40
26.41750000000008
  0
ARC
  5
D6D6
330
18
100
AcDbEntity
  8
contour
 62
     4
100
AcDbCircle
 10
95.00000000000005
 20
197.384907097029
 30
0.0
 40
27.5
100
AcDbArc
 50
168.463040967185
 51
101.5369590328148
  0
CIRCLE
  5
D6D7
330
18
100
AcDbEntity
  8
contour
100
AcDbCircle
 10
95.00000000000005
 20
197.384907097029
 30
0.0
 40
28.41750000000008
  0
DIMENSION
  5
D8F4
330
18
100
AcDbEntity
  8
mark
100
AcDbDimension
  2
*D7
 10
62.98758190170037
 20
191.7764235676195
 30
0.0
 11
143.4398286829989
 21
205.8714256880892
 31
0.0
 70
   163
  1
P.C.D 65
 71
     5
 42
65.00000000000007
  3
STANDARD
100
AcDbDiametricDimension
 15
127.0124180982997
 25
202.9933906264384
 35
0.0
 40
0.0
1001
ACAD
1000
DSTYLE
1002
{
1070
   288
1070
     1
1002
}
  0
DIMENSION
  5
D912
330
18
100
AcDbEntity
  8
mark
100
AcDbDimension
  2
*D8
 10
63.63396454173744
 20
186.351579419893
 30
0.0
 11
143.2355044270759
 21
214.3522451185661
 31
0.0
 70
   163
  1
P.C.D 66.5
 71
     5
 42
66.50000000000101
  3
STANDARD
100
AcDbDiametricDimension
 15
126.3660354582625
 25
208.4182347741647
 35
0.0
 40
0.0
1001
ACAD
1000
DSTYLE
1002
{
1070
   288
1070
     1
1002
}
  0
DIMENSION
  5
D91E
330
18
100
AcDbEntity
  8
mark
100
AcDbDimension
  2
*D9
 10
48.77461258560839
 20
112.4093089688328
 30
0.0
 11
46.67461258560837
 21
116.9093089688329
 31
0.0
 70
    32
 71
     5
 42
9.0
  3
STANDARD
100
AcDbAlignedDimension
 13
58.5
 23
121.4093089688329
 33
0.0
 14
55.49999999999989
 24
112.4093089688328
 34
0.0
 50
90.0
100
AcDbRotatedDimension
  0
DIMENSION
  5
D92B
330
18
100
AcDbEntity
  8
mark
100
AcDbDimension
  2
*D10
 10
142.1333500426961
 20
104.1593089688329
 30
0.0
 11
140.0333500426961
 21
112.7843089688329
 31
0.0
 70
    32
 71
     5
 42
17.24999999999997
  3
STANDARD
100
AcDbAlignedDimension
 13
131.4999999999999
 23
121.4093089688329
 33
0.0
 14
131.5000000000001
 24
104.1593089688329
 34
0.0
 50
90.0
100
AcDbRotatedDimension
  0
DIMENSION
  5
D938
330
18
100
AcDbEntity
  8
mark
100
AcDbDimension
  2
*D11
 10
142.1333500426961
 20
102.1593089688328
 30
0.0
 11
142.1333500426961
 21
103.1593089688329
 31
0.0
 70
   160
 71
     5
 42
2.000000000000028
  3
STANDARD
100
AcDbAlignedDimension
 13
131.4999999999999
 23
104.1593089688329
 33
0.0
 14
131.4999999999999
 24
102.1593089688328
 34
0.0
 50
90.0
100
AcDbRotatedDimension
  0
DIMENSION
  5
D952
330
18
100
AcDbEntity
  8
mark
100
AcDbDimension
  2
*D12
 10
152.0102459368773
 20
96.40930896883288
 30
0.0
 11
149.9102459368773
 21
108.9093089688329
 31
0.0
 70
    32
  1
<>%%p0.2
 71
     5
 42
25.0
  3
STANDARD
100
AcDbAlignedDimension
 13
131.4999999999999
 23
121.4093089688329
 33
0.0
 14
131.5
 24
96.40930896883288
 34
0.0
 50
90.0
100
AcDbRotatedDimension
  0
DIMENSION
  5
D9AF
330
18
100
AcDbEntity
  8
mark
100
AcDbDimension
  2
*D13
 10
122.4999999999999
 20
84.63230073015068
 30
0.0
 11
94.99999999999994
 21
86.73230073015067
 31
0.0
 70
    32
  1
M55x2.0P
 71
     5
 42
54.99999999999989
  3
STANDARD
100
AcDbAlignedDimension
 13
67.5
 23
97.32680896883294
 33
0.0
 14
122.4999999999999
 24
97.32680896883294
 34
0.0
100
AcDbRotatedDimension
  0
LEADER
  5
D9BC
330
18
100
AcDbEntity
  8
mark
100
AcDbLeader
  3
STANDARD
 76
     2
 10
122.4174999999999
 20
97.40930896883288
 30
0.0
 10
115.0501898513614
 20
90.04199882019435
 30
0.0
211
0.7071067811865476
221
0.7071067811865475
231
0.0
1001
ACAD
1000
DSTYLE
1002
{
1070
   147
1040
0.85
1070
    77
1070
     0
1002
}
  0
MTEXT
  5
D9D8
330
18
100
AcDbEntity
  8
mark
 62
     3
100
AcDbMText
 10
115.1495165054932
 20
93.29443062356341
 30
0.0
 40
2.5
 41
0.0
 71
     5
 72
     1
  1
C2
 11
0.7071067811865476
 21
0.7071067811865475
 31
0.0
 73
     1
 44
1.0
1001
ACAD
1000
ACAD_MTEXT_DEFINED_HEIGHT_BEGIN
1070
    46
1040
0.0
1000
ACAD_MTEXT_DEFINED_HEIGHT_END
  0
LEADER
  5
D9DE
330
18
100
AcDbEntity
  8
mark
100
AcDbLeader
  3
STANDARD
 76
     3
 10
61.74999999999982
 20
96.40930896883288
 30
0.0
 10
55.38268985136131
 20
90.04199882019435
 30
0.0
 10
33.86404999503856
 20
90.04199882019435
 30
0.0
1001
ACAD
1000
DSTYLE
1002
{
1070
   147
1040
0.85
1070
    77
1070
     0
1002
}
  0
MTEXT
  5
D9DF
330
18
100
AcDbEntity
  8
dim
100
AcDbMText
 10
32.87921687572231
 20
109.5838345676981
 30
0.0
 40
2.5
 41
54.08337224291063
 71
     1
 72
     5
  1
6-%%C6{\Ftxt,bigfont|c128;深さ}7
 73
     1
 44
1.0
1001
ACAD
1000
ACAD_MTEXT_DEFINED_HEIGHT_BEGIN
1070
    46
1040
0.0
1000
ACAD_MTEXT_DEFINED_HEIGHT_END
  0
LEADER
  5
D9E0
330
18
100
AcDbEntity
  8
mark
100
AcDbLeader
  3
STANDARD
 76
     3
 10
57.49999999999994
 20
112.4093089688328
 30
0.0
 10
51.13268985136142
 20
106.0419988201943
 30
0.0
 10
32.77956842442842
 20
106.0419988201943
 30
0.0
1001
ACAD
1000
DSTYLE
1002
{
1070
   147
1040
0.85
1070
    77
1070
     0
1002
}
  0
TOLERANCE
  5
D9E1
330
18
100
AcDbEntity
  8
mark
100
AcDbFcf
  3
STANDARD
 10
157.0102459368773
 20
128.2016966300455
 30
0.0
  1
{\Fgdt;h}%%v0.005%%v%%vA%%v%%v
  0
DIMENSION
  5
D9F8
330
18
100
AcDbEntity
  8
mark
100
AcDbDimension
  2
*D14
 10
132.4999999999999
 20
128.2016966300455
 30
0.0
 11
94.99999999999998
 21
130.3016966300455
 31
0.0
 70
    32
  1
%%c<>
 71
     5
 42
74.99999999999994
  3
STANDARD
100
AcDbAlignedDimension
 13
57.5
 23
120.4093089688329
 33
0.0
 14
132.4999999999999
 24
120.4093089688329
 34
0.0
100
AcDbRotatedDimension
  0
MTEXT
  5
DA20
330
18
100
AcDbEntity
  8
mark
 62
     3
100
AcDbMText
 10
100.6797889030126
 20
130.4410127351983
 30
0.0
 40
1.7
 41
0.0
 71
     5
 72
     1
  1
\A1;{\H0.7x;\S+0^ -0.2;}
 73
     1
 44
1.0
1001
ACAD
1000
ACAD_MTEXT_DEFINED_HEIGHT_BEGIN
1070
    46
1040
0.0
1000
ACAD_MTEXT_DEFINED_HEIGHT_END
  0
LINE
  5
DA2B
102
{ACAD_REACTORS
330
DA3F
102
}
330
18
100
AcDbEntity
  8
mark
100
AcDbLine
 10
67.5
 20
83.78230073015069
 30
0.0
 11
67.5
 21
71.28230073015071
 31
0.0
  0
LINE
  5
DA33
330
18
100
AcDbEntity
  8
mark
100
AcDbLine
 10
69.99999999999989
 20
73.78230073015068
 30
0.0
 11
77.5
 21
73.78230073015069
 31
0.0
  0
LINE
  5
DA37
102
{ACAD_REACTORS
330
DA3F
102
}
330
18
100
AcDbEntity
  8
mark
100
AcDbLine
 10
67.5
 20
76.28230073015069
 30
0.0
 11
69.99999999999989
 21
73.78230073015068
 31
0.0
  0
LINE
  5
DA39
102
{ACAD_REACTORS
330
DA3F
102
}
330
18
100
AcDbEntity
  8
mark
100
AcDbLine
 10
67.5
 20
71.28230073015071
 30
0.0
 11
69.99999999999989
 21
73.78230073015068
 31
0.0
  0
HATCH
  5
DA3F
330
18
100
AcDbEntity
  8
mark
100
AcDbHatch
 10
0.0
 20
0.0
 30
0.0
210
0.0
220
0.0
230
1.0
  2
SOLID
 70
     1
 71
     1
 91
        1
 92
        7
 72
     0
 73
     1
 93
        3
 10
69.99999999999987
 20
73.78230073015068
 10
67.50000000000001
 20
76.28230073015071
 10
67.49999999999999
 20
71.28230073015071
 97
        3
330
DA37
330
DA2B
330
DA39
 75
     0
 76
     1
 47
0.0567731388354328
 98
        1
 10
69.04173820236355
 20
73.27425043252754
450
        0
451
        0
460
0.0
461
0.0
452
        1
462
1.0
453
        2
463
0.0
 63
     5
421
      255
463
1.0
 63
     7
421
 16777215
470
LINEAR
1001
ACAD
1010
0.0
1020
0.0
1030
0.0
  0
LINE
  5
DA8E
330
18
100
AcDbEntity
  8
mark
100
AcDbLine
 10
152.0102459368773
 20
128.2016966300455
 30
0.0
 11
157.0102459368773
 21
128.2016966300455
 31
0.0
  0
LINE
  5
DA8F
330
18
100
AcDbEntity
  8
mark
100
AcDbLine
 10
152.0102459368773
 20
121.4093089688329
 30
0.0
 11
152.0102459368773
 21
128.2016966300455
 31
0.0
  0
TOLERANCE
  5
DA90
330
18
100
AcDbEntity
  8
mark
100
AcDbFcf
  3
STANDARD
 10
77.5
 20
73.78230073015069
 30
0.0
  1
%%v%%v%%vA%%v%%v
  0
HATCH
  5
DB18
330
18
100
AcDbEntity
  8
section
100
AcDbHatch
 10
0.0
 20
0.0
 30
0.0
210
0.0
220
0.0
230
1.0
  2
ANSI31
 70
     0
 71
     1
 91
       12
 92
        7
 72
     1
 73
     1
 93
       28
 10
67.49999999999994
 20
120.4918089688328
 42
0.0
 10
66.5824999999999
 20
121.4093089688329
 42
0.0
 10
58.5
 20
121.4093089688329
 42
0.4142135623730909
 10
57.5
 20
120.4093089688329
 42
0.0
 10
57.49999999999996
 20
115.9093089688327
 42
0.0
 10
57.99999999999978
 20
115.4093089688329
 42
0.0
 10
62.76794919243098
 20
115.4093089688328
 42
0.0
 10
64.49999999999994
 20
112.4093089688328
 42
0.0
 10
62.76794919243099
 20
109.4093089688328
 42
0.0
 10
57.99999999999984
 20
109.4093089688328
 42
0.0
 10
57.49999999999991
 20
108.9093089688329
 42
0.0
 10
57.49999999999989
 20
105.1593089688328
 42
0.4142135623730951
 10
58.49999999999988
 20
104.1593089688328
 42
0.0
 10
65.49999999999993
 20
104.1593089688328
 42
0.0
 10
65.49999999999994
 20
102.1593089688328
 42
0.0
 10
61.74999999999982
 20
102.1593089688328
 42
0.0
 10
61.74999999999982
 20
100.4093089688329
 42
0.0
 10
63.89999999999973
 20
99.16800589007522
 42
0.0
 10
63.89999999999981
 20
96.90930896883287
 42
0.0
 10
64.39999999999979
 20
96.40930896883288
 42
0.0
 10
66.58249999999992
 20
96.40930896883286
 42
0.0
 10
67.5
 20
97.32680896883294
 42
0.0
 10
67.5
 20
104.0418089688328
 42
0.0
 10
66.58249999999994
 20
104.9593089688329
 42
0.0
 10
59.49999999999993
 20
104.9593089688328
 42
0.0
 10
59.49999999999994
 20
106.9593089688329
 42
0.0
 10
66.58249999999992
 20
106.9593089688329
 42
0.0
 10
67.5
 20
107.8768089688329
 42
0.0
 97
       27
330
D64A
330
D649
330
D64B
330
D636
330
D658
330
D655
330
D654
330
D656
330
D653
330
D652
330
D637
330
D63F
330
D64F
330
D63C
330
D6C5
330
D6BE
330
D6C1
330
D6BD
330
D63A
330
D6C8
330
D668
330
D641
330
D640
330
D64D
330
D642
330
D6C7
330
D667
 92
        7
 72
     1
 73
     1
 93
        9
 10
61.74999999999982
 20
102.1593089688328
 42
0.0
 10
58.49999999999994
 20
102.1593089688328
 42
0.4142135623730951
 10
57.49999999999994
 20
101.1593089688328
 42
0.0
 10
57.49999999999994
 20
97.40930896883288
 42
0.4142135623730951
 10
58.49999999999994
 20
96.40930896883288
 42
0.0
 10
59.09999999999992
 20
96.40930896883288
 42
0.0
 10
59.5999999999999
 20
96.90930896883287
 42
0.0
 10
59.59999999999991
 20
99.16800589007522
 42
0.0
 10
61.74999999999983
 20
100.4093089688329
 42
0.0
 97
        9
330
D63C
330
D63D
330
D638
330
D639
330
D63A
330
D6C0
330
D6BF
330
D6C2
330
D6C5
 92
        7
 72
     0
 73
     1
 93
        4
 10
68.58249999999994
 20
119.4093089688329
 10
67.49999999999994
 20
120.4918089688329
 10
67.5
 20
107.876808968833
 10
68.58249999999992
 20
108.9593089688329
 97
        4
330
D64A
330
D667
330
D6C7
330
D669
 92
        7
 72
     0
 73
     1
 93
        4
 10
68.58249999999991
 20
102.9593089688329
 10
67.49999999999999
 20
104.0418089688328
 10
67.50000000000001
 20
97.32680896883294
 10
68.58249999999992
 20
98.40930896883289
 97
        4
330
D641
330
D668
330
D6C8
330
D6C6
 92
        7
 72
     0
 73
     1
 93
        4
 10
122.4999999999999
 20
104.0418089688328
 10
121.4175
 20
102.9593089688329
 10
121.4174999999999
 20
98.40930896883287
 10
122.4999999999998
 20
97.32680896883294
 97
        4
330
D6C9
330
D6CE
330
D6D0
330
D6CC
 92
        7
 72
     0
 73
     1
 93
       13
 10
125.4999999999999
 20
102.1593089688329
 10
124.4999999999999
 20
102.1593089688328
 10
124.4999999999999
 20
104.1593089688328
 10
125.4999999999999
 20
104.1593089688328
 10
125.4999999999999
 20
104.9593089688329
 10
123.4175
 20
104.9593089688329
 10
122.4999999999999
 20
104.0418089688328
 10
122.4999999999999
 20
97.32680896883294
 10
123.4174999999999
 20
96.40930896883286
 10
123.9999999999998
 20
96.40930896883288
 10
123.9999999999999
 20
96.70930896883294
 10
123.9999999999999
 20
100.4093089688329
 10
125.4999999999999
 20
100.4093089688328
 97
       10
330
D664
330
D650
330
D663
330
D65C
330
D640
330
D6C9
330
D6CC
330
D6D0
330
D63A
330
D65D
 92
        7
 72
     0
 73
     1
 93
        4
 10
122.4999999999999
 20
120.4918089688328
 10
121.4175
 20
119.4093089688329
 10
121.4174999999999
 20
108.9593089688328
 10
122.4999999999999
 20
107.8768089688329
 97
        4
330
D6CA
330
D6CD
330
D6CF
330
D6CB
 92
        7
 72
     0
 73
     1
 93
        7
 10
125.4999999999999
 20
117.6093089688328
 10
125.4999999999999
 20
121.4093089688329
 10
123.4174999999999
 20
121.4093089688329
 10
122.4999999999999
 20
120.4918089688328
 10
122.4999999999999
 20
107.876808968833
 10
123.4174999999999
 20
106.9593089688329
 10
125.4999999999999
 20
106.9593089688329
 97
        7
330
D65F
330
D649
330
D6CA
330
D6CB
330
D6CF
330
D642
330
D65C
 92
        7
 72
     1
 73
     1
 93
       11
 10
132.4999999999999
 20
120.4093089688329
 42
0.4142135623730951
 10
131.4999999999999
 20
121.4093089688329
 42
0.0
 10
129.4999999999998
 20
121.4093089688329
 42
0.0
 10
129.4999999999999
 20
117.6093089688328
 42
0.0
 10
129.4999999999999
 20
106.9593089688329
 42
0.0
 10
130.4999999999999
 20
106.9593089688329
 42
0.0
 10
130.4999999999999
 20
104.9593089688328
 42
0.0
 10
129.4999999999999
 20
104.9593089688328
 42
0.0
 10
129.4999999999998
 20
104.1593089688328
 42
0.0
 10
131.4999999999999
 20
104.1593089688329
 42
0.4142135623730951
 10
132.4999999999999
 20
105.1593089688329
 42
0.0
 97
       10
330
D648
330
D649
330
D660
330
D65C
330
D665
330
D651
330
D666
330
D643
330
D647
330
D646
 92
        7
 72
     1
 73
     1
 93
        9
 10
132.4999999999999
 20
101.1593089688328
 42
0.4142135623730951
 10
131.4999999999999
 20
102.1593089688328
 42
0.0
 10
129.4999999999998
 20
102.1593089688328
 42
0.0
 10
129.4999999999998
 20
100.4093089688328
 42
0.0
 10
130.9999999999999
 20
100.4093089688328
 42
0.0
 10
130.9999999999999
 20
96.70930896883284
 42
0.0
 10
130.9999999999998
 20
96.4093089688329
 42
0.0
 10
131.5
 20
96.40930896883288
 42
0.4142135623730992
 10
132.5
 20
97.40930896883289
 42
0.0
 97
        7
330
D645
330
D63E
330
D65C
330
D65E
330
D63A
330
D63B
330
D644
 92
        7
 72
     0
 73
     1
 93
        4
 10
129.4999999999998
 20
121.4093089688329
 10
129.0999999999999
 20
121.4093089688328
 10
129.0999999999999
 20
118.0093089688328
 10
129.4999999999999
 20
117.6093089688328
 97
        4
330
D649
330
D661
330
D65C
330
D660
 92
        7
 72
     0
 73
     1
 93
        4
 10
125.8999999999999
 20
121.4093089688329
 10
125.4999999999999
 20
121.4093089688329
 10
125.4999999999999
 20
117.6093089688328
 10
125.8999999999999
 20
118.0093089688328
 97
        4
330
D649
330
D65F
330
D65C
330
D662
 75
     0
 76
     1
 52
0.0
 41
0.7
 77
     0
 78
     1
 53
45.0
 43
0.0
 44
0.0
 45
-1.571544821187101
 46
1.571544821187101
 79
     0
 47
0.0641387344313712
 98
       12
 10
65.06002376909305
 20
109.7228331671663
 10
59.90673431145217
 20
100.8937837012347
 10
68.18880675832417
 20
115.7928047781234
 10
68.18880675832417
 20
99.9740907528966
 10
121.7462089705729
 20
100.8937837012347
 10
123.9547614285004
 20
101.2616607485646
 10
121.5621629810553
 20
111.9300957811591
 10
123.9547614285004
 20
112.481911352154
 10
130.028281417445
 20
111.7461569274809
 10
132.2368344590876
 20
100.3419678002265
 10
129.3038003656252
 20
120.2978576048352
 10
125.8382837458856
 20
120.105441369475
1001
ACAD
1010
0.0
1020
0.0
1030
0.0
  0
MTEXT
  5
DB1C
330
18
100
AcDbEntity
  8
dim
100
AcDbMText
 10
145.0413461500863
 20
84.89069183950437
 30
0.0
 40
5.0
 41
54.08337224291063
 71
     1
 72
     5
  1
2
 73
     1
 44
1.0
1001
ACAD
1000
ACAD_MTEXT_DEFINED_HEIGHT_BEGIN
1070
    46
1040
0.0
1000
ACAD_MTEXT_DEFINED_HEIGHT_END
  0
LEADER
  5
DB1E
330
18
100
AcDbEntity
  8
mark
100
AcDbLeader
  3
STANDARD
 76
     2
 10
127.5000000000001
 20
96.40930896883288
 30
0.0
 10
143.7830053193485
 20
82.74624521091002
 30
0.0
1001
ACAD
1000
DSTYLE
1002
{
1070
   147
1040
0.85
1070
    77
1070
     0
1002
}
  0
MTEXT
  5
DB20
330
18
100
AcDbEntity
  8
dim
100
AcDbMText
 10
145.0413461500863
 20
179.6379495394538
 30
0.0
 40
5.0
 41
54.08337224291063
 71
     1
 72
     5
  1
1
 73
     1
 44
1.0
1001
ACAD
1000
ACAD_MTEXT_DEFINED_HEIGHT_BEGIN
1070
    46
1040
0.0
1000
ACAD_MTEXT_DEFINED_HEIGHT_END
  0
LEADER
  5
DB22
330
18
100
AcDbEntity
  8
mark
100
AcDbLeader
  3
STANDARD
 76
     2
 10
131.2222184858401
 20
187.6791929056847
 30
0.0
 10
143.7830053193485
 20
177.1394413063914
 30
0.0
1001
ACAD
1000
DSTYLE
1002
{
1070
   147
1040
0.85
1070
    77
1070
     0
1002
}
  0
LWPOLYLINE
  5
DB58
330
18
100
AcDbEntity
  8
mark
100
AcDbPolyline
 90
        3
 70
     1
 43
0.0
 10
9.030524220563833
 20
35.95890940632091
 10
6.14377287461572
 20
40.95890940632091
 10
3.257021528667578
 20
35.95890940632091
  0
MTEXT
  5
DB59
330
18
100
AcDbEntity
  8
dim
100
AcDbMText
 10
5.712208975859496
 20
39.10409206733072
 30
0.0
 40
2.5
 41
9.163114146879252
 71
     1
 72
     5
  1
1
 73
     1
 44
1.0
1001
ACAD
1000
ACAD_MTEXT_DEFINED_HEIGHT_BEGIN
1070
    46
1040
0.0
1000
ACAD_MTEXT_DEFINED_HEIGHT_END
  0
MTEXT
  5
DB5A
330
18
100
AcDbEntity
  8
dim
100
AcDbMText
 10
10.7937227320355
 20
40.4194673887712
 30
0.0
 40
4.5
 41
0.0
 71
     1
 72
     5
  1
{\Ftxt,bigfont|c128;08.08.22 振れ精度の変更  林}
  7
JL
 73
     1
 44
1.0
1001
ACAD
1000
ACAD_MTEXT_DEFINED_HEIGHT_BEGIN
1070
    46
1040
0.0
1000
ACAD_MTEXT_DEFINED_HEIGHT_END
  0
CIRCLE
  5
DB5B
330
18
100
AcDbEntity
  8
dim
100
AcDbCircle
 10
48.96297924658846
 20
38.03070429244249
 30
0.0
 40
2.762409708108862
  0
LWPOLYLINE
  5
DB5C
330
18
100
AcDbEntity
  8
mark
100
AcDbPolyline
 90
        3
 70
     1
 43
0.0
 10
182.5776258894534
 20
3.434344024423694
 10
179.6908745435053
 20
8.434344024423694
 10
176.8041231975571
 20
3.434344024423694
  0
MTEXT
  5
DB5D
330
18
100
AcDbEntity
  8
dim
100
AcDbMText
 10
179.259310644749
 20
6.579526685433506
 30
0.0
 40
2.5
 41
9.163114146879252
 71
     1
 72
     5
  1
1
 73
     1
 44
1.0
1001
ACAD
1000
ACAD_MTEXT_DEFINED_HEIGHT_BEGIN
1070
    46
1040
0.0
1000
ACAD_MTEXT_DEFINED_HEIGHT_END
  0
LWPOLYLINE
  5
DB5E
330
18
100
AcDbEntity
  8
mark
100
AcDbPolyline
 90
        3
 70
     1
 43
0.0
 10
162.9401034985865
 20
132.1141538869586
 10
160.0533521526383
 20
137.1141538869586
 10
157.1666008066902
 20
132.1141538869586
  0
MTEXT
  5
DB5F
330
18
100
AcDbEntity
  8
dim
100
AcDbMText
 10
159.6217882538821
 20
135.2593365479684
 30
0.0
 40
2.5
 41
9.163114146879252
 71
     1
 72
     5
  1
1
 73
     1
 44
1.0
1001
ACAD
1000
ACAD_MTEXT_DEFINED_HEIGHT_BEGIN
1070
    46
1040
0.0
1000
ACAD_MTEXT_DEFINED_HEIGHT_END
  0
MTEXT
  5
DB60
330
18
100
AcDbEntity
  8
dim
100
AcDbMText
 10
164.4734988051047
 20
135.2593365479684
 30
0.0
 40
2.5
 41
9.163114146879252
 71
     1
 72
     5
  1
0.007
 73
     1
 44
1.0
1001
ACAD
1000
ACAD_MTEXT_DEFINED_HEIGHT_BEGIN
1070
    46
1040
0.0
1000
ACAD_MTEXT_DEFINED_HEIGHT_END
  0
LINE
  5
DB61
330
18
100
AcDbEntity
  8
mark
 62
     1
100
AcDbLine
 10
163.8307559596223
 20
128.634466108405
 30
0.0
 11
173.7122787912403
 21
128.634466108405
 31
0.0
  0
LINE
  5
DB62
330
18
100
AcDbEntity
  8
mark
 62
     1
100
AcDbLine
 10
163.8307559596223
 20
127.6564341543951
 30
0.0
 11
173.7122787912403
 21
127.6564341543951
 31
0.0
  0
ENDSEC
  0
SECTION
  2
OBJECTS
  0
DICTIONARY
  5
C
330
0
100
AcDbDictionary
281
     1
  3
ACAD_COLOR
350
7873
  3
ACAD_GROUP
350
D
  3
ACAD_LAYOUT
350
5CF3
  3
ACAD_MATERIAL
350
7872
  3
ACAD_MLINESTYLE
350
1B
  3
ACAD_PLOTSETTINGS
350
5CF4
  3
ACAD_PLOTSTYLENAME
350
5CF1
  3
ACAD_TABLESTYLE
350
7874
  3
AcadDim
350
D9D9
  3
ACDBVARIABLEDICTIONARY
350
45D
  0
DICTIONARY
  5
7BFE
330
2
100
AcDbDictionary
280
     1
281
     1
  3
ACAD_LAYERFILTERS
360
7C00
  3
ACLYDICTIONARY
360
7BFF
  0
DICTIONARY
  5
45F
330
18
100
AcDbDictionary
280
     1
281
     1
  3
ACAD_LAYOUTSELFREF
360
5D8B
  3
ACAD_SORTENTS
360
460
  0
DICTIONARY
  5
5D89
330
15
100
AcDbDictionary
280
     1
281
     1
  3
ACAD_LAYOUTSELFREF
360
5D8A
  0
DICTIONARY
  5
7C0B
330
7C0A
100
AcDbDictionary
280
     1
281
     1
  3
AcDbBlockTableRecordData
360
7C0C
  0
DICTIONARY
  5
8E73
330
8E72
100
AcDbDictionary
280
     1
281
     1
  3
AcDbBlockTableRecordData
360
8E74
  0
DICTIONARY
  5
9D16
330
9D15
100
AcDbDictionary
280
     1
281
     1
  3
AcDbBlockTableRecordData
360
9D17
  0
DICTIONARY
  5
A519
330
A518
100
AcDbDictionary
280
     1
281
     1
  3
AcDbBlockTableRecordData
360
A51A
  0
DICTIONARY
  5
A628
330
A627
100
AcDbDictionary
280
     1
281
     1
  3
AcDbBlockTableRecordData
360
A629
  0
DICTIONARY
  5
7873
102
{ACAD_REACTORS
330
C
102
}
330
C
100
AcDbDictionary
281
     1
  0
DICTIONARY
  5
D
102
{ACAD_REACTORS
330
C
102
}
330
C
100
AcDbDictionary
281
     1
  0
DICTIONARY
  5
5CF3
102
{ACAD_REACTORS
330
C
102
}
330
C
100
AcDbDictionary
281
     1
  3
Model
350
5CF5
  3
配置1
350
5CF6
  0
DICTIONARY
  5
7872
102
{ACAD_REACTORS
330
C
102
}
330
C
100
AcDbDictionary
281
     1
  0
DICTIONARY
  5
1B
102
{ACAD_REACTORS
330
C
102
}
330
C
100
AcDbDictionary
281
     1
  3
STANDARD
350
1C
  0
DICTIONARY
  5
5CF4
102
{ACAD_REACTORS
330
C
102
}
330
C
100
AcDbDictionary
281
     1
  0
ACDBDICTIONARYWDFLT
  5
5CF1
102
{ACAD_REACTORS
330
C
102
}
330
C
100
AcDbDictionary
281
     1
  3
Normal
350
5CF2
100
AcDbDictionaryWithDefault
340
5CF2
  0
DICTIONARY
  5
7874
102
{ACAD_REACTORS
330
C
102
}
330
C
100
AcDbDictionary
281
     1
  3
Standard
350
7875
  0
XRECORD
  5
D9D9
102
{ACAD_REACTORS
330
C
102
}
330
C
100
AcDbXrecord
280
     1
 90
   990106
  3

 60
     0
 61
     0
 62
     1
 63
     3
 64
     0
 65
     0
 66
     0
 67
     3
 68
     1
 69
     0
 70
     0
 71
     0
 72
     0
 40
0.0
170
     0
  0
DICTIONARY
  5
45D
102
{ACAD_REACTORS
330
C
102
}
330
C
100
AcDbDictionary
281
     1
  3
CTABLESTYLE
350
7880
  3
SORTENTS
350
45E
  0
DICTIONARY
  5
7C00
102
{ACAD_REACTORS
330
7BFE
102
}
330
7BFE
100
AcDbDictionary
281
     1
  0
DICTIONARY
  5
7BFF
102
{ACAD_REACTORS
330
7BFE
102
}
330
7BFE
100
AcDbDictionary
281
     1
1001
ACAD
1000
<All
  0
XRECORD
  5
5D8B
102
{ACAD_REACTORS
330
45F
102
}
330
45F
100
AcDbXrecord
280
     1
340
18
  0
SORTENTSTABLE
  5
460
102
{ACAD_REACTORS
330
45F
102
}
330
45F
100
AcDbSortentsTable
330
18
331
D640
  5
D641
331
AF81
  5
AF81
331
D6BE
  5
D6C3
331
DA33
  5
DA39
331
D687
  5
D689
331
D648
  5
D649
331
AF4A
  5
AF4A
331
AF89
  5
AF89
331
C0
  5
CB
331
D6C6
  5
D6CB
331
D9BC
  5
D9D8
331
D650
  5
D651
331
AF52
  5
AF52
331
D68F
  5
D691
331
D697
  5
D699
331
D658
  5
D659
331
AF5A
  5
AF5A
331
D6CE
  5
D6D3
331
D6D6
  5
D910
331
D660
  5
D661
331
AF62
  5
AF62
331
D629
  5
D629
331
AF6A
  5
AF6A
331
D668
  5
D669
331
D69F
  5
D6A1
331
D631
  5
D631
331
AF72
  5
AF72
331
D670
  5
D671
331
D6A7
  5
D6AC
331
D639
  5
D63A
331
AF7A
  5
AF7A
331
D678
  5
D679
331
D6AF
  5
D6B4
331
D6B7
  5
D6BC
331
D91E
  5
D92B
331
D641
  5
D642
331
AF82
  5
AF82
331
D680
  5
D682
331
D649
  5
D64A
331
AF4B
  5
AF4B
331
AF8A
  5
AF8A
331
D688
  5
D68A
331
D6BF
  5
D6C4
331
D690
  5
D692
331
D651
  5
D652
331
AF53
  5
AF53
331
D6C7
  5
D6CC
331
D659
  5
D65A
331
AF5B
  5
AF5B
331
D6CF
  5
D6D4
331
D6D7
  5
D911
331
D661
  5
D662
331
AF63
  5
AF63
331
D698
  5
D69A
331
D62A
  5
D62A
331
AF6B
  5
AF6B
331
D669
  5
D66A
331
D6A0
  5
D6A2
331
D632
  5
D632
331
AF73
  5
AF73
331
D671
  5
D672
331
D6A8
  5
D6AD
331
D63A
  5
D63B
331
AF7B
  5
AF7B
331
D679
  5
D67A
331
D6B0
  5
D6B5
331
D6B8
  5
D6BD
331
AF44
  5
AF44
331
AF83
  5
AF83
331
D642
  5
D643
331
D681
  5
D683
331
D6C0
  5
D6C5
331
AF4C
  5
AF4C
331
AF8B
  5
AF8B
331
D64A
  5
D64B
331
D689
  5
D68B
331
D6C8
  5
D6CD
331
D691
  5
D693
331
AF54
  5
AF54
331
D652
  5
D653
331
D6D0
  5
D6D5
331
D9DE
  5
D9DF
331
AF5C
  5
AF5C
331
D65A
  5
D65B
331
D699
  5
D69B
331
AF64
  5
AF64
331
D413
  5
D420
331
D662
  5
D663
331
D6A1
  5
D6A3
331
AF6C
  5
AF6C
331
D62B
  5
D62B
331
D66A
  5
D66B
331
D6A9
  5
D6AE
331
AF74
  5
AF74
331
D633
  5
D633
331
D672
  5
D673
331
D6B1
  5
D6B6
331
AF7C
  5
AF7C
331
D63B
  5
D63C
331
D67A
  5
D67B
331
D9AF
  5
D9BC
331
D6B9
  5
D6BE
331
AF45
  5
AF45
331
AF84
  5
AF84
331
D643
  5
D644
331
D682
  5
D684
331
D6C1
  5
D6C6
331
AF4D
  5
AF4D
331
AF8C
  5
AF8C
331
D64B
  5
D64C
331
D68A
  5
D68C
331
D6C9
  5
D6CE
331
D938
  5
D952
331
D692
  5
D694
331
AF55
  5
AF55
331
D653
  5
D654
331
D6D1
  5
D6D6
331
D9DF
  5
D9E0
331
AF5D
  5
AF5D
331
D65B
  5
D65C
331
D69A
  5
D69C
331
AF65
  5
AF65
331
D663
  5
D664
331
D6A2
  5
D6A7
331
AF6D
  5
AF6D
331
D62C
  5
D62C
331
D66B
  5
D66C
331
D6AA
  5
D6AF
331
AF75
  5
AF75
331
D634
  5
D634
331
D673
  5
D674
331
D6B2
  5
D6B7
331
AF7D
  5
AF7D
331
D63C
  5
D63D
331
D67B
  5
D67C
331
D6BA
  5
D6BF
331
AF46
  5
AF46
331
AF85
  5
AF85
331
D644
  5
D645
331
D683
  5
D685
331
DA37
  5
DA3B
331
D6C2
  5
D6C7
331
AF4E
  5
AF4E
331
AF8D
  5
AF8D
331
D64C
  5
D64D
331
D68B
  5
D68D
331
D9D8
  5
D9DE
331
D6CA
  5
D6CF
331
DA3F
  5
DA33
331
D693
  5
D695
331
AF56
  5
AF56
331
D654
  5
D655
331
D9E0
  5
D9E1
331
D6D2
  5
D6D7
331
AF5E
  5
AF5E
331
D65C
  5
D65D
331
D9F8
  5
DA20
331
D69B
  5
D69D
331
AF66
  5
AF66
331
D664
  5
D665
331
DA8E
  5
DA8F
331
D6A3
  5
D6A8
331
AF6E
  5
AF6E
331
D62D
  5
D62D
331
D66C
  5
D66D
331
D912
  5
D91E
331
D6AB
  5
D6B0
331
DA20
  5
DA2B
331
AF76
  5
AF76
331
D635
  5
D635
331
D674
  5
D675
331
D6B3
  5
D6B8
331
AF7E
  5
AF7E
331
D63D
  5
D63E
331
D67C
  5
D67D
331
D6BB
  5
D6C0
331
AF47
  5
AF47
331
AF86
  5
AF86
331
D645
  5
D646
331
D684
  5
D686
331
D6C3
  5
D6C8
331
AF8E
  5
AF8E
331
AF4F
  5
AF4F
331
D64D
  5
D64E
331
D68C
  5
D68E
331
D6CB
  5
D6D0
331
D694
  5
D696
331
AF57
  5
AF57
331
D655
  5
D656
331
D9E1
  5
D9F8
331
D6D3
  5
D8F4
331
AF5F
  5
AF5F
331
D65D
  5
D65E
331
D69C
  5
D69E
331
AF67
  5
AF67
331
D665
  5
D666
331
D952
  5
D9AF
331
D6A4
  5
D6A9
331
DA8F
  5
DA90
331
AF6F
  5
AF6F
331
D62E
  5
D62E
331
D66D
  5
D66E
331
D6AC
  5
D6B1
331
AF77
  5
AF77
331
D636
  5
D637
331
D675
  5
D676
331
D6B4
  5
D6B9
331
AF7F
  5
AF7F
331
D63E
  5
D63F
331
D67D
  5
D67E
331
D92B
  5
D938
331
D6BC
  5
D6C1
331
AF48
  5
AF48
331
AF87
  5
AF87
331
D646
  5
D647
331
D685
  5
D687
331
D6C4
  5
D6C9
331
DA39
  5
DA8E
331
D64E
  5
D64F
331
AF50
  5
AF50
331
AF8F
  5
AF8F
331
D68D
  5
D68F
331
D6CC
  5
D6D1
331
D695
  5
D697
331
D656
  5
D657
331
AF58
  5
AF58
331
D6D4
  5
D900
331
D65E
  5
D65F
331
AF60
  5
AF60
331
D69D
  5
D69F
331
D8F4
  5
D912
331
D666
  5
D667
331
AF68
  5
AF68
331
D6A5
  5
D6AA
331
DA90
  5
DA94
331
D62F
  5
D62F
331
AF70
  5
AF70
331
D66E
  5
D66F
331
D6AD
  5
D6B2
331
DB18
  5
D636
331
D637
  5
D638
331
AF78
  5
AF78
331
D676
  5
D677
331
D6B5
  5
D6BA
331
D63F
  5
D640
331
D67E
  5
D67F
331
AF80
  5
AF80
331
D6BD
  5
D6C2
331
D647
  5
D648
331
AF49
  5
AF49
331
AF88
  5
AF88
331
D686
  5
D688
331
D6C5
  5
D6CA
331
D64F
  5
D650
331
AF51
  5
AF51
331
AFC8
  5
AFC8
331
D68E
  5
D690
331
D6CD
  5
D6D2
331
D696
  5
D698
331
D657
  5
D658
331
AF59
  5
AF59
331
D6D5
  5
D902
331
D65F
  5
D660
331
AF61
  5
AF61
331
D69E
  5
D6A0
331
D667
  5
D668
331
AF69
  5
AF69
331
D6A6
  5
D6AB
331
D630
  5
D630
331
AF71
  5
AF71
331
D66F
  5
D670
331
D6AE
  5
D6B3
331
D638
  5
D639
331
AF79
  5
AF79
331
D677
  5
D678
331
D6B6
  5
D6BB
331
DA2B
  5
DA37
331
D67F
  5
D680
  0
XRECORD
  5
5D8A
102
{ACAD_REACTORS
330
5D89
102
}
330
5D89
100
AcDbXrecord
280
     1
340
15
  0
DICTIONARY
  5
7C0C
102
{ACAD_REACTORS
330
7C0B
102
}
330
7C0B
100
AcDbDictionary
280
     1
281
     1
  3
Edit
360
7C0D
  0
DICTIONARY
  5
8E74
102
{ACAD_REACTORS
330
8E73
102
}
330
8E73
100
AcDbDictionary
280
     1
281
     1
  3
Edit
360
8E75
  0
DICTIONARY
  5
9D17
102
{ACAD_REACTORS
330
9D16
102
}
330
9D16
100
AcDbDictionary
280
     1
281
     1
  3
Edit
360
9D18
  0
DICTIONARY
  5
A51A
102
{ACAD_REACTORS
330
A519
102
}
330
A519
100
AcDbDictionary
280
     1
281
     1
  3
Edit
360
A51B
  0
DICTIONARY
  5
A629
102
{ACAD_REACTORS
330
A628
102
}
330
A628
100
AcDbDictionary
280
     1
281
     1
  3
Edit
360
A62A
  0
LAYOUT
  5
5CF5
102
{ACAD_REACTORS
330
5CF3
102
}
330
5CF3
100
AcDbPlotSettings
  1

  2
Microsoft Office Document Image Writer
  4
A4
  6

 40
3.174999952316284
 41
3.174999952316284
 42
3.175003051757812
 43
3.17498779296875
 44
210.0579986572266
 45
297.0530090332031
 46
6.853997826576232
 47
5.351510643959045
 48
0.0
 49
0.0
140
190.0
141
280.0
142
1.0
143
1.0
 70
 11940
 72
     1
 73
     0
 74
     4
  7
LIN.ctb
 75
     0
147
1.02454228741782
 76
     0
 77
     2
 78
   300
148
0.0
149
0.0
100
AcDbLayout
  1
Model
 70
     1
 71
     0
 10
0.0
 20
0.0
 11
12.0
 21
9.0
 12
0.0
 22
0.0
 32
0.0
 14
0.0
 24
0.0
 34
0.0
 15
0.0
 25
0.0
 35
0.0
146
0.0
 13
0.0
 23
0.0
 33
0.0
 16
1.0
 26
0.0
 36
0.0
 17
0.0
 27
1.0
 37
0.0
 76
     0
330
18
1001
ACAD_PSEXT
1000
Microsoft Office Document Image Writer
1000
Microsoft Office Document Image Writer Driver
1000
Microsoft Document Imaging Writer Port:
1000

1070
     0
  0
LAYOUT
  5
5CF6
102
{ACAD_REACTORS
330
5CF3
102
}
330
5CF3
100
AcDbPlotSettings
  1

  2
EPSON STYLUS COLOR 440
  4

  6

 40
0.0
 41
0.0
 42
0.0
 43
0.0
 44
0.0
 45
0.0
 46
0.0
 47
0.0
 48
0.0
 49
0.0
140
0.0
141
0.0
142
1.0
143
1.0
 70
   688
 72
     0
 73
     0
 74
     5
  7
LIN.ctb
 75
    16
147
1.0
 76
     0
 77
     2
 78
   300
148
0.0
149
0.0
100
AcDbLayout
  1
ｰtｸm1
 70
     1
 71
     1
 10
0.0
 20
0.0
 11
420.0
 21
297.0
 12
0.0
 22
0.0
 32
0.0
 14
1.000000000000000E+20
 24
1.000000000000000E+20
 34
1.000000000000000E+20
 15
-1.000000000000000E+20
 25
-1.000000000000000E+20
 35
-1.000000000000000E+20
146
0.0
 13
0.0
 23
0.0
 33
0.0
 16
1.0
 26
0.0
 36
0.0
 17
0.0
 27
1.0
 37
0.0
 76
     0
330
15
  0
MLINESTYLE
  5
1C
102
{ACAD_REACTORS
330
1B
102
}
330
1B
100
AcDbMlineStyle
  2
STANDARD
 70
     0
  3

 62
   256
 51
90.0
 52
90.0
 71
     2
 49
0.5
 62
   256
  6
BYLAYER
 49
-0.5
 62
   256
  6
BYLAYER
  0
ACDBPLACEHOLDER
  5
5CF2
102
{ACAD_REACTORS
330
5CF1
102
}
330
5CF1
  0
TABLESTYLE
  5
7875
102
{ACAD_REACTORS
330
7874
102
}
330
7874
100
AcDbTableStyle
  3
Standard
 70
     0
 71
     8
 40
1.5
 41
1.5
280
     0
281
     0
  7
STANDARD
140
4.5
170
     2
 62
     0
 63
     7
283
     0
274
    -2
284
     1
 64
     0
275
    -2
285
     1
 65
     0
276
    -2
286
     1
 66
     0
277
    -2
287
     1
 67
     0
278
    -2
288
     1
 68
     0
279
    -2
289
     1
 69
     0
  7
STANDARD
140
6.0
170
     5
 62
     0
 63
     7
283
     0
274
    -2
284
     1
 64
     0
275
    -2
285
     1
 65
     0
276
    -2
286
     1
 66
     0
277
    -2
287
     1
 67
     0
278
    -2
288
     1
 68
     0
279
    -2
289
     1
 69
     0
  7
STANDARD
140
4.5
170
     5
 62
     0
 63
     7
283
     0
274
    -2
284
     1
 64
     0
275
    -2
285
     1
 65
     0
276
    -2
286
     1
 66
     0
277
    -2
287
     1
 67
     0
278
    -2
288
     1
 68
     0
279
    -2
289
     1
 69
     0
  0
DICTIONARYVAR
  5
7880
102
{ACAD_REACTORS
330
45D
102
}
330
45D
100
DictionaryVariables
280
     0
  1
STANDARD
  0
DICTIONARYVAR
  5
45E
102
{ACAD_REACTORS
330
45D
102
}
330
45D
100
DictionaryVariables
280
     0
  1
127
  0
XRECORD
  5
7C0D
102
{ACAD_REACTORS
330
7C0C
102
}
330
7C0C
100
AcDbXrecord
280
     1
1070
     0
1070
     1
1070
     1
  0
XRECORD
  5
8E75
102
{ACAD_REACTORS
330
8E74
102
}
330
8E74
100
AcDbXrecord
280
     1
1070
     0
1070
     1
1070
     1
  0
XRECORD
  5
9D18
102
{ACAD_REACTORS
330
9D17
102
}
330
9D17
100
AcDbXrecord
280
     1
1070
     0
1070
     1
1070
     1
  0
XRECORD
  5
A51B
102
{ACAD_REACTORS
330
A51A
102
}
330
A51A
100
AcDbXrecord
280
     1
1070
     0
1070
     1
1070
     1
  0
XRECORD
  5
A62A
102
{ACAD_REACTORS
330
A629
102
}
330
A629
100
AcDbXrecord
280
     1
1070
     0
1070
     1
1070
     1
  0
ENDSEC
  0
EOF
