  0
SECTION
  2
HEADER
  9
$ACADVER
  1
AC1018
  9
$ACADMAINTVER
 70
    76
  9
$DWGCODEPAGE
  3
ANSI_932
  9
$INSBASE
 10
0.0
 20
0.0
 30
0.0
  9
$EXTMIN
 10
0.0
 20
0.0
 30
0.0
  9
$EXTMAX
 10
190.0
 20
280.0
 30
0.0
  9
$LIMMIN
 10
0.0
 20
0.0
  9
$LIMMAX
 10
420.0
 20
297.0
  9
$ORTHOMODE
 70
     1
  9
$REGENMODE
 70
     1
  9
$FILLMODE
 70
     1
  9
$QTEXTMODE
 70
     0
  9
$MIRRTEXT
 70
     1
  9
$LTSCALE
 40
1.0
  9
$ATTMODE
 70
     1
  9
$TEXTSIZE
 40
2.5
  9
$TRACEWID
 40
1.0
  9
$TEXTSTYLE
  7
STANDARD
  9
$CLAYER
  8
mark
  9
$CELTYPE
  6
BYLAYER
  9
$CECOLOR
 62
   256
  9
$CELTSCALE
 40
1.0
  9
$DISPSILH
 70
     0
  9
$DIMSCALE
 40
1.0
  9
$DIMASZ
 40
2.5
  9
$DIMEXO
 40
0.85
  9
$DIMDLI
 40
0.38
  9
$DIMRND
 40
0.0
  9
$DIMDLE
 40
0.0
  9
$DIMEXE
 40
0.85
  9
$DIMTP
 40
0.0
  9
$DIMTM
 40
0.0
  9
$DIMTXT
 40
2.5
  9
$DIMCEN
 40
0.09
  9
$DIMTSZ
 40
0.0
  9
$DIMTOL
 70
     0
  9
$DIMLIM
 70
     0
  9
$DIMTIH
 70
     0
  9
$DIMTOH
 70
     0
  9
$DIMSE1
 70
     0
  9
$DIMSE2
 70
     0
  9
$DIMTAD
 70
     3
  9
$DIMZIN
 70
     8
  9
$DIMBLK
  1
Open30
  9
$DIMASO
 70
     1
  9
$DIMSHO
 70
     1
  9
$DIMPOST
  1

  9
$DIMAPOST
  1

  9
$DIMALT
 70
     0
  9
$DIMALTD
 70
     2
  9
$DIMALTF
 40
25.4
  9
$DIMLFAC
 40
1.0
  9
$DIMTOFL
 70
     1
  9
$DIMTVP
 40
0.0
  9
$DIMTIX
 70
     0
  9
$DIMSOXD
 70
     0
  9
$DIMSAH
 70
     0
  9
$DIMBLK1
  1

  9
$DIMBLK2
  1

  9
$DIMSTYLE
  2
STANDARD
  9
$DIMCLRD
 70
   256
  9
$DIMCLRE
 70
   256
  9
$DIMCLRT
 70
     3
  9
$DIMTFAC
 40
1.0
  9
$DIMGAP
 40
0.85
  9
$DIMJUST
 70
     0
  9
$DIMSD1
 70
     0
  9
$DIMSD2
 70
     0
  9
$DIMTOLJ
 70
     1
  9
$DIMTZIN
 70
     0
  9
$DIMALTZ
 70
     0
  9
$DIMALTTZ
 70
     0
  9
$DIMUPT
 70
     0
  9
$DIMDEC
 70
     2
  9
$DIMTDEC
 70
     2
  9
$DIMALTU
 70
     2
  9
$DIMALTTD
 70
     2
  9
$DIMTXSTY
  7
STANDARD
  9
$DIMAUNIT
 70
     0
  9
$DIMADEC
 70
     2
  9
$DIMALTRND
 40
0.0
  9
$DIMAZIN
 70
     2
  9
$DIMDSEP
 70
    46
  9
$DIMATFIT
 70
     3
  9
$DIMFRAC
 70
     0
  9
$DIMLDRBLK
  1
Open30
  9
$DIMLUNIT
 70
     2
  9
$DIMLWD
 70
    -2
  9
$DIMLWE
 70
    -2
  9
$DIMTMOVE
 70
     0
  9
$LUNITS
 70
     2
  9
$LUPREC
 70
     2
  9
$SKETCHINC
 40
1.0
  9
$FILLETRAD
 40
1.0
  9
$AUNITS
 70
     0
  9
$AUPREC
 70
     2
  9
$MENU
  1
.
  9
$ELEVATION
 40
0.0
  9
$PELEVATION
 40
0.0
  9
$THICKNESS
 40
0.0
  9
$LIMCHECK
 70
     0
  9
$CHAMFERA
 40
1.0
  9
$CHAMFERB
 40
1.0
  9
$CHAMFERC
 40
1.75
  9
$CHAMFERD
 40
0.0174532925199433
  9
$SKPOLY
 70
     0
  9
$TDCREATE
 40
2451555.620234838
  9
$TDUCREATE
 40
2451555.245234838
  9
$TDUPDATE
 40
2455846.622444931
  9
$TDUUPDATE
 40
2455846.247444930
  9
$TDINDWG
 40
3.1553631250
  9
$TDUSRTIMER
 40
3.1553631250
  9
$USRTIMER
 70
     1
  9
$ANGBASE
 50
0.0
  9
$ANGDIR
 70
     0
  9
$PDMODE
 70
     0
  9
$PDSIZE
 40
0.0
  9
$PLINEWID
 40
0.0
  9
$SPLFRAME
 70
     0
  9
$SPLINETYPE
 70
     6
  9
$SPLINESEGS
 70
     8
  9
$HANDSEED
  5
E6BA
  9
$SURFTAB1
 70
     6
  9
$SURFTAB2
 70
     6
  9
$SURFTYPE
 70
     6
  9
$SURFU
 70
     6
  9
$SURFV
 70
     6
  9
$UCSBASE
  2

  9
$UCSNAME
  2

  9
$UCSORG
 10
0.0
 20
0.0
 30
0.0
  9
$UCSXDIR
 10
1.0
 20
0.0
 30
0.0
  9
$UCSYDIR
 10
0.0
 20
1.0
 30
0.0
  9
$UCSORTHOREF
  2

  9
$UCSORTHOVIEW
 70
     1
  9
$UCSORGTOP
 10
0.0
 20
0.0
 30
0.0
  9
$UCSORGBOTTOM
 10
0.0
 20
0.0
 30
0.0
  9
$UCSORGLEFT
 10
0.0
 20
0.0
 30
0.0
  9
$UCSORGRIGHT
 10
0.0
 20
0.0
 30
0.0
  9
$UCSORGFRONT
 10
0.0
 20
0.0
 30
0.0
  9
$UCSORGBACK
 10
0.0
 20
0.0
 30
0.0
  9
$PUCSBASE
  2

  9
$PUCSNAME
  2

  9
$PUCSORG
 10
0.0
 20
0.0
 30
0.0
  9
$PUCSXDIR
 10
1.0
 20
0.0
 30
0.0
  9
$PUCSYDIR
 10
0.0
 20
1.0
 30
0.0
  9
$PUCSORTHOREF
  2

  9
$PUCSORTHOVIEW
 70
     0
  9
$PUCSORGTOP
 10
0.0
 20
0.0
 30
0.0
  9
$PUCSORGBOTTOM
 10
0.0
 20
0.0
 30
0.0
  9
$PUCSORGLEFT
 10
0.0
 20
0.0
 30
0.0
  9
$PUCSORGRIGHT
 10
0.0
 20
0.0
 30
0.0
  9
$PUCSORGFRONT
 10
0.0
 20
0.0
 30
0.0
  9
$PUCSORGBACK
 10
0.0
 20
0.0
 30
0.0
  9
$USERI1
 70
     0
  9
$USERI2
 70
     0
  9
$USERI3
 70
     0
  9
$USERI4
 70
     0
  9
$USERI5
 70
     0
  9
$USERR1
 40
0.0
  9
$USERR2
 40
0.0
  9
$USERR3
 40
0.0
  9
$USERR4
 40
0.0
  9
$USERR5
 40
0.0
  9
$WORLDVIEW
 70
     1
  9
$SHADEDGE
 70
     3
  9
$SHADEDIF
 70
    70
  9
$TILEMODE
 70
     1
  9
$MAXACTVP
 70
    48
  9
$PINSBASE
 10
0.0
 20
0.0
 30
0.0
  9
$PLIMCHECK
 70
     0
  9
$PEXTMIN
 10
1.000000000000000E+20
 20
1.000000000000000E+20
 30
1.000000000000000E+20
  9
$PEXTMAX
 10
-1.000000000000000E+20
 20
-1.000000000000000E+20
 30
-1.000000000000000E+20
  9
$PLIMMIN
 10
0.0
 20
0.0
  9
$PLIMMAX
 10
420.0
 20
297.0
  9
$UNITMODE
 70
     0
  9
$VISRETAIN
 70
     1
  9
$PLINEGEN
 70
     0
  9
$PSLTSCALE
 70
     1
  9
$TREEDEPTH
 70
  3020
  9
$CMLSTYLE
  2
STANDARD
  9
$CMLJUST
 70
     0
  9
$CMLSCALE
 40
20.0
  9
$PROXYGRAPHICS
 70
     1
  9
$MEASUREMENT
 70
     1
  9
$CELWEIGHT
370
    -1
  9
$ENDCAPS
280
     0
  9
$JOINSTYLE
280
     0
  9
$LWDISPLAY
290
     0
  9
$INSUNITS
 70
     0
  9
$HYPERLINKBASE
  1

  9
$STYLESHEET
  1
LIN.ctb
  9
$XEDIT
290
     1
  9
$CEPSNTYPE
380
     0
  9
$PSTYLEMODE
290
     1
  9
$FINGERPRINTGUID
  2
{1CF51E8A-A506-11D4-A7D9-AF69F5C20846}
  9
$VERSIONGUID
  2
{FF651387-6DCD-491D-BECD-EFE57F1E058C}
  9
$EXTNAMES
290
     1
  9
$PSVPSCALE
 40
0.0
  9
$OLESTARTUP
290
     0
  9
$SORTENTS
280
   127
  9
$INDEXCTL
280
     0
  9
$HIDETEXT
280
     0
  9
$XCLIPFRAME
290
     0
  9
$HALOGAP
280
     0
  9
$OBSCOLOR
 70
   257
  9
$OBSLTYPE
280
     0
  9
$INTERSECTIONDISPLAY
280
     0
  9
$INTERSECTIONCOLOR
 70
   257
  9
$DIMASSOC
280
     1
  9
$PROJECTNAME
  1

  0
ENDSEC
  0
SECTION
  2
CLASSES
  0
CLASS
  1
DICTIONARYVAR
  2
AcDbDictionaryVar
  3
ObjectDBX Classes
 90
        0
 91
        2
280
     0
281
     0
  0
CLASS
  1
SORTENTSTABLE
  2
AcDbSortentsTable
  3
ObjectDBX Classes
 90
        0
 91
        1
280
     0
281
     0
  0
CLASS
  1
ACDBDICTIONARYWDFLT
  2
AcDbDictionaryWithDefault
  3
ObjectDBX Classes
 90
        0
 91
        1
280
     0
281
     0
  0
CLASS
  1
TABLESTYLE
  2
AcDbTableStyle
  3
ObjectDBX Classes
 90
     2047
 91
        1
280
     0
281
     0
  0
ENDSEC
  0
SECTION
  2
TABLES
  0
TABLE
  2
VPORT
  5
8
330
0
100
AcDbSymbolTable
 70
     2
  0
VPORT
  5
E6B9
330
8
100
AcDbSymbolTableRecord
100
AcDbViewportTableRecord
  2
*Active
 70
     0
 10
0.0
 20
0.0
 11
1.0
 21
1.0
 12
246.2790439606804
 22
136.7174051886122
 13
0.0
 23
0.0
 14
10.0
 24
10.0
 15
10.0
 25
10.0
 16
0.0
 26
0.0
 36
1.0
 17
0.0
 27
0.0
 37
0.0
 40
318.666197383115
 41
2.47104247104247
 42
50.0
 43
0.0
 44
0.0
 50
0.0
 51
0.0
 71
     0
 72
 20000
 73
     1
 74
     1
 75
     0
 76
     0
 77
     0
 78
     0
281
     0
 65
     1
110
0.0
120
0.0
130
0.0
111
1.0
121
0.0
131
0.0
112
0.0
122
1.0
132
0.0
 79
     1
146
0.0
  0
ENDTAB
  0
TABLE
  2
LTYPE
  5
5
330
0
100
AcDbSymbolTable
 70
     7
  0
LTYPE
  5
12
330
5
100
AcDbSymbolTableRecord
100
AcDbLinetypeTableRecord
  2
BYBLOCK
 70
     0
  3

 72
    65
 73
     0
 40
0.0
  0
LTYPE
  5
13
330
5
100
AcDbSymbolTableRecord
100
AcDbLinetypeTableRecord
  2
BYLAYER
 70
     0
  3

 72
    65
 73
     0
 40
0.0
  0
LTYPE
  5
14
330
5
100
AcDbSymbolTableRecord
100
AcDbLinetypeTableRecord
  2
CONTINUOUS
 70
     0
  3
Solid line
 72
    65
 73
     0
 40
0.0
  0
LTYPE
  5
9D
330
5
100
AcDbSymbolTableRecord
100
AcDbLinetypeTableRecord
  2
CENTERX2
 70
     0
  3
Center (2x) ________  __  ________  __  _____
 72
    65
 73
     4
 40
101.6
 49
63.5
 74
     0
 49
-12.7
 74
     0
 49
12.7
 74
     0
 49
-12.7
 74
     0
  0
LTYPE
  5
A1
330
5
100
AcDbSymbolTableRecord
100
AcDbLinetypeTableRecord
  2
DASHED
 70
     0
  3
Dashed __ __ __ __ __ __ __ __ __ __ __ __ __ _
 72
    65
 73
     2
 40
19.05
 49
12.7
 74
     0
 49
-6.349999999999999
 74
     0
  0
LTYPE
  5
A2
330
5
100
AcDbSymbolTableRecord
100
AcDbLinetypeTableRecord
  2
DASHED2
 70
     0
  3
Dashed (.5x) _ _ _ _ _ _ _ _ _ _ _ _ _ _ _ _ _
 72
    65
 73
     2
 40
9.524999999999998
 49
6.349999999999999
 74
     0
 49
-3.174999999999999
 74
     0
  0
LTYPE
  5
A5
330
5
100
AcDbSymbolTableRecord
100
AcDbLinetypeTableRecord
  2
DIVIDE2
 70
     0
  3
Divide (.5x) __..__..__..__..__..__..__..__.._
 72
    65
 73
     6
 40
15.875
 49
6.349999999999999
 74
     0
 49
-3.174999999999999
 74
     0
 49
0.0
 74
     0
 49
-3.174999999999999
 74
     0
 49
0.0
 74
     0
 49
-3.174999999999999
 74
     0
  0
LTYPE
  5
650B
330
5
100
AcDbSymbolTableRecord
100
AcDbLinetypeTableRecord
  2
CENTER
 70
     0
  3
Center ____ _ ____ _ ____ _ ____ _ ____ _ ____
 72
    65
 73
     4
 40
50.8
 49
31.75
 74
     0
 49
-6.349999999999999
 74
     0
 49
6.349999999999999
 74
     0
 49
-6.349999999999999
 74
     0
  0
LTYPE
  5
650C
330
5
100
AcDbSymbolTableRecord
100
AcDbLinetypeTableRecord
  2
HIDDEN
 70
     0
  3
Hidden __ __ __ __ __ __ __ __ __ __ __ __ __ _
 72
    65
 73
     2
 40
9.524999999999998
 49
6.349999999999999
 74
     0
 49
-3.174999999999999
 74
     0
  0
ENDTAB
  0
TABLE
  2
LAYER
  5
2
102
{ACAD_XDICTIONARY
360
7BFE
102
}
330
0
100
AcDbSymbolTable
 70
     9
  0
LAYER
  5
E
330
2
100
AcDbSymbolTableRecord
100
AcDbLayerTableRecord
  2
0
 70
     0
 62
     7
  6
CONTINUOUS
370
    -3
390
5CF2
  0
LAYER
  5
B9
330
2
100
AcDbSymbolTableRecord
100
AcDbLayerTableRecord
  2
dim
 70
     0
 62
     3
  6
CONTINUOUS
370
    -3
390
5CF2
  0
LAYER
  5
F2
330
2
100
AcDbSymbolTableRecord
100
AcDbLayerTableRecord
  2
DEFPOINTS
 70
     0
 62
     4
  6
CONTINUOUS
290
     0
370
    -3
390
5CF2
  0
LAYER
  5
5F8B
330
2
100
AcDbSymbolTableRecord
100
AcDbLayerTableRecord
  2
mark
 70
     0
 62
     6
  6
CONTINUOUS
370
    -3
390
5CF2
  0
LAYER
  5
644E
330
2
100
AcDbSymbolTableRecord
100
AcDbLayerTableRecord
  2
frame
 70
     0
 62
     9
  6
CONTINUOUS
370
    -3
390
5CF2
  0
LAYER
  5
650D
330
2
100
AcDbSymbolTableRecord
100
AcDbLayerTableRecord
  2
center
 70
     0
 62
     1
  6
CENTER
370
    -3
390
5CF2
  0
LAYER
  5
650E
330
2
100
AcDbSymbolTableRecord
100
AcDbLayerTableRecord
  2
bowle
 70
     0
 62
     4
  6
HIDDEN
370
    -3
390
5CF2
  0
LAYER
  5
650F
330
2
100
AcDbSymbolTableRecord
100
AcDbLayerTableRecord
  2
contour
 70
     0
 62
     2
  6
CONTINUOUS
370
    -3
390
5CF2
  0
LAYER
  5
6510
330
2
100
AcDbSymbolTableRecord
100
AcDbLayerTableRecord
  2
section
 70
     0
 62
     5
  6
CONTINUOUS
370
    -3
390
5CF2
  0
ENDTAB
  0
TABLE
  2
STYLE
  5
3
330
0
100
AcDbSymbolTable
 70
     3
  0
STYLE
  5
F
330
3
100
AcDbSymbolTableRecord
100
AcDbTextStyleTableRecord
  2
STANDARD
 70
     0
 40
0.0
 41
1.0
 50
0.0
 71
     0
 42
2.5
  3
txt.shx
  4
bigfont.shx
  0
STYLE
  5
BE
330
3
100
AcDbSymbolTableRecord
100
AcDbTextStyleTableRecord
  2
CN
 70
     0
 40
0.0
 41
1.0
 50
0.0
 71
     0
 42
2.5
  3
txt.shx
  4
gbcbig.shx
  0
STYLE
  5
5DCC
330
3
100
AcDbSymbolTableRecord
100
AcDbTextStyleTableRecord
  2
TW
 70
     0
 40
0.0
 41
1.0
 50
0.0
 71
     0
 42
5.0
  3
txt.shx
  4
chineset.shx
  0
ENDTAB
  0
TABLE
  2
VIEW
  5
6
330
0
100
AcDbSymbolTable
 70
     0
  0
ENDTAB
  0
TABLE
  2
UCS
  5
7
330
0
100
AcDbSymbolTable
 70
     0
  0
ENDTAB
  0
TABLE
  2
APPID
  5
9
330
0
100
AcDbSymbolTable
 70
    12
  0
APPID
  5
10
330
9
100
AcDbSymbolTableRecord
100
AcDbRegAppTableRecord
  2
ACAD
 70
     0
  0
APPID
  5
7C91
330
9
100
AcDbSymbolTableRecord
100
AcDbRegAppTableRecord
  2
ACAD_DSTYLE_DIMEXT_LENGTH
 70
     0
  0
APPID
  5
7C92
330
9
100
AcDbSymbolTableRecord
100
AcDbRegAppTableRecord
  2
ACAD_DSTYLE_DIMEXT_ENABLED
 70
     0
  0
APPID
  5
7C93
330
9
100
AcDbSymbolTableRecord
100
AcDbRegAppTableRecord
  2
ACAD_DSTYLE_DIMJOGGED_JOGANGLE_SYMBOL
 70
     0
  0
APPID
  5
7C94
330
9
100
AcDbSymbolTableRecord
100
AcDbRegAppTableRecord
  2
ACAD_DSTYLE_DIMARC_LENGTH_SYMBOL
 70
     0
  0
APPID
  5
7F1C
330
9
100
AcDbSymbolTableRecord
100
AcDbRegAppTableRecord
  2
ACAD_EXEMPT_FROM_CAD_STANDARDS
 70
     0
  0
APPID
  5
7F49
330
9
100
AcDbSymbolTableRecord
100
AcDbRegAppTableRecord
  2
ACAD_DSTYLE_DIMTEXT_FILL
 70
     0
  0
APPID
  5
7F4C
330
9
100
AcDbSymbolTableRecord
100
AcDbRegAppTableRecord
  2
ACAD_DSTYLE_DIM_LINETYPE
 70
     0
  0
APPID
  5
7F4D
330
9
100
AcDbSymbolTableRecord
100
AcDbRegAppTableRecord
  2
ACAD_DSTYLE_DIM_EXT1_LINETYPE
 70
     0
  0
APPID
  5
7F4E
330
9
100
AcDbSymbolTableRecord
100
AcDbRegAppTableRecord
  2
ACAD_DSTYLE_DIM_EXT2_LINETYPE
 70
     0
  0
APPID
  5
8C73
330
9
100
AcDbSymbolTableRecord
100
AcDbRegAppTableRecord
  2
ACAD_PSEXT
 70
     0
  0
APPID
  5
DF16
330
9
100
AcDbSymbolTableRecord
100
AcDbRegAppTableRecord
  2
PE_URL
 70
     0
  0
ENDTAB
  0
TABLE
  2
DIMSTYLE
  5
A
330
0
100
AcDbSymbolTable
 70
     1
100
AcDbDimStyleTable
 71
     1
340
1D
  0
DIMSTYLE
105
1D
102
{ACAD_REACTORS
330
E3E1
330
E3F5
330
E402
330
E41C
330
E43D
330
E453
330
E465
330
E471
102
}
330
A
100
AcDbSymbolTableRecord
100
AcDbDimStyleTableRecord
  2
STANDARD
 70
     0
 41
2.5
 42
0.85
 44
0.85
 73
     0
 74
     0
 77
     3
 78
     8
 79
     2
140
2.5
147
0.85
172
     1
176
   256
177
   256
178
     3
179
     2
271
     2
272
     2
340
F
341
7C04
342
7C04
1001
ACAD_DSTYLE_DIMEXT_LENGTH
1070
   378
1040
0.18
1001
ACAD_DSTYLE_DIMEXT_ENABLED
1070
   383
1070
     0
1001
ACAD_DSTYLE_DIMARC_LENGTH_SYMBOL
1070
   379
1070
     0
1001
ACAD_DSTYLE_DIMJOGGED_JOGANGLE_SYMBOL
1070
   384
1040
1.570796326794896
  0
ENDTAB
  0
TABLE
  2
BLOCK_RECORD
  5
1
330
0
100
AcDbSymbolTable
 70
    16
  0
BLOCK_RECORD
  5
18
102
{ACAD_XDICTIONARY
360
45F
102
}
330
1
100
AcDbSymbolTableRecord
100
AcDbBlockTableRecord
  2
*MODEL_SPACE
340
5CF5
  0
BLOCK_RECORD
  5
15
102
{ACAD_XDICTIONARY
360
5D89
102
}
330
1
100
AcDbSymbolTableRecord
100
AcDbBlockTableRecord
  2
*PAPER_SPACE
340
5CF6
  0
BLOCK_RECORD
  5
639D
330
1
100
AcDbSymbolTableRecord
100
AcDbBlockTableRecord
  2
A$C255C26A2
340
0
  0
BLOCK_RECORD
  5
7C04
330
1
100
AcDbSymbolTableRecord
100
AcDbBlockTableRecord
  2
_Open30
340
0
102
{BLKREFS
331
E656
331
E657
331
E65F
331
E660
331
E66A
331
E66B
331
E673
331
E674
331
E67C
331
E67D
331
E685
331
E686
331
E68F
331
E690
331
E697
331
E698
102
}
  0
BLOCK_RECORD
  5
7C0A
102
{ACAD_XDICTIONARY
360
7C0B
102
}
330
1
100
AcDbSymbolTableRecord
100
AcDbBlockTableRecord
  2
A
340
0
310
2800000020000000200000000100080000000000000400000000000000000000000000000000000000000000000080000080000000808000800000008000800080800000C0C0C000C0DCC000F0CAA6000020400000206000002080000020A0000020C0000020E00000400000004020000040400000406000004080000040A0
310
000040C0000040E00000600000006020000060400000606000006080000060A0000060C0000060E00000800000008020000080400000806000008080000080A0000080C0000080E00000A0000000A0200000A0400000A0600000A0800000A0A00000A0C00000A0E00000C0000000C0200000C0400000C0600000C0800000C0
310
A00000C0C00000C0E00000E0000000E0200000E0400000E0600000E0800000E0A00000E0C00000E0E00040000000400020004000400040006000400080004000A0004000C0004000E00040200000402020004020400040206000402080004020A0004020C0004020E000404000004040200040404000404060004040800040
310
40A0004040C0004040E00040600000406020004060400040606000406080004060A0004060C0004060E00040800000408020004080400040806000408080004080A0004080C0004080E00040A0000040A0200040A0400040A0600040A0800040A0A00040A0C00040A0E00040C0000040C0200040C0400040C0600040C08000
310
40C0A00040C0C00040C0E00040E0000040E0200040E0400040E0600040E0800040E0A00040E0C00040E0E00080000000800020008000400080006000800080008000A0008000C0008000E00080200000802020008020400080206000802080008020A0008020C0008020E00080400000804020008040400080406000804080
310
008040A0008040C0008040E00080600000806020008060400080606000806080008060A0008060C0008060E00080800000808020008080400080806000808080008080A0008080C0008080E00080A0000080A0200080A0400080A0600080A0800080A0A00080A0C00080A0E00080C0000080C0200080C0400080C0600080C0
310
800080C0A00080C0C00080C0E00080E0000080E0200080E0400080E0600080E0800080E0A00080E0C00080E0E000C0000000C0002000C0004000C0006000C0008000C000A000C000C000C000E000C0200000C0202000C0204000C0206000C0208000C020A000C020C000C020E000C0400000C0402000C0404000C0406000C0
310
408000C040A000C040C000C040E000C0600000C0602000C0604000C0606000C0608000C060A000C060C000C060E000C0800000C0802000C0804000C0806000C0808000C080A000C080C000C080E000C0A00000C0A02000C0A04000C0A06000C0A08000C0A0A000C0A0C000C0A0E000C0C00000C0C02000C0C04000C0C06000
310
C0C08000C0C0A000F0FBFF00A4A0A000808080000000FF0000FF000000FFFF00FF000000FF00FF00FFFF0000FFFFFF0000000000000000000000000000000000000000000000000000000000000000000000000000000000000000000000000000000000000000000000000000000000000000000000000000000000000000
310
00000000000000000000000000000000000000000000000000000000000000000000000000000000000000000000000000000000000000000000000000000000000000000000000000000000000000000000000000000000000000000000000000000000000000000000000000000000000000000000000000000000000000
310
00000000000000000000000000000000000000000000000000000000000000000000000000000000000000000000000000000000000000000000000000000000000000000000000000000000000000000000000000000000000000000000000000000000000000000000000000000000000000000000000000000000000000
310
000000000000FDFDFDFDFDFDFDFDFDFDFDFD0000FD0000000000000000000000000000000000FD0000FA0000000000FA00FD0000FDFD00000000000000000000000000000000FD0000FA0000000000FA00FD0000FDFDFD000000000000000000000000000000FD0000FA0000000000FA00FD0000FDFDFDFD00000000000000
310
00000000000000FD0000FAFAFAFAFAFAFA00FD0000FDFDFDFDFD00000000000000000000000000FD000000FA00000000FA00FD0000FDFDFDFDFDFDFDFDFDFDFDFDFDFDFDFDFDFDFD000000FA000000FA0000FD0000FDFDFDFDFD00000000000000000000000000FD00000000FA0000FA0000FD0000FDFDFDFD000000000000
310
0000000000000000FD00000000FA00FA000000FD0000FDFD00000000000000000000000000000000FD0000000000FAFA000000FD0000FD0000000000000000000000000000000000FD0000000000FA00000000FD0000000000000000000000000000000000000000FDFDFDFDFDFDFDFDFDFDFDFD0000000000000000000000
310
00000000000000000000000000000000000000000000000000000000000000000000000000000000000000000000000000000000000000000000000000000000000000000000000000000000000000000000000000000000000000000000000000000000000000000000000000000000000000000000000000000000000000
310
00000000000000000000000000000000000000000000000000000000000000000000000000000000000000000000000000000000000000000000000000000000000000000000000000000000000000000000000000000000000000000000000000000000000000000000000000000000000000000000000000000000000000
310
0000000000000000000000000000000000000000000000000000000000000000000000000000000000000000000000000000000000000000
  0
BLOCK_RECORD
  5
8E72
102
{ACAD_XDICTIONARY
360
8E73
102
}
330
1
100
AcDbSymbolTableRecord
100
AcDbBlockTableRecord
  2
LS
340
0
310
2800000020000000200000000100080000000000000400000000000000000000000000000000000000000000000080000080000000808000800000008000800080800000C0C0C000C0DCC000F0CAA6000020400000206000002080000020A0000020C0000020E00000400000004020000040400000406000004080000040A0
310
000040C0000040E00000600000006020000060400000606000006080000060A0000060C0000060E00000800000008020000080400000806000008080000080A0000080C0000080E00000A0000000A0200000A0400000A0600000A0800000A0A00000A0C00000A0E00000C0000000C0200000C0400000C0600000C0800000C0
310
A00000C0C00000C0E00000E0000000E0200000E0400000E0600000E0800000E0A00000E0C00000E0E00040000000400020004000400040006000400080004000A0004000C0004000E00040200000402020004020400040206000402080004020A0004020C0004020E000404000004040200040404000404060004040800040
310
40A0004040C0004040E00040600000406020004060400040606000406080004060A0004060C0004060E00040800000408020004080400040806000408080004080A0004080C0004080E00040A0000040A0200040A0400040A0600040A0800040A0A00040A0C00040A0E00040C0000040C0200040C0400040C0600040C08000
310
40C0A00040C0C00040C0E00040E0000040E0200040E0400040E0600040E0800040E0A00040E0C00040E0E00080000000800020008000400080006000800080008000A0008000C0008000E00080200000802020008020400080206000802080008020A0008020C0008020E00080400000804020008040400080406000804080
310
008040A0008040C0008040E00080600000806020008060400080606000806080008060A0008060C0008060E00080800000808020008080400080806000808080008080A0008080C0008080E00080A0000080A0200080A0400080A0600080A0800080A0A00080A0C00080A0E00080C0000080C0200080C0400080C0600080C0
310
800080C0A00080C0C00080C0E00080E0000080E0200080E0400080E0600080E0800080E0A00080E0C00080E0E000C0000000C0002000C0004000C0006000C0008000C000A000C000C000C000E000C0200000C0202000C0204000C0206000C0208000C020A000C020C000C020E000C0400000C0402000C0404000C0406000C0
310
408000C040A000C040C000C040E000C0600000C0602000C0604000C0606000C0608000C060A000C060C000C060E000C0800000C0802000C0804000C0806000C0808000C080A000C080C000C080E000C0A00000C0A02000C0A04000C0A06000C0A08000C0A0A000C0A0C000C0A0E000C0C00000C0C02000C0C04000C0C06000
310
C0C08000C0C0A000F0FBFF00A4A0A000808080000000FF0000FF000000FFFF00FF000000FF00FF00FFFF0000FFFFFF00000000000000000000000000000000000000000000000000000000000000000000000000000000000000FBFBFEFBFEFBFBFEFBFEFBFB00000000000000000000000000000000000000FBFBFBFEFBFE
310
FBFBFEFBFEFBFBFB000000000000000000000000000000000000FB0000FE00FE0000FE00FE0000FB000000000000000000000000000000000000FB0000FE00FE0000FE00FE0000FB000000000000000000000000000000000000FB0000FEFEFEFEFEFEFEFE0000FB000000000000000000000000000000000000FB000000FE
310
FE0000FEFE000000FB000000000000000000000000000000000000FB0000000000FEFE0000000000FB000000000000000000000000000000000000FBFBFBFEFBFBFBFBFBFBFEFBFBFB000000000000000000000000000000000000000000FBFE0000000000FE000000000000000000000000000000000000000000000000FB
310
FBFBFBFBFBFEFB000000000000000000000000000000000000000000000000FBFE00000000FEFB000000000000000000000000000000000000000000000000FBFE00000000FEFB000000000000000000000000000000000000000000000000FBFE00000000FEFB000000000000000000000000000000000000000000000000
310
FBFE00000000FEFB000000000000000000000000000000000000000000000000FBFE00000000FEFB000000000000000000000000000000000000000000000000FBFE00000000FEFB000000000000000000000000000000000000000000000000FBFE00000000FEFB0000000000000000000000000000000000000000000000
310
00FBFE00000000FEFB000000000000000000000000000000000000000000000000FBFE00000000FEFB000000000000000000000000000000000000000000000000FBFE00000000FEFB000000000000000000000000000000000000000000000000FBFE00000000FEFB00000000000000000000000000000000000000000000
310
0000FBFE00000000FEFB000000000000000000000000000000000000000000000000FBFE00000000FEFB000000000000000000000000000000000000000000000000FBFE00000000FEFB000000000000000000000000000000000000000000000000FBFE00000000FEFB000000000000000000000000000000000000000000
310
000000FBFE00000000FEFB000000000000000000000000000000000000000000000000FBFE00000000FEFB000000000000000000000000000000000000000000000000FBFEFBFBFBFBFEFB00000000000000000000000000000000000000000000000000FE00000000FEFB0000000000000000000000000000000000000000
310
0000000000FBFBFBFBFBFB000000000000000000000000000000000000000000000000000000000000000000000000000000000000000000
  0
BLOCK_RECORD
  5
9D15
102
{ACAD_XDICTIONARY
360
9D16
102
}
330
1
100
AcDbSymbolTableRecord
100
AcDbBlockTableRecord
  2
LS2
340
0
310
2800000020000000200000000100080000000000000400000000000000000000000000000000000000000000000080000080000000808000800000008000800080800000C0C0C000C0DCC000F0CAA6000020400000206000002080000020A0000020C0000020E00000400000004020000040400000406000004080000040A0
310
000040C0000040E00000600000006020000060400000606000006080000060A0000060C0000060E00000800000008020000080400000806000008080000080A0000080C0000080E00000A0000000A0200000A0400000A0600000A0800000A0A00000A0C00000A0E00000C0000000C0200000C0400000C0600000C0800000C0
310
A00000C0C00000C0E00000E0000000E0200000E0400000E0600000E0800000E0A00000E0C00000E0E00040000000400020004000400040006000400080004000A0004000C0004000E00040200000402020004020400040206000402080004020A0004020C0004020E000404000004040200040404000404060004040800040
310
40A0004040C0004040E00040600000406020004060400040606000406080004060A0004060C0004060E00040800000408020004080400040806000408080004080A0004080C0004080E00040A0000040A0200040A0400040A0600040A0800040A0A00040A0C00040A0E00040C0000040C0200040C0400040C0600040C08000
310
40C0A00040C0C00040C0E00040E0000040E0200040E0400040E0600040E0800040E0A00040E0C00040E0E00080000000800020008000400080006000800080008000A0008000C0008000E00080200000802020008020400080206000802080008020A0008020C0008020E00080400000804020008040400080406000804080
310
008040A0008040C0008040E00080600000806020008060400080606000806080008060A0008060C0008060E00080800000808020008080400080806000808080008080A0008080C0008080E00080A0000080A0200080A0400080A0600080A0800080A0A00080A0C00080A0E00080C0000080C0200080C0400080C0600080C0
310
800080C0A00080C0C00080C0E00080E0000080E0200080E0400080E0600080E0800080E0A00080E0C00080E0E000C0000000C0002000C0004000C0006000C0008000C000A000C000C000C000E000C0200000C0202000C0204000C0206000C0208000C020A000C020C000C020E000C0400000C0402000C0404000C0406000C0
310
408000C040A000C040C000C040E000C0600000C0602000C0604000C0606000C0608000C060A000C060C000C060E000C0800000C0802000C0804000C0806000C0808000C080A000C080C000C080E000C0A00000C0A02000C0A04000C0A06000C0A08000C0A0A000C0A0C000C0A0E000C0C00000C0C02000C0C04000C0C06000
310
C0C08000C0C0A000F0FBFF00A4A0A000808080000000FF0000FF000000FFFF00FF000000FF00FF00FFFF0000FFFFFF0000000000000000000000000000000000000000000000000000000000000000000000000000000000000000FBFBFEFEFBFBFEFEFBFB00000000000000000000000000000000000000000000FBFBFEFE
310
FBFBFEFEFBFB00000000000000000000000000000000000000000000FB00FEFE0000FEFE00FB00000000000000000000000000000000000000000000FB00FEFE0000FEFE00FB00000000000000000000000000000000000000000000FB00FEFEFEFEFEFE00FB00000000000000000000000000000000000000000000FB0000
310
FEFEFE000000FB00000000000000000000000000000000000000000000FBFBFEFBFBFBFBFEFBFB000000000000000000000000000000000000000000000000FBFBFBFBFBFE0000000000000000000000000000000000000000000000000000FE00000000FE0000000000000000000000000000000000000000000000000000
310
FE00000000FE0000000000000000000000000000000000000000000000000000FE00000000FE0000000000000000000000000000000000000000000000000000FE00000000FE0000000000000000000000000000000000000000000000000000FE00000000FE00000000000000000000000000000000000000000000000000
310
00FE00000000FE0000000000000000000000000000000000000000000000000000FE00000000FE0000000000000000000000000000000000000000000000000000FE00000000FE0000000000000000000000000000000000000000000000000000FE00000000FE000000000000000000000000000000000000000000000000
310
0000FE00000000FE0000000000000000000000000000000000000000000000000000FE00000000FE0000000000000000000000000000000000000000000000000000FE00000000FE0000000000000000000000000000000000000000000000000000FE00000000FE0000000000000000000000000000000000000000000000
310
000000FE00000000FE0000000000000000000000000000000000000000000000000000FE00000000FE0000000000000000000000000000000000000000000000000000FE00000000FE0000000000000000000000000000000000000000000000000000FE00000000FE00000000000000000000000000000000000000000000
310
00000000FE00000000FE0000000000000000000000000000000000000000000000000000FE00000000FE0000000000000000000000000000000000000000000000000000FEFBFBFBFBFE0000000000000000000000000000000000000000000000000000FEFB000000FE000000000000000000000000000000000000000000
310
000000000000FBFBFBFB00000000000000000000000000000000000000000000000000000000000000000000000000000000000000000000
  0
BLOCK_RECORD
  5
A518
102
{ACAD_XDICTIONARY
360
A519
102
}
330
1
100
AcDbSymbolTableRecord
100
AcDbBlockTableRecord
  2
LS3
340
0
310
2800000020000000200000000100080000000000000400000000000000000000000000000000000000000000000080000080000000808000800000008000800080800000C0C0C000C0DCC000F0CAA6000020400000206000002080000020A0000020C0000020E00000400000004020000040400000406000004080000040A0
310
000040C0000040E00000600000006020000060400000606000006080000060A0000060C0000060E00000800000008020000080400000806000008080000080A0000080C0000080E00000A0000000A0200000A0400000A0600000A0800000A0A00000A0C00000A0E00000C0000000C0200000C0400000C0600000C0800000C0
310
A00000C0C00000C0E00000E0000000E0200000E0400000E0600000E0800000E0A00000E0C00000E0E00040000000400020004000400040006000400080004000A0004000C0004000E00040200000402020004020400040206000402080004020A0004020C0004020E000404000004040200040404000404060004040800040
310
40A0004040C0004040E00040600000406020004060400040606000406080004060A0004060C0004060E00040800000408020004080400040806000408080004080A0004080C0004080E00040A0000040A0200040A0400040A0600040A0800040A0A00040A0C00040A0E00040C0000040C0200040C0400040C0600040C08000
310
40C0A00040C0C00040C0E00040E0000040E0200040E0400040E0600040E0800040E0A00040E0C00040E0E00080000000800020008000400080006000800080008000A0008000C0008000E00080200000802020008020400080206000802080008020A0008020C0008020E00080400000804020008040400080406000804080
310
008040A0008040C0008040E00080600000806020008060400080606000806080008060A0008060C0008060E00080800000808020008080400080806000808080008080A0008080C0008080E00080A0000080A0200080A0400080A0600080A0800080A0A00080A0C00080A0E00080C0000080C0200080C0400080C0600080C0
310
800080C0A00080C0C00080C0E00080E0000080E0200080E0400080E0600080E0800080E0A00080E0C00080E0E000C0000000C0002000C0004000C0006000C0008000C000A000C000C000C000E000C0200000C0202000C0204000C0206000C0208000C020A000C020C000C020E000C0400000C0402000C0404000C0406000C0
310
408000C040A000C040C000C040E000C0600000C0602000C0604000C0606000C0608000C060A000C060C000C060E000C0800000C0802000C0804000C0806000C0808000C080A000C080C000C080E000C0A00000C0A02000C0A04000C0A06000C0A08000C0A0A000C0A0C000C0A0E000C0C00000C0C02000C0C04000C0C06000
310
C0C08000C0C0A000F0FBFF00A4A0A000808080000000FF0000FF000000FFFF00FF000000FF00FF00FFFF0000FFFFFF0000000000000000000000000000000000000000000000000000000000000000000000000000000000000000FBFBFEFEFBFBFEFEFBFB00000000000000000000000000000000000000000000FBFBFEFE
310
FBFBFEFEFBFB00000000000000000000000000000000000000000000FB00FEFE0000FEFE00FB00000000000000000000000000000000000000000000FB00FEFEFEFEFEFE00FB00000000000000000000000000000000000000000000FB0000FEFE00FE0000FB00000000000000000000000000000000000000000000FB0000
310
0000FE000000FB00000000000000000000000000000000000000000000FBFBFEFBFBFBFBFBFBFB000000000000000000000000000000000000000000000000FE00000000FE0000000000000000000000000000000000000000000000000000FE00000000FE0000000000000000000000000000000000000000000000000000
310
FE00000000FE0000000000000000000000000000000000000000000000000000FE00000000FE0000000000000000000000000000000000000000000000000000FE00000000FE0000000000000000000000000000000000000000000000000000FE00000000FE00000000000000000000000000000000000000000000000000
310
00FE00000000FE0000000000000000000000000000000000000000000000000000FE00000000FE0000000000000000000000000000000000000000000000000000FE00000000FE0000000000000000000000000000000000000000000000000000FE00000000FE000000000000000000000000000000000000000000000000
310
0000FE00000000FE0000000000000000000000000000000000000000000000000000FE00000000FE0000000000000000000000000000000000000000000000000000FE00000000FE0000000000000000000000000000000000000000000000000000FE00000000FE0000000000000000000000000000000000000000000000
310
000000FE00000000FE0000000000000000000000000000000000000000000000000000FE00000000FE0000000000000000000000000000000000000000000000000000FE00000000FE0000000000000000000000000000000000000000000000000000FE00000000FE00000000000000000000000000000000000000000000
310
00000000FE00000000FE0000000000000000000000000000000000000000000000000000FE00000000FE0000000000000000000000000000000000000000000000000000FE00000000FE0000000000000000000000000000000000000000000000000000FEFBFBFBFBFE000000000000000000000000000000000000000000
310
000000000000FBFBFBFB00000000000000000000000000000000000000000000000000000000000000000000000000000000000000000000
  0
BLOCK_RECORD
  5
A627
102
{ACAD_XDICTIONARY
360
A628
102
}
330
1
100
AcDbSymbolTableRecord
100
AcDbBlockTableRecord
  2
LS4
340
0
310
2800000020000000200000000100080000000000000400000000000000000000000000000000000000000000000080000080000000808000800000008000800080800000C0C0C000C0DCC000F0CAA6000020400000206000002080000020A0000020C0000020E00000400000004020000040400000406000004080000040A0
310
000040C0000040E00000600000006020000060400000606000006080000060A0000060C0000060E00000800000008020000080400000806000008080000080A0000080C0000080E00000A0000000A0200000A0400000A0600000A0800000A0A00000A0C00000A0E00000C0000000C0200000C0400000C0600000C0800000C0
310
A00000C0C00000C0E00000E0000000E0200000E0400000E0600000E0800000E0A00000E0C00000E0E00040000000400020004000400040006000400080004000A0004000C0004000E00040200000402020004020400040206000402080004020A0004020C0004020E000404000004040200040404000404060004040800040
310
40A0004040C0004040E00040600000406020004060400040606000406080004060A0004060C0004060E00040800000408020004080400040806000408080004080A0004080C0004080E00040A0000040A0200040A0400040A0600040A0800040A0A00040A0C00040A0E00040C0000040C0200040C0400040C0600040C08000
310
40C0A00040C0C00040C0E00040E0000040E0200040E0400040E0600040E0800040E0A00040E0C00040E0E00080000000800020008000400080006000800080008000A0008000C0008000E00080200000802020008020400080206000802080008020A0008020C0008020E00080400000804020008040400080406000804080
310
008040A0008040C0008040E00080600000806020008060400080606000806080008060A0008060C0008060E00080800000808020008080400080806000808080008080A0008080C0008080E00080A0000080A0200080A0400080A0600080A0800080A0A00080A0C00080A0E00080C0000080C0200080C0400080C0600080C0
310
800080C0A00080C0C00080C0E00080E0000080E0200080E0400080E0600080E0800080E0A00080E0C00080E0E000C0000000C0002000C0004000C0006000C0008000C000A000C000C000C000E000C0200000C0202000C0204000C0206000C0208000C020A000C020C000C020E000C0400000C0402000C0404000C0406000C0
310
408000C040A000C040C000C040E000C0600000C0602000C0604000C0606000C0608000C060A000C060C000C060E000C0800000C0802000C0804000C0806000C0808000C080A000C080C000C080E000C0A00000C0A02000C0A04000C0A06000C0A08000C0A0A000C0A0C000C0A0E000C0C00000C0C02000C0C04000C0C06000
310
C0C08000C0C0A000F0FBFF00A4A0A000808080000000FF0000FF000000FFFF00FF000000FF00FF00FFFF0000FFFFFF0000000000000000000000000000000000000000000000000000000000000000000000000000000000000000FBFBFEFEFBFBFEFEFBFB000000000000000000000000000000000000000000FBFBFBFEFE
310
FBFBFEFEFBFBFB0000000000000000000000000000000000000000FB0000FEFE0000FEFE0000FB0000000000000000000000000000000000000000FB0000FEFEFEFEFEFE0000FB0000000000000000000000000000000000000000FB000000FEFE00FE000000FB0000000000000000000000000000000000000000FB000000
310
0000FE00000000FB0000000000000000000000000000000000000000FB00000000000000000000FB0000000000000000000000000000000000000000FBFBFEFEFBFBFBFBFBFBFBFB00000000000000000000000000000000000000000000FBFE00000000FEFB000000000000000000000000000000000000000000000000FB
310
FE00000000FEFB000000000000000000000000000000000000000000000000FBFE00000000FEFB000000000000000000000000000000000000000000000000FBFE00000000FEFB000000000000000000000000000000000000000000000000FBFE00000000FEFB000000000000000000000000000000000000000000000000
310
FBFE00000000FEFB000000000000000000000000000000000000000000000000FBFE00000000FEFB000000000000000000000000000000000000000000000000FBFE00000000FEFB000000000000000000000000000000000000000000000000FBFE00000000FEFB0000000000000000000000000000000000000000000000
310
00FBFE00000000FEFB000000000000000000000000000000000000000000000000FBFE00000000FEFB000000000000000000000000000000000000000000000000FBFE00000000FEFB000000000000000000000000000000000000000000000000FBFE00000000FEFB00000000000000000000000000000000000000000000
310
0000FBFE00000000FEFB000000000000000000000000000000000000000000000000FBFE00000000FEFB000000000000000000000000000000000000000000000000FBFE00000000FEFB000000000000000000000000000000000000000000000000FBFE00000000FEFB000000000000000000000000000000000000000000
310
000000FBFE00000000FEFB000000000000000000000000000000000000000000000000FBFE00000000FEFB000000000000000000000000000000000000000000000000FBFEFBFBFBFBFEFB00000000000000000000000000000000000000000000000000FE00000000FE000000000000000000000000000000000000000000
310
000000000000FBFBFBFB00000000000000000000000000000000000000000000000000000000000000000000000000000000000000000000
  0
BLOCK_RECORD
  5
DEF7
102
{ACAD_XDICTIONARY
360
DEF8
102
}
330
1
100
AcDbSymbolTableRecord
100
AcDbBlockTableRecord
  2
LS5
340
0
310
2800000020000000200000000100080000000000000400000000000000000000000000000000000000000000000080000080000000808000800000008000800080800000C0C0C000C0DCC000F0CAA6000020400000206000002080000020A0000020C0000020E00000400000004020000040400000406000004080000040A0
310
000040C0000040E00000600000006020000060400000606000006080000060A0000060C0000060E00000800000008020000080400000806000008080000080A0000080C0000080E00000A0000000A0200000A0400000A0600000A0800000A0A00000A0C00000A0E00000C0000000C0200000C0400000C0600000C0800000C0
310
A00000C0C00000C0E00000E0000000E0200000E0400000E0600000E0800000E0A00000E0C00000E0E00040000000400020004000400040006000400080004000A0004000C0004000E00040200000402020004020400040206000402080004020A0004020C0004020E000404000004040200040404000404060004040800040
310
40A0004040C0004040E00040600000406020004060400040606000406080004060A0004060C0004060E00040800000408020004080400040806000408080004080A0004080C0004080E00040A0000040A0200040A0400040A0600040A0800040A0A00040A0C00040A0E00040C0000040C0200040C0400040C0600040C08000
310
40C0A00040C0C00040C0E00040E0000040E0200040E0400040E0600040E0800040E0A00040E0C00040E0E00080000000800020008000400080006000800080008000A0008000C0008000E00080200000802020008020400080206000802080008020A0008020C0008020E00080400000804020008040400080406000804080
310
008040A0008040C0008040E00080600000806020008060400080606000806080008060A0008060C0008060E00080800000808020008080400080806000808080008080A0008080C0008080E00080A0000080A0200080A0400080A0600080A0800080A0A00080A0C00080A0E00080C0000080C0200080C0400080C0600080C0
310
800080C0A00080C0C00080C0E00080E0000080E0200080E0400080E0600080E0800080E0A00080E0C00080E0E000C0000000C0002000C0004000C0006000C0008000C000A000C000C000C000E000C0200000C0202000C0204000C0206000C0208000C020A000C020C000C020E000C0400000C0402000C0404000C0406000C0
310
408000C040A000C040C000C040E000C0600000C0602000C0604000C0606000C0608000C060A000C060C000C060E000C0800000C0802000C0804000C0806000C0808000C080A000C080C000C080E000C0A00000C0A02000C0A04000C0A06000C0A08000C0A0A000C0A0C000C0A0E000C0C00000C0C02000C0C04000C0C06000
310
C0C08000C0C0A000F0FBFF00A4A0A000808080000000FF0000FF000000FFFF00FF000000FF00FF00FFFF0000FFFFFF0000000000000000000000000000000000000000000000000000000000000000000000000000000000000000FBFBFEFEFBFBFEFEFBFB00000000000000000000000000000000000000000000FBFBFEFE
310
FBFBFEFEFBFB00000000000000000000000000000000000000000000FB00FEFE0000FEFE00FB00000000000000000000000000000000000000000000FB00FEFEFEFEFEFE00FB00000000000000000000000000000000000000000000FB0000FE00FEFE0000FB00000000000000000000000000000000000000000000FB0000
310
00FE00000000FB00000000000000000000000000000000000000000000FBFBFEFBFBFBFBFEFBFB000000000000000000000000000000000000000000000000FEFBFBFBFBFB0000000000000000000000000000000000000000000000000000FE00000000FE0000000000000000000000000000000000000000000000000000
310
FE00000000FE0000000000000000000000000000000000000000000000000000FE00000000FE0000000000000000000000000000000000000000000000000000FE00000000FE0000000000000000000000000000000000000000000000000000FE00000000FE00000000000000000000000000000000000000000000000000
310
00FE00000000FE0000000000000000000000000000000000000000000000000000FE00000000FE0000000000000000000000000000000000000000000000000000FE00000000FE0000000000000000000000000000000000000000000000000000FE00000000FE000000000000000000000000000000000000000000000000
310
0000FE00000000FE0000000000000000000000000000000000000000000000000000FE00000000FE0000000000000000000000000000000000000000000000000000FE00000000FE0000000000000000000000000000000000000000000000000000FE00000000FE0000000000000000000000000000000000000000000000
310
000000FE00000000FE0000000000000000000000000000000000000000000000000000FE00000000FE0000000000000000000000000000000000000000000000000000FE00000000FE0000000000000000000000000000000000000000000000000000FE00000000FE00000000000000000000000000000000000000000000
310
00000000FE00000000FE0000000000000000000000000000000000000000000000000000FE00000000FE0000000000000000000000000000000000000000000000000000FE00000000FE0000000000000000000000000000000000000000000000000000FEFBFBFBFBFE000000000000000000000000000000000000000000
310
000000000000FBFBFBFB00000000000000000000000000000000000000000000000000000000000000000000000000000000000000000000
102
{BLKREFS
331
E35C
102
}
1001
PE_URL
1000
S5
1002
{
1000
S5
1002
{
1071
2081726645
1002
}
1002
}
  0
BLOCK_RECORD
  5
E3E2
330
1
100
AcDbSymbolTableRecord
100
AcDbBlockTableRecord
  2
*D8
340
0
  0
BLOCK_RECORD
  5
E3F6
330
1
100
AcDbSymbolTableRecord
100
AcDbBlockTableRecord
  2
*D9
340
0
  0
BLOCK_RECORD
  5
E403
330
1
100
AcDbSymbolTableRecord
100
AcDbBlockTableRecord
  2
*D10
340
0
  0
BLOCK_RECORD
  5
E41D
330
1
100
AcDbSymbolTableRecord
100
AcDbBlockTableRecord
  2
*D11
340
0
  0
BLOCK_RECORD
  5
E43E
330
1
100
AcDbSymbolTableRecord
100
AcDbBlockTableRecord
  2
*D12
340
0
  0
BLOCK_RECORD
  5
E454
330
1
100
AcDbSymbolTableRecord
100
AcDbBlockTableRecord
  2
*D13
340
0
  0
BLOCK_RECORD
  5
E466
330
1
100
AcDbSymbolTableRecord
100
AcDbBlockTableRecord
  2
*D14
340
0
  0
BLOCK_RECORD
  5
E472
330
1
100
AcDbSymbolTableRecord
100
AcDbBlockTableRecord
  2
*D15
340
0
  0
ENDTAB
  0
ENDSEC
  0
SECTION
  2
BLOCKS
  0
BLOCK
  5
19
330
18
100
AcDbEntity
  8
0
100
AcDbBlockBegin
  2
*MODEL_SPACE
 70
     0
 10
0.0
 20
0.0
 30
0.0
  3
*MODEL_SPACE
  1

  0
ENDBLK
  5
1A
330
18
100
AcDbEntity
  8
0
100
AcDbBlockEnd
  0
BLOCK
  5
16
330
15
100
AcDbEntity
 67
     1
  8
0
100
AcDbBlockBegin
  2
*PAPER_SPACE
 70
     0
 10
0.0
 20
0.0
 30
0.0
  3
*PAPER_SPACE
  1

  0
ENDBLK
  5
17
330
15
100
AcDbEntity
 67
     1
  8
0
100
AcDbBlockEnd
  0
BLOCK
  5
63A1
330
639D
100
AcDbEntity
  8
0
100
AcDbBlockBegin
  2
A$C255C26A2
 70
     0
 10
0.0
 20
0.0
 30
0.0
  3
A$C255C26A2
  1

  0
LWPOLYLINE
  5
639E
330
639D
100
AcDbEntity
  8
0
100
AcDbPolyline
 90
        3
 70
     1
 43
0.0
 10
7.014806023851633
 20
0.0000006939811783
 10
5.611844869720698
 20
2.430000693981241
 10
8.417767177982568
 20
2.430000693981241
  0
LWPOLYLINE
  5
639F
330
639D
100
AcDbEntity
  8
0
100
AcDbPolyline
 90
        3
 70
     1
 43
0.0
 10
4.20888371558999
 20
0.0000006939811783
 10
2.805922561459283
 20
2.430000693981241
 10
5.611844869720698
 20
2.430000693981241
  0
LWPOLYLINE
  5
63A0
330
639D
100
AcDbEntity
  8
0
100
AcDbPolyline
 90
        3
 70
     1
 43
0.0
 10
1.402961407328348
 20
0.0000006939811783
 10
0.0000002531974133
 20
2.430000693981241
 10
2.805922561459283
 20
2.430000693981241
  0
ENDBLK
  5
63A2
330
639D
100
AcDbEntity
  8
0
100
AcDbBlockEnd
  0
BLOCK
  5
7C05
330
7C04
100
AcDbEntity
  8
0
100
AcDbBlockBegin
  2
_Open30
 70
     0
 10
0.0
 20
0.0
 30
0.0
  3
_Open30
  1

  0
LINE
  5
7C06
330
7C04
100
AcDbEntity
  8
0
  6
ByBlock
 62
     0
370
    -2
100
AcDbLine
 10
-1.0
 20
0.26794919
 30
0.0
 11
0.0
 21
0.0
 31
0.0
  0
LINE
  5
7C07
330
7C04
100
AcDbEntity
  8
0
  6
ByBlock
 62
     0
370
    -2
100
AcDbLine
 10
0.0
 20
0.0
 30
0.0
 11
-1.0
 21
-0.26794919
 31
0.0
  0
LINE
  5
7C08
330
7C04
100
AcDbEntity
  8
0
  6
ByBlock
 62
     0
370
    -2
100
AcDbLine
 10
0.0
 20
0.0
 30
0.0
 11
-1.0
 21
0.0
 31
0.0
  0
ENDBLK
  5
7C09
330
7C04
100
AcDbEntity
  8
0
100
AcDbBlockEnd
  0
BLOCK
  5
7C0E
330
7C0A
100
AcDbEntity
  8
0
100
AcDbBlockBegin
  2
A
 70
     0
 10
0.0
 20
0.0
 30
0.0
  3
A
  1

  0
MTEXT
  5
7C0F
330
7C0A
100
AcDbEntity
  8
mark
 62
     3
100
AcDbMText
 10
10.65641897020822
 20
-5.596245361730467
 30
0.0
 40
2.5
 41
0.0
 71
     5
 72
     1
  1
A
 73
     1
 44
1.0
1001
ACAD
1000
ACAD_MTEXT_DEFINED_HEIGHT_BEGIN
1070
    46
1040
0.0
1000
ACAD_MTEXT_DEFINED_HEIGHT_END
  0
LWPOLYLINE
  5
7C10
330
7C0A
100
AcDbEntity
  8
mark
100
AcDbPolyline
 90
        4
 70
     1
 43
0.0
 10
9.07926800414657
 20
-7.141145101782569
 10
12.07926800414657
 20
-7.141145101782569
 10
12.07926800414657
 20
-4.141145101782569
 10
9.07926800414657
 20
-4.141145101782569
  0
HATCH
  5
7C11
330
7C0A
100
AcDbEntity
  8
mark
100
AcDbHatch
 10
0.0
 20
0.0
 30
0.0
210
0.0
220
0.0
230
1.0
  2
SOLID
 70
     1
 71
     0
 91
        1
 92
        7
 72
     0
 73
     1
 93
        3
 10
5.32926800414657
 20
-5.641145101782569
 10
4.07926800414657
 20
-4.391145101782541
 10
4.07926800414657
 20
-6.891145101782541
 97
        0
 75
     0
 76
     1
 47
0.0398277943677868
 98
        1
 10
4.589689734415287
 20
-5.732163331855076
450
        0
451
        0
460
0.0
461
0.0
452
        1
462
1.0
453
        2
463
0.0
 63
     5
421
      255
463
1.0
 63
     7
421
 16777215
470
LINEAR
1001
ACAD
1010
0.0
1020
0.0
1030
0.0
  0
LINE
  5
7C12
330
7C0A
100
AcDbEntity
  8
mark
100
AcDbLine
 10
5.32926800414657
 20
-5.641145101782569
 30
0.0
 11
9.07926800414657
 21
-5.641145101782569
 31
0.0
  0
LINE
  5
7C13
330
7C0A
100
AcDbEntity
  8
mark
100
AcDbLine
 10
5.32926800414657
 20
-5.641145101782569
 30
0.0
 11
4.07926800414657
 21
-4.391145101782569
 31
0.0
  0
LINE
  5
7C14
330
7C0A
100
AcDbEntity
  8
mark
100
AcDbLine
 10
5.32926800414657
 20
-5.641145101782569
 30
0.0
 11
4.07926800414657
 21
-6.891145101782569
 31
0.0
  0
ENDBLK
  5
7C15
330
7C0A
100
AcDbEntity
  8
0
100
AcDbBlockEnd
  0
BLOCK
  5
8E76
330
8E72
100
AcDbEntity
  8
0
100
AcDbBlockBegin
  2
LS
 70
     0
 10
0.0
 20
0.0
 30
0.0
  3
LS
  1

  0
LINE
  5
8E78
330
8E72
100
AcDbEntity
  8
contour
100
AcDbLine
 10
310.7457309951603
 20
181.0160360664828
 30
0.0
 11
310.7457309951603
 21
184.7160360664827
 31
0.0
  0
LINE
  5
8E79
330
8E72
100
AcDbEntity
  8
contour
100
AcDbLine
 10
310.7457309951603
 20
184.7160360664827
 30
0.0
 11
303.7457309951603
 21
184.7160360664827
 31
0.0
  0
LINE
  5
8E7A
330
8E72
100
AcDbEntity
  8
contour
100
AcDbLine
 10
308.4457309951603
 20
196.7160360664827
 30
0.0
 11
306.0457309951603
 21
196.7160360664826
 31
0.0
  0
LINE
  5
8E7B
330
8E72
100
AcDbEntity
  8
contour
100
AcDbLine
 10
309.2457309951603
 20
195.9160360664826
 30
0.0
 11
308.4457309951603
 21
196.7160360664826
 31
0.0
  0
LINE
  5
8E7C
330
8E72
100
AcDbEntity
  8
contour
100
AcDbLine
 10
303.7457309951603
 20
184.7160360664827
 30
0.0
 11
303.7457309951603
 21
181.0160360664827
 31
0.0
  0
LINE
  5
8E7D
330
8E72
100
AcDbEntity
  8
contour
100
AcDbLine
 10
304.0457309951603
 20
180.7160360664827
 30
0.0
 11
310.4457309951603
 21
180.7160360664828
 31
0.0
  0
LINE
  5
8E7E
330
8E72
100
AcDbEntity
  8
contour
100
AcDbLine
 10
310.7457309951603
 20
181.0160360664828
 30
0.0
 11
310.4457309951603
 21
180.7160360664828
 31
0.0
  0
LINE
  5
8E7F
330
8E72
100
AcDbEntity
  8
contour
100
AcDbLine
 10
303.7457309951603
 20
181.0160360664827
 30
0.0
 11
304.0457309951603
 21
180.7160360664827
 31
0.0
  0
LINE
  5
8E80
330
8E72
100
AcDbEntity
  8
contour
100
AcDbLine
 10
309.2457309951603
 20
184.7160360664826
 30
0.0
 11
309.2457309951603
 21
195.9160360664827
 31
0.0
  0
LINE
  5
8E81
330
8E72
100
AcDbEntity
  8
contour
100
AcDbLine
 10
305.2457309951603
 20
184.7160360664826
 30
0.0
 11
305.2457309951603
 21
195.9160360664827
 31
0.0
  0
LINE
  5
8E82
330
8E72
100
AcDbEntity
  8
contour
100
AcDbLine
 10
306.0457309951603
 20
196.7160360664826
 30
0.0
 11
305.2457309951603
 21
195.9160360664826
 31
0.0
  0
LINE
  5
8E83
330
8E72
100
AcDbEntity
  8
contour
100
AcDbLine
 10
309.2457309951603
 20
195.9160360664827
 30
0.0
 11
305.2457309951603
 21
195.9160360664827
 31
0.0
  0
LINE
  5
8E84
330
8E72
100
AcDbEntity
  8
contour
 62
     4
100
AcDbLine
 10
308.8667309951603
 20
185.3724833225513
 30
0.0
 11
308.8667309951603
 21
196.2950360664826
 31
0.0
  0
LINE
  5
8E85
330
8E72
100
AcDbEntity
  8
contour
 62
     4
100
AcDbLine
 10
305.6247309951603
 20
185.3724833225513
 30
0.0
 11
305.6247309951603
 21
196.2950360664826
 31
0.0
  0
LINE
  5
8E86
330
8E72
100
AcDbEntity
  8
contour
100
AcDbLine
 10
310.7457309951603
 20
181.0160360664828
 30
0.0
 11
303.7457309951603
 21
181.0160360664828
 31
0.0
  0
LINE
  5
8E87
330
8E72
100
AcDbEntity
  8
bowle
 48
0.1
100
AcDbLine
 10
308.1117563989447
 20
180.7160360664827
 30
0.0
 11
308.1117563989447
 21
182.9160360664827
 31
0.0
  0
LINE
  5
8E88
330
8E72
100
AcDbEntity
  8
bowle
 48
0.1
100
AcDbLine
 10
308.9777818027293
 20
180.7160360664827
 30
0.0
 11
308.9777818027293
 21
182.9160360664827
 31
0.0
  0
LINE
  5
8E89
330
8E72
100
AcDbEntity
  8
bowle
 48
0.1
100
AcDbLine
 10
306.3797055913759
 20
180.7160360664827
 30
0.0
 11
306.3797055913759
 21
182.9160360664826
 31
0.0
  0
LINE
  5
8E8A
330
8E72
100
AcDbEntity
  8
bowle
 48
0.1
100
AcDbLine
 10
305.5136801875914
 20
180.7160360664827
 30
0.0
 11
305.5136801875914
 21
182.9160360664826
 31
0.0
  0
LINE
  5
8E8B
330
8E72
100
AcDbEntity
  8
bowle
 48
0.1
100
AcDbLine
 10
308.9777818027292
 20
182.9160360664827
 30
0.0
 11
305.5136801875914
 21
182.9160360664827
 31
0.0
  0
LINE
  5
8E8C
330
8E72
100
AcDbEntity
  8
bowle
 48
0.1
100
AcDbLine
 10
305.5136801875914
 20
182.9160360664826
 30
0.0
 11
307.2457309951603
 21
183.9160360664826
 31
0.0
  0
LINE
  5
8E8D
330
8E72
100
AcDbEntity
  8
bowle
 48
0.1
100
AcDbLine
 10
308.9777818027292
 20
182.9160360664826
 30
0.0
 11
307.2457309951603
 21
183.9160360664826
 31
0.0
  0
LINE
  5
8E8E
330
8E72
100
AcDbEntity
  8
contour
 62
     4
100
AcDbLine
 10
305.6247309951603
 20
185.3724833225513
 30
0.0
 11
305.2457309951603
 21
184.7160360664826
 31
0.0
  0
LINE
  5
8E8F
330
8E72
100
AcDbEntity
  8
contour
100
AcDbLine
 10
305.2457309951603
 20
185.3724833225513
 30
0.0
 11
309.2457309951603
 21
185.3724833225513
 31
0.0
  0
LINE
  5
8E90
330
8E72
100
AcDbEntity
  8
contour
 62
     4
100
AcDbLine
 10
309.2457309951603
 20
184.7160360664827
 30
0.0
 11
308.8667309951603
 21
185.3724833225513
 31
0.0
  0
ENDBLK
  5
8E77
330
8E72
100
AcDbEntity
  8
0
100
AcDbBlockEnd
  0
BLOCK
  5
9D19
330
9D15
100
AcDbEntity
  8
0
100
AcDbBlockBegin
  2
LS2
 70
     0
 10
0.0
 20
0.0
 30
0.0
  3
LS2
  1

  0
LINE
  5
9D1B
330
9D15
100
AcDbEntity
  8
contour
100
AcDbLine
 10
143.2797554375081
 20
0.0655328110734672
 30
0.0
 11
143.2797554375081
 21
3.765532811073398
 31
0.0
  0
LINE
  5
9D1C
330
9D15
100
AcDbEntity
  8
contour
100
AcDbLine
 10
143.2797554375081
 20
3.765532811073398
 30
0.0
 11
136.2797554375081
 21
3.765532811073398
 31
0.0
  0
LINE
  5
9D1D
330
9D15
100
AcDbEntity
  8
contour
100
AcDbLine
 10
140.979755437508
 20
19.7655328110734
 30
0.0
 11
138.5797554375081
 21
19.76553281107334
 31
0.0
  0
LINE
  5
9D1E
330
9D15
100
AcDbEntity
  8
contour
100
AcDbLine
 10
141.7797554375081
 20
18.96553281107333
 30
0.0
 11
140.9797554375081
 21
19.76553281107334
 31
0.0
  0
LINE
  5
9D1F
330
9D15
100
AcDbEntity
  8
contour
100
AcDbLine
 10
136.2797554375081
 20
3.765532811073398
 30
0.0
 11
136.2797554375081
 21
0.0655328110733535
 31
0.0
  0
LINE
  5
9D20
330
9D15
100
AcDbEntity
  8
contour
100
AcDbLine
 10
136.5797554375081
 20
-0.2344671889266578
 30
0.0
 11
142.9797554375081
 21
-0.2344671889265442
 31
0.0
  0
LINE
  5
9D21
330
9D15
100
AcDbEntity
  8
contour
100
AcDbLine
 10
143.2797554375081
 20
0.0655328110734672
 30
0.0
 11
142.9797554375081
 21
-0.2344671889265442
 31
0.0
  0
LINE
  5
9D22
330
9D15
100
AcDbEntity
  8
contour
100
AcDbLine
 10
136.2797554375081
 20
0.0655328110733535
 30
0.0
 11
136.5797554375081
 21
-0.2344671889266578
 31
0.0
  0
LINE
  5
9D23
330
9D15
100
AcDbEntity
  8
contour
100
AcDbLine
 10
141.7797554375081
 20
3.765532811073342
 30
0.0
 11
141.7797554375081
 21
18.96553281107339
 31
0.0
  0
LINE
  5
9D24
330
9D15
100
AcDbEntity
  8
contour
100
AcDbLine
 10
137.7797554375081
 20
3.765532811073342
 30
0.0
 11
137.7797554375081
 21
18.96553281107339
 31
0.0
  0
LINE
  5
9D25
330
9D15
100
AcDbEntity
  8
contour
100
AcDbLine
 10
138.5797554375081
 20
19.76553281107334
 30
0.0
 11
137.7797554375081
 21
18.96553281107333
 31
0.0
  0
LINE
  5
9D26
330
9D15
100
AcDbEntity
  8
contour
100
AcDbLine
 10
141.7797554375081
 20
18.96553281107339
 30
0.0
 11
137.7797554375081
 21
18.96553281107339
 31
0.0
  0
LINE
  5
9D27
330
9D15
100
AcDbEntity
  8
contour
 62
     4
100
AcDbLine
 10
141.400755437508
 20
4.42198006714193
 30
0.0
 11
141.4007554375081
 21
19.34453281107327
 31
0.0
  0
LINE
  5
9D28
330
9D15
100
AcDbEntity
  8
contour
 62
     4
100
AcDbLine
 10
138.1587554375081
 20
4.42198006714193
 30
0.0
 11
138.1587554375081
 21
19.34453281107336
 31
0.0
  0
LINE
  5
9D29
330
9D15
100
AcDbEntity
  8
contour
100
AcDbLine
 10
143.2797554375081
 20
0.0655328110734672
 30
0.0
 11
136.2797554375081
 21
0.0655328110735241
 31
0.0
  0
LINE
  5
9D2A
330
9D15
100
AcDbEntity
  8
bowle
 48
0.1
100
AcDbLine
 10
140.6457808412925
 20
-0.234467188926601
 30
0.0
 11
140.6457808412925
 21
1.965532811073387
 31
0.0
  0
LINE
  5
9D2B
330
9D15
100
AcDbEntity
  8
bowle
 48
0.1
100
AcDbLine
 10
141.511806245077
 20
-0.2344671889266578
 30
0.0
 11
141.511806245077
 21
1.965532811073387
 31
0.0
  0
LINE
  5
9D2C
330
9D15
100
AcDbEntity
  8
bowle
 48
0.1
100
AcDbLine
 10
138.9137300337237
 20
-0.234467188926601
 30
0.0
 11
138.9137300337237
 21
1.96553281107333
 31
0.0
  0
LINE
  5
9D2D
330
9D15
100
AcDbEntity
  8
bowle
 48
0.1
100
AcDbLine
 10
138.0477046299392
 20
-0.2344671889266578
 30
0.0
 11
138.0477046299391
 21
1.96553281107333
 31
0.0
  0
LINE
  5
9D2E
330
9D15
100
AcDbEntity
  8
bowle
 48
0.1
100
AcDbLine
 10
141.511806245077
 20
1.965532811073387
 30
0.0
 11
138.0477046299391
 21
1.965532811073387
 31
0.0
  0
LINE
  5
9D2F
330
9D15
100
AcDbEntity
  8
bowle
 48
0.1
100
AcDbLine
 10
138.0477046299391
 20
1.96553281107333
 30
0.0
 11
139.779755437508
 21
2.96553281107333
 31
0.0
  0
LINE
  5
9D30
330
9D15
100
AcDbEntity
  8
bowle
 48
0.1
100
AcDbLine
 10
141.511806245077
 20
1.96553281107333
 30
0.0
 11
139.779755437508
 21
2.96553281107333
 31
0.0
  0
LINE
  5
9D31
330
9D15
100
AcDbEntity
  8
contour
 62
     4
100
AcDbLine
 10
138.1587554375081
 20
4.421980067141987
 30
0.0
 11
137.7797554375081
 21
3.765532811073342
 31
0.0
  0
LINE
  5
9D32
330
9D15
100
AcDbEntity
  8
contour
100
AcDbLine
 10
137.7797554375081
 20
4.42198006714193
 30
0.0
 11
141.7797554375081
 21
4.42198006714193
 31
0.0
  0
LINE
  5
9D33
330
9D15
100
AcDbEntity
  8
contour
 62
     4
100
AcDbLine
 10
141.7797554375081
 20
3.765532811073398
 30
0.0
 11
141.400755437508
 21
4.42198006714193
 31
0.0
  0
ENDBLK
  5
9D1A
330
9D15
100
AcDbEntity
  8
0
100
AcDbBlockEnd
  0
BLOCK
  5
A51C
330
A518
100
AcDbEntity
  8
0
100
AcDbBlockBegin
  2
LS3
 70
     0
 10
0.0
 20
0.0
 30
0.0
  3
LS3
  1

  0
LINE
  5
A51E
330
A518
100
AcDbEntity
  8
contour
100
AcDbLine
 10
329.8877449821333
 20
4.477662871771769
 30
0.0
 11
329.8877449821333
 21
8.177662871771701
 31
0.0
  0
LINE
  5
A51F
330
A518
100
AcDbEntity
  8
contour
100
AcDbLine
 10
329.8877449821333
 20
8.177662871771701
 30
0.0
 11
336.8877449821333
 21
8.177662871771701
 31
0.0
  0
LINE
  5
A520
330
A518
100
AcDbEntity
  8
contour
100
AcDbLine
 10
332.1877449821334
 20
26.1776628717717
 30
0.0
 11
334.5877449821334
 21
26.17766287177165
 31
0.0
  0
LINE
  5
A521
330
A518
100
AcDbEntity
  8
contour
100
AcDbLine
 10
331.3877449821333
 20
25.37766287177163
 30
0.0
 11
332.1877449821334
 21
26.17766287177165
 31
0.0
  0
LINE
  5
A522
330
A518
100
AcDbEntity
  8
contour
100
AcDbLine
 10
336.8877449821333
 20
8.177662871771701
 30
0.0
 11
336.8877449821333
 21
4.477662871771656
 31
0.0
  0
LINE
  5
A523
330
A518
100
AcDbEntity
  8
contour
100
AcDbLine
 10
336.5877449821334
 20
4.177662871771644
 30
0.0
 11
330.1877449821334
 21
4.177662871771758
 31
0.0
  0
LINE
  5
A524
330
A518
100
AcDbEntity
  8
contour
100
AcDbLine
 10
329.8877449821333
 20
4.477662871771769
 30
0.0
 11
330.1877449821334
 21
4.177662871771758
 31
0.0
  0
LINE
  5
A525
330
A518
100
AcDbEntity
  8
contour
100
AcDbLine
 10
336.8877449821333
 20
4.477662871771656
 30
0.0
 11
336.5877449821334
 21
4.177662871771644
 31
0.0
  0
LINE
  5
A526
330
A518
100
AcDbEntity
  8
contour
100
AcDbLine
 10
331.3877449821333
 20
8.177662871771644
 30
0.0
 11
331.3877449821334
 21
25.37766287177168
 31
0.0
  0
LINE
  5
A527
330
A518
100
AcDbEntity
  8
contour
100
AcDbLine
 10
335.3877449821333
 20
8.177662871771644
 30
0.0
 11
335.3877449821333
 21
25.37766287177166
 31
0.0
  0
LINE
  5
A528
330
A518
100
AcDbEntity
  8
contour
100
AcDbLine
 10
334.5877449821334
 20
26.17766287177165
 30
0.0
 11
335.3877449821333
 21
25.37766287177163
 31
0.0
  0
LINE
  5
A529
330
A518
100
AcDbEntity
  8
contour
100
AcDbLine
 10
331.3877449821333
 20
25.37766287177169
 30
0.0
 11
335.3877449821333
 21
25.37766287177169
 31
0.0
  0
LINE
  5
A52A
330
A518
100
AcDbEntity
  8
contour
 62
     4
100
AcDbLine
 10
331.7667449821333
 20
8.834110127840233
 30
0.0
 11
331.7667449821333
 21
25.75666287177167
 31
0.0
  0
LINE
  5
A52B
330
A518
100
AcDbEntity
  8
contour
 62
     4
100
AcDbLine
 10
335.0087449821333
 20
8.834110127840233
 30
0.0
 11
335.0087449821334
 21
25.75666287177161
 31
0.0
  0
LINE
  5
A52C
330
A518
100
AcDbEntity
  8
contour
100
AcDbLine
 10
329.8877449821333
 20
4.477662871771769
 30
0.0
 11
336.8877449821333
 21
4.477662871771826
 31
0.0
  0
LINE
  5
A52D
330
A518
100
AcDbEntity
  8
bowle
 48
0.1
100
AcDbLine
 10
332.5217195783489
 20
4.177662871771701
 30
0.0
 11
332.5217195783489
 21
6.37766287177169
 31
0.0
  0
LINE
  5
A52E
330
A518
100
AcDbEntity
  8
bowle
 48
0.1
100
AcDbLine
 10
331.6556941745643
 20
4.177662871771644
 30
0.0
 11
331.6556941745643
 21
6.37766287177169
 31
0.0
  0
LINE
  5
A52F
330
A518
100
AcDbEntity
  8
bowle
 48
0.1
100
AcDbLine
 10
334.2537703859177
 20
4.177662871771701
 30
0.0
 11
334.2537703859177
 21
6.377662871771633
 31
0.0
  0
LINE
  5
A530
330
A518
100
AcDbEntity
  8
bowle
 48
0.1
100
AcDbLine
 10
335.1197957897023
 20
4.177662871771644
 30
0.0
 11
335.1197957897023
 21
6.377662871771633
 31
0.0
  0
LINE
  5
A531
330
A518
100
AcDbEntity
  8
bowle
 48
0.1
100
AcDbLine
 10
331.6556941745645
 20
6.37766287177169
 30
0.0
 11
335.1197957897023
 21
6.37766287177169
 31
0.0
  0
LINE
  5
A532
330
A518
100
AcDbEntity
  8
bowle
 48
0.1
100
AcDbLine
 10
335.1197957897023
 20
6.377662871771633
 30
0.0
 11
333.3877449821334
 21
7.377662871771633
 31
0.0
  0
LINE
  5
A533
330
A518
100
AcDbEntity
  8
bowle
 48
0.1
100
AcDbLine
 10
331.6556941745645
 20
6.377662871771633
 30
0.0
 11
333.3877449821334
 21
7.377662871771633
 31
0.0
  0
LINE
  5
A534
330
A518
100
AcDbEntity
  8
contour
 62
     4
100
AcDbLine
 10
335.0087449821333
 20
8.83411012784029
 30
0.0
 11
335.3877449821333
 21
8.177662871771644
 31
0.0
  0
LINE
  5
A535
330
A518
100
AcDbEntity
  8
contour
100
AcDbLine
 10
335.3877449821333
 20
8.834110127840233
 30
0.0
 11
331.3877449821333
 21
8.834110127840233
 31
0.0
  0
LINE
  5
A536
330
A518
100
AcDbEntity
  8
contour
 62
     4
100
AcDbLine
 10
331.3877449821333
 20
8.177662871771701
 30
0.0
 11
331.7667449821333
 21
8.834110127840233
 31
0.0
  0
ENDBLK
  5
A51D
330
A518
100
AcDbEntity
  8
0
100
AcDbBlockEnd
  0
BLOCK
  5
A62B
330
A627
100
AcDbEntity
  8
0
100
AcDbBlockBegin
  2
LS4
 70
     0
 10
0.0
 20
0.0
 30
0.0
  3
LS4
  1

  0
LINE
  5
A62D
330
A627
100
AcDbEntity
  8
contour
100
AcDbLine
 10
402.9074768226647
 20
108.9417821167274
 30
0.0
 11
410.8074768226646
 21
108.9417821167274
 31
0.0
  0
LINE
  5
A62E
330
A627
100
AcDbEntity
  8
contour
100
AcDbLine
 10
411.1074768226647
 20
109.2417821167273
 30
0.0
 11
411.1074768226647
 21
113.9417821167274
 31
0.0
  0
LINE
  5
A62F
330
A627
100
AcDbEntity
  8
contour
100
AcDbLine
 10
410.8074768226646
 20
108.9417821167274
 30
0.0
 11
411.1074768226647
 21
109.2417821167273
 31
0.0
  0
LINE
  5
A630
330
A627
100
AcDbEntity
  8
contour
100
AcDbLine
 10
411.1074768226647
 20
113.9417821167274
 30
0.0
 11
402.6074768226647
 21
113.9417821167274
 31
0.0
  0
LINE
  5
A631
330
A627
100
AcDbEntity
  8
contour
100
AcDbLine
 10
408.4574768226646
 20
131.9417821167274
 30
0.0
 11
405.2574768226646
 21
131.9417821167273
 31
0.0
  0
LINE
  5
A632
330
A627
100
AcDbEntity
  8
contour
100
AcDbLine
 10
409.3574768226646
 20
131.0417821167273
 30
0.0
 11
408.4574768226646
 21
131.9417821167274
 31
0.0
  0
LINE
  5
A633
330
A627
100
AcDbEntity
  8
contour
100
AcDbLine
 10
402.6074768226647
 20
113.9417821167274
 30
0.0
 11
402.6074768226647
 21
109.2417821167273
 31
0.0
  0
LINE
  5
A634
330
A627
100
AcDbEntity
  8
contour
100
AcDbLine
 10
402.9074768226647
 20
108.9417821167274
 30
0.0
 11
402.6074768226647
 21
109.2417821167273
 31
0.0
  0
LINE
  5
A635
330
A627
100
AcDbEntity
  8
contour
100
AcDbLine
 10
402.6074768226647
 20
109.2417821167273
 30
0.0
 11
411.1074768226647
 21
109.2417821167273
 31
0.0
  0
LINE
  5
A636
330
A627
100
AcDbEntity
  8
contour
100
AcDbLine
 10
404.3574768226647
 20
113.9417821167274
 30
0.0
 11
404.3574768226647
 21
131.0417821167273
 31
0.0
  0
LINE
  5
A637
330
A627
100
AcDbEntity
  8
contour
100
AcDbLine
 10
405.2574768226646
 20
131.9417821167273
 30
0.0
 11
404.3574768226647
 21
131.0417821167273
 31
0.0
  0
LINE
  5
A638
330
A627
100
AcDbEntity
  8
contour
100
AcDbLine
 10
409.3574768226647
 20
113.9417821167274
 30
0.0
 11
409.3574768226646
 21
131.0417821167273
 31
0.0
  0
LINE
  5
A639
330
A627
100
AcDbEntity
  8
contour
100
AcDbLine
 10
404.3574768226647
 20
131.0417821167273
 30
0.0
 11
409.3574768226646
 21
131.0417821167273
 31
0.0
  0
LINE
  5
A63A
330
A627
100
AcDbEntity
  8
contour
 62
     4
100
AcDbLine
 10
404.7904768226646
 20
114.6917601164047
 30
0.0
 11
404.7904768226647
 21
131.4747821167274
 31
0.0
  0
LINE
  5
A63B
330
A627
100
AcDbEntity
  8
contour
 62
     4
100
AcDbLine
 10
408.9244768226647
 20
114.6917601164048
 30
0.0
 11
408.9244768226647
 21
131.4747821167273
 31
0.0
  0
LINE
  5
A63C
330
A627
100
AcDbEntity
  8
contour
 62
     4
100
AcDbLine
 10
408.9244768226646
 20
114.6917601164048
 30
0.0
 11
409.3574768226647
 21
113.9417821167274
 31
0.0
  0
LINE
  5
A63D
330
A627
100
AcDbEntity
  8
contour
100
AcDbLine
 10
409.3574768226647
 20
114.6917601164048
 30
0.0
 11
404.3574768226647
 21
114.6917601164048
 31
0.0
  0
LINE
  5
A63E
330
A627
100
AcDbEntity
  8
contour
 62
     4
100
AcDbLine
 10
404.7904768226647
 20
114.6917601164048
 30
0.0
 11
404.3574768226647
 21
113.9417821167274
 31
0.0
  0
LINE
  5
A63F
330
A627
100
AcDbEntity
  8
bowle
 48
0.2
100
AcDbLine
 10
404.5480757459062
 20
108.9417821167274
 30
0.0
 11
404.5480757459062
 21
111.4417821167274
 31
0.0
  0
LINE
  5
A640
330
A627
100
AcDbEntity
  8
bowle
 48
0.2
100
AcDbLine
 10
409.1668778994232
 20
108.9417821167274
 30
0.0
 11
409.1668778994232
 21
111.4417821167274
 31
0.0
  0
LINE
  5
A641
330
A627
100
AcDbEntity
  8
bowle
 48
0.2
100
AcDbLine
 10
404.5480757459062
 20
111.4417821167274
 30
0.0
 11
409.1668778994232
 21
111.4417821167274
 31
0.0
  0
LINE
  5
A642
330
A627
100
AcDbEntity
  8
bowle
 48
0.2
100
AcDbLine
 10
405.7027762842854
 20
111.4417821167274
 30
0.0
 11
405.7027762842854
 21
108.9417821167274
 31
0.0
  0
LINE
  5
A643
330
A627
100
AcDbEntity
  8
bowle
 48
0.2
100
AcDbLine
 10
408.0121773610439
 20
111.4417821167274
 30
0.0
 11
408.0121773610439
 21
108.9417821167274
 31
0.0
  0
LINE
  5
A644
330
A627
100
AcDbEntity
  8
bowle
 48
0.2
100
AcDbLine
 10
409.1668778994232
 20
111.4417821167274
 30
0.0
 11
406.8574768226646
 21
112.7751154500606
 31
0.0
  0
LINE
  5
A645
330
A627
100
AcDbEntity
  8
bowle
 48
0.2
100
AcDbLine
 10
404.5480757459062
 20
111.4417821167274
 30
0.0
 11
406.8574768226646
 21
112.7751154500606
 31
0.0
  0
ENDBLK
  5
A62C
330
A627
100
AcDbEntity
  8
0
100
AcDbBlockEnd
  0
BLOCK
  5
DEFB
330
DEF7
100
AcDbEntity
  8
0
100
AcDbBlockBegin
  2
LS5
 70
     0
 10
0.0
 20
0.0
 30
0.0
  3
LS5
  1

  0
LINE
  5
DEFC
330
DEF7
100
AcDbEntity
  8
contour
100
AcDbLine
 10
332.051087530478
 20
128.9140801935821
 30
0.0
 11
339.951087530478
 21
128.9140801935821
 31
0.0
  0
LINE
  5
DEFD
330
DEF7
100
AcDbEntity
  8
contour
100
AcDbLine
 10
340.251087530478
 20
129.2140801935821
 30
0.0
 11
340.251087530478
 21
133.9140801935821
 31
0.0
  0
LINE
  5
DEFE
330
DEF7
100
AcDbEntity
  8
contour
100
AcDbLine
 10
339.951087530478
 20
128.9140801935821
 30
0.0
 11
340.251087530478
 21
129.2140801935821
 31
0.0
  0
LINE
  5
DEFF
330
DEF7
100
AcDbEntity
  8
contour
100
AcDbLine
 10
340.251087530478
 20
133.9140801935821
 30
0.0
 11
331.751087530478
 21
133.9140801935821
 31
0.0
  0
LINE
  5
DF00
330
DEF7
100
AcDbEntity
  8
contour
100
AcDbLine
 10
337.6010875304779
 20
153.9140801935821
 30
0.0
 11
334.4010875304779
 21
153.9140801935821
 31
0.0
  0
LINE
  5
DF01
330
DEF7
100
AcDbEntity
  8
contour
100
AcDbLine
 10
338.5010875304779
 20
153.0140801935821
 30
0.0
 11
337.6010875304779
 21
153.9140801935821
 31
0.0
  0
LINE
  5
DF02
330
DEF7
100
AcDbEntity
  8
contour
100
AcDbLine
 10
331.751087530478
 20
133.9140801935821
 30
0.0
 11
331.751087530478
 21
129.2140801935821
 31
0.0
  0
LINE
  5
DF03
330
DEF7
100
AcDbEntity
  8
contour
100
AcDbLine
 10
332.051087530478
 20
128.9140801935821
 30
0.0
 11
331.751087530478
 21
129.2140801935821
 31
0.0
  0
LINE
  5
DF04
330
DEF7
100
AcDbEntity
  8
contour
100
AcDbLine
 10
331.751087530478
 20
129.2140801935821
 30
0.0
 11
340.251087530478
 21
129.2140801935821
 31
0.0
  0
LINE
  5
DF05
330
DEF7
100
AcDbEntity
  8
contour
100
AcDbLine
 10
333.5010875304779
 20
133.9140801935821
 30
0.0
 11
333.5010875304779
 21
153.0140801935821
 31
0.0
  0
LINE
  5
DF06
330
DEF7
100
AcDbEntity
  8
contour
100
AcDbLine
 10
334.4010875304779
 20
153.9140801935821
 30
0.0
 11
333.5010875304779
 21
153.0140801935821
 31
0.0
  0
LINE
  5
DF07
330
DEF7
100
AcDbEntity
  8
contour
100
AcDbLine
 10
338.501087530478
 20
133.9140801935821
 30
0.0
 11
338.5010875304778
 21
153.0140801935821
 31
0.0
  0
LINE
  5
DF08
330
DEF7
100
AcDbEntity
  8
contour
100
AcDbLine
 10
333.5010875304779
 20
153.0140801935821
 30
0.0
 11
338.5010875304779
 21
153.0140801935821
 31
0.0
  0
LINE
  5
DF09
330
DEF7
100
AcDbEntity
  8
contour
 62
     4
100
AcDbLine
 10
333.9340875304779
 20
134.6640581932595
 30
0.0
 11
333.934087530478
 21
153.4470801935821
 31
0.0
  0
LINE
  5
DF0A
330
DEF7
100
AcDbEntity
  8
contour
 62
     4
100
AcDbLine
 10
338.068087530478
 20
134.6640581932595
 30
0.0
 11
338.068087530478
 21
153.4470801935821
 31
0.0
  0
LINE
  5
DF0B
330
DEF7
100
AcDbEntity
  8
contour
 62
     4
100
AcDbLine
 10
338.0680875304779
 20
134.6640581932595
 30
0.0
 11
338.501087530478
 21
133.9140801935821
 31
0.0
  0
LINE
  5
DF0C
330
DEF7
100
AcDbEntity
  8
contour
100
AcDbLine
 10
338.501087530478
 20
134.6640581932595
 30
0.0
 11
333.501087530478
 21
134.6640581932595
 31
0.0
  0
LINE
  5
DF0D
330
DEF7
100
AcDbEntity
  8
contour
 62
     4
100
AcDbLine
 10
333.934087530478
 20
134.6640581932595
 30
0.0
 11
333.5010875304779
 21
133.9140801935821
 31
0.0
  0
LINE
  5
DF0E
330
DEF7
100
AcDbEntity
  8
bowle
 48
0.2
100
AcDbLine
 10
333.6916864537195
 20
128.9140801935821
 30
0.0
 11
333.6916864537195
 21
131.4140801935821
 31
0.0
  0
LINE
  5
DF0F
330
DEF7
100
AcDbEntity
  8
bowle
 48
0.2
100
AcDbLine
 10
338.3104886072364
 20
128.9140801935821
 30
0.0
 11
338.3104886072364
 21
131.4140801935821
 31
0.0
  0
LINE
  5
DF10
330
DEF7
100
AcDbEntity
  8
bowle
 48
0.2
100
AcDbLine
 10
333.6916864537195
 20
131.4140801935821
 30
0.0
 11
338.3104886072364
 21
131.4140801935821
 31
0.0
  0
LINE
  5
DF11
330
DEF7
100
AcDbEntity
  8
bowle
 48
0.2
100
AcDbLine
 10
334.8463869920987
 20
131.4140801935821
 30
0.0
 11
334.8463869920986
 21
128.9140801935821
 31
0.0
  0
LINE
  5
DF12
330
DEF7
100
AcDbEntity
  8
bowle
 48
0.2
100
AcDbLine
 10
337.1557880688572
 20
131.4140801935821
 30
0.0
 11
337.1557880688572
 21
128.9140801935821
 31
0.0
  0
LINE
  5
DF13
330
DEF7
100
AcDbEntity
  8
bowle
 48
0.2
100
AcDbLine
 10
338.3104886072364
 20
131.4140801935821
 30
0.0
 11
336.0010875304779
 21
132.7474135269154
 31
0.0
  0
LINE
  5
DF14
330
DEF7
100
AcDbEntity
  8
bowle
 48
0.2
100
AcDbLine
 10
333.6916864537195
 20
131.4140801935821
 30
0.0
 11
336.0010875304779
 21
132.7474135269154
 31
0.0
  0
ENDBLK
  5
DF15
330
DEF7
100
AcDbEntity
  8
0
100
AcDbBlockEnd
  0
BLOCK
  5
E3EC
330
E3E2
100
AcDbEntity
  8
0
100
AcDbBlockBegin
  2
*D8
 70
     1
 10
0.0
 20
0.0
 30
0.0
  3
*D8
  1

  0
LINE
  5
E653
330
E3E2
100
AcDbEntity
  8
mark
370
    -2
100
AcDbLine
 10
47.64999999999999
 20
122.6053175261268
 30
0.0
 11
36.84956702437821
 21
122.6053175261268
 31
0.0
  0
LINE
  5
E654
330
E3E2
100
AcDbEntity
  8
mark
370
    -2
100
AcDbLine
 10
44.64999999999994
 20
113.1053175261269
 30
0.0
 11
36.84956702437821
 21
113.1053175261269
 31
0.0
  0
LINE
  5
E655
330
E3E2
100
AcDbEntity
  8
mark
370
    -2
100
AcDbLine
 10
37.69956702437821
 20
120.1053175261268
 30
0.0
 11
37.69956702437821
 21
115.6053175261269
 31
0.0
  0
INSERT
  5
E656
330
E3E2
100
AcDbEntity
  8
mark
370
    -2
100
AcDbBlockReference
  2
_Open30
 10
37.69956702437821
 20
122.6053175261268
 30
0.0
 41
2.5
 42
2.5
 43
2.5
 50
90.0
  0
INSERT
  5
E657
330
E3E2
100
AcDbEntity
  8
mark
370
    -2
100
AcDbBlockReference
  2
_Open30
 10
37.69956702437821
 20
113.1053175261269
 30
0.0
 41
2.5
 42
2.5
 43
2.5
 50
270.0
  0
MTEXT
  5
E658
330
E3E2
100
AcDbEntity
  8
mark
 62
     3
100
AcDbMText
 10
35.59956702437819
 20
117.8553175261269
 30
0.0
 40
2.5
 41
0.0
 71
     5
 72
     1
  1
\A1;9.5
 11
0.0000000000000001
 21
1.0
 31
0.0
 73
     1
 44
1.0
  0
POINT
  5
E659
330
E3E2
100
AcDbEntity
  8
DEFPOINTS
 62
     0
100
AcDbPoint
 10
48.5
 20
122.6053175261268
 30
0.0
  0
POINT
  5
E65A
330
E3E2
100
AcDbEntity
  8
DEFPOINTS
 62
     0
100
AcDbPoint
 10
45.49999999999994
 20
113.1053175261269
 30
0.0
  0
POINT
  5
E65B
330
E3E2
100
AcDbEntity
  8
DEFPOINTS
 62
     0
100
AcDbPoint
 10
37.69956702437821
 20
113.1053175261269
 30
0.0
  0
ENDBLK
  5
E3ED
330
E3E2
100
AcDbEntity
  8
0
100
AcDbBlockEnd
  0
BLOCK
  5
E400
330
E3F6
100
AcDbEntity
  8
0
100
AcDbBlockBegin
  2
*D9
 70
     1
 10
0.0
 20
0.0
 30
0.0
  3
*D9
  1

  0
LINE
  5
E65C
330
E3F6
100
AcDbEntity
  8
mark
370
    -2
100
AcDbLine
 10
142.35
 20
122.6053175261269
 30
0.0
 11
152.3414458270275
 21
122.6053175261269
 31
0.0
  0
LINE
  5
E65D
330
E3F6
100
AcDbEntity
  8
mark
370
    -2
100
AcDbLine
 10
142.3499999999999
 20
103.7553175261269
 30
0.0
 11
152.3414458270275
 21
103.7553175261269
 31
0.0
  0
LINE
  5
E65E
330
E3F6
100
AcDbEntity
  8
mark
370
    -2
100
AcDbLine
 10
151.4914458270275
 20
120.1053175261269
 30
0.0
 11
151.4914458270275
 21
106.2553175261269
 31
0.0
  0
INSERT
  5
E65F
330
E3F6
100
AcDbEntity
  8
mark
370
    -2
100
AcDbBlockReference
  2
_Open30
 10
151.4914458270275
 20
122.6053175261269
 30
0.0
 41
2.5
 42
2.5
 43
2.5
 50
90.0
  0
INSERT
  5
E660
330
E3F6
100
AcDbEntity
  8
mark
370
    -2
100
AcDbBlockReference
  2
_Open30
 10
151.4914458270275
 20
103.7553175261269
 30
0.0
 41
2.5
 42
2.5
 43
2.5
 50
270.0
  0
MTEXT
  5
E661
330
E3F6
100
AcDbEntity
  8
mark
 62
     3
100
AcDbMText
 10
149.3914458270275
 20
113.1803175261269
 30
0.0
 40
2.5
 41
0.0
 71
     5
 72
     1
  1
\A1;18.85
 11
0.0000000000000001
 21
1.0
 31
0.0
 73
     1
 44
1.0
  0
POINT
  5
E662
330
E3F6
100
AcDbEntity
  8
DEFPOINTS
 62
     0
100
AcDbPoint
 10
141.5
 20
122.6053175261269
 30
0.0
  0
POINT
  5
E663
330
E3F6
100
AcDbEntity
  8
DEFPOINTS
 62
     0
100
AcDbPoint
 10
141.4999999999999
 20
103.7553175261269
 30
0.0
  0
POINT
  5
E664
330
E3F6
100
AcDbEntity
  8
DEFPOINTS
 62
     0
100
AcDbPoint
 10
151.4914458270275
 20
103.7553175261269
 30
0.0
  0
ENDBLK
  5
E401
330
E3F6
100
AcDbEntity
  8
0
100
AcDbBlockEnd
  0
BLOCK
  5
E40F
330
E403
100
AcDbEntity
  8
0
100
AcDbBlockBegin
  2
*D10
 70
     1
 10
0.0
 20
0.0
 30
0.0
  3
*D10
  1

  0
LINE
  5
E665
330
E403
100
AcDbEntity
  8
mark
370
    -2
100
AcDbLine
 10
142.3499999999999
 20
103.7553175261269
 30
0.0
 11
152.3414458270275
 21
103.7553175261269
 31
0.0
  0
LINE
  5
E666
330
E403
100
AcDbEntity
  8
mark
370
    -2
100
AcDbLine
 10
142.3499999999999
 20
101.7553175261269
 30
0.0
 11
152.3414458270275
 21
101.7553175261269
 31
0.0
  0
LINE
  5
E667
330
E403
100
AcDbEntity
  8
mark
370
    -2
100
AcDbLine
 10
151.4914458270275
 20
106.2553175261269
 30
0.0
 11
151.4914458270275
 21
108.7553175261269
 31
0.0
  0
LINE
  5
E668
330
E403
100
AcDbEntity
  8
mark
370
    -2
100
AcDbLine
 10
151.4914458270275
 20
99.25531752612693
 30
0.0
 11
151.4914458270275
 21
96.75531752612693
 31
0.0
  0
LINE
  5
E669
330
E403
100
AcDbEntity
  8
mark
370
    -2
100
AcDbLine
 10
151.4914458270275
 20
103.7553175261269
 30
0.0
 11
151.4914458270275
 21
101.7553175261269
 31
0.0
  0
INSERT
  5
E66A
330
E403
100
AcDbEntity
  8
mark
370
    -2
100
AcDbBlockReference
  2
_Open30
 10
151.4914458270275
 20
103.7553175261269
 30
0.0
 41
2.5
 42
2.5
 43
2.5
 50
270.0
  0
INSERT
  5
E66B
330
E403
100
AcDbEntity
  8
mark
370
    -2
100
AcDbBlockReference
  2
_Open30
 10
151.4914458270275
 20
101.7553175261269
 30
0.0
 41
2.5
 42
2.5
 43
2.5
 50
90.0
  0
MTEXT
  5
E66C
330
E403
100
AcDbEntity
  8
mark
 62
     3
100
AcDbMText
 10
149.3914458270275
 20
102.7553175261269
 30
0.0
 40
2.5
 41
0.0
 71
     5
 72
     1
  1
\A1;2
 11
0.0000000000000001
 21
1.0
 31
0.0
 73
     1
 44
1.0
  0
POINT
  5
E66D
330
E403
100
AcDbEntity
  8
DEFPOINTS
 62
     0
100
AcDbPoint
 10
141.4999999999999
 20
103.7553175261269
 30
0.0
  0
POINT
  5
E66E
330
E403
100
AcDbEntity
  8
DEFPOINTS
 62
     0
100
AcDbPoint
 10
141.4999999999999
 20
101.7553175261269
 30
0.0
  0
POINT
  5
E66F
330
E403
100
AcDbEntity
  8
DEFPOINTS
 62
     0
100
AcDbPoint
 10
151.4914458270275
 20
101.7553175261269
 30
0.0
  0
ENDBLK
  5
E410
330
E403
100
AcDbEntity
  8
0
100
AcDbBlockEnd
  0
BLOCK
  5
E427
330
E41D
100
AcDbEntity
  8
0
100
AcDbBlockBegin
  2
*D11
 70
     1
 10
0.0
 20
0.0
 30
0.0
  3
*D11
  1

  0
LINE
  5
E670
330
E41D
100
AcDbEntity
  8
mark
370
    -2
100
AcDbLine
 10
142.35
 20
122.6053175261269
 30
0.0
 11
161.3584098938466
 21
122.6053175261269
 31
0.0
  0
LINE
  5
E671
330
E41D
100
AcDbEntity
  8
mark
370
    -2
100
AcDbLine
 10
142.35
 20
94.60531752612689
 30
0.0
 11
161.3584098938466
 21
94.60531752612688
 31
0.0
  0
LINE
  5
E672
330
E41D
100
AcDbEntity
  8
mark
370
    -2
100
AcDbLine
 10
160.5084098938466
 20
120.1053175261269
 30
0.0
 11
160.5084098938466
 21
97.10531752612688
 31
0.0
  0
INSERT
  5
E673
330
E41D
100
AcDbEntity
  8
mark
370
    -2
100
AcDbBlockReference
  2
_Open30
 10
160.5084098938466
 20
122.6053175261269
 30
0.0
 41
2.5
 42
2.5
 43
2.5
 50
90.0
  0
INSERT
  5
E674
330
E41D
100
AcDbEntity
  8
mark
370
    -2
100
AcDbBlockReference
  2
_Open30
 10
160.5084098938466
 20
94.60531752612688
 30
0.0
 41
2.5
 42
2.5
 43
2.5
 50
270.0
  0
MTEXT
  5
E675
330
E41D
100
AcDbEntity
  8
mark
 62
     3
100
AcDbMText
 10
158.4084098938466
 20
108.6053175261269
 30
0.0
 40
2.5
 41
0.0
 71
     5
 72
     1
  1
\A1;28%%p0.2
 11
0.0000000000000001
 21
1.0
 31
0.0
 73
     1
 44
1.0
  0
POINT
  5
E676
330
E41D
100
AcDbEntity
  8
DEFPOINTS
 62
     0
100
AcDbPoint
 10
141.5
 20
122.6053175261269
 30
0.0
  0
POINT
  5
E677
330
E41D
100
AcDbEntity
  8
DEFPOINTS
 62
     0
100
AcDbPoint
 10
141.5
 20
94.60531752612689
 30
0.0
  0
POINT
  5
E678
330
E41D
100
AcDbEntity
  8
DEFPOINTS
 62
     0
100
AcDbPoint
 10
160.5084098938466
 20
94.60531752612688
 30
0.0
  0
ENDBLK
  5
E428
330
E41D
100
AcDbEntity
  8
0
100
AcDbBlockEnd
  0
BLOCK
  5
E448
330
E43E
100
AcDbEntity
  8
0
100
AcDbBlockBegin
  2
*D12
 70
     1
 10
0.0
 20
0.0
 30
0.0
  3
*D12
  1

  0
LINE
  5
E679
330
E43E
100
AcDbEntity
  8
mark
370
    -2
100
AcDbLine
 10
60.0
 20
94.67281752612695
 30
0.0
 11
60.0
 21
82.04565167594868
 31
0.0
  0
LINE
  5
E67A
330
E43E
100
AcDbEntity
  8
mark
370
    -2
100
AcDbLine
 10
130.0
 20
94.67281752612692
 30
0.0
 11
130.0
 21
82.04565167594868
 31
0.0
  0
LINE
  5
E67B
330
E43E
100
AcDbEntity
  8
mark
370
    -2
100
AcDbLine
 10
62.5
 20
82.89565167594867
 30
0.0
 11
127.5
 21
82.89565167594867
 31
0.0
  0
INSERT
  5
E67C
330
E43E
100
AcDbEntity
  8
mark
370
    -2
100
AcDbBlockReference
  2
_Open30
 10
60.0
 20
82.89565167594867
 30
0.0
 41
2.5
 42
2.5
 43
2.5
 50
180.0
  0
INSERT
  5
E67D
330
E43E
100
AcDbEntity
  8
mark
370
    -2
100
AcDbBlockReference
  2
_Open30
 10
130.0
 20
82.89565167594867
 30
0.0
 41
2.5
 42
2.5
 43
2.5
  0
MTEXT
  5
E67E
330
E43E
100
AcDbEntity
  8
mark
 62
     3
100
AcDbMText
 10
95.0
 20
84.99565167594866
 30
0.0
 40
2.5
 41
0.0
 71
     5
 72
     1
  1
\A1;M70x2.0P
 73
     1
 44
1.0
  0
POINT
  5
E67F
330
E43E
100
AcDbEntity
  8
DEFPOINTS
 62
     0
100
AcDbPoint
 10
60.0
 20
95.52281752612694
 30
0.0
  0
POINT
  5
E680
330
E43E
100
AcDbEntity
  8
DEFPOINTS
 62
     0
100
AcDbPoint
 10
130.0
 20
95.52281752612691
 30
0.0
  0
POINT
  5
E681
330
E43E
100
AcDbEntity
  8
DEFPOINTS
 62
     0
100
AcDbPoint
 10
130.0
 20
82.89565167594867
 30
0.0
  0
ENDBLK
  5
E449
330
E43E
100
AcDbEntity
  8
0
100
AcDbBlockEnd
  0
BLOCK
  5
E45E
330
E454
100
AcDbEntity
  8
0
100
AcDbBlockBegin
  2
*D13
 70
     1
 10
0.0
 20
0.0
 30
0.0
  3
*D13
  1

  0
LINE
  5
E682
330
E454
100
AcDbEntity
  8
mark
370
    -2
100
AcDbLine
 10
47.5
 20
122.4553175261269
 30
0.0
 11
47.5
 21
130.2477051873395
 31
0.0
  0
LINE
  5
E683
330
E454
100
AcDbEntity
  8
mark
370
    -2
100
AcDbLine
 10
142.5
 20
122.4553175261269
 30
0.0
 11
142.5
 21
130.2477051873395
 31
0.0
  0
LINE
  5
E684
330
E454
100
AcDbEntity
  8
mark
370
    -2
100
AcDbLine
 10
50.0
 20
129.3977051873395
 30
0.0
 11
140.0
 21
129.3977051873395
 31
0.0
  0
INSERT
  5
E685
330
E454
100
AcDbEntity
  8
mark
370
    -2
100
AcDbBlockReference
  2
_Open30
 10
47.5
 20
129.3977051873395
 30
0.0
 41
2.5
 42
2.5
 43
2.5
 50
180.0
  0
INSERT
  5
E686
330
E454
100
AcDbEntity
  8
mark
370
    -2
100
AcDbBlockReference
  2
_Open30
 10
142.5
 20
129.3977051873395
 30
0.0
 41
2.5
 42
2.5
 43
2.5
  0
MTEXT
  5
E687
330
E454
100
AcDbEntity
  8
mark
 62
     3
100
AcDbMText
 10
95.0
 20
131.4977051873395
 30
0.0
 40
2.5
 41
0.0
 71
     5
 72
     1
  1
\A1;%%c95
 73
     1
 44
1.0
  0
POINT
  5
E688
330
E454
100
AcDbEntity
  8
DEFPOINTS
 62
     0
100
AcDbPoint
 10
47.5
 20
121.6053175261269
 30
0.0
  0
POINT
  5
E689
330
E454
100
AcDbEntity
  8
DEFPOINTS
 62
     0
100
AcDbPoint
 10
142.5
 20
121.6053175261269
 30
0.0
  0
POINT
  5
E68A
330
E454
100
AcDbEntity
  8
DEFPOINTS
 62
     0
100
AcDbPoint
 10
142.5
 20
129.3977051873395
 30
0.0
  0
ENDBLK
  5
E45F
330
E454
100
AcDbEntity
  8
0
100
AcDbBlockEnd
  0
BLOCK
  5
E46F
330
E466
100
AcDbEntity
  8
0
100
AcDbBlockBegin
  2
*D14
 70
     1
 10
0.0
 20
0.0
 30
0.0
  3
*D14
  1

  0
LINE
  5
E68B
330
E466
100
AcDbEntity
  8
mark
370
    -2
100
AcDbLine
 10
161.8739513588115
 20
209.4525156908499
 30
0.0
 11
137.6676175327581
 21
204.647839439242
 31
0.0
  0
LINE
  5
E68C
330
E466
100
AcDbEntity
  8
mark
370
    -2
100
AcDbLine
 10
52.33238246724185
 20
187.7097859408898
 30
0.0
 11
49.88022054007184
 21
187.2230602656498
 31
0.0
  0
MTEXT
  5
E68D
330
E466
100
AcDbEntity
  8
mark
 62
     3
100
AcDbMText
 10
153.3566196857677
 20
209.9028921435457
 30
0.0
 40
2.5
 41
0.0
 71
     5
 72
     1
  1
\A1;P.C.D 82
 11
0.9808647708680059
 21
0.1946902700960026
 31
0.0
 73
     1
 44
1.0
  0
LINE
  5
E68E
330
E466
100
AcDbEntity
  8
mark
370
    -2
100
AcDbLine
 10
54.78454439441186
 20
188.1965116161298
 30
0.0
 11
135.2154556055881
 21
204.161113764002
 31
0.0
  0
INSERT
  5
E68F
330
E466
100
AcDbEntity
  8
mark
370
    -2
100
AcDbBlockReference
  2
_Open30
 10
54.78454439441186
 20
188.1965116161298
 30
0.0
 41
2.5
 42
2.5
 43
2.5
 50
11.22663060618103
  0
INSERT
  5
E690
330
E466
100
AcDbEntity
  8
mark
370
    -2
100
AcDbBlockReference
  2
_Open30
 10
135.2154556055881
 20
204.161113764002
 30
0.0
 41
2.5
 42
2.5
 43
2.5
 50
191.226630606181
  0
POINT
  5
E691
330
E466
100
AcDbEntity
  8
DEFPOINTS
 62
     0
100
AcDbPoint
 10
135.2154556055881
 20
204.161113764002
 30
0.0
  0
POINT
  5
E692
330
E466
100
AcDbEntity
  8
DEFPOINTS
 62
     0
100
AcDbPoint
 10
54.78454439441186
 20
188.1965116161298
 30
0.0
  0
ENDBLK
  5
E470
330
E466
100
AcDbEntity
  8
0
100
AcDbBlockEnd
  0
BLOCK
  5
E47B
330
E472
100
AcDbEntity
  8
0
100
AcDbBlockBegin
  2
*D15
 70
     1
 10
0.0
 20
0.0
 30
0.0
  3
*D15
  1

  0
LINE
  5
E693
330
E472
100
AcDbEntity
  8
mark
370
    -2
100
AcDbLine
 10
158.6322102302462
 20
220.838069697931
 30
0.0
 11
136.9594714643247
 21
212.4392786869102
 31
0.0
  0
LINE
  5
E694
330
E472
100
AcDbEntity
  8
mark
370
    -2
100
AcDbLine
 10
53.04052853567526
 20
179.9183466932215
 30
0.0
 11
50.70944678765722
 21
179.0149874711746
 31
0.0
  0
MTEXT
  5
E695
330
E472
100
AcDbEntity
  8
mark
 62
     3
100
AcDbMText
 10
150.1652781702805
 20
219.8090705386977
 30
0.0
 40
2.5
 41
0.0
 71
     5
 72
     1
  1
\A1;P.C.D 85
 11
0.9324326992072137
 21
0.3613436888187614
 31
0.0
 73
     1
 44
1.0
  0
LINE
  5
E696
330
E472
100
AcDbEntity
  8
mark
370
    -2
100
AcDbLine
 10
55.37161028369329
 20
180.8217059152685
 30
0.0
 11
134.6283897163067
 21
211.5359194648633
 31
0.0
  0
INSERT
  5
E697
330
E472
100
AcDbEntity
  8
mark
370
    -2
100
AcDbBlockReference
  2
_Open30
 10
55.37161028369329
 20
180.8217059152685
 30
0.0
 41
2.5
 42
2.5
 43
2.5
 50
21.1827395042647
  0
INSERT
  5
E698
330
E472
100
AcDbEntity
  8
mark
370
    -2
100
AcDbBlockReference
  2
_Open30
 10
134.6283897163067
 20
211.5359194648633
 30
0.0
 41
2.5
 42
2.5
 43
2.5
 50
201.1827395042647
  0
POINT
  5
E699
330
E472
100
AcDbEntity
  8
DEFPOINTS
 62
     0
100
AcDbPoint
 10
134.6283897163067
 20
211.5359194648633
 30
0.0
  0
POINT
  5
E69A
330
E472
100
AcDbEntity
  8
DEFPOINTS
 62
     0
100
AcDbPoint
 10
55.37161028369329
 20
180.8217059152685
 30
0.0
  0
ENDBLK
  5
E47C
330
E472
100
AcDbEntity
  8
0
100
AcDbBlockEnd
  0
ENDSEC
  0
SECTION
  2
ENTITIES
  0
MTEXT
  5
C0
330
18
100
AcDbEntity
  8
0
100
AcDbMText
 10
41.26970765600413
 20
233.6950877649332
 30
0.0
 40
2.5
 41
0.0
 71
     1
 72
     5
  1

  7
CN
 73
     1
 44
1.0
  0
LWPOLYLINE
  5
AF44
330
18
100
AcDbEntity
  8
frame
100
AcDbPolyline
 90
        4
 70
     1
 43
0.0
 10
190.0
 20
280.0
 10
0.0
 20
280.0
 10
0.0
 20
0.0
 10
190.0
 20
0.0
  0
MTEXT
  5
AF45
330
18
100
AcDbEntity
  8
0
100
AcDbMText
 10
17.09950368689175
 20
19.07605901616614
 30
0.0
 40
5.0
 41
0.0
 71
     1
 72
     5
  1
{\Ftxt,bigfont|c128;\W0.5;林彦旭}
 73
     1
 44
1.0
1001
ACAD
1000
ACAD_MTEXT_DEFINED_HEIGHT_BEGIN
1070
    46
1040
0.0
1000
ACAD_MTEXT_DEFINED_HEIGHT_END
  0
MTEXT
  5
AF46
330
18
100
AcDbEntity
  8
0
100
AcDbMText
 10
77.95294729228851
 20
28.93578979870677
 30
0.0
 40
4.5
 41
0.0
 71
     1
 72
     5
  1
{\Ftxt,bigfont|c128;\W0.5;1 : 1}
 73
     1
 44
1.0
1001
ACAD
1000
ACAD_MTEXT_DEFINED_HEIGHT_BEGIN
1070
    46
1040
0.0
1000
ACAD_MTEXT_DEFINED_HEIGHT_END
  0
MTEXT
  5
AF47
330
18
100
AcDbEntity
  8
0
100
AcDbMText
 10
126.3732928177675
 20
8.303263321280269
 30
0.0
 40
5.0
 41
0.0
 71
     1
 72
     5
  1
{\Ftxt,bigfont|c128;\W0.5;N L 4 0 2 9 0}
 73
     1
 44
1.0
1001
ACAD
1000
ACAD_MTEXT_DEFINED_HEIGHT_BEGIN
1070
    46
1040
0.0
1000
ACAD_MTEXT_DEFINED_HEIGHT_END
  0
MTEXT
  5
AF48
330
18
100
AcDbEntity
  8
0
100
AcDbMText
 10
151.5700116201594
 20
27.85218499726989
 30
0.0
 40
5.0
 41
0.0
 71
     1
 72
     5
  1
\P{\Ftxt,bigfont|c128;\W0.5;MKR70X2.0P}
 73
     1
 44
1.0
1001
ACAD
1000
ACAD_MTEXT_DEFINED_HEIGHT_BEGIN
1070
    46
1040
0.0
1000
ACAD_MTEXT_DEFINED_HEIGHT_END
  0
MTEXT
  5
AF49
330
18
100
AcDbEntity
  8
0
100
AcDbMText
 10
15.3760677136774
 20
28.37740359834709
 30
0.0
 40
4.5
 41
0.0
 71
     1
 72
     5
  1
{\Ftxt,bigfont|c128;\W0.5;08.07.07}
 73
     1
 44
1.0
1001
ACAD
1000
ACAD_MTEXT_DEFINED_HEIGHT_BEGIN
1070
    46
1040
0.0
1000
ACAD_MTEXT_DEFINED_HEIGHT_END
  0
MTEXT
  5
AF4A
330
18
100
AcDbEntity
  8
0
100
AcDbMText
 10
9.2763627141411
 20
9.242195050049303
 30
0.0
 40
7.0
 41
0.0
 71
     1
 72
     5
  1
{\Ftxt,bigfont|c128;\W1.5;日機株式会社}
 73
     1
 44
1.0
1001
ACAD
1000
ACAD_MTEXT_DEFINED_HEIGHT_BEGIN
1070
    46
1040
0.0
1000
ACAD_MTEXT_DEFINED_HEIGHT_END
  0
LINE
  5
AF4B
330
18
100
AcDbEntity
  8
frame
100
AcDbLine
 10
0.0
 20
12.0
 30
0.0
 11
190.0
 21
12.00000000000005
 31
0.0
  0
LINE
  5
AF4C
330
18
100
AcDbEntity
  8
frame
100
AcDbLine
 10
0.0
 20
22.0
 30
0.0
 11
92.12121212121223
 21
22.0
 31
0.0
  0
LINE
  5
AF4D
330
18
100
AcDbEntity
  8
frame
100
AcDbLine
 10
0.0
 20
32.0
 30
0.0
 11
190.0
 21
32.0
 31
0.0
  0
LINE
  5
AF4E
330
18
100
AcDbEntity
  8
frame
100
AcDbLine
 10
12.19077332493799
 20
32.0
 30
0.0
 11
12.19077332493799
 21
12.0
 31
0.0
  0
LINE
  5
AF4F
330
18
100
AcDbEntity
  8
frame
100
AcDbLine
 10
30.70707070707067
 20
32.0
 30
0.0
 11
30.70707070707078
 21
12.0
 31
0.0
  0
MTEXT
  5
AF50
330
18
100
AcDbEntity
  8
0
100
AcDbMText
 10
2.830274784221955
 20
29.08190089582831
 30
0.0
 40
5.0
 41
0.0
 71
     1
 72
     5
  1
{\Ftxt,bigfont|c128;\W0.5;日 付}
 73
     1
 44
1.0
1001
ACAD
1000
ACAD_MTEXT_DEFINED_HEIGHT_BEGIN
1070
    46
1040
0.0
1000
ACAD_MTEXT_DEFINED_HEIGHT_END
  0
MTEXT
  5
AF51
330
18
100
AcDbEntity
  8
0
100
AcDbMText
 10
2.97063307743889
 20
19.52163842926637
 30
0.0
 40
5.0
 41
0.0
 71
     1
 72
     5
  1
{\Ftxt,bigfont|c128;\W0.5;製 図}
 73
     1
 44
1.0
1001
ACAD
1000
ACAD_MTEXT_DEFINED_HEIGHT_BEGIN
1070
    46
1040
0.0
1000
ACAD_MTEXT_DEFINED_HEIGHT_END
  0
LINE
  5
AF52
330
18
100
AcDbEntity
  8
0
 62
     7
370
    25
100
AcDbLine
 10
53.04580144287854
 20
23.81984609294597
 30
0.0
 11
53.04580144287854
 21
28.93622339589922
 31
0.0
  0
MTEXT
  5
AF53
330
18
100
AcDbEntity
  8
0
100
AcDbMText
 10
64.00748852490835
 20
29.12242703792379
 30
0.0
 40
5.0
 41
0.0
 71
     1
 72
     5
  1
{\Ftxt,bigfont|c128;\W0.5;尺 度}
 73
     1
 44
1.0
1001
ACAD
1000
ACAD_MTEXT_DEFINED_HEIGHT_BEGIN
1070
    46
1040
0.0
1000
ACAD_MTEXT_DEFINED_HEIGHT_END
  0
LINE
  5
AF54
330
18
100
AcDbEntity
  8
frame
100
AcDbLine
 10
61.41414141414145
 20
32.0
 30
0.0
 11
61.41414141414145
 21
12.0
 31
0.0
  0
LINE
  5
AF55
330
18
100
AcDbEntity
  8
0
 62
     7
370
    25
100
AcDbLine
 10
39.6153110226262
 20
23.18889018332635
 30
0.0
 11
39.6153110226262
 21
29.36457992429672
 31
0.0
  0
CIRCLE
  5
AF56
330
18
100
AcDbEntity
  8
0
 62
     7
100
AcDbCircle
 10
39.6153110226262
 20
26.37803474442251
 30
0.0
 40
2.558188651476678
  0
LINE
  5
AF57
330
18
100
AcDbEntity
  8
0
 62
     7
370
    25
100
AcDbLine
 10
47.19321986919976
 20
26.37803474442262
 30
0.0
 11
53.50512581624241
 21
26.37803474442262
 31
0.0
  0
LINE
  5
AF58
330
18
100
AcDbEntity
  8
0
 62
     7
100
AcDbLine
 10
47.92942413992534
 20
25.09894041868427
 30
0.0
 11
53.04580144287854
 21
23.81984609294597
 31
0.0
  0
LINE
  5
AF59
330
18
100
AcDbEntity
  8
frame
100
AcDbLine
 10
42.742241959951
 20
22.0
 30
0.0
 11
42.742241959951
 21
12.0
 31
0.0
  0
LINE
  5
AF5A
330
18
100
AcDbEntity
  8
0
 62
     7
370
    25
100
AcDbLine
 10
36.41832228486612
 20
26.37803474442251
 30
0.0
 11
43.00325267619268
 21
26.37803474442262
 31
0.0
  0
CIRCLE
  5
AF5B
330
18
100
AcDbEntity
  8
0
 62
     7
100
AcDbCircle
 10
39.6153110226262
 20
26.37803474442251
 30
0.0
 40
1.279094325738339
  0
MTEXT
  5
AF5C
330
18
100
AcDbEntity
  8
0
100
AcDbMText
 10
33.70184032462407
 20
19.41013815785266
 30
0.0
 40
5.0
 41
0.0
 71
     1
 72
     5
  1
{\Ftxt,bigfont|c128;\W0.5;検 図}
 73
     1
 44
1.0
1001
ACAD
1000
ACAD_MTEXT_DEFINED_HEIGHT_BEGIN
1070
    46
1040
0.0
1000
ACAD_MTEXT_DEFINED_HEIGHT_END
  0
LINE
  5
AF5D
330
18
100
AcDbEntity
  8
0
 62
     7
370
    25
100
AcDbLine
 10
47.92942413992534
 20
25.09894041868427
 30
0.0
 11
47.92942413992534
 21
27.65712907016086
 31
0.0
  0
MTEXT
  5
AF5E
330
18
100
AcDbEntity
  8
0
100
AcDbMText
 10
64.28820249919829
 20
19.32058534748881
 30
0.0
 40
5.0
 41
0.0
 71
     1
 72
     5
  1
{\Ftxt,bigfont|c128;\W0.5;承 認}
 73
     1
 44
1.0
1001
ACAD
1000
ACAD_MTEXT_DEFINED_HEIGHT_BEGIN
1070
    46
1040
0.0
1000
ACAD_MTEXT_DEFINED_HEIGHT_END
  0
MTEXT
  5
AF5F
330
18
100
AcDbEntity
  8
0
100
AcDbMText
 10
93.71128715606699
 20
8.296061362868272
 30
0.0
 40
5.0
 41
0.0
 71
     1
 72
     5
  1
{\Ftxt,bigfont|c128;\W0.5;図  面  番  号}
 73
     1
 44
1.0
1001
ACAD
1000
ACAD_MTEXT_DEFINED_HEIGHT_BEGIN
1070
    46
1040
0.0
1000
ACAD_MTEXT_DEFINED_HEIGHT_END
  0
MTEXT
  5
AF60
330
18
100
AcDbEntity
  8
0
100
AcDbMText
 10
99.83012938662671
 20
27.61736863466092
 30
0.0
 40
5.0
 41
0.0
 71
     1
 72
     5
  1
\P{\Ftxt,bigfont|c128;    \W0.5;精密ロックナット}
 73
     1
 44
1.0
1001
ACAD
1000
ACAD_MTEXT_DEFINED_HEIGHT_BEGIN
1070
    46
1040
0.0
1000
ACAD_MTEXT_DEFINED_HEIGHT_END
  0
MTEXT
  5
AF61
330
18
100
AcDbEntity
  8
0
100
AcDbMText
 10
94.8083613031232
 20
29.03862457973275
 30
0.0
 40
5.0
 41
0.0
 71
     1
 72
     5
  1
{\Ftxt,bigfont|c128;\W0.5;品  名}
 73
     1
 44
1.0
1001
ACAD
1000
ACAD_MTEXT_DEFINED_HEIGHT_BEGIN
1070
    46
1040
0.0
1000
ACAD_MTEXT_DEFINED_HEIGHT_END
  0
LINE
  5
AF62
330
18
100
AcDbEntity
  8
frame
100
AcDbLine
 10
92.12121212121223
 20
32.0
 30
0.0
 11
92.12121212121223
 21
0.1833227579584786
 31
0.0
  0
LINE
  5
AF63
330
18
100
AcDbEntity
  8
frame
100
AcDbLine
 10
73.41414141414145
 20
32.0
 30
0.0
 11
73.41414141414145
 21
12.0
 31
0.0
  0
LINE
  5
AF64
330
18
100
AcDbEntity
  8
frame
100
AcDbLine
 10
147.0327092740656
 20
32.0
 30
0.0
 11
147.0327092740657
 21
12.0
 31
0.0
  0
MTEXT
  5
AF65
330
18
100
AcDbEntity
  8
0
100
AcDbMText
 10
150.895959446773
 20
29.04517782830391
 30
0.0
 40
5.0
 41
0.0
 71
     1
 72
     5
  1
{\Ftxt,bigfont|c128;\W0.5;型  番}
 73
     1
 44
1.0
1001
ACAD
1000
ACAD_MTEXT_DEFINED_HEIGHT_BEGIN
1070
    46
1040
0.0
1000
ACAD_MTEXT_DEFINED_HEIGHT_END
  0
MTEXT
  5
AF66
330
18
100
AcDbEntity
  8
0
100
AcDbMText
 10
165.8059614810325
 20
8.576913178763106
 30
0.0
 40
5.0
 41
0.0
 71
     1
 72
     5
  1
{\Ftxt,bigfont|c128;\W0.5;変更}
 73
     1
 44
1.0
1001
ACAD
1000
ACAD_MTEXT_DEFINED_HEIGHT_BEGIN
1070
    46
1040
0.0
1000
ACAD_MTEXT_DEFINED_HEIGHT_END
  0
LINE
  5
AF67
330
18
100
AcDbEntity
  8
frame
100
AcDbLine
 10
164.0909090909092
 20
12.00000000000005
 30
0.0
 11
164.0909090909093
 21
0.0
 31
0.0
  0
LINE
  5
AF68
330
18
100
AcDbEntity
  8
frame
100
AcDbLine
 10
124.6157900786393
 20
43.13491348924492
 30
0.0
 11
184.6157900786393
 21
43.13491348924481
 31
0.0
  0
LINE
  5
AF69
330
18
100
AcDbEntity
  8
frame
100
AcDbLine
 10
124.6157900786393
 20
50.33491348924497
 30
0.0
 11
184.6157900786393
 21
50.33491348924497
 31
0.0
  0
LINE
  5
AF6A
330
18
100
AcDbEntity
  8
frame
100
AcDbLine
 10
124.6157900786393
 20
57.5349134892449
 30
0.0
 11
184.6157900786393
 21
57.53491348924478
 31
0.0
  0
LINE
  5
AF6B
330
18
100
AcDbEntity
  8
frame
100
AcDbLine
 10
124.6157900786393
 20
64.73491348924494
 30
0.0
 11
184.6157900786393
 21
64.73491348924483
 31
0.0
  0
LINE
  5
AF6C
330
18
100
AcDbEntity
  8
frame
100
AcDbLine
 10
124.6157900786393
 20
35.93491348924488
 30
0.0
 11
184.6157900786393
 21
35.93491348924488
 31
0.0
  0
MTEXT
  5
AF6D
330
18
100
AcDbEntity
  8
0
 48
2.0
100
AcDbMText
 10
154.5011900445106
 20
65.52808189982909
 30
0.0
 40
5.0
 41
0.0
 71
     5
 72
     1
  1
\P{\Ftxt,bigfont|c128;\H1.042x;\W0.5;諸　　　　元}
 73
     1
 44
1.0
1001
ACAD
1000
ACAD_MTEXT_DEFINED_HEIGHT_BEGIN
1070
    46
1040
0.0
1000
ACAD_MTEXT_DEFINED_HEIGHT_END
  0
LINE
  5
AF6E
330
18
100
AcDbEntity
  8
frame
100
AcDbLine
 10
124.6157900786393
 20
64.73491348924483
 30
0.0
 11
124.6157900786393
 21
35.93491348924488
 31
0.0
  0
MTEXT
  5
AF6F
330
18
100
AcDbEntity
  8
0
 48
2.0
100
AcDbMText
 10
135.799177113669
 20
54.01970870242223
 30
0.0
 40
5.0
 41
0.0
 71
     5
 72
     1
  1
{\Ftxt,bigfont|c128;\W0.5;熱　処　理}
 73
     1
 44
1.0
1001
ACAD
1000
ACAD_MTEXT_DEFINED_HEIGHT_BEGIN
1070
    46
1040
0.0
1000
ACAD_MTEXT_DEFINED_HEIGHT_END
  0
LINE
  5
AF70
330
18
100
AcDbEntity
  8
0
100
AcDbLine
 10
148.6157900786393
 20
57.53491348924478
 30
0.0
 11
148.6157900786393
 21
35.93491348924488
 31
0.0
  0
MTEXT
  5
AF71
330
18
100
AcDbEntity
  8
0
 48
2.0
100
AcDbMText
 10
136.1158625954765
 20
46.61974099088547
 30
0.0
 40
5.0
 41
0.0
 71
     5
 72
     1
  1
{\Ftxt,bigfont|c128;\W0.5;表 面 処 理}
 73
     1
 44
1.0
1001
ACAD
1000
ACAD_MTEXT_DEFINED_HEIGHT_BEGIN
1070
    46
1040
0.0
1000
ACAD_MTEXT_DEFINED_HEIGHT_END
  0
MTEXT
  5
AF72
330
18
100
AcDbEntity
  8
0
 48
2.0
100
AcDbMText
 10
136.3064351357138
 20
39.53013776941589
 30
0.0
 40
5.0
 41
0.0
 71
     5
 72
     1
  1
{\Ftxt,bigfont|c128;\W0.5;等     　級}
 73
     1
 44
1.0
1001
ACAD
1000
ACAD_MTEXT_DEFINED_HEIGHT_BEGIN
1070
    46
1040
0.0
1000
ACAD_MTEXT_DEFINED_HEIGHT_END
  0
LINE
  5
AF73
330
18
100
AcDbEntity
  8
frame
100
AcDbLine
 10
184.6157900786393
 20
64.73491348924483
 30
0.0
 11
184.6157900786393
 21
35.93491348924499
 31
0.0
  0
MTEXT
  5
AF74
330
18
100
AcDbEntity
  8
0
 48
2.0
100
AcDbMText
 10
167.1483511063784
 20
53.94720739886157
 30
0.0
 40
5.0
 41
0.0
 71
     5
 72
     1
  1
{\Ftxt,bigfont|c128;\W0.5;調質　HRC30%%D%%P２%%D}
 73
     1
 44
1.0
1001
ACAD
1000
ACAD_MTEXT_DEFINED_HEIGHT_BEGIN
1070
    46
1040
0.0
1000
ACAD_MTEXT_DEFINED_HEIGHT_END
  0
MTEXT
  5
AF75
330
18
100
AcDbEntity
  8
0
 48
2.0
100
AcDbMText
 10
161.5295505616327
 20
39.48145527421412
 30
0.0
 40
5.0
 41
0.0
 71
     5
 72
     1
  1
{\Ftxt,bigfont|c128;\W0.5;ＩＳＯ - ４Ｈ}
 73
     1
 44
1.0
1001
ACAD
1000
ACAD_MTEXT_DEFINED_HEIGHT_BEGIN
1070
    46
1040
0.0
1000
ACAD_MTEXT_DEFINED_HEIGHT_END
  0
MTEXT
  5
AF76
330
18
100
AcDbEntity
  8
0
 48
2.0
100
AcDbMText
 10
161.3126275617533
 20
46.86379586210626
 30
0.0
 40
5.0
 41
0.0
 71
     5
 72
     1
  1
{\Ftxt,bigfont|c128;\W0.5;黒  　    染}
 73
     1
 44
1.0
1001
ACAD
1000
ACAD_MTEXT_DEFINED_HEIGHT_BEGIN
1070
    46
1040
0.0
1000
ACAD_MTEXT_DEFINED_HEIGHT_END
  0
MTEXT
  5
AF77
330
18
100
AcDbEntity
  8
0
100
AcDbMText
 10
57.63639061334425
 20
260.2464527942954
 30
0.0
 40
5.0
 41
0.0
 71
     1
 72
     5
  1
{\Ftxt,bigfont|c128;\W0.5;M5X0.8P-20L}
 73
     1
 44
1.0
1001
ACAD
1000
ACAD_MTEXT_DEFINED_HEIGHT_BEGIN
1070
    46
1040
0.0
1000
ACAD_MTEXT_DEFINED_HEIGHT_END
  0
LINE
  5
AF78
330
18
100
AcDbEntity
  8
frame
100
AcDbLine
 10
0.0
 20
254.0
 30
0.0
 11
190.0
 21
254.0
 31
0.0
  0
LINE
  5
AF79
330
18
100
AcDbEntity
  8
frame
100
AcDbLine
 10
0.0
 20
262.0
 30
0.0
 11
190.0
 21
262.0
 31
0.0
  0
LINE
  5
AF7A
330
18
100
AcDbEntity
  8
frame
 62
     9
100
AcDbLine
 10
0.0
 20
270.0
 30
0.0
 11
190.0
 21
270.0
 31
0.0
  0
MTEXT
  5
AF7B
330
18
100
AcDbEntity
  8
0
100
AcDbMText
 10
57.0156439060371
 20
277.4240560049041
 30
0.0
 40
5.0
 41
0.0
 71
     1
 72
     5
  1
{\Ftxt,bigfont|c128;\W0.5;図    番 / 規　　格}
 73
     1
 44
1.0
1001
ACAD
1000
ACAD_MTEXT_DEFINED_HEIGHT_BEGIN
1070
    46
1040
0.0
1000
ACAD_MTEXT_DEFINED_HEIGHT_END
  0
LINE
  5
AF7C
330
18
100
AcDbEntity
  8
frame
100
AcDbLine
 10
0.0
 20
254.0
 30
0.0
 11
190.0
 21
254.0
 31
0.0
  0
MTEXT
  5
AF7D
330
18
100
AcDbEntity
  8
0
100
AcDbMText
 10
21.12488048923433
 20
277.4637981386743
 30
0.0
 40
5.0
 41
0.0
 71
     1
 72
     5
  1
{\Ftxt,bigfont|c128;\W0.5;品　          名}
 73
     1
 44
1.0
1001
ACAD
1000
ACAD_MTEXT_DEFINED_HEIGHT_BEGIN
1070
    46
1040
0.0
1000
ACAD_MTEXT_DEFINED_HEIGHT_END
  0
MTEXT
  5
AF7E
330
18
100
AcDbEntity
  8
0
100
AcDbMText
 10
21.00789435981875
 20
260.7907237289111
 30
0.0
 40
5.0
 41
0.0
 71
     1
 72
     5
  1
{\Ftxt,bigfont|c128;\W0.5;セットスクリュ-}
 73
     1
 44
1.0
1001
ACAD
1000
ACAD_MTEXT_DEFINED_HEIGHT_BEGIN
1070
    46
1040
0.0
1000
ACAD_MTEXT_DEFINED_HEIGHT_END
  0
MTEXT
  5
AF7F
330
18
100
AcDbEntity
  8
0
100
AcDbMText
 10
20.82017529734901
 20
268.8361230282964
 30
0.0
 40
5.0
 41
0.0
 71
     1
 72
     5
  1
{\Ftxt,bigfont|c128;\W0.5;ロックナット　  }
 73
     1
 44
1.0
1001
ACAD
1000
ACAD_MTEXT_DEFINED_HEIGHT_BEGIN
1070
    46
1040
0.0
1000
ACAD_MTEXT_DEFINED_HEIGHT_END
  0
LINE
  5
AF80
330
18
100
AcDbEntity
  8
frame
 62
     9
100
AcDbLine
 10
14.39393939393937
 20
279.9999999999999
 30
0.0
 11
14.39393939393963
 21
254.0
 31
0.0
  0
LINE
  5
AF81
330
18
100
AcDbEntity
  8
frame
 62
     9
100
AcDbLine
 10
14.39393939393937
 20
279.9999999999999
 30
0.0
 11
14.39393939393937
 21
255.0505050505051
 31
0.0
  0
MTEXT
  5
AF82
330
18
100
AcDbEntity
  8
0
100
AcDbMText
 10
6.815009268013795
 20
268.7281674434121
 30
0.0
 40
5.0
 41
0.0
 71
     1
 72
     5
  1
{\Ftxt,bigfont|c128;1}
 73
     1
 44
1.0
1001
ACAD
1000
ACAD_MTEXT_DEFINED_HEIGHT_BEGIN
1070
    46
1040
0.0
1000
ACAD_MTEXT_DEFINED_HEIGHT_END
  0
MTEXT
  5
AF83
330
18
100
AcDbEntity
  8
0
100
AcDbMText
 10
2.119828072980226
 20
277.4734782639491
 30
0.0
 40
5.0
 41
0.0
 71
     1
 72
     5
  1
{\Ftxt,bigfont|c128;\W0.5;照   号}
 73
     1
 44
1.0
1001
ACAD
1000
ACAD_MTEXT_DEFINED_HEIGHT_BEGIN
1070
    46
1040
0.0
1000
ACAD_MTEXT_DEFINED_HEIGHT_END
  0
LINE
  5
AF84
330
18
100
AcDbEntity
  8
frame
 62
     9
100
AcDbLine
 10
52.77777777777783
 20
279.9999999999999
 30
0.0
 11
52.77777777777783
 21
254.0
 31
0.0
  0
MTEXT
  5
AF85
330
18
100
AcDbEntity
  8
0
100
AcDbMText
 10
145.5736374372851
 20
277.6781663894194
 30
0.0
 40
5.0
 41
0.0
 71
     1
 72
     5
  1
{\Ftxt,bigfont|c128;\W0.5;備           考}
 73
     1
 44
1.0
1001
ACAD
1000
ACAD_MTEXT_DEFINED_HEIGHT_BEGIN
1070
    46
1040
0.0
1000
ACAD_MTEXT_DEFINED_HEIGHT_END
  0
LINE
  5
AF86
330
18
100
AcDbEntity
  8
frame
 62
     9
100
AcDbLine
 10
91.16161616161617
 20
280.0
 30
0.0
 11
91.16161616161617
 21
254.0
 31
0.0
  0
MTEXT
  5
AF87
330
18
100
AcDbEntity
  8
0
100
AcDbMText
 10
92.87341089179369
 20
268.8361230282964
 30
0.0
 40
5.0
 41
0.0
 71
     1
 72
     5
  1
{\Ftxt,bigfont|c128;\W0.5;SCM440}
 73
     1
 44
1.0
1001
ACAD
1000
ACAD_MTEXT_DEFINED_HEIGHT_BEGIN
1070
    46
1040
0.0
1000
ACAD_MTEXT_DEFINED_HEIGHT_END
  0
MTEXT
  5
AF88
330
18
100
AcDbEntity
  8
0
100
AcDbMText
 10
92.87341089179369
 20
260.765002012584
 30
0.0
 40
5.0
 41
0.0
 71
     1
 72
     5
  1
{\Ftxt,bigfont|c128;\W0.5;SCM435}
 73
     1
 44
1.0
1001
ACAD
1000
ACAD_MTEXT_DEFINED_HEIGHT_BEGIN
1070
    46
1040
0.0
1000
ACAD_MTEXT_DEFINED_HEIGHT_END
  0
MTEXT
  5
AF89
330
18
100
AcDbEntity
  8
0
100
AcDbMText
 10
95.76798863104192
 20
277.5645499482919
 30
0.0
 40
5.0
 41
0.0
 71
     1
 72
     5
  1
{\Ftxt,bigfont|c128;\W0.5;材　質}
 73
     1
 44
1.0
1001
ACAD
1000
ACAD_MTEXT_DEFINED_HEIGHT_BEGIN
1070
    46
1040
0.0
1000
ACAD_MTEXT_DEFINED_HEIGHT_END
  0
LINE
  5
AF8A
330
18
100
AcDbEntity
  8
frame
 62
     9
100
AcDbLine
 10
110.3535353535354
 20
280.0
 30
0.0
 11
110.3535353535354
 21
254.0
 31
0.0
  0
LINE
  5
AF8B
330
18
100
AcDbEntity
  8
frame
100
AcDbLine
 10
124.7474747474747
 20
280.0
 30
0.0
 11
124.7474747474748
 21
254.0
 31
0.0
  0
MTEXT
  5
AF8C
330
18
100
AcDbEntity
  8
0
100
AcDbMText
 10
117.1685446215491
 20
269.0412711679932
 30
0.0
 40
5.0
 41
0.0
 71
     1
 72
     5
  1
\Ftxt.shx,bigfont.shx|c128;1
 73
     1
 44
1.0
  0
MTEXT
  5
AF8D
330
18
100
AcDbEntity
  8
0
100
AcDbMText
 10
116.5939070266884
 20
260.5092290150679
 30
0.0
 40
5.0
 41
0.0
 71
     1
 72
     5
  1
{\Ftxt,bigfont|c128;6}
 73
     1
 44
1.0
1001
ACAD
1000
ACAD_MTEXT_DEFINED_HEIGHT_BEGIN
1070
    46
1040
0.0
1000
ACAD_MTEXT_DEFINED_HEIGHT_END
  0
MTEXT
  5
AF8E
330
18
100
AcDbEntity
  8
0
100
AcDbMText
 10
112.4223895919262
 20
277.5645499482919
 30
0.0
 40
5.0
 41
0.0
 71
     1
 72
     5
  1
{\Ftxt,bigfont|c128;\W0.5;数   量}
 73
     1
 44
1.0
1001
ACAD
1000
ACAD_MTEXT_DEFINED_HEIGHT_BEGIN
1070
    46
1040
0.0
1000
ACAD_MTEXT_DEFINED_HEIGHT_END
  0
MTEXT
  5
AF8F
330
18
100
AcDbEntity
  8
0
100
AcDbMText
 10
6.404019699055993
 20
260.7281674434121
 30
0.0
 40
5.0
 41
0.0
 71
     1
 72
     5
  1
{\Ftxt,bigfont|c128;2}
 73
     1
 44
1.0
1001
ACAD
1000
ACAD_MTEXT_DEFINED_HEIGHT_BEGIN
1070
    46
1040
0.0
1000
ACAD_MTEXT_DEFINED_HEIGHT_END
  0
LINE
  5
AFC8
330
18
100
AcDbEntity
  8
0
 62
     7
100
AcDbLine
 10
47.92942413992534
 20
27.65712907016098
 30
0.0
 11
53.04580144287854
 21
28.93622339589928
 31
0.0
  0
LINE
  5
E333
330
18
100
AcDbEntity
  8
contour
100
AcDbLine
 10
47.5
 20
121.6053175261269
 30
0.0
 11
47.49999999999994
 21
104.7553175261269
 31
0.0
  0
ARC
  5
E334
330
18
100
AcDbEntity
  8
contour
100
AcDbCircle
 10
48.49999999999994
 20
104.7553175261269
 30
0.0
 40
1.0
100
AcDbArc
 50
180.0
 51
270.0
  0
LINE
  5
E335
330
18
100
AcDbEntity
  8
contour
100
AcDbLine
 10
47.49999999999994
 20
100.7553175261269
 30
0.0
 11
47.49999999999994
 21
95.60531752612694
 31
0.0
  0
ARC
  5
E336
330
18
100
AcDbEntity
  8
contour
100
AcDbCircle
 10
48.49999999999994
 20
95.60531752612694
 30
0.0
 40
1.0
100
AcDbArc
 50
180.0
 51
270.0
  0
LINE
  5
E337
330
18
100
AcDbEntity
  8
contour
100
AcDbLine
 10
48.49999999999994
 20
94.60531752612689
 30
0.0
 11
141.5
 21
94.60531752612693
 31
0.0
  0
LINE
  5
E338
330
18
100
AcDbEntity
  8
contour
100
AcDbLine
 10
61.08249999999998
 20
96.60531752612691
 30
0.0
 11
59.08249999999998
 21
94.60531752612689
 31
0.0
  0
ARC
  5
E339
330
18
100
AcDbEntity
  8
contour
100
AcDbCircle
 10
141.5
 20
95.60531752612693
 30
0.0
 40
1.0
100
AcDbArc
 50
270.0
 51
0.0
  0
LINE
  5
E33A
330
18
100
AcDbEntity
  8
contour
100
AcDbLine
 10
48.49999999999994
 20
101.7553175261269
 30
0.0
 11
57.5
 21
101.7553175261269
 31
0.0
  0
ARC
  5
E33B
330
18
100
AcDbEntity
  8
contour
100
AcDbCircle
 10
48.49999999999994
 20
100.7553175261269
 30
0.0
 40
1.0
100
AcDbArc
 50
90.0
 51
180.0
  0
LINE
  5
E33C
330
18
100
AcDbEntity
  8
contour
100
AcDbLine
 10
48.49999999999994
 20
103.7553175261269
 30
0.0
 11
57.5
 21
103.7553175261269
 31
0.0
  0
LINE
  5
E33D
330
18
100
AcDbEntity
  8
contour
100
AcDbLine
 10
50.5
 20
104.7553175261269
 30
0.0
 11
133.5
 21
104.7553175261271
 31
0.0
  0
LINE
  5
E33E
330
18
100
AcDbEntity
  8
contour
100
AcDbLine
 10
50.5
 20
107.755317526127
 30
0.0
 11
133.5
 21
107.7553175261269
 31
0.0
  0
LINE
  5
E33F
330
18
100
AcDbEntity
  8
contour
100
AcDbLine
 10
61.08249999999998
 20
109.755317526127
 30
0.0
 11
59.08249999999998
 21
107.755317526127
 31
0.0
  0
LINE
  5
E340
330
18
100
AcDbEntity
  8
contour
100
AcDbLine
 10
142.5
 20
95.60531752612693
 30
0.0
 11
142.5
 21
100.7553175261269
 31
0.0
  0
ARC
  5
E341
330
18
100
AcDbEntity
  8
contour
100
AcDbCircle
 10
141.5
 20
100.7553175261269
 30
0.0
 40
1.0
100
AcDbArc
 50
0.0
 51
90.0
  0
LINE
  5
E342
330
18
100
AcDbEntity
  8
contour
100
AcDbLine
 10
142.5
 20
104.7553175261269
 30
0.0
 11
142.5
 21
121.6053175261269
 31
0.0
  0
ARC
  5
E343
330
18
100
AcDbEntity
  8
contour
100
AcDbCircle
 10
141.5
 20
104.7553175261269
 30
0.0
 40
1.0
100
AcDbArc
 50
270.0
 51
0.0
  0
ARC
  5
E344
330
18
100
AcDbEntity
  8
contour
100
AcDbCircle
 10
141.5
 20
121.6053175261269
 30
0.0
 40
1.0
100
AcDbArc
 50
0.0
 51
90.0
  0
LINE
  5
E345
330
18
100
AcDbEntity
  8
contour
100
AcDbLine
 10
141.5
 20
122.6053175261269
 30
0.0
 11
48.5
 21
122.6053175261268
 31
0.0
  0
ARC
  5
E346
330
18
100
AcDbEntity
  8
contour
100
AcDbCircle
 10
48.5
 20
121.6053175261269
 30
0.0
 40
1.0
100
AcDbArc
 50
90.0
 51
180.0
  0
LINE
  5
E347
330
18
100
AcDbEntity
  8
center
 48
0.4
100
AcDbLine
 10
95.0
 20
124.6053175261269
 30
0.0
 11
95.0
 21
92.60531752612692
 31
0.0
  0
LINE
  5
E348
330
18
100
AcDbEntity
  8
center
 48
0.4
100
AcDbLine
 10
136.0
 20
124.6053175261269
 30
0.0
 11
136.0
 21
92.60531752612692
 31
0.0
  0
LINE
  5
E349
330
18
100
AcDbEntity
  8
contour
100
AcDbLine
 10
50.5
 20
107.7553175261269
 30
0.0
 11
50.5
 21
104.7553175261269
 31
0.0
  0
LINE
  5
E34A
330
18
100
AcDbEntity
  8
contour
100
AcDbLine
 10
57.5
 20
101.755317526127
 30
0.0
 11
57.5
 21
103.755317526127
 31
0.0
  0
LINE
  5
E34B
330
18
100
AcDbEntity
  8
contour
100
AcDbLine
 10
139.5
 20
107.7553175261269
 30
0.0
 11
139.5
 21
104.7553175261269
 31
0.0
  0
LINE
  5
E34C
330
18
100
AcDbEntity
  8
contour
100
AcDbLine
 10
48.49999999999988
 20
109.1053175261269
 30
0.0
 11
47.5
 21
108.105317526127
 31
0.0
  0
LINE
  5
E34D
330
18
100
AcDbEntity
  8
contour
100
AcDbLine
 10
48.49999999999983
 20
109.1053175261269
 30
0.0
 11
55.1905989232414
 21
109.1053175261269
 31
0.0
  0
LINE
  5
E34E
330
18
100
AcDbEntity
  8
contour
100
AcDbLine
 10
57.49999999999994
 20
113.1053175261269
 30
0.0
 11
55.19059892324128
 21
117.1053175261269
 31
0.0
  0
LINE
  5
E34F
330
18
100
AcDbEntity
  8
contour
100
AcDbLine
 10
55.19059892324128
 20
117.1053175261269
 30
0.0
 11
48.49999999999977
 21
117.1053175261269
 31
0.0
  0
LINE
  5
E350
330
18
100
AcDbEntity
  8
contour
100
AcDbLine
 10
57.49999999999994
 20
113.1053175261269
 30
0.0
 11
55.1905989232414
 21
109.1053175261269
 31
0.0
  0
LINE
  5
E351
330
18
100
AcDbEntity
  8
contour
100
AcDbLine
 10
55.19059892324128
 20
109.1053175261269
 30
0.0
 11
55.19059892324128
 21
117.1053175261269
 31
0.0
  0
LINE
  5
E352
330
18
100
AcDbEntity
  8
contour
100
AcDbLine
 10
48.49999999999983
 20
117.1053175261269
 30
0.0
 11
47.5
 21
118.1053175261268
 31
0.0
  0
LINE
  5
E353
330
18
100
AcDbEntity
  8
contour
100
AcDbLine
 10
48.49999999999977
 20
117.1053175261269
 30
0.0
 11
48.49999999999988
 21
109.1053175261269
 31
0.0
  0
LINE
  5
E354
330
18
100
AcDbEntity
  8
center
 48
0.2
100
AcDbLine
 10
59.49999999999994
 20
113.1053175261269
 30
0.0
 11
45.49999999999994
 21
113.1053175261269
 31
0.0
  0
LINE
  5
E355
330
18
100
AcDbEntity
  8
contour
100
AcDbLine
 10
138.5
 20
103.7553175261269
 30
0.0
 11
141.5
 21
103.7553175261269
 31
0.0
  0
LINE
  5
E356
330
18
100
AcDbEntity
  8
contour
100
AcDbLine
 10
138.5
 20
101.7553175261269
 30
0.0
 11
141.5
 21
101.7553175261269
 31
0.0
  0
LINE
  5
E357
330
18
100
AcDbEntity
  8
contour
 62
     4
100
AcDbLine
 10
60.0
 20
121.6878175261268
 30
0.0
 11
59.99999999999994
 21
108.672817526127
 31
0.0
  0
LINE
  5
E358
330
18
100
AcDbEntity
  8
contour
 62
     4
100
AcDbLine
 10
59.99999999999994
 20
103.8378175261269
 30
0.0
 11
60.0
 21
95.52281752612694
 31
0.0
  0
LINE
  5
E359
330
18
100
AcDbEntity
  8
contour
100
AcDbLine
 10
132.5
 20
101.7553175261269
 30
0.0
 11
132.5
 21
103.7553175261269
 31
0.0
  0
LINE
  5
E35A
330
18
100
AcDbEntity
  8
contour
100
AcDbLine
 10
132.4999999999999
 20
103.7553175261269
 30
0.0
 11
133.5
 21
103.7553175261269
 31
0.0
  0
LINE
  5
E35B
330
18
100
AcDbEntity
  8
contour
100
AcDbLine
 10
132.4999999999999
 20
101.7553175261269
 30
0.0
 11
133.5
 21
101.7553175261269
 31
0.0
  0
INSERT
  5
E35C
330
18
100
AcDbEntity
  8
contour
100
AcDbBlockReference
  2
LS5
 10
-200.0010875304779
 20
-34.3087626674552
 30
0.0
  0
LINE
  5
E35D
330
18
100
AcDbEntity
  8
contour
100
AcDbLine
 10
55.14999999999997
 20
95.10531752612683
 30
0.0
 11
55.64999999999997
 21
94.60531752612684
 31
0.0
  0
LINE
  5
E35E
330
18
100
AcDbEntity
  8
contour
100
AcDbLine
 10
55.14999999999986
 20
98.07533931277445
 30
0.0
 11
52.5
 21
99.60531752612689
 31
0.0
  0
LINE
  5
E35F
330
18
100
AcDbEntity
  8
center
 48
0.1
100
AcDbLine
 10
52.5
 20
92.6053175261269
 30
0.0
 11
52.49999999999994
 21
102.7553175261269
 31
0.0
  0
LINE
  5
E360
330
18
100
AcDbEntity
  8
contour
100
AcDbLine
 10
49.85000000000002
 20
98.07533931277433
 30
0.0
 11
49.85000000000002
 21
95.10531752612696
 31
0.0
  0
LINE
  5
E361
330
18
100
AcDbEntity
  8
contour
100
AcDbLine
 10
49.35000000000002
 20
94.60531752612695
 30
0.0
 11
49.85000000000002
 21
95.10531752612696
 31
0.0
  0
LINE
  5
E362
330
18
100
AcDbEntity
  8
contour
100
AcDbLine
 10
55.14999999999986
 20
98.07533931277445
 30
0.0
 11
55.14999999999997
 21
95.10531752612696
 31
0.0
  0
LINE
  5
E363
330
18
100
AcDbEntity
  8
contour
100
AcDbLine
 10
49.85000000000002
 20
98.07533931277433
 30
0.0
 11
52.5
 21
99.60531752612689
 31
0.0
  0
LINE
  5
E364
330
18
100
AcDbEntity
  8
contour
100
AcDbLine
 10
49.85000000000002
 20
98.07533931277433
 30
0.0
 11
55.14999999999986
 21
98.07533931277436
 31
0.0
  0
LINE
  5
E365
330
18
100
AcDbEntity
  8
contour
100
AcDbLine
 10
49.85000000000002
 20
95.10531752612696
 30
0.0
 11
55.14999999999997
 21
95.10531752612704
 31
0.0
  0
LINE
  5
E366
330
18
100
AcDbEntity
  8
contour
100
AcDbLine
 10
139.5
 20
107.7553175261269
 30
0.0
 11
138.5
 21
107.755317526127
 31
0.0
  0
LINE
  5
E367
330
18
100
AcDbEntity
  8
contour
100
AcDbLine
 10
139.5
 20
104.7553175261269
 30
0.0
 11
138.5
 21
104.7553175261269
 31
0.0
  0
LINE
  5
E368
330
18
100
AcDbEntity
  8
contour
 62
     4
100
AcDbLine
 10
133.5
 20
118.7053175261269
 30
0.0
 11
133.5
 21
122.6053175261269
 31
0.0
  0
LINE
  5
E369
330
18
100
AcDbEntity
  8
contour
100
AcDbLine
 10
133.933
 20
119.1383175261269
 30
0.0
 11
133.933
 21
122.6053175261269
 31
0.0
  0
LINE
  5
E36A
330
18
100
AcDbEntity
  8
contour
100
AcDbLine
 10
138.067
 20
119.1383175261269
 30
0.0
 11
138.067
 21
122.6053175261269
 31
0.0
  0
LINE
  5
E36B
330
18
100
AcDbEntity
  8
contour
 62
     4
100
AcDbLine
 10
138.4999999999999
 20
118.7053175261269
 30
0.0
 11
138.4999999999998
 21
122.6053175261269
 31
0.0
  0
LINE
  5
E36C
330
18
100
AcDbEntity
  8
contour
100
AcDbLine
 10
131.75
 20
94.90531752612691
 30
0.0
 11
131.75
 21
94.60531752612693
 31
0.0
  0
LINE
  5
E36D
330
18
100
AcDbEntity
  8
contour
100
AcDbLine
 10
140.25
 20
94.90531752612691
 30
0.0
 11
140.25
 21
94.60531752612693
 31
0.0
  0
CIRCLE
  5
E36E
330
18
100
AcDbEntity
  8
contour
100
AcDbCircle
 10
95.0
 20
196.1788126900658
 30
0.0
 40
47.50000000000002
  0
CIRCLE
  5
E36F
330
18
100
AcDbEntity
  8
contour
100
AcDbCircle
 10
135.9999999999999
 20
196.1788126900657
 30
0.0
 40
2.066999999999893
  0
ARC
  5
E370
330
18
100
AcDbEntity
  8
contour
 62
     4
100
AcDbCircle
 10
135.9999999999999
 20
196.1788126900657
 30
0.0
 40
2.499999999999886
100
AcDbArc
 50
168.4630409671818
 51
101.5369590328181
  0
CIRCLE
  5
E371
330
18
100
AcDbEntity
  8
bowle
 48
0.2
100
AcDbCircle
 10
135.9999999999999
 20
196.1788126900657
 30
0.0
 40
4.249999999999886
  0
CIRCLE
  5
E372
330
18
100
AcDbEntity
  8
bowle
 48
0.2
100
AcDbCircle
 10
58.19392033916137
 20
174.9288126900658
 30
0.0
 40
2.649999999999863
  0
CIRCLE
  5
E373
330
18
100
AcDbEntity
  8
bowle
 48
0.2
100
AcDbCircle
 10
58.19392033916137
 20
174.9288126900658
 30
0.0
 40
3.149999999999977
  0
LINE
  5
E374
330
18
100
AcDbEntity
  8
bowle
 48
0.2
100
AcDbLine
 10
56.72981872402345
 20
169.4647110749279
 30
0.0
 11
56.45134108508347
 21
168.425418377632
 31
0.0
  0
LINE
  5
E375
330
18
100
AcDbEntity
  8
bowle
 48
0.2
100
AcDbLine
 10
56.72981872402345
 20
169.4647110749279
 30
0.0
 11
62.52404735808346
 21
172.8100105365487
 31
0.0
  0
LINE
  5
E376
330
18
100
AcDbEntity
  8
bowle
 48
0.2
100
AcDbLine
 10
62.52404735808352
 20
177.4288126900657
 30
0.0
 11
58.52404735808341
 21
179.7382137668241
 31
0.0
  0
LINE
  5
E377
330
18
100
AcDbEntity
  8
bowle
 48
0.2
100
AcDbLine
 10
58.52404735808341
 20
179.7382137668241
 30
0.0
 11
52.7298187240234
 21
176.3929143052035
 31
0.0
  0
LINE
  5
E378
330
18
100
AcDbEntity
  8
bowle
 48
0.2
100
AcDbLine
 10
62.52404735808352
 20
177.4288126900657
 30
0.0
 11
62.52404735808346
 21
172.8100105365487
 31
0.0
  0
LINE
  5
E379
330
18
100
AcDbEntity
  8
bowle
 48
0.2
100
AcDbLine
 10
62.5240473580834
 20
172.8100105365487
 30
0.0
 11
58.52404735808341
 21
179.7382137668241
 31
0.0
  0
LINE
  5
E37A
330
18
100
AcDbEntity
  8
bowle
 48
0.2
100
AcDbLine
 10
52.72981872402346
 20
176.3929143052035
 30
0.0
 11
51.69052602672763
 21
176.6713919441434
 31
0.0
  0
LINE
  5
E37B
330
18
100
AcDbEntity
  8
bowle
 48
0.2
100
AcDbLine
 10
52.7298187240234
 20
176.3929143052035
 30
0.0
 11
56.72981872402352
 21
169.464711074928
 31
0.0
  0
LINE
  5
E37C
330
18
100
AcDbEntity
  8
center
 48
0.2
100
AcDbLine
 10
67.12437430298644
 20
180.0848126900657
 30
0.0
 11
52.13174251267026
 21
171.4288126900657
 31
0.0
  0
CIRCLE
  5
E37D
330
18
100
AcDbEntity
  8
bowle
 48
0.2
100
AcDbCircle
 10
95.00000000000005
 20
153.6788126900658
 30
0.0
 40
2.649999999999863
  0
CIRCLE
  5
E37E
330
18
100
AcDbEntity
  8
bowle
 48
0.2
100
AcDbCircle
 10
95.00000000000005
 20
153.6788126900658
 30
0.0
 40
3.149999999999977
  0
LINE
  5
E37F
330
18
100
AcDbEntity
  8
bowle
 48
0.2
100
AcDbLine
 10
99.00000000000005
 20
149.6788126900656
 30
0.0
 11
99.76081505835594
 21
148.9179976317097
 31
0.0
  0
LINE
  5
E380
330
18
100
AcDbEntity
  8
bowle
 48
0.2
100
AcDbLine
 10
99.00000000000005
 20
149.6788126900656
 30
0.0
 11
99.00000000000005
 21
156.3694116133072
 31
0.0
  0
LINE
  5
E381
330
18
100
AcDbEntity
  8
bowle
 48
0.2
100
AcDbLine
 10
95.00000000000012
 20
158.6788126900657
 30
0.0
 11
91.00000000000012
 21
156.3694116133071
 31
0.0
  0
LINE
  5
E382
330
18
100
AcDbEntity
  8
bowle
 48
0.2
100
AcDbLine
 10
91.00000000000012
 20
156.3694116133071
 30
0.0
 11
91.0
 21
149.6788126900656
 31
0.0
  0
LINE
  5
E383
330
18
100
AcDbEntity
  8
bowle
 48
0.2
100
AcDbLine
 10
95.00000000000012
 20
158.6788126900657
 30
0.0
 11
99.00000000000005
 21
156.3694116133072
 31
0.0
  0
LINE
  5
E384
330
18
100
AcDbEntity
  8
bowle
 48
0.2
100
AcDbLine
 10
99.0
 20
156.3694116133071
 30
0.0
 11
91.00000000000012
 21
156.3694116133071
 31
0.0
  0
LINE
  5
E385
330
18
100
AcDbEntity
  8
bowle
 48
0.2
100
AcDbLine
 10
91.00000000000006
 20
149.6788126900656
 30
0.0
 11
90.23918494164423
 21
148.9179976317097
 31
0.0
  0
LINE
  5
E386
330
18
100
AcDbEntity
  8
bowle
 48
0.2
100
AcDbLine
 10
91.00000000000006
 20
149.6788126900656
 30
0.0
 11
99.0
 21
149.6788126900657
 31
0.0
  0
CIRCLE
  5
E387
330
18
100
AcDbEntity
  8
bowle
 48
0.2
100
AcDbCircle
 10
131.8060796608387
 20
174.9288126900659
 30
0.0
 40
2.649999999999863
  0
CIRCLE
  5
E388
330
18
100
AcDbEntity
  8
bowle
 48
0.2
100
AcDbCircle
 10
131.8060796608387
 20
174.9288126900659
 30
0.0
 40
3.149999999999976
  0
LINE
  5
E389
330
18
100
AcDbEntity
  8
bowle
 48
0.2
100
AcDbLine
 10
137.2701812759766
 20
176.3929143052035
 30
0.0
 11
138.3094739732724
 21
176.6713919441436
 31
0.0
  0
LINE
  5
E38A
330
18
100
AcDbEntity
  8
bowle
 48
0.2
100
AcDbLine
 10
137.2701812759766
 20
176.3929143052035
 30
0.0
 11
131.4759526419166
 21
179.7382137668243
 31
0.0
  0
LINE
  5
E38B
330
18
100
AcDbEntity
  8
bowle
 48
0.2
100
AcDbLine
 10
127.4759526419165
 20
177.4288126900659
 30
0.0
 11
127.4759526419166
 21
172.8100105365488
 31
0.0
  0
LINE
  5
E38C
330
18
100
AcDbEntity
  8
bowle
 48
0.2
100
AcDbLine
 10
127.4759526419166
 20
172.8100105365488
 30
0.0
 11
133.2701812759766
 21
169.464711074928
 31
0.0
  0
LINE
  5
E38D
330
18
100
AcDbEntity
  8
bowle
 48
0.2
100
AcDbLine
 10
127.4759526419165
 20
177.4288126900659
 30
0.0
 11
131.4759526419166
 21
179.7382137668243
 31
0.0
  0
LINE
  5
E38E
330
18
100
AcDbEntity
  8
bowle
 48
0.2
100
AcDbLine
 10
131.4759526419166
 20
179.7382137668243
 30
0.0
 11
127.4759526419166
 21
172.8100105365488
 31
0.0
  0
LINE
  5
E38F
330
18
100
AcDbEntity
  8
bowle
 48
0.2
100
AcDbLine
 10
133.2701812759766
 20
169.464711074928
 30
0.0
 11
133.5486589149166
 21
168.4254183776322
 31
0.0
  0
LINE
  5
E390
330
18
100
AcDbEntity
  8
bowle
 48
0.2
100
AcDbLine
 10
133.2701812759766
 20
169.464711074928
 30
0.0
 11
137.2701812759764
 21
176.3929143052036
 31
0.0
  0
LINE
  5
E391
330
18
100
AcDbEntity
  8
center
 48
0.2
100
AcDbLine
 10
122.8756256970136
 20
180.0848126900658
 30
0.0
 11
137.8682574873298
 21
171.4288126900658
 31
0.0
  0
CIRCLE
  5
E392
330
18
100
AcDbEntity
  8
bowle
 48
0.2
100
AcDbCircle
 10
131.8060796608385
 20
217.4288126900659
 30
0.0
 40
2.649999999999863
  0
CIRCLE
  5
E393
330
18
100
AcDbEntity
  8
bowle
 48
0.2
100
AcDbCircle
 10
131.8060796608385
 20
217.4288126900659
 30
0.0
 40
3.149999999999977
  0
LINE
  5
E394
330
18
100
AcDbEntity
  8
bowle
 48
0.2
100
AcDbLine
 10
133.2701812759765
 20
222.8929143052037
 30
0.0
 11
133.5486589149164
 21
223.9322070024996
 31
0.0
  0
LINE
  5
E395
330
18
100
AcDbEntity
  8
bowle
 48
0.2
100
AcDbLine
 10
133.2701812759765
 20
222.8929143052037
 30
0.0
 11
127.4759526419165
 21
219.547614843583
 31
0.0
  0
LINE
  5
E396
330
18
100
AcDbEntity
  8
bowle
 48
0.2
100
AcDbLine
 10
127.4759526419164
 20
214.9288126900659
 30
0.0
 11
131.4759526419165
 21
212.6194116133075
 31
0.0
  0
LINE
  5
E397
330
18
100
AcDbEntity
  8
bowle
 48
0.2
100
AcDbLine
 10
131.4759526419165
 20
212.6194116133075
 30
0.0
 11
137.2701812759766
 21
215.9647110749282
 31
0.0
  0
LINE
  5
E398
330
18
100
AcDbEntity
  8
bowle
 48
0.2
100
AcDbLine
 10
127.4759526419164
 20
214.9288126900659
 30
0.0
 11
127.4759526419165
 21
219.547614843583
 31
0.0
  0
LINE
  5
E399
330
18
100
AcDbEntity
  8
bowle
 48
0.2
100
AcDbLine
 10
127.4759526419165
 20
219.547614843583
 30
0.0
 11
131.4759526419165
 21
212.6194116133075
 31
0.0
  0
LINE
  5
E39A
330
18
100
AcDbEntity
  8
bowle
 48
0.2
100
AcDbLine
 10
137.2701812759764
 20
215.9647110749282
 30
0.0
 11
138.3094739732723
 21
215.6862334359882
 31
0.0
  0
LINE
  5
E39B
330
18
100
AcDbEntity
  8
bowle
 48
0.2
100
AcDbLine
 10
137.2701812759765
 20
215.9647110749282
 30
0.0
 11
133.2701812759764
 21
222.8929143052036
 31
0.0
  0
LINE
  5
E39C
330
18
100
AcDbEntity
  8
center
 48
0.2
100
AcDbLine
 10
122.8756256970135
 20
212.2728126900659
 30
0.0
 11
137.8682574873297
 21
220.9288126900659
 31
0.0
  0
CIRCLE
  5
E39D
330
18
100
AcDbEntity
  8
bowle
 48
0.2
100
AcDbCircle
 10
95.0
 20
238.6788126900659
 30
0.0
 40
2.649999999999863
  0
CIRCLE
  5
E39E
330
18
100
AcDbEntity
  8
bowle
 48
0.2
100
AcDbCircle
 10
95.0
 20
238.6788126900659
 30
0.0
 40
3.149999999999977
  0
LINE
  5
E39F
330
18
100
AcDbEntity
  8
bowle
 48
0.2
100
AcDbLine
 10
91.0
 20
242.6788126900661
 30
0.0
 11
90.2391849416441
 21
243.4396277484219
 31
0.0
  0
LINE
  5
E3A0
330
18
100
AcDbEntity
  8
bowle
 48
0.2
100
AcDbLine
 10
91.0
 20
242.6788126900661
 30
0.0
 11
91.0
 21
235.9882137668245
 31
0.0
  0
LINE
  5
E3A1
330
18
100
AcDbEntity
  8
bowle
 48
0.2
100
AcDbLine
 10
95.0
 20
233.678812690066
 30
0.0
 11
99.0
 21
235.9882137668246
 31
0.0
  0
LINE
  5
E3A2
330
18
100
AcDbEntity
  8
bowle
 48
0.2
100
AcDbLine
 10
99.0
 20
235.9882137668246
 30
0.0
 11
99.0
 21
242.6788126900661
 31
0.0
  0
LINE
  5
E3A3
330
18
100
AcDbEntity
  8
bowle
 48
0.2
100
AcDbLine
 10
95.0
 20
233.678812690066
 30
0.0
 11
91.0
 21
235.9882137668245
 31
0.0
  0
LINE
  5
E3A4
330
18
100
AcDbEntity
  8
bowle
 48
0.2
100
AcDbLine
 10
91.0
 20
235.9882137668246
 30
0.0
 11
99.0
 21
235.9882137668246
 31
0.0
  0
LINE
  5
E3A5
330
18
100
AcDbEntity
  8
bowle
 48
0.2
100
AcDbLine
 10
99.0
 20
242.678812690066
 30
0.0
 11
99.76081505835578
 21
243.4396277484219
 31
0.0
  0
LINE
  5
E3A6
330
18
100
AcDbEntity
  8
bowle
 48
0.2
100
AcDbLine
 10
99.0
 20
242.6788126900661
 30
0.0
 11
91.0
 21
242.678812690066
 31
0.0
  0
LINE
  5
E3A7
330
18
100
AcDbEntity
  8
center
 48
0.4
100
AcDbLine
 10
95.0
 20
146.6788126900658
 30
0.0
 11
95.0
 21
245.6788126900659
 31
0.0
  0
CIRCLE
  5
E3A8
330
18
100
AcDbEntity
  8
bowle
 48
0.2
100
AcDbCircle
 10
58.1939203391613
 20
217.4288126900659
 30
0.0
 40
2.649999999999863
  0
CIRCLE
  5
E3A9
330
18
100
AcDbEntity
  8
bowle
 48
0.2
100
AcDbCircle
 10
58.1939203391613
 20
217.4288126900659
 30
0.0
 40
3.149999999999977
  0
LINE
  5
E3AA
330
18
100
AcDbEntity
  8
bowle
 48
0.2
100
AcDbLine
 10
52.7298187240234
 20
215.9647110749282
 30
0.0
 11
51.69052602672753
 21
215.6862334359882
 31
0.0
  0
LINE
  5
E3AB
330
18
100
AcDbEntity
  8
bowle
 48
0.2
100
AcDbLine
 10
52.7298187240234
 20
215.9647110749282
 30
0.0
 11
58.52404735808341
 21
212.6194116133074
 31
0.0
  0
LINE
  5
E3AC
330
18
100
AcDbEntity
  8
bowle
 48
0.2
100
AcDbLine
 10
62.52404735808346
 20
214.9288126900659
 30
0.0
 11
62.52404735808335
 21
219.547614843583
 31
0.0
  0
LINE
  5
E3AD
330
18
100
AcDbEntity
  8
bowle
 48
0.2
100
AcDbLine
 10
62.52404735808335
 20
219.547614843583
 30
0.0
 11
56.7298187240234
 21
222.8929143052038
 31
0.0
  0
LINE
  5
E3AE
330
18
100
AcDbEntity
  8
bowle
 48
0.2
100
AcDbLine
 10
62.52404735808346
 20
214.9288126900659
 30
0.0
 11
58.52404735808341
 21
212.6194116133074
 31
0.0
  0
LINE
  5
E3AF
330
18
100
AcDbEntity
  8
bowle
 48
0.2
100
AcDbLine
 10
58.52404735808335
 20
212.6194116133075
 30
0.0
 11
62.52404735808335
 21
219.547614843583
 31
0.0
  0
LINE
  5
E3B0
330
18
100
AcDbEntity
  8
bowle
 48
0.2
100
AcDbLine
 10
56.7298187240234
 20
222.8929143052037
 30
0.0
 11
56.45134108508341
 21
223.9322070024996
 31
0.0
  0
LINE
  5
E3B1
330
18
100
AcDbEntity
  8
bowle
 48
0.2
100
AcDbLine
 10
56.7298187240234
 20
222.8929143052038
 30
0.0
 11
52.72981872402346
 21
215.9647110749282
 31
0.0
  0
LINE
  5
E3B2
330
18
100
AcDbEntity
  8
center
 48
0.2
100
AcDbLine
 10
67.12437430298638
 20
212.2728126900659
 30
0.0
 11
52.1317425126702
 21
220.9288126900659
 31
0.0
  0
CIRCLE
  5
E3B3
330
18
100
AcDbEntity
  8
contour
100
AcDbCircle
 10
115.5
 20
231.6858542452277
 30
0.0
 40
2.066999999999893
  0
CIRCLE
  5
E3B4
330
18
100
AcDbEntity
  8
bowle
 48
0.2
100
AcDbCircle
 10
115.5
 20
231.6858542452277
 30
0.0
 40
4.249999999999886
  0
CIRCLE
  5
E3B5
330
18
100
AcDbEntity
  8
contour
100
AcDbCircle
 10
74.50000000000011
 20
231.6858542452278
 30
0.0
 40
2.066999999999893
  0
CIRCLE
  5
E3B6
330
18
100
AcDbEntity
  8
bowle
 48
0.2
100
AcDbCircle
 10
74.50000000000011
 20
231.6858542452278
 30
0.0
 40
4.249999999999885
  0
CIRCLE
  5
E3B7
330
18
100
AcDbEntity
  8
contour
100
AcDbCircle
 10
54.00000000000005
 20
196.1788126900659
 30
0.0
 40
2.066999999999893
  0
CIRCLE
  5
E3B8
330
18
100
AcDbEntity
  8
bowle
 48
0.2
100
AcDbCircle
 10
54.00000000000005
 20
196.1788126900659
 30
0.0
 40
4.249999999999886
  0
CIRCLE
  5
E3B9
330
18
100
AcDbEntity
  8
contour
100
AcDbCircle
 10
74.5
 20
160.671771134904
 30
0.0
 40
2.066999999999893
  0
CIRCLE
  5
E3BA
330
18
100
AcDbEntity
  8
bowle
 48
0.2
100
AcDbCircle
 10
74.5
 20
160.671771134904
 30
0.0
 40
4.249999999999886
  0
CIRCLE
  5
E3BB
330
18
100
AcDbEntity
  8
contour
100
AcDbCircle
 10
115.4999999999998
 20
160.6717711349039
 30
0.0
 40
2.066999999999893
  0
CIRCLE
  5
E3BC
330
18
100
AcDbEntity
  8
bowle
 48
0.2
100
AcDbCircle
 10
115.4999999999998
 20
160.6717711349039
 30
0.0
 40
4.249999999999886
  0
ARC
  5
E3BD
330
18
100
AcDbEntity
  8
contour
 62
     4
100
AcDbCircle
 10
115.5
 20
231.6858542452277
 30
0.0
 40
2.499999999999886
100
AcDbArc
 50
168.4630409671818
 51
101.5369590328181
  0
ARC
  5
E3BE
330
18
100
AcDbEntity
  8
contour
 62
     4
100
AcDbCircle
 10
74.50000000000011
 20
231.6858542452278
 30
0.0
 40
2.499999999999886
100
AcDbArc
 50
168.4630409671818
 51
101.5369590328181
  0
ARC
  5
E3BF
330
18
100
AcDbEntity
  8
contour
 62
     4
100
AcDbCircle
 10
54.00000000000005
 20
196.1788126900659
 30
0.0
 40
2.499999999999886
100
AcDbArc
 50
168.4630409671818
 51
101.5369590328181
  0
ARC
  5
E3C0
330
18
100
AcDbEntity
  8
contour
 62
     4
100
AcDbCircle
 10
74.5
 20
160.671771134904
 30
0.0
 40
2.499999999999886
100
AcDbArc
 50
168.4630409671818
 51
101.5369590328181
  0
ARC
  5
E3C1
330
18
100
AcDbEntity
  8
contour
 62
     4
100
AcDbCircle
 10
115.4999999999998
 20
160.6717711349039
 30
0.0
 40
2.499999999999886
100
AcDbArc
 50
168.4630409671818
 51
101.5369590328181
  0
LINE
  5
E3C2
330
18
100
AcDbEntity
  8
center
 48
0.2
100
AcDbLine
 10
111.094
 20
224.0544383870794
 30
0.0
 11
119.75
 21
239.0470701773955
 31
0.0
  0
LINE
  5
E3C3
330
18
100
AcDbEntity
  8
center
 48
0.2
100
AcDbLine
 10
78.906
 20
224.0544383870794
 30
0.0
 11
70.25
 21
239.0470701773955
 31
0.0
  0
LINE
  5
E3C4
330
18
100
AcDbEntity
  8
center
 48
0.2
100
AcDbLine
 10
111.094
 20
168.3031869930522
 30
0.0
 11
119.75
 21
153.310555202736
 31
0.0
  0
LINE
  5
E3C5
330
18
100
AcDbEntity
  8
center
 48
0.2
100
AcDbLine
 10
78.906
 20
168.3031869930522
 30
0.0
 11
70.25
 21
153.310555202736
 31
0.0
  0
LINE
  5
E3C6
330
18
100
AcDbEntity
  8
center
 48
0.4
100
AcDbLine
 10
45.49999999999999
 20
196.1788126900658
 30
0.0
 11
144.5
 21
196.1788126900658
 31
0.0
  0
CIRCLE
  5
E3C7
330
18
100
AcDbEntity
  8
center
 48
0.4
100
AcDbCircle
 10
95.0
 20
196.1788126900658
 30
0.0
 40
40.99999999999988
  0
LINE
  5
E3C8
330
18
100
AcDbEntity
  8
contour
100
AcDbLine
 10
61.08249999999998
 20
109.755317526127
 30
0.0
 11
61.08249999999998
 21
120.6053175261268
 31
0.0
  0
LINE
  5
E3C9
330
18
100
AcDbEntity
  8
contour
100
AcDbLine
 10
59.08249999999998
 20
122.6053175261269
 30
0.0
 11
61.08249999999998
 21
120.6053175261269
 31
0.0
  0
LINE
  5
E3CA
330
18
100
AcDbEntity
  8
contour
100
AcDbLine
 10
61.08249999999998
 20
102.7553175261269
 30
0.0
 11
61.08249999999998
 21
96.60531752612691
 31
0.0
  0
LINE
  5
E3CB
330
18
100
AcDbEntity
  8
contour
100
AcDbLine
 10
59.08249999999992
 20
104.7553175261269
 30
0.0
 11
61.08249999999992
 21
102.7553175261269
 31
0.0
  0
LINE
  5
E3CC
330
18
100
AcDbEntity
  8
contour
100
AcDbLine
 10
128.9175
 20
96.60531752612691
 30
0.0
 11
130.9175
 21
94.60531752612689
 31
0.0
  0
LINE
  5
E3CD
330
18
100
AcDbEntity
  8
contour
100
AcDbLine
 10
128.9175
 20
109.755317526127
 30
0.0
 11
130.9175
 21
107.755317526127
 31
0.0
  0
LINE
  5
E3CE
330
18
100
AcDbEntity
  8
contour
 62
     4
100
AcDbLine
 10
130.0
 20
121.6878175261269
 30
0.0
 11
130.0
 21
108.6728175261269
 31
0.0
  0
LINE
  5
E3CF
330
18
100
AcDbEntity
  8
contour
 62
     4
100
AcDbLine
 10
130.0
 20
103.8378175261269
 30
0.0
 11
130.0
 21
95.52281752612691
 31
0.0
  0
LINE
  5
E3D0
330
18
100
AcDbEntity
  8
contour
100
AcDbLine
 10
128.9175
 20
109.7553175261269
 30
0.0
 11
128.9175
 21
120.6053175261269
 31
0.0
  0
LINE
  5
E3D1
330
18
100
AcDbEntity
  8
contour
100
AcDbLine
 10
130.9175
 20
122.6053175261269
 30
0.0
 11
128.9175
 21
120.6053175261269
 31
0.0
  0
LINE
  5
E3D2
330
18
100
AcDbEntity
  8
contour
100
AcDbLine
 10
128.9175
 20
102.7553175261269
 30
0.0
 11
128.9175
 21
96.60531752612691
 31
0.0
  0
LINE
  5
E3D3
330
18
100
AcDbEntity
  8
contour
100
AcDbLine
 10
130.9175000000001
 20
104.7553175261269
 30
0.0
 11
128.9175000000001
 21
102.7553175261269
 31
0.0
  0
LINE
  5
E3D4
330
18
100
AcDbEntity
  8
contour
100
AcDbLine
 10
61.08249999999998
 20
120.6053175261269
 30
0.0
 11
128.9175
 21
120.6053175261269
 31
0.0
  0
LINE
  5
E3D5
330
18
100
AcDbEntity
  8
contour
100
AcDbLine
 10
61.08249999999998
 20
109.7553175261269
 30
0.0
 11
128.9175
 21
109.7553175261269
 31
0.0
  0
LINE
  5
E3D6
330
18
100
AcDbEntity
  8
contour
100
AcDbLine
 10
61.08249999999998
 20
102.7553175261269
 30
0.0
 11
128.9175
 21
102.7553175261269
 31
0.0
  0
LINE
  5
E3D7
330
18
100
AcDbEntity
  8
contour
100
AcDbLine
 10
61.08249999999998
 20
96.60531752612687
 30
0.0
 11
128.9175
 21
96.60531752612687
 31
0.0
  0
CIRCLE
  5
E3D8
330
18
100
AcDbEntity
  8
contour
100
AcDbCircle
 10
95.0
 20
196.1788126900658
 30
0.0
 40
33.91750000000002
  0
ARC
  5
E3D9
330
18
100
AcDbEntity
  8
contour
 62
     4
100
AcDbCircle
 10
95.0
 20
196.1788126900658
 30
0.0
 40
35.0
100
AcDbArc
 50
168.463040967185
 51
101.5369590328148
  0
CIRCLE
  5
E3DA
330
18
100
AcDbEntity
  8
contour
100
AcDbCircle
 10
95.0
 20
196.1788126900658
 30
0.0
 40
35.91750000000008
  0
ARC
  5
E3DB
330
18
100
AcDbEntity
  8
center
 48
0.3
100
AcDbCircle
 10
95.0
 20
196.1788126900658
 30
0.0
 40
42.50000000000009
100
AcDbArc
 50
139.2666311235423
 51
160.7333688764581
  0
ARC
  5
E3DC
330
18
100
AcDbEntity
  8
center
 48
0.3
100
AcDbCircle
 10
95.00000000000012
 20
196.1788126900659
 30
0.0
 40
42.50000000000009
100
AcDbArc
 50
199.2666311235419
 51
220.7333688764576
  0
ARC
  5
E3DD
330
18
100
AcDbEntity
  8
center
 48
0.3
100
AcDbCircle
 10
95.00000000000017
 20
196.1788126900659
 30
0.0
 40
42.50000000000009
100
AcDbArc
 50
259.2666311235415
 51
280.7333688764585
  0
ARC
  5
E3DE
330
18
100
AcDbEntity
  8
center
 48
0.3
100
AcDbCircle
 10
94.99999999999994
 20
196.1788126900661
 30
0.0
 40
42.50000000000009
100
AcDbArc
 50
319.2666311235378
 51
340.733368876456
  0
ARC
  5
E3DF
330
18
100
AcDbEntity
  8
center
 48
0.3
100
AcDbCircle
 10
94.99999999999994
 20
196.1788126900659
 30
0.0
 40
42.50000000000009
100
AcDbArc
 50
19.26663112354192
 51
40.73336887645824
  0
ARC
  5
E3E0
330
18
100
AcDbEntity
  8
center
 48
0.3
100
AcDbCircle
 10
94.99999999999989
 20
196.1788126900658
 30
0.0
 40
42.50000000000009
100
AcDbArc
 50
79.26663112354148
 51
100.7333688764585
  0
DIMENSION
  5
E3E1
330
18
100
AcDbEntity
  8
mark
100
AcDbDimension
  2
*D8
 10
37.69956702437821
 20
113.1053175261269
 30
0.0
 11
35.59956702437819
 21
117.8553175261269
 31
0.0
 70
    32
 71
     5
 42
9.499999999999914
  3
STANDARD
100
AcDbAlignedDimension
 13
48.5
 23
122.6053175261268
 33
0.0
 14
45.49999999999994
 24
113.1053175261269
 34
0.0
 50
90.0
100
AcDbRotatedDimension
  0
DIMENSION
  5
E3F5
330
18
100
AcDbEntity
  8
mark
100
AcDbDimension
  2
*D9
 10
151.4914458270275
 20
103.7553175261269
 30
0.0
 11
149.3914458270275
 21
113.1803175261269
 31
0.0
 70
    32
 71
     5
 42
18.84999999999996
  3
STANDARD
100
AcDbAlignedDimension
 13
141.5
 23
122.6053175261269
 33
0.0
 14
141.4999999999999
 24
103.7553175261269
 34
0.0
 50
90.0
100
AcDbRotatedDimension
  0
DIMENSION
  5
E402
330
18
100
AcDbEntity
  8
mark
100
AcDbDimension
  2
*D10
 10
151.4914458270275
 20
101.7553175261269
 30
0.0
 11
151.4914458270275
 21
102.7553175261269
 31
0.0
 70
   160
 71
     5
 42
2.000000000000028
  3
STANDARD
100
AcDbAlignedDimension
 13
141.4999999999999
 23
103.7553175261269
 33
0.0
 14
141.4999999999999
 24
101.7553175261269
 34
0.0
 50
90.0
100
AcDbRotatedDimension
  0
DIMENSION
  5
E41C
330
18
100
AcDbEntity
  8
mark
100
AcDbDimension
  2
*D11
 10
160.5084098938466
 20
94.60531752612688
 30
0.0
 11
158.4084098938466
 21
108.6053175261269
 31
0.0
 70
    32
  1
<>%%p0.2
 71
     5
 42
28.00000000000003
  3
STANDARD
100
AcDbAlignedDimension
 13
141.5
 23
122.6053175261269
 33
0.0
 14
141.5
 24
94.60531752612689
 34
0.0
 50
90.0
100
AcDbRotatedDimension
  0
LEADER
  5
E43B
330
18
100
AcDbEntity
  8
mark
100
AcDbLeader
  3
STANDARD
 76
     2
 10
129.9175
 20
95.60531752612689
 30
0.0
 10
122.5501898513615
 20
88.23800737748838
 30
0.0
211
0.7071067811865476
221
0.7071067811865475
231
0.0
1001
ACAD
1000
DSTYLE
1002
{
1070
   147
1040
0.85
1070
    77
1070
     0
1002
}
  0
MTEXT
  5
E43C
330
18
100
AcDbEntity
  8
mark
 62
     3
100
AcDbMText
 10
122.6495165054932
 20
91.49043918085743
 30
0.0
 40
2.5
 41
0.0
 71
     5
 72
     1
  1
C2
 11
0.7071067811865476
 21
0.7071067811865475
 31
0.0
 73
     1
 44
1.0
1001
ACAD
1000
ACAD_MTEXT_DEFINED_HEIGHT_BEGIN
1070
    46
1040
0.0
1000
ACAD_MTEXT_DEFINED_HEIGHT_END
  0
DIMENSION
  5
E43D
330
18
100
AcDbEntity
  8
mark
100
AcDbDimension
  2
*D12
 10
130.0
 20
82.89565167594867
 30
0.0
 11
95.0
 21
84.99565167594866
 31
0.0
 70
    32
  1
M<>x2.0P
 71
     5
 42
70.0
  3
STANDARD
100
AcDbAlignedDimension
 13
60.0
 23
95.52281752612694
 33
0.0
 14
130.0
 24
95.52281752612691
 34
0.0
100
AcDbRotatedDimension
  0
HATCH
  5
E44A
330
18
100
AcDbEntity
  8
mark
100
AcDbHatch
 10
0.0
 20
0.0
 30
0.0
210
0.0
220
0.0
230
1.0
  2
SOLID
 70
     1
 71
     0
 91
        1
 92
        7
 72
     0
 73
     1
 93
        3
 10
62.49999999999989
 20
72.04565167594864
 10
60.0
 20
74.54565167594873
 10
60.0
 20
69.54565167594873
 97
        0
 75
     0
 76
     1
 47
0.0567731388354328
 98
        1
 10
61.54173820236355
 20
71.53760137832552
450
        0
451
        0
460
0.0
461
0.0
452
        1
462
1.0
453
        2
463
0.0
 63
     5
421
      255
463
1.0
 63
     7
421
 16777215
470
LINEAR
1001
ACAD
1010
0.0
1020
0.0
1030
0.0
  0
LINE
  5
E44B
330
18
100
AcDbEntity
  8
mark
100
AcDbLine
 10
60.0
 20
82.04565167594868
 30
0.0
 11
60.0
 21
69.5456516759487
 31
0.0
  0
LINE
  5
E44C
330
18
100
AcDbEntity
  8
mark
100
AcDbLine
 10
62.49999999999989
 20
72.04565167594864
 30
0.0
 11
70.0
 21
72.04565167594868
 31
0.0
  0
LINE
  5
E44D
330
18
100
AcDbEntity
  8
mark
100
AcDbLine
 10
60.0
 20
74.54565167594868
 30
0.0
 11
62.49999999999989
 21
72.04565167594864
 31
0.0
  0
LINE
  5
E44E
330
18
100
AcDbEntity
  8
mark
100
AcDbLine
 10
60.0
 20
69.5456516759487
 30
0.0
 11
62.49999999999989
 21
72.04565167594864
 31
0.0
  0
TOLERANCE
  5
E44F
330
18
100
AcDbEntity
  8
mark
100
AcDbFcf
  3
STANDARD
 10
70.0
 20
72.04565167594868
 30
0.0
  1
%%v%%v%%vA%%v%%v
  0
TOLERANCE
  5
E450
330
18
100
AcDbEntity
  8
mark
100
AcDbFcf
  3
STANDARD
 10
165.5084098938466
 20
129.3977051873395
 30
0.0
  1
{\Fgdt;h}%%v0.005%%v%%vA%%v%%v
  0
LINE
  5
E451
330
18
100
AcDbEntity
  8
mark
100
AcDbLine
 10
160.5084098938466
 20
129.3977051873395
 30
0.0
 11
165.5084098938466
 21
129.3977051873395
 31
0.0
  0
LINE
  5
E452
330
18
100
AcDbEntity
  8
mark
100
AcDbLine
 10
160.5084098938466
 20
122.6053175261269
 30
0.0
 11
160.5084098938466
 21
129.3977051873395
 31
0.0
  0
DIMENSION
  5
E453
330
18
100
AcDbEntity
  8
mark
100
AcDbDimension
  2
*D13
 10
142.5
 20
129.3977051873395
 30
0.0
 11
95.0
 21
131.4977051873395
 31
0.0
 70
    32
  1
%%c<>
 71
     5
 42
95.0
  3
STANDARD
100
AcDbAlignedDimension
 13
47.5
 23
121.6053175261269
 33
0.0
 14
142.5
 24
121.6053175261269
 34
0.0
100
AcDbRotatedDimension
  0
MTEXT
  5
E460
330
18
100
AcDbEntity
  8
mark
 62
     3
100
AcDbMText
 10
100.6797889030126
 20
131.6370212924923
 30
0.0
 40
1.7
 41
0.0
 71
     5
 72
     1
  1
\A1;{\H0.7x;\S+0^ -0.2;}
 73
     1
 44
1.0
1001
ACAD
1000
ACAD_MTEXT_DEFINED_HEIGHT_BEGIN
1070
    46
1040
0.0
1000
ACAD_MTEXT_DEFINED_HEIGHT_END
  0
MTEXT
  5
E461
330
18
100
AcDbEntity
  8
dim
100
AcDbMText
 10
24.5875458222007
 20
91.7798431249921
 30
0.0
 40
2.5
 41
54.08337224291063
 71
     1
 72
     5
  1
6-%%C5.3{\Ftxt,bigfont|c128;深さ}5
 73
     1
 44
1.0
1001
ACAD
1000
ACAD_MTEXT_DEFINED_HEIGHT_BEGIN
1070
    46
1040
0.0
1000
ACAD_MTEXT_DEFINED_HEIGHT_END
  0
LEADER
  5
E462
330
18
100
AcDbEntity
  8
mark
100
AcDbLeader
  3
STANDARD
 76
     3
 10
52.5
 20
94.60531752612689
 30
0.0
 10
46.13268985136147
 20
88.23800737748838
 30
0.0
 10
24.61404999503873
 20
88.23800737748838
 30
0.0
1001
ACAD
1000
DSTYLE
1002
{
1070
   147
1040
0.85
1070
    77
1070
     0
1002
}
  0
MTEXT
  5
E463
330
18
100
AcDbEntity
  8
dim
100
AcDbMText
 10
21.5256486170016
 20
110.2798431249921
 30
0.0
 40
2.5
 41
54.08337224291063
 71
     1
 72
     5
  1
6-%%C8{\Ftxt,bigfont|c128;深さ}10
 73
     1
 44
1.0
1001
ACAD
1000
ACAD_MTEXT_DEFINED_HEIGHT_BEGIN
1070
    46
1040
0.0
1000
ACAD_MTEXT_DEFINED_HEIGHT_END
  0
LEADER
  5
E464
330
18
100
AcDbEntity
  8
mark
100
AcDbLeader
  3
STANDARD
 76
     3
 10
47.5
 20
113.1053175261269
 30
0.0
 10
41.13268985136153
 20
106.7380073774884
 30
0.0
 10
21.35517313028845
 20
106.7380073774884
 30
0.0
1001
ACAD
1000
DSTYLE
1002
{
1070
   147
1040
0.85
1070
    77
1070
     0
1002
}
  0
DIMENSION
  5
E465
330
18
100
AcDbEntity
  8
mark
100
AcDbDimension
  2
*D14
 10
54.78454439441186
 20
188.1965116161298
 30
0.0
 11
153.7654692529693
 21
207.8430761247229
 31
0.0
 70
   163
  1
P.C.D 82
 71
     5
 42
81.99999999999979
  3
STANDARD
100
AcDbDiametricDimension
 15
135.2154556055881
 25
204.161113764002
 35
0.0
 40
0.0
1001
ACAD
1000
DSTYLE
1002
{
1070
   288
1070
     1
1002
}
  0
DIMENSION
  5
E471
330
18
100
AcDbEntity
  8
mark
100
AcDbDimension
  2
*D15
 10
55.37161028369329
 20
180.8217059152685
 30
0.0
 11
150.9240999167999
 21
217.8509618703626
 31
0.0
 70
   163
  1
P.C.D 85
 71
     5
 42
85.0000000000003
  3
STANDARD
100
AcDbDiametricDimension
 15
134.6283897163067
 25
211.5359194648633
 35
0.0
 40
0.0
1001
ACAD
1000
DSTYLE
1002
{
1070
   288
1070
     1
1002
}
  0
MTEXT
  5
E47D
330
18
100
AcDbEntity
  8
dim
100
AcDbMText
 10
154.787874162845
 20
81.61984872318624
 30
0.0
 40
5.0
 41
8.636702473284913
 71
     1
 72
     5
  1
2
 73
     1
 44
1.0
  0
LEADER
  5
E47E
330
18
100
AcDbEntity
  8
mark
100
AcDbLeader
  3
STANDARD
 76
     2
 10
136.0
 20
94.60531752612693
 30
0.0
 10
153.6941166100405
 20
79.75819080463413
 30
0.0
1001
ACAD
1000
DSTYLE
1002
{
1070
   147
1040
0.85
1070
    77
1070
     0
1002
}
  0
LEADER
  5
E481
330
18
100
AcDbEntity
  8
mark
100
AcDbLeader
  3
STANDARD
 76
     2
 10
140.8814767487308
 20
183.884908047696
 30
0.0
 10
153.6941166100405
 20
173.1338266656637
 30
0.0
1001
ACAD
1000
DSTYLE
1002
{
1070
   147
1040
0.85
1070
    77
1070
     0
1002
}
  0
MTEXT
  5
E483
330
18
100
AcDbEntity
  8
dim
100
AcDbMText
 10
154.787874162845
 20
174.9954845842158
 30
0.0
 40
5.0
 41
8.636702473284913
 71
     1
 72
     5
  1
1
 73
     1
 44
1.0
1001
ACAD
1000
ACAD_MTEXT_DEFINED_HEIGHT_BEGIN
1070
    46
1040
0.0
1000
ACAD_MTEXT_DEFINED_HEIGHT_END
  0
HATCH
  5
E652
330
18
100
AcDbEntity
  8
section
100
AcDbHatch
 10
0.0
 20
0.0
 30
0.0
210
0.0
220
0.0
230
1.0
  2
ANSI31
 70
     0
 71
     0
 91
       12
 92
        7
 72
     1
 73
     1
 93
        9
 10
52.49999999999996
 20
101.7553175261269
 42
0.0
 10
48.49999999999994
 20
101.7553175261269
 42
0.4142135623730951
 10
47.49999999999994
 20
100.7553175261269
 42
0.0
 10
47.49999999999994
 20
95.60531752612694
 42
0.4142135623731117
 10
48.49999999999994
 20
94.60531752612689
 42
0.0
 10
49.34999999999996
 20
94.60531752612688
 42
0.0
 10
49.85000000000002
 20
95.10531752612696
 42
0.0
 10
49.85000000000002
 20
98.07533931277435
 42
0.0
 10
52.49999999999996
 20
99.60531752612688
 42
0.0
 97
        0
 92
        7
 72
     1
 73
     1
 93
       28
 10
59.99999999999994
 20
103.8378175261269
 42
0.0
 10
59.08249999999993
 20
104.755317526127
 42
0.0
 10
50.5
 20
104.7553175261269
 42
0.0
 10
50.49999999999998
 20
107.755317526127
 42
0.0
 10
59.08249999999998
 20
107.755317526127
 42
0.0
 10
59.99999999999993
 20
108.6728175261269
 42
0.0
 10
60.0
 20
121.6878175261269
 42
0.0
 10
59.08249999999998
 20
122.6053175261269
 42
0.0
 10
48.5
 20
122.6053175261268
 42
0.4142135623730951
 10
47.5
 20
121.6053175261268
 42
0.0
 10
47.49999999999999
 20
118.1053175261268
 42
0.0
 10
48.4999999999998
 20
117.1053175261269
 42
0.0
 10
55.19059892324128
 20
117.1053175261269
 42
0.0
 10
57.49999999999995
 20
113.105317526127
 42
0.0
 10
55.19059892324138
 20
109.1053175261269
 42
0.0
 10
48.49999999999987
 20
109.1053175261269
 42
0.0
 10
47.49999999999995
 20
108.1053175261269
 42
0.0
 10
47.49999999999994
 20
104.7553175261269
 42
0.4142135623730951
 10
48.49999999999994
 20
103.7553175261269
 42
0.0
 10
57.5
 20
103.7553175261269
 42
0.0
 10
57.5
 20
101.7553175261269
 42
0.0
 10
52.49999999999995
 20
101.7553175261269
 42
0.0
 10
52.49999999999996
 20
99.60531752612691
 42
0.0
 10
55.14999999999986
 20
98.07533931277445
 42
0.0
 10
55.14999999999997
 20
95.10531752612683
 42
0.0
 10
55.64999999999992
 20
94.60531752612688
 42
0.0
 10
59.08249999999996
 20
94.60531752612688
 42
0.0
 10
60.0
 20
95.52281752612691
 42
0.0
 97
        0
 92
        7
 72
     0
 73
     1
 93
        4
 10
61.08249999999998
 20
102.7553175261269
 10
59.99999999999994
 20
103.8378175261269
 10
60.0
 20
95.52281752612691
 10
61.08249999999998
 20
96.60531752612689
 97
        0
 92
        7
 72
     0
 73
     1
 93
        4
 10
61.08249999999999
 20
120.6053175261269
 10
60.0
 20
121.6878175261269
 10
59.99999999999994
 20
108.6728175261269
 10
61.08249999999999
 20
109.755317526127
 97
        0
 92
        7
 72
     0
 73
     1
 93
        4
 10
130.0
 20
121.6878175261269
 10
128.9175
 20
120.6053175261269
 10
128.9175
 20
109.755317526127
 10
130.0
 20
108.6728175261269
 97
        0
 92
        7
 72
     0
 73
     1
 93
        7
 10
133.5
 20
118.7053175261269
 10
133.4999999999999
 20
122.6053175261269
 10
130.9175
 20
122.6053175261269
 10
130.0
 20
121.6878175261268
 10
130.0
 20
108.6728175261269
 10
130.9175
 20
107.7553175261269
 10
133.5
 20
107.7553175261269
 97
        0
 92
        7
 72
     0
 73
     1
 93
        4
 10
130.0
 20
103.8378175261269
 10
128.9175
 20
102.7553175261269
 10
128.9175
 20
96.60531752612691
 10
130.0
 20
95.52281752612691
 97
        0
 92
        7
 72
     0
 73
     1
 93
       13
 10
133.4999999999999
 20
101.7553175261269
 10
132.4999999999999
 20
101.7553175261269
 10
132.5
 20
103.7553175261269
 10
133.5
 20
103.7553175261269
 10
133.5
 20
104.7553175261271
 10
130.9175000000002
 20
104.7553175261271
 10
130.0
 20
103.8378175261269
 10
130.0
 20
95.52281752612691
 10
130.9175
 20
94.60531752612691
 10
131.75
 20
94.60531752612689
 10
131.75
 20
94.90531752612691
 10
131.75
 20
99.60531752612693
 10
133.5
 20
99.60531752612695
 97
        0
 92
        7
 72
     1
 73
     1
 93
       11
 10
142.5
 20
121.6053175261269
 42
0.4142135623730951
 10
141.5
 20
122.6053175261269
 42
0.0
 10
138.4999999999998
 20
122.6053175261269
 42
0.0
 10
138.4999999999999
 20
118.7053175261269
 42
0.0
 10
138.4999999999999
 20
107.755317526127
 42
0.0
 10
139.5
 20
107.7553175261269
 42
0.0
 10
139.5
 20
104.7553175261269
 42
0.0
 10
138.5
 20
104.7553175261269
 42
0.0
 10
138.5
 20
103.7553175261269
 42
0.0
 10
141.5
 20
103.7553175261269
 42
0.4142135623730951
 10
142.5
 20
104.7553175261269
 42
0.0
 97
        0
 92
        7
 72
     1
 73
     1
 93
        9
 10
142.5
 20
100.7553175261269
 42
0.4142135623730951
 10
141.5
 20
101.7553175261269
 42
0.0
 10
138.5
 20
101.7553175261269
 42
0.0
 10
138.5
 20
99.60531752612695
 42
0.0
 10
140.2499999999999
 20
99.60531752612693
 42
0.0
 10
140.25
 20
94.90531752612691
 42
0.0
 10
140.25
 20
94.60531752612691
 42
0.0
 10
141.5
 20
94.60531752612693
 42
0.4142135623730992
 10
142.5
 20
95.60531752612694
 42
0.0
 97
        0
 92
        7
 72
     0
 73
     1
 93
        4
 10
138.4999999999998
 20
122.6053175261269
 10
138.067
 20
122.6053175261269
 10
138.067
 20
119.1383175261268
 10
138.4999999999998
 20
118.705317526127
 97
        0
 92
        7
 72
     0
 73
     1
 93
        4
 10
133.933
 20
122.6053175261269
 10
133.5
 20
122.6053175261269
 10
133.5
 20
118.7053175261269
 10
133.933
 20
119.1383175261269
 97
        0
 75
     0
 76
     1
 52
0.0
 41
0.7
 77
     0
 78
     1
 53
45.0
 43
0.0
 44
0.0
 45
-1.571544821187101
 46
1.571544821187101
 79
     0
 47
0.1806513641902812
 98
       12
 10
50.06736944373051
 20
100.4861165645695
 10
55.55244160130337
 20
100.4861165645695
 10
60.42806194539116
 20
100.6891488109531
 10
60.63121216080571
 20
112.6680454083088
 10
129.4993441225551
 20
115.3074632914563
 10
131.3277018974934
 20
115.3074632914563
 10
129.2961927398992
 20
101.298245550104
 10
131.3277018974934
 20
101.298245550104
 10
140.2663382222865
 20
111.8559170826941
 10
141.6883932319126
 20
99.47095599257124
 10
138.238092671975
 20
121.200594645109
 10
133.7752988060401
 20
120.775814826733
1001
ACAD
1010
0.0
1020
0.0
1030
0.0
  0
ENDSEC
  0
SECTION
  2
OBJECTS
  0
DICTIONARY
  5
C
330
0
100
AcDbDictionary
281
     1
  3
ACAD_COLOR
350
7873
  3
ACAD_GROUP
350
D
  3
ACAD_LAYOUT
350
5CF3
  3
ACAD_MATERIAL
350
7872
  3
ACAD_MLINESTYLE
350
1B
  3
ACAD_PLOTSETTINGS
350
5CF4
  3
ACAD_PLOTSTYLENAME
350
5CF1
  3
ACAD_TABLESTYLE
350
7874
  3
AcadDim
350
D9D9
  3
ACDBVARIABLEDICTIONARY
350
45D
  0
DICTIONARY
  5
7BFE
330
2
100
AcDbDictionary
280
     1
281
     1
  3
ACAD_LAYERFILTERS
360
7C00
  3
ACLYDICTIONARY
360
7BFF
  0
DICTIONARY
  5
45F
330
18
100
AcDbDictionary
280
     1
281
     1
  3
ACAD_LAYOUTSELFREF
360
5D8B
  3
ACAD_SORTENTS
360
460
  0
DICTIONARY
  5
5D89
330
15
100
AcDbDictionary
280
     1
281
     1
  3
ACAD_LAYOUTSELFREF
360
5D8A
  0
DICTIONARY
  5
7C0B
330
7C0A
100
AcDbDictionary
280
     1
281
     1
  3
AcDbBlockTableRecordData
360
7C0C
  0
DICTIONARY
  5
8E73
330
8E72
100
AcDbDictionary
280
     1
281
     1
  3
AcDbBlockTableRecordData
360
8E74
  0
DICTIONARY
  5
9D16
330
9D15
100
AcDbDictionary
280
     1
281
     1
  3
AcDbBlockTableRecordData
360
9D17
  0
DICTIONARY
  5
A519
330
A518
100
AcDbDictionary
280
     1
281
     1
  3
AcDbBlockTableRecordData
360
A51A
  0
DICTIONARY
  5
A628
330
A627
100
AcDbDictionary
280
     1
281
     1
  3
AcDbBlockTableRecordData
360
A629
  0
DICTIONARY
  5
DEF8
330
DEF7
100
AcDbDictionary
280
     1
281
     1
  3
AcDbBlockTableRecordData
360
DEF9
  0
DICTIONARY
  5
7873
102
{ACAD_REACTORS
330
C
102
}
330
C
100
AcDbDictionary
281
     1
  0
DICTIONARY
  5
D
102
{ACAD_REACTORS
330
C
102
}
330
C
100
AcDbDictionary
281
     1
  0
DICTIONARY
  5
5CF3
102
{ACAD_REACTORS
330
C
102
}
330
C
100
AcDbDictionary
281
     1
  3
Model
350
5CF5
  3
配置1
350
5CF6
  0
DICTIONARY
  5
7872
102
{ACAD_REACTORS
330
C
102
}
330
C
100
AcDbDictionary
281
     1
  0
DICTIONARY
  5
1B
102
{ACAD_REACTORS
330
C
102
}
330
C
100
AcDbDictionary
281
     1
  3
STANDARD
350
1C
  0
DICTIONARY
  5
5CF4
102
{ACAD_REACTORS
330
C
102
}
330
C
100
AcDbDictionary
281
     1
  0
ACDBDICTIONARYWDFLT
  5
5CF1
102
{ACAD_REACTORS
330
C
102
}
330
C
100
AcDbDictionary
281
     1
  3
Normal
350
5CF2
100
AcDbDictionaryWithDefault
340
5CF2
  0
DICTIONARY
  5
7874
102
{ACAD_REACTORS
330
C
102
}
330
C
100
AcDbDictionary
281
     1
  3
Standard
350
7875
  0
XRECORD
  5
D9D9
102
{ACAD_REACTORS
330
C
102
}
330
C
100
AcDbXrecord
280
     1
 90
   990106
  3

 60
     0
 61
     0
 62
     1
 63
     3
 64
     0
 65
     0
 66
     0
 67
     3
 68
     1
 69
     0
 70
     0
 71
     0
 72
     0
 40
0.0
170
     0
  0
DICTIONARY
  5
45D
102
{ACAD_REACTORS
330
C
102
}
330
C
100
AcDbDictionary
281
     1
  3
CTABLESTYLE
350
7880
  3
SORTENTS
350
45E
  0
DICTIONARY
  5
7C00
102
{ACAD_REACTORS
330
7BFE
102
}
330
7BFE
100
AcDbDictionary
281
     1
  0
DICTIONARY
  5
7BFF
102
{ACAD_REACTORS
330
7BFE
102
}
330
7BFE
100
AcDbDictionary
281
     1
1001
ACAD
1000
<All
  0
XRECORD
  5
5D8B
102
{ACAD_REACTORS
330
45F
102
}
330
45F
100
AcDbXrecord
280
     1
340
18
  0
SORTENTSTABLE
  5
460
102
{ACAD_REACTORS
330
45F
102
}
330
45F
100
AcDbSortentsTable
330
18
331
AF81
  5
AF81
331
E3DD
  5
E3DE
331
AF89
  5
AF89
331
AF4A
  5
AF4A
331
E367
  5
E368
331
E39E
  5
E39F
331
E41C
  5
E43B
331
C0
  5
CB
331
E3A6
  5
E3A7
331
AF52
  5
AF52
331
E36F
  5
E370
331
E3AE
  5
E3AF
331
E377
  5
E378
331
AF5A
  5
AF5A
331
E338
  5
E339
331
E43C
  5
E43D
331
E3B6
  5
E3B7
331
AF62
  5
AF62
331
E340
  5
E341
331
E44C
  5
E44D
331
E3BE
  5
E3BF
331
E3F5
  5
E402
331
AF6A
  5
AF6A
331
E348
  5
E349
331
E37F
  5
E380
331
E483
  5
E5CE
331
E3C6
  5
E3C7
331
AF72
  5
AF72
331
E350
  5
E351
331
E387
  5
E388
331
E3CE
  5
E3CF
331
AF7A
  5
AF7A
331
E358
  5
E359
331
E38F
  5
E390
331
E3D6
  5
E3D7
331
E464
  5
E465
331
E397
  5
E398
331
AF82
  5
AF82
331
E360
  5
E361
331
E3DE
  5
E3DF
331
AF8A
  5
AF8A
331
AF4B
  5
AF4B
331
E368
  5
E369
331
E39F
  5
E3A0
331
E3A7
  5
E3A8
331
AF53
  5
AF53
331
E370
  5
E371
331
E3AF
  5
E3B0
331
AF5B
  5
AF5B
331
E339
  5
E33A
331
E3B7
  5
E3B8
331
E43D
  5
E44A
331
AF63
  5
AF63
331
E341
  5
E342
331
E378
  5
E379
331
E3BF
  5
E3C0
331
E44D
  5
E44E
331
AF6B
  5
AF6B
331
E349
  5
E34A
331
E380
  5
E381
331
E3C7
  5
E3C8
331
AF73
  5
AF73
331
E351
  5
E352
331
E388
  5
E389
331
E3CF
  5
E3D0
331
AF7B
  5
AF7B
331
E359
  5
E35A
331
E390
  5
E391
331
E3D7
  5
E3D8
331
E465
  5
E471
331
E361
  5
E362
331
E398
  5
E399
331
AF83
  5
AF83
331
AF44
  5
AF44
331
E3A0
  5
E3A1
331
E369
  5
E36A
331
E3DF
  5
E3E0
331
AF8B
  5
AF8B
331
AF4C
  5
AF4C
331
E3A8
  5
E3A9
331
E371
  5
E372
331
AF54
  5
AF54
331
E3B0
  5
E3B1
331
E33A
  5
E33B
331
E47D
  5
E47E
331
AF5C
  5
AF5C
331
E3B8
  5
E3B9
331
E342
  5
E343
331
E379
  5
E37A
331
AF64
  5
AF64
331
E3C0
  5
E3C1
331
E44E
  5
E44F
331
E34A
  5
E34B
331
E381
  5
E382
331
AF6C
  5
AF6C
331
E389
  5
E38A
331
E3C8
  5
E3C9
331
AF74
  5
AF74
331
E352
  5
E353
331
E3D0
  5
E3D1
331
AF7C
  5
AF7C
331
E35A
  5
E35B
331
E391
  5
E392
331
E3D8
  5
E3D9
331
AF84
  5
AF84
331
AF45
  5
AF45
331
E362
  5
E363
331
E399
  5
E39A
331
E3E0
  5
E3E1
331
E3A1
  5
E3A2
331
AF8C
  5
AF8C
331
AF4D
  5
AF4D
331
E36A
  5
E36B
331
E3A9
  5
E3AA
331
E372
  5
E373
331
AF55
  5
AF55
331
E333
  5
E334
331
E3B1
  5
E3B2
331
AF5D
  5
AF5D
331
E33B
  5
E33C
331
E47E
  5
E481
331
E3B9
  5
E3BA
331
AF65
  5
AF65
331
E343
  5
E344
331
E37A
  5
E37B
331
E3C1
  5
E3C2
331
E44F
  5
E450
331
AF6D
  5
AF6D
331
E34B
  5
E34C
331
E382
  5
E383
331
E3C9
  5
E3CA
331
AF75
  5
AF75
331
E353
  5
E354
331
E38A
  5
E38B
331
E3D1
  5
E3D2
331
AF7D
  5
AF7D
331
E35B
  5
E35C
331
E392
  5
E393
331
E3D9
  5
E3DA
331
AF85
  5
AF85
331
AF46
  5
AF46
331
E363
  5
E364
331
E39A
  5
E39B
331
E3E1
  5
E3F5
331
E3A2
  5
E3A3
331
AF8D
  5
AF8D
331
AF4E
  5
AF4E
331
E36B
  5
E36C
331
E3AA
  5
E3AB
331
E373
  5
E374
331
AF56
  5
AF56
331
E334
  5
E335
331
E3B2
  5
E3B3
331
AF5E
  5
AF5E
331
E33C
  5
E33D
331
E3BA
  5
E3BB
331
AF66
  5
AF66
331
E344
  5
E345
331
E37B
  5
E37C
331
E3C2
  5
E3C3
331
E450
  5
E451
331
AF6E
  5
AF6E
331
E34C
  5
E34D
331
E383
  5
E384
331
E3CA
  5
E3CB
331
AF76
  5
AF76
331
E354
  5
E355
331
E38B
  5
E38C
331
E3D2
  5
E3D3
331
E460
  5
E461
331
AF7E
  5
AF7E
331
E35C
  5
E35D
331
E393
  5
E394
331
E3DA
  5
E3DB
331
AF86
  5
AF86
331
AF47
  5
AF47
331
E364
  5
E365
331
E39B
  5
E39C
331
E3A3
  5
E3A4
331
AF4F
  5
AF4F
331
AF8E
  5
AF8E
331
E36C
  5
E36D
331
E3AB
  5
E3AC
331
E374
  5
E375
331
AF57
  5
AF57
331
E335
  5
E336
331
E3B3
  5
E3B4
331
AF5F
  5
AF5F
331
E33D
  5
E33E
331
E3BB
  5
E3BC
331
AF67
  5
AF67
331
E345
  5
E346
331
E37C
  5
E37D
331
E451
  5
E452
331
E3C3
  5
E3C4
331
AF6F
  5
AF6F
331
E34D
  5
E34E
331
E384
  5
E385
331
E402
  5
E41C
331
E3CB
  5
E3CC
331
AF77
  5
AF77
331
E355
  5
E356
331
E38C
  5
E38D
331
E3D3
  5
E3D4
331
E461
  5
E462
331
AF7F
  5
AF7F
331
E35D
  5
E35E
331
E394
  5
E395
331
E3DB
  5
E3DC
331
AF87
  5
AF87
331
AF48
  5
AF48
331
E365
  5
E366
331
E39C
  5
E39D
331
E3A4
  5
E3A5
331
AF8F
  5
AF8F
331
AF50
  5
AF50
331
E36D
  5
E36E
331
E471
  5
E47D
331
E3AC
  5
E3AD
331
E375
  5
E376
331
AF58
  5
AF58
331
E336
  5
E337
331
E3B4
  5
E3B5
331
E33E
  5
E33F
331
AF60
  5
AF60
331
E3BC
  5
E3BD
331
E44A
  5
E44B
331
AF68
  5
AF68
331
E346
  5
E347
331
E37D
  5
E37E
331
E481
  5
E483
331
E3C4
  5
E3C5
331
E452
  5
E453
331
AF70
  5
AF70
331
E34E
  5
E34F
331
E385
  5
E386
331
E3CC
  5
E3CD
331
AF78
  5
AF78
331
E356
  5
E357
331
E38D
  5
E38E
331
E3D4
  5
E3D5
331
E462
  5
E463
331
E35E
  5
E35F
331
E395
  5
E396
331
AF80
  5
AF80
331
E3DC
  5
E3DD
331
AF88
  5
AF88
331
AF49
  5
AF49
331
E366
  5
E367
331
E39D
  5
E39E
331
E3A5
  5
E3A6
331
AFC8
  5
AFC8
331
AF51
  5
AF51
331
E36E
  5
E36F
331
E3AD
  5
E3AE
331
E376
  5
E377
331
AF59
  5
AF59
331
E337
  5
E338
331
E3B5
  5
E3B6
331
E33F
  5
E340
331
E43B
  5
E43C
331
AF61
  5
AF61
331
E3BD
  5
E3BE
331
E44B
  5
E44C
331
AF69
  5
AF69
331
E347
  5
E348
331
E37E
  5
E37F
331
E3C5
  5
E3C6
331
E453
  5
E460
331
E652
  5
E333
331
AF71
  5
AF71
331
E34F
  5
E350
331
E386
  5
E387
331
E3CD
  5
E3CE
331
AF79
  5
AF79
331
E357
  5
E358
331
E38E
  5
E38F
331
E3D5
  5
E3D6
331
E463
  5
E464
331
E35F
  5
E360
331
E396
  5
E397
  0
XRECORD
  5
5D8A
102
{ACAD_REACTORS
330
5D89
102
}
330
5D89
100
AcDbXrecord
280
     1
340
15
  0
DICTIONARY
  5
7C0C
102
{ACAD_REACTORS
330
7C0B
102
}
330
7C0B
100
AcDbDictionary
280
     1
281
     1
  3
Edit
360
7C0D
  0
DICTIONARY
  5
8E74
102
{ACAD_REACTORS
330
8E73
102
}
330
8E73
100
AcDbDictionary
280
     1
281
     1
  3
Edit
360
8E75
  0
DICTIONARY
  5
9D17
102
{ACAD_REACTORS
330
9D16
102
}
330
9D16
100
AcDbDictionary
280
     1
281
     1
  3
Edit
360
9D18
  0
DICTIONARY
  5
A51A
102
{ACAD_REACTORS
330
A519
102
}
330
A519
100
AcDbDictionary
280
     1
281
     1
  3
Edit
360
A51B
  0
DICTIONARY
  5
A629
102
{ACAD_REACTORS
330
A628
102
}
330
A628
100
AcDbDictionary
280
     1
281
     1
  3
Edit
360
A62A
  0
DICTIONARY
  5
DEF9
102
{ACAD_REACTORS
330
DEF8
102
}
330
DEF8
100
AcDbDictionary
280
     1
281
     1
  3
Edit
360
DEFA
  0
LAYOUT
  5
5CF5
102
{ACAD_REACTORS
330
5CF3
102
}
330
5CF3
100
AcDbPlotSettings
  1

  2
Microsoft Office Document Image Writer
  4
A4
  6

 40
3.174999952316284
 41
3.174999952316284
 42
3.175003051757812
 43
3.17498779296875
 44
210.0579986572266
 45
297.0530090332031
 46
6.853997826576232
 47
5.351510643959045
 48
0.0
 49
0.0
140
190.0
141
280.0
142
1.0
143
1.0
 70
 11940
 72
     1
 73
     0
 74
     4
  7
LIN.ctb
 75
     0
147
1.02454228741782
 76
     0
 77
     2
 78
   300
148
0.0
149
0.0
100
AcDbLayout
  1
Model
 70
     1
 71
     0
 10
0.0
 20
0.0
 11
12.0
 21
9.0
 12
0.0
 22
0.0
 32
0.0
 14
0.0
 24
0.0
 34
0.0
 15
0.0
 25
0.0
 35
0.0
146
0.0
 13
0.0
 23
0.0
 33
0.0
 16
1.0
 26
0.0
 36
0.0
 17
0.0
 27
1.0
 37
0.0
 76
     0
330
18
1001
ACAD_PSEXT
1000
Microsoft Office Document Image Writer
1000
Microsoft Office Document Image Writer Driver
1000
Microsoft Document Imaging Writer Port:
1000

1070
     0
  0
LAYOUT
  5
5CF6
102
{ACAD_REACTORS
330
5CF3
102
}
330
5CF3
100
AcDbPlotSettings
  1

  2
EPSON STYLUS COLOR 440
  4

  6

 40
0.0
 41
0.0
 42
0.0
 43
0.0
 44
0.0
 45
0.0
 46
0.0
 47
0.0
 48
0.0
 49
0.0
140
0.0
141
0.0
142
1.0
143
1.0
 70
   688
 72
     0
 73
     0
 74
     5
  7
LIN.ctb
 75
    16
147
1.0
 76
     0
 77
     2
 78
   300
148
0.0
149
0.0
100
AcDbLayout
  1
ｰtｸm1
 70
     1
 71
     1
 10
0.0
 20
0.0
 11
420.0
 21
297.0
 12
0.0
 22
0.0
 32
0.0
 14
1.000000000000000E+20
 24
1.000000000000000E+20
 34
1.000000000000000E+20
 15
-1.000000000000000E+20
 25
-1.000000000000000E+20
 35
-1.000000000000000E+20
146
0.0
 13
0.0
 23
0.0
 33
0.0
 16
1.0
 26
0.0
 36
0.0
 17
0.0
 27
1.0
 37
0.0
 76
     0
330
15
  0
MLINESTYLE
  5
1C
102
{ACAD_REACTORS
330
1B
102
}
330
1B
100
AcDbMlineStyle
  2
STANDARD
 70
     0
  3

 62
   256
 51
90.0
 52
90.0
 71
     2
 49
0.5
 62
   256
  6
BYLAYER
 49
-0.5
 62
   256
  6
BYLAYER
  0
ACDBPLACEHOLDER
  5
5CF2
102
{ACAD_REACTORS
330
5CF1
102
}
330
5CF1
  0
TABLESTYLE
  5
7875
102
{ACAD_REACTORS
330
7874
102
}
330
7874
100
AcDbTableStyle
  3
Standard
 70
     0
 71
     8
 40
1.5
 41
1.5
280
     0
281
     0
  7
STANDARD
140
4.5
170
     2
 62
     0
 63
     7
283
     0
274
    -2
284
     1
 64
     0
275
    -2
285
     1
 65
     0
276
    -2
286
     1
 66
     0
277
    -2
287
     1
 67
     0
278
    -2
288
     1
 68
     0
279
    -2
289
     1
 69
     0
  7
STANDARD
140
6.0
170
     5
 62
     0
 63
     7
283
     0
274
    -2
284
     1
 64
     0
275
    -2
285
     1
 65
     0
276
    -2
286
     1
 66
     0
277
    -2
287
     1
 67
     0
278
    -2
288
     1
 68
     0
279
    -2
289
     1
 69
     0
  7
STANDARD
140
4.5
170
     5
 62
     0
 63
     7
283
     0
274
    -2
284
     1
 64
     0
275
    -2
285
     1
 65
     0
276
    -2
286
     1
 66
     0
277
    -2
287
     1
 67
     0
278
    -2
288
     1
 68
     0
279
    -2
289
     1
 69
     0
  0
DICTIONARYVAR
  5
7880
102
{ACAD_REACTORS
330
45D
102
}
330
45D
100
DictionaryVariables
280
     0
  1
STANDARD
  0
DICTIONARYVAR
  5
45E
102
{ACAD_REACTORS
330
45D
102
}
330
45D
100
DictionaryVariables
280
     0
  1
127
  0
XRECORD
  5
7C0D
102
{ACAD_REACTORS
330
7C0C
102
}
330
7C0C
100
AcDbXrecord
280
     1
1070
     0
1070
     1
1070
     1
  0
XRECORD
  5
8E75
102
{ACAD_REACTORS
330
8E74
102
}
330
8E74
100
AcDbXrecord
280
     1
1070
     0
1070
     1
1070
     1
  0
XRECORD
  5
9D18
102
{ACAD_REACTORS
330
9D17
102
}
330
9D17
100
AcDbXrecord
280
     1
1070
     0
1070
     1
1070
     1
  0
XRECORD
  5
A51B
102
{ACAD_REACTORS
330
A51A
102
}
330
A51A
100
AcDbXrecord
280
     1
1070
     0
1070
     1
1070
     1
  0
XRECORD
  5
A62A
102
{ACAD_REACTORS
330
A629
102
}
330
A629
100
AcDbXrecord
280
     1
1070
     0
1070
     1
1070
     1
  0
XRECORD
  5
DEFA
102
{ACAD_REACTORS
330
DEF9
102
}
330
DEF9
100
AcDbXrecord
280
     1
1070
     0
1070
     1
1070
     1
  0
ENDSEC
  0
EOF
