  0
SECTION
  2
HEADER
  9
$ACADVER
  1
AC1018
  9
$ACADMAINTVER
 70
    76
  9
$DWGCODEPAGE
  3
ANSI_932
  9
$INSBASE
 10
0.0
 20
0.0
 30
0.0
  9
$EXTMIN
 10
210.006196569778
 20
73.8811280034474
 30
0.0
  9
$EXTMAX
 10
309.006196569778
 20
218.8811280034475
 30
2.0
  9
$LIMMIN
 10
0.0
 20
0.0
  9
$LIMMAX
 10
420.0
 20
297.0
  9
$ORTHOMODE
 70
     0
  9
$REGENMODE
 70
     1
  9
$FILLMODE
 70
     1
  9
$QTEXTMODE
 70
     0
  9
$MIRRTEXT
 70
     1
  9
$LTSCALE
 40
1.0
  9
$ATTMODE
 70
     1
  9
$TEXTSIZE
 40
2.5
  9
$TRACEWID
 40
1.0
  9
$TEXTSTYLE
  7
TXT
  9
$CLAYER
  8
DIM
  9
$CELTYPE
  6
BYLAYER
  9
$CECOLOR
 62
   256
  9
$CELTSCALE
 40
1.0
  9
$DISPSILH
 70
     0
  9
$DIMSCALE
 40
1.0
  9
$DIMASZ
 40
1.25
  9
$DIMEXO
 40
1.0
  9
$DIMDLI
 40
6.0
  9
$DIMRND
 40
0.0
  9
$DIMDLE
 40
0.0
  9
$DIMEXE
 40
1.0
  9
$DIMTP
 40
0.0
  9
$DIMTM
 40
0.0
  9
$DIMTXT
 40
1.75
  9
$DIMCEN
 40
0.0
  9
$DIMTSZ
 40
0.0
  9
$DIMTOL
 70
     0
  9
$DIMLIM
 70
     0
  9
$DIMTIH
 70
     0
  9
$DIMTOH
 70
     0
  9
$DIMSE1
 70
     0
  9
$DIMSE2
 70
     0
  9
$DIMTAD
 70
     3
  9
$DIMZIN
 70
     8
  9
$DIMBLK
  1

  9
$DIMASO
 70
     1
  9
$DIMSHO
 70
     1
  9
$DIMPOST
  1

  9
$DIMAPOST
  1

  9
$DIMALT
 70
     0
  9
$DIMALTD
 70
     2
  9
$DIMALTF
 40
25.4
  9
$DIMLFAC
 40
1.0
  9
$DIMTOFL
 70
     0
  9
$DIMTVP
 40
0.0
  9
$DIMTIX
 70
     0
  9
$DIMSOXD
 70
     0
  9
$DIMSAH
 70
     0
  9
$DIMBLK1
  1

  9
$DIMBLK2
  1

  9
$DIMSTYLE
  2
A
  9
$DIMCLRD
 70
     6
  9
$DIMCLRE
 70
     6
  9
$DIMCLRT
 70
     3
  9
$DIMTFAC
 40
1.0
  9
$DIMGAP
 40
0.5
  9
$DIMJUST
 70
     0
  9
$DIMSD1
 70
     0
  9
$DIMSD2
 70
     0
  9
$DIMTOLJ
 70
     1
  9
$DIMTZIN
 70
     0
  9
$DIMALTZ
 70
     0
  9
$DIMALTTZ
 70
     0
  9
$DIMUPT
 70
     0
  9
$DIMDEC
 70
     1
  9
$DIMTDEC
 70
     1
  9
$DIMALTU
 70
     2
  9
$DIMALTTD
 70
     2
  9
$DIMTXSTY
  7
TXT
  9
$DIMAUNIT
 70
     0
  9
$DIMADEC
 70
     0
  9
$DIMALTRND
 40
0.0
  9
$DIMAZIN
 70
     0
  9
$DIMDSEP
 70
    46
  9
$DIMATFIT
 70
     3
  9
$DIMFRAC
 70
     0
  9
$DIMLDRBLK
  1

  9
$DIMLUNIT
 70
     2
  9
$DIMLWD
 70
    -2
  9
$DIMLWE
 70
    -2
  9
$DIMTMOVE
 70
     1
  9
$LUNITS
 70
     2
  9
$LUPREC
 70
     2
  9
$SKETCHINC
 40
1.0
  9
$FILLETRAD
 40
1.5
  9
$AUNITS
 70
     0
  9
$AUPREC
 70
     2
  9
$MENU
  1
.
  9
$ELEVATION
 40
0.0
  9
$PELEVATION
 40
0.0
  9
$THICKNESS
 40
0.0
  9
$LIMCHECK
 70
     0
  9
$CHAMFERA
 40
1.75
  9
$CHAMFERB
 40
1.75
  9
$CHAMFERC
 40
1.75
  9
$CHAMFERD
 40
0.0174532925199433
  9
$SKPOLY
 70
     0
  9
$TDCREATE
 40
2451555.620234838
  9
$TDUCREATE
 40
2451555.245234838
  9
$TDUPDATE
 40
2455846.585325255
  9
$TDUUPDATE
 40
2455846.210325255
  9
$TDINDWG
 40
2.1763496065
  9
$TDUSRTIMER
 40
2.1763496065
  9
$USRTIMER
 70
     1
  9
$ANGBASE
 50
0.0
  9
$ANGDIR
 70
     0
  9
$PDMODE
 70
     0
  9
$PDSIZE
 40
0.0
  9
$PLINEWID
 40
0.0
  9
$SPLFRAME
 70
     0
  9
$SPLINETYPE
 70
     6
  9
$SPLINESEGS
 70
     8
  9
$HANDSEED
  5
6ED1
  9
$SURFTAB1
 70
     6
  9
$SURFTAB2
 70
     6
  9
$SURFTYPE
 70
     6
  9
$SURFU
 70
     6
  9
$SURFV
 70
     6
  9
$UCSBASE
  2

  9
$UCSNAME
  2

  9
$UCSORG
 10
0.0
 20
0.0
 30
0.0
  9
$UCSXDIR
 10
1.0
 20
0.0
 30
0.0
  9
$UCSYDIR
 10
0.0
 20
1.0
 30
0.0
  9
$UCSORTHOREF
  2

  9
$UCSORTHOVIEW
 70
     0
  9
$UCSORGTOP
 10
0.0
 20
0.0
 30
0.0
  9
$UCSORGBOTTOM
 10
0.0
 20
0.0
 30
0.0
  9
$UCSORGLEFT
 10
0.0
 20
0.0
 30
0.0
  9
$UCSORGRIGHT
 10
0.0
 20
0.0
 30
0.0
  9
$UCSORGFRONT
 10
0.0
 20
0.0
 30
0.0
  9
$UCSORGBACK
 10
0.0
 20
0.0
 30
0.0
  9
$PUCSBASE
  2

  9
$PUCSNAME
  2

  9
$PUCSORG
 10
0.0
 20
0.0
 30
0.0
  9
$PUCSXDIR
 10
1.0
 20
0.0
 30
0.0
  9
$PUCSYDIR
 10
0.0
 20
1.0
 30
0.0
  9
$PUCSORTHOREF
  2

  9
$PUCSORTHOVIEW
 70
     0
  9
$PUCSORGTOP
 10
0.0
 20
0.0
 30
0.0
  9
$PUCSORGBOTTOM
 10
0.0
 20
0.0
 30
0.0
  9
$PUCSORGLEFT
 10
0.0
 20
0.0
 30
0.0
  9
$PUCSORGRIGHT
 10
0.0
 20
0.0
 30
0.0
  9
$PUCSORGFRONT
 10
0.0
 20
0.0
 30
0.0
  9
$PUCSORGBACK
 10
0.0
 20
0.0
 30
0.0
  9
$USERI1
 70
     0
  9
$USERI2
 70
     0
  9
$USERI3
 70
     0
  9
$USERI4
 70
     0
  9
$USERI5
 70
     0
  9
$USERR1
 40
0.0
  9
$USERR2
 40
0.0
  9
$USERR3
 40
0.0
  9
$USERR4
 40
0.0
  9
$USERR5
 40
0.0
  9
$WORLDVIEW
 70
     1
  9
$SHADEDGE
 70
     3
  9
$SHADEDIF
 70
    70
  9
$TILEMODE
 70
     1
  9
$MAXACTVP
 70
    48
  9
$PINSBASE
 10
0.0
 20
0.0
 30
0.0
  9
$PLIMCHECK
 70
     0
  9
$PEXTMIN
 10
1.000000000000000E+20
 20
1.000000000000000E+20
 30
1.000000000000000E+20
  9
$PEXTMAX
 10
-1.000000000000000E+20
 20
-1.000000000000000E+20
 30
-1.000000000000000E+20
  9
$PLIMMIN
 10
0.0
 20
0.0
  9
$PLIMMAX
 10
420.0
 20
297.0
  9
$UNITMODE
 70
     0
  9
$VISRETAIN
 70
     1
  9
$PLINEGEN
 70
     0
  9
$PSLTSCALE
 70
     1
  9
$TREEDEPTH
 70
  3020
  9
$CMLSTYLE
  2
STANDARD
  9
$CMLJUST
 70
     0
  9
$CMLSCALE
 40
20.0
  9
$PROXYGRAPHICS
 70
     1
  9
$MEASUREMENT
 70
     1
  9
$CELWEIGHT
370
    -1
  9
$ENDCAPS
280
     0
  9
$JOINSTYLE
280
     0
  9
$LWDISPLAY
290
     0
  9
$INSUNITS
 70
     0
  9
$HYPERLINKBASE
  1

  9
$STYLESHEET
  1

  9
$XEDIT
290
     1
  9
$CEPSNTYPE
380
     0
  9
$PSTYLEMODE
290
     1
  9
$FINGERPRINTGUID
  2
{1CF51E8A-A506-11D4-A7D9-AF69F5C20846}
  9
$VERSIONGUID
  2
{F52D6337-A4FD-4FCA-94EA-5F9DAC5F1073}
  9
$EXTNAMES
290
     1
  9
$PSVPSCALE
 40
0.0
  9
$OLESTARTUP
290
     0
  9
$SORTENTS
280
   127
  9
$INDEXCTL
280
     0
  9
$HIDETEXT
280
     0
  9
$XCLIPFRAME
290
     0
  9
$HALOGAP
280
     0
  9
$OBSCOLOR
 70
   257
  9
$OBSLTYPE
280
     0
  9
$INTERSECTIONDISPLAY
280
     0
  9
$INTERSECTIONCOLOR
 70
   257
  9
$DIMASSOC
280
     1
  9
$PROJECTNAME
  1

  0
ENDSEC
  0
SECTION
  2
CLASSES
  0
CLASS
  1
DICTIONARYVAR
  2
AcDbDictionaryVar
  3
ObjectDBX Classes
 90
        0
 91
        2
280
     0
281
     0
  0
CLASS
  1
SORTENTSTABLE
  2
AcDbSortentsTable
  3
ObjectDBX Classes
 90
        0
 91
        1
280
     0
281
     0
  0
CLASS
  1
ACDBDICTIONARYWDFLT
  2
AcDbDictionaryWithDefault
  3
ObjectDBX Classes
 90
        0
 91
        1
280
     0
281
     0
  0
CLASS
  1
TABLESTYLE
  2
AcDbTableStyle
  3
ObjectDBX Classes
 90
     2047
 91
        1
280
     0
281
     0
  0
ENDSEC
  0
SECTION
  2
TABLES
  0
TABLE
  2
VPORT
  5
8
330
0
100
AcDbSymbolTable
 70
     2
  0
VPORT
  5
6ED0
330
8
100
AcDbSymbolTableRecord
100
AcDbViewportTableRecord
  2
*Active
 70
     0
 10
0.0
 20
0.0
 11
1.0
 21
1.0
 12
305.2200206943725
 22
148.7914027644185
 13
0.0
 23
0.0
 14
10.0
 24
10.0
 15
10.0
 25
10.0
 16
0.0
 26
0.0
 36
1.0
 17
0.0
 27
0.0
 37
0.0
 40
156.0296602467237
 41
2.47104247104247
 42
50.0
 43
0.0
 44
0.0
 50
0.0
 51
0.0
 71
     0
 72
   100
 73
     1
 74
     1
 75
     0
 76
     0
 77
     0
 78
     0
281
     0
 65
     1
110
0.0
120
0.0
130
0.0
111
1.0
121
0.0
131
0.0
112
0.0
122
1.0
132
0.0
 79
     0
146
0.0
  0
ENDTAB
  0
TABLE
  2
LTYPE
  5
5
330
0
100
AcDbSymbolTable
 70
     9
  0
LTYPE
  5
12
330
5
100
AcDbSymbolTableRecord
100
AcDbLinetypeTableRecord
  2
BYBLOCK
 70
     0
  3

 72
    65
 73
     0
 40
0.0
  0
LTYPE
  5
13
330
5
100
AcDbSymbolTableRecord
100
AcDbLinetypeTableRecord
  2
BYLAYER
 70
     0
  3

 72
    65
 73
     0
 40
0.0
  0
LTYPE
  5
14
330
5
100
AcDbSymbolTableRecord
100
AcDbLinetypeTableRecord
  2
CONTINUOUS
 70
     0
  3
Solid line
 72
    65
 73
     0
 40
0.0
  0
LTYPE
  5
9D
330
5
100
AcDbSymbolTableRecord
100
AcDbLinetypeTableRecord
  2
CENTERX2
 70
     0
  3
Center (2x) ________  __  ________  __  _____
 72
    65
 73
     4
 40
101.6
 49
63.5
 74
     0
 49
-12.7
 74
     0
 49
12.7
 74
     0
 49
-12.7
 74
     0
  0
LTYPE
  5
A1
330
5
100
AcDbSymbolTableRecord
100
AcDbLinetypeTableRecord
  2
DASHED
 70
     0
  3
Dashed __ __ __ __ __ __ __ __ __ __ __ __ __ _
 72
    65
 73
     2
 40
19.05
 49
12.7
 74
     0
 49
-6.349999999999999
 74
     0
  0
LTYPE
  5
A2
330
5
100
AcDbSymbolTableRecord
100
AcDbLinetypeTableRecord
  2
DASHED2
 70
     0
  3
Dashed (.5x) _ _ _ _ _ _ _ _ _ _ _ _ _ _ _ _ _
 72
    65
 73
     2
 40
9.524999999999998
 49
6.349999999999999
 74
     0
 49
-3.174999999999999
 74
     0
  0
LTYPE
  5
A5
330
5
100
AcDbSymbolTableRecord
100
AcDbLinetypeTableRecord
  2
DIVIDE2
 70
     0
  3
Divide (.5x) __..__..__..__..__..__..__..__.._
 72
    65
 73
     6
 40
15.875
 49
6.349999999999999
 74
     0
 49
-3.174999999999999
 74
     0
 49
0.0
 74
     0
 49
-3.174999999999999
 74
     0
 49
0.0
 74
     0
 49
-3.174999999999999
 74
     0
  0
LTYPE
  5
650B
330
5
100
AcDbSymbolTableRecord
100
AcDbLinetypeTableRecord
  2
CENTER
 70
     0
  3
Center ____ _ ____ _ ____ _ ____ _ ____ _ ____
 72
    65
 73
     4
 40
50.8
 49
31.75
 74
     0
 49
-6.349999999999999
 74
     0
 49
6.349999999999999
 74
     0
 49
-6.349999999999999
 74
     0
  0
LTYPE
  5
650C
330
5
100
AcDbSymbolTableRecord
100
AcDbLinetypeTableRecord
  2
HIDDEN
 70
     0
  3
Hidden __ __ __ __ __ __ __ __ __ __ __ __ __ _
 72
    65
 73
     2
 40
9.524999999999998
 49
6.349999999999999
 74
     0
 49
-3.174999999999999
 74
     0
  0
LTYPE
  5
6684
330
5
100
AcDbSymbolTableRecord
100
AcDbLinetypeTableRecord
  2
HIDDEN2
 70
     0
  3
Hidden (.5x) _ _ _ _ _ _ _ _ _ _ _ _ _ _ _ _ _
 72
    65
 73
     2
 40
4.762499999999999
 49
3.174999999999999
 74
     0
 49
-1.587499999999999
 74
     0
  0
LTYPE
  5
6AF9
330
5
100
AcDbSymbolTableRecord
100
AcDbLinetypeTableRecord
  2
ACAD_ISO03W100
 70
     0
  3
ISO dash space __    __    __    __    __    __
 72
    65
 73
     2
 40
30.0
 49
12.0
 74
     0
 49
-18.0
 74
     0
  0
ENDTAB
  0
TABLE
  2
LAYER
  5
2
330
0
100
AcDbSymbolTable
 70
    10
  0
LAYER
  5
E
330
2
100
AcDbSymbolTableRecord
100
AcDbLayerTableRecord
  2
0
 70
     0
 62
     7
  6
CONTINUOUS
370
    -3
390
5CF2
  0
LAYER
  5
B9
330
2
100
AcDbSymbolTableRecord
100
AcDbLayerTableRecord
  2
DIM
 70
     0
 62
     3
  6
CONTINUOUS
370
    -3
390
5CF2
  0
LAYER
  5
F2
330
2
100
AcDbSymbolTableRecord
100
AcDbLayerTableRecord
  2
DEFPOINTS
 70
     0
 62
     7
  6
CONTINUOUS
290
     0
370
    -3
390
5CF2
  0
LAYER
  5
5F8B
330
2
100
AcDbSymbolTableRecord
100
AcDbLayerTableRecord
  2
公差
 70
     0
 62
     6
  6
CONTINUOUS
370
    -3
390
5CF2
  0
LAYER
  5
644E
330
2
100
AcDbSymbolTableRecord
100
AcDbLayerTableRecord
  2
図框線
 70
     0
 62
     9
  6
CONTINUOUS
370
    -3
390
5CF2
  0
LAYER
  5
650D
330
2
100
AcDbSymbolTableRecord
100
AcDbLayerTableRecord
  2
中心線
 70
     0
 62
     1
  6
CENTER
370
    -3
390
5CF2
  0
LAYER
  5
650E
330
2
100
AcDbSymbolTableRecord
100
AcDbLayerTableRecord
  2
本体内線
 70
     0
 62
     4
  6
HIDDEN
370
    -3
390
5CF2
  0
LAYER
  5
650F
330
2
100
AcDbSymbolTableRecord
100
AcDbLayerTableRecord
  2
本体外線
 70
     0
 62
     2
  6
CONTINUOUS
370
    -3
390
5CF2
  0
LAYER
  5
6510
330
2
100
AcDbSymbolTableRecord
100
AcDbLayerTableRecord
  2
剖面線
 70
     0
 62
     5
  6
CONTINUOUS
370
    -3
390
5CF2
  0
LAYER
  5
6AFA
330
2
100
AcDbSymbolTableRecord
100
AcDbLayerTableRecord
  2
A
 70
     0
 62
     4
  6
ACAD_ISO03W100
370
    -3
390
5CF2
  0
ENDTAB
  0
TABLE
  2
STYLE
  5
3
330
0
100
AcDbSymbolTable
 70
     5
  0
STYLE
  5
F
330
3
100
AcDbSymbolTableRecord
100
AcDbTextStyleTableRecord
  2
STANDARD
 70
     0
 40
0.0
 41
1.0
 50
0.0
 71
     0
 42
2.5
  3
txt
  4

  0
STYLE
  5
BE
330
3
100
AcDbSymbolTableRecord
100
AcDbTextStyleTableRecord
  2
ISOCP3
 70
     0
 40
0.0
 41
1.0
 50
0.0
 71
     0
 42
2.5
  3
isocp3.shx
  4

  0
STYLE
  5
2A37
330
3
100
AcDbSymbolTableRecord
100
AcDbTextStyleTableRecord
  2
TXT
 70
     0
 40
0.0
 41
1.0
 50
0.0
 71
     0
 42
2.5
  3
txt.shx
  4
bigfont.shx
  0
STYLE
  5
5DCB
330
3
100
AcDbSymbolTableRecord
100
AcDbTextStyleTableRecord
  2
LKK
 70
     0
 40
50.0
 41
1.5
 50
0.0
 71
     0
 42
50.0
  3
MS PGothic.ttf
  4

1001
ACAD
1000
MS PGothic
1071
    32818
  0
STYLE
  5
5DCC
330
3
100
AcDbSymbolTableRecord
100
AcDbTextStyleTableRecord
  2
JL
 70
     0
 40
10.0
 41
0.5
 50
0.0
 71
     0
 42
5.0
  3
MS Mincho.ttf
  4

1001
ACAD
1000
MS Mincho
1071
    32785
  0
ENDTAB
  0
TABLE
  2
VIEW
  5
6
330
0
100
AcDbSymbolTable
 70
     0
  0
ENDTAB
  0
TABLE
  2
UCS
  5
7
330
0
100
AcDbSymbolTable
 70
     0
  0
ENDTAB
  0
TABLE
  2
APPID
  5
9
330
0
100
AcDbSymbolTable
 70
     1
  0
APPID
  5
10
330
9
100
AcDbSymbolTableRecord
100
AcDbRegAppTableRecord
  2
ACAD
 70
     0
  0
ENDTAB
  0
TABLE
  2
DIMSTYLE
  5
A
330
0
100
AcDbSymbolTable
 70
     3
100
AcDbDimStyleTable
 71
     0
  0
DIMSTYLE
105
1D
330
A
100
AcDbSymbolTableRecord
100
AcDbDimStyleTableRecord
  2
STANDARD
 70
     0
 41
3.0
 42
0.06
 77
     3
140
4.0
144
0.3333333333333333
172
     1
340
F
  0
DIMSTYLE
105
1A4
102
{ACAD_REACTORS
330
675D
330
678A
330
68F8
330
6947
330
6A66
330
6D0F
330
6D35
330
6D4D
102
}
330
A
100
AcDbSymbolTableRecord
100
AcDbDimStyleTableRecord
  2
A
 70
     0
 41
1.25
 42
1.0
 43
6.0
 44
1.0
 73
     0
 74
     0
 77
     3
 78
     8
140
1.75
141
0.0
147
0.5
176
     6
177
     6
178
     3
271
     1
272
     1
279
     1
340
2A37
  0
DIMSTYLE
105
6006
330
A
100
AcDbSymbolTableRecord
100
AcDbDimStyleTableRecord
  2
ISO-25
 70
     0
 40
0.0
 41
2.0
 42
0.3
 43
1.0
 44
0.3
 73
     0
 74
     0
 77
     1
 78
     8
140
3.0
147
1.0
172
     1
176
     6
177
     6
178
     3
271
     1
272
     2
284
     8
288
     1
289
     2
340
F
  0
ENDTAB
  0
TABLE
  2
BLOCK_RECORD
  5
1
330
0
100
AcDbSymbolTable
 70
     9
  0
BLOCK_RECORD
  5
18
102
{ACAD_XDICTIONARY
360
45F
102
}
330
1
100
AcDbSymbolTableRecord
100
AcDbBlockTableRecord
  2
*MODEL_SPACE
340
5CF5
  0
BLOCK_RECORD
  5
15
102
{ACAD_XDICTIONARY
360
5D89
102
}
330
1
100
AcDbSymbolTableRecord
100
AcDbBlockTableRecord
  2
*PAPER_SPACE
340
5CF6
  0
BLOCK_RECORD
  5
639D
330
1
100
AcDbSymbolTableRecord
100
AcDbBlockTableRecord
  2
A$C255C26A2
340
0
102
{BLKREFS
331
63A3
102
}
  0
BLOCK_RECORD
  5
67B1
330
1
100
AcDbSymbolTableRecord
100
AcDbBlockTableRecord
  2
*D1
340
0
  0
BLOCK_RECORD
  5
67DE
330
1
100
AcDbSymbolTableRecord
100
AcDbBlockTableRecord
  2
*D2
340
0
  0
BLOCK_RECORD
  5
68F0
330
1
100
AcDbSymbolTableRecord
100
AcDbBlockTableRecord
  2
*D3
340
0
  0
BLOCK_RECORD
  5
6937
330
1
100
AcDbSymbolTableRecord
100
AcDbBlockTableRecord
  2
*D4
340
0
  0
BLOCK_RECORD
  5
6A5A
330
1
100
AcDbSymbolTableRecord
100
AcDbBlockTableRecord
  2
*D5
340
0
  0
BLOCK_RECORD
  5
6D03
330
1
100
AcDbSymbolTableRecord
100
AcDbBlockTableRecord
  2
*D6
340
0
  0
BLOCK_RECORD
  5
6D29
330
1
100
AcDbSymbolTableRecord
100
AcDbBlockTableRecord
  2
*D7
340
0
  0
BLOCK_RECORD
  5
6D41
330
1
100
AcDbSymbolTableRecord
100
AcDbBlockTableRecord
  2
*D8
340
0
  0
ENDTAB
  0
ENDSEC
  0
SECTION
  2
BLOCKS
  0
BLOCK
  5
19
330
18
100
AcDbEntity
  8
0
100
AcDbBlockBegin
  2
*MODEL_SPACE
 70
     0
 10
0.0
 20
0.0
 30
0.0
  3
*MODEL_SPACE
  1

  0
ENDBLK
  5
1A
330
18
100
AcDbEntity
  8
0
100
AcDbBlockEnd
  0
BLOCK
  5
16
330
15
100
AcDbEntity
 67
     1
  8
0
100
AcDbBlockBegin
  2
*PAPER_SPACE
 70
     0
 10
0.0
 20
0.0
 30
0.0
  3
*PAPER_SPACE
  1

  0
ENDBLK
  5
17
330
15
100
AcDbEntity
 67
     1
  8
0
100
AcDbBlockEnd
  0
BLOCK
  5
63A1
330
639D
100
AcDbEntity
  8
0
100
AcDbBlockBegin
  2
A$C255C26A2
 70
     0
 10
0.0
 20
0.0
 30
0.0
  3
A$C255C26A2
  1

  0
LWPOLYLINE
  5
639E
330
639D
100
AcDbEntity
  8
0
100
AcDbPolyline
 90
        3
 70
     1
 43
0.0
 10
7.014806023851633
 20
0.0000006939811783
 10
5.611844869720698
 20
2.430000693981241
 10
8.417767177982568
 20
2.430000693981241
  0
LWPOLYLINE
  5
639F
330
639D
100
AcDbEntity
  8
0
100
AcDbPolyline
 90
        3
 70
     1
 43
0.0
 10
4.20888371558999
 20
0.0000006939811783
 10
2.805922561459283
 20
2.430000693981241
 10
5.611844869720698
 20
2.430000693981241
  0
LWPOLYLINE
  5
63A0
330
639D
100
AcDbEntity
  8
0
100
AcDbPolyline
 90
        3
 70
     1
 43
0.0
 10
1.402961407328348
 20
0.0000006939811783
 10
0.0000002531974133
 20
2.430000693981241
 10
2.805922561459283
 20
2.430000693981241
  0
ENDBLK
  5
63A2
330
639D
100
AcDbEntity
  8
0
100
AcDbBlockEnd
  0
BLOCK
  5
6E6E
330
67B1
100
AcDbEntity
  8
0
100
AcDbBlockBegin
  2
*D1
 70
     1
 10
0.0
 20
0.0
 30
0.0
  3
*D1
  1

  0
LINE
  5
6E6F
330
67B1
100
AcDbEntity
  8
0
  6
ByBlock
 62
     6
100
AcDbLine
 10
245.4692616688942
 20
137.7186306718275
 30
0.0
 11
237.9252678735503
 21
137.7186306718275
 31
0.0
  0
LINE
  5
6E70
330
67B1
100
AcDbEntity
  8
0
  6
ByBlock
 62
     6
100
AcDbLine
 10
246.9692616688942
 20
138.2186306718274
 30
0.0
 11
237.9252678735503
 21
138.2186306718274
 31
0.0
  0
LINE
  5
6E71
330
67B1
100
AcDbEntity
  8
0
  6
ByBlock
 62
     6
100
AcDbLine
 10
238.9252678735504
 20
136.4686306718275
 30
0.0
 11
238.9252678735504
 21
135.2186306718275
 31
0.0
  0
LINE
  5
6E72
330
67B1
100
AcDbEntity
  8
0
  6
ByBlock
 62
     6
100
AcDbLine
 10
238.9252678735504
 20
139.4686306718274
 30
0.0
 11
238.9252678735504
 21
140.7186306718275
 31
0.0
  0
LINE
  5
6E73
330
67B1
100
AcDbEntity
  8
0
  6
ByBlock
 62
     6
100
AcDbLine
 10
238.9252678735504
 20
145.2104119833008
 30
0.0
 11
238.9252678735504
 21
138.2186306718274
 31
0.0
  0
MTEXT
  5
6E74
330
67B1
100
AcDbEntity
  8
0
  6
ByBlock
 62
     3
100
AcDbMText
 10
237.5502678735504
 20
143.1062453166342
 30
0.0
 40
1.75
 41
0.0
 71
     5
 72
     1
  1
\A1;0.5
  7
TXT
 11
0.0000000000000001
 21
1.0
 31
0.0
 73
     1
 44
1.0
  0
LINE
  5
6E75
330
67B1
100
AcDbEntity
  8
0
  6
ByBlock
 62
     6
100
AcDbLine
 10
238.9252678735504
 20
137.7186306718275
 30
0.0
 11
238.9252678735504
 21
138.2186306718274
 31
0.0
  0
SOLID
  5
6E76
330
67B1
100
AcDbEntity
  8
0
  6
ByBlock
 62
     6
100
AcDbTrace
 10
238.716934540217
 20
136.4686306718275
 30
0.0
 11
239.1336012068837
 21
136.4686306718275
 31
0.0
 12
238.9252678735504
 22
137.7186306718275
 32
0.0
 13
238.9252678735504
 23
137.7186306718275
 33
0.0
  0
SOLID
  5
6E77
330
67B1
100
AcDbEntity
  8
0
  6
ByBlock
 62
     6
100
AcDbTrace
 10
238.716934540217
 20
139.4686306718274
 30
0.0
 11
239.1336012068837
 21
139.4686306718274
 31
0.0
 12
238.9252678735504
 22
138.2186306718274
 32
0.0
 13
238.9252678735504
 23
138.2186306718274
 33
0.0
  0
POINT
  5
6E78
330
67B1
100
AcDbEntity
  8
DEFPOINTS
  6
ByBlock
 62
     0
100
AcDbPoint
 10
246.4692616688942
 20
137.7186306718275
 30
0.0
  0
POINT
  5
6E79
330
67B1
100
AcDbEntity
  8
DEFPOINTS
  6
ByBlock
 62
     0
100
AcDbPoint
 10
247.9692616688942
 20
138.2186306718274
 30
0.0
  0
POINT
  5
6E7A
330
67B1
100
AcDbEntity
  8
DEFPOINTS
  6
ByBlock
 62
     0
100
AcDbPoint
 10
238.9252678735504
 20
138.2186306718274
 30
0.0
  0
ENDBLK
  5
6E7B
330
67B1
100
AcDbEntity
  8
0
100
AcDbBlockEnd
  0
BLOCK
  5
6E56
330
67DE
100
AcDbEntity
  8
0
100
AcDbBlockBegin
  2
*D2
 70
     1
 10
0.0
 20
0.0
 30
0.0
  3
*D2
  1

  0
LINE
  5
6E57
330
67DE
100
AcDbEntity
  8
0
  6
ByBlock
 62
     6
100
AcDbLine
 10
245.5551419942448
 20
178.5493377215064
 30
0.0
 11
245.5551419942448
 21
162.8504955965984
 31
0.0
  0
LINE
  5
6E58
330
67DE
100
AcDbEntity
  8
0
  6
ByBlock
 62
     6
100
AcDbLine
 10
247.5592616688942
 20
178.5493377215064
 30
0.0
 11
247.5592616688942
 21
162.8504955965984
 31
0.0
  0
LINE
  5
6E59
330
67DE
100
AcDbEntity
  8
0
  6
ByBlock
 62
     6
100
AcDbLine
 10
244.3051419942448
 20
163.8504955965984
 30
0.0
 11
243.0551419942448
 21
163.8504955965984
 31
0.0
  0
LINE
  5
6E5A
330
67DE
100
AcDbEntity
  8
0
  6
ByBlock
 62
     6
100
AcDbLine
 10
248.8092616688942
 20
163.8504955965984
 30
0.0
 11
250.0592616688942
 21
163.8504955965984
 31
0.0
  0
MTEXT
  5
6E5B
330
67DE
100
AcDbEntity
  8
0
  6
ByBlock
 62
     3
100
AcDbMText
 10
246.5572018315695
 20
165.2254955965984
 30
0.0
 40
1.75
 41
0.0
 71
     5
 72
     1
  1
\A1;2
  7
TXT
 73
     1
 44
1.0
  0
LINE
  5
6E5C
330
67DE
100
AcDbEntity
  8
0
  6
ByBlock
 62
     6
100
AcDbLine
 10
245.5551419942448
 20
163.8504955965984
 30
0.0
 11
247.5592616688942
 21
163.8504955965984
 31
0.0
  0
SOLID
  5
6E5D
330
67DE
100
AcDbEntity
  8
0
  6
ByBlock
 62
     6
100
AcDbTrace
 10
244.3051419942448
 20
164.0588289299318
 30
0.0
 11
244.3051419942448
 21
163.6421622632651
 31
0.0
 12
245.5551419942448
 22
163.8504955965984
 32
0.0
 13
245.5551419942448
 23
163.8504955965984
 33
0.0
  0
SOLID
  5
6E5E
330
67DE
100
AcDbEntity
  8
0
  6
ByBlock
 62
     6
100
AcDbTrace
 10
248.8092616688942
 20
164.0588289299318
 30
0.0
 11
248.8092616688942
 21
163.6421622632651
 31
0.0
 12
247.5592616688942
 22
163.8504955965984
 32
0.0
 13
247.5592616688942
 23
163.8504955965984
 33
0.0
  0
POINT
  5
6E5F
330
67DE
100
AcDbEntity
  8
DEFPOINTS
  6
ByBlock
 62
     0
100
AcDbPoint
 10
245.5551419942448
 20
179.5493377215064
 30
0.0
  0
POINT
  5
6E60
330
67DE
100
AcDbEntity
  8
DEFPOINTS
  6
ByBlock
 62
     0
100
AcDbPoint
 10
247.5592616688942
 20
179.5493377215064
 30
0.0
  0
POINT
  5
6E61
330
67DE
100
AcDbEntity
  8
DEFPOINTS
  6
ByBlock
 62
     0
100
AcDbPoint
 10
247.5592616688942
 20
163.8504955965984
 30
0.0
  0
ENDBLK
  5
6E62
330
67DE
100
AcDbEntity
  8
0
100
AcDbBlockEnd
  0
BLOCK
  5
6DA9
330
68F0
100
AcDbEntity
  8
0
100
AcDbBlockBegin
  2
*D3
 70
     1
 10
0.0
 20
0.0
 30
0.0
  3
*D3
  1

  0
LINE
  5
6DAA
330
68F0
100
AcDbEntity
  8
0
  6
ByBlock
 62
     6
100
AcDbLine
 10
238.4933704987332
 20
123.4128957592086
 30
0.0
 11
245.8371040078072
 21
130.5635655283774
 31
0.0
  0
MTEXT
  5
6DAB
330
68F0
100
AcDbEntity
  8
0
  6
ByBlock
 62
     3
100
AcDbMText
 10
239.9820454798775
 20
126.7815873318561
 30
0.0
 40
1.75
 41
0.0
 71
     5
 72
     1
  1
\A1;2-R1
  7
TXT
 11
0.7164618057633065
 21
0.6976263189433024
 31
0.0
 73
     1
 44
1.0
  0
SOLID
  5
6DAC
330
68F0
100
AcDbEntity
  8
0
  6
ByBlock
 62
     6
100
AcDbTrace
 10
244.7961879341565
 20
129.840795505899
 30
0.0
 11
245.0868655670495
 21
129.5422697534976
 31
0.0
 12
245.8371040078072
 22
130.5635655283774
 32
0.0
 13
245.8371040078072
 23
130.5635655283774
 33
0.0
  0
POINT
  5
6DAD
330
68F0
100
AcDbEntity
  8
DEFPOINTS
  6
ByBlock
 62
     0
100
AcDbPoint
 10
245.8371040078072
 20
130.5635655283774
 30
0.0
  0
POINT
  5
6DAE
330
68F0
100
AcDbEntity
  8
DEFPOINTS
  6
ByBlock
 62
     0
100
AcDbPoint
 10
246.1057771849683
 20
130.8251753979812
 30
0.0
  0
ENDBLK
  5
6DAF
330
68F0
100
AcDbEntity
  8
0
100
AcDbBlockEnd
  0
BLOCK
  5
6E48
330
6937
100
AcDbEntity
  8
0
100
AcDbBlockBegin
  2
*D4
 70
     1
 10
0.0
 20
0.0
 30
0.0
  3
*D4
  1

  0
LINE
  5
6E49
330
6937
100
AcDbEntity
  8
0
  6
ByBlock
 62
     6
100
AcDbLine
 10
244.5551419942448
 20
182.5493377215064
 30
0.0
 11
237.2543850787689
 21
182.5493377215064
 31
0.0
  0
LINE
  5
6E4A
330
6937
100
AcDbEntity
  8
0
  6
ByBlock
 62
     6
100
AcDbLine
 10
244.5551419942448
 20
179.5493377215064
 30
0.0
 11
237.2543850787689
 21
179.5493377215064
 31
0.0
  0
LINE
  5
6E4B
330
6937
100
AcDbEntity
  8
0
  6
ByBlock
 62
     6
100
AcDbLine
 10
238.254385078769
 20
183.7993377215063
 30
0.0
 11
238.254385078769
 21
185.0493377215064
 31
0.0
  0
LINE
  5
6E4C
330
6937
100
AcDbEntity
  8
0
  6
ByBlock
 62
     6
100
AcDbLine
 10
238.254385078769
 20
178.2993377215064
 30
0.0
 11
238.254385078769
 21
177.0493377215064
 31
0.0
  0
MTEXT
  5
6E4D
330
6937
100
AcDbEntity
  8
0
  6
ByBlock
 62
     3
100
AcDbMText
 10
236.3863196170056
 20
188.5314089805192
 30
0.0
 40
1.75
 41
0.0
 71
     5
 72
     1
  1
\A1;3      (3等分)
  7
TXT
 11
0.0000000000000001
 21
1.0
 31
0.0
 73
     1
 44
1.0
  0
LINE
  5
6E4E
330
6937
100
AcDbEntity
  8
0
  6
ByBlock
 62
     6
100
AcDbLine
 10
238.254385078769
 20
182.5493377215064
 30
0.0
 11
238.254385078769
 21
179.5493377215064
 31
0.0
  0
SOLID
  5
6E4F
330
6937
100
AcDbEntity
  8
0
  6
ByBlock
 62
     6
100
AcDbTrace
 10
238.0460517454356
 20
183.7993377215063
 30
0.0
 11
238.4627184121023
 21
183.7993377215063
 31
0.0
 12
238.254385078769
 22
182.5493377215064
 32
0.0
 13
238.254385078769
 23
182.5493377215064
 33
0.0
  0
SOLID
  5
6E50
330
6937
100
AcDbEntity
  8
0
  6
ByBlock
 62
     6
100
AcDbTrace
 10
238.0460517454356
 20
178.2993377215064
 30
0.0
 11
238.4627184121023
 21
178.2993377215064
 31
0.0
 12
238.254385078769
 22
179.5493377215064
 32
0.0
 13
238.254385078769
 23
179.5493377215064
 33
0.0
  0
POINT
  5
6E51
330
6937
100
AcDbEntity
  8
DEFPOINTS
  6
ByBlock
 62
     0
100
AcDbPoint
 10
245.5551419942448
 20
182.5493377215064
 30
0.0
  0
POINT
  5
6E52
330
6937
100
AcDbEntity
  8
DEFPOINTS
  6
ByBlock
 62
     0
100
AcDbPoint
 10
245.5551419942448
 20
179.5493377215064
 30
0.0
  0
POINT
  5
6E53
330
6937
100
AcDbEntity
  8
DEFPOINTS
  6
ByBlock
 62
     0
100
AcDbPoint
 10
238.254385078769
 20
179.5493377215064
 30
0.0
  0
ENDBLK
  5
6E54
330
6937
100
AcDbEntity
  8
0
100
AcDbBlockEnd
  0
BLOCK
  5
6DBD
330
6A5A
100
AcDbEntity
  8
0
100
AcDbBlockBegin
  2
*D5
 70
     1
 10
0.0
 20
0.0
 30
0.0
  3
*D5
  1

  0
LINE
  5
6DBE
330
6A5A
100
AcDbEntity
  8
0
  6
ByBlock
 62
     6
100
AcDbLine
 10
267.9692616688943
 20
138.2129736645228
 30
0.0
 11
281.3048792305684
 21
138.2129736645228
 31
0.0
  0
LINE
  5
6DBF
330
6A5A
100
AcDbEntity
  8
0
  6
ByBlock
 62
     6
100
AcDbLine
 10
270.1949335080649
 20
130.2267394180871
 30
0.0
 11
281.3048792305684
 21
130.2267394180871
 31
0.0
  0
LINE
  5
6DC0
330
6A5A
100
AcDbEntity
  8
0
  6
ByBlock
 62
     6
100
AcDbLine
 10
280.3048792305684
 20
136.9629736645228
 30
0.0
 11
280.3048792305684
 21
131.4767394180871
 31
0.0
  0
MTEXT
  5
6DC1
330
6A5A
100
AcDbEntity
  8
0
  6
ByBlock
 62
     3
100
AcDbMText
 10
278.9298792305684
 20
134.2198565413049
 30
0.0
 40
1.75
 41
0.0
 71
     5
 72
     1
  1
\A1;8±0.2
  7
TXT
 11
0.0000000000000001
 21
1.0
 31
0.0
 73
     1
 44
1.0
  0
SOLID
  5
6DC2
330
6A5A
100
AcDbEntity
  8
0
  6
ByBlock
 62
     6
100
AcDbTrace
 10
280.0965458972351
 20
136.9629736645228
 30
0.0
 11
280.5132125639017
 21
136.9629736645228
 31
0.0
 12
280.3048792305684
 22
138.2129736645228
 32
0.0
 13
280.3048792305684
 23
138.2129736645228
 33
0.0
  0
SOLID
  5
6DC3
330
6A5A
100
AcDbEntity
  8
0
  6
ByBlock
 62
     6
100
AcDbTrace
 10
280.0965458972351
 20
131.4767394180871
 30
0.0
 11
280.5132125639017
 21
131.4767394180871
 31
0.0
 12
280.3048792305684
 22
130.2267394180871
 32
0.0
 13
280.3048792305684
 23
130.2267394180871
 33
0.0
  0
POINT
  5
6DC4
330
6A5A
100
AcDbEntity
  8
DEFPOINTS
  6
ByBlock
 62
     0
100
AcDbPoint
 10
266.9692616688943
 20
138.2129736645228
 30
0.0
  0
POINT
  5
6DC5
330
6A5A
100
AcDbEntity
  8
DEFPOINTS
  6
ByBlock
 62
     0
100
AcDbPoint
 10
269.1949335080649
 20
130.2267394180871
 30
0.0
  0
POINT
  5
6DC6
330
6A5A
100
AcDbEntity
  8
DEFPOINTS
  6
ByBlock
 62
     0
100
AcDbPoint
 10
280.3048792305684
 20
130.2267394180871
 30
0.0
  0
ENDBLK
  5
6DC7
330
6A5A
100
AcDbEntity
  8
0
100
AcDbBlockEnd
  0
BLOCK
  5
6DC8
330
6D03
100
AcDbEntity
  8
0
100
AcDbBlockBegin
  2
*D6
 70
     1
 10
0.0
 20
0.0
 30
0.0
  3
*D6
  1

  0
LINE
  5
6DC9
330
6D03
100
AcDbEntity
  8
0
  6
ByBlock
 62
     6
100
AcDbLine
 10
251.4692616688943
 20
130.7186306718275
 30
0.0
 11
251.4692616688943
 21
115.6592680268758
 31
0.0
  0
LINE
  5
6DCA
330
6D03
100
AcDbEntity
  8
0
  6
ByBlock
 62
     6
100
AcDbLine
 10
263.4692616688942
 20
130.7186306718275
 30
0.0
 11
263.4692616688942
 21
115.6592680268758
 31
0.0
  0
LINE
  5
6DCB
330
6D03
100
AcDbEntity
  8
0
  6
ByBlock
 62
     6
100
AcDbLine
 10
252.7192616688942
 20
116.6592680268758
 30
0.0
 11
262.2192616688942
 21
116.6592680268758
 31
0.0
  0
MTEXT
  5
6DCC
330
6D03
100
AcDbEntity
  8
0
  6
ByBlock
 62
     3
100
AcDbMText
 10
257.4692616688942
 20
118.0342680268758
 30
0.0
 40
1.75
 41
0.0
 71
     5
 72
     1
  1
\A1;M12X1.0P
  7
TXT
 73
     1
 44
1.0
  0
SOLID
  5
6DCD
330
6D03
100
AcDbEntity
  8
0
  6
ByBlock
 62
     6
100
AcDbTrace
 10
252.7192616688942
 20
116.8676013602091
 30
0.0
 11
252.7192616688942
 21
116.4509346935425
 31
0.0
 12
251.4692616688943
 22
116.6592680268758
 32
0.0
 13
251.4692616688943
 23
116.6592680268758
 33
0.0
  0
SOLID
  5
6DCE
330
6D03
100
AcDbEntity
  8
0
  6
ByBlock
 62
     6
100
AcDbTrace
 10
262.2192616688942
 20
116.8676013602091
 30
0.0
 11
262.2192616688942
 21
116.4509346935425
 31
0.0
 12
263.4692616688942
 22
116.6592680268758
 32
0.0
 13
263.4692616688942
 23
116.6592680268758
 33
0.0
  0
POINT
  5
6DCF
330
6D03
100
AcDbEntity
  8
DEFPOINTS
  6
ByBlock
 62
     0
100
AcDbPoint
 10
251.4692616688943
 20
131.7186306718275
 30
0.0
  0
POINT
  5
6DD0
330
6D03
100
AcDbEntity
  8
DEFPOINTS
  6
ByBlock
 62
     0
100
AcDbPoint
 10
263.4692616688942
 20
131.7186306718275
 30
0.0
  0
POINT
  5
6DD1
330
6D03
100
AcDbEntity
  8
DEFPOINTS
  6
ByBlock
 62
     0
100
AcDbPoint
 10
263.4692616688942
 20
116.6592680268758
 30
0.0
  0
ENDBLK
  5
6DD2
330
6D03
100
AcDbEntity
  8
0
100
AcDbBlockEnd
  0
BLOCK
  5
6DD3
330
6D29
100
AcDbEntity
  8
0
100
AcDbBlockBegin
  2
*D7
 70
     1
 10
0.0
 20
0.0
 30
0.0
  3
*D7
  1

  0
LINE
  5
6DD4
330
6D29
100
AcDbEntity
  8
0
  6
ByBlock
 62
     6
100
AcDbLine
 10
247.9692616688942
 20
139.2186306718275
 30
0.0
 11
247.9692616688942
 21
148.0862119877372
 31
0.0
  0
LINE
  5
6DD5
330
6D29
100
AcDbEntity
  8
0
  6
ByBlock
 62
     6
100
AcDbLine
 10
266.9692616688942
 20
139.2186306718274
 30
0.0
 11
266.9692616688942
 21
148.0862119877372
 31
0.0
  0
LINE
  5
6DD6
330
6D29
100
AcDbEntity
  8
0
  6
ByBlock
 62
     6
100
AcDbLine
 10
249.2192616688942
 20
147.0862119877372
 30
0.0
 11
265.7192616688943
 21
147.0862119877372
 31
0.0
  0
SOLID
  5
6DD7
330
6D29
100
AcDbEntity
  8
0
  6
ByBlock
 62
     6
100
AcDbTrace
 10
249.2192616688942
 20
147.2945453210705
 30
0.0
 11
249.2192616688942
 21
146.8778786544038
 31
0.0
 12
247.9692616688942
 22
147.0862119877372
 32
0.0
 13
247.9692616688942
 23
147.0862119877372
 33
0.0
  0
SOLID
  5
6DD8
330
6D29
100
AcDbEntity
  8
0
  6
ByBlock
 62
     6
100
AcDbTrace
 10
265.7192616688943
 20
147.2945453210705
 30
0.0
 11
265.7192616688943
 21
146.8778786544038
 31
0.0
 12
266.9692616688942
 22
147.0862119877372
 32
0.0
 13
266.9692616688942
 23
147.0862119877372
 33
0.0
  0
MTEXT
  5
6DD9
330
6D29
100
AcDbEntity
  8
0
  6
ByBlock
 62
     3
100
AcDbMText
 10
257.4692616688942
 20
148.4612119877372
 30
0.0
 40
1.75
 41
0.0
 71
     5
 72
     1
  1
\A1;\U+220519±0.5
  7
TXT
 73
     1
 44
1.0
  0
POINT
  5
6DDA
330
6D29
100
AcDbEntity
  8
DEFPOINTS
  6
ByBlock
 62
     0
100
AcDbPoint
 10
247.9692616688942
 20
138.2186306718275
 30
0.0
  0
POINT
  5
6DDB
330
6D29
100
AcDbEntity
  8
DEFPOINTS
  6
ByBlock
 62
     0
100
AcDbPoint
 10
266.9692616688942
 20
138.2186306718274
 30
0.0
  0
POINT
  5
6DDC
330
6D29
100
AcDbEntity
  8
DEFPOINTS
  6
ByBlock
 62
     0
100
AcDbPoint
 10
266.9692616688942
 20
147.0862119877372
 30
0.0
  0
ENDBLK
  5
6DDD
330
6D29
100
AcDbEntity
  8
0
100
AcDbBlockEnd
  0
BLOCK
  5
6DDE
330
6D41
100
AcDbEntity
  8
0
100
AcDbBlockBegin
  2
*D8
 70
     1
 10
0.0
 20
0.0
 30
0.0
  3
*D8
  1

  0
LINE
  5
6DDF
330
6D41
100
AcDbEntity
  8
0
  6
ByBlock
 62
     6
100
AcDbLine
 10
245.4692616688942
 20
137.7186306718275
 30
0.0
 11
245.4692616688942
 21
152.9181854904828
 31
0.0
  0
LINE
  5
6DE0
330
6D41
100
AcDbEntity
  8
0
  6
ByBlock
 62
     6
100
AcDbLine
 10
269.4692616688943
 20
137.7186306718275
 30
0.0
 11
269.4692616688943
 21
152.9181854904828
 31
0.0
  0
LINE
  5
6DE1
330
6D41
100
AcDbEntity
  8
0
  6
ByBlock
 62
     6
100
AcDbLine
 10
246.7192616688942
 20
151.9181854904828
 30
0.0
 11
268.2192616688943
 21
151.9181854904828
 31
0.0
  0
SOLID
  5
6DE2
330
6D41
100
AcDbEntity
  8
0
  6
ByBlock
 62
     6
100
AcDbTrace
 10
246.7192616688942
 20
152.1265188238161
 30
0.0
 11
246.7192616688942
 21
151.7098521571494
 31
0.0
 12
245.4692616688942
 22
151.9181854904828
 32
0.0
 13
245.4692616688942
 23
151.9181854904828
 33
0.0
  0
SOLID
  5
6DE3
330
6D41
100
AcDbEntity
  8
0
  6
ByBlock
 62
     6
100
AcDbTrace
 10
268.2192616688943
 20
152.1265188238161
 30
0.0
 11
268.2192616688943
 21
151.7098521571494
 31
0.0
 12
269.4692616688943
 22
151.9181854904828
 32
0.0
 13
269.4692616688943
 23
151.9181854904828
 33
0.0
  0
MTEXT
  5
6DE4
330
6D41
100
AcDbEntity
  8
0
  6
ByBlock
 62
     3
100
AcDbMText
 10
257.4692616688942
 20
153.2931854904828
 30
0.0
 40
1.75
 41
0.0
 71
     5
 72
     1
  1
\A1;\U+220524
  7
TXT
 73
     1
 44
1.0
  0
POINT
  5
6DE5
330
6D41
100
AcDbEntity
  8
DEFPOINTS
  6
ByBlock
 62
     0
100
AcDbPoint
 10
245.4692616688942
 20
136.7186306718275
 30
0.0
  0
POINT
  5
6DE6
330
6D41
100
AcDbEntity
  8
DEFPOINTS
  6
ByBlock
 62
     0
100
AcDbPoint
 10
269.4692616688943
 20
136.7186306718275
 30
0.0
  0
POINT
  5
6DE7
330
6D41
100
AcDbEntity
  8
DEFPOINTS
  6
ByBlock
 62
     0
100
AcDbPoint
 10
269.4692616688943
 20
151.9181854904828
 30
0.0
  0
ENDBLK
  5
6DE8
330
6D41
100
AcDbEntity
  8
0
100
AcDbBlockEnd
  0
ENDSEC
  0
SECTION
  2
ENTITIES
  0
MTEXT
  5
C0
330
18
100
AcDbEntity
  8
0
100
AcDbMText
 10
41.26970765600413
 20
233.6950877649332
 30
0.0
 40
2.5
 41
0.0
 71
     1
 72
     5
  1

  7
ISOCP3
 73
     1
 44
1.0
  0
MTEXT
  5
608E
330
18
100
AcDbEntity
  8
0
100
AcDbMText
 10
218.9159379645269
 20
83.56812717502874
 30
0.0
 40
2.5
 41
0.0
 71
     1
 72
     5
  1
\Ftxt.shx,bigfont.shx|c128;呉銘宏
  7
JL
 73
     1
 44
1.0
  0
MTEXT
  5
6095
330
18
100
AcDbEntity
  8
0
100
AcDbMText
 10
250.62378489576
 20
88.49503953014197
 30
0.0
 40
2.25
 41
0.0
 71
     1
 72
     5
  1
\Ftxt.shx,bigfont.shx|c128;2 : 1
  7
JL
 73
     1
 44
1.0
  0
MTEXT
  5
6098
330
18
100
AcDbEntity
  8
0
 48
2.0
370
    25
100
AcDbMText
 10
283.0679100150939
 20
75.69961297086194
 30
0.0
 40
2.25
 41
0.0
 71
     5
 72
     1
  1
\Ftxt.shx,bigfont.shx|c128;N L 4 0 0 2 6
 73
     1
 44
1.0
  0
MTEXT
  5
609C
330
18
100
AcDbEntity
  8
0
 48
2.0
100
AcDbMText
 10
299.0712339196668
 20
84.96887935368665
 30
0.0
 40
2.25
 41
0.0
 71
     5
 72
     1
  1
\P\Ftxt.shx,bigfont.shx|c128;    MR12X1.0P
 73
     1
 44
1.0
  0
MTEXT
  5
635A
330
18
100
AcDbEntity
  8
0
100
AcDbMText
 10
218.0179371153258
 20
88.20409093100721
 30
0.0
 40
2.25
 41
0.0
 71
     1
 72
     5
  1
\Ftxt.shx,bigfont.shx|c128;05.02.16
  7
JL
 73
     1
 44
1.0
  0
INSERT
  5
63A3
330
18
100
AcDbEntity
  8
0
100
AcDbBlockReference
  2
A$C255C26A2
 10
272.2374686262153
 20
138.2129733175322
 30
0.0
 41
0.5
 42
0.5
 43
0.5
  0
MTEXT
  5
63A4
330
18
100
AcDbEntity
  8
0
 62
     7
 48
2.0
100
AcDbMText
 10
274.2843700006434
 20
140.6607488010415
 30
0.0
 40
1.5
 41
0.0
 71
     5
 72
     1
  1
G
 73
     1
 44
1.0
  0
LEADER
  5
63C9
330
18
100
AcDbEntity
  8
DIM
 62
     6
100
AcDbLeader
  3
A
 76
     2
 10
267.246065888829
 20
185.9453146486026
 30
0.0
 10
274.4359989338612
 20
193.931074689568
 30
0.0
  0
LEADER
  5
63CA
330
18
100
AcDbEntity
  8
DIM
 62
     6
100
AcDbLeader
  3
A
 76
     2
 10
264.8776118961416
 20
134.9898343122972
 30
0.0
 10
275.173887212603
 20
149.4521003591374
 30
0.0
  0
LEADER
  5
63CB
330
18
100
AcDbEntity
  8
DIM
 62
     6
100
AcDbLeader
  3
A
 76
     2
 10
269.4692616688942
 20
134.2181728934066
 30
0.0
 10
273.7114640559081
 20
126.1076850887614
 30
0.0
  0
MTEXT
  5
63CC
330
18
100
AcDbEntity
  8
DIM
100
AcDbMText
 10
276.1443599353629
 20
151.9942839458405
 30
0.0
 40
2.5
 41
1.0
 71
     1
 72
     5
  1
\Ftxt.shx,bigfont.shx|c128;3
 73
     1
 44
1.0
  0
MTEXT
  5
63CD
330
18
100
AcDbEntity
  8
DIM
100
AcDbMText
 10
275.440439209619
 20
196.3505463915208
 30
0.0
 40
2.5
 41
1.0
 71
     1
 72
     5
  1
\Ftxt.shx,bigfont.shx|c128;1
 73
     1
 44
1.0
  0
MTEXT
  5
63CE
330
18
100
AcDbEntity
  8
DIM
100
AcDbMText
 10
274.3126893149381
 20
126.293389026325
 30
0.0
 40
2.5
 41
1.0
 71
     1
 72
     5
  1
\Ftxt.shx,bigfont.shx|c128;2
 73
     1
 44
1.0
  0
LINE
  5
64AF
330
18
100
AcDbEntity
  8
図框線
100
AcDbLine
 10
309.006196569778
 20
218.8811280034474
 30
0.0
 11
309.006196569778
 21
73.8811280034474
 31
0.0
  0
LINE
  5
64B0
330
18
100
AcDbEntity
  8
図框線
370
    30
100
AcDbLine
 10
210.006196569778
 20
73.88112800344742
 30
0.0
 11
210.006196569778
 21
218.8811280034475
 31
0.0
  0
LINE
  5
64B1
330
18
100
AcDbEntity
  8
0
 62
     7
 48
5.0
100
AcDbLine
 39
2.0
 10
234.9799491479497
 20
87.82878999263653
 30
0.0
 11
237.6458510058043
 21
88.49526545710018
 31
0.0
  0
MTEXT
  5
64B2
330
18
100
AcDbEntity
  8
0
100
AcDbMText
 10
217.9955314555718
 20
78.69679805584155
 30
0.0
 40
3.0
 41
0.0
 71
     1
 72
     5
  1
\Ftxt.shx,bigfont.shx|c128;日機株式会社
  7
LKK
 73
     1
 44
1.0
  0
LINE
  5
64B3
330
18
100
AcDbEntity
  8
図框線
100
AcDbLine
 10
210.0061965697781
 20
73.88112800344742
 30
0.0
 11
309.006196569778
 21
73.88112800344742
 31
0.0
  0
LINE
  5
64B7
330
18
100
AcDbEntity
  8
図框線
100
AcDbLine
 10
210.0061965697781
 20
79.88112800344743
 30
0.0
 11
309.006196569778
 21
79.88112800344746
 31
0.0
  0
LINE
  5
64B8
330
18
100
AcDbEntity
  8
図框線
100
AcDbLine
 10
210.0061965697781
 20
84.88112800344742
 30
0.0
 11
258.0061965697781
 21
84.88112800344742
 31
0.0
  0
LINE
  5
64B9
330
18
100
AcDbEntity
  8
図框線
100
AcDbLine
 10
210.0061965697781
 20
89.88112800344742
 30
0.0
 11
309.006196569778
 21
89.88112800344742
 31
0.0
  0
LINE
  5
64BA
330
18
100
AcDbEntity
  8
図框線
100
AcDbLine
 10
216.0061965697781
 20
89.88112800344742
 30
0.0
 11
216.0061965697781
 21
79.88112800344743
 31
0.0
  0
LINE
  5
64BB
330
18
100
AcDbEntity
  8
図框線
100
AcDbLine
 10
226.0061965697781
 20
89.88112800344742
 30
0.0
 11
226.0061965697781
 21
79.88112800344743
 31
0.0
  0
MTEXT
  5
64BC
330
18
100
AcDbEntity
  8
0
100
AcDbMText
 10
211.4809186941885
 20
88.40470317020356
 30
0.0
 40
2.25
 41
0.0
 71
     1
 72
     5
  1
\Ftxt.shx,bigfont.shx|c128;日 付
  7
JL
 73
     1
 44
1.0
  0
MTEXT
  5
64BD
330
18
100
AcDbEntity
  8
0
100
AcDbMText
 10
211.5540527522331
 20
83.80029750080201
 30
0.0
 40
2.25
 41
0.0
 71
     1
 72
     5
  1
\Ftxt.shx,bigfont.shx|c128;製 図
  7
JL
 73
     1
 44
1.0
  0
LINE
  5
64C0
330
18
100
AcDbEntity
  8
0
 62
     7
370
    25
100
AcDbLine
 10
237.6458510058043
 20
85.82936359924559
 30
0.0
 11
237.6458510058043
 21
88.49526545710018
 31
0.0
  0
MTEXT
  5
64C1
330
18
100
AcDbEntity
  8
0
100
AcDbMText
 10
243.3574669064409
 20
88.59228735478666
 30
0.0
 40
2.25
 41
0.0
 71
     1
 72
     5
  1
\Ftxt.shx,bigfont.shx|c128;尺 度
  7
JL
 73
     1
 44
1.0
  0
LINE
  5
64C2
330
18
100
AcDbEntity
  8
図框線
100
AcDbLine
 10
242.0061965697781
 20
89.88112800344742
 30
0.0
 11
242.0061965697781
 21
79.88112800344743
 31
0.0
  0
LINE
  5
64C3
330
18
100
AcDbEntity
  8
0
 62
     7
370
    25
100
AcDbLine
 10
230.647858628936
 20
85.500602362128
 30
0.0
 11
230.647858628936
 21
88.7184617534757
 31
0.0
  0
CIRCLE
  5
64C4
330
18
100
AcDbEntity
  8
0
 62
     7
100
AcDbCircle
 10
230.647858628936
 20
87.16231452817282
 30
0.0
 40
1.33295092892732
  0
LINE
  5
64C6
330
18
100
AcDbEntity
  8
0
 62
     7
370
    25
100
AcDbLine
 10
234.5963479753085
 20
87.16231452817288
 30
0.0
 11
237.8851831792939
 21
87.16231452817288
 31
0.0
  0
LINE
  5
64C7
330
18
100
AcDbEntity
  8
0
 62
     7
100
AcDbLine
 10
234.9799491479497
 20
86.49583906370924
 30
0.0
 11
237.6458510058043
 21
85.82936359924559
 31
0.0
  0
LINE
  5
64C8
330
18
100
AcDbEntity
  8
図框線
100
AcDbLine
 10
232.0061965697781
 20
84.88112800344737
 30
0.0
 11
232.0061965697781
 21
79.88112800344743
 31
0.0
  0
LINE
  5
64C9
330
18
100
AcDbEntity
  8
0
 62
     7
370
    25
100
AcDbLine
 10
228.9820592339978
 20
87.16231452817282
 30
0.0
 11
232.4131545431627
 21
87.16231452817288
 31
0.0
  0
CIRCLE
  5
64CA
330
18
100
AcDbEntity
  8
0
 62
     7
100
AcDbCircle
 10
230.647858628936
 20
87.16231452817282
 30
0.0
 40
0.6664754644636604
  0
MTEXT
  5
64CB
330
18
100
AcDbEntity
  8
0
100
AcDbMText
 10
227.566629159977
 20
83.58103971928768
 30
0.0
 40
2.25
 41
0.0
 71
     1
 72
     5
  1
\Ftxt.shx,bigfont.shx|c128;検 図
  7
JL
 73
     1
 44
1.0
  0
LINE
  5
64CC
330
18
100
AcDbEntity
  8
0
 62
     7
370
    25
100
AcDbLine
 10
234.9799491479497
 20
86.49583906370924
 30
0.0
 11
234.9799491479497
 21
87.82878999263653
 31
0.0
  0
MTEXT
  5
64CD
330
18
100
AcDbEntity
  8
0
100
AcDbMText
 10
243.5037336614656
 20
83.69553826345475
 30
0.0
 40
2.25
 41
0.0
 71
     1
 72
     5
  1
\Ftxt.shx,bigfont.shx|c128;承 認
  7
JL
 73
     1
 44
1.0
  0
LINE
  5
64CE
330
18
100
AcDbEntity
  8
図框線
100
AcDbLine
 10
273.9872159563722
 20
97.46359453274738
 30
0.0
 11
303.9872159563722
 21
97.46359453274733
 31
0.0
  0
LINE
  5
64CF
330
18
100
AcDbEntity
  8
図框線
100
AcDbLine
 10
273.9872159563722
 20
101.0635945327474
 30
0.0
 11
303.9872159563722
 21
101.0635945327474
 31
0.0
  0
LINE
  5
64D0
330
18
100
AcDbEntity
  8
図框線
100
AcDbLine
 10
273.9872159563722
 20
104.6635945327473
 30
0.0
 11
303.9872159563722
 21
104.6635945327473
 31
0.0
  0
LINE
  5
64D1
330
18
100
AcDbEntity
  8
図框線
100
AcDbLine
 10
273.9872159563722
 20
108.2635945327474
 30
0.0
 11
303.9872159563722
 21
108.2635945327473
 31
0.0
  0
LINE
  5
64D2
330
18
100
AcDbEntity
  8
図框線
100
AcDbLine
 10
273.9872159563722
 20
93.86359453274735
 30
0.0
 11
303.9872159563722
 21
93.86359453274735
 31
0.0
  0
MTEXT
  5
64D3
330
18
100
AcDbEntity
  8
0
 62
     7
 48
2.0
100
AcDbMText
 10
288.9299159393079
 20
108.6601787380394
 30
0.0
 40
2.4
 41
0.0
 71
     5
 72
     1
  1
\P\Ftxt.shx,bigfont.shx|c128;諸　　　　元
 73
     1
 44
1.0
  0
LINE
  5
64D5
330
18
100
AcDbEntity
  8
図框線
100
AcDbLine
 10
273.9872159563722
 20
108.2635945327473
 30
0.0
 11
273.9872159563722
 21
93.86359453274735
 31
0.0
  0
MTEXT
  5
64D6
330
18
100
AcDbEntity
  8
0
100
AcDbMText
 10
275.7484338632123
 20
103.9003399491869
 30
0.0
 40
2.2
 41
81.95814342112454
 71
     1
 72
     5
  1
\Ftxt.shx,bigfont.shx|c128;熱　処　理
  7
JL
 73
     1
 44
1.0
  0
LINE
  5
64D7
330
18
100
AcDbEntity
  8
図框線
100
AcDbLine
 10
285.9872159563722
 20
104.6635945327473
 30
0.0
 11
285.9872159563722
 21
93.86359453274735
 31
0.0
  0
MTEXT
  5
64D8
330
18
100
AcDbEntity
  8
0
100
AcDbMText
 10
258.8347093510972
 20
79.45778872672611
 30
0.0
 40
2.5
 41
0.0
 71
     1
 72
     5
  1
\Ftxt.shx,bigfont.shx|c128;図  面  番  号
  7
JL
 73
     1
 44
1.0
  0
MTEXT
  5
64D9
330
18
100
AcDbEntity
  8
0
 62
     7
 48
2.0
100
AcDbMText
 10
270.9192391024712
 20
85.02691213071523
 30
0.0
 40
2.25
 41
0.0
 71
     5
 72
     1
  1
\P\Ftxt.shx,bigfont.shx|c128;    精密ロックナット
 73
     1
 44
1.0
  0
MTEXT
  5
64DA
330
18
100
AcDbEntity
  8
0
370
    25
100
AcDbMText
 10
259.406342722458
 20
88.78457208046729
 30
0.0
 40
2.5
 41
0.0
 71
     1
 72
     5
  1
\Ftxt.shx,bigfont.shx|c128;品  名
  7
JL
 73
     1
 44
1.0
  0
LINE
  5
64DB
330
18
100
AcDbEntity
  8
図框線
100
AcDbLine
 10
258.0061965697781
 20
89.88112800344742
 30
0.0
 11
258.0061965697781
 21
73.97664880890999
 31
0.0
  0
LINE
  5
64DC
330
18
100
AcDbEntity
  8
図框線
100
AcDbLine
 10
248.0061965697781
 20
89.88112800344742
 30
0.0
 11
248.0061965697781
 21
79.88112800344743
 31
0.0
  0
LINE
  5
64DE
330
18
100
AcDbEntity
  8
図框線
100
AcDbLine
 10
286.6179766652123
 20
89.88112800344742
 30
0.0
 11
286.6179766652123
 21
79.88112800344743
 31
0.0
  0
MTEXT
  5
64DF
330
18
100
AcDbEntity
  8
0
100
AcDbMText
 10
275.6082966795227
 20
100.3992257255569
 30
0.0
 40
2.2
 41
81.80293144248363
 71
     1
 72
     5
  1
\Ftxt.shx,bigfont.shx|c128;表 面 処 理
  7
JL
 73
     1
 44
1.0
  0
MTEXT
  5
64E0
330
18
100
AcDbEntity
  8
0
100
AcDbMText
 10
275.7533296037402
 20
96.75498929875296
 30
0.0
 40
2.2
 41
83.0859
 71
     1
 72
     5
  1
\Ftxt.shx,bigfont.shx|c128;等     　級
  7
JL
 73
     1
 44
1.0
  0
LINE
  5
64E1
330
18
100
AcDbEntity
  8
図框線
100
AcDbLine
 10
303.9872159563722
 20
108.2635945327473
 30
0.0
 11
303.9872159563722
 21
93.8635945327474
 31
0.0
  0
MTEXT
  5
64E2
330
18
100
AcDbEntity
  8
0
100
AcDbMText
 10
288.3607176110935
 20
103.8128609954821
 30
0.0
 40
2.2
 41
145.9480028428943
 71
     1
 72
     5
  1
\Ftxt.shx,bigfont.shx|c128;調質　HRC30%%d%%p２%%d
  7
JL
 73
     1
 44
1.0
  0
MTEXT
  5
64E4
330
18
100
AcDbEntity
  8
0
370
    25
100
AcDbMText
 10
288.6309333341493
 20
88.67397682391526
 30
0.0
 40
2.5
 41
0.0
 71
     1
 72
     5
  1
\Ftxt.shx,bigfont.shx|c128;型  番
  7
JL
 73
     1
 44
1.0
  0
MTEXT
  5
64E5
330
18
100
AcDbEntity
  8
0
100
AcDbMText
 10
296.3998291309476
 20
79.49962902040454
 30
0.0
 40
2.5
 41
0.0
 71
     1
 72
     5
  1
\Ftxt.shx,bigfont.shx|c128;変更
  7
JL
 73
     1
 44
1.0
  0
LINE
  5
64E6
330
18
100
AcDbEntity
  8
図框線
100
AcDbLine
 10
295.5061965697781
 20
79.88566314266108
 30
0.0
 11
295.5061965697781
 21
73.88112800344742
 31
0.0
  0
MTEXT
  5
64E7
330
18
100
AcDbEntity
  8
0
100
AcDbMText
 10
288.4910371118117
 20
96.75529458447853
 30
0.0
 40
2.2
 41
145.3916823984455
 71
     1
 72
     5
  1
\Ftxt.shx,bigfont.shx|c128;ＩＳＯ - ４Ｈ
  7
JL
 73
     1
 44
1.0
  0
MTEXT
  5
64E8
330
18
100
AcDbEntity
  8
0
100
AcDbMText
 10
288.5782677108768
 20
100.2227792570794
 30
0.0
 40
2.2
 41
145.7274
 71
     1
 72
     5
  1
\Ftxt.shx,bigfont.shx|c128;黒  　    染
  7
JL
 73
     1
 44
1.0
  0
MTEXT
  5
64EA
330
18
100
AcDbEntity
  8
0
100
AcDbMText
 10
240.0377895735732
 20
208.9290531322199
 30
0.0
 40
2.5
 41
0.0
 71
     1
 72
     5
  1
\Ftxt.shx,bigfont.shx|c128;M4X0.7P-4L
  7
JL
 73
     1
 44
1.0
  0
MTEXT
  5
64EB
330
18
100
AcDbEntity
  8
0
100
AcDbMText
 10
240.0377895735732
 20
204.9290531322199
 30
0.0
 40
2.5
 41
0.0
 71
     1
 72
     5
  1
\Ftxt.shx,bigfont.shx|c128;%%c3.5X2L
  7
JL
 73
     1
 44
1.0
  0
LINE
  5
64EC
330
18
100
AcDbEntity
  8
図框線
100
AcDbLine
 10
210.006196569778
 20
205.8811280034474
 30
0.0
 11
309.006196569778
 21
205.8811280034474
 31
0.0
  0
LINE
  5
64ED
330
18
100
AcDbEntity
  8
図框線
100
AcDbLine
 10
210.006196569778
 20
209.8811280034474
 30
0.0
 11
309.006196569778
 21
209.8811280034474
 31
0.0
  0
LINE
  5
64EE
330
18
100
AcDbEntity
  8
図框線
 62
     9
100
AcDbLine
 10
210.006196569778
 20
213.8811280034474
 30
0.0
 11
309.006196569778
 21
213.8811280034474
 31
0.0
  0
LINE
  5
64EF
330
18
100
AcDbEntity
  8
図框線
100
AcDbLine
 10
210.006196569778
 20
218.8811280034475
 30
0.0
 11
309.006196569778
 21
218.8811280034475
 31
0.0
  0
MTEXT
  5
64F0
330
18
100
AcDbEntity
  8
0
100
AcDbMText
 10
239.7143478681868
 20
217.5389256060026
 30
0.0
 40
2.5
 41
0.0
 71
     1
 72
     5
  1
\Ftxt.shx,bigfont.shx|c128;図    番 / 規　　格
  7
JL
 73
     1
 44
1.0
  0
LINE
  5
64F1
330
18
100
AcDbEntity
  8
図框線
100
AcDbLine
 10
210.006196569778
 20
205.8811280034474
 30
0.0
 11
309.006196569778
 21
205.8811280034474
 31
0.0
  0
LINE
  5
64F2
330
18
100
AcDbEntity
  8
図框線
100
AcDbLine
 10
210.006196569778
 20
201.8811280034474
 30
0.0
 11
309.006196569778
 21
201.8811280034474
 31
0.0
  0
MTEXT
  5
64F3
330
18
100
AcDbEntity
  8
0
100
AcDbMText
 10
221.0133711404843
 20
217.2755292944388
 30
0.0
 40
2.5
 41
0.0
 71
     1
 72
     5
  1
\Ftxt.shx,bigfont.shx|c128;品　          名
  7
JL
 73
     1
 44
1.0
  0
MTEXT
  5
64F4
330
18
100
AcDbEntity
  8
0
100
AcDbMText
 10
219.4387153762992
 20
209.1460554932147
 30
0.0
 40
3.0
 41
0.0
 71
     1
 72
     5
  1
\Ftxt.shx,bigfont.shx|c128;セットスクリュ-
  7
JL
 73
     1
 44
1.0
  0
MTEXT
  5
64F5
330
18
100
AcDbEntity
  8
0
100
AcDbMText
 10
219.3409038648018
 20
213.0641605287176
 30
0.0
 40
3.0
 41
0.0
 71
     1
 72
     5
  1
\Ftxt.shx,bigfont.shx|c128;ロックナット　  
  7
JL
 73
     1
 44
1.0
  0
MTEXT
  5
64F6
330
18
100
AcDbEntity
  8
0
100
AcDbMText
 10
219.4387153762992
 20
205.1460554932147
 30
0.0
 40
3.0
 41
0.0
 71
     1
 72
     5
  1
\Ftxt.shx,bigfont.shx|c128;ロックピン 
  7
JL
 73
     1
 44
1.0
  0
LINE
  5
64F7
330
18
100
AcDbEntity
  8
図框線
100
AcDbLine
 10
217.506196569778
 20
218.8811280034473
 30
0.0
 11
217.5061965697782
 21
201.8811280034474
 31
0.0
  0
LINE
  5
64F8
330
18
100
AcDbEntity
  8
0
100
AcDbLine
 10
217.506196569778
 20
218.8811280034473
 30
0.0
 11
217.506196569778
 21
205.8811280034474
 31
0.0
  0
MTEXT
  5
64F9
330
18
100
AcDbEntity
  8
0
100
AcDbMText
 10
213.1138411134734
 20
205.2529484712671
 30
0.0
 40
2.5
 41
0.0
 71
     1
 72
     5
  1
\Ftxt.shx,bigfont.shx|c128;3
  7
JL
 73
     1
 44
1.0
  0
MTEXT
  5
64FA
330
18
100
AcDbEntity
  8
0
100
AcDbMText
 10
213.5571750831115
 20
213.1710535067701
 30
0.0
 40
2.5
 41
0.0
 71
     1
 72
     5
  1
\Ftxt.shx,bigfont.shx|c128;1
  7
JL
 73
     1
 44
1.0
  0
MTEXT
  5
64FB
330
18
100
AcDbEntity
  8
0
100
AcDbMText
 10
213.1138411134734
 20
209.2529484712671
 30
0.0
 40
2.5
 41
0.0
 71
     1
 72
     5
  1
\Ftxt.shx,bigfont.shx|c128;2
  7
JL
 73
     1
 44
1.0
  0
MTEXT
  5
64FC
330
18
100
AcDbEntity
  8
0
100
AcDbMText
 10
211.1107385656993
 20
217.4253907116503
 30
0.0
 40
2.5
 41
0.0
 71
     1
 72
     5
  1
\Ftxt.shx,bigfont.shx|c128;照   号
  7
JL
 73
     1
 44
1.0
  0
LINE
  5
64FD
330
18
100
AcDbEntity
  8
図框線
 62
     9
100
AcDbLine
 10
237.506196569778
 20
218.8811280034473
 30
0.0
 11
237.506196569778
 21
201.8811280034474
 31
0.0
  0
MTEXT
  5
64FE
330
18
100
AcDbEntity
  8
0
100
AcDbMText
 10
283.173884866047
 20
217.6713304905659
 30
0.0
 40
2.5
 41
0.0
 71
     1
 72
     5
  1
\Ftxt.shx,bigfont.shx|c128;備           考
  7
JL
 73
     1
 44
1.0
  0
LINE
  5
64FF
330
18
100
AcDbEntity
  8
図框線
 62
     9
100
AcDbLine
 10
257.506196569778
 20
218.8811280034474
 30
0.0
 11
257.506196569778
 21
201.8811280034474
 31
0.0
  0
MTEXT
  5
6500
330
18
100
AcDbEntity
  8
0
100
AcDbMText
 10
258.39813171866
 20
205.0641605287176
 30
0.0
 40
2.5
 41
0.0
 71
     1
 72
     5
  1
\Ftxt.shx,bigfont.shx|c128;C3604
  7
JL
 73
     1
 44
1.0
  0
MTEXT
  5
6501
330
18
100
AcDbEntity
  8
0
100
AcDbMText
 10
258.39813171866
 20
213.0641605287176
 30
0.0
 40
2.5
 41
0.0
 71
     1
 72
     5
  1
\Ftxt.shx,bigfont.shx|c128;SCM-440
  7
JL
 73
     1
 44
1.0
  0
MTEXT
  5
6502
330
18
100
AcDbEntity
  8
0
100
AcDbMText
 10
258.39813171866
 20
209.0641605287176
 30
0.0
 40
2.5
 41
0.0
 71
     1
 72
     5
  1
\Ftxt.shx,bigfont.shx|c128;SCM435
  7
JL
 73
     1
 44
1.0
  0
MTEXT
  5
6503
330
18
100
AcDbEntity
  8
0
100
AcDbMText
 10
259.9063590670052
 20
217.6713304905659
 30
0.0
 40
2.5
 41
0.0
 71
     1
 72
     5
  1
\Ftxt.shx,bigfont.shx|c128;材　質
  7
JL
 73
     1
 44
1.0
  0
LINE
  5
6504
330
18
100
AcDbEntity
  8
図框線
 62
     9
100
AcDbLine
 10
267.506196569778
 20
218.8811280034474
 30
0.0
 11
267.506196569778
 21
201.8811280034474
 31
0.0
  0
LINE
  5
6505
330
18
100
AcDbEntity
  8
図框線
100
AcDbLine
 10
275.006196569778
 20
218.8811280034474
 30
0.0
 11
275.006196569778
 21
201.8811280034474
 31
0.0
  0
MTEXT
  5
6506
330
18
100
AcDbEntity
  8
0
100
AcDbMText
 10
270.6138411134733
 20
205.2529484712671
 30
0.0
 40
2.5
 41
0.0
 71
     1
 72
     5
  1
\Ftxt.shx,bigfont.shx|c128;3
  7
JL
 73
     1
 44
1.0
  0
MTEXT
  5
6507
330
18
100
AcDbEntity
  8
0
100
AcDbMText
 10
271.0571750831115
 20
213.1710535067701
 30
0.0
 40
2.5
 41
0.0
 71
     1
 72
     5
  1
\Ftxt.shx,bigfont.shx|c128;1
  7
JL
 73
     1
 44
1.0
  0
MTEXT
  5
6508
330
18
100
AcDbEntity
  8
0
100
AcDbMText
 10
270.6138411134733
 20
209.2529484712671
 30
0.0
 40
2.5
 41
0.0
 71
     1
 72
     5
  1
\Ftxt.shx,bigfont.shx|c128;3
  7
JL
 73
     1
 44
1.0
  0
MTEXT
  5
6509
330
18
100
AcDbEntity
  8
0
100
AcDbMText
 10
268.2230667257367
 20
217.6713304905659
 30
0.0
 40
2.5
 41
0.0
 71
     1
 72
     5
  1
\Ftxt.shx,bigfont.shx|c128;数   量
  7
JL
 73
     1
 44
1.0
  0
MTEXT
  5
6740
330
18
100
AcDbEntity
  8
公差
100
AcDbMText
 10
234.2689191908168
 20
183.3651900499806
 30
0.0
 40
1.25
 41
6.816289586974903
 71
     1
 72
     5
  1
+0.15\P+0
  7
TXT
 11
0.0000000000000001
 21
1.0
 31
0.0
 73
     1
 44
1.0
  0
MTEXT
  5
6741
330
18
100
AcDbEntity
  8
公差
100
AcDbMText
 10
247.8665897705151
 20
166.942163965532
 30
0.0
 40
1.0
 41
15.60204752540142
 71
     1
 72
     5
  1
+0.15\P+0
  7
TXT
 73
     1
 44
1.0
  0
DIMENSION
  5
675D
330
18
100
AcDbEntity
  8
0
100
AcDbDimension
  2
*D1
 10
238.9252678735504
 20
138.2186306718274
 30
0.0
 11
238.9252678735504
 21
143.1062453166342
 31
0.0
 70
   160
 71
     5
 42
-1.0
  3
A
100
AcDbAlignedDimension
 13
246.4692616688942
 23
137.7186306718275
 33
0.0
 14
247.9692616688942
 24
138.2186306718274
 34
0.0
 50
90.0
100
AcDbRotatedDimension
1001
ACAD
1000
DSTYLE
1002
{
1070
    40
1040
1.0
1002
}
  0
LINE
  5
6761
330
18
100
AcDbEntity
  8
DIM
100
AcDbLine
 10
251.4692616688943
 20
116.6592680268758
 30
0.0
 11
251.4498603245412
 21
107.0707727656367
 31
0.0
  0
LINE
  5
6764
330
18
100
AcDbEntity
  8
0
 62
     6
100
AcDbLine
 10
280.2710570284827
 20
138.1543911981054
 30
0.0
 11
280.2710570284827
 21
144.9614320929122
 31
0.0
  0
LINE
  5
6765
330
18
100
AcDbEntity
  8
0
 62
     6
100
AcDbLine
 10
280.2710570284827
 20
144.9614320929122
 30
0.0
 11
289.9596585084929
 21
144.9614320929122
 31
0.0
  0
TOLERANCE
  5
6766
330
18
100
AcDbEntity
  8
0
  6
ByBlock
100
AcDbFcf
  3
A
 10
289.9505792829443
 20
144.9869013109777
 30
0.0
  1
{\Fgdt;h}%%v0.005%%v%%vA%%v%%v
1001
ACAD
1000
DSTYLE
1002
{
1070
   140
1040
1.371999999999999
1070
    40
1040
1.0
1070
   147
1040
0.3429999999999999
1002
}
  0
MTEXT
  5
676D
330
18
100
AcDbEntity
  8
公差
100
AcDbMText
 10
260.62664767116
 20
155.5143025390601
 30
0.0
 40
1.25
 41
5.603326618818573
 71
     1
 72
     5
  1
+0\P-0.12
  7
TXT
 73
     1
 44
1.0
  0
LINE
  5
6775
330
18
100
AcDbEntity
  8
DIM
100
AcDbLine
 10
251.4707138415937
 20
109.0558376462395
 30
0.0
 11
252.3831721898194
 21
108.0779635505144
 31
0.0
  0
HATCH
  5
6776
330
18
100
AcDbEntity
  8
DIM
100
AcDbHatch
 10
0.0
 20
0.0
 30
0.0
210
0.0
220
0.0
230
1.0
  2
SOLID
 70
     1
 71
     0
 91
        1
 92
        7
 72
     0
 73
     1
 93
        3
 10
251.4695897271412
 20
107.0721492512589
 10
252.3883218157412
 20
108.0569570465027
 10
251.4695897271412
 20
109.0417648417464
 97
        0
 75
     0
 76
     1
 47
0.2359147607200769
 98
        1
 10
251.757405723372
 20
108.2684330521942
450
        0
451
        0
460
0.0
461
0.0
452
        0
462
0.0
453
        0
470

  0
LINE
  5
6777
330
18
100
AcDbEntity
  8
DIM
100
AcDbLine
 10
257.1302649965154
 20
106.2643097463549
 30
0.0
 11
257.1302649965154
 21
109.910608536376
 31
0.0
  0
LINE
  5
6778
330
18
100
AcDbEntity
  8
DIM
100
AcDbLine
 10
257.1302649965154
 20
109.910608536376
 30
0.0
 11
260.9389002420261
 21
109.910608536376
 31
0.0
  0
LINE
  5
6779
330
18
100
AcDbEntity
  8
DIM
100
AcDbLine
 10
260.9389002420261
 20
106.2643097463549
 30
0.0
 11
260.9389002420261
 21
109.910608536376
 31
0.0
  0
LINE
  5
677A
330
18
100
AcDbEntity
  8
DIM
100
AcDbLine
 10
257.1302649965154
 20
106.2643097463549
 30
0.0
 11
260.9389002420261
 21
106.2643097463549
 31
0.0
  0
LINE
  5
677B
330
18
100
AcDbEntity
  8
DIM
100
AcDbLine
 10
257.1302649965154
 20
108.0874591413655
 30
0.0
 11
252.3694711607923
 21
108.0874591413655
 31
0.0
  0
MTEXT
  5
677C
330
18
100
AcDbEntity
  8
DIM
100
AcDbMText
 10
260.6946857773427
 20
108.9398025853151
 30
0.0
 40
3.0
 41
2.354875985554478
 71
     1
 72
     5
  1
A
  7
ISOCP3
 11
-0.0000000000000002
 21
-1.0
 31
0.0
 73
     1
 44
1.0
  0
DIMENSION
  5
678A
330
18
100
AcDbEntity
  8
0
100
AcDbDimension
  2
*D2
 10
247.5592616688942
 20
163.8504955965984
 30
0.0
 11
246.5572018315695
 21
163.8504955965984
 31
0.0
 70
   160
 71
     5
 42
-1.0
  3
A
100
AcDbAlignedDimension
 13
245.5551419942448
 23
179.5493377215064
 33
0.0
 14
247.5592616688942
 24
179.5493377215064
 34
0.0
100
AcDbRotatedDimension
1001
ACAD
1000
DSTYLE
1002
{
1070
    40
1040
1.0
1002
}
  0
DIMENSION
  5
68F8
330
18
100
AcDbEntity
  8
DIM
100
AcDbDimension
  2
*D3
 10
246.1057771849683
 20
130.8251753979812
 30
0.0
 11
240.9412816684246
 21
125.7964523489315
 31
0.0
 70
   164
  1
2-R1
 71
     5
 42
-1.0
  3
A
100
AcDbRadialDimension
 15
245.8371040078072
 25
130.5635655283774
 35
0.0
 40
0.0
1001
ACAD
1000
DSTYLE
1002
{
1070
   288
1070
     1
1002
}
  0
DIMENSION
  5
6947
330
18
100
AcDbEntity
  8
DIM
100
AcDbDimension
  2
*D4
 10
238.254385078769
 20
179.5493377215064
 30
0.0
 11
237.7613196170056
 21
188.5314089805192
 31
0.0
 70
   160
  1
<>      (3等分)
 71
     5
 42
-1.0
  3
A
100
AcDbAlignedDimension
 13
245.5551419942448
 23
182.5493377215064
 33
0.0
 14
245.5551419942448
 24
179.5493377215064
 34
0.0
 50
90.0
100
AcDbRotatedDimension
  0
LEADER
  5
699D
330
18
100
AcDbEntity
  8
DIM
 62
     6
100
AcDbLeader
  3
A
 73
     0
 74
     0
 75
     1
 40
1.75
 41
6.416666666666666
 76
     3
 10
250.9692616688942
 20
137.2186306718275
 30
0.0
 10
255.6148708100914
 20
142.4844385417018
 30
0.0
 10
256.8648708100914
 20
142.4844385417018
 30
0.0
340
699E
  0
MTEXT
  5
699E
102
{ACAD_REACTORS
330
699D
102
}
330
18
100
AcDbEntity
  8
DIM
 62
     3
100
AcDbMText
 10
257.3648708100914
 20
143.8594385417018
 30
0.0
 40
1.75
 41
0.0
 71
     4
 72
     1
  1
\A1;2-C2
  7
TXT
 73
     1
 44
1.0
  0
DIMENSION
  5
6A66
330
18
100
AcDbEntity
  8
DIM
100
AcDbDimension
  2
*D5
 10
280.3048792305684
 20
130.2267394180871
 30
0.0
 11
280.3048792305684
 21
134.2198565413049
 31
0.0
 70
   160
  1
<>%%p0.2
 71
     5
 42
-1.0
  3
A
100
AcDbAlignedDimension
 13
266.9692616688943
 23
138.2129736645228
 33
0.0
 14
269.1949335080649
 24
130.2267394180871
 34
0.0
 50
90.0
100
AcDbRotatedDimension
  0
LINE
  5
6B7F
330
18
100
AcDbEntity
  8
中心線
  6
CENTER
 48
0.15
100
AcDbLine
 10
257.4692616688942
 20
195.1412273354459
 30
0.0
 11
257.4692616688942
 21
168.2932516587187
 31
0.0
  0
ARC
  5
6B80
330
18
100
AcDbEntity
  8
本体外線
100
AcDbCircle
 10
257.4692616688942
 20
181.0493377215063
 30
0.0
 40
12.0
100
AcDbArc
 50
67.18075578145827
 51
172.8192442185416
  0
CIRCLE
  5
6B81
330
18
100
AcDbEntity
  8
本体外線
100
AcDbCircle
 10
257.4692616688942
 20
181.0493377215063
 30
0.0
 40
9.5
  0
ARC
  5
6B82
330
18
100
AcDbEntity
  8
0
100
AcDbCircle
 10
257.4692616688942
 20
181.0493377215063
 30
0.0
 40
6.0
100
AcDbArc
 50
165.9368528966347
 51
109.4162651918033
  0
CIRCLE
  5
6B83
330
18
100
AcDbEntity
  8
本体外線
100
AcDbCircle
 10
257.4692616688942
 20
181.0493377215063
 30
0.0
 40
5.5
  0
LINE
  5
6B84
330
18
100
AcDbEntity
  8
本体外線
100
AcDbLine
 10
247.9692616688942
 20
138.2186306718275
 30
0.0
 11
266.9692616688942
 21
138.2186306718275
 31
0.0
  0
LINE
  5
6B85
330
18
100
AcDbEntity
  8
本体外線
100
AcDbLine
 10
245.4692616688942
 20
136.7186306718275
 30
0.0
 11
245.4692616688942
 21
131.2186306718274
 31
0.0
  0
LINE
  5
6B86
330
18
100
AcDbEntity
  8
本体外線
100
AcDbLine
 10
269.4692616688943
 20
136.7186306718275
 30
0.0
 11
269.4692616688943
 21
131.2186306718275
 31
0.0
  0
LINE
  5
6B87
330
18
100
AcDbEntity
  8
本体外線
100
AcDbLine
 10
246.4692616688942
 20
130.2186306718274
 30
0.0
 11
267.9692616688943
 21
130.2186306718275
 31
0.0
  0
LINE
  5
6B88
330
18
100
AcDbEntity
  8
本体外線
100
AcDbLine
 10
247.9692616688942
 20
138.2186306718274
 30
0.0
 11
247.9692616688942
 21
137.7186306718275
 31
0.0
  0
LINE
  5
6B89
330
18
100
AcDbEntity
  8
0
100
AcDbLine
 10
251.4692616688943
 20
136.7186306718275
 30
0.0
 11
251.4692616688943
 21
131.7186306718275
 31
0.0
  0
LINE
  5
6B8A
330
18
100
AcDbEntity
  8
本体外線
100
AcDbLine
 10
251.9692616688942
 20
136.2186306718274
 30
0.0
 11
251.9692616688942
 21
132.2186306718274
 31
0.0
  0
LINE
  5
6B8B
102
{ACAD_REACTORS
330
6BDF
102
}
330
18
100
AcDbEntity
  8
本体外線
100
AcDbLine
 10
262.9692616688942
 20
136.2186306718275
 30
0.0
 11
262.9692616688942
 21
132.2186306718275
 31
0.0
  0
LINE
  5
6B8C
330
18
100
AcDbEntity
  8
0
100
AcDbLine
 10
263.4692616688942
 20
136.7186306718275
 30
0.0
 11
263.4692616688942
 21
135.9681728934065
 31
0.0
  0
LINE
  5
6B8D
330
18
100
AcDbEntity
  8
本体外線
100
AcDbLine
 10
266.9692616688942
 20
138.2186306718274
 30
0.0
 11
266.9692616688942
 21
137.7186306718275
 31
0.0
  0
LINE
  5
6B8E
330
18
100
AcDbEntity
  8
中心線
 48
0.15
100
AcDbLine
 10
257.4692616688942
 20
139.4205800064018
 30
0.0
 11
257.4692616688942
 21
128.1532052681135
 31
0.0
  0
LINE
  5
6B8F
330
18
100
AcDbEntity
  8
本体内線
  6
HIDDEN
 48
0.2
100
AcDbLine
 10
256.6395747849732
 20
175.6122778841816
 30
0.0
 11
253.2852326933635
 21
169.8023869555467
 31
0.0
  0
LINE
  5
6B90
330
18
100
AcDbEntity
  8
本体内線
  6
HIDDEN
 48
0.2
100
AcDbLine
 10
253.1754731698355
 20
177.6122778841816
 30
0.0
 11
249.8211310782257
 21
171.8023869555467
 31
0.0
  0
LINE
  5
6B91
330
18
100
AcDbEntity
  8
本体外線
 48
0.05
100
AcDbLine
 10
264.7212402244662
 20
190.610133035157
 30
0.0
 11
263.7232997745709
 21
188.8816494730101
 31
0.0
  0
LINE
  5
6B92
330
18
100
AcDbEntity
  8
本体外線
 48
0.05
100
AcDbLine
 10
262.1231640131129
 20
192.110133035157
 30
0.0
 11
261.1252235632176
 21
190.3816494730101
 31
0.0
  0
LINE
  5
6B93
330
18
100
AcDbEntity
  8
本体内線
  6
HIDDEN
 48
0.2
100
AcDbLine
 10
253.524472252153
 20
177.2167620265505
 30
0.0
 11
250.254143780118
 21
171.5523869555467
 31
0.0
  0
LINE
  5
6B94
330
18
100
AcDbEntity
  8
本体内線
  6
HIDDEN
 48
0.2
100
AcDbLine
 10
256.1225484635063
 20
175.7167620265505
 30
0.0
 11
252.8522199914712
 21
170.0523869555467
 31
0.0
  0
LINE
  5
6B95
330
18
100
AcDbEntity
  8
本体外線
100
AcDbLine
 10
261.1252235632175
 20
190.3816494730101
 30
0.0
 11
263.7232997745709
 21
188.8816494730101
 31
0.0
  0
LINE
  5
6B96
330
18
100
AcDbEntity
  8
中心線
  6
CENTER
 48
0.15
100
AcDbLine
 10
243.3773720549547
 20
181.0493377215064
 30
0.0
 11
271.1403567792394
 21
181.0493377215064
 31
0.0
  0
LINE
  5
6B97
330
18
100
AcDbEntity
  8
本体外線
 48
0.05
100
AcDbLine
 10
245.5633807691036
 20
182.5493377215064
 30
0.0
 11
247.5592616688942
 21
182.5493377215064
 31
0.0
  0
LINE
  5
6B98
330
18
100
AcDbEntity
  8
本体外線
 48
0.05
100
AcDbLine
 10
245.5633807691036
 20
179.5493377215064
 30
0.0
 11
247.5592616688942
 21
179.5493377215064
 31
0.0
  0
LINE
  5
6B99
330
18
100
AcDbEntity
  8
本体外線
100
AcDbLine
 10
247.5592616688942
 20
179.5493377215063
 30
0.0
 11
247.5592616688942
 21
182.5493377215063
 31
0.0
  0
LINE
  5
6B9A
330
18
100
AcDbEntity
  8
中心線
  6
CENTER
 48
0.15
100
AcDbLine
 10
250.4233168619244
 20
168.8454033285086
 30
0.0
 11
255.2192616688942
 21
177.1522234044764
 31
0.0
  0
LINE
  5
6B9B
330
18
100
AcDbEntity
  8
本体外線
 48
0.05
100
AcDbLine
 10
262.1231640131128
 20
169.9885424078557
 30
0.0
 11
261.1252235632175
 21
171.7170259700026
 31
0.0
  0
LINE
  5
6B9C
330
18
100
AcDbEntity
  8
本体外線
 48
0.05
100
AcDbLine
 10
264.7212402244662
 20
171.4885424078557
 30
0.0
 11
263.7232997745708
 21
173.2170259700025
 31
0.0
  0
LINE
  5
6B9D
330
18
100
AcDbEntity
  8
本体外線
100
AcDbLine
 10
263.7232997745709
 20
173.2170259700025
 30
0.0
 11
261.1252235632175
 21
171.7170259700026
 31
0.0
  0
ARC
  5
6B9E
330
18
100
AcDbEntity
  8
本体外線
100
AcDbCircle
 10
257.4692616688942
 20
181.0493377215063
 30
0.0
 40
12.0
100
AcDbArc
 50
187.1807557814583
 51
292.8192442185416
  0
ARC
  5
6B9F
330
18
100
AcDbEntity
  8
本体外線
100
AcDbCircle
 10
257.4692616688942
 20
181.0493377215063
 30
0.0
 40
12.0
100
AcDbArc
 50
307.1807557814582
 51
52.81924421854167
  0
LINE
  5
6BA1
330
18
100
AcDbEntity
  8
本体内線
  6
HIDDEN
 48
0.2
100
AcDbLine
 10
262.592737051874
 20
183.0493377215064
 30
0.0
 11
269.3014212350934
 21
183.0493377215063
 31
0.0
  0
LINE
  5
6BA2
330
18
100
AcDbEntity
  8
本体内線
  6
HIDDEN
 48
0.2
100
AcDbLine
 10
262.592737051874
 20
179.0493377215064
 30
0.0
 11
269.3014212350934
 21
179.0493377215064
 31
0.0
  0
LINE
  5
6BA3
330
18
100
AcDbEntity
  8
本体内線
  6
HIDDEN
 48
0.2
100
AcDbLine
 10
262.7607642910234
 20
179.5493377215064
 30
0.0
 11
269.3014212350934
 21
179.5493377215063
 31
0.0
  0
LINE
  5
6BA4
330
18
100
AcDbEntity
  8
本体内線
  6
HIDDEN
 48
0.2
100
AcDbLine
 10
262.7607642910234
 20
182.5493377215064
 30
0.0
 11
269.3014212350934
 21
182.5493377215063
 31
0.0
  0
LINE
  5
6BA5
330
18
100
AcDbEntity
  8
中心線
  6
CENTER
 48
0.15
100
AcDbLine
 10
255.2192616688942
 20
184.9464520385363
 30
0.0
 11
250.4692616688942
 21
193.1736933744885
 31
0.0
  0
LINE
  5
6BA6
330
18
100
AcDbEntity
  8
本体内線
  6
HIDDEN
 48
0.2
100
AcDbLine
 10
253.1754731698354
 20
184.486397558831
 30
0.0
 11
249.8211310782257
 21
190.296288487466
 31
0.0
  0
LINE
  5
6BA7
330
18
100
AcDbEntity
  8
本体内線
  6
HIDDEN
 48
0.2
100
AcDbLine
 10
256.6395747849732
 20
186.4863975588311
 30
0.0
 11
253.2852326933635
 21
192.296288487466
 31
0.0
  0
LINE
  5
6BA8
330
18
100
AcDbEntity
  8
本体内線
  6
HIDDEN
 48
0.2
100
AcDbLine
 10
256.1225484635063
 20
186.3819134164622
 30
0.0
 11
252.8522199914712
 21
192.0462884874659
 31
0.0
  0
LINE
  5
6BA9
330
18
100
AcDbEntity
  8
本体内線
  6
HIDDEN
 48
0.2
100
AcDbLine
 10
253.524472252153
 20
184.8819134164621
 30
0.0
 11
250.254143780118
 21
190.5462884874659
 31
0.0
  0
LINE
  5
6BAC
330
18
100
AcDbEntity
  8
本体外線
100
AcDbLine
 10
246.4692616688942
 20
137.7186306718275
 30
0.0
 11
247.9692616688942
 21
137.7186306718275
 31
0.0
  0
LINE
  5
6BAD
102
{ACAD_REACTORS
330
6BDF
102
}
330
18
100
AcDbEntity
  8
中心線
 48
0.15
100
AcDbLine
 10
262.2790447280167
 20
134.2181728934066
 30
0.0
 11
270.2639648637646
 21
134.2181728934066
 31
0.0
  0
LINE
  5
6BAE
102
{ACAD_REACTORS
330
6BDF
102
}
330
18
100
AcDbEntity
  8
0
100
AcDbLine
 10
265.4692616688943
 20
132.4681728934068
 30
0.0
 11
262.9692616688942
 21
132.4681728934064
 31
0.0
  0
LINE
  5
6BAF
330
18
100
AcDbEntity
  8
0
 48
0.3
100
AcDbLine
 10
269.1675040925566
 20
136.0181728934066
 30
0.0
 11
269.1675040925566
 21
132.2181728934066
 31
0.0
  0
LINE
  5
6BB0
330
18
100
AcDbEntity
  8
0
100
AcDbLine
 10
269.1675040925566
 20
132.2181728934066
 30
0.0
 11
269.4787251795982
 21
132.3978564717875
 31
0.0
  0
LINE
  5
6BB1
330
18
100
AcDbEntity
  8
0
 48
0.1
100
AcDbLine
 10
267.4692616688943
 20
135.2181728934066
 30
0.0
 11
269.4175040925566
 21
135.2181728934066
 31
0.0
  0
LINE
  5
6BB2
330
18
100
AcDbEntity
  8
0
 48
0.1
100
AcDbLine
 10
267.4692616688943
 20
133.2181728934066
 30
0.0
 11
269.4175040925566
 21
133.2181728934066
 31
0.0
  0
LINE
  5
6BB3
330
18
100
AcDbEntity
  8
0
 48
0.3
100
AcDbLine
 10
265.9692616688943
 20
132.4181728934066
 30
0.0
 11
269.4787251795982
 21
132.4181728934066
 31
0.0
  0
LINE
  5
6BB4
330
18
100
AcDbEntity
  8
0
 48
0.3
100
AcDbLine
 10
265.9692616688943
 20
136.0181728934066
 30
0.0
 11
269.4787251795981
 21
136.0181728934066
 31
0.0
  0
LINE
  5
6BB5
330
18
100
AcDbEntity
  8
0
100
AcDbLine
 10
269.1675040925566
 20
136.2181728934066
 30
0.0
 11
269.4787251795981
 21
136.0181728934066
 31
0.0
  0
LINE
  5
6BB6
330
18
100
AcDbEntity
  8
0
100
AcDbLine
 10
263.4692616688942
 20
136.2090008058354
 30
0.0
 11
269.4787245974715
 21
136.2142951711064
 31
0.0
  0
LINE
  5
6BB7
330
18
100
AcDbEntity
  8
0
100
AcDbLine
 10
263.4692616688942
 20
132.2273449809777
 30
0.0
 11
269.4787245974715
 21
132.2220506157067
 31
0.0
  0
LINE
  5
6BB8
330
18
100
AcDbEntity
  8
本体外線
100
AcDbLine
 10
251.9692616688942
 20
132.2186306718275
 30
0.0
 11
249.9692616688942
 21
130.2186306718275
 31
0.0
  0
LINE
  5
6BB9
330
18
100
AcDbEntity
  8
本体外線
100
AcDbLine
 10
251.9692616688942
 20
136.2186306718275
 30
0.0
 11
249.9692616688942
 21
138.2186306718274
 31
0.0
  0
LINE
  5
6BBA
330
18
100
AcDbEntity
  8
本体外線
100
AcDbLine
 10
262.9692616688942
 20
136.2186306718275
 30
0.0
 11
264.9692616688942
 21
138.2186306718275
 31
0.0
  0
LINE
  5
6BBB
330
18
100
AcDbEntity
  8
本体外線
100
AcDbLine
 10
262.9692616688942
 20
132.2186306718275
 30
0.0
 11
264.9692616688942
 21
130.2186306718275
 31
0.0
  0
LINE
  5
6BBC
330
18
100
AcDbEntity
  8
本体外線
100
AcDbLine
 10
251.9692616688942
 20
132.2186306718274
 30
0.0
 11
262.9692616688942
 21
132.2186306718274
 31
0.0
  0
LINE
  5
6BBD
330
18
100
AcDbEntity
  8
本体外線
100
AcDbLine
 10
251.9692616688942
 20
136.2186306718275
 30
0.0
 11
262.9692616688942
 21
136.2186306718275
 31
0.0
  0
LINE
  5
6BBE
330
18
100
AcDbEntity
  8
本体外線
100
AcDbLine
 10
266.9692616688942
 20
137.7186306718275
 30
0.0
 11
268.4692616688943
 21
137.7186306718275
 31
0.0
  0
LINE
  5
6BBF
102
{ACAD_REACTORS
330
6BDF
102
}
330
18
100
AcDbEntity
  8
0
100
AcDbLine
 10
265.4692616688942
 20
135.9681728934065
 30
0.0
 11
262.9692616688942
 21
135.9681728934066
 31
0.0
  0
LINE
  5
6BC0
102
{ACAD_REACTORS
330
6BDF
102
}
330
18
100
AcDbEntity
  8
0
100
AcDbLine
 10
265.4692616688943
 20
135.9681728934066
 30
0.0
 11
265.4692616688943
 21
132.4681728934068
 31
0.0
  0
LINE
  5
6BC1
330
18
100
AcDbEntity
  8
0
 48
0.1
100
AcDbLine
 10
266.9692616688942
 20
134.2181728934066
 30
0.0
 11
267.4692616688943
 21
135.2181728934066
 31
0.0
  0
LINE
  5
6BC2
330
18
100
AcDbEntity
  8
0
 48
0.1
100
AcDbLine
 10
266.9692616688942
 20
134.2181728934066
 30
0.0
 11
267.4692616688943
 21
133.2181728934066
 31
0.0
  0
LINE
  5
6BC3
330
18
100
AcDbEntity
  8
0
100
AcDbLine
 10
265.4692616688943
 20
135.7111342234255
 30
0.0
 11
265.9693308240576
 21
136.211203378589
 31
0.0
  0
LINE
  5
6BC4
330
18
100
AcDbEntity
  8
0
 48
0.1
100
AcDbLine
 10
267.4692616688943
 20
135.2181728934065
 30
0.0
 11
267.4692616688942
 21
133.2181728934066
 31
0.0
  0
LINE
  5
6BC5
330
18
100
AcDbEntity
  8
0
100
AcDbLine
 10
263.4692616688942
 20
132.4681728934065
 30
0.0
 11
263.4692616688942
 21
131.7186306718275
 31
0.0
  0
LINE
  5
6BC6
330
18
100
AcDbEntity
  8
0
 48
0.3
100
AcDbLine
 10
265.9692616688943
 20
136.211203317663
 30
0.0
 11
265.9692616688943
 21
132.2251855101838
 31
0.0
  0
LINE
  5
6BC7
330
18
100
AcDbEntity
  8
0
100
AcDbLine
 10
265.4692616688943
 20
132.7261697546191
 30
0.0
 11
265.9693308240576
 21
132.2261005994556
 31
0.0
  0
LINE
  5
6BC8
330
18
100
AcDbEntity
  8
0
100
AcDbLine
 10
265.4692616688943
 20
132.2255829715156
 30
0.0
 11
265.4692616688943
 21
132.2251855101838
 31
0.0
  0
POINT
  5
6BC9
330
18
100
AcDbEntity
  8
本体外線
100
AcDbPoint
 10
266.9692616688942
 20
138.2186306718274
 30
0.0
  0
POINT
  5
6BCA
330
18
100
AcDbEntity
  8
0
100
AcDbPoint
 10
266.9692616688942
 20
130.2186306718275
 30
0.0
  0
LINE
  5
6BD0
330
18
100
AcDbEntity
  8
0
100
AcDbLine
 10
267.0292616688943
 20
130.2186306718275
 30
0.0
 11
268.4692616688943
 21
130.2186306718275
 31
0.0
  0
POINT
  5
6BD1
330
18
100
AcDbEntity
  8
本体外線
100
AcDbPoint
 10
266.9692616688942
 20
138.2186306718274
 30
0.0
  0
POINT
  5
6BD2
330
18
100
AcDbEntity
  8
0
100
AcDbPoint
 10
266.9692616688942
 20
130.2186306718275
 30
0.0
  0
ARC
  5
6BD6
330
18
100
AcDbEntity
  8
本体外線
100
AcDbCircle
 10
246.4692616688942
 20
136.7186306718275
 30
0.0
 40
1.0
100
AcDbArc
 50
90.0
 51
180.0
  0
ARC
  5
6BD7
330
18
100
AcDbEntity
  8
本体外線
100
AcDbCircle
 10
246.4692616688942
 20
131.2186306718274
 30
0.0
 40
1.0
100
AcDbArc
 50
180.0
 51
270.0
  0
ARC
  5
6BD8
330
18
100
AcDbEntity
  8
本体外線
100
AcDbCircle
 10
268.4692616688943
 20
131.2186306718275
 30
0.0
 40
1.0
100
AcDbArc
 50
270.0
 51
0.0
  0
ARC
  5
6BD9
330
18
100
AcDbEntity
  8
本体外線
100
AcDbCircle
 10
268.4692616688943
 20
136.7186306718275
 30
0.0
 40
1.0
100
AcDbArc
 50
0.0
 51
90.0
  0
HATCH
  5
6BDF
330
18
100
AcDbEntity
  8
0
100
AcDbHatch
 10
0.0
 20
0.0
 30
0.0
210
0.0
220
0.0
230
1.0
  2
AR-SAND
 70
     0
 71
     1
 91
        2
 92
        7
 72
     0
 73
     1
 93
        4
 10
262.9692616688942
 20
134.2181728934066
 10
262.9692616688942
 20
132.4681728934064
 10
265.4692616688943
 20
132.4681728934068
 10
265.4692616688943
 20
134.2181728934066
 97
        4
330
6BAD
330
6B8B
330
6BAE
330
6BC0
 92
        7
 72
     0
 73
     1
 93
        4
 10
262.9692616688942
 20
135.9681728934066
 10
262.9692616688942
 20
134.2181728934066
 10
265.4692616688943
 20
134.2181728934066
 10
265.4692616688943
 20
135.9681728934065
 97
        4
330
6BBF
330
6B8B
330
6BAD
330
6BC0
 75
     0
 76
     1
 52
0.0
 41
0.04
 77
     0
 78
     4
 53
37.5
 43
209.1164997750294
 44
68.43484372428017
 45
-0.0640012518393618
 46
1.957652949317369
 79
     6
 49
0.0
 49
-1.54432
 49
0.0
 49
-1.7272
 49
0.0
 49
-1.650999999999999
 53
7.499999999999999
 43
209.1164997750294
 44
68.43484372428017
 45
1.79809313255201
 46
2.867300402273416
 79
     6
 49
0.0
 49
-0.83312
 49
0.0
 49
-1.39192
 49
0.0
 49
-0.5334000000000002
 53
327.5
 43
207.8668197750294
 44
68.43484372428017
 45
3.163969480965831
 46
0.0057487387141828
 79
     6
 49
0.0
 49
-0.508
 49
0.0
 49
-1.8288
 49
0.0
 49
-2.387599999999999
 53
317.5
 43
207.8668197750294
 44
68.43484372428017
 45
3.054225809889188
 46
0.8917172930288648
 79
     6
 49
0.0
 49
-0.254
 49
0.0
 49
-1.198879999999999
 49
0.0
 49
-1.371599999999999
 47
0.1908265067486898
 98
        2
 10
263.8986113036009
 20
133.3583725521243
 10
263.9941164633318
 20
135.5528770996572
  0
POINT
  5
6BE9
330
18
100
AcDbEntity
  8
本体外線
100
AcDbPoint
 10
266.9692616688942
 20
138.2186306718274
 30
0.0
  0
POINT
  5
6BEA
330
18
100
AcDbEntity
  8
0
100
AcDbPoint
 10
266.9692616688942
 20
130.2186306718275
 30
0.0
  0
LINE
  5
6BEF
330
18
100
AcDbEntity
  8
本体外線
100
AcDbLine
 10
247.5592616688942
 20
137.7186306718275
 30
0.0
 11
247.5592616688942
 21
130.2186306718274
 31
0.0
  0
LINE
  5
6BF2
330
18
100
AcDbEntity
  8
剖面線
100
AcDbLine
 10
247.5592616688942
 20
135.6144252055662
 30
0.0
 11
250.0663644020248
 21
138.1215279386969
 31
0.0
  0
LINE
  5
6BF3
330
18
100
AcDbEntity
  8
剖面線
100
AcDbLine
 10
247.5592616688942
 20
133.8183739813524
 30
0.0
 11
250.9643900141317
 21
137.2235023265899
 31
0.0
  0
LINE
  5
6BF4
330
18
100
AcDbEntity
  8
剖面線
100
AcDbLine
 10
247.5592616688942
 20
132.0223227571385
 30
0.0
 11
251.4692616688943
 21
135.9323227571386
 31
0.0
  0
LINE
  5
6BF5
330
18
100
AcDbEntity
  8
剖面線
100
AcDbLine
 10
247.5516208077969
 20
130.2186306718274
 30
0.0
 11
251.4692616688943
 21
134.1362715329248
 31
0.0
  0
LINE
  5
6BF6
330
18
100
AcDbEntity
  8
剖面線
100
AcDbLine
 10
249.3476720320107
 20
130.2186306718274
 30
0.0
 11
251.4692616688943
 21
132.3402203087109
 31
0.0
  0
LINE
  5
6BF7
330
18
100
AcDbEntity
  8
剖面線
100
AcDbLine
 10
264.3190469519426
 20
136.2097494706901
 30
0.0
 11
266.3279281530799
 21
138.2186306718275
 31
0.0
  0
LINE
  5
6BF8
330
18
100
AcDbEntity
  8
剖面線
100
AcDbLine
 10
266.1166819010513
 20
136.211333195585
 30
0.0
 11
267.6239793772937
 21
137.7186306718275
 31
0.0
  0
LINE
  5
6BF9
330
18
100
AcDbEntity
  8
剖面線
100
AcDbLine
 10
263.4692616688942
 20
131.7678617392141
 30
0.0
 11
263.9283404600708
 21
132.2269405303907
 31
0.0
  0
LINE
  5
6BFA
330
18
100
AcDbEntity
  8
剖面線
100
AcDbLine
 10
267.9143168501599
 20
136.2129169204798
 30
0.0
 11
269.1513243331814
 21
137.4499244035013
 31
0.0
  0
LINE
  5
6BFB
330
18
100
AcDbEntity
  8
剖面線
100
AcDbLine
 10
264.3426717473078
 20
130.8452205934139
 30
0.0
 11
265.7228107474718
 21
132.2253595935779
 31
0.0
  0
LINE
  5
6BFC
330
18
100
AcDbEntity
  8
剖面線
100
AcDbLine
 10
265.5121330499353
 20
130.2186306718274
 30
0.0
 11
267.5172810348727
 21
132.223778656765
 31
0.0
  0
LINE
  5
6BFD
330
18
100
AcDbEntity
  8
剖面線
100
AcDbLine
 10
267.3081842741491
 20
130.2186306718275
 30
0.0
 11
269.3117513222737
 21
132.2221977199521
 31
0.0
  0
DIMENSION
  5
6D0F
330
18
100
AcDbEntity
  8
DIM
100
AcDbDimension
  2
*D6
 10
263.4692616688942
 20
116.6592680268758
 30
0.0
 11
257.4692616688942
 21
116.6592680268758
 31
0.0
 70
   160
  1
M<>X1.0P
 71
     5
 42
-1.0
  3
A
100
AcDbAlignedDimension
 13
251.4692616688943
 23
131.7186306718275
 33
0.0
 14
263.4692616688942
 24
131.7186306718275
 34
0.0
100
AcDbRotatedDimension
  0
DIMENSION
  5
6D35
330
18
100
AcDbEntity
  8
DIM
100
AcDbDimension
  2
*D7
 10
266.9692616688942
 20
147.0862119877372
 30
0.0
 11
257.4692616688942
 21
148.4612119877372
 31
0.0
 70
    32
  1
%%c<>%%p0.5
 71
     5
 42
-1.0
  3
A
100
AcDbAlignedDimension
 13
247.9692616688942
 23
138.2186306718275
 33
0.0
 14
266.9692616688942
 24
138.2186306718274
 34
0.0
100
AcDbRotatedDimension
  0
DIMENSION
  5
6D4D
330
18
100
AcDbEntity
  8
DIM
100
AcDbDimension
  2
*D8
 10
269.4692616688943
 20
151.9181854904828
 30
0.0
 11
257.4692616688942
 21
153.2931854904828
 31
0.0
 70
    32
  1
%%c<>
 71
     5
 42
-1.0
  3
A
100
AcDbAlignedDimension
 13
245.4692616688942
 23
136.7186306718275
 33
0.0
 14
269.4692616688943
 24
136.7186306718275
 34
0.0
100
AcDbRotatedDimension
  0
LINE
  5
6E55
330
18
100
AcDbEntity
  8
DIM
 62
     6
100
AcDbLine
 10
238.254385078769
 20
185.0493377215064
 30
0.0
 11
238.254385078769
 21
196.5131785401581
 31
0.0
  0
LINE
  5
6E63
330
18
100
AcDbEntity
  8
DIM
 62
     6
100
AcDbLine
 10
250.0592616688942
 20
163.8504955965984
 30
0.0
 11
253.0141097493222
 21
163.8504955965984
 31
0.0
  0
MTEXT
  5
6E9A
330
18
100
AcDbEntity
  8
DIM
100
AcDbMText
 10
216.2311415998892
 20
95.13175086873781
 30
0.0
 40
2.25
 41
0.0
 71
     1
 72
     5
  1
{\Ftxt,bigfont|c128;06.04.25外形寸法を変更する}
  7
JL
 73
     1
 44
1.0
1001
ACAD
1000
ACAD_MTEXT_DEFINED_HEIGHT_BEGIN
1070
    46
1040
0.0
1000
ACAD_MTEXT_DEFINED_HEIGHT_END
  0
MTEXT
  5
6E9B
330
18
100
AcDbEntity
  8
DIM
100
AcDbMText
 10
236.532474963082
 20
95.07485010945037
 30
0.0
 40
2.25
 41
0.0
 71
     1
 72
     5
  1
{\Ftxt,bigfont|c128;謝}
  7
JL
 73
     1
 44
1.0
1001
ACAD
1000
ACAD_MTEXT_DEFINED_HEIGHT_BEGIN
1070
    46
1040
0.0
1000
ACAD_MTEXT_DEFINED_HEIGHT_END
  0
CIRCLE
  5
6E9C
330
18
100
AcDbEntity
  8
DIM
100
AcDbCircle
 10
237.0210155197833
 20
93.9005259770845
 30
0.0
 40
1.42601098075263
  0
MTEXT
  5
6E9D
330
18
100
AcDbEntity
  8
DIM
100
AcDbMText
 10
214.1582004037516
 20
94.87751619702526
 30
0.0
 40
1.75
 41
0.0
 71
     1
 72
     5
  1
{\Ftxt,bigfont|c128;1}
  7
JL
 73
     1
 44
1.0
1001
ACAD
1000
ACAD_MTEXT_DEFINED_HEIGHT_BEGIN
1070
    46
1040
0.0
1000
ACAD_MTEXT_DEFINED_HEIGHT_END
  0
REGION
  5
6E9E
330
18
100
AcDbEntity
  8
DIM
100
AcDbModelerGeometry
 70
     1
  1
mogoo mm m o          
  1
ni ^ *+0;:,4 ^ *+0\^ [ nh ^ LR iqoqjqhook QK mk K*: P<+ nn nkeomejm monn 
  1
n fqfffffffffffffffj:rooh n:rono 
  1
>,27:>;:- {rn rn _nm mogqoqjqhook |
  1
=0;& {rn rn {rn {m {rn {rn |
  1
3*2/ {rn rn {rn {rn {l {n |
  1
,7:33 {rn rn {rn {rn {rn {k {rn {m |
  1
9><: {rn rn {rn {rn {j {l {rn {i 90-(>-; ;0*=3: 0*+ |
  1
300/ {rn rn {rn {rn {h {k |
  1
/3>1:r,*-9><: {rn rn {rn mnkqmgjngjlnhimlnl flqihhkmgmofgolfhg o o o n n o o 90-(>-;@) V V V V |
  1
<0:;8: {rn rn {rn {g {f {rn {no 90-(>-; {j {rn |
  1
<0:;8: {rn rn {rn {f {h {rn {nn 90-(>-; {j {rn |
  1
<0:;8: {rn rn {rn {h {g {rn {nm -:):-,:; {j {rn |
  1
:;8: {rn rn {rn {nl o {nk mqjfgohimnnljlljjn {h {nj 90-(>-; _h *1410(1 |
  1
:;8: {rn rn {rn {nk o {ni mqjfgohimnnljllhmf {g {nh 90-(>-; _h *1410(1 |
  1
:;8: {rn rn {rn {nl o {ni mqjfgohimnnljlljjn {f {ng 90-(>-; _h *1410(1 |
  1
):-+:' {rn rn {rn {no {nf |
  1
):-+:' {rn rn {rn {no {mo |
  1
,+->687+r<*-): {rn rn {rn mnkqmgjngjlnhimlnl fjqnhhkmgmofgolffm o roqjoooooooooooooljj roqgiiomjkolhgkklihn o V V |
  1
):-+:' {rn rn {rn {nn {mn |
  1
,+->687+r<*-): {rn rn {rn mnmqfginkhmnnfkikj fmqfmhkmgmofgolfil o n o o V V |
  1
,+->687+r<*-): {rn rn {rn mnkqmgjngjlnhimlnl fjqnhhkmgmofgolffm o oqjoooooooooooooljj roqgiiomjkolhgkklihn o V V |
  1
/061+ {rn rn {rn mnkqmgjngjlnhimlnl fjqnhhkmgmofgolffm o |
  1
/061+ {rn rn {rn mnmqfginkhmnnfkikj fmqfmhkmgmofgolfil o |
  1
/061+ {rn rn {rn mnjqjgkmmlkmlmffgm fmqfmhkmgmofgolfil o |
  0
MTEXT
  5
6EAC
330
18
100
AcDbEntity
  8
DIM
100
AcDbMText
 10
251.3242975216247
 20
142.3314165655221
 30
0.0
 40
1.75
 41
0.0
 71
     1
 72
     5
  1
{\Ftxt,bigfont|c128;1}
  7
JL
 73
     1
 44
1.0
1001
ACAD
1000
ACAD_MTEXT_DEFINED_HEIGHT_BEGIN
1070
    46
1040
0.0
1000
ACAD_MTEXT_DEFINED_HEIGHT_END
  0
MTEXT
  5
6EAD
330
18
100
AcDbEntity
  8
DIM
 62
     3
100
AcDbMText
 10
252.6126747836607
 20
143.8607412448842
 30
0.0
 40
1.75
 41
0.0
 71
     5
 72
     1
  1
2-C1
  7
TXT
 73
     1
 44
1.0
1001
ACAD
1000
ACAD_MTEXT_DEFINED_HEIGHT_BEGIN
1070
    46
1040
0.0
1000
ACAD_MTEXT_DEFINED_HEIGHT_END
  0
LINE
  5
6EAE
330
18
100
AcDbEntity
  8
0
 62
     1
100
AcDbLine
 10
257.1766494697321
 20
144.5186704791365
 30
0.0
 11
264.0208920780876
 21
144.5186704791365
 31
0.0
  0
LINE
  5
6EAF
330
18
100
AcDbEntity
  8
0
 62
     1
100
AcDbLine
 10
257.1766494697321
 20
143.2452135025564
 30
0.0
 11
264.0208920780876
 21
143.2452135025564
 31
0.0
  0
REGION
  5
6EB0
330
18
100
AcDbEntity
  8
DIM
100
AcDbModelerGeometry
 70
     1
  1
mogoo mm m o          
  1
ni ^ *+0;:,4 ^ *+0\^ [ nh ^ LR iqoqjqhook QK mk K*: P<+ nn nkeomejm monn 
  1
n fqfffffffffffffffj:rooh n:rono 
  1
>,27:>;:- {rn rn _nm mogqoqjqhook |
  1
=0;& {rn rn {rn {m {rn {rn |
  1
3*2/ {rn rn {rn {rn {l {n |
  1
,7:33 {rn rn {rn {rn {rn {k {rn {m |
  1
9><: {rn rn {rn {rn {j {l {rn {i 90-(>-; ;0*=3: 0*+ |
  1
300/ {rn rn {rn {rn {h {k |
  1
/3>1:r,*-9><: {rn rn {rn mjnqkjnmgmkljkfing nknqnlnlmgjhgloohg o o o n n o o 90-(>-;@) V V V V |
  1
<0:;8: {rn rn {rn {g {f {rn {no 90-(>-; {j {rn |
  1
<0:;8: {rn rn {rn {f {h {rn {nn 90-(>-; {j {rn |
  1
<0:;8: {rn rn {rn {h {g {rn {nm -:):-,:; {j {rn |
  1
:;8: {rn rn {rn {nl o {nk mqjfgohimnnljlljjn {h {nj 90-(>-; _h *1410(1 |
  1
:;8: {rn rn {rn {nk o {ni mqjfgohimnnljllhmf {g {nh 90-(>-; _h *1410(1 |
  1
:;8: {rn rn {rn {nl o {ni mqjfgohimnnljlljjn {f {ng 90-(>-; _h *1410(1 |
  1
):-+:' {rn rn {rn {no {nf |
  1
):-+:' {rn rn {rn {no {mo |
  1
,+->687+r<*-): {rn rn {rn mjnqkjnmgmkljkfing nkmqilnlmgjhgloogn o roqjoooooooooooooljj roqgiiomjkolhgkklihn o V V |
  1
):-+:' {rn rn {rn {nn {mn |
  1
,+->687+r<*-): {rn rn {rn mjoqnjmmkklmfgnfj nkoqlgnlmgjhgloohg o n o o V V |
  1
,+->687+r<*-): {rn rn {rn mjnqkjnmgmkljkfing nkmqilnlmgjhgloogn o oqjoooooooooooooljj roqgiiomjkolhgkklihn o V V |
  1
/061+ {rn rn {rn mjnqkjnmgmkljkfing nkmqilnlmgjhgloogn o |
  1
/061+ {rn rn {rn mjoqnjmmkklmfgnfj nkoqlgnlmgjhgloohg o |
  1
/061+ {rn rn {rn mjmqhjolmojknnhmgh nkoqlgnlmgjhgloohg o |
  0
MTEXT
  5
6EC3
330
18
100
AcDbEntity
  8
DIM
100
AcDbMText
 10
303.3728056401248
 20
76.97482994903271
 30
0.0
 40
1.75
 41
0.0
 71
     1
 72
     5
  1
{\Ftxt,bigfont|c128;1}
  7
JL
 73
     1
 44
1.0
1001
ACAD
1000
ACAD_MTEXT_DEFINED_HEIGHT_BEGIN
1070
    46
1040
0.0
1000
ACAD_MTEXT_DEFINED_HEIGHT_END
  0
REGION
  5
6EC4
330
18
100
AcDbEntity
  8
DIM
100
AcDbModelerGeometry
 70
     1
  1
mogoo mm m o          
  1
ni ^ *+0;:,4 ^ *+0\^ [ nh ^ LR iqoqjqhook QK mk K*: P<+ nn nkeomejm monn 
  1
n fqfffffffffffffffj:rooh n:rono 
  1
>,27:>;:- {rn rn _nm mogqoqjqhook |
  1
=0;& {rn rn {rn {m {rn {rn |
  1
3*2/ {rn rn {rn {rn {l {n |
  1
,7:33 {rn rn {rn {rn {rn {k {rn {m |
  1
9><: {rn rn {rn {rn {j {l {rn {i 90-(>-; ;0*=3: 0*+ |
  1
300/ {rn rn {rn {rn {h {k |
  1
/3>1:r,*-9><: {rn rn {rn lolqkffhfojjlffilg hjqhhkhknfingnnknj o o o n n o o 90-(>-;@) V V V V |
  1
<0:;8: {rn rn {rn {g {f {rn {no 90-(>-; {j {rn |
  1
<0:;8: {rn rn {rn {f {h {rn {nn 90-(>-; {j {rn |
  1
<0:;8: {rn rn {rn {h {g {rn {nm -:):-,:; {j {rn |
  1
:;8: {rn rn {rn {nl o {nk mqjfgohimnnljlljjn {h {nj 90-(>-; _h *1410(1 |
  1
:;8: {rn rn {rn {nk o {ni mqjfgohimnnljllhmf {g {nh 90-(>-; _h *1410(1 |
  1
:;8: {rn rn {rn {nl o {ni mqjfgohimnnljlljjn {f {ng 90-(>-; _h *1410(1 |
  1
):-+:' {rn rn {rn {no {nf |
  1
):-+:' {rn rn {rn {no {mo |
  1
,+->687+r<*-): {rn rn {rn lolqkffhfojjlffilg hhqmhkhknfingnnkmf o roqjoooooooooooooljj roqgiiomjkolhgkklihn o V V |
  1
):-+:' {rn rn {rn {nn {mn |
  1
,+->687+r<*-): {rn rn {rn lomqmoohjmkkglnfif hjqomkhknfingnnkon o n o o V V |
  1
,+->687+r<*-): {rn rn {rn lolqkffhfojjlffilg hhqmhkhknfingnnkmf o oqjoooooooooooooljj roqgiiomjkolhgkklihn o V V |
  1
/061+ {rn rn {rn lolqkffhfojjlffilg hhqmhkhknfingnnkmf o |
  1
/061+ {rn rn {rn lomqmoohjmkkglnfif hjqomkhknfingnnkon o |
  1
/061+ {rn rn {rn lokqhfggmgijfihloi hjqomkhknfingnnkon o |
  0
MTEXT
  5
6EC5
330
18
100
AcDbEntity
  8
0
100
AcDbMText
 10
234.915937964527
 20
83.56812717502874
 30
0.0
 40
2.5
 41
0.0
 71
     1
 72
     5
  1
{\Ftxt,bigfont|c128;小\~柳}
  7
JL
 73
     1
 44
1.0
1001
ACAD
1000
ACAD_MTEXT_DEFINED_HEIGHT_BEGIN
1070
    46
1040
0.0
1000
ACAD_MTEXT_DEFINED_HEIGHT_END
  0
ENDSEC
  0
SECTION
  2
OBJECTS
  0
DICTIONARY
  5
C
330
0
100
AcDbDictionary
281
     1
  3
ACAD_COLOR
350
6E7F
  3
ACAD_GROUP
350
D
  3
ACAD_LAYOUT
350
5CF3
  3
ACAD_MATERIAL
350
6E7E
  3
ACAD_MLINESTYLE
350
1B
  3
ACAD_PLOTSETTINGS
350
5CF4
  3
ACAD_PLOTSTYLENAME
350
5CF1
  3
ACAD_TABLESTYLE
350
6E80
  3
ACDBVARIABLEDICTIONARY
350
45D
  0
DICTIONARY
  5
45F
330
18
100
AcDbDictionary
280
     1
281
     1
  3
ACAD_LAYOUTSELFREF
360
5D8B
  3
ACAD_SORTENTS
360
460
  0
DICTIONARY
  5
5D89
330
15
100
AcDbDictionary
280
     1
281
     1
  3
ACAD_LAYOUTSELFREF
360
5D8A
  0
DICTIONARY
  5
6E7F
102
{ACAD_REACTORS
330
C
102
}
330
C
100
AcDbDictionary
281
     1
  0
DICTIONARY
  5
D
102
{ACAD_REACTORS
330
C
102
}
330
C
100
AcDbDictionary
281
     1
  0
DICTIONARY
  5
5CF3
102
{ACAD_REACTORS
330
C
102
}
330
C
100
AcDbDictionary
281
     1
  3
Model
350
5CF5
  3
配置1
350
5CF6
  0
DICTIONARY
  5
6E7E
102
{ACAD_REACTORS
330
C
102
}
330
C
100
AcDbDictionary
281
     1
  0
DICTIONARY
  5
1B
102
{ACAD_REACTORS
330
C
102
}
330
C
100
AcDbDictionary
281
     1
  3
STANDARD
350
1C
  0
DICTIONARY
  5
5CF4
102
{ACAD_REACTORS
330
C
102
}
330
C
100
AcDbDictionary
281
     1
  0
ACDBDICTIONARYWDFLT
  5
5CF1
102
{ACAD_REACTORS
330
C
102
}
330
C
100
AcDbDictionary
281
     1
  3
Normal
350
5CF2
100
AcDbDictionaryWithDefault
340
5CF2
  0
DICTIONARY
  5
6E80
102
{ACAD_REACTORS
330
C
102
}
330
C
100
AcDbDictionary
281
     1
  3
Standard
350
6E81
  0
DICTIONARY
  5
45D
102
{ACAD_REACTORS
330
C
102
}
330
C
100
AcDbDictionary
281
     1
  3
CTABLESTYLE
350
6EB9
  3
SORTENTS
350
45E
  0
XRECORD
  5
5D8B
102
{ACAD_REACTORS
330
45F
102
}
330
45F
100
AcDbXrecord
280
     1
340
18
  0
SORTENTSTABLE
  5
460
102
{ACAD_REACTORS
330
45F
102
}
330
45F
100
AcDbSortentsTable
330
18
331
C0
  5
CB
  0
XRECORD
  5
5D8A
102
{ACAD_REACTORS
330
5D89
102
}
330
5D89
100
AcDbXrecord
280
     1
340
15
  0
LAYOUT
  5
5CF5
102
{ACAD_REACTORS
330
5CF3
102
}
330
5CF3
100
AcDbPlotSettings
  1

  2
EPSON STYLUS COLOR 440
  4

  6

 40
0.0
 41
0.0
 42
0.0
 43
0.0
 44
0.0
 45
0.0
 46
0.0
 47
0.0
 48
0.0
 49
0.0
140
0.0
141
0.0
142
1.0
143
1.0
 70
  1712
 72
     0
 73
     0
 74
     0
  7
a.ctb
 75
     0
147
1.0
 76
     0
 77
     2
 78
   300
148
0.0
149
0.0
100
AcDbLayout
  1
Model
 70
     1
 71
     0
 10
0.0
 20
0.0
 11
12.0
 21
9.0
 12
0.0
 22
0.0
 32
0.0
 14
0.0
 24
0.0
 34
0.0
 15
0.0
 25
0.0
 35
0.0
146
0.0
 13
0.0
 23
0.0
 33
0.0
 16
1.0
 26
0.0
 36
0.0
 17
0.0
 27
1.0
 37
0.0
 76
     0
330
18
  0
LAYOUT
  5
5CF6
102
{ACAD_REACTORS
330
5CF3
102
}
330
5CF3
100
AcDbPlotSettings
  1

  2
EPSON STYLUS COLOR 440
  4

  6

 40
0.0
 41
0.0
 42
0.0
 43
0.0
 44
0.0
 45
0.0
 46
0.0
 47
0.0
 48
0.0
 49
0.0
140
0.0
141
0.0
142
1.0
143
1.0
 70
   688
 72
     0
 73
     0
 74
     5
  7
a.ctb
 75
    16
147
1.0
 76
     0
 77
     2
 78
   300
148
0.0
149
0.0
100
AcDbLayout
  1
ｰtｸm1
 70
     1
 71
     1
 10
0.0
 20
0.0
 11
420.0
 21
297.0
 12
0.0
 22
0.0
 32
0.0
 14
1.000000000000000E+20
 24
1.000000000000000E+20
 34
1.000000000000000E+20
 15
-1.000000000000000E+20
 25
-1.000000000000000E+20
 35
-1.000000000000000E+20
146
0.0
 13
0.0
 23
0.0
 33
0.0
 16
1.0
 26
0.0
 36
0.0
 17
0.0
 27
1.0
 37
0.0
 76
     0
330
15
  0
MLINESTYLE
  5
1C
102
{ACAD_REACTORS
330
1B
102
}
330
1B
100
AcDbMlineStyle
  2
STANDARD
 70
     0
  3

 62
   256
 51
90.0
 52
90.0
 71
     2
 49
0.5
 62
   256
  6
BYLAYER
 49
-0.5
 62
   256
  6
BYLAYER
  0
ACDBPLACEHOLDER
  5
5CF2
102
{ACAD_REACTORS
330
5CF1
102
}
330
5CF1
  0
TABLESTYLE
  5
6E81
102
{ACAD_REACTORS
330
6E80
102
}
330
6E80
100
AcDbTableStyle
  3
Standard
 70
     0
 71
     8
 40
1.5
 41
1.5
280
     0
281
     0
  7
STANDARD
140
4.5
170
     2
 62
     0
 63
     7
283
     0
274
    -2
284
     1
 64
     0
275
    -2
285
     1
 65
     0
276
    -2
286
     1
 66
     0
277
    -2
287
     1
 67
     0
278
    -2
288
     1
 68
     0
279
    -2
289
     1
 69
     0
  7
STANDARD
140
6.0
170
     5
 62
     0
 63
     7
283
     0
274
    -2
284
     1
 64
     0
275
    -2
285
     1
 65
     0
276
    -2
286
     1
 66
     0
277
    -2
287
     1
 67
     0
278
    -2
288
     1
 68
     0
279
    -2
289
     1
 69
     0
  7
STANDARD
140
4.5
170
     5
 62
     0
 63
     7
283
     0
274
    -2
284
     1
 64
     0
275
    -2
285
     1
 65
     0
276
    -2
286
     1
 66
     0
277
    -2
287
     1
 67
     0
278
    -2
288
     1
 68
     0
279
    -2
289
     1
 69
     0
  0
DICTIONARYVAR
  5
6EB9
102
{ACAD_REACTORS
330
45D
102
}
330
45D
100
DictionaryVariables
280
     0
  1
STANDARD
  0
DICTIONARYVAR
  5
45E
102
{ACAD_REACTORS
330
45D
102
}
330
45D
100
DictionaryVariables
280
     0
  1
127
  0
ENDSEC
  0
EOF
