  0
SECTION
  2
HEADER
  9
$ACADVER
  1
AC1018
  9
$ACADMAINTVER
 70
    76
  9
$DWGCODEPAGE
  3
ANSI_932
  9
$INSBASE
 10
0.0
 20
0.0
 30
0.0
  9
$EXTMIN
 10
210.006196569778
 20
73.8811280034474
 30
0.0
  9
$EXTMAX
 10
309.006196569778
 20
218.8811280034475
 30
2.0
  9
$LIMMIN
 10
0.0
 20
0.0
  9
$LIMMAX
 10
420.0
 20
297.0
  9
$ORTHOMODE
 70
     0
  9
$REGENMODE
 70
     1
  9
$FILLMODE
 70
     1
  9
$QTEXTMODE
 70
     0
  9
$MIRRTEXT
 70
     1
  9
$LTSCALE
 40
1.0
  9
$ATTMODE
 70
     1
  9
$TEXTSIZE
 40
2.5
  9
$TRACEWID
 40
1.0
  9
$TEXTSTYLE
  7
TXT
  9
$CLAYER
  8
DIM
  9
$CELTYPE
  6
BYLAYER
  9
$CECOLOR
 62
   256
  9
$CELTSCALE
 40
1.0
  9
$DISPSILH
 70
     0
  9
$DIMSCALE
 40
1.0
  9
$DIMASZ
 40
1.25
  9
$DIMEXO
 40
1.0
  9
$DIMDLI
 40
3.0
  9
$DIMRND
 40
0.0
  9
$DIMDLE
 40
0.0
  9
$DIMEXE
 40
1.0
  9
$DIMTP
 40
0.0
  9
$DIMTM
 40
0.0
  9
$DIMTXT
 40
1.75
  9
$DIMCEN
 40
0.0
  9
$DIMTSZ
 40
0.0
  9
$DIMTOL
 70
     0
  9
$DIMLIM
 70
     0
  9
$DIMTIH
 70
     0
  9
$DIMTOH
 70
     0
  9
$DIMSE1
 70
     0
  9
$DIMSE2
 70
     0
  9
$DIMTAD
 70
     3
  9
$DIMZIN
 70
     8
  9
$DIMBLK
  1

  9
$DIMASO
 70
     1
  9
$DIMSHO
 70
     1
  9
$DIMPOST
  1

  9
$DIMAPOST
  1

  9
$DIMALT
 70
     0
  9
$DIMALTD
 70
     2
  9
$DIMALTF
 40
25.4
  9
$DIMLFAC
 40
1.0
  9
$DIMTOFL
 70
     0
  9
$DIMTVP
 40
0.0
  9
$DIMTIX
 70
     0
  9
$DIMSOXD
 70
     0
  9
$DIMSAH
 70
     0
  9
$DIMBLK1
  1

  9
$DIMBLK2
  1

  9
$DIMSTYLE
  2
A
  9
$DIMCLRD
 70
     6
  9
$DIMCLRE
 70
     6
  9
$DIMCLRT
 70
     3
  9
$DIMTFAC
 40
1.0
  9
$DIMGAP
 40
0.5
  9
$DIMJUST
 70
     0
  9
$DIMSD1
 70
     0
  9
$DIMSD2
 70
     0
  9
$DIMTOLJ
 70
     1
  9
$DIMTZIN
 70
     0
  9
$DIMALTZ
 70
     0
  9
$DIMALTTZ
 70
     0
  9
$DIMUPT
 70
     0
  9
$DIMDEC
 70
     1
  9
$DIMTDEC
 70
     1
  9
$DIMALTU
 70
     2
  9
$DIMALTTD
 70
     2
  9
$DIMTXSTY
  7
TXT
  9
$DIMAUNIT
 70
     0
  9
$DIMADEC
 70
     0
  9
$DIMALTRND
 40
0.0
  9
$DIMAZIN
 70
     0
  9
$DIMDSEP
 70
    46
  9
$DIMATFIT
 70
     3
  9
$DIMFRAC
 70
     0
  9
$DIMLDRBLK
  1

  9
$DIMLUNIT
 70
     2
  9
$DIMLWD
 70
    -2
  9
$DIMLWE
 70
    -2
  9
$DIMTMOVE
 70
     1
  9
$LUNITS
 70
     2
  9
$LUPREC
 70
     2
  9
$SKETCHINC
 40
1.0
  9
$FILLETRAD
 40
1.5
  9
$AUNITS
 70
     0
  9
$AUPREC
 70
     2
  9
$MENU
  1
.
  9
$ELEVATION
 40
0.0
  9
$PELEVATION
 40
0.0
  9
$THICKNESS
 40
0.0
  9
$LIMCHECK
 70
     0
  9
$CHAMFERA
 40
1.75
  9
$CHAMFERB
 40
1.75
  9
$CHAMFERC
 40
1.75
  9
$CHAMFERD
 40
0.0174532925199433
  9
$SKPOLY
 70
     0
  9
$TDCREATE
 40
2451555.620234838
  9
$TDUCREATE
 40
2451555.245234838
  9
$TDUPDATE
 40
2455846.563647373
  9
$TDUUPDATE
 40
2455846.188647373
  9
$TDINDWG
 40
2.1897492245
  9
$TDUSRTIMER
 40
2.1897492245
  9
$USRTIMER
 70
     1
  9
$ANGBASE
 50
0.0
  9
$ANGDIR
 70
     0
  9
$PDMODE
 70
     0
  9
$PDSIZE
 40
0.0
  9
$PLINEWID
 40
0.0
  9
$SPLFRAME
 70
     0
  9
$SPLINETYPE
 70
     6
  9
$SPLINESEGS
 70
     8
  9
$HANDSEED
  5
71B8
  9
$SURFTAB1
 70
     6
  9
$SURFTAB2
 70
     6
  9
$SURFTYPE
 70
     6
  9
$SURFU
 70
     6
  9
$SURFV
 70
     6
  9
$UCSBASE
  2

  9
$UCSNAME
  2

  9
$UCSORG
 10
0.0
 20
0.0
 30
0.0
  9
$UCSXDIR
 10
1.0
 20
0.0
 30
0.0
  9
$UCSYDIR
 10
0.0
 20
1.0
 30
0.0
  9
$UCSORTHOREF
  2

  9
$UCSORTHOVIEW
 70
     0
  9
$UCSORGTOP
 10
0.0
 20
0.0
 30
0.0
  9
$UCSORGBOTTOM
 10
0.0
 20
0.0
 30
0.0
  9
$UCSORGLEFT
 10
0.0
 20
0.0
 30
0.0
  9
$UCSORGRIGHT
 10
0.0
 20
0.0
 30
0.0
  9
$UCSORGFRONT
 10
0.0
 20
0.0
 30
0.0
  9
$UCSORGBACK
 10
0.0
 20
0.0
 30
0.0
  9
$PUCSBASE
  2

  9
$PUCSNAME
  2

  9
$PUCSORG
 10
0.0
 20
0.0
 30
0.0
  9
$PUCSXDIR
 10
1.0
 20
0.0
 30
0.0
  9
$PUCSYDIR
 10
0.0
 20
1.0
 30
0.0
  9
$PUCSORTHOREF
  2

  9
$PUCSORTHOVIEW
 70
     0
  9
$PUCSORGTOP
 10
0.0
 20
0.0
 30
0.0
  9
$PUCSORGBOTTOM
 10
0.0
 20
0.0
 30
0.0
  9
$PUCSORGLEFT
 10
0.0
 20
0.0
 30
0.0
  9
$PUCSORGRIGHT
 10
0.0
 20
0.0
 30
0.0
  9
$PUCSORGFRONT
 10
0.0
 20
0.0
 30
0.0
  9
$PUCSORGBACK
 10
0.0
 20
0.0
 30
0.0
  9
$USERI1
 70
     0
  9
$USERI2
 70
     0
  9
$USERI3
 70
     0
  9
$USERI4
 70
     0
  9
$USERI5
 70
     0
  9
$USERR1
 40
0.0
  9
$USERR2
 40
0.0
  9
$USERR3
 40
0.0
  9
$USERR4
 40
0.0
  9
$USERR5
 40
0.0
  9
$WORLDVIEW
 70
     1
  9
$SHADEDGE
 70
     3
  9
$SHADEDIF
 70
    70
  9
$TILEMODE
 70
     1
  9
$MAXACTVP
 70
    48
  9
$PINSBASE
 10
0.0
 20
0.0
 30
0.0
  9
$PLIMCHECK
 70
     0
  9
$PEXTMIN
 10
1.000000000000000E+20
 20
1.000000000000000E+20
 30
1.000000000000000E+20
  9
$PEXTMAX
 10
-1.000000000000000E+20
 20
-1.000000000000000E+20
 30
-1.000000000000000E+20
  9
$PLIMMIN
 10
0.0
 20
0.0
  9
$PLIMMAX
 10
420.0
 20
297.0
  9
$UNITMODE
 70
     0
  9
$VISRETAIN
 70
     1
  9
$PLINEGEN
 70
     0
  9
$PSLTSCALE
 70
     1
  9
$TREEDEPTH
 70
  3020
  9
$CMLSTYLE
  2
STANDARD
  9
$CMLJUST
 70
     0
  9
$CMLSCALE
 40
20.0
  9
$PROXYGRAPHICS
 70
     1
  9
$MEASUREMENT
 70
     1
  9
$CELWEIGHT
370
    -1
  9
$ENDCAPS
280
     0
  9
$JOINSTYLE
280
     0
  9
$LWDISPLAY
290
     0
  9
$INSUNITS
 70
     0
  9
$HYPERLINKBASE
  1

  9
$STYLESHEET
  1

  9
$XEDIT
290
     1
  9
$CEPSNTYPE
380
     0
  9
$PSTYLEMODE
290
     1
  9
$FINGERPRINTGUID
  2
{1CF51E8A-A506-11D4-A7D9-AF69F5C20846}
  9
$VERSIONGUID
  2
{1DEF2773-D6E5-483A-BBFB-1406303818C2}
  9
$EXTNAMES
290
     1
  9
$PSVPSCALE
 40
0.0
  9
$OLESTARTUP
290
     0
  9
$SORTENTS
280
   127
  9
$INDEXCTL
280
     0
  9
$HIDETEXT
280
     0
  9
$XCLIPFRAME
290
     0
  9
$HALOGAP
280
     0
  9
$OBSCOLOR
 70
   257
  9
$OBSLTYPE
280
     0
  9
$INTERSECTIONDISPLAY
280
     0
  9
$INTERSECTIONCOLOR
 70
   257
  9
$DIMASSOC
280
     1
  9
$PROJECTNAME
  1

  0
ENDSEC
  0
SECTION
  2
CLASSES
  0
CLASS
  1
DICTIONARYVAR
  2
AcDbDictionaryVar
  3
ObjectDBX Classes
 90
        0
 91
        2
280
     0
281
     0
  0
CLASS
  1
SORTENTSTABLE
  2
AcDbSortentsTable
  3
ObjectDBX Classes
 90
        0
 91
        1
280
     0
281
     0
  0
CLASS
  1
ACDBDICTIONARYWDFLT
  2
AcDbDictionaryWithDefault
  3
ObjectDBX Classes
 90
        0
 91
        1
280
     0
281
     0
  0
CLASS
  1
TABLESTYLE
  2
AcDbTableStyle
  3
ObjectDBX Classes
 90
     2047
 91
        1
280
     0
281
     0
  0
ENDSEC
  0
SECTION
  2
TABLES
  0
TABLE
  2
VPORT
  5
8
330
0
100
AcDbSymbolTable
 70
     2
  0
VPORT
  5
71B7
330
8
100
AcDbSymbolTableRecord
100
AcDbViewportTableRecord
  2
*Active
 70
     0
 10
0.0
 20
0.0
 11
1.0
 21
1.0
 12
233.8882520361817
 22
137.6807749962998
 13
0.0
 23
0.0
 14
10.0
 24
10.0
 15
10.0
 25
10.0
 16
0.0
 26
0.0
 36
1.0
 17
0.0
 27
0.0
 37
0.0
 40
171.8884850450888
 41
2.47104247104247
 42
50.0
 43
0.0
 44
0.0
 50
0.0
 51
0.0
 71
     0
 72
   100
 73
     1
 74
     1
 75
     0
 76
     0
 77
     0
 78
     0
281
     0
 65
     1
110
0.0
120
0.0
130
0.0
111
1.0
121
0.0
131
0.0
112
0.0
122
1.0
132
0.0
 79
     0
146
0.0
  0
ENDTAB
  0
TABLE
  2
LTYPE
  5
5
330
0
100
AcDbSymbolTable
 70
     9
  0
LTYPE
  5
12
330
5
100
AcDbSymbolTableRecord
100
AcDbLinetypeTableRecord
  2
BYBLOCK
 70
     0
  3

 72
    65
 73
     0
 40
0.0
  0
LTYPE
  5
13
330
5
100
AcDbSymbolTableRecord
100
AcDbLinetypeTableRecord
  2
BYLAYER
 70
     0
  3

 72
    65
 73
     0
 40
0.0
  0
LTYPE
  5
14
330
5
100
AcDbSymbolTableRecord
100
AcDbLinetypeTableRecord
  2
CONTINUOUS
 70
     0
  3
Solid line
 72
    65
 73
     0
 40
0.0
  0
LTYPE
  5
9D
330
5
100
AcDbSymbolTableRecord
100
AcDbLinetypeTableRecord
  2
CENTERX2
 70
     0
  3
Center (2x) ________  __  ________  __  _____
 72
    65
 73
     4
 40
101.6
 49
63.5
 74
     0
 49
-12.7
 74
     0
 49
12.7
 74
     0
 49
-12.7
 74
     0
  0
LTYPE
  5
A1
330
5
100
AcDbSymbolTableRecord
100
AcDbLinetypeTableRecord
  2
DASHED
 70
     0
  3
Dashed __ __ __ __ __ __ __ __ __ __ __ __ __ _
 72
    65
 73
     2
 40
19.05
 49
12.7
 74
     0
 49
-6.349999999999999
 74
     0
  0
LTYPE
  5
A2
330
5
100
AcDbSymbolTableRecord
100
AcDbLinetypeTableRecord
  2
DASHED2
 70
     0
  3
Dashed (.5x) _ _ _ _ _ _ _ _ _ _ _ _ _ _ _ _ _
 72
    65
 73
     2
 40
9.524999999999998
 49
6.349999999999999
 74
     0
 49
-3.174999999999999
 74
     0
  0
LTYPE
  5
A5
330
5
100
AcDbSymbolTableRecord
100
AcDbLinetypeTableRecord
  2
DIVIDE2
 70
     0
  3
Divide (.5x) __..__..__..__..__..__..__..__.._
 72
    65
 73
     6
 40
15.875
 49
6.349999999999999
 74
     0
 49
-3.174999999999999
 74
     0
 49
0.0
 74
     0
 49
-3.174999999999999
 74
     0
 49
0.0
 74
     0
 49
-3.174999999999999
 74
     0
  0
LTYPE
  5
650B
330
5
100
AcDbSymbolTableRecord
100
AcDbLinetypeTableRecord
  2
CENTER
 70
     0
  3
Center ____ _ ____ _ ____ _ ____ _ ____ _ ____
 72
    65
 73
     4
 40
50.8
 49
31.75
 74
     0
 49
-6.349999999999999
 74
     0
 49
6.349999999999999
 74
     0
 49
-6.349999999999999
 74
     0
  0
LTYPE
  5
650C
330
5
100
AcDbSymbolTableRecord
100
AcDbLinetypeTableRecord
  2
HIDDEN
 70
     0
  3
Hidden __ __ __ __ __ __ __ __ __ __ __ __ __ _
 72
    65
 73
     2
 40
9.524999999999998
 49
6.349999999999999
 74
     0
 49
-3.174999999999999
 74
     0
  0
LTYPE
  5
6684
330
5
100
AcDbSymbolTableRecord
100
AcDbLinetypeTableRecord
  2
HIDDEN2
 70
     0
  3
Hidden (.5x) _ _ _ _ _ _ _ _ _ _ _ _ _ _ _ _ _
 72
    65
 73
     2
 40
4.762499999999999
 49
3.174999999999999
 74
     0
 49
-1.587499999999999
 74
     0
  0
LTYPE
  5
6AF9
330
5
100
AcDbSymbolTableRecord
100
AcDbLinetypeTableRecord
  2
ACAD_ISO03W100
 70
     0
  3
ISO dash space __    __    __    __    __    __
 72
    65
 73
     2
 40
30.0
 49
12.0
 74
     0
 49
-18.0
 74
     0
  0
ENDTAB
  0
TABLE
  2
LAYER
  5
2
330
0
100
AcDbSymbolTable
 70
     9
  0
LAYER
  5
E
330
2
100
AcDbSymbolTableRecord
100
AcDbLayerTableRecord
  2
0
 70
     0
 62
     7
  6
CONTINUOUS
370
    -3
390
5CF2
  0
LAYER
  5
B9
330
2
100
AcDbSymbolTableRecord
100
AcDbLayerTableRecord
  2
DIM
 70
     0
 62
     3
  6
CONTINUOUS
370
    -3
390
5CF2
  0
LAYER
  5
F2
330
2
100
AcDbSymbolTableRecord
100
AcDbLayerTableRecord
  2
DEFPOINTS
 70
     0
 62
     7
  6
CONTINUOUS
290
     0
370
    -3
390
5CF2
  0
LAYER
  5
5F8B
330
2
100
AcDbSymbolTableRecord
100
AcDbLayerTableRecord
  2
公差
 70
     0
 62
     6
  6
CONTINUOUS
370
    -3
390
5CF2
  0
LAYER
  5
644E
330
2
100
AcDbSymbolTableRecord
100
AcDbLayerTableRecord
  2
図框線
 70
     0
 62
     9
  6
CONTINUOUS
370
    -3
390
5CF2
  0
LAYER
  5
650D
330
2
100
AcDbSymbolTableRecord
100
AcDbLayerTableRecord
  2
中心線
 70
     0
 62
     1
  6
CENTER
370
    -3
390
5CF2
  0
LAYER
  5
650E
330
2
100
AcDbSymbolTableRecord
100
AcDbLayerTableRecord
  2
本体内線
 70
     0
 62
     4
  6
HIDDEN
370
    -3
390
5CF2
  0
LAYER
  5
650F
330
2
100
AcDbSymbolTableRecord
100
AcDbLayerTableRecord
  2
本体外線
 70
     0
 62
     2
  6
CONTINUOUS
370
    -3
390
5CF2
  0
LAYER
  5
6510
330
2
100
AcDbSymbolTableRecord
100
AcDbLayerTableRecord
  2
剖面線
 70
     0
 62
     5
  6
CONTINUOUS
370
    -3
390
5CF2
  0
ENDTAB
  0
TABLE
  2
STYLE
  5
3
330
0
100
AcDbSymbolTable
 70
     5
  0
STYLE
  5
F
330
3
100
AcDbSymbolTableRecord
100
AcDbTextStyleTableRecord
  2
STANDARD
 70
     0
 40
0.0
 41
1.0
 50
0.0
 71
     0
 42
2.5
  3
txt
  4

  0
STYLE
  5
BE
330
3
100
AcDbSymbolTableRecord
100
AcDbTextStyleTableRecord
  2
ISOCP3
 70
     0
 40
0.0
 41
1.0
 50
0.0
 71
     0
 42
2.5
  3
isocp3.shx
  4

  0
STYLE
  5
2A37
330
3
100
AcDbSymbolTableRecord
100
AcDbTextStyleTableRecord
  2
TXT
 70
     0
 40
0.0
 41
1.0
 50
0.0
 71
     0
 42
2.5
  3
txt.shx
  4
bigfont.shx
  0
STYLE
  5
5DCB
330
3
100
AcDbSymbolTableRecord
100
AcDbTextStyleTableRecord
  2
LKK
 70
     0
 40
50.0
 41
1.5
 50
0.0
 71
     0
 42
50.0
  3
MS PGothic.ttf
  4

1001
ACAD
1000
MS PGothic
1071
    32818
  0
STYLE
  5
5DCC
330
3
100
AcDbSymbolTableRecord
100
AcDbTextStyleTableRecord
  2
JL
 70
     0
 40
10.0
 41
0.5
 50
0.0
 71
     0
 42
5.0
  3
MS Mincho.ttf
  4

1001
ACAD
1000
MS Mincho
1071
    32785
  0
ENDTAB
  0
TABLE
  2
VIEW
  5
6
330
0
100
AcDbSymbolTable
 70
     0
  0
ENDTAB
  0
TABLE
  2
UCS
  5
7
330
0
100
AcDbSymbolTable
 70
     0
  0
ENDTAB
  0
TABLE
  2
APPID
  5
9
330
0
100
AcDbSymbolTable
 70
     1
  0
APPID
  5
10
330
9
100
AcDbSymbolTableRecord
100
AcDbRegAppTableRecord
  2
ACAD
 70
     0
  0
ENDTAB
  0
TABLE
  2
DIMSTYLE
  5
A
330
0
100
AcDbSymbolTable
 70
     3
100
AcDbDimStyleTable
 71
     0
  0
DIMSTYLE
105
1D
330
A
100
AcDbSymbolTableRecord
100
AcDbDimStyleTableRecord
  2
STANDARD
 70
     0
 41
3.0
 42
0.06
 77
     3
140
4.0
144
0.3333333333333333
172
     1
340
F
  0
DIMSTYLE
105
1A4
102
{ACAD_REACTORS
330
675D
330
678A
330
68F8
330
6947
330
6A66
330
6EA2
330
6EAB
330
7064
102
}
330
A
100
AcDbSymbolTableRecord
100
AcDbDimStyleTableRecord
  2
A
 70
     0
 41
1.25
 42
1.0
 43
3.0
 44
1.0
 73
     0
 74
     0
 77
     3
 78
     8
140
1.75
141
0.0
147
0.5
176
     6
177
     6
178
     3
271
     1
272
     1
279
     1
340
2A37
  0
DIMSTYLE
105
6006
330
A
100
AcDbSymbolTableRecord
100
AcDbDimStyleTableRecord
  2
ISO-25
 70
     0
 40
0.0
 41
2.0
 42
0.3
 43
1.0
 44
0.3
 73
     0
 74
     0
 77
     1
 78
     8
140
3.0
147
1.0
172
     1
176
     6
177
     6
178
     3
271
     1
272
     2
284
     8
288
     1
289
     2
340
F
  0
ENDTAB
  0
TABLE
  2
BLOCK_RECORD
  5
1
330
0
100
AcDbSymbolTable
 70
     9
  0
BLOCK_RECORD
  5
18
102
{ACAD_XDICTIONARY
360
45F
102
}
330
1
100
AcDbSymbolTableRecord
100
AcDbBlockTableRecord
  2
*MODEL_SPACE
340
5CF5
  0
BLOCK_RECORD
  5
15
102
{ACAD_XDICTIONARY
360
5D89
102
}
330
1
100
AcDbSymbolTableRecord
100
AcDbBlockTableRecord
  2
*PAPER_SPACE
340
5CF6
  0
BLOCK_RECORD
  5
639D
330
1
100
AcDbSymbolTableRecord
100
AcDbBlockTableRecord
  2
A$C255C26A2
340
0
102
{BLKREFS
331
63A3
102
}
  0
BLOCK_RECORD
  5
67B1
330
1
100
AcDbSymbolTableRecord
100
AcDbBlockTableRecord
  2
*D1
340
0
  0
BLOCK_RECORD
  5
67DE
330
1
100
AcDbSymbolTableRecord
100
AcDbBlockTableRecord
  2
*D2
340
0
  0
BLOCK_RECORD
  5
68F0
330
1
100
AcDbSymbolTableRecord
100
AcDbBlockTableRecord
  2
*D3
340
0
  0
BLOCK_RECORD
  5
6937
330
1
100
AcDbSymbolTableRecord
100
AcDbBlockTableRecord
  2
*D4
340
0
  0
BLOCK_RECORD
  5
6A5A
330
1
100
AcDbSymbolTableRecord
100
AcDbBlockTableRecord
  2
*D5
340
0
  0
BLOCK_RECORD
  5
6EDF
330
1
100
AcDbSymbolTableRecord
100
AcDbBlockTableRecord
  2
*D6
340
0
  0
BLOCK_RECORD
  5
6EF7
330
1
100
AcDbSymbolTableRecord
100
AcDbBlockTableRecord
  2
*D7
340
0
  0
BLOCK_RECORD
  5
7058
330
1
100
AcDbSymbolTableRecord
100
AcDbBlockTableRecord
  2
*D8
340
0
  0
ENDTAB
  0
ENDSEC
  0
SECTION
  2
BLOCKS
  0
BLOCK
  5
19
330
18
100
AcDbEntity
  8
0
100
AcDbBlockBegin
  2
*MODEL_SPACE
 70
     0
 10
0.0
 20
0.0
 30
0.0
  3
*MODEL_SPACE
  1

  0
ENDBLK
  5
1A
330
18
100
AcDbEntity
  8
0
100
AcDbBlockEnd
  0
BLOCK
  5
16
330
15
100
AcDbEntity
 67
     1
  8
0
100
AcDbBlockBegin
  2
*PAPER_SPACE
 70
     0
 10
0.0
 20
0.0
 30
0.0
  3
*PAPER_SPACE
  1

  0
ENDBLK
  5
17
330
15
100
AcDbEntity
 67
     1
  8
0
100
AcDbBlockEnd
  0
BLOCK
  5
63A1
330
639D
100
AcDbEntity
  8
0
100
AcDbBlockBegin
  2
A$C255C26A2
 70
     0
 10
0.0
 20
0.0
 30
0.0
  3
A$C255C26A2
  1

  0
LWPOLYLINE
  5
639E
330
639D
100
AcDbEntity
  8
0
100
AcDbPolyline
 90
        3
 70
     1
 43
0.0
 10
7.014806023851633
 20
0.0000006939811783
 10
5.611844869720698
 20
2.430000693981241
 10
8.417767177982568
 20
2.430000693981241
  0
LWPOLYLINE
  5
639F
330
639D
100
AcDbEntity
  8
0
100
AcDbPolyline
 90
        3
 70
     1
 43
0.0
 10
4.20888371558999
 20
0.0000006939811783
 10
2.805922561459283
 20
2.430000693981241
 10
5.611844869720698
 20
2.430000693981241
  0
LWPOLYLINE
  5
63A0
330
639D
100
AcDbEntity
  8
0
100
AcDbPolyline
 90
        3
 70
     1
 43
0.0
 10
1.402961407328348
 20
0.0000006939811783
 10
0.0000002531974133
 20
2.430000693981241
 10
2.805922561459283
 20
2.430000693981241
  0
ENDBLK
  5
63A2
330
639D
100
AcDbEntity
  8
0
100
AcDbBlockEnd
  0
BLOCK
  5
70CD
330
67B1
100
AcDbEntity
  8
0
100
AcDbBlockBegin
  2
*D1
 70
     1
 10
0.0
 20
0.0
 30
0.0
  3
*D1
  1

  0
LINE
  5
70CE
330
67B1
100
AcDbEntity
  8
0
  6
ByBlock
 62
     6
100
AcDbLine
 10
242.4123636759917
 20
131.4196367494345
 30
0.0
 11
234.8683698806479
 21
131.4196367494345
 31
0.0
  0
LINE
  5
70CF
330
67B1
100
AcDbEntity
  8
0
  6
ByBlock
 62
     6
100
AcDbLine
 10
243.9123636759918
 20
131.9196367494345
 30
0.0
 11
234.8683698806479
 21
131.9196367494345
 31
0.0
  0
LINE
  5
70D0
330
67B1
100
AcDbEntity
  8
0
  6
ByBlock
 62
     6
100
AcDbLine
 10
235.8683698806479
 20
130.1696367494345
 30
0.0
 11
235.8683698806479
 21
128.9196367494345
 31
0.0
  0
LINE
  5
70D1
330
67B1
100
AcDbEntity
  8
0
  6
ByBlock
 62
     6
100
AcDbLine
 10
235.8683698806479
 20
133.1696367494345
 30
0.0
 11
235.8683698806479
 21
134.4196367494345
 31
0.0
  0
LINE
  5
70D2
330
67B1
100
AcDbEntity
  8
0
  6
ByBlock
 62
     6
100
AcDbLine
 10
235.8683698806479
 20
139.5524920259054
 30
0.0
 11
235.8683698806479
 21
131.9196367494345
 31
0.0
  0
MTEXT
  5
70D3
330
67B1
100
AcDbEntity
  8
0
  6
ByBlock
 62
     3
100
AcDbMText
 10
234.4933698806479
 20
137.4483253592388
 30
0.0
 40
1.75
 41
0.0
 71
     5
 72
     1
  1
\A1;0.5
  7
TXT
 11
0.0000000000000001
 21
1.0
 31
0.0
 73
     1
 44
1.0
  0
LINE
  5
70D4
330
67B1
100
AcDbEntity
  8
0
  6
ByBlock
 62
     6
100
AcDbLine
 10
235.8683698806479
 20
131.4196367494345
 30
0.0
 11
235.8683698806479
 21
131.9196367494345
 31
0.0
  0
SOLID
  5
70D5
330
67B1
100
AcDbEntity
  8
0
  6
ByBlock
 62
     6
100
AcDbTrace
 10
235.6600365473145
 20
130.1696367494345
 30
0.0
 11
236.0767032139812
 21
130.1696367494345
 31
0.0
 12
235.8683698806479
 22
131.4196367494345
 32
0.0
 13
235.8683698806479
 23
131.4196367494345
 33
0.0
  0
SOLID
  5
70D6
330
67B1
100
AcDbEntity
  8
0
  6
ByBlock
 62
     6
100
AcDbTrace
 10
235.6600365473145
 20
133.1696367494345
 30
0.0
 11
236.0767032139812
 21
133.1696367494345
 31
0.0
 12
235.8683698806479
 22
131.9196367494345
 32
0.0
 13
235.8683698806479
 23
131.9196367494345
 33
0.0
  0
POINT
  5
70D7
330
67B1
100
AcDbEntity
  8
DEFPOINTS
  6
ByBlock
 62
     0
100
AcDbPoint
 10
243.4123636759917
 20
131.4196367494345
 30
0.0
  0
POINT
  5
70D8
330
67B1
100
AcDbEntity
  8
DEFPOINTS
  6
ByBlock
 62
     0
100
AcDbPoint
 10
244.9123636759917
 20
131.9196367494345
 30
0.0
  0
POINT
  5
70D9
330
67B1
100
AcDbEntity
  8
DEFPOINTS
  6
ByBlock
 62
     0
100
AcDbPoint
 10
235.8683698806479
 20
131.9196367494345
 30
0.0
  0
ENDBLK
  5
70DA
330
67B1
100
AcDbEntity
  8
0
100
AcDbBlockEnd
  0
BLOCK
  5
7129
330
67DE
100
AcDbEntity
  8
0
100
AcDbBlockBegin
  2
*D2
 70
     1
 10
0.0
 20
0.0
 30
0.0
  3
*D2
  1

  0
LINE
  5
712A
330
67DE
100
AcDbEntity
  8
0
  6
ByBlock
 62
     6
100
AcDbLine
 10
242.508714946573
 20
172.2503437991135
 30
0.0
 11
242.508714946573
 21
154.8880340052752
 31
0.0
  0
LINE
  5
712B
330
67DE
100
AcDbEntity
  8
0
  6
ByBlock
 62
     6
100
AcDbLine
 10
244.5128346212224
 20
172.2503437991134
 30
0.0
 11
244.5128346212224
 21
154.8880340052752
 31
0.0
  0
LINE
  5
712C
330
67DE
100
AcDbEntity
  8
0
  6
ByBlock
 62
     6
100
AcDbLine
 10
241.258714946573
 20
155.8880340052752
 30
0.0
 11
240.008714946573
 21
155.8880340052752
 31
0.0
  0
LINE
  5
712D
330
67DE
100
AcDbEntity
  8
0
  6
ByBlock
 62
     6
100
AcDbLine
 10
245.7628346212224
 20
155.8880340052752
 30
0.0
 11
247.0128346212224
 21
155.8880340052752
 31
0.0
  0
MTEXT
  5
712E
330
67DE
100
AcDbEntity
  8
0
  6
ByBlock
 62
     3
100
AcDbMText
 10
243.5107747838977
 20
157.2630340052753
 30
0.0
 40
1.75
 41
0.0
 71
     5
 72
     1
  1
\A1;2
  7
TXT
 73
     1
 44
1.0
  0
LINE
  5
712F
330
67DE
100
AcDbEntity
  8
0
  6
ByBlock
 62
     6
100
AcDbLine
 10
242.508714946573
 20
155.8880340052752
 30
0.0
 11
244.5128346212224
 21
155.8880340052752
 31
0.0
  0
SOLID
  5
7130
330
67DE
100
AcDbEntity
  8
0
  6
ByBlock
 62
     6
100
AcDbTrace
 10
241.258714946573
 20
156.0963673386086
 30
0.0
 11
241.258714946573
 21
155.6797006719419
 31
0.0
 12
242.508714946573
 22
155.8880340052752
 32
0.0
 13
242.508714946573
 23
155.8880340052752
 33
0.0
  0
SOLID
  5
7131
330
67DE
100
AcDbEntity
  8
0
  6
ByBlock
 62
     6
100
AcDbTrace
 10
245.7628346212224
 20
156.0963673386086
 30
0.0
 11
245.7628346212224
 21
155.6797006719419
 31
0.0
 12
244.5128346212224
 22
155.8880340052752
 32
0.0
 13
244.5128346212224
 23
155.8880340052752
 33
0.0
  0
POINT
  5
7132
330
67DE
100
AcDbEntity
  8
DEFPOINTS
  6
ByBlock
 62
     0
100
AcDbPoint
 10
242.508714946573
 20
173.2503437991135
 30
0.0
  0
POINT
  5
7133
330
67DE
100
AcDbEntity
  8
DEFPOINTS
  6
ByBlock
 62
     0
100
AcDbPoint
 10
244.5128346212224
 20
173.2503437991134
 30
0.0
  0
POINT
  5
7134
330
67DE
100
AcDbEntity
  8
DEFPOINTS
  6
ByBlock
 62
     0
100
AcDbPoint
 10
244.5128346212224
 20
155.8880340052752
 30
0.0
  0
ENDBLK
  5
7135
330
67DE
100
AcDbEntity
  8
0
100
AcDbBlockEnd
  0
BLOCK
  5
70E9
330
68F0
100
AcDbEntity
  8
0
100
AcDbBlockBegin
  2
*D3
 70
     1
 10
0.0
 20
0.0
 30
0.0
  3
*D3
  1

  0
LINE
  5
70EA
330
68F0
100
AcDbEntity
  8
0
  6
ByBlock
 62
     6
100
AcDbLine
 10
235.4364725058303
 20
117.113901836816
 30
0.0
 11
242.7802060149046
 21
124.2645716059844
 31
0.0
  0
MTEXT
  5
70EB
330
68F0
100
AcDbEntity
  8
0
  6
ByBlock
 62
     3
100
AcDbMText
 10
236.9251474869748
 20
120.4825934094634
 30
0.0
 40
1.75
 41
0.0
 71
     5
 72
     1
  1
\A1;2-R1
  7
TXT
 11
0.7164618057633443
 21
0.6976263189432635
 31
0.0
 73
     1
 44
1.0
  0
SOLID
  5
70EC
330
68F0
100
AcDbEntity
  8
0
  6
ByBlock
 62
     6
100
AcDbTrace
 10
241.7392899412539
 20
123.541801583506
 30
0.0
 11
242.0299675741469
 21
123.2432758311047
 31
0.0
 12
242.7802060149046
 22
124.2645716059844
 32
0.0
 13
242.7802060149046
 23
124.2645716059844
 33
0.0
  0
POINT
  5
70ED
330
68F0
100
AcDbEntity
  8
DEFPOINTS
  6
ByBlock
 62
     0
100
AcDbPoint
 10
242.7802060149046
 20
124.2645716059844
 30
0.0
  0
POINT
  5
70EE
330
68F0
100
AcDbEntity
  8
DEFPOINTS
  6
ByBlock
 62
     0
100
AcDbPoint
 10
243.0488791920659
 20
124.5261814755882
 30
0.0
  0
ENDBLK
  5
70EF
330
68F0
100
AcDbEntity
  8
0
100
AcDbBlockEnd
  0
BLOCK
  5
7152
330
6937
100
AcDbEntity
  8
0
100
AcDbBlockBegin
  2
*D4
 70
     1
 10
0.0
 20
0.0
 30
0.0
  3
*D4
  1

  0
LINE
  5
7153
330
6937
100
AcDbEntity
  8
0
  6
ByBlock
 62
     6
100
AcDbLine
 10
241.508714946573
 20
176.2503437991134
 30
0.0
 11
234.2079580310972
 21
176.2503437991134
 31
0.0
  0
LINE
  5
7154
330
6937
100
AcDbEntity
  8
0
  6
ByBlock
 62
     6
100
AcDbLine
 10
241.508714946573
 20
173.2503437991134
 30
0.0
 11
234.2079580310972
 21
173.2503437991134
 31
0.0
  0
LINE
  5
7155
330
6937
100
AcDbEntity
  8
0
  6
ByBlock
 62
     6
100
AcDbLine
 10
235.2079580310972
 20
177.5003437991134
 30
0.0
 11
235.2079580310972
 21
178.7503437991134
 31
0.0
  0
LINE
  5
7156
330
6937
100
AcDbEntity
  8
0
  6
ByBlock
 62
     6
100
AcDbLine
 10
235.2079580310972
 20
172.0003437991134
 30
0.0
 11
235.2079580310972
 21
170.7503437991134
 31
0.0
  0
MTEXT
  5
7157
330
6937
100
AcDbEntity
  8
0
  6
ByBlock
 62
     3
100
AcDbMText
 10
233.8329580310972
 20
182.1389569365261
 30
0.0
 40
1.75
 41
0.0
 71
     5
 72
     1
  1
\A1;3      (3等分)
  7
TXT
 11
0.0000000000000001
 21
1.0
 31
0.0
 73
     1
 44
1.0
  0
LINE
  5
7158
330
6937
100
AcDbEntity
  8
0
  6
ByBlock
 62
     6
100
AcDbLine
 10
235.2079580310972
 20
176.2503437991134
 30
0.0
 11
235.2079580310972
 21
173.2503437991134
 31
0.0
  0
SOLID
  5
7159
330
6937
100
AcDbEntity
  8
0
  6
ByBlock
 62
     6
100
AcDbTrace
 10
234.9996246977638
 20
177.5003437991134
 30
0.0
 11
235.4162913644305
 21
177.5003437991134
 31
0.0
 12
235.2079580310972
 22
176.2503437991134
 32
0.0
 13
235.2079580310972
 23
176.2503437991134
 33
0.0
  0
SOLID
  5
715A
330
6937
100
AcDbEntity
  8
0
  6
ByBlock
 62
     6
100
AcDbTrace
 10
234.9996246977638
 20
172.0003437991134
 30
0.0
 11
235.4162913644305
 21
172.0003437991134
 31
0.0
 12
235.2079580310972
 22
173.2503437991134
 32
0.0
 13
235.2079580310972
 23
173.2503437991134
 33
0.0
  0
POINT
  5
715B
330
6937
100
AcDbEntity
  8
DEFPOINTS
  6
ByBlock
 62
     0
100
AcDbPoint
 10
242.508714946573
 20
176.2503437991134
 30
0.0
  0
POINT
  5
715C
330
6937
100
AcDbEntity
  8
DEFPOINTS
  6
ByBlock
 62
     0
100
AcDbPoint
 10
242.508714946573
 20
173.2503437991134
 30
0.0
  0
POINT
  5
715D
330
6937
100
AcDbEntity
  8
DEFPOINTS
  6
ByBlock
 62
     0
100
AcDbPoint
 10
235.2079580310972
 20
173.2503437991134
 30
0.0
  0
ENDBLK
  5
715E
330
6937
100
AcDbEntity
  8
0
100
AcDbBlockEnd
  0
BLOCK
  5
70FD
330
6A5A
100
AcDbEntity
  8
0
100
AcDbBlockBegin
  2
*D5
 70
     1
 10
0.0
 20
0.0
 30
0.0
  3
*D5
  1

  0
LINE
  5
70FE
330
6A5A
100
AcDbEntity
  8
0
  6
ByBlock
 62
     6
100
AcDbLine
 10
268.9123636759918
 20
131.9122936110885
 30
0.0
 11
282.2479812376658
 21
131.9122936110885
 31
0.0
  0
LINE
  5
70FF
330
6A5A
100
AcDbEntity
  8
0
  6
ByBlock
 62
     6
100
AcDbLine
 10
271.1380355151623
 20
123.9260593646528
 30
0.0
 11
282.2479812376658
 21
123.9260593646528
 31
0.0
  0
LINE
  5
7100
330
6A5A
100
AcDbEntity
  8
0
  6
ByBlock
 62
     6
100
AcDbLine
 10
281.2479812376659
 20
130.6622936110885
 30
0.0
 11
281.2479812376659
 21
125.1760593646528
 31
0.0
  0
MTEXT
  5
7101
330
6A5A
100
AcDbEntity
  8
0
  6
ByBlock
 62
     3
100
AcDbMText
 10
279.8729812376659
 20
127.9191764878706
 30
0.0
 40
1.75
 41
0.0
 71
     5
 72
     1
  1
\A1;8±0.2
  7
TXT
 11
0.0000000000000001
 21
1.0
 31
0.0
 73
     1
 44
1.0
  0
SOLID
  5
7102
330
6A5A
100
AcDbEntity
  8
0
  6
ByBlock
 62
     6
100
AcDbTrace
 10
281.0396479043325
 20
130.6622936110885
 30
0.0
 11
281.4563145709992
 21
130.6622936110885
 31
0.0
 12
281.2479812376659
 22
131.9122936110885
 32
0.0
 13
281.2479812376659
 23
131.9122936110885
 33
0.0
  0
SOLID
  5
7103
330
6A5A
100
AcDbEntity
  8
0
  6
ByBlock
 62
     6
100
AcDbTrace
 10
281.0396479043325
 20
125.1760593646528
 30
0.0
 11
281.4563145709992
 21
125.1760593646528
 31
0.0
 12
281.2479812376659
 22
123.9260593646528
 32
0.0
 13
281.2479812376659
 23
123.9260593646528
 33
0.0
  0
POINT
  5
7104
330
6A5A
100
AcDbEntity
  8
DEFPOINTS
  6
ByBlock
 62
     0
100
AcDbPoint
 10
267.9123636759917
 20
131.9122936110885
 30
0.0
  0
POINT
  5
7105
330
6A5A
100
AcDbEntity
  8
DEFPOINTS
  6
ByBlock
 62
     0
100
AcDbPoint
 10
270.1380355151623
 20
123.9260593646528
 30
0.0
  0
POINT
  5
7106
330
6A5A
100
AcDbEntity
  8
DEFPOINTS
  6
ByBlock
 62
     0
100
AcDbPoint
 10
281.2479812376659
 20
123.9260593646528
 30
0.0
  0
ENDBLK
  5
7107
330
6A5A
100
AcDbEntity
  8
0
100
AcDbBlockEnd
  0
BLOCK
  5
7108
330
6EDF
100
AcDbEntity
  8
0
100
AcDbBlockBegin
  2
*D6
 70
     1
 10
0.0
 20
0.0
 30
0.0
  3
*D6
  1

  0
LINE
  5
7109
330
6EDF
100
AcDbEntity
  8
0
  6
ByBlock
 62
     6
100
AcDbLine
 10
242.4123636759917
 20
131.4196367494345
 30
0.0
 11
242.4123636759917
 21
146.9516871352526
 31
0.0
  0
LINE
  5
710A
330
6EDF
100
AcDbEntity
  8
0
  6
ByBlock
 62
     6
100
AcDbLine
 10
270.4123636759917
 20
131.4196367494346
 30
0.0
 11
270.4123636759917
 21
146.9516871352526
 31
0.0
  0
LINE
  5
710B
330
6EDF
100
AcDbEntity
  8
0
  6
ByBlock
 62
     6
100
AcDbLine
 10
243.6623636759917
 20
145.9516871352526
 30
0.0
 11
269.1623636759917
 21
145.9516871352526
 31
0.0
  0
MTEXT
  5
710C
330
6EDF
100
AcDbEntity
  8
0
  6
ByBlock
 62
     3
100
AcDbMText
 10
252.3426825046115
 20
148.1792417638643
 30
0.0
 40
1.75
 41
0.0
 71
     5
 72
     1
  1
\A1;\U+220528
  7
TXT
 73
     1
 44
1.0
  0
SOLID
  5
710D
330
6EDF
100
AcDbEntity
  8
0
  6
ByBlock
 62
     6
100
AcDbTrace
 10
243.6623636759917
 20
146.160020468586
 30
0.0
 11
243.6623636759917
 21
145.7433538019193
 31
0.0
 12
242.4123636759917
 22
145.9516871352526
 32
0.0
 13
242.4123636759917
 23
145.9516871352526
 33
0.0
  0
SOLID
  5
710E
330
6EDF
100
AcDbEntity
  8
0
  6
ByBlock
 62
     6
100
AcDbTrace
 10
269.1623636759917
 20
146.160020468586
 30
0.0
 11
269.1623636759917
 21
145.7433538019193
 31
0.0
 12
270.4123636759917
 22
145.9516871352526
 32
0.0
 13
270.4123636759917
 23
145.9516871352526
 33
0.0
  0
POINT
  5
710F
330
6EDF
100
AcDbEntity
  8
DEFPOINTS
  6
ByBlock
 62
     0
100
AcDbPoint
 10
242.4123636759917
 20
130.4196367494345
 30
0.0
  0
POINT
  5
7110
330
6EDF
100
AcDbEntity
  8
DEFPOINTS
  6
ByBlock
 62
     0
100
AcDbPoint
 10
270.4123636759917
 20
130.4196367494346
 30
0.0
  0
POINT
  5
7111
330
6EDF
100
AcDbEntity
  8
DEFPOINTS
  6
ByBlock
 62
     0
100
AcDbPoint
 10
270.4123636759917
 20
145.9516871352526
 30
0.0
  0
ENDBLK
  5
7112
330
6EDF
100
AcDbEntity
  8
0
100
AcDbBlockEnd
  0
BLOCK
  5
7113
330
6EF7
100
AcDbEntity
  8
0
100
AcDbBlockBegin
  2
*D7
 70
     1
 10
0.0
 20
0.0
 30
0.0
  3
*D7
  1

  0
LINE
  5
7114
330
6EF7
100
AcDbEntity
  8
0
  6
ByBlock
 62
     6
100
AcDbLine
 10
248.9123636759916
 20
124.4196367494345
 30
0.0
 11
248.9123636759916
 21
116.3769392862983
 31
0.0
  0
LINE
  5
7115
330
6EF7
100
AcDbEntity
  8
0
  6
ByBlock
 62
     6
100
AcDbLine
 10
263.9123636759917
 20
124.4196367494345
 30
0.0
 11
263.9123636759917
 21
116.3769392862983
 31
0.0
  0
LINE
  5
7116
330
6EF7
100
AcDbEntity
  8
0
  6
ByBlock
 62
     6
100
AcDbLine
 10
250.1623636759916
 20
117.3769392862983
 30
0.0
 11
262.6623636759917
 21
117.3769392862983
 31
0.0
  0
MTEXT
  5
7117
330
6EF7
100
AcDbEntity
  8
0
  6
ByBlock
 62
     3
100
AcDbMText
 10
256.4123636759916
 20
118.7519392862984
 30
0.0
 40
1.75
 41
0.0
 71
     5
 72
     1
  1
\A1;M15X1.0P
  7
TXT
 73
     1
 44
1.0
  0
SOLID
  5
7118
330
6EF7
100
AcDbEntity
  8
0
  6
ByBlock
 62
     6
100
AcDbTrace
 10
250.1623636759916
 20
117.5852726196317
 30
0.0
 11
250.1623636759916
 21
117.168605952965
 31
0.0
 12
248.9123636759916
 22
117.3769392862983
 32
0.0
 13
248.9123636759916
 23
117.3769392862983
 33
0.0
  0
SOLID
  5
7119
330
6EF7
100
AcDbEntity
  8
0
  6
ByBlock
 62
     6
100
AcDbTrace
 10
262.6623636759917
 20
117.5852726196317
 30
0.0
 11
262.6623636759917
 21
117.168605952965
 31
0.0
 12
263.9123636759917
 22
117.3769392862983
 32
0.0
 13
263.9123636759917
 23
117.3769392862983
 33
0.0
  0
POINT
  5
711A
330
6EF7
100
AcDbEntity
  8
DEFPOINTS
  6
ByBlock
 62
     0
100
AcDbPoint
 10
248.9123636759916
 20
125.4196367494345
 30
0.0
  0
POINT
  5
711B
330
6EF7
100
AcDbEntity
  8
DEFPOINTS
  6
ByBlock
 62
     0
100
AcDbPoint
 10
263.9123636759917
 20
125.4196367494345
 30
0.0
  0
POINT
  5
711C
330
6EF7
100
AcDbEntity
  8
DEFPOINTS
  6
ByBlock
 62
     0
100
AcDbPoint
 10
263.9123636759917
 20
117.3769392862983
 30
0.0
  0
ENDBLK
  5
711D
330
6EF7
100
AcDbEntity
  8
0
100
AcDbBlockEnd
  0
BLOCK
  5
711E
330
7058
100
AcDbEntity
  8
0
100
AcDbBlockBegin
  2
*D8
 70
     1
 10
0.0
 20
0.0
 30
0.0
  3
*D8
  1

  0
LINE
  5
711F
330
7058
100
AcDbEntity
  8
0
  6
ByBlock
 62
     6
100
AcDbLine
 10
244.9123636759917
 20
132.9196367494345
 30
0.0
 11
244.9123636759917
 21
141.9581389337713
 31
0.0
  0
LINE
  5
7120
330
7058
100
AcDbEntity
  8
0
  6
ByBlock
 62
     6
100
AcDbLine
 10
267.9123636759916
 20
132.9196367494345
 30
0.0
 11
267.9123636759916
 21
141.9581389337713
 31
0.0
  0
LINE
  5
7121
330
7058
100
AcDbEntity
  8
0
  6
ByBlock
 62
     6
100
AcDbLine
 10
246.1623636759918
 20
140.9581389337713
 30
0.0
 11
266.6623636759916
 21
140.9581389337713
 31
0.0
  0
SOLID
  5
7122
330
7058
100
AcDbEntity
  8
0
  6
ByBlock
 62
     6
100
AcDbTrace
 10
246.1623636759918
 20
141.1664722671046
 30
0.0
 11
246.1623636759918
 21
140.749805600438
 31
0.0
 12
244.9123636759917
 22
140.9581389337713
 32
0.0
 13
244.9123636759917
 23
140.9581389337713
 33
0.0
  0
SOLID
  5
7123
330
7058
100
AcDbEntity
  8
0
  6
ByBlock
 62
     6
100
AcDbTrace
 10
266.6623636759916
 20
141.1664722671046
 30
0.0
 11
266.6623636759916
 21
140.749805600438
 31
0.0
 12
267.9123636759916
 22
140.9581389337713
 32
0.0
 13
267.9123636759916
 23
140.9581389337713
 33
0.0
  0
MTEXT
  5
7124
330
7058
100
AcDbEntity
  8
0
  6
ByBlock
 62
     3
100
AcDbMText
 10
256.4123636759917
 20
142.3331389337713
 30
0.0
 40
1.75
 41
0.0
 71
     5
 72
     1
  1
\A1;\U+220523±0.5
  7
TXT
 73
     1
 44
1.0
  0
POINT
  5
7125
330
7058
100
AcDbEntity
  8
DEFPOINTS
  6
ByBlock
 62
     0
100
AcDbPoint
 10
244.9123636759917
 20
131.9196367494345
 30
0.0
  0
POINT
  5
7126
330
7058
100
AcDbEntity
  8
DEFPOINTS
  6
ByBlock
 62
     0
100
AcDbPoint
 10
267.9123636759916
 20
131.9196367494345
 30
0.0
  0
POINT
  5
7127
330
7058
100
AcDbEntity
  8
DEFPOINTS
  6
ByBlock
 62
     0
100
AcDbPoint
 10
267.9123636759916
 20
140.9581389337713
 30
0.0
  0
ENDBLK
  5
7128
330
7058
100
AcDbEntity
  8
0
100
AcDbBlockEnd
  0
ENDSEC
  0
SECTION
  2
ENTITIES
  0
MTEXT
  5
C0
330
18
100
AcDbEntity
  8
0
100
AcDbMText
 10
41.26970765600413
 20
233.6950877649332
 30
0.0
 40
2.5
 41
0.0
 71
     1
 72
     5
  1

  7
ISOCP3
 73
     1
 44
1.0
  0
MTEXT
  5
608E
330
18
100
AcDbEntity
  8
0
100
AcDbMText
 10
218.9159379645269
 20
83.56812717502874
 30
0.0
 40
2.5
 41
0.0
 71
     1
 72
     5
  1
\Ftxt.shx,bigfont.shx|c128;呉銘宏
  7
JL
 73
     1
 44
1.0
  0
MTEXT
  5
6095
330
18
100
AcDbEntity
  8
0
100
AcDbMText
 10
250.62378489576
 20
88.49503953014197
 30
0.0
 40
2.25
 41
0.0
 71
     1
 72
     5
  1
\Ftxt.shx,bigfont.shx|c128;2 : 1
  7
JL
 73
     1
 44
1.0
  0
MTEXT
  5
6098
330
18
100
AcDbEntity
  8
0
 48
2.0
370
    25
100
AcDbMText
 10
283.0679100150939
 20
75.69961297086194
 30
0.0
 40
2.25
 41
0.0
 71
     5
 72
     1
  1
\Ftxt.shx,bigfont.shx|c128;N L 4 0 0 2 7
 73
     1
 44
1.0
  0
MTEXT
  5
609C
330
18
100
AcDbEntity
  8
0
 48
2.0
100
AcDbMText
 10
299.0712339196668
 20
84.96887935368665
 30
0.0
 40
2.25
 41
0.0
 71
     5
 72
     1
  1
\P\Ftxt.shx,bigfont.shx|c128;    MR15X1.0P
 73
     1
 44
1.0
  0
MTEXT
  5
635A
330
18
100
AcDbEntity
  8
0
100
AcDbMText
 10
218.0179371153258
 20
88.20409093100721
 30
0.0
 40
2.25
 41
0.0
 71
     1
 72
     5
  1
\Ftxt.shx,bigfont.shx|c128;05.02.16
  7
JL
 73
     1
 44
1.0
  0
INSERT
  5
63A3
330
18
100
AcDbEntity
  8
0
100
AcDbBlockReference
  2
A$C255C26A2
 10
259.9640014375552
 20
131.919636402444
 30
0.0
 41
0.5
 42
0.5
 43
0.5
  0
MTEXT
  5
63A4
330
18
100
AcDbEntity
  8
0
 62
     7
 48
2.0
100
AcDbMText
 10
262.0109028119833
 20
134.3674118859533
 30
0.0
 40
1.5
 41
0.0
 71
     5
 72
     1
  1
G
 73
     1
 44
1.0
  0
LEADER
  5
63C9
330
18
100
AcDbEntity
  8
DIM
 62
     6
100
AcDbLeader
  3
A
 76
     2
 10
267.8122617801869
 20
181.0346778483268
 30
0.0
 10
275.002194825219
 20
189.0204378892922
 30
0.0
  0
LEADER
  5
63CA
330
18
100
AcDbEntity
  8
DIM
 62
     6
100
AcDbLeader
  3
A
 76
     2
 10
264.502688568219
 20
129.0024793699908
 30
0.0
 10
276.1169892197004
 20
143.1514203057031
 30
0.0
  0
LEADER
  5
63CB
330
18
100
AcDbEntity
  8
DIM
 62
     6
100
AcDbLeader
  3
A
 76
     2
 10
270.4123636759916
 20
127.9174928399723
 30
0.0
 10
274.6545660630055
 20
119.8070050353271
 30
0.0
  0
MTEXT
  5
63CC
330
18
100
AcDbEntity
  8
DIM
100
AcDbMText
 10
277.0874619424603
 20
145.6936038924062
 30
0.0
 40
2.5
 41
1.0
 71
     1
 72
     5
  1
\Ftxt.shx,bigfont.shx|c128;3
 73
     1
 44
1.0
  0
MTEXT
  5
63CD
330
18
100
AcDbEntity
  8
DIM
100
AcDbMText
 10
276.0066351009768
 20
191.439909591245
 30
0.0
 40
2.5
 41
1.0
 71
     1
 72
     5
  1
\Ftxt.shx,bigfont.shx|c128;1
 73
     1
 44
1.0
  0
MTEXT
  5
63CE
330
18
100
AcDbEntity
  8
DIM
100
AcDbMText
 10
275.2557913220355
 20
119.9927089728907
 30
0.0
 40
2.5
 41
1.0
 71
     1
 72
     5
  1
\Ftxt.shx,bigfont.shx|c128;2
 73
     1
 44
1.0
  0
LINE
  5
64AF
330
18
100
AcDbEntity
  8
図框線
100
AcDbLine
 10
309.006196569778
 20
218.8811280034474
 30
0.0
 11
309.006196569778
 21
73.8811280034474
 31
0.0
  0
LINE
  5
64B0
330
18
100
AcDbEntity
  8
図框線
370
    30
100
AcDbLine
 10
210.006196569778
 20
73.88112800344742
 30
0.0
 11
210.006196569778
 21
218.8811280034475
 31
0.0
  0
LINE
  5
64B1
330
18
100
AcDbEntity
  8
0
 62
     7
 48
5.0
100
AcDbLine
 39
2.0
 10
234.9799491479497
 20
87.82878999263653
 30
0.0
 11
237.6458510058043
 21
88.49526545710018
 31
0.0
  0
MTEXT
  5
64B2
330
18
100
AcDbEntity
  8
0
100
AcDbMText
 10
217.9955314555718
 20
78.69679805584155
 30
0.0
 40
3.0
 41
0.0
 71
     1
 72
     5
  1
\Ftxt.shx,bigfont.shx|c128;日機株式会社
  7
LKK
 73
     1
 44
1.0
  0
LINE
  5
64B3
330
18
100
AcDbEntity
  8
図框線
100
AcDbLine
 10
210.0061965697781
 20
73.88112800344742
 30
0.0
 11
309.006196569778
 21
73.88112800344742
 31
0.0
  0
LINE
  5
64B7
330
18
100
AcDbEntity
  8
図框線
100
AcDbLine
 10
210.0061965697781
 20
79.88112800344743
 30
0.0
 11
309.006196569778
 21
79.88112800344746
 31
0.0
  0
LINE
  5
64B8
330
18
100
AcDbEntity
  8
図框線
100
AcDbLine
 10
210.0061965697781
 20
84.88112800344742
 30
0.0
 11
258.0061965697781
 21
84.88112800344742
 31
0.0
  0
LINE
  5
64B9
330
18
100
AcDbEntity
  8
図框線
100
AcDbLine
 10
210.0061965697781
 20
89.88112800344742
 30
0.0
 11
309.006196569778
 21
89.88112800344742
 31
0.0
  0
LINE
  5
64BA
330
18
100
AcDbEntity
  8
図框線
100
AcDbLine
 10
216.0061965697781
 20
89.88112800344742
 30
0.0
 11
216.0061965697781
 21
79.88112800344743
 31
0.0
  0
LINE
  5
64BB
330
18
100
AcDbEntity
  8
図框線
100
AcDbLine
 10
226.0061965697781
 20
89.88112800344742
 30
0.0
 11
226.0061965697781
 21
79.88112800344743
 31
0.0
  0
MTEXT
  5
64BC
330
18
100
AcDbEntity
  8
0
100
AcDbMText
 10
211.4809186941885
 20
88.40470317020356
 30
0.0
 40
2.25
 41
0.0
 71
     1
 72
     5
  1
\Ftxt.shx,bigfont.shx|c128;日 付
  7
JL
 73
     1
 44
1.0
  0
MTEXT
  5
64BD
330
18
100
AcDbEntity
  8
0
100
AcDbMText
 10
211.5540527522331
 20
83.80029750080201
 30
0.0
 40
2.25
 41
0.0
 71
     1
 72
     5
  1
\Ftxt.shx,bigfont.shx|c128;製 図
  7
JL
 73
     1
 44
1.0
  0
LINE
  5
64C0
330
18
100
AcDbEntity
  8
0
 62
     7
370
    25
100
AcDbLine
 10
237.6458510058043
 20
85.82936359924559
 30
0.0
 11
237.6458510058043
 21
88.49526545710018
 31
0.0
  0
MTEXT
  5
64C1
330
18
100
AcDbEntity
  8
0
100
AcDbMText
 10
243.3574669064409
 20
88.59228735478666
 30
0.0
 40
2.25
 41
0.0
 71
     1
 72
     5
  1
\Ftxt.shx,bigfont.shx|c128;尺 度
  7
JL
 73
     1
 44
1.0
  0
LINE
  5
64C2
330
18
100
AcDbEntity
  8
図框線
100
AcDbLine
 10
242.0061965697781
 20
89.88112800344742
 30
0.0
 11
242.0061965697781
 21
79.88112800344743
 31
0.0
  0
LINE
  5
64C3
330
18
100
AcDbEntity
  8
0
 62
     7
370
    25
100
AcDbLine
 10
230.647858628936
 20
85.500602362128
 30
0.0
 11
230.647858628936
 21
88.7184617534757
 31
0.0
  0
CIRCLE
  5
64C4
330
18
100
AcDbEntity
  8
0
 62
     7
100
AcDbCircle
 10
230.647858628936
 20
87.16231452817282
 30
0.0
 40
1.33295092892732
  0
LINE
  5
64C6
330
18
100
AcDbEntity
  8
0
 62
     7
370
    25
100
AcDbLine
 10
234.5963479753085
 20
87.16231452817288
 30
0.0
 11
237.8851831792939
 21
87.16231452817288
 31
0.0
  0
LINE
  5
64C7
330
18
100
AcDbEntity
  8
0
 62
     7
100
AcDbLine
 10
234.9799491479497
 20
86.49583906370924
 30
0.0
 11
237.6458510058043
 21
85.82936359924559
 31
0.0
  0
LINE
  5
64C8
330
18
100
AcDbEntity
  8
図框線
100
AcDbLine
 10
232.0061965697781
 20
84.88112800344737
 30
0.0
 11
232.0061965697781
 21
79.88112800344743
 31
0.0
  0
LINE
  5
64C9
330
18
100
AcDbEntity
  8
0
 62
     7
370
    25
100
AcDbLine
 10
228.9820592339978
 20
87.16231452817282
 30
0.0
 11
232.4131545431627
 21
87.16231452817288
 31
0.0
  0
CIRCLE
  5
64CA
330
18
100
AcDbEntity
  8
0
 62
     7
100
AcDbCircle
 10
230.647858628936
 20
87.16231452817282
 30
0.0
 40
0.6664754644636604
  0
MTEXT
  5
64CB
330
18
100
AcDbEntity
  8
0
100
AcDbMText
 10
227.566629159977
 20
83.58103971928768
 30
0.0
 40
2.25
 41
0.0
 71
     1
 72
     5
  1
\Ftxt.shx,bigfont.shx|c128;検 図
  7
JL
 73
     1
 44
1.0
  0
LINE
  5
64CC
330
18
100
AcDbEntity
  8
0
 62
     7
370
    25
100
AcDbLine
 10
234.9799491479497
 20
86.49583906370924
 30
0.0
 11
234.9799491479497
 21
87.82878999263653
 31
0.0
  0
MTEXT
  5
64CD
330
18
100
AcDbEntity
  8
0
100
AcDbMText
 10
243.5037336614656
 20
83.69553826345475
 30
0.0
 40
2.25
 41
0.0
 71
     1
 72
     5
  1
\Ftxt.shx,bigfont.shx|c128;承 認
  7
JL
 73
     1
 44
1.0
  0
LINE
  5
64CE
330
18
100
AcDbEntity
  8
図框線
100
AcDbLine
 10
273.9872159563722
 20
97.46359453274738
 30
0.0
 11
303.9872159563722
 21
97.46359453274733
 31
0.0
  0
LINE
  5
64CF
330
18
100
AcDbEntity
  8
図框線
100
AcDbLine
 10
273.9872159563722
 20
101.0635945327474
 30
0.0
 11
303.9872159563722
 21
101.0635945327474
 31
0.0
  0
LINE
  5
64D0
330
18
100
AcDbEntity
  8
図框線
100
AcDbLine
 10
273.9872159563722
 20
104.6635945327473
 30
0.0
 11
303.9872159563722
 21
104.6635945327473
 31
0.0
  0
LINE
  5
64D1
330
18
100
AcDbEntity
  8
図框線
100
AcDbLine
 10
273.9872159563722
 20
108.2635945327474
 30
0.0
 11
303.9872159563722
 21
108.2635945327473
 31
0.0
  0
LINE
  5
64D2
330
18
100
AcDbEntity
  8
図框線
100
AcDbLine
 10
273.9872159563722
 20
93.86359453274735
 30
0.0
 11
303.9872159563722
 21
93.86359453274735
 31
0.0
  0
MTEXT
  5
64D3
330
18
100
AcDbEntity
  8
0
 62
     7
 48
2.0
100
AcDbMText
 10
288.9299159393079
 20
108.6601787380394
 30
0.0
 40
2.4
 41
0.0
 71
     5
 72
     1
  1
\P\Ftxt.shx,bigfont.shx|c128;諸　　　　元
 73
     1
 44
1.0
  0
LINE
  5
64D5
330
18
100
AcDbEntity
  8
図框線
100
AcDbLine
 10
273.9872159563722
 20
108.2635945327473
 30
0.0
 11
273.9872159563722
 21
93.86359453274735
 31
0.0
  0
MTEXT
  5
64D6
330
18
100
AcDbEntity
  8
0
100
AcDbMText
 10
275.7484338632123
 20
103.9003399491869
 30
0.0
 40
2.2
 41
81.95814342112454
 71
     1
 72
     5
  1
\Ftxt.shx,bigfont.shx|c128;熱　処　理
  7
JL
 73
     1
 44
1.0
  0
LINE
  5
64D7
330
18
100
AcDbEntity
  8
図框線
100
AcDbLine
 10
285.9872159563722
 20
104.6635945327473
 30
0.0
 11
285.9872159563722
 21
93.86359453274735
 31
0.0
  0
MTEXT
  5
64D8
330
18
100
AcDbEntity
  8
0
100
AcDbMText
 10
258.8347093510972
 20
79.45778872672611
 30
0.0
 40
2.5
 41
0.0
 71
     1
 72
     5
  1
\Ftxt.shx,bigfont.shx|c128;図  面  番  号
  7
JL
 73
     1
 44
1.0
  0
MTEXT
  5
64D9
330
18
100
AcDbEntity
  8
0
 62
     7
 48
2.0
100
AcDbMText
 10
270.9192391024712
 20
85.02691213071523
 30
0.0
 40
2.25
 41
0.0
 71
     5
 72
     1
  1
\P\Ftxt.shx,bigfont.shx|c128;    精密ロックナット
 73
     1
 44
1.0
  0
MTEXT
  5
64DA
330
18
100
AcDbEntity
  8
0
370
    25
100
AcDbMText
 10
259.406342722458
 20
88.78457208046729
 30
0.0
 40
2.5
 41
0.0
 71
     1
 72
     5
  1
\Ftxt.shx,bigfont.shx|c128;品  名
  7
JL
 73
     1
 44
1.0
  0
LINE
  5
64DB
330
18
100
AcDbEntity
  8
図框線
100
AcDbLine
 10
258.0061965697781
 20
89.88112800344742
 30
0.0
 11
258.0061965697781
 21
73.97664880890999
 31
0.0
  0
LINE
  5
64DC
330
18
100
AcDbEntity
  8
図框線
100
AcDbLine
 10
248.0061965697781
 20
89.88112800344742
 30
0.0
 11
248.0061965697781
 21
79.88112800344743
 31
0.0
  0
LINE
  5
64DE
330
18
100
AcDbEntity
  8
図框線
100
AcDbLine
 10
286.6179766652123
 20
89.88112800344742
 30
0.0
 11
286.6179766652123
 21
79.88112800344743
 31
0.0
  0
MTEXT
  5
64DF
330
18
100
AcDbEntity
  8
0
100
AcDbMText
 10
275.6082966795227
 20
100.3992257255569
 30
0.0
 40
2.2
 41
81.80293144248363
 71
     1
 72
     5
  1
\Ftxt.shx,bigfont.shx|c128;表 面 処 理
  7
JL
 73
     1
 44
1.0
  0
MTEXT
  5
64E0
330
18
100
AcDbEntity
  8
0
100
AcDbMText
 10
275.7533296037402
 20
96.75498929875296
 30
0.0
 40
2.2
 41
83.0859
 71
     1
 72
     5
  1
\Ftxt.shx,bigfont.shx|c128;等     　級
  7
JL
 73
     1
 44
1.0
  0
LINE
  5
64E1
330
18
100
AcDbEntity
  8
図框線
100
AcDbLine
 10
303.9872159563722
 20
108.2635945327473
 30
0.0
 11
303.9872159563722
 21
93.8635945327474
 31
0.0
  0
MTEXT
  5
64E2
330
18
100
AcDbEntity
  8
0
100
AcDbMText
 10
288.3607176110935
 20
103.8128609954821
 30
0.0
 40
2.2
 41
145.9480028428943
 71
     1
 72
     5
  1
\Ftxt.shx,bigfont.shx|c128;調質　HRC30%%d%%p２%%d
  7
JL
 73
     1
 44
1.0
  0
MTEXT
  5
64E4
330
18
100
AcDbEntity
  8
0
370
    25
100
AcDbMText
 10
288.6309333341493
 20
88.67397682391526
 30
0.0
 40
2.5
 41
0.0
 71
     1
 72
     5
  1
\Ftxt.shx,bigfont.shx|c128;型  番
  7
JL
 73
     1
 44
1.0
  0
MTEXT
  5
64E5
330
18
100
AcDbEntity
  8
0
100
AcDbMText
 10
296.3998291309476
 20
79.49962902040454
 30
0.0
 40
2.5
 41
0.0
 71
     1
 72
     5
  1
\Ftxt.shx,bigfont.shx|c128;変更
  7
JL
 73
     1
 44
1.0
  0
LINE
  5
64E6
330
18
100
AcDbEntity
  8
図框線
100
AcDbLine
 10
295.5061965697781
 20
79.88566314266108
 30
0.0
 11
295.5061965697781
 21
73.88112800344742
 31
0.0
  0
MTEXT
  5
64E7
330
18
100
AcDbEntity
  8
0
100
AcDbMText
 10
288.4910371118117
 20
96.75529458447853
 30
0.0
 40
2.2
 41
145.3916823984455
 71
     1
 72
     5
  1
\Ftxt.shx,bigfont.shx|c128;ＩＳＯ - ４Ｈ
  7
JL
 73
     1
 44
1.0
  0
MTEXT
  5
64E8
330
18
100
AcDbEntity
  8
0
100
AcDbMText
 10
288.5782677108768
 20
100.2227792570794
 30
0.0
 40
2.2
 41
145.7274
 71
     1
 72
     5
  1
\Ftxt.shx,bigfont.shx|c128;黒  　    染
  7
JL
 73
     1
 44
1.0
  0
MTEXT
  5
64EA
330
18
100
AcDbEntity
  8
0
100
AcDbMText
 10
240.0377895735732
 20
208.9290531322199
 30
0.0
 40
2.5
 41
0.0
 71
     1
 72
     5
  1
\Ftxt.shx,bigfont.shx|c128;M4X0.7P-5L
  7
JL
 73
     1
 44
1.0
  0
MTEXT
  5
64EB
330
18
100
AcDbEntity
  8
0
100
AcDbMText
 10
240.0377895735732
 20
204.9290531322199
 30
0.0
 40
2.5
 41
0.0
 71
     1
 72
     5
  1
\Ftxt.shx,bigfont.shx|c128;%%c3.5X2L
  7
JL
 73
     1
 44
1.0
  0
LINE
  5
64EC
330
18
100
AcDbEntity
  8
図框線
100
AcDbLine
 10
210.006196569778
 20
205.8811280034474
 30
0.0
 11
309.006196569778
 21
205.8811280034474
 31
0.0
  0
LINE
  5
64ED
330
18
100
AcDbEntity
  8
図框線
100
AcDbLine
 10
210.006196569778
 20
209.8811280034474
 30
0.0
 11
309.006196569778
 21
209.8811280034474
 31
0.0
  0
LINE
  5
64EE
330
18
100
AcDbEntity
  8
図框線
 62
     9
100
AcDbLine
 10
210.006196569778
 20
213.8811280034474
 30
0.0
 11
309.006196569778
 21
213.8811280034474
 31
0.0
  0
LINE
  5
64EF
330
18
100
AcDbEntity
  8
図框線
100
AcDbLine
 10
210.006196569778
 20
218.8811280034475
 30
0.0
 11
309.006196569778
 21
218.8811280034475
 31
0.0
  0
MTEXT
  5
64F0
330
18
100
AcDbEntity
  8
0
100
AcDbMText
 10
239.7143478681868
 20
217.5389256060026
 30
0.0
 40
2.5
 41
0.0
 71
     1
 72
     5
  1
\Ftxt.shx,bigfont.shx|c128;図    番 / 規　　格
  7
JL
 73
     1
 44
1.0
  0
LINE
  5
64F1
330
18
100
AcDbEntity
  8
図框線
100
AcDbLine
 10
210.006196569778
 20
205.8811280034474
 30
0.0
 11
309.006196569778
 21
205.8811280034474
 31
0.0
  0
LINE
  5
64F2
330
18
100
AcDbEntity
  8
図框線
100
AcDbLine
 10
210.006196569778
 20
201.8811280034474
 30
0.0
 11
309.006196569778
 21
201.8811280034474
 31
0.0
  0
MTEXT
  5
64F3
330
18
100
AcDbEntity
  8
0
100
AcDbMText
 10
221.0133711404843
 20
217.2755292944388
 30
0.0
 40
2.5
 41
0.0
 71
     1
 72
     5
  1
\Ftxt.shx,bigfont.shx|c128;品　          名
  7
JL
 73
     1
 44
1.0
  0
MTEXT
  5
64F4
330
18
100
AcDbEntity
  8
0
100
AcDbMText
 10
219.4387153762992
 20
209.1460554932147
 30
0.0
 40
3.0
 41
0.0
 71
     1
 72
     5
  1
\Ftxt.shx,bigfont.shx|c128;セットスクリュ-
  7
JL
 73
     1
 44
1.0
  0
MTEXT
  5
64F5
330
18
100
AcDbEntity
  8
0
100
AcDbMText
 10
219.3409038648018
 20
213.0641605287176
 30
0.0
 40
3.0
 41
0.0
 71
     1
 72
     5
  1
\Ftxt.shx,bigfont.shx|c128;ロックナット　  
  7
JL
 73
     1
 44
1.0
  0
MTEXT
  5
64F6
330
18
100
AcDbEntity
  8
0
100
AcDbMText
 10
219.4387153762992
 20
205.1460554932147
 30
0.0
 40
3.0
 41
0.0
 71
     1
 72
     5
  1
\Ftxt.shx,bigfont.shx|c128;ロックピン 
  7
JL
 73
     1
 44
1.0
  0
LINE
  5
64F7
330
18
100
AcDbEntity
  8
図框線
100
AcDbLine
 10
217.506196569778
 20
218.8811280034473
 30
0.0
 11
217.5061965697782
 21
201.8811280034474
 31
0.0
  0
LINE
  5
64F8
330
18
100
AcDbEntity
  8
0
100
AcDbLine
 10
217.506196569778
 20
218.8811280034473
 30
0.0
 11
217.506196569778
 21
205.8811280034474
 31
0.0
  0
MTEXT
  5
64F9
330
18
100
AcDbEntity
  8
0
100
AcDbMText
 10
213.1138411134734
 20
205.2529484712671
 30
0.0
 40
2.5
 41
0.0
 71
     1
 72
     5
  1
\Ftxt.shx,bigfont.shx|c128;3
  7
JL
 73
     1
 44
1.0
  0
MTEXT
  5
64FA
330
18
100
AcDbEntity
  8
0
100
AcDbMText
 10
213.5571750831115
 20
213.1710535067701
 30
0.0
 40
2.5
 41
0.0
 71
     1
 72
     5
  1
\Ftxt.shx,bigfont.shx|c128;1
  7
JL
 73
     1
 44
1.0
  0
MTEXT
  5
64FB
330
18
100
AcDbEntity
  8
0
100
AcDbMText
 10
213.1138411134734
 20
209.2529484712671
 30
0.0
 40
2.5
 41
0.0
 71
     1
 72
     5
  1
\Ftxt.shx,bigfont.shx|c128;2
  7
JL
 73
     1
 44
1.0
  0
MTEXT
  5
64FC
330
18
100
AcDbEntity
  8
0
100
AcDbMText
 10
211.1107385656993
 20
217.4253907116503
 30
0.0
 40
2.5
 41
0.0
 71
     1
 72
     5
  1
\Ftxt.shx,bigfont.shx|c128;照   号
  7
JL
 73
     1
 44
1.0
  0
LINE
  5
64FD
330
18
100
AcDbEntity
  8
図框線
 62
     9
100
AcDbLine
 10
237.506196569778
 20
218.8811280034473
 30
0.0
 11
237.506196569778
 21
201.8811280034474
 31
0.0
  0
MTEXT
  5
64FE
330
18
100
AcDbEntity
  8
0
100
AcDbMText
 10
283.173884866047
 20
217.6713304905659
 30
0.0
 40
2.5
 41
0.0
 71
     1
 72
     5
  1
\Ftxt.shx,bigfont.shx|c128;備           考
  7
JL
 73
     1
 44
1.0
  0
LINE
  5
64FF
330
18
100
AcDbEntity
  8
図框線
 62
     9
100
AcDbLine
 10
257.506196569778
 20
218.8811280034474
 30
0.0
 11
257.506196569778
 21
201.8811280034474
 31
0.0
  0
MTEXT
  5
6500
330
18
100
AcDbEntity
  8
0
100
AcDbMText
 10
258.39813171866
 20
205.0641605287176
 30
0.0
 40
2.5
 41
0.0
 71
     1
 72
     5
  1
\Ftxt.shx,bigfont.shx|c128;C3604
  7
JL
 73
     1
 44
1.0
  0
MTEXT
  5
6501
330
18
100
AcDbEntity
  8
0
100
AcDbMText
 10
258.39813171866
 20
213.0641605287176
 30
0.0
 40
2.5
 41
0.0
 71
     1
 72
     5
  1
\Ftxt.shx,bigfont.shx|c128;SCM-440
  7
JL
 73
     1
 44
1.0
  0
MTEXT
  5
6502
330
18
100
AcDbEntity
  8
0
100
AcDbMText
 10
258.39813171866
 20
209.0641605287176
 30
0.0
 40
2.5
 41
0.0
 71
     1
 72
     5
  1
\Ftxt.shx,bigfont.shx|c128;SCM435
  7
JL
 73
     1
 44
1.0
  0
MTEXT
  5
6503
330
18
100
AcDbEntity
  8
0
100
AcDbMText
 10
259.9063590670052
 20
217.6713304905659
 30
0.0
 40
2.5
 41
0.0
 71
     1
 72
     5
  1
\Ftxt.shx,bigfont.shx|c128;材　質
  7
JL
 73
     1
 44
1.0
  0
LINE
  5
6504
330
18
100
AcDbEntity
  8
図框線
 62
     9
100
AcDbLine
 10
267.506196569778
 20
218.8811280034474
 30
0.0
 11
267.506196569778
 21
201.8811280034474
 31
0.0
  0
LINE
  5
6505
330
18
100
AcDbEntity
  8
図框線
100
AcDbLine
 10
275.006196569778
 20
218.8811280034474
 30
0.0
 11
275.006196569778
 21
201.8811280034474
 31
0.0
  0
MTEXT
  5
6506
330
18
100
AcDbEntity
  8
0
100
AcDbMText
 10
270.6138411134733
 20
205.2529484712671
 30
0.0
 40
2.5
 41
0.0
 71
     1
 72
     5
  1
\Ftxt.shx,bigfont.shx|c128;3
  7
JL
 73
     1
 44
1.0
  0
MTEXT
  5
6507
330
18
100
AcDbEntity
  8
0
100
AcDbMText
 10
271.0571750831115
 20
213.1710535067701
 30
0.0
 40
2.5
 41
0.0
 71
     1
 72
     5
  1
\Ftxt.shx,bigfont.shx|c128;1
  7
JL
 73
     1
 44
1.0
  0
MTEXT
  5
6508
330
18
100
AcDbEntity
  8
0
100
AcDbMText
 10
270.6138411134733
 20
209.2529484712671
 30
0.0
 40
2.5
 41
0.0
 71
     1
 72
     5
  1
\Ftxt.shx,bigfont.shx|c128;3
  7
JL
 73
     1
 44
1.0
  0
MTEXT
  5
6509
330
18
100
AcDbEntity
  8
0
100
AcDbMText
 10
268.2230667257367
 20
217.6713304905659
 30
0.0
 40
2.5
 41
0.0
 71
     1
 72
     5
  1
\Ftxt.shx,bigfont.shx|c128;数   量
  7
JL
 73
     1
 44
1.0
  0
MTEXT
  5
6740
330
18
100
AcDbEntity
  8
公差
100
AcDbMText
 10
231.6542851191781
 20
177.1744483440742
 30
0.0
 40
1.25
 41
6.816289586974903
 71
     1
 72
     5
  1
+0.15\P+0
  7
TXT
 11
0.0000000000000001
 21
1.0
 31
0.0
 73
     1
 44
1.0
  0
MTEXT
  5
6741
330
18
100
AcDbEntity
  8
公差
100
AcDbMText
 10
245.5693876155424
 20
159.5597300719158
 30
0.0
 40
1.25
 41
15.60204752540142
 71
     1
 72
     5
  1
+0.15\P+0
  7
TXT
 73
     1
 44
1.0
  0
DIMENSION
  5
675D
330
18
100
AcDbEntity
  8
0
100
AcDbDimension
  2
*D1
 10
235.8683698806479
 20
131.9196367494345
 30
0.0
 11
235.8683698806479
 21
137.4483253592388
 31
0.0
 70
   160
 71
     5
 42
-1.0
  3
A
100
AcDbAlignedDimension
 13
243.4123636759917
 23
131.4196367494345
 33
0.0
 14
244.9123636759917
 24
131.9196367494345
 34
0.0
 50
90.0
100
AcDbRotatedDimension
1001
ACAD
1000
DSTYLE
1002
{
1070
    40
1040
1.0
1002
}
  0
LINE
  5
6761
330
18
100
AcDbEntity
  8
DIM
100
AcDbLine
 10
248.9123636759916
 20
117.3769392862983
 30
0.0
 11
248.8929623316386
 21
107.7884440250592
 31
0.0
  0
LINE
  5
6764
330
18
100
AcDbEntity
  8
0
 62
     6
100
AcDbLine
 10
281.2141590355801
 20
131.8537111446711
 30
0.0
 11
281.2141590355801
 21
138.660752039478
 31
0.0
  0
LINE
  5
6765
330
18
100
AcDbEntity
  8
0
 62
     6
100
AcDbLine
 10
281.2141590355801
 20
138.660752039478
 30
0.0
 11
290.9027605155903
 21
138.660752039478
 31
0.0
  0
TOLERANCE
  5
6766
330
18
100
AcDbEntity
  8
0
  6
ByBlock
100
AcDbFcf
  3
A
 10
290.8936812900417
 20
138.6862212575435
 30
0.0
  1
{\Fgdt;h}%%v0.005%%v%%vA%%v%%v
1001
ACAD
1000
DSTYLE
1002
{
1070
   140
1040
1.371999999999999
1070
    40
1040
1.0
1070
   147
1040
0.3429999999999999
1002
}
  0
MTEXT
  5
676D
330
18
100
AcDbEntity
  8
公差
100
AcDbMText
 10
256.0504583279235
 20
149.822584305717
 30
0.0
 40
1.25
 41
5.603326618818573
 71
     1
 72
     5
  1
+0\P-0.12
  7
TXT
 73
     1
 44
1.0
  0
LINE
  5
6775
330
18
100
AcDbEntity
  8
DIM
100
AcDbLine
 10
248.9138158486911
 20
109.773508905662
 30
0.0
 11
249.8262741969167
 21
108.795634809937
 31
0.0
  0
HATCH
  5
6776
330
18
100
AcDbEntity
  8
DIM
100
AcDbHatch
 10
0.0
 20
0.0
 30
0.0
210
0.0
220
0.0
230
1.0
  2
SOLID
 70
     1
 71
     0
 91
        1
 92
        7
 72
     0
 73
     1
 93
        3
 10
248.9126917342385
 20
107.7898205106815
 10
249.8314238228386
 20
108.7746283059252
 10
248.9126917342385
 20
109.759436101169
 97
        0
 75
     0
 76
     1
 47
0.2359147607200769
 98
        1
 10
249.2005077304694
 20
108.9861043116168
450
        0
451
        0
460
0.0
461
0.0
452
        0
462
0.0
453
        0
470

  0
LINE
  5
6777
330
18
100
AcDbEntity
  8
DIM
100
AcDbLine
 10
254.5733670036128
 20
106.9819810057774
 30
0.0
 11
254.5733670036128
 21
110.6282797957986
 31
0.0
  0
LINE
  5
6778
330
18
100
AcDbEntity
  8
DIM
100
AcDbLine
 10
254.5733670036128
 20
110.6282797957986
 30
0.0
 11
258.3820022491235
 21
110.6282797957986
 31
0.0
  0
LINE
  5
6779
330
18
100
AcDbEntity
  8
DIM
100
AcDbLine
 10
258.3820022491235
 20
106.9819810057774
 30
0.0
 11
258.3820022491235
 21
110.6282797957986
 31
0.0
  0
LINE
  5
677A
330
18
100
AcDbEntity
  8
DIM
100
AcDbLine
 10
254.5733670036128
 20
106.9819810057774
 30
0.0
 11
258.3820022491235
 21
106.9819810057774
 31
0.0
  0
LINE
  5
677B
330
18
100
AcDbEntity
  8
DIM
100
AcDbLine
 10
254.5733670036128
 20
108.805130400788
 30
0.0
 11
249.8125731678897
 21
108.805130400788
 31
0.0
  0
MTEXT
  5
677C
330
18
100
AcDbEntity
  8
DIM
100
AcDbMText
 10
258.13778778444
 20
109.6574738447377
 30
0.0
 40
3.0
 41
2.354875985554478
 71
     1
 72
     5
  1
A
  7
ISOCP3
 11
-0.0000000000000002
 21
-1.0
 31
0.0
 73
     1
 44
1.0
  0
DIMENSION
  5
678A
330
18
100
AcDbEntity
  8
0
100
AcDbDimension
  2
*D2
 10
244.5128346212224
 20
155.8880340052752
 30
0.0
 11
243.5107747838977
 21
155.8880340052752
 31
0.0
 70
   160
 71
     5
 42
-1.0
  3
A
100
AcDbAlignedDimension
 13
242.508714946573
 23
173.2503437991135
 33
0.0
 14
244.5128346212224
 24
173.2503437991134
 34
0.0
100
AcDbRotatedDimension
1001
ACAD
1000
DSTYLE
1002
{
1070
    40
1040
1.0
1002
}
  0
DIMENSION
  5
68F8
330
18
100
AcDbEntity
  8
DIM
100
AcDbDimension
  2
*D3
 10
243.0488791920659
 20
124.5261814755882
 30
0.0
 11
237.8843836755217
 21
119.4974584265388
 31
0.0
 70
   164
  1
2-R1
 71
     5
 42
-1.0
  3
A
100
AcDbRadialDimension
 15
242.7802060149046
 25
124.2645716059844
 35
0.0
 40
0.0
1001
ACAD
1000
DSTYLE
1002
{
1070
   288
1070
     1
1002
}
  0
DIMENSION
  5
6947
330
18
100
AcDbEntity
  8
DIM
100
AcDbDimension
  2
*D4
 10
235.2079580310972
 20
173.2503437991134
 30
0.0
 11
235.2079580310972
 21
182.1389569365261
 31
0.0
 70
   160
  1
<>      (3等分)
 71
     5
 42
-1.0
  3
A
100
AcDbAlignedDimension
 13
242.508714946573
 23
176.2503437991134
 33
0.0
 14
242.508714946573
 24
173.2503437991134
 34
0.0
 50
90.0
100
AcDbRotatedDimension
  0
LEADER
  5
699D
330
18
100
AcDbEntity
  8
DIM
 62
     6
100
AcDbLeader
  3
A
 73
     0
 74
     0
 75
     1
 40
1.75
 41
6.416666666666666
 76
     3
 10
248.4123636759917
 20
130.9196367494346
 30
0.0
 10
254.297103907108
 20
136.4322616099748
 30
0.0
 10
255.5471039071079
 20
136.4322616099748
 30
0.0
340
699E
  0
MTEXT
  5
699E
102
{ACAD_REACTORS
330
699D
102
}
330
18
100
AcDbEntity
  8
DIM
 62
     3
100
AcDbMText
 10
256.0471039071079
 20
137.8072616099748
 30
0.0
 40
1.75
 41
0.0
 71
     4
 72
     1
  1
\A1;2-C2
  7
TXT
 73
     1
 44
1.0
  0
DIMENSION
  5
6A66
330
18
100
AcDbEntity
  8
DIM
100
AcDbDimension
  2
*D5
 10
281.2479812376659
 20
123.9260593646528
 30
0.0
 11
281.2479812376659
 21
127.9191764878706
 31
0.0
 70
   160
  1
<>%%p0.2
 71
     5
 42
-1.0
  3
A
100
AcDbAlignedDimension
 13
267.9123636759917
 23
131.9122936110885
 33
0.0
 14
270.1380355151623
 24
123.9260593646528
 34
0.0
 50
90.0
100
AcDbRotatedDimension
  0
LINE
  5
6E4B
330
18
100
AcDbEntity
  8
本体外線
100
AcDbLine
 10
244.9123636759917
 20
131.9196367494345
 30
0.0
 11
267.9123636759916
 21
131.9196367494345
 31
0.0
  0
LINE
  5
6E4C
330
18
100
AcDbEntity
  8
本体外線
100
AcDbLine
 10
243.4123636759917
 20
123.9196367494345
 30
0.0
 11
269.4123636759917
 21
123.9196367494346
 31
0.0
  0
LINE
  5
6E4D
330
18
100
AcDbEntity
  8
中心線
  6
CENTER
 48
0.15
100
AcDbLine
 10
256.4123636759917
 20
133.895590204724
 30
0.0
 11
256.4123636759917
 21
121.8542113457205
 31
0.0
  0
LINE
  5
6E4E
330
18
100
AcDbEntity
  8
本体内線
  6
HIDDEN
 48
0.2
100
AcDbLine
 10
254.7903125173109
 20
167.9408687798023
 30
0.0
 11
251.2162112532851
 21
161.7503437991134
 31
0.0
  0
LINE
  5
6E4F
330
18
100
AcDbEntity
  8
本体内線
  6
HIDDEN
 48
0.2
100
AcDbLine
 10
251.3262109021732
 20
169.9408687798023
 30
0.0
 11
247.7521096381473
 21
163.7503437991134
 31
0.0
  0
LINE
  5
6E50
330
18
100
AcDbEntity
  8
本体内線
  6
HIDDEN
 48
0.2
100
AcDbLine
 10
251.6946269875207
 20
169.5789841579499
 30
0.0
 11
248.1536201167775
 21
163.4457803478722
 31
0.0
  0
LINE
  5
6E51
330
18
100
AcDbEntity
  8
本体内線
  6
HIDDEN
 48
0.2
100
AcDbLine
 10
254.2927031988741
 20
168.0789841579499
 30
0.0
 11
250.7516963281308
 21
161.9457803478722
 31
0.0
  0
LINE
  5
6E55
330
18
100
AcDbEntity
  8
中心線
  6
CENTER
 48
0.15
100
AcDbLine
 10
262.3676803844396
 20
127.9174928399722
 30
0.0
 11
271.1795178938073
 21
127.9174928399722
 31
0.0
  0
LINE
  5
6E56
330
18
100
AcDbEntity
  8
0
100
AcDbLine
 10
265.3848146989369
 20
126.1674928399723
 30
0.0
 11
263.4123636759917
 21
126.167492839972
 31
0.0
  0
LINE
  5
6E57
330
18
100
AcDbEntity
  8
0
100
AcDbLine
 10
268.0218202081122
 20
127.9113398613631
 30
0.0
 11
268.0279731867214
 21
127.9174928399722
 31
0.0
  0
LINE
  5
6E58
330
18
100
AcDbEntity
  8
0
 48
0.5
100
AcDbLine
 10
270.0830571225993
 20
129.9133409309348
 30
0.0
 11
270.0830571225993
 21
125.9174928399722
 31
0.0
  0
LINE
  5
6E59
330
18
100
AcDbEntity
  8
0
100
AcDbLine
 10
270.0830571225993
 20
125.9174928399722
 30
0.0
 11
270.3942782096409
 21
126.0971764183532
 31
0.0
  0
LINE
  5
6E5A
330
18
100
AcDbEntity
  8
0
 48
0.1
100
AcDbLine
 10
268.384814698937
 20
128.9174928399722
 30
0.0
 11
270.3330571225992
 21
128.9174928399722
 31
0.0
  0
LINE
  5
6E5B
330
18
100
AcDbEntity
  8
0
 48
0.1
100
AcDbLine
 10
268.384814698937
 20
126.9174928399722
 30
0.0
 11
270.3330571225992
 21
126.9174928399722
 31
0.0
  0
LINE
  5
6E5C
330
18
100
AcDbEntity
  8
0
 48
0.5
100
AcDbLine
 10
266.3844562792022
 20
126.1174928399722
 30
0.0
 11
270.3942782096409
 21
126.1174928399722
 31
0.0
  0
LINE
  5
6E5D
330
18
100
AcDbEntity
  8
0
 48
0.5
100
AcDbLine
 10
266.3777564943315
 20
129.7174928399722
 30
0.0
 11
270.3942782096408
 21
129.7174928399722
 31
0.0
  0
LINE
  5
6E5E
330
18
100
AcDbEntity
  8
0
100
AcDbLine
 10
270.0830571225993
 20
129.9174928399723
 30
0.0
 11
270.3942782096408
 21
129.7174928399722
 31
0.0
  0
LINE
  5
6E5F
330
18
100
AcDbEntity
  8
0
100
AcDbLine
 10
263.9123636759917
 20
129.9079045208146
 30
0.0
 11
270.3942776275142
 21
129.913615117672
 31
0.0
  0
LINE
  5
6E60
330
18
100
AcDbEntity
  8
0
100
AcDbLine
 10
263.9123636759917
 20
125.9270811591297
 30
0.0
 11
270.3942776275142
 21
125.9213705622723
 31
0.0
  0
LINE
  5
6E61
330
18
100
AcDbEntity
  8
本体外線
100
AcDbLine
 10
249.4123636759916
 20
125.9196367494345
 30
0.0
 11
263.4123636759917
 21
125.9196367494345
 31
0.0
  0
LINE
  5
6E62
330
18
100
AcDbEntity
  8
本体外線
100
AcDbLine
 10
249.4123636759917
 20
129.9196367494346
 30
0.0
 11
263.4123636759917
 21
129.9196367494345
 31
0.0
  0
LINE
  5
6E63
330
18
100
AcDbEntity
  8
0
100
AcDbLine
 10
265.3848146989369
 20
129.6674928399722
 30
0.0
 11
263.4123636759917
 21
129.6674928399722
 31
0.0
  0
LINE
  5
6E64
330
18
100
AcDbEntity
  8
0
 48
0.1
100
AcDbLine
 10
267.884814698937
 20
127.9174928399722
 30
0.0
 11
268.384814698937
 21
128.9174928399722
 31
0.0
  0
LINE
  5
6E65
330
18
100
AcDbEntity
  8
0
 48
0.1
100
AcDbLine
 10
267.884814698937
 20
127.9174928399722
 30
0.0
 11
268.384814698937
 21
126.9174928399723
 31
0.0
  0
LINE
  5
6E66
330
18
100
AcDbEntity
  8
0
 48
0.1
100
AcDbLine
 10
268.384814698937
 20
128.9174928399722
 30
0.0
 11
268.3848146989369
 21
126.9174928399722
 31
0.0
  0
LINE
  5
6E67
330
18
100
AcDbEntity
  8
0
100
AcDbLine
 10
266.384814698937
 20
125.9249029180812
 30
0.0
 11
266.384814698937
 21
125.9245054567494
 31
0.0
  0
POINT
  5
6E68
330
18
100
AcDbEntity
  8
0
100
AcDbPoint
 10
265.9123636759917
 20
123.9196367494345
 30
0.0
  0
LINE
  5
6E6A
330
18
100
AcDbEntity
  8
0
100
AcDbLine
 10
265.9723636759917
 20
123.9196367494345
 30
0.0
 11
267.4123636759917
 21
123.9196367494345
 31
0.0
  0
POINT
  5
6E6B
330
18
100
AcDbEntity
  8
0
100
AcDbPoint
 10
265.9123636759917
 20
123.9196367494345
 30
0.0
  0
ARC
  5
6E6D
330
18
100
AcDbEntity
  8
本体外線
100
AcDbCircle
 10
256.4123636759917
 20
174.7503437991134
 30
0.0
 40
14.0
100
AcDbArc
 50
66.15063982794099
 51
173.8493601720588
  0
CIRCLE
  5
6E6E
330
18
100
AcDbEntity
  8
本体外線
100
AcDbCircle
 10
256.4123636759917
 20
174.7503437991134
 30
0.0
 40
11.5
  0
ARC
  5
6E6F
330
18
100
AcDbEntity
  8
0
100
AcDbCircle
 10
256.4123636759917
 20
174.7503437991134
 30
0.0
 40
7.5
100
AcDbArc
 50
167.5415534247187
 51
100.643411503827
  0
CIRCLE
  5
6E70
330
18
100
AcDbEntity
  8
本体外線
100
AcDbCircle
 10
256.4123636759917
 20
174.7503437991134
 30
0.0
 40
7.0
  0
LINE
  5
6E71
330
18
100
AcDbEntity
  8
中心線
  6
CENTER
 48
0.15
100
AcDbLine
 10
256.4123636759918
 20
189.7548693872273
 30
0.0
 11
256.4123636759917
 21
159.8948972547892
 31
0.0
  0
LINE
  5
6E72
330
18
100
AcDbEntity
  8
中心線
  6
CENTER
 48
0.15
100
AcDbLine
 10
240.4123636759917
 20
174.7503437991134
 30
0.0
 11
272.5038953859022
 21
174.7503437991134
 31
0.0
  0
LINE
  5
6E73
330
18
100
AcDbEntity
  8
中心線
  6
CENTER
 48
0.15
100
AcDbLine
 10
248.9123636759916
 20
161.7599627423468
 30
0.0
 11
253.4123636759916
 21
169.5541913764068
 31
0.0
  0
ARC
  5
6E74
330
18
100
AcDbEntity
  8
本体外線
100
AcDbCircle
 10
256.4123636759917
 20
174.7503437991134
 30
0.0
 40
14.0
100
AcDbArc
 50
186.1506398279409
 51
293.8493601720588
  0
ARC
  5
6E75
330
18
100
AcDbEntity
  8
本体外線
100
AcDbCircle
 10
256.4123636759917
 20
174.7503437991134
 30
0.0
 40
14.0
100
AcDbArc
 50
306.1506398279409
 51
53.84936017205892
  0
LINE
  5
6E76
330
18
100
AcDbEntity
  8
本体内線
  6
HIDDEN
 48
0.2
100
AcDbLine
 10
263.1205676084911
 20
176.7503437991134
 30
0.0
 11
270.2687701365427
 21
176.7503437991134
 31
0.0
  0
LINE
  5
6E77
330
18
100
AcDbEntity
  8
本体内線
  6
HIDDEN
 48
0.2
100
AcDbLine
 10
263.1205676084911
 20
172.7503437991134
 30
0.0
 11
270.2687701365427
 21
172.7503437991134
 31
0.0
  0
LINE
  5
6E78
330
18
100
AcDbEntity
  8
本体内線
  6
HIDDEN
 48
0.2
100
AcDbLine
 10
263.2497608415803
 20
173.2503437991134
 30
0.0
 11
270.3317745830668
 21
173.2503437991134
 31
0.0
  0
LINE
  5
6E79
330
18
100
AcDbEntity
  8
本体内線
  6
HIDDEN
 48
0.2
100
AcDbLine
 10
263.2497608415803
 20
176.2503437991134
 30
0.0
 11
270.3317745830667
 21
176.2503437991134
 31
0.0
  0
LINE
  5
6E7B
330
18
100
AcDbEntity
  8
本体内線
  6
HIDDEN
 48
0.2
100
AcDbLine
 10
251.3262109021731
 20
179.5598188184245
 30
0.0
 11
247.7521096381473
 21
185.7503437991134
 31
0.0
  0
LINE
  5
6E7C
330
18
100
AcDbEntity
  8
本体内線
  6
HIDDEN
 48
0.2
100
AcDbLine
 10
254.7903125173109
 20
181.5598188184245
 30
0.0
 11
251.2162112532851
 21
187.7503437991134
 31
0.0
  0
LINE
  5
6E7D
330
18
100
AcDbEntity
  8
本体内線
  6
HIDDEN
 48
0.2
100
AcDbLine
 10
254.2927031988741
 20
181.4217034402769
 30
0.0
 11
250.7516963281308
 21
187.5549072503546
 31
0.0
  0
LINE
  5
6E7E
330
18
100
AcDbEntity
  8
本体内線
  6
HIDDEN
 48
0.2
100
AcDbLine
 10
251.6946269875207
 20
179.9217034402769
 30
0.0
 11
248.1536201167775
 21
186.0549072503546
 31
0.0
  0
LINE
  5
6E7F
330
18
100
AcDbEntity
  8
中心線
  6
CENTER
 48
0.15
100
AcDbLine
 10
253.4123636759917
 20
179.94649622182
 30
0.0
 11
248.9123636759917
 21
187.74072485588
 31
0.0
  0
LINE
  5
6E80
330
18
100
AcDbEntity
  8
本体外線
 48
0.05
100
AcDbLine
 10
262.0730310238525
 20
187.5549072503546
 30
0.0
 11
261.0630900976997
 21
185.8056382536146
 31
0.0
  0
LINE
  5
6E81
330
18
100
AcDbEntity
  8
本体外線
 48
0.05
100
AcDbLine
 10
264.6711072352059
 20
186.0549072503546
 30
0.0
 11
263.6616371508274
 21
184.3064537754904
 31
0.0
  0
LINE
  5
6E82
330
18
100
AcDbEntity
  8
本体外線
100
AcDbLine
 10
261.0630900976997
 20
185.8056382536146
 30
0.0
 11
263.6616371508274
 21
184.3064537754904
 31
0.0
  0
LINE
  5
6E84
330
18
100
AcDbEntity
  8
本体外線
 48
0.05
100
AcDbLine
 10
242.4929527689167
 20
173.2503437991134
 30
0.0
 11
244.5128346212224
 21
173.2503437991134
 31
0.0
  0
LINE
  5
6E85
330
18
100
AcDbEntity
  8
本体外線
 48
0.05
100
AcDbLine
 10
242.4929527689167
 20
176.2503437991134
 30
0.0
 11
244.5118929376735
 21
176.2503437991134
 31
0.0
  0
LINE
  5
6E86
330
18
100
AcDbEntity
  8
本体外線
100
AcDbLine
 10
244.5128346212224
 20
173.2503437991134
 30
0.0
 11
244.5118929376735
 21
176.2503437991134
 31
0.0
  0
LINE
  5
6E87
330
18
100
AcDbEntity
  8
本体外線
 48
0.05
100
AcDbLine
 10
264.6711072352058
 20
163.4457803478722
 30
0.0
 11
263.661166309053
 21
165.1950493446122
 31
0.0
  0
LINE
  5
6E88
330
18
100
AcDbEntity
  8
本体外線
 48
0.05
100
AcDbLine
 10
262.0730310238525
 20
161.9457803478722
 30
0.0
 11
261.0635609394742
 21
163.6942338227364
 31
0.0
  0
LINE
  5
6E89
330
18
100
AcDbEntity
  8
本体外線
100
AcDbLine
 10
263.661166309053
 20
165.1950493446122
 30
0.0
 11
261.0635609394742
 21
163.6942338227364
 31
0.0
  0
LINE
  5
6E8A
330
18
100
AcDbEntity
  8
本体外線
100
AcDbLine
 10
242.4123636759917
 20
130.4196367494345
 30
0.0
 11
242.4123636759917
 21
124.9196367494345
 31
0.0
  0
LINE
  5
6E8B
330
18
100
AcDbEntity
  8
本体外線
100
AcDbLine
 10
270.4123636759917
 20
130.4196367494345
 30
0.0
 11
270.4123636759917
 21
124.9196367494346
 31
0.0
  0
LINE
  5
6E8C
330
18
100
AcDbEntity
  8
本体外線
100
AcDbLine
 10
244.9123636759917
 20
131.9196367494345
 30
0.0
 11
244.9123636759917
 21
131.4196367494345
 31
0.0
  0
LINE
  5
6E8D
330
18
100
AcDbEntity
  8
本体外線
100
AcDbLine
 10
249.4123636759917
 20
129.9196367494346
 30
0.0
 11
249.4123636759916
 21
125.9196367494345
 31
0.0
  0
LINE
  5
6E8E
330
18
100
AcDbEntity
  8
0
100
AcDbLine
 10
248.9123636759917
 20
130.4196367494345
 30
0.0
 11
248.9123636759916
 21
125.4196367494345
 31
0.0
  0
LINE
  5
6E8F
330
18
100
AcDbEntity
  8
0
100
AcDbLine
 10
263.9123636759917
 20
130.4196367494345
 30
0.0
 11
263.9123636759917
 21
129.6674928399722
 31
0.0
  0
LINE
  5
6E90
330
18
100
AcDbEntity
  8
本体外線
100
AcDbLine
 10
263.4123636759917
 20
129.9196367494345
 30
0.0
 11
263.4123636759917
 21
125.9196367494345
 31
0.0
  0
LINE
  5
6E91
330
18
100
AcDbEntity
  8
本体外線
100
AcDbLine
 10
267.9123636759916
 20
131.9196367494345
 30
0.0
 11
267.9123636759916
 21
131.4196367494345
 31
0.0
  0
LINE
  5
6E92
330
18
100
AcDbEntity
  8
本体外線
100
AcDbLine
 10
243.4123636759917
 20
131.4196367494345
 30
0.0
 11
244.9123636759917
 21
131.4196367494345
 31
0.0
  0
ARC
  5
6E93
330
18
100
AcDbEntity
  8
本体外線
100
AcDbCircle
 10
243.4123636759917
 20
124.9196367494345
 30
0.0
 40
1.0
100
AcDbArc
 50
180.0000000000001
 51
270.0000000000001
  0
ARC
  5
6E94
330
18
100
AcDbEntity
  8
本体外線
100
AcDbCircle
 10
243.4123636759917
 20
130.4196367494345
 30
0.0
 40
1.0
100
AcDbArc
 50
90.00000000000007
 51
180.0000000000002
  0
ARC
  5
6E95
330
18
100
AcDbEntity
  8
本体外線
100
AcDbCircle
 10
269.4123636759917
 20
130.4196367494345
 30
0.0
 40
1.0
100
AcDbArc
 50
0.0000000000001018
 51
90.00000000000005
  0
ARC
  5
6E96
330
18
100
AcDbEntity
  8
本体外線
100
AcDbCircle
 10
269.4123636759917
 20
124.9196367494346
 30
0.0
 40
1.0
100
AcDbArc
 50
270.0000000000001
 51
0.0000000000001272
  0
LINE
  5
6E97
330
18
100
AcDbEntity
  8
本体外線
100
AcDbLine
 10
267.9123636759917
 20
131.4196367494345
 30
0.0
 11
269.4123636759917
 21
131.4196367494345
 31
0.0
  0
LINE
  5
6E98
330
18
100
AcDbEntity
  8
本体外線
100
AcDbLine
 10
263.4123636759917
 20
129.9196367494345
 30
0.0
 11
265.4123636759917
 21
131.9196367494345
 31
0.0
  0
LINE
  5
6E99
330
18
100
AcDbEntity
  8
本体外線
100
AcDbLine
 10
263.4123636759917
 20
125.9196367494345
 30
0.0
 11
265.4123636759917
 21
123.9196367494346
 31
0.0
  0
LINE
  5
6E9A
330
18
100
AcDbEntity
  8
本体外線
100
AcDbLine
 10
249.4123636759917
 20
125.9196367494345
 30
0.0
 11
247.4123636759917
 21
123.9196367494345
 31
0.0
  0
LINE
  5
6E9B
330
18
100
AcDbEntity
  8
本体外線
100
AcDbLine
 10
249.4123636759917
 20
129.9196367494346
 30
0.0
 11
247.4123636759917
 21
131.9196367494345
 31
0.0
  0
LINE
  5
6E9C
330
18
100
AcDbEntity
  8
0
100
AcDbLine
 10
263.9123636759917
 20
126.1674928399721
 30
0.0
 11
263.9123636759917
 21
125.4196367494345
 31
0.0
  0
LINE
  5
6E9D
330
18
100
AcDbEntity
  8
0
100
AcDbLine
 10
263.9123636759917
 20
127.9196367494346
 30
0.0
 11
263.9123636759917
 21
127.9174928399722
 31
0.0
  0
LINE
  5
6E9E
330
18
100
AcDbEntity
  8
0
100
AcDbLine
 10
265.3848146989369
 20
129.6674928399722
 30
0.0
 11
265.3848146989369
 21
126.1674928399724
 31
0.0
  0
LINE
  5
6E9F
330
18
100
AcDbEntity
  8
0
 48
0.1
100
AcDbLine
 10
265.3848146989369
 20
128.9174928399722
 30
0.0
 11
266.377398086757
 21
129.9100762277927
 31
0.0
  0
LINE
  5
6EA0
330
18
100
AcDbEntity
  8
0
 48
0.1
100
AcDbLine
 10
265.3848146989369
 20
126.9174928399722
 30
0.0
 11
266.377398086757
 21
125.9249094521517
 31
0.0
  0
LINE
  5
6EA1
330
18
100
AcDbEntity
  8
0
 48
0.5
100
AcDbLine
 10
266.377398086757
 20
129.9100762277927
 30
0.0
 11
266.384814698937
 21
125.9249029180812
 31
0.0
  0
DIMENSION
  5
6EA2
330
18
100
AcDbEntity
  8
0
100
AcDbDimension
  2
*D6
 10
270.4123636759917
 20
145.9516871352526
 30
0.0
 11
252.3426825046115
 21
146.8042417638642
 31
0.0
 70
   160
  1
%%C<>
 71
     5
 42
-1.0
  3
A
100
AcDbAlignedDimension
 13
242.4123636759917
 23
130.4196367494345
 33
0.0
 14
270.4123636759917
 24
130.4196367494346
 34
0.0
100
AcDbRotatedDimension
  0
POINT
  5
6EA6
330
18
100
AcDbEntity
  8
本体外線
100
AcDbPoint
 10
267.9123636759916
 20
131.9196367494345
 30
0.0
  0
POINT
  5
6EA7
330
18
100
AcDbEntity
  8
0
100
AcDbPoint
 10
267.9123636759917
 20
123.9196367494346
 30
0.0
  0
DIMENSION
  5
6EAB
330
18
100
AcDbEntity
  8
0
100
AcDbDimension
  2
*D7
 10
263.9123636759917
 20
117.3769392862983
 30
0.0
 11
256.4123636759916
 21
117.3769392862983
 31
0.0
 70
   160
  1
M15X1.0P
 71
     5
 42
-1.0
  3
A
100
AcDbAlignedDimension
 13
248.9123636759916
 23
125.4196367494345
 33
0.0
 14
263.9123636759917
 24
125.4196367494345
 34
0.0
100
AcDbRotatedDimension
  0
HATCH
  5
6EAC
330
18
100
AcDbEntity
  8
0
100
AcDbHatch
 10
0.0
 20
0.0
 30
0.0
210
0.0
220
0.0
230
1.0
  2
AR-SAND
 70
     0
 71
     0
 91
        2
 92
        7
 72
     0
 73
     1
 93
        4
 10
265.3848146989369
 20
127.9174928399722
 10
265.3848146989369
 20
129.6674928399722
 10
263.4123636759917
 20
129.6674928399722
 10
263.4123636759917
 20
127.9174928399722
 97
        0
 92
        7
 72
     0
 73
     1
 93
        4
 10
263.4123636759917
 20
127.9174928399722
 10
263.4123636759917
 20
126.167492839972
 10
265.3848146989369
 20
126.1674928399723
 10
265.3848146989369
 20
127.9174928399722
 97
        0
 75
     0
 76
     1
 52
0.0
 41
0.02
 77
     0
 78
     4
 53
37.5
 43
154.3046265009682
 44
30.39719246298176
 45
-0.0320006259196809
 46
0.9788264746586847
 79
     6
 49
0.0
 49
-0.7721600000000001
 49
0.0
 49
-0.8636000000000001
 49
0.0
 49
-0.8255
 53
7.499999999999999
 43
154.3046265009682
 44
30.39719246298176
 45
0.8990465662760053
 46
1.433650201136708
 79
     6
 49
0.0
 49
-0.4165600000000001
 49
0.0
 49
-0.69596
 49
0.0
 49
-0.2667000000000001
 53
327.5
 43
153.6797865009682
 44
30.39719246298176
 45
1.581984740482915
 46
0.0028743693570914
 79
     6
 49
0.0
 49
-0.254
 49
0.0
 49
-0.9144
 49
0.0
 49
-1.193799999999999
 53
317.5
 43
153.6797865009682
 44
30.39719246298176
 45
1.527112904944594
 46
0.4458586465144325
 79
     6
 49
0.0
 49
-0.127
 49
0.0
 49
-0.59944
 49
0.0
 49
-0.6858
 47
0.0101750380559503
 98
        2
 10
264.5136448965439
 20
128.6459935565732
 10
264.4830865440338
 20
127.0993879718525
  0
POINT
  5
6EBD
330
18
100
AcDbEntity
  8
0
100
AcDbPoint
 10
266.603378132704
 20
131.9196367494345
 30
0.0
  0
POINT
  5
6EBE
330
18
100
AcDbEntity
  8
0
100
AcDbPoint
 10
268.0326470598267
 20
123.9196367494346
 30
0.0
  0
LINE
  5
6EC3
330
18
100
AcDbEntity
  8
本体外線
100
AcDbLine
 10
244.5128346212224
 20
131.4196367494345
 30
0.0
 11
244.5128346212224
 21
123.9196367494345
 31
0.0
  0
LINE
  5
6EC6
330
18
100
AcDbEntity
  8
剖面線
100
AcDbLine
 10
244.5128346212224
 20
130.0346695103585
 30
0.0
 11
246.3978018602984
 21
131.9196367494345
 31
0.0
  0
LINE
  5
6EC7
330
18
100
AcDbEntity
  8
剖面線
100
AcDbLine
 10
244.5128346212224
 20
128.6876310921981
 30
0.0
 11
247.5786019772253
 21
131.7533984482009
 31
0.0
  0
LINE
  5
6EC8
330
18
100
AcDbEntity
  8
剖面線
100
AcDbLine
 10
244.5128346212224
 20
127.3405926740377
 30
0.0
 11
248.2521211863054
 21
131.0798792391207
 31
0.0
  0
LINE
  5
6EC9
330
18
100
AcDbEntity
  8
剖面線
100
AcDbLine
 10
244.5128346212224
 20
125.9935542558773
 30
0.0
 11
248.9123636759917
 21
130.3930833106467
 31
0.0
  0
LINE
  5
6ECA
330
18
100
AcDbEntity
  8
0
100
AcDbLine
 10
248.9123636759917
 20
130.3930833106467
 30
0.0
 11
248.9256403953856
 21
130.4063600300406
 31
0.0
  0
LINE
  5
6ECB
330
18
100
AcDbEntity
  8
剖面線
100
AcDbLine
 10
244.5128346212224
 20
124.646515837717
 30
0.0
 11
248.9123636759917
 21
129.0460448924863
 31
0.0
  0
LINE
  5
6ECC
330
18
100
AcDbEntity
  8
剖面線
100
AcDbLine
 10
248.9123636759917
 20
129.0460448924863
 30
0.0
 11
249.4123636759916
 21
129.5460448924862
 31
0.0
  0
LINE
  5
6ECD
330
18
100
AcDbEntity
  8
剖面線
100
AcDbLine
 10
245.1329939511003
 20
123.9196367494345
 30
0.0
 11
248.9123636759917
 21
127.6990064743259
 31
0.0
  0
LINE
  5
6ECE
330
18
100
AcDbEntity
  8
剖面線
100
AcDbLine
 10
248.9123636759917
 20
127.6990064743259
 30
0.0
 11
249.4123636759916
 21
128.1990064743258
 31
0.0
  0
LINE
  5
6ECF
330
18
100
AcDbEntity
  8
剖面線
100
AcDbLine
 10
246.4800323692607
 20
123.9196367494345
 30
0.0
 11
248.9123636759917
 21
126.3519680561655
 31
0.0
  0
LINE
  5
6ED0
330
18
100
AcDbEntity
  8
剖面線
100
AcDbLine
 10
248.9123636759917
 20
126.3519680561655
 30
0.0
 11
249.4123636759917
 21
126.8519680561655
 31
0.0
  0
LINE
  5
6ED1
330
18
100
AcDbEntity
  8
剖面線
100
AcDbLine
 10
264.5922448826437
 20
129.9085034993742
 30
0.0
 11
266.603378132704
 21
131.9196367494345
 31
0.0
  0
LINE
  5
6ED2
330
18
100
AcDbEntity
  8
剖面線
100
AcDbLine
 10
265.9404710944752
 20
129.9096912930454
 30
0.0
 11
267.9123636759916
 21
131.8815838745618
 31
0.0
  0
LINE
  5
6ED3
330
18
100
AcDbEntity
  8
剖面線
100
AcDbLine
 10
263.4123636759917
 20
126.0345454564014
 30
0.0
 11
263.5453110595623
 21
126.167492839972
 31
0.0
  0
LINE
  5
6ED4
330
18
100
AcDbEntity
  8
剖面線
100
AcDbLine
 10
267.2886973063067
 20
129.9108790867165
 30
0.0
 11
268.7974549690249
 21
131.4196367494346
 31
0.0
  0
LINE
  5
6ED5
330
18
100
AcDbEntity
  8
剖面線
100
AcDbLine
 10
264.0284285315884
 20
125.3035718938378
 30
0.0
 11
264.6512868021103
 21
125.9264301643597
 31
0.0
  0
LINE
  5
6ED6
330
18
100
AcDbEntity
  8
剖面線
100
AcDbLine
 10
268.6369235181382
 20
129.9120668803876
 30
0.0
 11
269.9727349315976
 21
131.247878293847
 31
0.0
  0
LINE
  5
6ED7
330
18
100
AcDbEntity
  8
剖面線
100
AcDbLine
 10
264.7019477406686
 20
124.6300526847576
 30
0.0
 11
265.9971395176611
 21
125.9252444617501
 31
0.0
  0
LINE
  5
6ED8
330
18
100
AcDbEntity
  8
剖面線
100
AcDbLine
 10
269.9851497299698
 20
129.9132546740587
 30
0.0
 11
270.4123636759917
 21
130.3404686200807
 31
0.0
  0
LINE
  5
6ED9
330
18
100
AcDbEntity
  8
剖面線
100
AcDbLine
 10
265.3754669497488
 20
123.9565334756774
 30
0.0
 11
267.3429922332118
 21
125.9240587591404
 31
0.0
  0
LINE
  5
6EDA
330
18
100
AcDbEntity
  8
剖面線
100
AcDbLine
 10
266.6856086416663
 20
123.9196367494346
 30
0.0
 11
268.6888449487625
 21
125.9228730565307
 31
0.0
  0
LINE
  5
6EDB
330
18
100
AcDbEntity
  8
剖面線
100
AcDbLine
 10
268.0326470598267
 20
123.9196367494346
 30
0.0
 11
270.0346976643132
 21
125.9216873539211
 31
0.0
  0
LINE
  5
6EDC
330
18
100
AcDbEntity
  8
剖面線
100
AcDbLine
 10
269.379685477987
 20
123.9196367494346
 30
0.0
 11
270.4123636759917
 21
124.9523149474392
 31
0.0
  0
DIMENSION
  5
7064
330
18
100
AcDbEntity
  8
0
100
AcDbDimension
  2
*D8
 10
267.9123636759916
 20
140.9581389337713
 30
0.0
 11
256.4123636759917
 21
142.3331389337713
 31
0.0
 70
    32
  1
%%c<>%%p0.5
 71
     5
 42
-1.0
  3
A
100
AcDbAlignedDimension
 13
244.9123636759917
 23
131.9196367494345
 33
0.0
 14
267.9123636759916
 24
131.9196367494345
 34
0.0
100
AcDbRotatedDimension
  0
LINE
  5
7136
330
18
100
AcDbEntity
  8
DIM
 62
     6
100
AcDbLine
 10
247.0128346212224
 20
155.8880340052752
 30
0.0
 11
250.3640043102665
 21
155.8880340052752
 31
0.0
  0
LINE
  5
715F
330
18
100
AcDbEntity
  8
DIM
 62
     6
100
AcDbLine
 10
235.2079580310972
 20
178.7503437991134
 30
0.0
 11
235.2079580310972
 21
190.3647220653188
 31
0.0
  0
MTEXT
  5
7180
330
18
100
AcDbEntity
  8
DIM
100
AcDbMText
 10
246.723792593763
 20
138.6744096758042
 30
0.0
 40
1.75
 41
0.0
 71
     1
 72
     5
  1
{\Ftxt,bigfont|c128;1}
  7
JL
 73
     1
 44
1.0
1001
ACAD
1000
ACAD_MTEXT_DEFINED_HEIGHT_BEGIN
1070
    46
1040
0.0
1000
ACAD_MTEXT_DEFINED_HEIGHT_END
  0
MTEXT
  5
7181
330
18
100
AcDbEntity
  8
DIM
 62
     3
100
AcDbMText
 10
251.6630753606519
 20
137.8041588039203
 30
0.0
 40
1.75
 41
0.0
 71
     5
 72
     1
  1
2-C1
  7
TXT
 73
     1
 44
1.0
1001
ACAD
1000
ACAD_MTEXT_DEFINED_HEIGHT_BEGIN
1070
    46
1040
0.0
1000
ACAD_MTEXT_DEFINED_HEIGHT_END
  0
LINE
  5
7182
330
18
100
AcDbEntity
  8
0
 62
     1
100
AcDbLine
 10
255.881585541018
 20
138.4164360387329
 30
0.0
 11
262.7258281493736
 21
138.4164360387329
 31
0.0
  0
LINE
  5
7183
330
18
100
AcDbEntity
  8
0
 62
     1
100
AcDbLine
 10
255.881585541018
 20
137.1429790621528
 30
0.0
 11
262.7258281493736
 21
137.1429790621528
 31
0.0
  0
REGION
  5
7184
330
18
100
AcDbEntity
  8
DIM
100
AcDbModelerGeometry
 70
     1
  1
mogoo mm m o          
  1
ni ^ *+0;:,4 ^ *+0\^ [ nh ^ LR iqoqjqhook QK mk K*: P<+ nn nlelnelf monn 
  1
n fqfffffffffffffffj:rooh n:rono 
  1
>,27:>;:- {rn rn _nm mogqoqjqhook |
  1
=0;& {rn rn {rn {m {rn {rn |
  1
3*2/ {rn rn {rn {rn {l {n |
  1
,7:33 {rn rn {rn {rn {rn {k {rn {m |
  1
9><: {rn rn {rn {rn {j {l {rn {i 90-(>-; ;0*=3: 0*+ |
  1
300/ {rn rn {rn {rn {h {k |
  1
/3>1:r,*-9><: {rn rn {rn mkiqgjohhhjohilkki nlhqkhklmniggjgmfi o o o n n o o 90-(>-;@) V V V V |
  1
<0:;8: {rn rn {rn {g {f {rn {no 90-(>-; {j {rn |
  1
<0:;8: {rn rn {rn {f {h {rn {nn 90-(>-; {j {rn |
  1
<0:;8: {rn rn {rn {h {g {rn {nm -:):-,:; {j {rn |
  1
:;8: {rn rn {rn {nl o {nk mqjfgohimnnljlljjn {h {nj 90-(>-; _h *1410(1 |
  1
:;8: {rn rn {rn {nk o {ni mqjfgohimnnljllhmf {g {nh 90-(>-; _h *1410(1 |
  1
:;8: {rn rn {rn {nl o {ni mqjfgohimnnljlljjn {f {ng 90-(>-; _h *1410(1 |
  1
):-+:' {rn rn {rn {no {nf |
  1
):-+:' {rn rn {rn {no {mo |
  1
,+->687+r<*-): {rn rn {rn mkiqgjohhhjohilkki nlgqfhklmniggjgmff o roqjoooooooooooooljj roqgiiomjkolhgkklihn o V V |
  1
):-+:' {rn rn {rn {nn {mn |
  1
,+->687+r<*-): {rn rn {rn mkjqjjnhlfkonfjhhg nliqhmklmniggjgmfi o n o o V V |
  1
,+->687+r<*-): {rn rn {rn mkiqgjohhhjohilkki nlgqfhklmniggjgmff o oqjoooooooooooooljj roqgiiomjkolhgkklihn o V V |
  1
/061+ {rn rn {rn mkiqgjohhhjohilkki nlgqfhklmniggjgmff o |
  1
/061+ {rn rn {rn mkjqjjnhlfkonfjhhg nliqhmklmniggjgmfi o |
  1
/061+ {rn rn {rn mkgqnkfgnjinllnnnj nliqhmklmniggjgmfi o |
  0
MTEXT
  5
7197
330
18
100
AcDbEntity
  8
DIM
100
AcDbMText
 10
215.5807570338944
 20
94.89111484388468
 30
0.0
 40
2.25
 41
0.0
 71
     1
 72
     5
  1
{\Ftxt,bigfont|c128;06.04.25外形寸法を変更する}
  7
JL
 73
     1
 44
1.0
1001
ACAD
1000
ACAD_MTEXT_DEFINED_HEIGHT_BEGIN
1070
    46
1040
0.0
1000
ACAD_MTEXT_DEFINED_HEIGHT_END
  0
MTEXT
  5
7198
330
18
100
AcDbEntity
  8
DIM
100
AcDbMText
 10
235.8820903970872
 20
94.83421408459724
 30
0.0
 40
2.25
 41
0.0
 71
     1
 72
     5
  1
{\Ftxt,bigfont|c128;謝}
  7
JL
 73
     1
 44
1.0
1001
ACAD
1000
ACAD_MTEXT_DEFINED_HEIGHT_BEGIN
1070
    46
1040
0.0
1000
ACAD_MTEXT_DEFINED_HEIGHT_END
  0
CIRCLE
  5
7199
330
18
100
AcDbEntity
  8
DIM
100
AcDbCircle
 10
236.3706309537885
 20
93.65988995223137
 30
0.0
 40
1.42601098075263
  0
MTEXT
  5
719A
330
18
100
AcDbEntity
  8
DIM
100
AcDbMText
 10
213.5078158377567
 20
94.63688017217213
 30
0.0
 40
1.75
 41
0.0
 71
     1
 72
     5
  1
{\Ftxt,bigfont|c128;1}
  7
JL
 73
     1
 44
1.0
1001
ACAD
1000
ACAD_MTEXT_DEFINED_HEIGHT_BEGIN
1070
    46
1040
0.0
1000
ACAD_MTEXT_DEFINED_HEIGHT_END
  0
REGION
  5
719B
330
18
100
AcDbEntity
  8
DIM
100
AcDbModelerGeometry
 70
     1
  1
mogoo mm m o          
  1
ni ^ *+0;:,4 ^ *+0\^ [ nh ^ LR iqoqjqhook QK mk K*: P<+ nn nlelnelf monn 
  1
n fqfffffffffffffffj:rooh n:rono 
  1
>,27:>;:- {rn rn _nm mogqoqjqhook |
  1
=0;& {rn rn {rn {m {rn {rn |
  1
3*2/ {rn rn {rn {rn {l {n |
  1
,7:33 {rn rn {rn {rn {rn {k {rn {m |
  1
9><: {rn rn {rn {rn {j {l {rn {i 90-(>-; ;0*=3: 0*+ |
  1
300/ {rn rn {rn {rn {h {k |
  1
/3>1:r,*-9><: {rn rn {rn mnlqilkgoohjnimgmf flqklihfmngkfjogki o o o n n o o 90-(>-;@) V V V V |
  1
<0:;8: {rn rn {rn {g {f {rn {no 90-(>-; {j {rn |
  1
<0:;8: {rn rn {rn {f {h {rn {nn 90-(>-; {j {rn |
  1
<0:;8: {rn rn {rn {h {g {rn {nm -:):-,:; {j {rn |
  1
:;8: {rn rn {rn {nl o {nk mqjfgohimnnljlljjn {h {nj 90-(>-; _h *1410(1 |
  1
:;8: {rn rn {rn {nk o {ni mqjfgohimnnljllhmf {g {nh 90-(>-; _h *1410(1 |
  1
:;8: {rn rn {rn {nl o {ni mqjfgohimnnljlljjn {f {ng 90-(>-; _h *1410(1 |
  1
):-+:' {rn rn {rn {no {nf |
  1
):-+:' {rn rn {rn {no {mo |
  1
,+->687+r<*-): {rn rn {rn mnlqilkgoohjnimgmf fkqflihfmngkfjogi o roqjoooooooooooooljj roqgiiomjkolhgkklihn o V V |
  1
):-+:' {rn rn {rn {nn {mn |
  1
,+->687+r<*-): {rn rn {rn mnmqlljhimikjfjni fmqigihfmngkfjoglm o n o o V V |
  1
,+->687+r<*-): {rn rn {rn mnlqilkgoohjnimgmf fkqflihfmngkfjogi o oqjoooooooooooooljj roqgiiomjkolhgkklihn o V V |
  1
/061+ {rn rn {rn mnlqilkgoohjnimgmf fkqflihfmngkfjogi o |
  1
/061+ {rn rn {rn mnmqlljhimikjfjni fmqigihfmngkfjoglm o |
  1
/061+ {rn rn {rn mnkqfllglggjhlokfg fmqigihfmngkfjoglm o |
  0
MTEXT
  5
71AA
330
18
100
AcDbEntity
  8
0
100
AcDbMText
 10
234.915937964527
 20
83.56812717502874
 30
0.0
 40
2.5
 41
0.0
 71
     1
 72
     5
  1
{\Ftxt,bigfont|c128;小\~柳}
  7
JL
 73
     1
 44
1.0
1001
ACAD
1000
ACAD_MTEXT_DEFINED_HEIGHT_BEGIN
1070
    46
1040
0.0
1000
ACAD_MTEXT_DEFINED_HEIGHT_END
  0
MTEXT
  5
71AB
330
18
100
AcDbEntity
  8
DIM
100
AcDbMText
 10
303.7078597038095
 20
77.18987183192158
 30
0.0
 40
1.75
 41
0.0
 71
     1
 72
     5
  1
{\Ftxt,bigfont|c128;1}
  7
JL
 73
     1
 44
1.0
1001
ACAD
1000
ACAD_MTEXT_DEFINED_HEIGHT_BEGIN
1070
    46
1040
0.0
1000
ACAD_MTEXT_DEFINED_HEIGHT_END
  0
REGION
  5
71AC
330
18
100
AcDbEntity
  8
DIM
100
AcDbModelerGeometry
 70
     1
  1
mogoo mm m o          
  1
ni ^ *+0;:,4 ^ *+0\^ [ nh ^ LR iqoqjqhook QK mk K*: P<+ nn nlelnelf monn 
  1
n fqfffffffffffffffj:rooh n:rono 
  1
>,27:>;:- {rn rn _nm mogqoqjqhook |
  1
=0;& {rn rn {rn {m {rn {rn |
  1
3*2/ {rn rn {rn {rn {l {n |
  1
,7:33 {rn rn {rn {rn {rn {k {rn {m |
  1
9><: {rn rn {rn {rn {j {l {rn {i 90-(>-; ;0*=3: 0*+ |
  1
300/ {rn rn {rn {rn {h {k |
  1
/3>1:r,*-9><: {rn rn {rn lolqglkgkkinhigofh hjqfgfhglgkkhoomgk o o o n n o o 90-(>-;@) V V V V |
  1
<0:;8: {rn rn {rn {g {f {rn {no 90-(>-; {j {rn |
  1
<0:;8: {rn rn {rn {f {h {rn {nn 90-(>-; {j {rn |
  1
<0:;8: {rn rn {rn {h {g {rn {nm -:):-,:; {j {rn |
  1
:;8: {rn rn {rn {nl o {nk mqjfgohimnnljlljjn {h {nj 90-(>-; _h *1410(1 |
  1
:;8: {rn rn {rn {nk o {ni mqjfgohimnnljllhmf {g {nh 90-(>-; _h *1410(1 |
  1
:;8: {rn rn {rn {nl o {ni mqjfgohimnnljlljjn {f {ng 90-(>-; _h *1410(1 |
  1
):-+:' {rn rn {rn {no {nf |
  1
):-+:' {rn rn {rn {no {mo |
  1
,+->687+r<*-): {rn rn {rn lolqglkgkkinhigofh hhqkgfhglgkkhoomfg o roqjoooooooooooooljj roqgiiomjkolhgkklihn o V V |
  1
):-+:' {rn rn {rn {nn {mn |
  1
,+->687+r<*-): {rn rn {rn lomqjljgoijnmookmf hjqmlfhglgkkhoomh o n o o V V |
  1
,+->687+r<*-): {rn rn {rn lolqglkgkkinhigofh hhqkgfhglgkkhoomfg o oqjoooooooooooooljj roqgiiomjkolhgkklihn o V V |
  1
/061+ {rn rn {rn lolqglkgkkinhigofh hhqkgfhglgkkhoomfg o |
  1
/061+ {rn rn {rn lomqjljgoijnmookmf hjqmlfhglgkkhoomh o |
  1
/061+ {rn rn {rn lojqnllggmhmlljhii hjqmlfhglgkkhoomh o |
  0
ENDSEC
  0
SECTION
  2
OBJECTS
  0
DICTIONARY
  5
C
330
0
100
AcDbDictionary
281
     1
  3
ACAD_COLOR
350
7163
  3
ACAD_GROUP
350
D
  3
ACAD_LAYOUT
350
5CF3
  3
ACAD_MATERIAL
350
7162
  3
ACAD_MLINESTYLE
350
1B
  3
ACAD_PLOTSETTINGS
350
5CF4
  3
ACAD_PLOTSTYLENAME
350
5CF1
  3
ACAD_TABLESTYLE
350
7164
  3
ACDBVARIABLEDICTIONARY
350
45D
  0
DICTIONARY
  5
45F
330
18
100
AcDbDictionary
280
     1
281
     1
  3
ACAD_LAYOUTSELFREF
360
5D8B
  3
ACAD_SORTENTS
360
460
  0
DICTIONARY
  5
5D89
330
15
100
AcDbDictionary
280
     1
281
     1
  3
ACAD_LAYOUTSELFREF
360
5D8A
  0
DICTIONARY
  5
7163
102
{ACAD_REACTORS
330
C
102
}
330
C
100
AcDbDictionary
281
     1
  0
DICTIONARY
  5
D
102
{ACAD_REACTORS
330
C
102
}
330
C
100
AcDbDictionary
281
     1
  0
DICTIONARY
  5
5CF3
102
{ACAD_REACTORS
330
C
102
}
330
C
100
AcDbDictionary
281
     1
  3
Model
350
5CF5
  3
配置1
350
5CF6
  0
DICTIONARY
  5
7162
102
{ACAD_REACTORS
330
C
102
}
330
C
100
AcDbDictionary
281
     1
  0
DICTIONARY
  5
1B
102
{ACAD_REACTORS
330
C
102
}
330
C
100
AcDbDictionary
281
     1
  3
STANDARD
350
1C
  0
DICTIONARY
  5
5CF4
102
{ACAD_REACTORS
330
C
102
}
330
C
100
AcDbDictionary
281
     1
  0
ACDBDICTIONARYWDFLT
  5
5CF1
102
{ACAD_REACTORS
330
C
102
}
330
C
100
AcDbDictionary
281
     1
  3
Normal
350
5CF2
100
AcDbDictionaryWithDefault
340
5CF2
  0
DICTIONARY
  5
7164
102
{ACAD_REACTORS
330
C
102
}
330
C
100
AcDbDictionary
281
     1
  3
Standard
350
7165
  0
DICTIONARY
  5
45D
102
{ACAD_REACTORS
330
C
102
}
330
C
100
AcDbDictionary
281
     1
  3
CTABLESTYLE
350
71A0
  3
SORTENTS
350
45E
  0
XRECORD
  5
5D8B
102
{ACAD_REACTORS
330
45F
102
}
330
45F
100
AcDbXrecord
280
     1
340
18
  0
SORTENTSTABLE
  5
460
102
{ACAD_REACTORS
330
45F
102
}
330
45F
100
AcDbSortentsTable
330
18
331
C0
  5
CB
  0
XRECORD
  5
5D8A
102
{ACAD_REACTORS
330
5D89
102
}
330
5D89
100
AcDbXrecord
280
     1
340
15
  0
LAYOUT
  5
5CF5
102
{ACAD_REACTORS
330
5CF3
102
}
330
5CF3
100
AcDbPlotSettings
  1

  2
EPSON STYLUS COLOR 440
  4

  6

 40
0.0
 41
0.0
 42
0.0
 43
0.0
 44
0.0
 45
0.0
 46
0.0
 47
0.0
 48
0.0
 49
0.0
140
0.0
141
0.0
142
1.0
143
1.0
 70
  1712
 72
     0
 73
     0
 74
     0
  7
a.ctb
 75
     0
147
1.0
 76
     0
 77
     2
 78
   300
148
0.0
149
0.0
100
AcDbLayout
  1
Model
 70
     1
 71
     0
 10
0.0
 20
0.0
 11
12.0
 21
9.0
 12
0.0
 22
0.0
 32
0.0
 14
0.0
 24
0.0
 34
0.0
 15
0.0
 25
0.0
 35
0.0
146
0.0
 13
0.0
 23
0.0
 33
0.0
 16
1.0
 26
0.0
 36
0.0
 17
0.0
 27
1.0
 37
0.0
 76
     0
330
18
  0
LAYOUT
  5
5CF6
102
{ACAD_REACTORS
330
5CF3
102
}
330
5CF3
100
AcDbPlotSettings
  1

  2
EPSON STYLUS COLOR 440
  4

  6

 40
0.0
 41
0.0
 42
0.0
 43
0.0
 44
0.0
 45
0.0
 46
0.0
 47
0.0
 48
0.0
 49
0.0
140
0.0
141
0.0
142
1.0
143
1.0
 70
   688
 72
     0
 73
     0
 74
     5
  7
a.ctb
 75
    16
147
1.0
 76
     0
 77
     2
 78
   300
148
0.0
149
0.0
100
AcDbLayout
  1
ｰtｸm1
 70
     1
 71
     1
 10
0.0
 20
0.0
 11
420.0
 21
297.0
 12
0.0
 22
0.0
 32
0.0
 14
1.000000000000000E+20
 24
1.000000000000000E+20
 34
1.000000000000000E+20
 15
-1.000000000000000E+20
 25
-1.000000000000000E+20
 35
-1.000000000000000E+20
146
0.0
 13
0.0
 23
0.0
 33
0.0
 16
1.0
 26
0.0
 36
0.0
 17
0.0
 27
1.0
 37
0.0
 76
     0
330
15
  0
MLINESTYLE
  5
1C
102
{ACAD_REACTORS
330
1B
102
}
330
1B
100
AcDbMlineStyle
  2
STANDARD
 70
     0
  3

 62
   256
 51
90.0
 52
90.0
 71
     2
 49
0.5
 62
   256
  6
BYLAYER
 49
-0.5
 62
   256
  6
BYLAYER
  0
ACDBPLACEHOLDER
  5
5CF2
102
{ACAD_REACTORS
330
5CF1
102
}
330
5CF1
  0
TABLESTYLE
  5
7165
102
{ACAD_REACTORS
330
7164
102
}
330
7164
100
AcDbTableStyle
  3
Standard
 70
     0
 71
     8
 40
1.5
 41
1.5
280
     0
281
     0
  7
STANDARD
140
4.5
170
     2
 62
     0
 63
     7
283
     0
274
    -2
284
     1
 64
     0
275
    -2
285
     1
 65
     0
276
    -2
286
     1
 66
     0
277
    -2
287
     1
 67
     0
278
    -2
288
     1
 68
     0
279
    -2
289
     1
 69
     0
  7
STANDARD
140
6.0
170
     5
 62
     0
 63
     7
283
     0
274
    -2
284
     1
 64
     0
275
    -2
285
     1
 65
     0
276
    -2
286
     1
 66
     0
277
    -2
287
     1
 67
     0
278
    -2
288
     1
 68
     0
279
    -2
289
     1
 69
     0
  7
STANDARD
140
4.5
170
     5
 62
     0
 63
     7
283
     0
274
    -2
284
     1
 64
     0
275
    -2
285
     1
 65
     0
276
    -2
286
     1
 66
     0
277
    -2
287
     1
 67
     0
278
    -2
288
     1
 68
     0
279
    -2
289
     1
 69
     0
  0
DICTIONARYVAR
  5
71A0
102
{ACAD_REACTORS
330
45D
102
}
330
45D
100
DictionaryVariables
280
     0
  1
STANDARD
  0
DICTIONARYVAR
  5
45E
102
{ACAD_REACTORS
330
45D
102
}
330
45D
100
DictionaryVariables
280
     0
  1
127
  0
ENDSEC
  0
EOF
