  0
SECTION
  2
HEADER
  9
$ACADVER
  1
AC1018
  9
$ACADMAINTVER
 70
    76
  9
$DWGCODEPAGE
  3
ANSI_932
  9
$INSBASE
 10
0.0
 20
0.0
 30
0.0
  9
$EXTMIN
 10
0.0
 20
0.0
 30
0.0
  9
$EXTMAX
 10
190.0
 20
280.0
 30
3.838383838383842
  9
$LIMMIN
 10
0.0
 20
0.0
  9
$LIMMAX
 10
420.0
 20
297.0
  9
$ORTHOMODE
 70
     1
  9
$REGENMODE
 70
     1
  9
$FILLMODE
 70
     1
  9
$QTEXTMODE
 70
     0
  9
$MIRRTEXT
 70
     1
  9
$LTSCALE
 40
1.0
  9
$ATTMODE
 70
     1
  9
$TEXTSIZE
 40
2.5
  9
$TRACEWID
 40
1.0
  9
$TEXTSTYLE
  7
TXT
  9
$CLAYER
  8
0
  9
$CELTYPE
  6
BYLAYER
  9
$CECOLOR
 62
   256
  9
$CELTSCALE
 40
1.0
  9
$DISPSILH
 70
     0
  9
$DIMSCALE
 40
1.0
  9
$DIMASZ
 40
2.5
  9
$DIMEXO
 40
0.8
  9
$DIMDLI
 40
6.0
  9
$DIMRND
 40
0.0
  9
$DIMDLE
 40
0.0
  9
$DIMEXE
 40
0.8
  9
$DIMTP
 40
0.0
  9
$DIMTM
 40
0.0
  9
$DIMTXT
 40
2.5
  9
$DIMCEN
 40
0.0
  9
$DIMTSZ
 40
0.0
  9
$DIMTOL
 70
     0
  9
$DIMLIM
 70
     0
  9
$DIMTIH
 70
     0
  9
$DIMTOH
 70
     0
  9
$DIMSE1
 70
     0
  9
$DIMSE2
 70
     0
  9
$DIMTAD
 70
     3
  9
$DIMZIN
 70
     8
  9
$DIMBLK
  1
Open30
  9
$DIMASO
 70
     1
  9
$DIMSHO
 70
     1
  9
$DIMPOST
  1

  9
$DIMAPOST
  1

  9
$DIMALT
 70
     0
  9
$DIMALTD
 70
     2
  9
$DIMALTF
 40
25.4
  9
$DIMLFAC
 40
1.0
  9
$DIMTOFL
 70
     1
  9
$DIMTVP
 40
0.0
  9
$DIMTIX
 70
     0
  9
$DIMSOXD
 70
     0
  9
$DIMSAH
 70
     0
  9
$DIMBLK1
  1

  9
$DIMBLK2
  1

  9
$DIMSTYLE
  2
STANDARD
  9
$DIMCLRD
 70
   256
  9
$DIMCLRE
 70
   256
  9
$DIMCLRT
 70
     3
  9
$DIMTFAC
 40
1.0
  9
$DIMGAP
 40
0.8
  9
$DIMJUST
 70
     0
  9
$DIMSD1
 70
     0
  9
$DIMSD2
 70
     0
  9
$DIMTOLJ
 70
     1
  9
$DIMTZIN
 70
     0
  9
$DIMALTZ
 70
     0
  9
$DIMALTTZ
 70
     0
  9
$DIMUPT
 70
     0
  9
$DIMDEC
 70
     1
  9
$DIMTDEC
 70
     1
  9
$DIMALTU
 70
     2
  9
$DIMALTTD
 70
     2
  9
$DIMTXSTY
  7
STANDARD
  9
$DIMAUNIT
 70
     0
  9
$DIMADEC
 70
     0
  9
$DIMALTRND
 40
0.0
  9
$DIMAZIN
 70
     2
  9
$DIMDSEP
 70
    46
  9
$DIMATFIT
 70
     3
  9
$DIMFRAC
 70
     0
  9
$DIMLDRBLK
  1
Open30
  9
$DIMLUNIT
 70
     2
  9
$DIMLWD
 70
    -2
  9
$DIMLWE
 70
    -2
  9
$DIMTMOVE
 70
     0
  9
$LUNITS
 70
     2
  9
$LUPREC
 70
     2
  9
$SKETCHINC
 40
1.0
  9
$FILLETRAD
 40
1.5
  9
$AUNITS
 70
     0
  9
$AUPREC
 70
     2
  9
$MENU
  1
.
  9
$ELEVATION
 40
0.0
  9
$PELEVATION
 40
0.0
  9
$THICKNESS
 40
0.0
  9
$LIMCHECK
 70
     0
  9
$CHAMFERA
 40
1.5
  9
$CHAMFERB
 40
1.5
  9
$CHAMFERC
 40
1.75
  9
$CHAMFERD
 40
0.0174532925199433
  9
$SKPOLY
 70
     0
  9
$TDCREATE
 40
2451555.620234838
  9
$TDUCREATE
 40
2451555.245234838
  9
$TDUPDATE
 40
2455846.565181482
  9
$TDUUPDATE
 40
2455846.190181482
  9
$TDINDWG
 40
2.3721958218
  9
$TDUSRTIMER
 40
2.3721958218
  9
$USRTIMER
 70
     1
  9
$ANGBASE
 50
0.0
  9
$ANGDIR
 70
     0
  9
$PDMODE
 70
     0
  9
$PDSIZE
 40
0.0
  9
$PLINEWID
 40
0.0
  9
$SPLFRAME
 70
     0
  9
$SPLINETYPE
 70
     6
  9
$SPLINESEGS
 70
     8
  9
$HANDSEED
  5
7F01
  9
$SURFTAB1
 70
     6
  9
$SURFTAB2
 70
     6
  9
$SURFTYPE
 70
     6
  9
$SURFU
 70
     6
  9
$SURFV
 70
     6
  9
$UCSBASE
  2

  9
$UCSNAME
  2

  9
$UCSORG
 10
0.0
 20
0.0
 30
0.0
  9
$UCSXDIR
 10
1.0
 20
0.0
 30
0.0
  9
$UCSYDIR
 10
0.0
 20
1.0
 30
0.0
  9
$UCSORTHOREF
  2

  9
$UCSORTHOVIEW
 70
     0
  9
$UCSORGTOP
 10
0.0
 20
0.0
 30
0.0
  9
$UCSORGBOTTOM
 10
0.0
 20
0.0
 30
0.0
  9
$UCSORGLEFT
 10
0.0
 20
0.0
 30
0.0
  9
$UCSORGRIGHT
 10
0.0
 20
0.0
 30
0.0
  9
$UCSORGFRONT
 10
0.0
 20
0.0
 30
0.0
  9
$UCSORGBACK
 10
0.0
 20
0.0
 30
0.0
  9
$PUCSBASE
  2

  9
$PUCSNAME
  2

  9
$PUCSORG
 10
0.0
 20
0.0
 30
0.0
  9
$PUCSXDIR
 10
1.0
 20
0.0
 30
0.0
  9
$PUCSYDIR
 10
0.0
 20
1.0
 30
0.0
  9
$PUCSORTHOREF
  2

  9
$PUCSORTHOVIEW
 70
     0
  9
$PUCSORGTOP
 10
0.0
 20
0.0
 30
0.0
  9
$PUCSORGBOTTOM
 10
0.0
 20
0.0
 30
0.0
  9
$PUCSORGLEFT
 10
0.0
 20
0.0
 30
0.0
  9
$PUCSORGRIGHT
 10
0.0
 20
0.0
 30
0.0
  9
$PUCSORGFRONT
 10
0.0
 20
0.0
 30
0.0
  9
$PUCSORGBACK
 10
0.0
 20
0.0
 30
0.0
  9
$USERI1
 70
     0
  9
$USERI2
 70
     0
  9
$USERI3
 70
     0
  9
$USERI4
 70
     0
  9
$USERI5
 70
     0
  9
$USERR1
 40
0.0
  9
$USERR2
 40
0.0
  9
$USERR3
 40
0.0
  9
$USERR4
 40
0.0
  9
$USERR5
 40
0.0
  9
$WORLDVIEW
 70
     1
  9
$SHADEDGE
 70
     3
  9
$SHADEDIF
 70
    70
  9
$TILEMODE
 70
     1
  9
$MAXACTVP
 70
    48
  9
$PINSBASE
 10
0.0
 20
0.0
 30
0.0
  9
$PLIMCHECK
 70
     0
  9
$PEXTMIN
 10
1.000000000000000E+20
 20
1.000000000000000E+20
 30
1.000000000000000E+20
  9
$PEXTMAX
 10
-1.000000000000000E+20
 20
-1.000000000000000E+20
 30
-1.000000000000000E+20
  9
$PLIMMIN
 10
0.0
 20
0.0
  9
$PLIMMAX
 10
420.0
 20
297.0
  9
$UNITMODE
 70
     0
  9
$VISRETAIN
 70
     1
  9
$PLINEGEN
 70
     0
  9
$PSLTSCALE
 70
     1
  9
$TREEDEPTH
 70
  3020
  9
$CMLSTYLE
  2
STANDARD
  9
$CMLJUST
 70
     0
  9
$CMLSCALE
 40
20.0
  9
$PROXYGRAPHICS
 70
     1
  9
$MEASUREMENT
 70
     1
  9
$CELWEIGHT
370
    -1
  9
$ENDCAPS
280
     0
  9
$JOINSTYLE
280
     0
  9
$LWDISPLAY
290
     0
  9
$INSUNITS
 70
     0
  9
$HYPERLINKBASE
  1

  9
$STYLESHEET
  1
monochrome.ctb
  9
$XEDIT
290
     1
  9
$CEPSNTYPE
380
     0
  9
$PSTYLEMODE
290
     1
  9
$FINGERPRINTGUID
  2
{1CF51E8A-A506-11D4-A7D9-AF69F5C20846}
  9
$VERSIONGUID
  2
{01B8DAEC-B522-4599-81E4-718324471B87}
  9
$EXTNAMES
290
     1
  9
$PSVPSCALE
 40
0.0
  9
$OLESTARTUP
290
     0
  9
$SORTENTS
280
   127
  9
$INDEXCTL
280
     0
  9
$HIDETEXT
280
     0
  9
$XCLIPFRAME
290
     0
  9
$HALOGAP
280
     0
  9
$OBSCOLOR
 70
   257
  9
$OBSLTYPE
280
     0
  9
$INTERSECTIONDISPLAY
280
     0
  9
$INTERSECTIONCOLOR
 70
   257
  9
$DIMASSOC
280
     1
  9
$PROJECTNAME
  1

  0
ENDSEC
  0
SECTION
  2
CLASSES
  0
CLASS
  1
DICTIONARYVAR
  2
AcDbDictionaryVar
  3
ObjectDBX Classes
 90
        0
 91
        2
280
     0
281
     0
  0
CLASS
  1
SORTENTSTABLE
  2
AcDbSortentsTable
  3
ObjectDBX Classes
 90
        0
 91
        1
280
     0
281
     0
  0
CLASS
  1
ACDBDICTIONARYWDFLT
  2
AcDbDictionaryWithDefault
  3
ObjectDBX Classes
 90
        0
 91
        1
280
     0
281
     0
  0
CLASS
  1
TABLESTYLE
  2
AcDbTableStyle
  3
ObjectDBX Classes
 90
     2047
 91
        1
280
     0
281
     0
  0
ENDSEC
  0
SECTION
  2
TABLES
  0
TABLE
  2
VPORT
  5
8
330
0
100
AcDbSymbolTable
 70
     2
  0
VPORT
  5
7F00
330
8
100
AcDbSymbolTableRecord
100
AcDbViewportTableRecord
  2
*Active
 70
     0
 10
0.0
 20
0.0
 11
1.0
 21
1.0
 12
65.50303965573721
 22
150.18607595211
 13
0.0
 23
0.0
 14
10.0
 24
10.0
 15
10.0
 25
10.0
 16
0.0
 26
0.0
 36
1.0
 17
0.0
 27
0.0
 37
0.0
 40
314.5105979615006
 41
2.47104247104247
 42
50.0
 43
0.0
 44
0.0
 50
0.0
 51
0.0
 71
     0
 72
 20000
 73
     1
 74
     1
 75
     0
 76
     0
 77
     0
 78
     0
281
     0
 65
     1
110
0.0
120
0.0
130
0.0
111
1.0
121
0.0
131
0.0
112
0.0
122
1.0
132
0.0
 79
     0
146
0.0
  0
ENDTAB
  0
TABLE
  2
LTYPE
  5
5
330
0
100
AcDbSymbolTable
 70
     7
  0
LTYPE
  5
12
330
5
100
AcDbSymbolTableRecord
100
AcDbLinetypeTableRecord
  2
BYBLOCK
 70
     0
  3

 72
    65
 73
     0
 40
0.0
  0
LTYPE
  5
13
330
5
100
AcDbSymbolTableRecord
100
AcDbLinetypeTableRecord
  2
BYLAYER
 70
     0
  3

 72
    65
 73
     0
 40
0.0
  0
LTYPE
  5
14
330
5
100
AcDbSymbolTableRecord
100
AcDbLinetypeTableRecord
  2
CONTINUOUS
 70
     0
  3
Solid line
 72
    65
 73
     0
 40
0.0
  0
LTYPE
  5
9D
330
5
100
AcDbSymbolTableRecord
100
AcDbLinetypeTableRecord
  2
CENTERX2
 70
     0
  3
Center (2x) ________  __  ________  __  _____
 72
    65
 73
     4
 40
101.6
 49
63.5
 74
     0
 49
-12.7
 74
     0
 49
12.7
 74
     0
 49
-12.7
 74
     0
  0
LTYPE
  5
A1
330
5
100
AcDbSymbolTableRecord
100
AcDbLinetypeTableRecord
  2
DASHED
 70
     0
  3
Dashed __ __ __ __ __ __ __ __ __ __ __ __ __ _
 72
    65
 73
     2
 40
19.05
 49
12.7
 74
     0
 49
-6.349999999999999
 74
     0
  0
LTYPE
  5
A2
330
5
100
AcDbSymbolTableRecord
100
AcDbLinetypeTableRecord
  2
DASHED2
 70
     0
  3
Dashed (.5x) _ _ _ _ _ _ _ _ _ _ _ _ _ _ _ _ _
 72
    65
 73
     2
 40
9.524999999999998
 49
6.349999999999999
 74
     0
 49
-3.174999999999999
 74
     0
  0
LTYPE
  5
A5
330
5
100
AcDbSymbolTableRecord
100
AcDbLinetypeTableRecord
  2
DIVIDE2
 70
     0
  3
Divide (.5x) __..__..__..__..__..__..__..__.._
 72
    65
 73
     6
 40
15.875
 49
6.349999999999999
 74
     0
 49
-3.174999999999999
 74
     0
 49
0.0
 74
     0
 49
-3.174999999999999
 74
     0
 49
0.0
 74
     0
 49
-3.174999999999999
 74
     0
  0
LTYPE
  5
650B
330
5
100
AcDbSymbolTableRecord
100
AcDbLinetypeTableRecord
  2
CENTER
 70
     0
  3
Center ____ _ ____ _ ____ _ ____ _ ____ _ ____
 72
    65
 73
     4
 40
50.8
 49
31.75
 74
     0
 49
-6.349999999999999
 74
     0
 49
6.349999999999999
 74
     0
 49
-6.349999999999999
 74
     0
  0
LTYPE
  5
650C
330
5
100
AcDbSymbolTableRecord
100
AcDbLinetypeTableRecord
  2
HIDDEN
 70
     0
  3
Hidden __ __ __ __ __ __ __ __ __ __ __ __ __ _
 72
    65
 73
     2
 40
9.524999999999998
 49
6.349999999999999
 74
     0
 49
-3.174999999999999
 74
     0
  0
ENDTAB
  0
TABLE
  2
LAYER
  5
2
102
{ACAD_XDICTIONARY
360
751C
102
}
330
0
100
AcDbSymbolTable
 70
     9
  0
LAYER
  5
E
330
2
100
AcDbSymbolTableRecord
100
AcDbLayerTableRecord
  2
0
 70
     0
 62
     7
  6
CONTINUOUS
370
    -3
390
5CF2
  0
LAYER
  5
B9
330
2
100
AcDbSymbolTableRecord
100
AcDbLayerTableRecord
  2
dim
 70
     0
 62
     3
  6
CONTINUOUS
370
    -3
390
5CF2
  0
LAYER
  5
F2
330
2
100
AcDbSymbolTableRecord
100
AcDbLayerTableRecord
  2
DEFPOINTS
 70
     0
 62
     4
  6
CONTINUOUS
290
     0
370
    -3
390
5CF2
  0
LAYER
  5
5F8B
330
2
100
AcDbSymbolTableRecord
100
AcDbLayerTableRecord
  2
mark
 70
     0
 62
     6
  6
CONTINUOUS
370
    -3
390
5CF2
  0
LAYER
  5
644E
330
2
100
AcDbSymbolTableRecord
100
AcDbLayerTableRecord
  2
frame
 70
     0
 62
     9
  6
CONTINUOUS
370
    -3
390
5CF2
  0
LAYER
  5
650D
330
2
100
AcDbSymbolTableRecord
100
AcDbLayerTableRecord
  2
center
 70
     0
 62
     1
  6
CENTER
370
    -3
390
5CF2
  0
LAYER
  5
650E
330
2
100
AcDbSymbolTableRecord
100
AcDbLayerTableRecord
  2
bowle
 70
     0
 62
     4
  6
HIDDEN
370
    -3
390
5CF2
  0
LAYER
  5
650F
330
2
100
AcDbSymbolTableRecord
100
AcDbLayerTableRecord
  2
contour
 70
     0
 62
     2
  6
CONTINUOUS
370
    -3
390
5CF2
  0
LAYER
  5
6510
330
2
100
AcDbSymbolTableRecord
100
AcDbLayerTableRecord
  2
section
 70
     0
 62
     5
  6
CONTINUOUS
370
    -3
390
5CF2
  0
ENDTAB
  0
TABLE
  2
STYLE
  5
3
330
0
100
AcDbSymbolTable
 70
     5
  0
STYLE
  5
F
330
3
100
AcDbSymbolTableRecord
100
AcDbTextStyleTableRecord
  2
STANDARD
 70
     0
 40
0.0
 41
1.0
 50
0.0
 71
     0
 42
2.5
  3
txt
  4

  0
STYLE
  5
BE
330
3
100
AcDbSymbolTableRecord
100
AcDbTextStyleTableRecord
  2
ISOCP3
 70
     0
 40
0.0
 41
1.0
 50
0.0
 71
     0
 42
2.5
  3
isocp3.shx
  4

  0
STYLE
  5
2A37
330
3
100
AcDbSymbolTableRecord
100
AcDbTextStyleTableRecord
  2
TXT
 70
     0
 40
0.0
 41
1.0
 50
0.0
 71
     0
 42
2.5
  3
txt.shx
  4
bigfont.shx
  0
STYLE
  5
5DCB
330
3
100
AcDbSymbolTableRecord
100
AcDbTextStyleTableRecord
  2
LKK
 70
     0
 40
50.0
 41
1.5
 50
0.0
 71
     0
 42
50.0
  3
MS PGothic.ttf
  4

1001
ACAD
1000
MS PGothic
1071
    32818
  0
STYLE
  5
5DCC
330
3
100
AcDbSymbolTableRecord
100
AcDbTextStyleTableRecord
  2
JL
 70
     0
 40
10.0
 41
0.5
 50
0.0
 71
     0
 42
5.0
  3
MS Mincho.ttf
  4

1001
ACAD
1000
MS Mincho
1071
    32785
  0
ENDTAB
  0
TABLE
  2
VIEW
  5
6
330
0
100
AcDbSymbolTable
 70
     0
  0
ENDTAB
  0
TABLE
  2
UCS
  5
7
330
0
100
AcDbSymbolTable
 70
     0
  0
ENDTAB
  0
TABLE
  2
APPID
  5
9
330
0
100
AcDbSymbolTable
 70
    11
  0
APPID
  5
10
330
9
100
AcDbSymbolTableRecord
100
AcDbRegAppTableRecord
  2
ACAD
 70
     0
  0
APPID
  5
75DF
330
9
100
AcDbSymbolTableRecord
100
AcDbRegAppTableRecord
  2
ACAD_DSTYLE_DIMEXT_LENGTH
 70
     0
  0
APPID
  5
75E0
330
9
100
AcDbSymbolTableRecord
100
AcDbRegAppTableRecord
  2
ACAD_DSTYLE_DIMEXT_ENABLED
 70
     0
  0
APPID
  5
75E1
330
9
100
AcDbSymbolTableRecord
100
AcDbRegAppTableRecord
  2
ACAD_DSTYLE_DIMJOGGED_JOGANGLE_SYMBOL
 70
     0
  0
APPID
  5
75E2
330
9
100
AcDbSymbolTableRecord
100
AcDbRegAppTableRecord
  2
ACAD_DSTYLE_DIMARC_LENGTH_SYMBOL
 70
     0
  0
APPID
  5
787E
330
9
100
AcDbSymbolTableRecord
100
AcDbRegAppTableRecord
  2
ACAD_EXEMPT_FROM_CAD_STANDARDS
 70
     0
  0
APPID
  5
78CD
330
9
100
AcDbSymbolTableRecord
100
AcDbRegAppTableRecord
  2
ACAD_DSTYLE_DIMTEXT_FILL
 70
     0
  0
APPID
  5
78D0
330
9
100
AcDbSymbolTableRecord
100
AcDbRegAppTableRecord
  2
ACAD_DSTYLE_DIM_LINETYPE
 70
     0
  0
APPID
  5
78D1
330
9
100
AcDbSymbolTableRecord
100
AcDbRegAppTableRecord
  2
ACAD_DSTYLE_DIM_EXT1_LINETYPE
 70
     0
  0
APPID
  5
78D2
330
9
100
AcDbSymbolTableRecord
100
AcDbRegAppTableRecord
  2
ACAD_DSTYLE_DIM_EXT2_LINETYPE
 70
     0
  0
APPID
  5
7EED
330
9
100
AcDbSymbolTableRecord
100
AcDbRegAppTableRecord
  2
ACAD_PSEXT
 70
     0
  0
ENDTAB
  0
TABLE
  2
DIMSTYLE
  5
A
330
0
100
AcDbSymbolTable
 70
     2
100
AcDbDimStyleTable
 71
     2
340
75DE
340
1A4
  0
DIMSTYLE
105
1A4
330
A
100
AcDbSymbolTableRecord
100
AcDbDimStyleTableRecord
  2
A
 70
     0
 41
2.5
 42
1.0
 43
6.0
 44
1.0
 73
     0
 74
     0
 77
     3
 78
     8
140
3.0
141
0.0
147
1.0
176
     6
177
     6
178
     3
271
     1
272
     1
279
     1
340
2A37
  0
DIMSTYLE
105
75DE
102
{ACAD_REACTORS
330
7B6F
330
7B7F
330
7BA6
330
7BB3
330
7BC0
330
7BCE
330
7BEA
330
7BF9
330
7C4D
330
7C5C
330
7E78
102
}
330
A
100
AcDbSymbolTableRecord
100
AcDbDimStyleTableRecord
  2
STANDARD
 70
     0
 41
2.5
 42
0.8
 43
6.0
 44
0.8
 73
     0
 74
     0
 77
     3
 78
     8
 79
     2
140
2.5
141
0.0
147
0.8
172
     1
176
   256
177
   256
178
     3
271
     1
272
     1
340
F
341
7543
342
7543
1001
ACAD_DSTYLE_DIMEXT_LENGTH
1070
   378
1040
1.0
1001
ACAD_DSTYLE_DIMEXT_ENABLED
1070
   383
1070
     0
1001
ACAD_DSTYLE_DIMARC_LENGTH_SYMBOL
1070
   379
1070
     0
1001
ACAD_DSTYLE_DIMJOGGED_JOGANGLE_SYMBOL
1070
   384
1040
1.570796326794896
  0
ENDTAB
  0
TABLE
  2
BLOCK_RECORD
  5
1
330
0
100
AcDbSymbolTable
 70
    14
  0
BLOCK_RECORD
  5
18
102
{ACAD_XDICTIONARY
360
45F
102
}
330
1
100
AcDbSymbolTableRecord
100
AcDbBlockTableRecord
  2
*MODEL_SPACE
340
5CF5
  0
BLOCK_RECORD
  5
15
102
{ACAD_XDICTIONARY
360
5D89
102
}
330
1
100
AcDbSymbolTableRecord
100
AcDbBlockTableRecord
  2
*PAPER_SPACE
340
5CF6
  0
BLOCK_RECORD
  5
639D
330
1
100
AcDbSymbolTableRecord
100
AcDbBlockTableRecord
  2
A$C255C26A2
340
0
  0
BLOCK_RECORD
  5
7543
330
1
100
AcDbSymbolTableRecord
100
AcDbBlockTableRecord
  2
_Open30
340
0
102
{BLKREFS
331
7DD0
331
7DD1
331
7DD9
331
7DDA
331
7DE2
331
7DE3
331
7DED
331
7DEE
331
7DF6
331
7DF7
331
7E0A
331
7E1C
331
7E1D
331
7E88
331
7E89
331
7E95
331
7E96
331
7EA1
331
7EA2
331
7EAD
331
7EAE
102
}
  0
BLOCK_RECORD
  5
7549
102
{ACAD_XDICTIONARY
360
754A
102
}
330
1
100
AcDbSymbolTableRecord
100
AcDbBlockTableRecord
  2
A
340
0
310
2800000020000000200000000100080000000000000400000000000000000000000000000000000000000000000080000080000000808000800000008000800080800000C0C0C000C0DCC000F0CAA6000020400000206000002080000020A0000020C0000020E00000400000004020000040400000406000004080000040A0
310
000040C0000040E00000600000006020000060400000606000006080000060A0000060C0000060E00000800000008020000080400000806000008080000080A0000080C0000080E00000A0000000A0200000A0400000A0600000A0800000A0A00000A0C00000A0E00000C0000000C0200000C0400000C0600000C0800000C0
310
A00000C0C00000C0E00000E0000000E0200000E0400000E0600000E0800000E0A00000E0C00000E0E00040000000400020004000400040006000400080004000A0004000C0004000E00040200000402020004020400040206000402080004020A0004020C0004020E000404000004040200040404000404060004040800040
310
40A0004040C0004040E00040600000406020004060400040606000406080004060A0004060C0004060E00040800000408020004080400040806000408080004080A0004080C0004080E00040A0000040A0200040A0400040A0600040A0800040A0A00040A0C00040A0E00040C0000040C0200040C0400040C0600040C08000
310
40C0A00040C0C00040C0E00040E0000040E0200040E0400040E0600040E0800040E0A00040E0C00040E0E00080000000800020008000400080006000800080008000A0008000C0008000E00080200000802020008020400080206000802080008020A0008020C0008020E00080400000804020008040400080406000804080
310
008040A0008040C0008040E00080600000806020008060400080606000806080008060A0008060C0008060E00080800000808020008080400080806000808080008080A0008080C0008080E00080A0000080A0200080A0400080A0600080A0800080A0A00080A0C00080A0E00080C0000080C0200080C0400080C0600080C0
310
800080C0A00080C0C00080C0E00080E0000080E0200080E0400080E0600080E0800080E0A00080E0C00080E0E000C0000000C0002000C0004000C0006000C0008000C000A000C000C000C000E000C0200000C0202000C0204000C0206000C0208000C020A000C020C000C020E000C0400000C0402000C0404000C0406000C0
310
408000C040A000C040C000C040E000C0600000C0602000C0604000C0606000C0608000C060A000C060C000C060E000C0800000C0802000C0804000C0806000C0808000C080A000C080C000C080E000C0A00000C0A02000C0A04000C0A06000C0A08000C0A0A000C0A0C000C0A0E000C0C00000C0C02000C0C04000C0C06000
310
C0C08000C0C0A000F0FBFF00A4A0A000808080000000FF0000FF000000FFFF00FF000000FF00FF00FFFF0000FFFFFF0000000000000000000000000000000000000000000000000000000000000000000000000000000000000000000000000000000000000000000000000000000000000000000000000000000000000000
310
00000000000000000000000000000000000000000000000000000000000000000000000000000000000000000000000000000000000000000000000000000000000000000000000000000000000000000000000000000000000000000000000000000000000000000000000000000000000000000000000000000000000000
310
00000000000000000000000000000000000000000000000000000000000000000000000000000000000000000000000000000000000000000000000000000000000000000000000000000000000000000000000000000000000000000000000000000000000000000000000000000000000000000000000000000000000000
310
000000000000FDFDFDFDFDFDFDFDFDFDFDFD0000FD0000000000000000000000000000000000FD0000FA0000000000FA00FD0000FDFD00000000000000000000000000000000FD0000FA0000000000FA00FD0000FDFDFD000000000000000000000000000000FD0000FA0000000000FA00FD0000FDFDFDFD00000000000000
310
00000000000000FD0000FAFAFAFAFAFAFA00FD0000FDFDFDFDFD00000000000000000000000000FD000000FA00000000FA00FD0000FDFDFDFDFDFDFDFDFDFDFDFDFDFDFDFDFDFDFD000000FA000000FA0000FD0000FDFDFDFDFD00000000000000000000000000FD00000000FA0000FA0000FD0000FDFDFDFD000000000000
310
0000000000000000FD00000000FA00FA000000FD0000FDFD00000000000000000000000000000000FD0000000000FAFA000000FD0000FD0000000000000000000000000000000000FD0000000000FA00000000FD0000000000000000000000000000000000000000FDFDFDFDFDFDFDFDFDFDFDFD0000000000000000000000
310
00000000000000000000000000000000000000000000000000000000000000000000000000000000000000000000000000000000000000000000000000000000000000000000000000000000000000000000000000000000000000000000000000000000000000000000000000000000000000000000000000000000000000
310
00000000000000000000000000000000000000000000000000000000000000000000000000000000000000000000000000000000000000000000000000000000000000000000000000000000000000000000000000000000000000000000000000000000000000000000000000000000000000000000000000000000000000
310
0000000000000000000000000000000000000000000000000000000000000000000000000000000000000000000000000000000000000000
102
{BLKREFS
331
7BE9
102
}
  0
BLOCK_RECORD
  5
7B70
330
1
100
AcDbSymbolTableRecord
100
AcDbBlockTableRecord
  2
*D3
340
0
  0
BLOCK_RECORD
  5
7B80
330
1
100
AcDbSymbolTableRecord
100
AcDbBlockTableRecord
  2
*D4
340
0
  0
BLOCK_RECORD
  5
7BA7
330
1
100
AcDbSymbolTableRecord
100
AcDbBlockTableRecord
  2
*D5
340
0
  0
BLOCK_RECORD
  5
7BB4
330
1
100
AcDbSymbolTableRecord
100
AcDbBlockTableRecord
  2
*D6
340
0
  0
BLOCK_RECORD
  5
7BC1
330
1
100
AcDbSymbolTableRecord
100
AcDbBlockTableRecord
  2
*D7
340
0
  0
BLOCK_RECORD
  5
7BCF
330
1
100
AcDbSymbolTableRecord
100
AcDbBlockTableRecord
  2
*D8
340
0
  0
BLOCK_RECORD
  5
7BEB
330
1
100
AcDbSymbolTableRecord
100
AcDbBlockTableRecord
  2
*D9
340
0
  0
BLOCK_RECORD
  5
7BFA
330
1
100
AcDbSymbolTableRecord
100
AcDbBlockTableRecord
  2
*D10
340
0
  0
BLOCK_RECORD
  5
7C4E
330
1
100
AcDbSymbolTableRecord
100
AcDbBlockTableRecord
  2
*D11
340
0
  0
BLOCK_RECORD
  5
7C5D
330
1
100
AcDbSymbolTableRecord
100
AcDbBlockTableRecord
  2
*D12
340
0
  0
BLOCK_RECORD
  5
7E79
330
1
100
AcDbSymbolTableRecord
100
AcDbBlockTableRecord
  2
*D13
340
0
  0
ENDTAB
  0
ENDSEC
  0
SECTION
  2
BLOCKS
  0
BLOCK
  5
19
330
18
100
AcDbEntity
  8
0
100
AcDbBlockBegin
  2
*MODEL_SPACE
 70
     0
 10
0.0
 20
0.0
 30
0.0
  3
*MODEL_SPACE
  1

  0
ENDBLK
  5
1A
330
18
100
AcDbEntity
  8
0
100
AcDbBlockEnd
  0
BLOCK
  5
16
330
15
100
AcDbEntity
 67
     1
  8
0
100
AcDbBlockBegin
  2
*PAPER_SPACE
 70
     0
 10
0.0
 20
0.0
 30
0.0
  3
*PAPER_SPACE
  1

  0
ENDBLK
  5
17
330
15
100
AcDbEntity
 67
     1
  8
0
100
AcDbBlockEnd
  0
BLOCK
  5
63A1
330
639D
100
AcDbEntity
  8
0
100
AcDbBlockBegin
  2
A$C255C26A2
 70
     0
 10
0.0
 20
0.0
 30
0.0
  3
A$C255C26A2
  1

  0
LWPOLYLINE
  5
639E
330
639D
100
AcDbEntity
  8
0
100
AcDbPolyline
 90
        3
 70
     1
 43
0.0
 10
7.014806023851633
 20
0.0000006939811783
 10
5.611844869720698
 20
2.430000693981241
 10
8.417767177982568
 20
2.430000693981241
  0
LWPOLYLINE
  5
639F
330
639D
100
AcDbEntity
  8
0
100
AcDbPolyline
 90
        3
 70
     1
 43
0.0
 10
4.20888371558999
 20
0.0000006939811783
 10
2.805922561459283
 20
2.430000693981241
 10
5.611844869720698
 20
2.430000693981241
  0
LWPOLYLINE
  5
63A0
330
639D
100
AcDbEntity
  8
0
100
AcDbPolyline
 90
        3
 70
     1
 43
0.0
 10
1.402961407328348
 20
0.0000006939811783
 10
0.0000002531974133
 20
2.430000693981241
 10
2.805922561459283
 20
2.430000693981241
  0
ENDBLK
  5
63A2
330
639D
100
AcDbEntity
  8
0
100
AcDbBlockEnd
  0
BLOCK
  5
7544
330
7543
100
AcDbEntity
  8
0
100
AcDbBlockBegin
  2
_Open30
 70
     0
 10
0.0
 20
0.0
 30
0.0
  3
_Open30
  1

  0
LINE
  5
7545
330
7543
100
AcDbEntity
  8
0
  6
ByBlock
 62
     0
370
    -2
100
AcDbLine
 10
-1.0
 20
0.26794919
 30
0.0
 11
0.0
 21
0.0
 31
0.0
  0
LINE
  5
7546
330
7543
100
AcDbEntity
  8
0
  6
ByBlock
 62
     0
370
    -2
100
AcDbLine
 10
0.0
 20
0.0
 30
0.0
 11
-1.0
 21
-0.26794919
 31
0.0
  0
LINE
  5
7547
330
7543
100
AcDbEntity
  8
0
  6
ByBlock
 62
     0
370
    -2
100
AcDbLine
 10
0.0
 20
0.0
 30
0.0
 11
-1.0
 21
0.0
 31
0.0
  0
ENDBLK
  5
7548
330
7543
100
AcDbEntity
  8
0
100
AcDbBlockEnd
  0
BLOCK
  5
754D
330
7549
100
AcDbEntity
  8
0
100
AcDbBlockBegin
  2
A
 70
     0
 10
0.0
 20
0.0
 30
0.0
  3
A
  1

  0
MTEXT
  5
754E
330
7549
100
AcDbEntity
  8
mark
 62
     3
100
AcDbMText
 10
10.65641897020822
 20
-5.596245361730467
 30
0.0
 40
2.5
 41
0.0
 71
     5
 72
     1
  1
A
 73
     1
 44
1.0
1001
ACAD
1000
ACAD_MTEXT_DEFINED_HEIGHT_BEGIN
1070
    46
1040
0.0
1000
ACAD_MTEXT_DEFINED_HEIGHT_END
  0
LWPOLYLINE
  5
754F
330
7549
100
AcDbEntity
  8
mark
100
AcDbPolyline
 90
        4
 70
     1
 43
0.0
 10
9.07926800414657
 20
-7.141145101782569
 10
12.07926800414657
 20
-7.141145101782569
 10
12.07926800414657
 20
-4.141145101782569
 10
9.07926800414657
 20
-4.141145101782569
  0
HATCH
  5
7550
330
7549
100
AcDbEntity
  8
mark
100
AcDbHatch
 10
0.0
 20
0.0
 30
0.0
210
0.0
220
0.0
230
1.0
  2
SOLID
 70
     1
 71
     0
 91
        1
 92
        7
 72
     0
 73
     1
 93
        3
 10
5.32926800414657
 20
-5.641145101782569
 10
4.07926800414657
 20
-4.391145101782541
 10
4.07926800414657
 20
-6.891145101782541
 97
        0
 75
     0
 76
     1
 47
0.0398277943677868
 98
        1
 10
4.589689734415287
 20
-5.732163331855076
450
        0
451
        0
460
0.0
461
0.0
452
        1
462
1.0
453
        2
463
0.0
 63
     5
421
      255
463
1.0
 63
     7
421
 16777215
470
LINEAR
1001
ACAD
1010
0.0
1020
0.0
1030
0.0
  0
LINE
  5
7551
330
7549
100
AcDbEntity
  8
mark
100
AcDbLine
 10
5.32926800414657
 20
-5.641145101782569
 30
0.0
 11
9.07926800414657
 21
-5.641145101782569
 31
0.0
  0
LINE
  5
7552
330
7549
100
AcDbEntity
  8
mark
100
AcDbLine
 10
5.32926800414657
 20
-5.641145101782569
 30
0.0
 11
4.07926800414657
 21
-4.391145101782569
 31
0.0
  0
LINE
  5
7553
330
7549
100
AcDbEntity
  8
mark
100
AcDbLine
 10
5.32926800414657
 20
-5.641145101782569
 30
0.0
 11
4.07926800414657
 21
-6.891145101782569
 31
0.0
  0
ENDBLK
  5
7554
330
7549
100
AcDbEntity
  8
0
100
AcDbBlockEnd
  0
BLOCK
  5
7B7C
330
7B70
100
AcDbEntity
  8
0
100
AcDbBlockBegin
  2
*D3
 70
     1
 10
0.0
 20
0.0
 30
0.0
  3
*D3
  1

  0
LINE
  5
7EA8
330
7B70
100
AcDbEntity
  8
mark
370
    -2
100
AcDbLine
 10
70.61818808345418
 20
182.4568690455209
 30
0.0
 11
70.61818808345418
 21
153.7377536743243
 31
0.0
  0
LINE
  5
7EA9
330
7B70
100
AcDbEntity
  8
mark
370
    -2
100
AcDbLine
 10
68.63821521761702
 20
182.2538516413372
 30
0.0
 11
68.63821521761702
 21
153.7377536743243
 31
0.0
  0
LINE
  5
7EAA
330
7B70
100
AcDbEntity
  8
mark
370
    -2
100
AcDbLine
 10
73.11818808345418
 20
154.5377536743243
 30
0.0
 11
75.61818808345418
 21
154.5377536743243
 31
0.0
  0
LINE
  5
7EAB
330
7B70
100
AcDbEntity
  8
mark
370
    -2
100
AcDbLine
 10
66.13821521761702
 20
154.5377536743243
 30
0.0
 11
60.37154855095035
 21
154.5377536743243
 31
0.0
  0
LINE
  5
7EAC
330
7B70
100
AcDbEntity
  8
mark
370
    -2
100
AcDbLine
 10
70.61818808345418
 20
154.5377536743243
 30
0.0
 11
68.63821521761702
 21
154.5377536743243
 31
0.0
  0
INSERT
  5
7EAD
330
7B70
100
AcDbEntity
  8
mark
370
    -2
100
AcDbBlockReference
  2
_Open30
 10
70.61818808345418
 20
154.5377536743243
 30
0.0
 41
2.5
 42
2.5
 43
2.5
 50
180.0
  0
INSERT
  5
7EAE
330
7B70
100
AcDbEntity
  8
mark
370
    -2
100
AcDbBlockReference
  2
_Open30
 10
68.63821521761702
 20
154.5377536743243
 30
0.0
 41
2.5
 42
2.5
 43
2.5
  0
MTEXT
  5
7EAF
330
7B70
100
AcDbEntity
  8
mark
 62
     3
100
AcDbMText
 10
62.00488188428368
 20
156.5877536743243
 30
0.0
 40
2.5
 41
0.0
 71
     5
 72
     1
  1
\A1;2
 73
     1
 44
1.0
  0
POINT
  5
7EB0
330
7B70
100
AcDbEntity
  8
DEFPOINTS
 62
     0
100
AcDbPoint
 10
70.61818808345418
 20
183.2568690455209
 30
0.0
  0
POINT
  5
7EB1
330
7B70
100
AcDbEntity
  8
DEFPOINTS
 62
     0
100
AcDbPoint
 10
68.63821521761702
 20
183.0538516413372
 30
0.0
  0
POINT
  5
7EB2
330
7B70
100
AcDbEntity
  8
DEFPOINTS
 62
     0
100
AcDbPoint
 10
68.63821521761702
 20
154.5377536743243
 30
0.0
  0
ENDBLK
  5
7B7D
330
7B70
100
AcDbEntity
  8
0
100
AcDbBlockEnd
  0
BLOCK
  5
7B8C
330
7B80
100
AcDbEntity
  8
0
100
AcDbBlockBegin
  2
*D4
 70
     1
 10
0.0
 20
0.0
 30
0.0
  3
*D4
  1

  0
LINE
  5
7E9C
330
7B80
100
AcDbEntity
  8
mark
370
    -2
100
AcDbLine
 10
67.81818808345413
 20
183.2568690455209
 30
0.0
 11
59.68117958087505
 21
183.2568690455209
 31
0.0
  0
LINE
  5
7E9D
330
7B80
100
AcDbEntity
  8
mark
370
    -2
100
AcDbLine
 10
67.81818808345424
 20
188.2568690455209
 30
0.0
 11
59.68117958087505
 21
188.256869045521
 31
0.0
  0
LINE
  5
7E9E
330
7B80
100
AcDbEntity
  8
mark
370
    -2
100
AcDbLine
 10
60.48117958087505
 20
180.756869045521
 30
0.0
 11
60.48117958087505
 21
178.256869045521
 31
0.0
  0
LINE
  5
7E9F
330
7B80
100
AcDbEntity
  8
mark
370
    -2
100
AcDbLine
 10
60.48117958087505
 20
190.756869045521
 30
0.0
 11
60.48117958087505
 21
193.256869045521
 31
0.0
  0
LINE
  5
7EA0
330
7B80
100
AcDbEntity
  8
mark
370
    -2
100
AcDbLine
 10
60.48117958087505
 20
183.2568690455209
 30
0.0
 11
60.48117958087505
 21
188.256869045521
 31
0.0
  0
INSERT
  5
7EA1
330
7B80
100
AcDbEntity
  8
mark
370
    -2
100
AcDbBlockReference
  2
_Open30
 10
60.48117958087505
 20
183.2568690455209
 30
0.0
 41
2.5
 42
2.5
 43
2.5
 50
90.0
  0
INSERT
  5
7EA2
330
7B80
100
AcDbEntity
  8
mark
370
    -2
100
AcDbBlockReference
  2
_Open30
 10
60.48117958087505
 20
188.256869045521
 30
0.0
 41
2.5
 42
2.5
 43
2.5
 50
270.0
  0
MTEXT
  5
7EA3
330
7B80
100
AcDbEntity
  8
mark
 62
     3
100
AcDbMText
 10
58.43117958087503
 20
185.756869045521
 30
0.0
 40
2.5
 41
0.0
 71
     5
 72
     1
  1
\A1;5
 11
0.0000000000000001
 21
1.0
 31
0.0
 73
     1
 44
1.0
  0
POINT
  5
7EA4
330
7B80
100
AcDbEntity
  8
DEFPOINTS
 62
     0
100
AcDbPoint
 10
68.61818808345413
 20
183.2568690455209
 30
0.0
  0
POINT
  5
7EA5
330
7B80
100
AcDbEntity
  8
DEFPOINTS
 62
     0
100
AcDbPoint
 10
68.61818808345424
 20
188.2568690455209
 30
0.0
  0
POINT
  5
7EA6
330
7B80
100
AcDbEntity
  8
DEFPOINTS
 62
     0
100
AcDbPoint
 10
60.48117958087505
 20
188.256869045521
 30
0.0
  0
ENDBLK
  5
7B8D
330
7B80
100
AcDbEntity
  8
0
100
AcDbBlockEnd
  0
BLOCK
  5
7BB1
330
7BA7
100
AcDbEntity
  8
0
100
AcDbBlockBegin
  2
*D5
 70
     1
 10
0.0
 20
0.0
 30
0.0
  3
*D5
  1

  0
LINE
  5
7E19
330
7BA7
100
AcDbEntity
  8
mark
370
    -2
100
AcDbLine
 10
77.0
 20
112.0888254805856
 30
0.0
 11
77.0
 21
119.1955346064249
 31
0.0
  0
LINE
  5
7E1A
330
7BA7
100
AcDbEntity
  8
mark
370
    -2
100
AcDbLine
 10
113.0
 20
112.0888254805856
 30
0.0
 11
113.0
 21
119.1955346064249
 31
0.0
  0
LINE
  5
7E1B
330
7BA7
100
AcDbEntity
  8
mark
370
    -2
100
AcDbLine
 10
79.5
 20
118.3955346064249
 30
0.0
 11
110.5
 21
118.3955346064249
 31
0.0
  0
INSERT
  5
7E1C
330
7BA7
100
AcDbEntity
  8
mark
370
    -2
100
AcDbBlockReference
  2
_Open30
 10
77.0
 20
118.3955346064249
 30
0.0
 41
2.5
 42
2.5
 43
2.5
 50
180.0
  0
INSERT
  5
7E1D
330
7BA7
100
AcDbEntity
  8
mark
370
    -2
100
AcDbBlockReference
  2
_Open30
 10
113.0
 20
118.3955346064249
 30
0.0
 41
2.5
 42
2.5
 43
2.5
  0
MTEXT
  5
7E1E
330
7BA7
100
AcDbEntity
  8
mark
 62
     3
100
AcDbMText
 10
95.0
 20
120.4455346064249
 30
0.0
 40
2.5
 41
0.0
 71
     5
 72
     1
  1
\A1;%%C36
 73
     1
 44
1.0
  0
POINT
  5
7E1F
330
7BA7
100
AcDbEntity
  8
DEFPOINTS
 62
     0
100
AcDbPoint
 10
77.0
 20
111.2888254805856
 30
0.0
  0
POINT
  5
7E20
330
7BA7
100
AcDbEntity
  8
DEFPOINTS
 62
     0
100
AcDbPoint
 10
113.0
 20
111.2888254805856
 30
0.0
  0
POINT
  5
7E21
330
7BA7
100
AcDbEntity
  8
DEFPOINTS
 62
     0
100
AcDbPoint
 10
113.0
 20
118.3955346064249
 30
0.0
  0
ENDBLK
  5
7BB2
330
7BA7
100
AcDbEntity
  8
0
100
AcDbBlockEnd
  0
BLOCK
  5
7BBE
330
7BB4
100
AcDbEntity
  8
0
100
AcDbBlockBegin
  2
*D6
 70
     1
 10
0.0
 20
0.0
 30
0.0
  3
*D6
  1

  0
LINE
  5
7DCD
330
7BB4
100
AcDbEntity
  8
mark
370
    -2
100
AcDbLine
 10
71.0
 20
112.0888254805856
 30
0.0
 11
71.0
 21
124.160281660611
 31
0.0
  0
LINE
  5
7DCE
330
7BB4
100
AcDbEntity
  8
mark
370
    -2
100
AcDbLine
 10
119.0
 20
112.0888254805856
 30
0.0
 11
119.0
 21
124.160281660611
 31
0.0
  0
LINE
  5
7DCF
330
7BB4
100
AcDbEntity
  8
mark
370
    -2
100
AcDbLine
 10
73.5
 20
123.360281660611
 30
0.0
 11
116.5
 21
123.360281660611
 31
0.0
  0
INSERT
  5
7DD0
330
7BB4
100
AcDbEntity
  8
mark
370
    -2
100
AcDbBlockReference
  2
_Open30
 10
71.0
 20
123.360281660611
 30
0.0
 41
2.5
 42
2.5
 43
2.5
 50
180.0
  0
INSERT
  5
7DD1
330
7BB4
100
AcDbEntity
  8
mark
370
    -2
100
AcDbBlockReference
  2
_Open30
 10
119.0
 20
123.360281660611
 30
0.0
 41
2.5
 42
2.5
 43
2.5
  0
MTEXT
  5
7DD2
330
7BB4
100
AcDbEntity
  8
mark
 62
     3
100
AcDbMText
 10
95.0
 20
125.410281660611
 30
0.0
 40
2.5
 41
0.0
 71
     5
 72
     1
  1
\A1;%%C48%%P0.5
 73
     1
 44
1.0
  0
POINT
  5
7DD3
330
7BB4
100
AcDbEntity
  8
DEFPOINTS
 62
     0
100
AcDbPoint
 10
71.0
 20
111.2888254805856
 30
0.0
  0
POINT
  5
7DD4
330
7BB4
100
AcDbEntity
  8
DEFPOINTS
 62
     0
100
AcDbPoint
 10
119.0
 20
111.2888254805856
 30
0.0
  0
POINT
  5
7DD5
330
7BB4
100
AcDbEntity
  8
DEFPOINTS
 62
     0
100
AcDbPoint
 10
119.0
 20
123.360281660611
 30
0.0
  0
ENDBLK
  5
7BBF
330
7BB4
100
AcDbEntity
  8
0
100
AcDbBlockEnd
  0
BLOCK
  5
7BCB
330
7BC1
100
AcDbEntity
  8
0
100
AcDbBlockBegin
  2
*D7
 70
     1
 10
0.0
 20
0.0
 30
0.0
  3
*D7
  1

  0
LINE
  5
7DD6
330
7BC1
100
AcDbEntity
  8
mark
370
    -2
100
AcDbLine
 10
68.5
 20
110.0888254805856
 30
0.0
 11
68.5
 21
130.5593299658463
 31
0.0
  0
LINE
  5
7DD7
330
7BC1
100
AcDbEntity
  8
mark
370
    -2
100
AcDbLine
 10
121.5
 20
110.0888254805856
 30
0.0
 11
121.5
 21
130.5593299658463
 31
0.0
  0
LINE
  5
7DD8
330
7BC1
100
AcDbEntity
  8
mark
370
    -2
100
AcDbLine
 10
71.0
 20
129.7593299658463
 30
0.0
 11
119.0
 21
129.7593299658463
 31
0.0
  0
INSERT
  5
7DD9
330
7BC1
100
AcDbEntity
  8
mark
370
    -2
100
AcDbBlockReference
  2
_Open30
 10
68.5
 20
129.7593299658463
 30
0.0
 41
2.5
 42
2.5
 43
2.5
 50
180.0
  0
INSERT
  5
7DDA
330
7BC1
100
AcDbEntity
  8
mark
370
    -2
100
AcDbBlockReference
  2
_Open30
 10
121.5
 20
129.7593299658463
 30
0.0
 41
2.5
 42
2.5
 43
2.5
  0
MTEXT
  5
7DDB
330
7BC1
100
AcDbEntity
  8
mark
 62
     3
100
AcDbMText
 10
95.0
 20
131.8093299658463
 30
0.0
 40
2.5
 41
0.0
 71
     5
 72
     1
  1
\A1;%%C53
 73
     1
 44
1.0
  0
POINT
  5
7DDC
330
7BC1
100
AcDbEntity
  8
DEFPOINTS
 62
     0
100
AcDbPoint
 10
68.5
 20
109.2888254805856
 30
0.0
  0
POINT
  5
7DDD
330
7BC1
100
AcDbEntity
  8
DEFPOINTS
 62
     0
100
AcDbPoint
 10
121.5
 20
109.2888254805856
 30
0.0
  0
POINT
  5
7DDE
330
7BC1
100
AcDbEntity
  8
DEFPOINTS
 62
     0
100
AcDbPoint
 10
121.5
 20
129.7593299658463
 30
0.0
  0
ENDBLK
  5
7BCC
330
7BC1
100
AcDbEntity
  8
0
100
AcDbBlockEnd
  0
BLOCK
  5
7BD9
330
7BCF
100
AcDbEntity
  8
0
100
AcDbBlockBegin
  2
*D8
 70
     1
 10
0.0
 20
0.0
 30
0.0
  3
*D8
  1

  0
LINE
  5
7DDF
330
7BCF
100
AcDbEntity
  8
mark
370
    -2
100
AcDbLine
 10
77.5
 20
99.17682548058561
 30
0.0
 11
77.5
 21
84.92572480409371
 31
0.0
  0
LINE
  5
7DE0
330
7BCF
100
AcDbEntity
  8
mark
370
    -2
100
AcDbLine
 10
112.5
 20
99.17682548058561
 30
0.0
 11
112.5
 21
84.92572480409371
 31
0.0
  0
LINE
  5
7DE1
330
7BCF
100
AcDbEntity
  8
mark
370
    -2
100
AcDbLine
 10
80.0
 20
85.72572480409371
 30
0.0
 11
110.0
 21
85.72572480409371
 31
0.0
  0
INSERT
  5
7DE2
330
7BCF
100
AcDbEntity
  8
mark
370
    -2
100
AcDbBlockReference
  2
_Open30
 10
77.5
 20
85.72572480409371
 30
0.0
 41
2.5
 42
2.5
 43
2.5
 50
180.0
  0
INSERT
  5
7DE3
330
7BCF
100
AcDbEntity
  8
mark
370
    -2
100
AcDbBlockReference
  2
_Open30
 10
112.5
 20
85.72572480409371
 30
0.0
 41
2.5
 42
2.5
 43
2.5
  0
MTEXT
  5
7DE4
330
7BCF
100
AcDbEntity
  8
mark
 62
     3
100
AcDbMText
 10
95.0
 20
87.77572480409371
 30
0.0
 40
2.5
 41
0.0
 71
     5
 72
     1
  1
\A1;M35X1.5P
 73
     1
 44
1.0
  0
POINT
  5
7DE5
330
7BCF
100
AcDbEntity
  8
DEFPOINTS
 62
     0
100
AcDbPoint
 10
77.5
 20
99.97682548058561
 30
0.0
  0
POINT
  5
7DE6
330
7BCF
100
AcDbEntity
  8
DEFPOINTS
 62
     0
100
AcDbPoint
 10
112.5
 20
99.97682548058561
 30
0.0
  0
POINT
  5
7DE7
330
7BCF
100
AcDbEntity
  8
DEFPOINTS
 62
     0
100
AcDbPoint
 10
112.5
 20
85.72572480409371
 30
0.0
  0
ENDBLK
  5
7BDA
330
7BCF
100
AcDbEntity
  8
0
100
AcDbBlockEnd
  0
BLOCK
  5
7BF7
330
7BEB
100
AcDbEntity
  8
0
100
AcDbBlockBegin
  2
*D9
 70
     1
 10
0.0
 20
0.0
 30
0.0
  3
*D9
  1

  0
LINE
  5
7DE8
330
7BEB
100
AcDbEntity
  8
mark
370
    -2
100
AcDbLine
 10
123.3
 20
105.2888254805856
 30
0.0
 11
133.0503191082212
 21
105.2888254805856
 31
0.0
  0
LINE
  5
7DE9
330
7BEB
100
AcDbEntity
  8
mark
370
    -2
100
AcDbLine
 10
119.8
 20
111.2888254805856
 30
0.0
 11
133.0503191082212
 21
111.2888254805856
 31
0.0
  0
LINE
  5
7DEA
330
7BEB
100
AcDbEntity
  8
mark
370
    -2
100
AcDbLine
 10
132.2503191082212
 20
102.7888254805856
 30
0.0
 11
132.2503191082212
 21
100.2888254805856
 31
0.0
  0
LINE
  5
7DEB
330
7BEB
100
AcDbEntity
  8
mark
370
    -2
100
AcDbLine
 10
132.2503191082212
 20
113.7888254805856
 30
0.0
 11
132.2503191082212
 21
116.2888254805856
 31
0.0
  0
LINE
  5
7DEC
330
7BEB
100
AcDbEntity
  8
mark
370
    -2
100
AcDbLine
 10
132.2503191082212
 20
105.2888254805856
 30
0.0
 11
132.2503191082212
 21
111.2888254805856
 31
0.0
  0
INSERT
  5
7DED
330
7BEB
100
AcDbEntity
  8
mark
370
    -2
100
AcDbBlockReference
  2
_Open30
 10
132.2503191082212
 20
105.2888254805856
 30
0.0
 41
2.5
 42
2.5
 43
2.5
 50
90.0
  0
INSERT
  5
7DEE
330
7BEB
100
AcDbEntity
  8
mark
370
    -2
100
AcDbBlockReference
  2
_Open30
 10
132.2503191082212
 20
111.2888254805856
 30
0.0
 41
2.5
 42
2.5
 43
2.5
 50
270.0
  0
MTEXT
  5
7DEF
330
7BEB
100
AcDbEntity
  8
mark
 62
     3
100
AcDbMText
 10
130.2003191082212
 20
108.2888254805856
 30
0.0
 40
2.5
 41
0.0
 71
     5
 72
     1
  1
\A1;6
 11
0.0000000000000001
 21
1.0
 31
0.0
 73
     1
 44
1.0
  0
POINT
  5
7DF0
330
7BEB
100
AcDbEntity
  8
DEFPOINTS
 62
     0
100
AcDbPoint
 10
122.5
 20
105.2888254805856
 30
0.0
  0
POINT
  5
7DF1
330
7BEB
100
AcDbEntity
  8
DEFPOINTS
 62
     0
100
AcDbPoint
 10
119.0
 20
111.2888254805856
 30
0.0
  0
POINT
  5
7DF2
330
7BEB
100
AcDbEntity
  8
DEFPOINTS
 62
     0
100
AcDbPoint
 10
132.2503191082212
 20
111.2888254805856
 30
0.0
  0
ENDBLK
  5
7BF8
330
7BEB
100
AcDbEntity
  8
0
100
AcDbBlockEnd
  0
BLOCK
  5
7C04
330
7BFA
100
AcDbEntity
  8
0
100
AcDbBlockBegin
  2
*D10
 70
     1
 10
0.0
 20
0.0
 30
0.0
  3
*D10
  1

  0
LINE
  5
7DF3
330
7BFA
100
AcDbEntity
  8
mark
370
    -2
100
AcDbLine
 10
120.8
 20
99.28882548058561
 30
0.0
 11
140.3937869499046
 21
99.28882548058561
 31
0.0
  0
LINE
  5
7DF4
330
7BFA
100
AcDbEntity
  8
mark
370
    -2
100
AcDbLine
 10
119.8
 20
111.2888254805856
 30
0.0
 11
140.3937869499046
 21
111.2888254805856
 31
0.0
  0
LINE
  5
7DF5
330
7BFA
100
AcDbEntity
  8
mark
370
    -2
100
AcDbLine
 10
139.5937869499046
 20
101.7888254805856
 30
0.0
 11
139.5937869499046
 21
108.7888254805856
 31
0.0
  0
INSERT
  5
7DF6
330
7BFA
100
AcDbEntity
  8
mark
370
    -2
100
AcDbBlockReference
  2
_Open30
 10
139.5937869499046
 20
99.28882548058561
 30
0.0
 41
2.5
 42
2.5
 43
2.5
 50
270.0
  0
INSERT
  5
7DF7
330
7BFA
100
AcDbEntity
  8
mark
370
    -2
100
AcDbBlockReference
  2
_Open30
 10
139.5937869499046
 20
111.2888254805856
 30
0.0
 41
2.5
 42
2.5
 43
2.5
 50
90.0
  0
MTEXT
  5
7DF8
330
7BFA
100
AcDbEntity
  8
mark
 62
     3
100
AcDbMText
 10
137.5437869499046
 20
105.2888254805856
 30
0.0
 40
2.5
 41
0.0
 71
     5
 72
     1
  1
\A1;12%%P0.2
 11
0.0000000000000001
 21
1.0
 31
0.0
 73
     1
 44
1.0
  0
POINT
  5
7DF9
330
7BFA
100
AcDbEntity
  8
DEFPOINTS
 62
     0
100
AcDbPoint
 10
120.0
 20
99.28882548058561
 30
0.0
  0
POINT
  5
7DFA
330
7BFA
100
AcDbEntity
  8
DEFPOINTS
 62
     0
100
AcDbPoint
 10
119.0
 20
111.2888254805856
 30
0.0
  0
POINT
  5
7DFB
330
7BFA
100
AcDbEntity
  8
DEFPOINTS
 62
     0
100
AcDbPoint
 10
139.5937869499046
 20
111.2888254805856
 30
0.0
  0
ENDBLK
  5
7C05
330
7BFA
100
AcDbEntity
  8
0
100
AcDbBlockEnd
  0
BLOCK
  5
7C5A
330
7C4E
100
AcDbEntity
  8
0
100
AcDbBlockBegin
  2
*D11
 70
     1
 10
0.0
 20
0.0
 30
0.0
  3
*D11
  1

  0
LINE
  5
7E90
330
7C4E
100
AcDbEntity
  8
mark
370
    -2
100
AcDbLine
 10
69.2
 20
110.7888254805856
 30
0.0
 11
59.68117958087504
 21
110.7888254805856
 31
0.0
  0
LINE
  5
7E91
330
7C4E
100
AcDbEntity
  8
mark
370
    -2
100
AcDbLine
 10
70.2
 20
111.2888254805856
 30
0.0
 11
59.68117958087504
 21
111.2888254805856
 31
0.0
  0
LINE
  5
7E92
330
7C4E
100
AcDbEntity
  8
mark
370
    -2
100
AcDbLine
 10
60.48117958087505
 20
108.2888254805856
 30
0.0
 11
60.48117958087505
 21
105.7888254805856
 31
0.0
  0
LINE
  5
7E93
330
7C4E
100
AcDbEntity
  8
mark
370
    -2
100
AcDbLine
 10
60.48117958087505
 20
113.7888254805856
 30
0.0
 11
60.48117958087505
 21
122.4721588139189
 31
0.0
  0
LINE
  5
7E94
330
7C4E
100
AcDbEntity
  8
mark
370
    -2
100
AcDbLine
 10
60.48117958087505
 20
110.7888254805856
 30
0.0
 11
60.48117958087505
 21
111.2888254805856
 31
0.0
  0
INSERT
  5
7E95
330
7C4E
100
AcDbEntity
  8
mark
370
    -2
100
AcDbBlockReference
  2
_Open30
 10
60.48117958087505
 20
110.7888254805856
 30
0.0
 41
2.5
 42
2.5
 43
2.5
 50
90.0
  0
INSERT
  5
7E96
330
7C4E
100
AcDbEntity
  8
mark
370
    -2
100
AcDbBlockReference
  2
_Open30
 10
60.48117958087505
 20
111.2888254805856
 30
0.0
 41
2.5
 42
2.5
 43
2.5
 50
270.0
  0
MTEXT
  5
7E97
330
7C4E
100
AcDbEntity
  8
mark
 62
     3
100
AcDbMText
 10
58.43117958087503
 20
119.3804921472523
 30
0.0
 40
2.5
 41
0.0
 71
     5
 72
     1
  1
\A1;0.5
 11
0.0000000000000001
 21
1.0
 31
0.0
 73
     1
 44
1.0
  0
POINT
  5
7E98
330
7C4E
100
AcDbEntity
  8
DEFPOINTS
 62
     0
100
AcDbPoint
 10
70.0
 20
110.7888254805856
 30
0.0
  0
POINT
  5
7E99
330
7C4E
100
AcDbEntity
  8
DEFPOINTS
 62
     0
100
AcDbPoint
 10
71.0
 20
111.2888254805856
 30
0.0
  0
POINT
  5
7E9A
330
7C4E
100
AcDbEntity
  8
DEFPOINTS
 62
     0
100
AcDbPoint
 10
60.48117958087505
 20
111.2888254805856
 30
0.0
  0
ENDBLK
  5
7C5B
330
7C4E
100
AcDbEntity
  8
0
100
AcDbBlockEnd
  0
BLOCK
  5
7C64
330
7C5D
100
AcDbEntity
  8
0
100
AcDbBlockBegin
  2
*D12
 70
     1
 10
0.0
 20
0.0
 30
0.0
  3
*D12
  1

  0
LINE
  5
7E07
330
7C5D
100
AcDbEntity
  8
mark
370
    -2
100
AcDbLine
 10
56.02285595854552
 20
86.811681439132
 30
0.0
 11
67.17157287525378
 21
97.96039835583954
 31
0.0
  0
MTEXT
  5
7E08
330
7C5D
100
AcDbEntity
  8
mark
 62
     3
100
AcDbMText
 10
59.26376203898406
 20
92.9517253224351
 30
0.0
 40
2.5
 41
0.0
 71
     5
 72
     1
  1
\A1;2-R1.5
 11
0.7071067811865712
 21
0.7071067811865239
 31
0.0
 73
     1
 44
1.0
  0
LINE
  5
7E09
330
7C5D
100
AcDbEntity
  8
mark
370
    -2
100
AcDbLine
 10
70.00000000000001
 20
100.7888254805855
 30
0.0
 11
68.93933982822023
 21
99.72816530880585
 31
0.0
  0
INSERT
  5
7E0A
330
7C5D
100
AcDbEntity
  8
mark
370
    -2
100
AcDbBlockReference
  2
_Open30
 10
68.93933982822023
 20
99.72816530880585
 30
0.0
 41
2.5
 42
2.5
 43
2.5
 50
44.99999999999808
  0
POINT
  5
7E0B
330
7C5D
100
AcDbEntity
  8
DEFPOINTS
 62
     0
100
AcDbPoint
 10
68.93933982822023
 20
99.72816530880585
 30
0.0
  0
POINT
  5
7E0C
330
7C5D
100
AcDbEntity
  8
DEFPOINTS
 62
     0
100
AcDbPoint
 10
70.00000000000001
 20
100.7888254805855
 30
0.0
  0
ENDBLK
  5
7C65
330
7C5D
100
AcDbEntity
  8
0
100
AcDbBlockEnd
  0
BLOCK
  5
7E83
330
7E79
100
AcDbEntity
  8
0
100
AcDbBlockBegin
  2
*D13
 70
     1
 10
0.0
 20
0.0
 30
0.0
  3
*D13
  1

  0
LINE
  5
7E85
330
7E79
100
AcDbEntity
  8
mark
370
    -2
100
AcDbLine
 10
87.50806545636988
 20
113.7888254805856
 30
0.0
 11
87.50806545636988
 21
116.2888254805856
 31
0.0
  0
LINE
  5
7E86
330
7E79
100
AcDbEntity
  8
mark
370
    -2
100
AcDbLine
 10
87.50806545636988
 20
107.7888254805856
 30
0.0
 11
87.50806545636988
 21
102.8554921472522
 31
0.0
  0
LINE
  5
7E87
330
7E79
100
AcDbEntity
  8
mark
370
    -2
100
AcDbLine
 10
87.50806545636988
 20
111.2888254805856
 30
0.0
 11
87.50806545636988
 21
110.2888254805856
 31
0.0
  0
INSERT
  5
7E88
330
7E79
100
AcDbEntity
  8
mark
370
    -2
100
AcDbBlockReference
  2
_Open30
 10
87.50806545636988
 20
111.2888254805856
 30
0.0
 41
2.5
 42
2.5
 43
2.5
 50
270.0
  0
INSERT
  5
7E89
330
7E79
100
AcDbEntity
  8
mark
370
    -2
100
AcDbBlockReference
  2
_Open30
 10
87.50806545636988
 20
110.2888254805856
 30
0.0
 41
2.5
 42
2.5
 43
2.5
 50
90.0
  0
MTEXT
  5
7E8A
330
7E79
100
AcDbEntity
  8
mark
 62
     3
100
AcDbMText
 10
85.45806545636985
 20
104.0721588139189
 30
0.0
 40
2.5
 41
0.0
 71
     5
 72
     1
  1
\A1;1
 11
0.0000000000000001
 21
1.0
 31
0.0
 73
     1
 44
1.0
  0
POINT
  5
7E8B
330
7E79
100
AcDbEntity
  8
DEFPOINTS
 62
     0
100
AcDbPoint
 10
87.50806545636988
 20
111.2888254805856
 30
0.0
  0
POINT
  5
7E8C
330
7E79
100
AcDbEntity
  8
DEFPOINTS
 62
     0
100
AcDbPoint
 10
87.50806545636988
 20
110.2888254805856
 30
0.0
  0
POINT
  5
7E8D
330
7E79
100
AcDbEntity
  8
DEFPOINTS
 62
     0
100
AcDbPoint
 10
87.50806545636988
 20
110.2888254805856
 30
0.0
  0
ENDBLK
  5
7E84
330
7E79
100
AcDbEntity
  8
0
100
AcDbBlockEnd
  0
ENDSEC
  0
SECTION
  2
ENTITIES
  0
MTEXT
  5
C0
330
18
100
AcDbEntity
  8
0
100
AcDbMText
 10
41.26970765600413
 20
233.6950877649332
 30
0.0
 40
2.5
 41
0.0
 71
     1
 72
     5
  1

  7
ISOCP3
 73
     1
 44
1.0
  0
ARC
  5
751F
330
18
100
AcDbEntity
  8
contour
100
AcDbCircle
 10
95.0
 20
185.7568690455209
 30
0.0
 40
26.5
100
AcDbArc
 50
185.4133122739697
 51
294.5866877260296
  0
CIRCLE
  5
7520
330
18
100
AcDbEntity
  8
contour
100
AcDbCircle
 10
95.0
 20
185.7568690455209
 30
0.0
 40
24.0
  0
ARC
  5
7521
330
18
100
AcDbEntity
  8
contour
 62
     4
100
AcDbCircle
 10
95.0
 20
185.7568690455209
 30
0.0
 40
17.5
100
AcDbArc
 50
173.4375721313667
 51
96.5624278686333
  0
CIRCLE
  5
7522
330
18
100
AcDbEntity
  8
contour
100
AcDbCircle
 10
95.0
 20
185.7568690455209
 30
0.0
 40
16.688
  0
CIRCLE
  5
7524
330
18
100
AcDbEntity
  8
contour
100
AcDbCircle
 10
95.0
 20
185.7568690455209
 30
0.0
 40
18.0
  0
LINE
  5
7525
330
18
100
AcDbEntity
  8
center
 48
0.2
100
AcDbLine
 10
67.5
 20
185.7568690455209
 30
0.0
 11
122.5
 21
185.7568690455209
 31
0.0
  0
LINE
  5
7526
330
18
100
AcDbEntity
  8
center
 48
0.2
100
AcDbLine
 10
95.0
 20
213.2568690455209
 30
0.0
 11
95.0
 21
158.2568690455209
 31
0.0
  0
LINE
  5
7527
330
18
100
AcDbEntity
  8
contour
100
AcDbLine
 10
68.61818808345413
 20
188.2568690455209
 30
0.0
 11
70.61818808345413
 21
188.2568690455209
 31
0.0
  0
LINE
  5
7528
330
18
100
AcDbEntity
  8
contour
100
AcDbLine
 10
68.61818808345413
 20
183.2568690455209
 30
0.0
 11
70.61818808345413
 21
183.2568690455209
 31
0.0
  0
LINE
  5
7529
330
18
100
AcDbEntity
  8
contour
100
AcDbLine
 10
70.61818808345413
 20
188.2568690455209
 30
0.0
 11
70.61818808345418
 21
183.2568690455209
 31
0.0
  0
LINE
  5
753B
330
18
100
AcDbEntity
  8
contour
100
AcDbLine
 10
110.3559694677341
 20
164.1595497279293
 30
0.0
 11
109.3559694677341
 21
165.8916005354981
 31
0.0
  0
LINE
  5
753C
330
18
100
AcDbEntity
  8
contour
100
AcDbLine
 10
106.0258424488119
 20
161.6595497279293
 30
0.0
 11
105.025842448812
 21
163.3916005354981
 31
0.0
  0
LINE
  5
753D
330
18
100
AcDbEntity
  8
contour
100
AcDbLine
 10
105.0258424488119
 20
163.3916005354981
 30
0.0
 11
109.3559694677341
 21
165.8916005354982
 31
0.0
  0
LINE
  5
753E
330
18
100
AcDbEntity
  8
contour
100
AcDbLine
 10
106.0258424488117
 20
209.8541883631128
 30
0.0
 11
105.0258424488117
 21
208.1221375555439
 31
0.0
  0
LINE
  5
753F
330
18
100
AcDbEntity
  8
contour
100
AcDbLine
 10
110.355969467734
 20
207.3541883631128
 30
0.0
 11
109.355969467734
 21
205.6221375555439
 31
0.0
  0
LINE
  5
7540
330
18
100
AcDbEntity
  8
contour
100
AcDbLine
 10
109.355969467734
 20
205.6221375555439
 30
0.0
 11
105.0258424488117
 21
208.1221375555438
 31
0.0
  0
ARC
  5
7541
330
18
100
AcDbEntity
  8
contour
100
AcDbCircle
 10
95.0
 20
185.7568690455209
 30
0.0
 40
26.5
100
AcDbArc
 50
65.41331227397191
 51
174.586687726027
  0
ARC
  5
7542
330
18
100
AcDbEntity
  8
contour
100
AcDbCircle
 10
95.0
 20
185.7568690455209
 30
0.0
 40
26.5
100
AcDbArc
 50
305.4133122739719
 51
54.5866877260294
  0
LWPOLYLINE
  5
76AA
330
18
100
AcDbEntity
  8
frame
100
AcDbPolyline
 90
        4
 70
     1
 43
0.0
 10
190.0
 20
280.0
 10
0.0
 20
280.0
 10
0.0
 20
0.0
 10
190.0
 20
0.0
  0
MTEXT
  5
76AB
330
18
100
AcDbEntity
  8
0
100
AcDbMText
 10
17.09950368689175
 20
19.07605901616614
 30
0.0
 40
4.5
 41
0.0
 71
     1
 72
     5
  1
{\Ftxt,bigfont|c128;林彦旭}
  7
JL
 73
     1
 44
1.0
1001
ACAD
1000
ACAD_MTEXT_DEFINED_HEIGHT_BEGIN
1070
    46
1040
0.0
1000
ACAD_MTEXT_DEFINED_HEIGHT_END
  0
MTEXT
  5
76AC
330
18
100
AcDbEntity
  8
0
100
AcDbMText
 10
77.95294729228846
 20
28.93578979870677
 30
0.0
 40
4.5
 41
0.0
 71
     1
 72
     5
  1
\Ftxt.shx,bigfont.shx|c128;1 : 1
  7
JL
 73
     1
 44
1.0
  0
MTEXT
  5
76AD
330
18
100
AcDbEntity
  8
0
 48
2.0
370
    25
100
AcDbMText
 10
140.2194500465656
 20
3.490021654633892
 30
0.0
 40
4.5
 41
0.0
 71
     5
 72
     1
  1
{\Ftxt,bigfont|c128;N L 4 0 0 3 2}
 73
     1
 44
1.0
1001
ACAD
1000
ACAD_MTEXT_DEFINED_HEIGHT_BEGIN
1070
    46
1040
0.0
1000
ACAD_MTEXT_DEFINED_HEIGHT_END
  0
MTEXT
  5
76AE
330
18
100
AcDbEntity
  8
0
 48
2.0
100
AcDbMText
 10
170.9328999644331
 20
21.76437127823692
 30
0.0
 40
4.318181818181822
 41
0.0
 71
     5
 72
     1
  1
\P{\Ftxt,bigfont|c128;MR35X1.5P}
 73
     1
 44
1.0
1001
ACAD
1000
ACAD_MTEXT_DEFINED_HEIGHT_BEGIN
1070
    46
1040
0.0
1000
ACAD_MTEXT_DEFINED_HEIGHT_END
  0
MTEXT
  5
76AF
330
18
100
AcDbEntity
  8
0
100
AcDbMText
 10
15.3760677136774
 20
28.37740359834709
 30
0.0
 40
4.5
 41
0.0
 71
     1
 72
     5
  1
{\Ftxt,bigfont|c128;06.06.13}
  7
JL
 73
     1
 44
1.0
1001
ACAD
1000
ACAD_MTEXT_DEFINED_HEIGHT_BEGIN
1070
    46
1040
0.0
1000
ACAD_MTEXT_DEFINED_HEIGHT_END
  0
LINE
  5
76B0
330
18
100
AcDbEntity
  8
0
 62
     7
 48
5.0
100
AcDbLine
 39
3.838383838383842
 10
47.92942413992529
 20
27.65712907016086
 30
0.0
 11
53.04580144287854
 21
28.93622339589922
 31
0.0
  0
MTEXT
  5
76B1
330
18
100
AcDbEntity
  8
0
100
AcDbMText
 10
14.91235548326415
 20
9.242195050049303
 30
0.0
 40
6.0
 41
0.0
 71
     1
 72
     5
  1
\Ftxt.shx,bigfont.shx|c128;日機株式会社
  7
LKK
 73
     1
 44
1.0
  0
LINE
  5
76B2
330
18
100
AcDbEntity
  8
frame
100
AcDbLine
 10
0.0
 20
12.0
 30
0.0
 11
190.0
 21
12.00000000000005
 31
0.0
  0
LINE
  5
76B3
330
18
100
AcDbEntity
  8
frame
100
AcDbLine
 10
0.0
 20
22.0
 30
0.0
 11
92.12121212121223
 21
22.0
 31
0.0
  0
LINE
  5
76B4
330
18
100
AcDbEntity
  8
frame
100
AcDbLine
 10
0.0
 20
32.0
 30
0.0
 11
190.0
 21
32.0
 31
0.0
  0
LINE
  5
76B5
330
18
100
AcDbEntity
  8
frame
100
AcDbLine
 10
12.19077332493799
 20
32.0
 30
0.0
 11
12.19077332493799
 21
12.0
 31
0.0
  0
LINE
  5
76B6
330
18
100
AcDbEntity
  8
frame
100
AcDbLine
 10
30.70707070707067
 20
32.0
 30
0.0
 11
30.70707070707073
 21
12.0
 31
0.0
  0
MTEXT
  5
76B7
330
18
100
AcDbEntity
  8
0
100
AcDbMText
 10
2.830274784221955
 20
29.08190089582831
 30
0.0
 40
4.5
 41
0.0
 71
     1
 72
     5
  1
\Ftxt.shx,bigfont.shx|c128;日 付
  7
JL
 73
     1
 44
1.0
  0
MTEXT
  5
76B8
330
18
100
AcDbEntity
  8
0
100
AcDbMText
 10
2.97063307743889
 20
19.52163842926637
 30
0.0
 40
4.5
 41
0.0
 71
     1
 72
     5
  1
\Ftxt.shx,bigfont.shx|c128;製 図
  7
JL
 73
     1
 44
1.0
  0
LINE
  5
76B9
330
18
100
AcDbEntity
  8
0
 62
     7
370
    25
100
AcDbLine
 10
53.04580144287854
 20
23.81984609294597
 30
0.0
 11
53.04580144287854
 21
28.93622339589922
 31
0.0
  0
MTEXT
  5
76BA
330
18
100
AcDbEntity
  8
0
100
AcDbMText
 10
64.00748852490841
 20
29.12242703792379
 30
0.0
 40
4.5
 41
0.0
 71
     1
 72
     5
  1
\Ftxt.shx,bigfont.shx|c128;尺 度
  7
JL
 73
     1
 44
1.0
  0
LINE
  5
76BB
330
18
100
AcDbEntity
  8
frame
100
AcDbLine
 10
61.41414141414145
 20
32.0
 30
0.0
 11
61.41414141414145
 21
12.0
 31
0.0
  0
LINE
  5
76BC
330
18
100
AcDbEntity
  8
0
 62
     7
370
    25
100
AcDbLine
 10
39.6153110226262
 20
23.18889018332635
 30
0.0
 11
39.6153110226262
 21
29.36457992429672
 31
0.0
  0
CIRCLE
  5
76BD
330
18
100
AcDbEntity
  8
0
 62
     7
100
AcDbCircle
 10
39.6153110226262
 20
26.37803474442251
 30
0.0
 40
2.558188651476678
  0
LINE
  5
76BE
330
18
100
AcDbEntity
  8
0
 62
     7
370
    25
100
AcDbLine
 10
47.19321986919976
 20
26.37803474442262
 30
0.0
 11
53.50512581624247
 21
26.37803474442262
 31
0.0
  0
LINE
  5
76BF
330
18
100
AcDbEntity
  8
0
 62
     7
100
AcDbLine
 10
47.92942413992529
 20
25.09894041868427
 30
0.0
 11
53.04580144287854
 21
23.81984609294597
 31
0.0
  0
LINE
  5
76C0
330
18
100
AcDbEntity
  8
frame
100
AcDbLine
 10
42.74224195995105
 20
22.0
 30
0.0
 11
42.74224195995105
 21
12.0
 31
0.0
  0
LINE
  5
76C1
330
18
100
AcDbEntity
  8
0
 62
     7
370
    25
100
AcDbLine
 10
36.41832228486606
 20
26.37803474442251
 30
0.0
 11
43.00325267619268
 21
26.37803474442262
 31
0.0
  0
CIRCLE
  5
76C2
330
18
100
AcDbEntity
  8
0
 62
     7
100
AcDbCircle
 10
39.6153110226262
 20
26.37803474442251
 30
0.0
 40
1.279094325738339
  0
MTEXT
  5
76C3
330
18
100
AcDbEntity
  8
0
100
AcDbMText
 10
33.70184032462407
 20
19.41013815785266
 30
0.0
 40
4.5
 41
0.0
 71
     1
 72
     5
  1
\Ftxt.shx,bigfont.shx|c128;検 図
  7
JL
 73
     1
 44
1.0
  0
LINE
  5
76C4
330
18
100
AcDbEntity
  8
0
 62
     7
370
    25
100
AcDbLine
 10
47.92942413992529
 20
25.09894041868427
 30
0.0
 11
47.92942413992529
 21
27.65712907016086
 31
0.0
  0
MTEXT
  5
76C5
330
18
100
AcDbEntity
  8
0
100
AcDbMText
 10
64.28820249919829
 20
19.32058534748881
 30
0.0
 40
4.5
 41
0.0
 71
     1
 72
     5
  1
\Ftxt.shx,bigfont.shx|c128;承 認
  7
JL
 73
     1
 44
1.0
  0
MTEXT
  5
76C6
330
18
100
AcDbEntity
  8
0
100
AcDbMText
 10
93.71128715606705
 20
10.7026821961914
 30
0.0
 40
4.5
 41
0.0
 71
     1
 72
     5
  1
\Ftxt.shx,bigfont.shx|c128;図  面  番  号
  7
JL
 73
     1
 44
1.0
  0
MTEXT
  5
76C7
330
18
100
AcDbEntity
  8
0
 48
2.0
100
AcDbMText
 10
116.9038190021384
 20
21.8757473149584
 30
0.0
 40
4.5
 41
0.0
 71
     5
 72
     1
  1
\P\Ftxt.shx,bigfont.shx|c128;    精密ロックナット
 73
     1
 44
1.0
  0
MTEXT
  5
76C8
330
18
100
AcDbEntity
  8
0
100
AcDbMText
 10
94.80836130312315
 20
29.03862457973275
 30
0.0
 40
4.5
 41
0.0
 71
     1
 72
     5
  1
\Ftxt.shx,bigfont.shx|c128;品  名
  7
JL
 73
     1
 44
1.0
  0
LINE
  5
76C9
330
18
100
AcDbEntity
  8
frame
100
AcDbLine
 10
92.12121212121223
 20
32.0
 30
0.0
 11
92.12121212121223
 21
0.1833227579584786
 31
0.0
  0
LINE
  5
76CA
330
18
100
AcDbEntity
  8
frame
100
AcDbLine
 10
73.4141414141414
 20
32.0
 30
0.0
 11
73.41414141414145
 21
12.0
 31
0.0
  0
LINE
  5
76CB
330
18
100
AcDbEntity
  8
frame
100
AcDbLine
 10
147.0327092740656
 20
32.0
 30
0.0
 11
147.0327092740656
 21
12.0
 31
0.0
  0
MTEXT
  5
76CC
330
18
100
AcDbEntity
  8
0
100
AcDbMText
 10
150.895959446773
 20
29.04517782830391
 30
0.0
 40
4.5
 41
0.0
 71
     1
 72
     5
  1
\Ftxt.shx,bigfont.shx|c128;型  番
  7
JL
 73
     1
 44
1.0
  0
MTEXT
  5
76CD
330
18
100
AcDbEntity
  8
0
100
AcDbMText
 10
165.8059614810325
 20
10.78298174971564
 30
0.0
 40
4.5
 41
0.0
 71
     1
 72
     5
  1
\Ftxt.shx,bigfont.shx|c128;変更
  7
JL
 73
     1
 44
1.0
  0
LINE
  5
76CE
330
18
100
AcDbEntity
  8
frame
100
AcDbLine
 10
164.0909090909092
 20
12.00000000000005
 30
0.0
 11
164.0909090909093
 21
0.0
 31
0.0
  0
LINE
  5
76CF
330
18
100
AcDbEntity
  8
frame
100
AcDbLine
 10
124.6157900786393
 20
43.13491348924492
 30
0.0
 11
184.6157900786393
 21
43.13491348924481
 31
0.0
  0
LINE
  5
76D0
330
18
100
AcDbEntity
  8
frame
100
AcDbLine
 10
124.6157900786393
 20
50.33491348924497
 30
0.0
 11
184.6157900786393
 21
50.33491348924497
 31
0.0
  0
LINE
  5
76D1
330
18
100
AcDbEntity
  8
frame
100
AcDbLine
 10
124.6157900786393
 20
57.5349134892449
 30
0.0
 11
184.6157900786393
 21
57.53491348924478
 31
0.0
  0
LINE
  5
76D2
330
18
100
AcDbEntity
  8
frame
100
AcDbLine
 10
124.6157900786393
 20
64.73491348924494
 30
0.0
 11
184.6157900786393
 21
64.73491348924483
 31
0.0
  0
LINE
  5
76D3
330
18
100
AcDbEntity
  8
frame
100
AcDbLine
 10
124.6157900786393
 20
35.93491348924488
 30
0.0
 11
184.6157900786393
 21
35.93491348924488
 31
0.0
  0
MTEXT
  5
76D4
330
18
100
AcDbEntity
  8
0
 62
     7
 48
2.0
100
AcDbMText
 10
154.5011900445106
 20
65.52808189982909
 30
0.0
 40
4.8
 41
0.0
 71
     5
 72
     1
  1
\P\Ftxt.shx,bigfont.shx|c128;諸　　　　元
 73
     1
 44
1.0
  0
LINE
  5
76D5
330
18
100
AcDbEntity
  8
frame
100
AcDbLine
 10
124.6157900786393
 20
64.73491348924483
 30
0.0
 11
124.6157900786393
 21
35.93491348924488
 31
0.0
  0
MTEXT
  5
76D6
330
18
100
AcDbEntity
  8
0
100
AcDbMText
 10
128.1382258923195
 20
56.00840432212407
 30
0.0
 40
4.4
 41
163.916286842249
 71
     1
 72
     5
  1
\Ftxt.shx,bigfont.shx|c128;熱　処　理
  7
JL
 73
     1
 44
1.0
  0
LINE
  5
76D7
330
18
100
AcDbEntity
  8
frame
100
AcDbLine
 10
148.6157900786393
 20
57.53491348924478
 30
0.0
 11
148.6157900786393
 21
35.93491348924488
 31
0.0
  0
MTEXT
  5
76D8
330
18
100
AcDbEntity
  8
0
100
AcDbMText
 10
127.8579515249403
 20
49.00617587486397
 30
0.0
 40
4.4
 41
163.6058628849672
 71
     1
 72
     5
  1
\Ftxt.shx,bigfont.shx|c128;表 面 処 理
  7
JL
 73
     1
 44
1.0
  0
MTEXT
  5
76D9
330
18
100
AcDbEntity
  8
0
100
AcDbMText
 10
128.1480173733753
 20
41.71770302125605
 30
0.0
 40
4.4
 41
166.1718
 71
     1
 72
     5
  1
\Ftxt.shx,bigfont.shx|c128;等     　級
  7
JL
 73
     1
 44
1.0
  0
LINE
  5
76DA
330
18
100
AcDbEntity
  8
frame
100
AcDbLine
 10
184.6157900786393
 20
64.73491348924483
 30
0.0
 11
184.6157900786393
 21
35.93491348924499
 31
0.0
  0
MTEXT
  5
76DB
330
18
100
AcDbEntity
  8
0
100
AcDbMText
 10
153.3627933880818
 20
55.83344641471445
 30
0.0
 40
4.4
 41
291.8960056857887
 71
     1
 72
     5
  1
\Ftxt.shx,bigfont.shx|c128;調質　HRC30%%d%%p２%%d
  7
JL
 73
     1
 44
1.0
  0
MTEXT
  5
76DC
330
18
100
AcDbEntity
  8
0
100
AcDbMText
 10
153.6234323895182
 20
41.7183135927072
 30
0.0
 40
4.4
 41
290.783364796891
 71
     1
 72
     5
  1
\Ftxt.shx,bigfont.shx|c128;ＩＳＯ - ４Ｈ
  7
JL
 73
     1
 44
1.0
  0
MTEXT
  5
76DD
330
18
100
AcDbEntity
  8
0
100
AcDbMText
 10
153.7978935876485
 20
48.65328293790913
 30
0.0
 40
4.4
 41
291.4548
 71
     1
 72
     5
  1
\Ftxt.shx,bigfont.shx|c128;黒  　    染
  7
JL
 73
     1
 44
1.0
  0
MTEXT
  5
76DE
330
18
100
AcDbEntity
  8
0
100
AcDbMText
 10
57.63639061334425
 20
260.9000583279473
 30
0.0
 40
5.0
 41
0.0
 71
     1
 72
     5
  1
\Ftxt.shx,bigfont.shx|c128;M6X1.0P-6L
  7
JL
 73
     1
 44
1.0
  0
MTEXT
  5
76DF
330
18
100
AcDbEntity
  8
0
100
AcDbMText
 10
57.63639061334425
 20
252.5660350862716
 30
0.0
 40
5.0
 41
0.0
 71
     1
 72
     5
  1
\Ftxt.shx,bigfont.shx|c128;%%c5.2X4L
  7
JL
 73
     1
 44
1.0
  0
LINE
  5
76E0
330
18
100
AcDbEntity
  8
frame
100
AcDbLine
 10
0.0
 20
254.0
 30
0.0
 11
190.0
 21
254.0
 31
0.0
  0
LINE
  5
76E1
330
18
100
AcDbEntity
  8
frame
100
AcDbLine
 10
0.0
 20
262.0
 30
0.0
 11
190.0
 21
262.0
 31
0.0
  0
LINE
  5
76E2
330
18
100
AcDbEntity
  8
frame
 62
     9
100
AcDbLine
 10
0.0
 20
270.0
 30
0.0
 11
190.0
 21
270.0
 31
0.0
  0
MTEXT
  5
76E3
330
18
100
AcDbEntity
  8
0
100
AcDbMText
 10
57.0156439060371
 20
277.4240560049041
 30
0.0
 40
5.0
 41
0.0
 71
     1
 72
     5
  1
\Ftxt.shx,bigfont.shx|c128;図    番 / 規　　格
  7
JL
 73
     1
 44
1.0
  0
LINE
  5
76E4
330
18
100
AcDbEntity
  8
frame
100
AcDbLine
 10
0.0
 20
254.0
 30
0.0
 11
190.0
 21
254.0
 31
0.0
  0
LINE
  5
76E5
330
18
100
AcDbEntity
  8
frame
100
AcDbLine
 10
0.0
 20
245.8933909875332
 30
0.0
 11
190.0
 21
245.8933909875332
 31
0.0
  0
MTEXT
  5
76E6
330
18
100
AcDbEntity
  8
0
100
AcDbMText
 10
21.12488048923433
 20
277.4637981386743
 30
0.0
 40
5.0
 41
0.0
 71
     1
 72
     5
  1
\Ftxt.shx,bigfont.shx|c128;品　          名
  7
JL
 73
     1
 44
1.0
  0
MTEXT
  5
76E7
330
18
100
AcDbEntity
  8
0
100
AcDbMText
 10
18.10281387110132
 20
260.7907237289111
 30
0.0
 40
5.0
 41
0.0
 71
     1
 72
     5
  1
\Ftxt.shx,bigfont.shx|c128;セットスクリュ-
  7
JL
 73
     1
 44
1.0
  0
MTEXT
  5
76E8
330
18
100
AcDbEntity
  8
0
100
AcDbMText
 10
17.91509480863158
 20
268.8361230282964
 30
0.0
 40
5.0
 41
0.0
 71
     1
 72
     5
  1
\Ftxt.shx,bigfont.shx|c128;ロックナット　  
  7
JL
 73
     1
 44
1.0
  0
MTEXT
  5
76E9
330
18
100
AcDbEntity
  8
0
100
AcDbMText
 10
18.10281387110132
 20
252.8510545014035
 30
0.0
 40
5.0
 41
0.0
 71
     1
 72
     5
  1
\Ftxt.shx,bigfont.shx|c128;ロックピン 
  7
JL
 73
     1
 44
1.0
  0
LINE
  5
76EA
330
18
100
AcDbEntity
  8
frame
 62
     9
100
AcDbLine
 10
14.39393939393937
 20
279.9999999999999
 30
0.0
 11
14.39393939393972
 21
245.8933909875332
 31
0.0
  0
LINE
  5
76EB
330
18
100
AcDbEntity
  8
frame
 62
     9
100
AcDbLine
 10
14.39393939393937
 20
279.9999999999999
 30
0.0
 11
14.39393939393937
 21
255.0505050505051
 31
0.0
  0
MTEXT
  5
76EC
330
18
100
AcDbEntity
  8
0
100
AcDbMText
 10
6.815009268013795
 20
268.7281674434121
 30
0.0
 40
5.0
 41
0.0
 71
     1
 72
     5
  1
\Ftxt.shx,bigfont.shx|c128;1
  7
JL
 73
     1
 44
1.0
  0
MTEXT
  5
76ED
330
18
100
AcDbEntity
  8
0
100
AcDbMText
 10
2.119828072980226
 20
277.473478263949
 30
0.0
 40
5.0
 41
0.0
 71
     1
 72
     5
  1
\Ftxt.shx,bigfont.shx|c128;照   号
  7
JL
 73
     1
 44
1.0
  0
LINE
  5
76EE
330
18
100
AcDbEntity
  8
frame
 62
     9
100
AcDbLine
 10
52.77777777777783
 20
279.9999999999999
 30
0.0
 11
52.77777777777783
 21
245.8933909875332
 31
0.0
  0
MTEXT
  5
76EF
330
18
100
AcDbEntity
  8
0
100
AcDbMText
 10
145.5736374372851
 20
277.6781663894193
 30
0.0
 40
5.0
 41
0.0
 71
     1
 72
     5
  1
\Ftxt.shx,bigfont.shx|c128;備           考
  7
JL
 73
     1
 44
1.0
  0
LINE
  5
76F0
330
18
100
AcDbEntity
  8
frame
 62
     9
100
AcDbLine
 10
91.16161616161617
 20
280.0
 30
0.0
 11
91.16161616161617
 21
245.8933909875332
 31
0.0
  0
MTEXT
  5
76F1
330
18
100
AcDbEntity
  8
0
100
AcDbMText
 10
92.87341089179376
 20
252.4309794461317
 30
0.0
 40
5.0
 41
0.0
 71
     1
 72
     5
  1
\Ftxt.shx,bigfont.shx|c128;C3604
  7
JL
 73
     1
 44
1.0
  0
MTEXT
  5
76F2
330
18
100
AcDbEntity
  8
0
100
AcDbMText
 10
92.87341089179376
 20
268.8361230282964
 30
0.0
 40
5.0
 41
0.0
 71
     1
 72
     5
  1
\Ftxt.shx,bigfont.shx|c128;SCM-440
  7
JL
 73
     1
 44
1.0
  0
MTEXT
  5
76F3
330
18
100
AcDbEntity
  8
0
100
AcDbMText
 10
92.87341089179376
 20
260.765002012584
 30
0.0
 40
5.0
 41
0.0
 71
     1
 72
     5
  1
\Ftxt.shx,bigfont.shx|c128;SCM435
  7
JL
 73
     1
 44
1.0
  0
MTEXT
  5
76F4
330
18
100
AcDbEntity
  8
0
100
AcDbMText
 10
95.76798863104199
 20
277.5645499482918
 30
0.0
 40
5.0
 41
0.0
 71
     1
 72
     5
  1
\Ftxt.shx,bigfont.shx|c128;材　質
  7
JL
 73
     1
 44
1.0
  0
LINE
  5
76F5
330
18
100
AcDbEntity
  8
frame
 62
     9
100
AcDbLine
 10
110.3535353535354
 20
280.0
 30
0.0
 11
110.3535353535354
 21
245.8933909875332
 31
0.0
  0
LINE
  5
76F6
330
18
100
AcDbEntity
  8
frame
100
AcDbLine
 10
124.7474747474747
 20
280.0
 30
0.0
 11
124.7474747474748
 21
245.8933909875332
 31
0.0
  0
MTEXT
  5
76F7
330
18
100
AcDbEntity
  8
0
100
AcDbMText
 10
116.5939070266884
 20
252.4642985589993
 30
0.0
 40
5.0
 41
0.0
 71
     1
 72
     5
  1
\Ftxt.shx,bigfont.shx|c128;3
  7
JL
 73
     1
 44
1.0
  0
MTEXT
  5
76F8
330
18
100
AcDbEntity
  8
0
100
AcDbMText
 10
117.1685446215491
 20
269.0412711679932
 30
0.0
 40
5.0
 41
0.0
 71
     1
 72
     5
  1
\Ftxt.shx,bigfont.shx|c128;1
  7
JL
 73
     1
 44
1.0
  0
MTEXT
  5
76F9
330
18
100
AcDbEntity
  8
0
100
AcDbMText
 10
116.5939070266884
 20
260.5092290150679
 30
0.0
 40
5.0
 41
0.0
 71
     1
 72
     5
  1
\Ftxt.shx,bigfont.shx|c128;3
  7
JL
 73
     1
 44
1.0
  0
MTEXT
  5
76FA
330
18
100
AcDbEntity
  8
0
100
AcDbMText
 10
112.4223895919262
 20
277.5645499482918
 30
0.0
 40
5.0
 41
0.0
 71
     1
 72
     5
  1
\Ftxt.shx,bigfont.shx|c128;数   量
  7
JL
 73
     1
 44
1.0
  0
MTEXT
  5
76FB
330
18
100
AcDbEntity
  8
0
100
AcDbMText
 10
6.404019699055993
 20
260.7281674434121
 30
0.0
 40
5.0
 41
0.0
 71
     1
 72
     5
  1
{\Ftxt,bigfont|c128;2}
  7
JL
 73
     1
 44
1.0
1001
ACAD
1000
ACAD_MTEXT_DEFINED_HEIGHT_BEGIN
1070
    46
1040
0.0
1000
ACAD_MTEXT_DEFINED_HEIGHT_END
  0
MTEXT
  5
76FC
330
18
100
AcDbEntity
  8
0
100
AcDbMText
 10
6.404019699055993
 20
252.6215584309452
 30
0.0
 40
5.0
 41
0.0
 71
     1
 72
     5
  1
{\Ftxt,bigfont|c128;3}
  7
JL
 73
     1
 44
1.0
1001
ACAD
1000
ACAD_MTEXT_DEFINED_HEIGHT_BEGIN
1070
    46
1040
0.0
1000
ACAD_MTEXT_DEFINED_HEIGHT_END
  0
LINE
  5
785C
330
18
100
AcDbEntity
  8
bowle
 48
0.2
100
AcDbLine
 10
111.4161306037689
 20
182.7568690455208
 30
0.0
 11
121.3296410913631
 21
182.7568690455208
 31
0.0
  0
LINE
  5
785D
330
18
100
AcDbEntity
  8
bowle
 48
0.2
100
AcDbLine
 10
111.416130603769
 20
188.7568690455208
 30
0.0
 11
121.3296410913631
 21
188.7568690455208
 31
0.0
  0
LINE
  5
785E
330
18
100
AcDbEntity
  8
bowle
 48
0.2
100
AcDbLine
 10
111.505688231637
 20
188.2168690455209
 30
0.0
 11
121.3855718149142
 21
188.2168690455209
 31
0.0
  0
LINE
  5
785F
330
18
100
AcDbEntity
  8
bowle
 48
0.2
100
AcDbLine
 10
111.5056882316369
 20
183.2968690455207
 30
0.0
 11
121.3855718149142
 21
183.2968690455207
 31
0.0
  0
LINE
  5
7860
330
18
100
AcDbEntity
  8
bowle
 48
0.2
100
AcDbLine
 10
89.39001090946902
 20
201.4736551802282
 30
0.0
 11
84.43325566567194
 21
210.0590071031682
 31
0.0
  0
LINE
  5
7861
330
18
100
AcDbEntity
  8
bowle
 48
0.2
100
AcDbLine
 10
84.1938584867624
 20
198.4736551802282
 30
0.0
 11
79.2371032429653
 21
207.0590071031682
 31
0.0
  0
LINE
  5
7862
330
18
100
AcDbEntity
  8
bowle
 48
0.2
100
AcDbLine
 10
84.61673339087184
 20
198.8212143610644
 30
0.0
 11
79.67679159923318
 21
207.3774445306154
 31
0.0
  0
LINE
  5
7863
330
18
100
AcDbEntity
  8
bowle
 48
0.2
100
AcDbLine
 10
88.87757837749154
 20
201.2812143610646
 30
0.0
 11
83.93763658585294
 21
209.8374445306156
 31
0.0
  0
LINE
  5
7864
330
18
100
AcDbEntity
  8
bowle
 48
0.2
100
AcDbLine
 10
84.19385848676204
 20
173.040082910814
 30
0.0
 11
79.23710324296497
 21
164.4547309878739
 31
0.0
  0
LINE
  5
7865
330
18
100
AcDbEntity
  8
bowle
 48
0.2
100
AcDbLine
 10
89.39001090946868
 20
170.0400829108139
 30
0.0
 11
84.43325566567159
 21
161.4547309878739
 31
0.0
  0
LINE
  5
7866
330
18
100
AcDbEntity
  8
bowle
 48
0.2
100
AcDbLine
 10
88.8775783774912
 20
170.2325237299775
 30
0.0
 11
83.9376365858526
 21
161.6762935604266
 31
0.0
  0
LINE
  5
7867
330
18
100
AcDbEntity
  8
bowle
 48
0.2
100
AcDbLine
 10
84.61673339087155
 20
172.6925237299777
 30
0.0
 11
79.67679159923284
 21
164.1362935604267
 31
0.0
  0
LINE
  5
786C
330
18
100
AcDbEntity
  8
center
 48
0.2
100
AcDbLine
 10
87.15600000000017
 20
199.3430755800913
 30
0.0
 11
81.25000000000023
 21
209.5725676495931
 31
0.0
  0
LINE
  5
786F
330
18
100
AcDbEntity
  8
center
 48
0.2
100
AcDbLine
 10
87.15600000000017
 20
172.1706625109506
 30
0.0
 11
81.25000000000023
 21
161.9411704414488
 31
0.0
  0
LINE
  5
7873
102
{ACAD_REACTORS
330
7E69
102
}
330
18
100
AcDbEntity
  8
contour
100
AcDbLine
 10
119.0
 20
111.2888254805856
 30
0.0
 11
71.0
 21
111.2888254805856
 31
0.0
  0
LINE
  5
7874
330
18
100
AcDbEntity
  8
contour
100
AcDbLine
 10
68.5
 20
109.2888254805856
 30
0.0
 11
68.5
 21
100.7888254805856
 31
0.0
  0
LINE
  5
7875
102
{ACAD_REACTORS
330
7E69
102
}
330
18
100
AcDbEntity
  8
contour
100
AcDbLine
 10
70.0
 20
99.28882548058561
 30
0.0
 11
120.0
 21
99.28882548058561
 31
0.0
  0
LINE
  5
7876
102
{ACAD_REACTORS
330
7E69
102
}
330
18
100
AcDbEntity
  8
contour
100
AcDbLine
 10
121.5
 20
100.7888254805856
 30
0.0
 11
121.5
 21
109.2888254805856
 31
0.0
  0
LINE
  5
7878
102
{ACAD_REACTORS
330
7E69
102
}
330
18
100
AcDbEntity
  8
contour
100
AcDbLine
 10
71.0
 20
111.2888254805856
 30
0.0
 11
71.0
 21
110.7888254805856
 31
0.0
  0
LINE
  5
7879
102
{ACAD_REACTORS
330
7E69
102
}
330
18
100
AcDbEntity
  8
contour
100
AcDbLine
 10
71.0
 20
110.7888254805856
 30
0.0
 11
70.0
 21
110.7888254805856
 31
0.0
  0
LINE
  5
787B
102
{ACAD_REACTORS
330
7E69
102
}
330
18
100
AcDbEntity
  8
contour
100
AcDbLine
 10
119.0
 20
111.2888254805856
 30
0.0
 11
119.0
 21
110.7888254805856
 31
0.0
  0
LINE
  5
787C
102
{ACAD_REACTORS
330
7E69
102
}
330
18
100
AcDbEntity
  8
contour
100
AcDbLine
 10
119.0
 20
110.7888254805856
 30
0.0
 11
120.0
 21
110.7888254805856
 31
0.0
  0
ARC
  5
7884
330
18
100
AcDbEntity
  8
contour
100
AcDbCircle
 10
70.0
 20
109.2888254805856
 30
0.0
 40
1.5
100
AcDbArc
 50
90.0
 51
180.0
  0
ARC
  5
7885
102
{ACAD_REACTORS
330
7E69
102
}
330
18
100
AcDbEntity
  8
contour
100
AcDbCircle
 10
120.0
 20
109.2888254805856
 30
0.0
 40
1.5
100
AcDbArc
 50
0.0
 51
90.0
  0
ARC
  5
7886
102
{ACAD_REACTORS
330
7E69
102
}
330
18
100
AcDbEntity
  8
contour
100
AcDbCircle
 10
120.0
 20
100.7888254805856
 30
0.0
 40
1.5
100
AcDbArc
 50
270.0
 51
0.0
  0
ARC
  5
7887
330
18
100
AcDbEntity
  8
contour
100
AcDbCircle
 10
70.0
 20
100.7888254805856
 30
0.0
 40
1.5
100
AcDbArc
 50
180.0
 51
270.0
  0
LINE
  5
7888
102
{ACAD_REACTORS
330
7E69
102
}
330
18
100
AcDbEntity
  8
contour
100
AcDbLine
 10
70.61818808345413
 20
110.7888254805856
 30
0.0
 11
70.61818808345413
 21
99.28882548058561
 31
0.0
  0
LINE
  5
788A
102
{ACAD_REACTORS
330
7E69
102
}
330
18
100
AcDbEntity
  8
contour
100
AcDbLine
 10
77.0
 20
111.2888254805856
 30
0.0
 11
77.0
 21
110.2888254805856
 31
0.0
  0
LINE
  5
788B
102
{ACAD_REACTORS
330
7E69
102
}
330
18
100
AcDbEntity
  8
contour
100
AcDbLine
 10
78.31200000000001
 20
108.9768254805856
 30
0.0
 11
78.31200000000001
 21
100.7888254805856
 31
0.0
  0
LINE
  5
788C
102
{ACAD_REACTORS
330
7E69
102
}
330
18
100
AcDbEntity
  8
contour
 62
     4
100
AcDbLine
 10
77.5
 20
109.7888254805856
 30
0.0
 11
77.5
 21
99.97682548058561
 31
0.0
  0
LINE
  5
788D
102
{ACAD_REACTORS
330
7E69
102
}
330
18
100
AcDbEntity
  8
contour
100
AcDbLine
 10
76.81200000000001
 20
99.28882548058561
 30
0.0
 11
78.31200000000001
 21
100.7888254805856
 31
0.0
  0
LINE
  5
788E
102
{ACAD_REACTORS
330
7E69
102
}
330
18
100
AcDbEntity
  8
contour
100
AcDbLine
 10
77.0
 20
110.2888254805856
 30
0.0
 11
78.31200000000001
 21
108.9768254805856
 31
0.0
  0
LINE
  5
788F
102
{ACAD_REACTORS
330
7E69
102
}
330
18
100
AcDbEntity
  8
contour
100
AcDbLine
 10
113.0
 20
111.2888254805856
 30
0.0
 11
113.0
 21
110.2888254805856
 31
0.0
  0
LINE
  5
7890
102
{ACAD_REACTORS
330
7E69
102
}
330
18
100
AcDbEntity
  8
contour
100
AcDbLine
 10
111.688
 20
108.9768254805856
 30
0.0
 11
111.688
 21
100.7888254805856
 31
0.0
  0
LINE
  5
7891
102
{ACAD_REACTORS
330
7E69
102
}
330
18
100
AcDbEntity
  8
contour
100
AcDbLine
 10
113.188
 20
99.28882548058561
 30
0.0
 11
111.688
 21
100.7888254805856
 31
0.0
  0
LINE
  5
7892
102
{ACAD_REACTORS
330
7E69
102
}
330
18
100
AcDbEntity
  8
contour
 62
     4
100
AcDbLine
 10
112.5
 20
109.7888254805856
 30
0.0
 11
112.5
 21
108.2888254805856
 31
0.0
  0
LINE
  5
7893
102
{ACAD_REACTORS
330
7E69
102
}
330
18
100
AcDbEntity
  8
contour
100
AcDbLine
 10
113.0
 20
110.2888254805856
 30
0.0
 11
111.688
 21
108.9768254805856
 31
0.0
  0
LINE
  5
7894
330
18
100
AcDbEntity
  8
contour
100
AcDbLine
 10
78.31200000000001
 20
108.9768254805856
 30
0.0
 11
111.688
 21
108.9768254805856
 31
0.0
  0
LINE
  5
7895
330
18
100
AcDbEntity
  8
contour
100
AcDbLine
 10
78.31200000000001
 20
100.7888254805856
 30
0.0
 11
111.688
 21
100.7888254805856
 31
0.0
  0
LINE
  5
7896
330
18
100
AcDbEntity
  8
contour
100
AcDbLine
 10
77.0
 20
110.2888254805856
 30
0.0
 11
113.0
 21
110.2888254805856
 31
0.0
  0
HATCH
  5
78A8
330
18
100
AcDbEntity
  8
section
100
AcDbHatch
 10
0.0
 20
0.0
 30
0.0
210
0.0
220
0.0
230
1.0
  2
AR-SAND
 70
     0
 71
     0
 91
        2
 92
        7
 72
     0
 73
     1
 93
        4
 10
111.688
 20
107.8888254805857
 10
111.688
 20
105.2888254805856
 10
115.5
 20
105.2888254805856
 10
115.5
 20
107.8888254805857
 97
        0
 92
        7
 72
     0
 73
     1
 93
        4
 10
115.5
 20
102.6888254805856
 10
115.5
 20
105.2888254805856
 10
111.688
 20
105.2888254805856
 10
111.688
 20
102.6888254805857
 97
        0
 75
     0
 76
     1
 52
0.0
 41
0.02
 77
     0
 78
     4
 53
37.5
 43
-239.5294318513931
 44
163.1344533186283
 45
-0.0320006259196809
 46
0.9788264746586847
 79
     6
 49
0.0
 49
-0.7721600000000001
 49
0.0
 49
-0.8636000000000001
 49
0.0
 49
-0.8255
 53
7.499999999999999
 43
-239.5294318513931
 44
163.1344533186283
 45
0.8990465662760053
 46
1.433650201136708
 79
     6
 49
0.0
 49
-0.4165600000000001
 49
0.0
 49
-0.69596
 49
0.0
 49
-0.2667000000000001
 53
327.5
 43
-240.1542718513931
 44
163.1344533186283
 45
1.581984740482915
 46
0.0028743693570914
 79
     6
 49
0.0
 49
-0.254
 49
0.0
 49
-0.9144
 49
0.0
 49
-1.193799999999999
 53
317.5
 43
-240.1542718513931
 44
163.1344533186283
 45
1.527112904944594
 46
0.4458586465144325
 79
     6
 49
0.0
 49
-0.127
 49
0.0
 49
-0.59944
 49
0.0
 49
-0.6858
 47
0.0233374670605618
 98
        2
 10
114.151602391071
 20
106.7911829745244
 10
113.9181572817071
 20
103.8273238824129
1001
ACAD
1010
0.0
1020
0.0
1030
0.0
  0
LWPOLYLINE
  5
78A9
330
18
100
AcDbEntity
  8
contour
100
AcDbPolyline
 90
        2
 70
     0
 43
0.0
 10
121.5
 20
102.8288254805855
 10
121.5
 20
107.7488254805858
  0
LWPOLYLINE
  5
78AA
102
{ACAD_REACTORS
330
7E69
102
}
330
18
100
AcDbEntity
  8
contour
100
AcDbPolyline
 90
        6
 70
     0
 43
0.0
 10
117.0
 20
108.2888254805856
 10
117.0
 20
108.2888254805856
 10
115.5
 20
106.7888254805857
 10
115.5
 20
103.7888254805857
 10
117.0
 20
102.2888254805856
 10
117.0
 20
102.2888254805857
  0
LINE
  5
78AB
102
{ACAD_REACTORS
330
7E69
102
}
330
18
100
AcDbEntity
  8
contour
 62
     4
100
AcDbLine
 10
111.6879999999999
 20
102.2888254805857
 30
0.0
 11
121.5000000000001
 21
102.2888254805856
 31
0.0
  0
LINE
  5
78AC
102
{ACAD_REACTORS
330
7E69
102
}
330
18
100
AcDbEntity
  8
contour
 62
     4
100
AcDbLine
 10
111.6879999999999
 20
108.2888254805856
 30
0.0
 11
121.5
 21
108.2888254805856
 31
0.0
  0
LINE
  5
78AD
102
{ACAD_REACTORS
330
7E69
102
}
330
18
100
AcDbEntity
  8
contour
100
AcDbLine
 10
115.5
 20
107.7488254805858
 30
0.0
 11
116.4600000000001
 21
107.7488254805858
 31
0.0
  0
LINE
  5
78AE
102
{ACAD_REACTORS
330
7E69
102
}
330
18
100
AcDbEntity
  8
contour
100
AcDbLine
 10
115.5
 20
102.8288254805855
 30
0.0
 11
116.4600000000001
 21
102.8288254805855
 31
0.0
  0
LINE
  5
78AF
330
18
100
AcDbEntity
  8
contour
100
AcDbLine
 10
117.0
 20
108.2888254805856
 30
0.0
 11
117.0
 21
102.2888254805856
 31
0.0
  0
LINE
  5
78B0
330
18
100
AcDbEntity
  8
contour
100
AcDbLine
 10
119.4999999999999
 20
106.7888254805857
 30
0.0
 11
121.4999999999999
 21
106.7888254805857
 31
0.0
  0
LINE
  5
78B1
330
18
100
AcDbEntity
  8
contour
100
AcDbLine
 10
119.4999999999999
 20
103.7888254805857
 30
0.0
 11
121.4999999999999
 21
103.7888254805857
 31
0.0
  0
LINE
  5
78B2
330
18
100
AcDbEntity
  8
contour
100
AcDbLine
 10
119.4999999999999
 20
106.7888254805857
 30
0.0
 11
119.4999999999999
 21
103.7888254805857
 31
0.0
  0
LINE
  5
78B3
330
18
100
AcDbEntity
  8
contour
100
AcDbLine
 10
119.4999999999999
 20
106.7888254805857
 30
0.0
 11
118.9993278334879
 21
105.2974561055659
 31
0.0
  0
LINE
  5
78B4
330
18
100
AcDbEntity
  8
contour
100
AcDbLine
 10
118.9993278334879
 20
105.2974561055659
 30
0.0
 11
119.4999999999999
 21
103.7888254805857
 31
0.0
  0
LINE
  5
78B5
330
18
100
AcDbEntity
  8
contour
 62
     4
100
AcDbLine
 10
116.4600000000001
 20
107.7488254805858
 30
0.0
 11
121.5
 21
107.7488254805858
 31
0.0
  0
LINE
  5
78B6
330
18
100
AcDbEntity
  8
contour
 62
     4
100
AcDbLine
 10
116.4600000000001
 20
102.8288254805855
 30
0.0
 11
121.5000000000001
 21
102.8288254805855
 31
0.0
  0
LINE
  5
78B7
102
{ACAD_REACTORS
330
7E69
102
}
330
18
100
AcDbEntity
  8
contour
100
AcDbLine
 10
120.564692563913
 20
108.2888254805856
 30
0.0
 11
121.5
 21
107.7488254805858
 31
0.0
  0
LINE
  5
78B8
102
{ACAD_REACTORS
330
7E69
102
}
330
18
100
AcDbEntity
  8
contour
100
AcDbLine
 10
120.564692563913
 20
102.2888254805856
 30
0.0
 11
121.5
 21
102.8288254805855
 31
0.0
  0
LINE
  5
78B9
330
18
100
AcDbEntity
  8
contour
100
AcDbLine
 10
120.564692563913
 20
108.2888254805856
 30
0.0
 11
120.564692563913
 21
102.2888254805856
 31
0.0
  0
LWPOLYLINE
  5
78BA
102
{ACAD_REACTORS
330
7E69
102
}
330
18
100
AcDbEntity
  8
contour
100
AcDbPolyline
 90
        4
 70
     1
 43
0.0
 10
111.688
 20
107.8888254805857
 10
111.688
 20
102.6888254805857
 10
115.5
 20
102.6888254805856
 10
115.5
 20
107.8888254805857
  0
LINE
  5
78BB
102
{ACAD_REACTORS
330
7E69
102
}
330
18
100
AcDbEntity
  8
contour
 62
     4
100
AcDbLine
 10
112.5
 20
102.2888254805858
 30
0.0
 11
112.5
 21
99.97682548058561
 31
0.0
  0
LINE
  5
78BC
330
18
100
AcDbEntity
  8
center
 48
0.2
100
AcDbLine
 10
110.688
 20
105.2974561055659
 30
0.0
 11
122.5
 21
105.2888254805856
 31
0.0
  0
LINE
  5
78BF
330
18
100
AcDbEntity
  8
center
 48
0.2
100
AcDbLine
 10
95.0
 20
112.2888254805856
 30
0.0
 11
95.0
 21
98.28882548058562
 31
0.0
  0
DIMENSION
  5
7B6F
330
18
100
AcDbEntity
  8
mark
100
AcDbDimension
  2
*D3
 10
68.63821521761702
 20
154.5377536743243
 30
0.0
 11
62.00488188428368
 21
156.5877536743243
 31
0.0
 70
    32
 71
     5
 42
1.979972865837169
  3
STANDARD
100
AcDbAlignedDimension
 13
70.61818808345418
 23
183.2568690455209
 33
0.0
 14
68.63821521761702
 24
183.0538516413372
 34
0.0
100
AcDbRotatedDimension
  0
MTEXT
  5
7B7E
330
18
100
AcDbEntity
  8
mark
 62
     3
100
AcDbMText
 10
63.53510085050413
 20
158.5737543277653
 30
0.0
 40
1.25
 41
0.0
 71
     1
 72
     1
  1
+0.15\P+0
 73
     1
 44
1.0
1001
ACAD
1000
ACAD_MTEXT_DEFINED_HEIGHT_BEGIN
1070
    46
1040
0.0
1000
ACAD_MTEXT_DEFINED_HEIGHT_END
  0
DIMENSION
  5
7B7F
330
18
100
AcDbEntity
  8
mark
100
AcDbDimension
  2
*D4
 10
60.48117958087505
 20
188.256869045521
 30
0.0
 11
58.43117958087503
 21
185.756869045521
 31
0.0
 70
    32
 71
     5
 42
5.0
  3
STANDARD
100
AcDbAlignedDimension
 13
68.61818808345413
 23
183.2568690455209
 33
0.0
 14
68.61818808345424
 24
188.2568690455209
 34
0.0
 50
90.0
100
AcDbRotatedDimension
  0
MTEXT
  5
7BA4
330
18
100
AcDbEntity
  8
mark
 62
     3
100
AcDbMText
 10
56.22981781800558
 20
187.2325627187151
 30
0.0
 40
1.25
 41
0.0
 71
     1
 72
     1
  1
+0.15\P+0
 11
0.0000000000000001
 21
1.0
 31
0.0
 73
     1
 44
1.0
1001
ACAD
1000
ACAD_MTEXT_DEFINED_HEIGHT_BEGIN
1070
    46
1040
0.0
1000
ACAD_MTEXT_DEFINED_HEIGHT_END
  0
MTEXT
  5
7BA5
330
18
100
AcDbEntity
  8
mark
 62
     3
100
AcDbMText
 10
57.06315115133884
 20
192.492959715801
 30
0.0
 40
2.5
 41
0.0
 71
     1
 72
     1
  1
(3{\Ftxt,bigfont|c128;等分\Ftxt,bigfont|c136;)}
 11
0.0000000000000001
 21
1.0
 31
0.0
 73
     1
 44
1.0
1001
ACAD
1000
ACAD_MTEXT_DEFINED_HEIGHT_BEGIN
1070
    46
1040
0.0
1000
ACAD_MTEXT_DEFINED_HEIGHT_END
  0
DIMENSION
  5
7BA6
330
18
100
AcDbEntity
  8
mark
100
AcDbDimension
  2
*D5
 10
113.0
 20
118.3955346064249
 30
0.0
 11
95.0
 21
120.4455346064249
 31
0.0
 70
    32
  1
%%C36
 71
     5
 42
36.0
  3
STANDARD
100
AcDbAlignedDimension
 13
77.0
 23
111.2888254805856
 33
0.0
 14
113.0
 24
111.2888254805856
 34
0.0
100
AcDbRotatedDimension
  0
DIMENSION
  5
7BB3
330
18
100
AcDbEntity
  8
mark
100
AcDbDimension
  2
*D6
 10
119.0
 20
123.360281660611
 30
0.0
 11
95.0
 21
125.410281660611
 31
0.0
 70
    32
  1
%%C48%%P0.5
 71
     5
 42
48.0
  3
STANDARD
100
AcDbAlignedDimension
 13
71.0
 23
111.2888254805856
 33
0.0
 14
119.0
 24
111.2888254805856
 34
0.0
100
AcDbRotatedDimension
  0
DIMENSION
  5
7BC0
330
18
100
AcDbEntity
  8
mark
100
AcDbDimension
  2
*D7
 10
121.5
 20
129.7593299658463
 30
0.0
 11
95.0
 21
131.8093299658463
 31
0.0
 70
    32
  1
%%C53
 71
     5
 42
53.0
  3
STANDARD
100
AcDbAlignedDimension
 13
68.5
 23
109.2888254805856
 33
0.0
 14
121.5
 24
109.2888254805856
 34
0.0
100
AcDbRotatedDimension
  0
MTEXT
  5
7BCD
330
18
100
AcDbEntity
  8
mark
 62
     3
100
AcDbMText
 10
99.18306243751636
 20
133.4325603629667
 30
0.0
 40
1.25
 41
0.0
 71
     1
 72
     1
  1
+0\P-0.2
 73
     1
 44
1.0
1001
ACAD
1000
ACAD_MTEXT_DEFINED_HEIGHT_BEGIN
1070
    46
1040
0.0
1000
ACAD_MTEXT_DEFINED_HEIGHT_END
  0
DIMENSION
  5
7BCE
330
18
100
AcDbEntity
  8
mark
100
AcDbDimension
  2
*D8
 10
112.5
 20
85.72572480409371
 30
0.0
 11
95.0
 21
87.77572480409371
 31
0.0
 70
    32
  1
M35X1.5P
 71
     5
 42
35.0
  3
STANDARD
100
AcDbAlignedDimension
 13
77.5
 23
99.97682548058561
 33
0.0
 14
112.5
 24
99.97682548058561
 34
0.0
100
AcDbRotatedDimension
  0
LEADER
  5
7BDD
330
18
100
AcDbEntity
  8
mark
100
AcDbLeader
  3
STANDARD
 76
     2
 10
112.438
 20
100.0388254805856
 30
0.0
 10
103.7693305161865
 20
91.3701559967709
 30
0.0
211
0.0000000000000001
221
-1.0
231
0.0
1001
ACAD
1000
DSTYLE
1002
{
1070
   147
1040
0.8
1070
    77
1070
     0
1002
}
  0
MTEXT
  5
7BDE
330
18
100
AcDbEntity
  8
mark
 62
     3
100
AcDbMText
 10
104.6591189250629
 20
95.19441279580366
 30
0.0
 40
2.5
 41
0.0
 71
     5
 72
     1
  1
C1.5
 11
0.7071067811862683
 21
0.7071067811868267
 31
0.0
 73
     1
 44
1.0
1001
ACAD
1000
ACAD_MTEXT_DEFINED_HEIGHT_BEGIN
1070
    46
1040
0.0
1000
ACAD_MTEXT_DEFINED_HEIGHT_END
  0
LINE
  5
7BE8
330
18
100
AcDbEntity
  8
mark
100
AcDbLine
 10
77.5
 20
84.9257248040937
 30
0.0
 11
77.5
 21
76.1757248040937
 31
0.0
  0
INSERT
  5
7BE9
330
18
100
AcDbEntity
  8
mark
100
AcDbBlockReference
  2
A
 10
73.42073199585342
 20
80.56686990587627
 30
0.0
  0
DIMENSION
  5
7BEA
330
18
100
AcDbEntity
  8
mark
100
AcDbDimension
  2
*D9
 10
132.2503191082212
 20
111.2888254805856
 30
0.0
 11
130.2003191082212
 21
108.2888254805856
 31
0.0
 70
    32
 71
     5
 42
5.999999999999943
  3
STANDARD
100
AcDbAlignedDimension
 13
122.5
 23
105.2888254805856
 33
0.0
 14
119.0
 24
111.2888254805856
 34
0.0
 50
90.0
100
AcDbRotatedDimension
  0
DIMENSION
  5
7BF9
330
18
100
AcDbEntity
  8
mark
100
AcDbDimension
  2
*D10
 10
139.5937869499046
 20
111.2888254805856
 30
0.0
 11
139.5937869499046
 21
105.2888254805856
 31
0.0
 70
   160
  1
12%%P0.2
 71
     5
 42
12.0
  3
STANDARD
100
AcDbAlignedDimension
 13
120.0
 23
99.28882548058561
 33
0.0
 14
119.0
 24
111.2888254805856
 34
0.0
 50
90.0
100
AcDbRotatedDimension
  0
TOLERANCE
  5
7C23
330
18
100
AcDbEntity
  8
mark
100
AcDbFcf
  3
STANDARD
 10
144.5937869499046
 20
121.2888254805856
 30
0.0
  1
{\Fgdt;h}%%v0.005%%v%%vA%%v%%v
  0
LWPOLYLINE
  5
7C24
330
18
100
AcDbEntity
  8
mark
100
AcDbPolyline
 90
        3
 70
     0
 43
0.0
 10
139.5937869499046
 20
111.2888254805856
 10
139.5937869499046
 20
121.2888254805856
 10
144.5937869499046
 20
121.2888254805856
  0
DIMENSION
  5
7C4D
330
18
100
AcDbEntity
  8
mark
100
AcDbDimension
  2
*D11
 10
60.48117958087505
 20
111.2888254805856
 30
0.0
 11
58.43117958087503
 21
119.3804921472523
 31
0.0
 70
    32
 71
     5
 42
0.5
  3
STANDARD
100
AcDbAlignedDimension
 13
70.0
 23
110.7888254805856
 33
0.0
 14
71.0
 24
111.2888254805856
 34
0.0
 50
90.0
100
AcDbRotatedDimension
  0
DIMENSION
  5
7C5C
330
18
100
AcDbEntity
  8
mark
100
AcDbDimension
  2
*D12
 10
70.00000000000001
 20
100.7888254805855
 30
0.0
 11
59.26376203898406
 21
92.9517253224351
 31
0.0
 70
    36
  1
2-R1.5
 71
     5
 42
1.4999999999999
  3
STANDARD
100
AcDbRadialDimension
 15
68.93933982822023
 25
99.72816530880585
 35
0.0
 40
0.0
1001
ACAD
1000
DSTYLE
1002
{
1070
   288
1070
     1
1002
}
  0
MTEXT
  5
7C7F
330
18
100
AcDbEntity
  8
mark
 62
     3
100
AcDbMText
 10
129.2591764100093
 20
125.1394250265751
 30
0.0
 40
3.5
 41
0.0
 71
     5
 72
     1
  1
2
 73
     1
 44
1.0
1001
ACAD
1000
ACAD_MTEXT_DEFINED_HEIGHT_BEGIN
1070
    46
1040
0.0
1000
ACAD_MTEXT_DEFINED_HEIGHT_END
  0
LEADER
  5
7C80
330
18
100
AcDbEntity
  8
mark
100
AcDbLeader
  3
STANDARD
 76
     2
 10
121.5
 20
105.2888254805858
 30
0.0
 10
127.2646019370668
 20
123.3395501278959
 30
0.0
1001
ACAD
1000
DSTYLE
1002
{
1070
   147
1040
0.8
1070
    77
1070
     0
1002
}
  0
MTEXT
  5
7C8B
330
18
100
AcDbEntity
  8
mark
 62
     3
100
AcDbMText
 10
129.0341764100093
 20
89.08165220418323
 30
0.0
 40
3.5
 41
0.0
 71
     5
 72
     1
  1
3
 73
     1
 44
1.0
1001
ACAD
1000
ACAD_MTEXT_DEFINED_HEIGHT_BEGIN
1070
    46
1040
0.0
1000
ACAD_MTEXT_DEFINED_HEIGHT_END
  0
LEADER
  5
7C8C
330
18
100
AcDbEntity
  8
mark
100
AcDbLeader
  3
STANDARD
 76
     2
 10
113.594
 20
102.6888254805857
 30
0.0
 10
126.9632046898584
 20
89.3196207907273
 30
0.0
211
0.7071067811865476
221
0.7071067811865475
231
0.0
1001
ACAD
1000
DSTYLE
1002
{
1070
   147
1040
0.8
1070
    77
1070
     0
1002
}
  0
LEADER
  5
7C8D
330
18
100
AcDbEntity
  8
mark
100
AcDbLeader
  3
STANDARD
 76
     2
 10
113.7383297014435
 20
204.4951987469644
 30
0.0
 10
127.2646019370668
 20
218.0214709825877
 30
0.0
211
0.8660254037844383
221
0.5000000000000004
231
0.0
1001
ACAD
1000
DSTYLE
1002
{
1070
   147
1040
0.8
1070
    77
1070
     0
1002
}
  0
MTEXT
  5
7C8E
330
18
100
AcDbEntity
  8
mark
 62
     3
100
AcDbMText
 10
128.8818400850664
 20
219.3132866530121
 30
0.0
 40
3.5
 41
0.0
 71
     5
 72
     1
  1
1
 73
     1
 44
1.0
1001
ACAD
1000
ACAD_MTEXT_DEFINED_HEIGHT_BEGIN
1070
    46
1040
0.0
1000
ACAD_MTEXT_DEFINED_HEIGHT_END
  0
LWPOLYLINE
  5
7E17
330
18
100
AcDbEntity
  8
dim
100
AcDbPolyline
 90
        7
 70
     1
 43
0.0
 10
99.06773641940709
 20
113.7971368025964
 10
107.7279904572515
 20
113.7971368025964
 10
106.2846147842773
 20
111.2971368025963
 10
104.8412391113033
 20
113.7971368025964
 10
103.3978634383291
 20
111.2971368025963
 10
101.9544877653552
 20
113.7971368025964
 10
100.511112092381
 20
111.2971368025963
  0
MTEXT
  5
7E18
330
18
100
AcDbEntity
  8
mark
 62
     3
100
AcDbMText
 10
103.4185403563331
 20
115.8528131913492
 30
0.0
 40
2.5
 41
0.0
 71
     5
 72
     1
  1
G
 73
     1
 44
1.0
1001
ACAD
1000
ACAD_MTEXT_DEFINED_HEIGHT_BEGIN
1070
    46
1040
0.0
1000
ACAD_MTEXT_DEFINED_HEIGHT_END
  0
HATCH
  5
7E69
330
18
100
AcDbEntity
  8
section
100
AcDbHatch
 10
0.0
 20
0.0
 30
0.0
210
0.0
220
0.0
230
1.0
  2
ANSI31
 70
     0
 71
     1
 91
       10
 92
        7
 72
     0
 73
     1
 93
        9
 10
70.61818808345413
 20
99.28882548058561
 10
76.81200000000001
 20
99.28882548058561
 10
77.5
 20
99.97682548058561
 10
77.50000000000001
 20
109.7888254805856
 10
77.0
 20
110.2888254805856
 10
77.0
 20
111.2888254805856
 10
71.0
 20
111.2888254805856
 10
71.0
 20
110.7888254805856
 10
70.61818808345413
 20
110.7888254805856
 97
        9
330
788E
330
788A
330
7873
330
7878
330
7879
330
7888
330
7875
330
788D
330
788C
 92
        7
 72
     0
 73
     1
 93
        4
 10
78.31200000000001
 20
108.9768254805856
 10
77.50000000000001
 20
109.7888254805856
 10
77.5
 20
99.97682548058563
 10
78.31200000000001
 20
100.7888254805856
 97
        4
330
788E
330
788C
330
788D
330
788B
 92
        7
 72
     0
 73
     1
 93
        4
 10
111.688
 20
108.9768254805856
 10
111.688
 20
108.2888254805856
 10
112.5
 20
108.2888254805856
 10
112.5
 20
109.7888254805856
 97
        4
330
7893
330
7890
330
78AC
330
7892
 92
        7
 72
     1
 73
     1
 93
        9
 10
121.5
 20
108.2888254805856
 42
0.0
 10
121.5
 20
109.2888254805856
 42
0.4142135623730951
 10
120.0
 20
110.7888254805856
 42
0.0
 10
119.0
 20
110.7888254805856
 42
0.0
 10
119.0
 20
111.2888254805856
 42
0.0
 10
113.0
 20
111.2888254805856
 42
0.0
 10
113.0
 20
110.2888254805856
 42
0.0
 10
112.5
 20
109.7888254805856
 42
0.0
 10
112.5
 20
108.2888254805857
 42
0.0
 97
        9
330
787C
330
787B
330
7873
330
788F
330
7893
330
7892
330
78AC
330
7876
330
7885
 92
        7
 72
     1
 73
     1
 93
        6
 10
112.5
 20
102.2888254805857
 42
0.0
 10
112.5
 20
99.97682548058561
 42
0.0
 10
113.1879999999999
 20
99.28882548058561
 42
0.0
 10
120.0
 20
99.28882548058561
 42
0.4142135623730951
 10
121.5
 20
100.7888254805856
 42
0.0
 10
121.5
 20
102.2888254805856
 42
0.0
 97
        6
330
78AB
330
78BB
330
7891
330
7875
330
7886
330
7876
 92
        7
 72
     0
 73
     1
 93
        4
 10
112.5
 20
102.2888254805857
 10
111.688
 20
102.2888254805857
 10
111.688
 20
100.7888254805856
 10
112.5
 20
99.97682548058561
 97
        4
330
78AB
330
7890
330
7891
330
78BB
 92
        7
 72
     0
 73
     1
 93
        6
 10
116.9999999999999
 20
102.2888254805857
 10
116.4600000000001
 20
102.8288254805855
 10
115.5
 20
102.8288254805855
 10
115.5
 20
102.6888254805856
 10
111.688
 20
102.6888254805857
 10
111.688
 20
102.2888254805857
 97
        5
330
78AE
330
78BA
330
7890
330
78AB
330
78AA
 92
        7
 72
     0
 73
     1
 93
        3
 10
120.564692563913
 20
102.2888254805856
 10
121.5
 20
102.2888254805856
 10
121.5
 20
102.8288254805855
 97
        3
330
78B8
330
78AB
330
7876
 92
        7
 72
     0
 73
     1
 93
        3
 10
120.5646925639131
 20
108.2888254805856
 10
121.5
 20
107.7488254805858
 10
121.5
 20
108.2888254805856
 97
        3
330
78AC
330
78B7
330
7876
 92
        7
 72
     0
 73
     1
 93
        6
 10
115.5
 20
107.8888254805856
 10
115.5
 20
107.7488254805858
 10
116.4600000000001
 20
107.7488254805858
 10
117.0
 20
108.2888254805857
 10
111.688
 20
108.2888254805856
 10
111.688
 20
107.8888254805857
 97
        5
330
78AC
330
7890
330
78BA
330
78AD
330
78AA
 75
     0
 76
     1
 52
0.0
 41
0.5
 77
     0
 78
     1
 53
45.0
 43
0.0
 44
0.0
 45
-1.122532015133643
 46
1.122532015133644
 79
     0
 47
0.0304910830641817
 98
       10
 10
72.5730499712813
 20
105.1759282298858
 10
78.01573224071194
 20
104.5441099654117
 10
111.9337581918255
 20
108.880663204103
 10
114.6344808112556
 20
109.2725851503219
 10
119.5261259016654
 20
100.956864371067
 10
112.2080374228774
 20
101.5229742934039
 10
112.469398643055
 20
102.3939115072035
 10
121.2890180557463
 20
102.4992669981286
 10
121.2280176458214
 20
108.2011000867117
 10
115.6464630135904
 20
108.048645105754
1001
ACAD
1010
0.0
1020
0.0
1030
0.0
  0
DIMENSION
  5
7E78
330
18
100
AcDbEntity
  8
mark
100
AcDbDimension
  2
*D13
 10
87.50806545636988
 20
110.2888254805856
 30
0.0
 11
85.45806545636985
 21
104.0721588139189
 31
0.0
 70
    32
 71
     5
  3
STANDARD
100
AcDbAlignedDimension
 13
87.50806545636988
 23
111.2888254805856
 33
0.0
 14
87.50806545636988
 24
110.2888254805856
 34
0.0
 50
90.0
100
AcDbRotatedDimension
  0
MTEXT
  5
7EE2
330
18
100
AcDbEntity
  8
0
100
AcDbMText
 10
47.65097232190481
 20
19.07605901616614
 30
0.0
 40
4.5
 41
0.0
 71
     1
 72
     5
  1
{\Ftxt,bigfont|c128;小\~柳}
  7
JL
 73
     1
 44
1.0
1001
ACAD
1000
ACAD_MTEXT_DEFINED_HEIGHT_BEGIN
1070
    46
1040
0.0
1000
ACAD_MTEXT_DEFINED_HEIGHT_END
  0
ENDSEC
  0
SECTION
  2
OBJECTS
  0
DICTIONARY
  5
C
330
0
100
AcDbDictionary
281
     1
  3
ACAD_COLOR
350
74DE
  3
ACAD_GROUP
350
D
  3
ACAD_LAYOUT
350
5CF3
  3
ACAD_MATERIAL
350
74DD
  3
ACAD_MLINESTYLE
350
1B
  3
ACAD_PLOTSETTINGS
350
5CF4
  3
ACAD_PLOTSTYLENAME
350
5CF1
  3
ACAD_TABLESTYLE
350
74DF
  3
ACDBVARIABLEDICTIONARY
350
45D
  0
DICTIONARY
  5
751C
330
2
100
AcDbDictionary
280
     1
281
     1
  3
ACAD_LAYERFILTERS
360
751E
  3
ACLYDICTIONARY
360
751D
  0
DICTIONARY
  5
45F
330
18
100
AcDbDictionary
280
     1
281
     1
  3
ACAD_LAYOUTSELFREF
360
5D8B
  3
ACAD_SORTENTS
360
460
  0
DICTIONARY
  5
5D89
330
15
100
AcDbDictionary
280
     1
281
     1
  3
ACAD_LAYOUTSELFREF
360
5D8A
  0
DICTIONARY
  5
754A
330
7549
100
AcDbDictionary
280
     1
281
     1
  3
AcDbBlockTableRecordData
360
754B
  0
DICTIONARY
  5
74DE
102
{ACAD_REACTORS
330
C
102
}
330
C
100
AcDbDictionary
281
     1
  0
DICTIONARY
  5
D
102
{ACAD_REACTORS
330
C
102
}
330
C
100
AcDbDictionary
281
     1
  0
DICTIONARY
  5
5CF3
102
{ACAD_REACTORS
330
C
102
}
330
C
100
AcDbDictionary
281
     1
  3
Model
350
5CF5
  3
配置1
350
5CF6
  0
DICTIONARY
  5
74DD
102
{ACAD_REACTORS
330
C
102
}
330
C
100
AcDbDictionary
281
     1
  0
DICTIONARY
  5
1B
102
{ACAD_REACTORS
330
C
102
}
330
C
100
AcDbDictionary
281
     1
  3
STANDARD
350
1C
  0
DICTIONARY
  5
5CF4
102
{ACAD_REACTORS
330
C
102
}
330
C
100
AcDbDictionary
281
     1
  0
ACDBDICTIONARYWDFLT
  5
5CF1
102
{ACAD_REACTORS
330
C
102
}
330
C
100
AcDbDictionary
281
     1
  3
Normal
350
5CF2
100
AcDbDictionaryWithDefault
340
5CF2
  0
DICTIONARY
  5
74DF
102
{ACAD_REACTORS
330
C
102
}
330
C
100
AcDbDictionary
281
     1
  3
Standard
350
74E0
  0
DICTIONARY
  5
45D
102
{ACAD_REACTORS
330
C
102
}
330
C
100
AcDbDictionary
281
     1
  3
CTABLESTYLE
350
74EB
  3
SORTENTS
350
45E
  0
DICTIONARY
  5
751E
102
{ACAD_REACTORS
330
751C
102
}
330
751C
100
AcDbDictionary
281
     1
  0
DICTIONARY
  5
751D
102
{ACAD_REACTORS
330
751C
102
}
330
751C
100
AcDbDictionary
281
     1
1001
ACAD
1000
<All
  0
XRECORD
  5
5D8B
102
{ACAD_REACTORS
330
45F
102
}
330
45F
100
AcDbXrecord
280
     1
340
18
  0
SORTENTSTABLE
  5
460
102
{ACAD_REACTORS
330
45F
102
}
330
45F
100
AcDbSortentsTable
330
18
331
76AC
  5
76B1
331
76EB
  5
76F0
331
7C8E
  5
7E17
331
76B4
  5
76B9
331
C0
  5
CB
331
753D
  5
76AB
331
76F3
  5
76F8
331
7BC0
  5
7BCD
331
76BC
  5
76C1
331
76FB
  5
7700
331
788A
  5
788B
331
76C4
  5
76C9
331
7892
  5
7893
331
76CC
  5
76D1
331
78AA
  5
78AC
331
7BE8
  5
7BE9
331
76D4
  5
76D9
331
7863
  5
7868
331
78B2
  5
78B4
331
76DC
  5
76E1
331
78BA
  5
78BC
331
7C7F
  5
7C80
331
76E4
  5
76E9
331
7526
  5
7540
331
7873
  5
7874
331
76AD
  5
76B2
331
76EC
  5
76F1
331
787B
  5
7887
331
76B5
  5
76BA
331
753E
  5
76AC
331
76F4
  5
76F9
331
76BD
  5
76C2
331
76FC
  5
7701
331
788B
  5
788C
331
7893
  5
7895
331
76C5
  5
76CA
331
78AB
  5
78AD
331
785C
  5
7861
331
76CD
  5
76D2
331
7BE9
  5
7BEA
331
7864
  5
7869
331
76D5
  5
76DA
331
78B3
  5
78B5
331
786C
  5
786F
331
76DD
  5
76E2
331
751F
  5
751F
331
78BB
  5
7894
331
7C80
  5
7C8B
331
7874
  5
7875
331
76E5
  5
76EA
331
7527
  5
753F
331
7BF9
  5
7C23
331
787C
  5
7888
331
76AE
  5
76B3
331
76ED
  5
76F2
331
7884
  5
7876
331
76B6
  5
76BB
331
753F
  5
76AD
331
76F5
  5
76FA
331
788C
  5
788E
331
76BE
  5
76C3
331
7E17
  5
7E18
331
7894
  5
7896
331
76C6
  5
76CB
331
78AC
  5
78AE
331
785D
  5
7862
331
76CE
  5
76D3
331
7BEA
  5
7BF9
331
7865
  5
786C
331
76D6
  5
76DB
331
78B4
  5
78B6
331
78BC
  5
78BF
331
7520
  5
7525
331
76DE
  5
76E3
331
76E6
  5
76EB
331
7875
  5
7878
331
7528
  5
753E
331
76AF
  5
76B4
331
76EE
  5
76F3
331
7BB3
  5
7BC0
331
76B7
  5
76BC
331
7540
  5
76AE
331
76F6
  5
76FB
331
7885
  5
7884
331
76BF
  5
76C4
331
76C7
  5
76CC
331
7895
  5
78A8
331
7E18
  5
7E25
331
78AD
  5
78AF
331
76CF
  5
76D4
331
785E
  5
7863
331
76D7
  5
76DC
331
7866
  5
786D
331
78B5
  5
78B7
331
7521
  5
7526
331
76DF
  5
76E4
331
7BA4
  5
7BA5
331
76E7
  5
76EC
331
7876
  5
787C
331
7529
  5
7541
331
76B0
  5
76B5
331
76EF
  5
76F4
331
76F7
  5
76FC
331
7541
  5
7522
331
76B8
  5
76BD
331
7886
  5
787B
331
7C23
  5
7C24
331
76C0
  5
76C5
331
788E
  5
788F
331
7896
  5
78A9
331
76C8
  5
76CD
331
78AE
  5
78B0
331
76D0
  5
76D5
331
785F
  5
7864
331
76D8
  5
76DD
331
7867
  5
786E
331
78B6
  5
78B8
331
7522
  5
7527
331
76E0
  5
76E5
331
786F
  5
7870
331
7E69
  5
7873
331
7BA5
  5
7BA6
331
76E8
  5
76ED
331
76B1
  5
76B6
331
76F0
  5
76F5
331
7C8B
  5
7C8C
331
7542
  5
7521
331
76B9
  5
76BE
331
76F8
  5
76FD
331
7887
  5
7879
331
7C24
  5
7C4D
331
76C1
  5
76C6
331
788F
  5
7890
331
7BCD
  5
7BCE
331
76C9
  5
76CE
331
7BDD
  5
7BDE
331
78AF
  5
78B1
331
76D1
  5
76D6
331
7860
  5
7865
331
7B7E
  5
7B7F
331
7C5C
  5
7C7F
331
76D9
  5
76DE
331
78B7
  5
78B9
331
76E1
  5
76E6
331
78BF
  5
7B6F
331
7BA6
  5
7BB3
331
76AA
  5
76AF
331
76E9
  5
76EE
331
7878
  5
7885
331
76B2
  5
76B7
331
753B
  5
7542
331
76F1
  5
76F6
331
7C8C
  5
7C8D
331
76BA
  5
76BF
331
76F9
  5
76FE
331
7888
  5
788A
331
7B6F
  5
7B7E
331
76C2
  5
76C7
331
7890
  5
7891
331
7C4D
  5
7C5C
331
7BCE
  5
7BDD
331
76CA
  5
76CF
331
78A8
  5
78AA
331
7BDE
  5
7BE8
331
7B7F
  5
7BA4
331
76D2
  5
76D7
331
7861
  5
7866
331
78B0
  5
78B2
331
76DA
  5
76DF
331
78B8
  5
78BA
331
7524
  5
753B
331
76E2
  5
76E7
331
76AB
  5
76B0
331
76EA
  5
76EF
331
7879
  5
7886
331
76B3
  5
76B8
331
753C
  5
76AA
331
76F2
  5
76F7
331
7C8D
  5
7C8E
331
76BB
  5
76C0
331
76FA
  5
76FF
331
76C3
  5
76C8
331
7891
  5
7892
331
76CB
  5
76D0
331
78A9
  5
78AB
331
76D3
  5
76D8
331
7862
  5
7867
331
78B1
  5
78B3
331
76DB
  5
76E0
331
78B9
  5
78BB
331
7525
  5
753C
331
76E3
  5
76E8
  0
XRECORD
  5
5D8A
102
{ACAD_REACTORS
330
5D89
102
}
330
5D89
100
AcDbXrecord
280
     1
340
15
  0
DICTIONARY
  5
754B
102
{ACAD_REACTORS
330
754A
102
}
330
754A
100
AcDbDictionary
280
     1
281
     1
  3
Edit
360
754C
  0
LAYOUT
  5
5CF5
102
{ACAD_REACTORS
330
5CF3
102
}
330
5CF3
100
AcDbPlotSettings
  1

  2
none_device
  4
ISO_A4_(210.00_x_297.00_MM)
  6

 40
7.5
 41
20.0
 42
7.5
 43
20.0
 44
210.0
 45
297.0
 46
0.0
 47
0.0
 48
0.0
 49
0.0
140
0.0
141
0.0
142
1.0
143
2.27056080249657
 70
 11952
 72
     1
 73
     1
 74
     0
  7
a.ctb
 75
     0
147
0.4404198288372022
 76
     0
 77
     2
 78
   300
148
146.396957963793
149
22.85546868979259
100
AcDbLayout
  1
Model
 70
     1
 71
     0
 10
0.0
 20
0.0
 11
12.0
 21
9.0
 12
0.0
 22
0.0
 32
0.0
 14
0.0
 24
0.0
 34
0.0
 15
0.0
 25
0.0
 35
0.0
146
0.0
 13
0.0
 23
0.0
 33
0.0
 16
1.0
 26
0.0
 36
0.0
 17
0.0
 27
1.0
 37
0.0
 76
     0
330
18
1001
ACAD_PSEXT
1000
なし
1000
なし
1000
適切ではありません
1000
新しいプロッタ環境設定名を選択しない限り、レイアウトは印刷されません。
1070
     0
  0
LAYOUT
  5
5CF6
102
{ACAD_REACTORS
330
5CF3
102
}
330
5CF3
100
AcDbPlotSettings
  1

  2
EPSON STYLUS COLOR 440
  4

  6

 40
0.0
 41
0.0
 42
0.0
 43
0.0
 44
0.0
 45
0.0
 46
0.0
 47
0.0
 48
0.0
 49
0.0
140
0.0
141
0.0
142
1.0
143
1.0
 70
   688
 72
     0
 73
     0
 74
     5
  7
a.ctb
 75
    16
147
1.0
 76
     0
 77
     2
 78
   300
148
0.0
149
0.0
100
AcDbLayout
  1
ｰtｸm1
 70
     1
 71
     1
 10
0.0
 20
0.0
 11
420.0
 21
297.0
 12
0.0
 22
0.0
 32
0.0
 14
1.000000000000000E+20
 24
1.000000000000000E+20
 34
1.000000000000000E+20
 15
-1.000000000000000E+20
 25
-1.000000000000000E+20
 35
-1.000000000000000E+20
146
0.0
 13
0.0
 23
0.0
 33
0.0
 16
1.0
 26
0.0
 36
0.0
 17
0.0
 27
1.0
 37
0.0
 76
     0
330
15
  0
MLINESTYLE
  5
1C
102
{ACAD_REACTORS
330
1B
102
}
330
1B
100
AcDbMlineStyle
  2
STANDARD
 70
     0
  3

 62
   256
 51
90.0
 52
90.0
 71
     2
 49
0.5
 62
   256
  6
BYLAYER
 49
-0.5
 62
   256
  6
BYLAYER
  0
ACDBPLACEHOLDER
  5
5CF2
102
{ACAD_REACTORS
330
5CF1
102
}
330
5CF1
  0
TABLESTYLE
  5
74E0
102
{ACAD_REACTORS
330
74DF
102
}
330
74DF
100
AcDbTableStyle
  3
Standard
 70
     0
 71
     8
 40
1.5
 41
1.5
280
     0
281
     0
  7
STANDARD
140
4.5
170
     2
 62
     0
 63
     7
283
     0
274
    -2
284
     1
 64
     0
275
    -2
285
     1
 65
     0
276
    -2
286
     1
 66
     0
277
    -2
287
     1
 67
     0
278
    -2
288
     1
 68
     0
279
    -2
289
     1
 69
     0
  7
STANDARD
140
6.0
170
     5
 62
     0
 63
     7
283
     0
274
    -2
284
     1
 64
     0
275
    -2
285
     1
 65
     0
276
    -2
286
     1
 66
     0
277
    -2
287
     1
 67
     0
278
    -2
288
     1
 68
     0
279
    -2
289
     1
 69
     0
  7
STANDARD
140
4.5
170
     5
 62
     0
 63
     7
283
     0
274
    -2
284
     1
 64
     0
275
    -2
285
     1
 65
     0
276
    -2
286
     1
 66
     0
277
    -2
287
     1
 67
     0
278
    -2
288
     1
 68
     0
279
    -2
289
     1
 69
     0
  0
DICTIONARYVAR
  5
74EB
102
{ACAD_REACTORS
330
45D
102
}
330
45D
100
DictionaryVariables
280
     0
  1
STANDARD
  0
DICTIONARYVAR
  5
45E
102
{ACAD_REACTORS
330
45D
102
}
330
45D
100
DictionaryVariables
280
     0
  1
127
  0
XRECORD
  5
754C
102
{ACAD_REACTORS
330
754B
102
}
330
754B
100
AcDbXrecord
280
     1
1070
     0
1070
     1
1070
     1
  0
ENDSEC
  0
EOF
