  0
SECTION
  2
HEADER
  9
$ACADVER
  1
AC1018
  9
$ACADMAINTVER
 70
    76
  9
$DWGCODEPAGE
  3
ANSI_932
  9
$INSBASE
 10
0.0
 20
0.0
 30
0.0
  9
$EXTMIN
 10
0.0
 20
0.0
 30
0.0
  9
$EXTMAX
 10
190.0
 20
280.0
 30
3.838383838383842
  9
$LIMMIN
 10
0.0
 20
0.0
  9
$LIMMAX
 10
420.0
 20
297.0
  9
$ORTHOMODE
 70
     1
  9
$REGENMODE
 70
     1
  9
$FILLMODE
 70
     1
  9
$QTEXTMODE
 70
     0
  9
$MIRRTEXT
 70
     1
  9
$LTSCALE
 40
1.0
  9
$ATTMODE
 70
     1
  9
$TEXTSIZE
 40
2.5
  9
$TRACEWID
 40
1.0
  9
$TEXTSTYLE
  7
TXT
  9
$CLAYER
  8
0
  9
$CELTYPE
  6
BYLAYER
  9
$CECOLOR
 62
   256
  9
$CELTSCALE
 40
1.0
  9
$DISPSILH
 70
     0
  9
$DIMSCALE
 40
1.0
  9
$DIMASZ
 40
3.0
  9
$DIMEXO
 40
0.8
  9
$DIMDLI
 40
0.38
  9
$DIMRND
 40
0.0
  9
$DIMDLE
 40
0.0
  9
$DIMEXE
 40
0.8
  9
$DIMTP
 40
0.0
  9
$DIMTM
 40
0.0
  9
$DIMTXT
 40
2.5
  9
$DIMCEN
 40
0.09
  9
$DIMTSZ
 40
0.0
  9
$DIMTOL
 70
     0
  9
$DIMLIM
 70
     0
  9
$DIMTIH
 70
     0
  9
$DIMTOH
 70
     0
  9
$DIMSE1
 70
     0
  9
$DIMSE2
 70
     0
  9
$DIMTAD
 70
     3
  9
$DIMZIN
 70
     8
  9
$DIMBLK
  1
Open30
  9
$DIMASO
 70
     1
  9
$DIMSHO
 70
     1
  9
$DIMPOST
  1

  9
$DIMAPOST
  1

  9
$DIMALT
 70
     0
  9
$DIMALTD
 70
     2
  9
$DIMALTF
 40
25.4
  9
$DIMLFAC
 40
1.0
  9
$DIMTOFL
 70
     1
  9
$DIMTVP
 40
0.0
  9
$DIMTIX
 70
     0
  9
$DIMSOXD
 70
     0
  9
$DIMSAH
 70
     0
  9
$DIMBLK1
  1

  9
$DIMBLK2
  1

  9
$DIMSTYLE
  2
STANDARD
  9
$DIMCLRD
 70
   256
  9
$DIMCLRE
 70
   256
  9
$DIMCLRT
 70
     3
  9
$DIMTFAC
 40
1.0
  9
$DIMGAP
 40
0.8
  9
$DIMJUST
 70
     0
  9
$DIMSD1
 70
     0
  9
$DIMSD2
 70
     0
  9
$DIMTOLJ
 70
     1
  9
$DIMTZIN
 70
     0
  9
$DIMALTZ
 70
     0
  9
$DIMALTTZ
 70
     0
  9
$DIMUPT
 70
     0
  9
$DIMDEC
 70
     2
  9
$DIMTDEC
 70
     2
  9
$DIMALTU
 70
     2
  9
$DIMALTTD
 70
     2
  9
$DIMTXSTY
  7
STANDARD
  9
$DIMAUNIT
 70
     0
  9
$DIMADEC
 70
     2
  9
$DIMALTRND
 40
0.0
  9
$DIMAZIN
 70
     2
  9
$DIMDSEP
 70
    46
  9
$DIMATFIT
 70
     3
  9
$DIMFRAC
 70
     0
  9
$DIMLDRBLK
  1
Open30
  9
$DIMLUNIT
 70
     2
  9
$DIMLWD
 70
    -2
  9
$DIMLWE
 70
    -2
  9
$DIMTMOVE
 70
     0
  9
$LUNITS
 70
     2
  9
$LUPREC
 70
     2
  9
$SKETCHINC
 40
1.0
  9
$FILLETRAD
 40
1.5
  9
$AUNITS
 70
     0
  9
$AUPREC
 70
     2
  9
$MENU
  1
.
  9
$ELEVATION
 40
0.0
  9
$PELEVATION
 40
0.0
  9
$THICKNESS
 40
0.0
  9
$LIMCHECK
 70
     0
  9
$CHAMFERA
 40
1.5
  9
$CHAMFERB
 40
1.5
  9
$CHAMFERC
 40
1.75
  9
$CHAMFERD
 40
0.0174532925199433
  9
$SKPOLY
 70
     0
  9
$TDCREATE
 40
2451555.620234838
  9
$TDUCREATE
 40
2451555.245234838
  9
$TDUPDATE
 40
2455846.569109607
  9
$TDUUPDATE
 40
2455846.194109607
  9
$TDINDWG
 40
2.3087308796
  9
$TDUSRTIMER
 40
2.3087308796
  9
$USRTIMER
 70
     1
  9
$ANGBASE
 50
0.0
  9
$ANGDIR
 70
     0
  9
$PDMODE
 70
     0
  9
$PDSIZE
 40
0.0
  9
$PLINEWID
 40
0.0
  9
$SPLFRAME
 70
     0
  9
$SPLINETYPE
 70
     6
  9
$SPLINESEGS
 70
     8
  9
$HANDSEED
  5
8CE8
  9
$SURFTAB1
 70
     6
  9
$SURFTAB2
 70
     6
  9
$SURFTYPE
 70
     6
  9
$SURFU
 70
     6
  9
$SURFV
 70
     6
  9
$UCSBASE
  2

  9
$UCSNAME
  2

  9
$UCSORG
 10
0.0
 20
0.0
 30
0.0
  9
$UCSXDIR
 10
1.0
 20
0.0
 30
0.0
  9
$UCSYDIR
 10
0.0
 20
1.0
 30
0.0
  9
$UCSORTHOREF
  2

  9
$UCSORTHOVIEW
 70
     0
  9
$UCSORGTOP
 10
0.0
 20
0.0
 30
0.0
  9
$UCSORGBOTTOM
 10
0.0
 20
0.0
 30
0.0
  9
$UCSORGLEFT
 10
0.0
 20
0.0
 30
0.0
  9
$UCSORGRIGHT
 10
0.0
 20
0.0
 30
0.0
  9
$UCSORGFRONT
 10
0.0
 20
0.0
 30
0.0
  9
$UCSORGBACK
 10
0.0
 20
0.0
 30
0.0
  9
$PUCSBASE
  2

  9
$PUCSNAME
  2

  9
$PUCSORG
 10
0.0
 20
0.0
 30
0.0
  9
$PUCSXDIR
 10
1.0
 20
0.0
 30
0.0
  9
$PUCSYDIR
 10
0.0
 20
1.0
 30
0.0
  9
$PUCSORTHOREF
  2

  9
$PUCSORTHOVIEW
 70
     0
  9
$PUCSORGTOP
 10
0.0
 20
0.0
 30
0.0
  9
$PUCSORGBOTTOM
 10
0.0
 20
0.0
 30
0.0
  9
$PUCSORGLEFT
 10
0.0
 20
0.0
 30
0.0
  9
$PUCSORGRIGHT
 10
0.0
 20
0.0
 30
0.0
  9
$PUCSORGFRONT
 10
0.0
 20
0.0
 30
0.0
  9
$PUCSORGBACK
 10
0.0
 20
0.0
 30
0.0
  9
$USERI1
 70
     0
  9
$USERI2
 70
     0
  9
$USERI3
 70
     0
  9
$USERI4
 70
     0
  9
$USERI5
 70
     0
  9
$USERR1
 40
0.0
  9
$USERR2
 40
0.0
  9
$USERR3
 40
0.0
  9
$USERR4
 40
0.0
  9
$USERR5
 40
0.0
  9
$WORLDVIEW
 70
     1
  9
$SHADEDGE
 70
     3
  9
$SHADEDIF
 70
    70
  9
$TILEMODE
 70
     1
  9
$MAXACTVP
 70
    48
  9
$PINSBASE
 10
0.0
 20
0.0
 30
0.0
  9
$PLIMCHECK
 70
     0
  9
$PEXTMIN
 10
1.000000000000000E+20
 20
1.000000000000000E+20
 30
1.000000000000000E+20
  9
$PEXTMAX
 10
-1.000000000000000E+20
 20
-1.000000000000000E+20
 30
-1.000000000000000E+20
  9
$PLIMMIN
 10
0.0
 20
0.0
  9
$PLIMMAX
 10
420.0
 20
297.0
  9
$UNITMODE
 70
     0
  9
$VISRETAIN
 70
     1
  9
$PLINEGEN
 70
     0
  9
$PSLTSCALE
 70
     1
  9
$TREEDEPTH
 70
  3020
  9
$CMLSTYLE
  2
STANDARD
  9
$CMLJUST
 70
     0
  9
$CMLSCALE
 40
20.0
  9
$PROXYGRAPHICS
 70
     1
  9
$MEASUREMENT
 70
     1
  9
$CELWEIGHT
370
    -1
  9
$ENDCAPS
280
     0
  9
$JOINSTYLE
280
     0
  9
$LWDISPLAY
290
     0
  9
$INSUNITS
 70
     0
  9
$HYPERLINKBASE
  1

  9
$STYLESHEET
  1
monochrome.ctb
  9
$XEDIT
290
     1
  9
$CEPSNTYPE
380
     0
  9
$PSTYLEMODE
290
     1
  9
$FINGERPRINTGUID
  2
{1CF51E8A-A506-11D4-A7D9-AF69F5C20846}
  9
$VERSIONGUID
  2
{6281167D-379E-47D6-857D-0426BB979306}
  9
$EXTNAMES
290
     1
  9
$PSVPSCALE
 40
0.0
  9
$OLESTARTUP
290
     0
  9
$SORTENTS
280
   127
  9
$INDEXCTL
280
     0
  9
$HIDETEXT
280
     0
  9
$XCLIPFRAME
290
     0
  9
$HALOGAP
280
     0
  9
$OBSCOLOR
 70
   257
  9
$OBSLTYPE
280
     0
  9
$INTERSECTIONDISPLAY
280
     0
  9
$INTERSECTIONCOLOR
 70
   257
  9
$DIMASSOC
280
     1
  9
$PROJECTNAME
  1

  0
ENDSEC
  0
SECTION
  2
CLASSES
  0
CLASS
  1
DICTIONARYVAR
  2
AcDbDictionaryVar
  3
ObjectDBX Classes
 90
        0
 91
        2
280
     0
281
     0
  0
CLASS
  1
SORTENTSTABLE
  2
AcDbSortentsTable
  3
ObjectDBX Classes
 90
        0
 91
        1
280
     0
281
     0
  0
CLASS
  1
ACDBDICTIONARYWDFLT
  2
AcDbDictionaryWithDefault
  3
ObjectDBX Classes
 90
        0
 91
        1
280
     0
281
     0
  0
CLASS
  1
TABLESTYLE
  2
AcDbTableStyle
  3
ObjectDBX Classes
 90
     2047
 91
        1
280
     0
281
     0
  0
ENDSEC
  0
SECTION
  2
TABLES
  0
TABLE
  2
VPORT
  5
8
330
0
100
AcDbSymbolTable
 70
     2
  0
VPORT
  5
8CE7
330
8
100
AcDbSymbolTableRecord
100
AcDbViewportTableRecord
  2
*Active
 70
     0
 10
0.0
 20
0.0
 11
1.0
 21
1.0
 12
69.89851551958401
 22
122.8407264999844
 13
0.0
 23
0.0
 14
10.0
 24
10.0
 15
10.0
 25
10.0
 16
0.0
 26
0.0
 36
1.0
 17
0.0
 27
0.0
 37
0.0
 40
221.9132688119732
 41
2.47104247104247
 42
50.0
 43
0.0
 44
0.0
 50
0.0
 51
0.0
 71
     0
 72
 20000
 73
     1
 74
     1
 75
     0
 76
     0
 77
     0
 78
     0
281
     0
 65
     1
110
0.0
120
0.0
130
0.0
111
1.0
121
0.0
131
0.0
112
0.0
122
1.0
132
0.0
 79
     0
146
0.0
  0
ENDTAB
  0
TABLE
  2
LTYPE
  5
5
330
0
100
AcDbSymbolTable
 70
     7
  0
LTYPE
  5
12
330
5
100
AcDbSymbolTableRecord
100
AcDbLinetypeTableRecord
  2
BYBLOCK
 70
     0
  3

 72
    65
 73
     0
 40
0.0
  0
LTYPE
  5
13
330
5
100
AcDbSymbolTableRecord
100
AcDbLinetypeTableRecord
  2
BYLAYER
 70
     0
  3

 72
    65
 73
     0
 40
0.0
  0
LTYPE
  5
14
330
5
100
AcDbSymbolTableRecord
100
AcDbLinetypeTableRecord
  2
CONTINUOUS
 70
     0
  3
Solid line
 72
    65
 73
     0
 40
0.0
  0
LTYPE
  5
9D
330
5
100
AcDbSymbolTableRecord
100
AcDbLinetypeTableRecord
  2
CENTERX2
 70
     0
  3
Center (2x) ________  __  ________  __  _____
 72
    65
 73
     4
 40
101.6
 49
63.5
 74
     0
 49
-12.7
 74
     0
 49
12.7
 74
     0
 49
-12.7
 74
     0
  0
LTYPE
  5
A1
330
5
100
AcDbSymbolTableRecord
100
AcDbLinetypeTableRecord
  2
DASHED
 70
     0
  3
Dashed __ __ __ __ __ __ __ __ __ __ __ __ __ _
 72
    65
 73
     2
 40
19.05
 49
12.7
 74
     0
 49
-6.349999999999999
 74
     0
  0
LTYPE
  5
A2
330
5
100
AcDbSymbolTableRecord
100
AcDbLinetypeTableRecord
  2
DASHED2
 70
     0
  3
Dashed (.5x) _ _ _ _ _ _ _ _ _ _ _ _ _ _ _ _ _
 72
    65
 73
     2
 40
9.524999999999998
 49
6.349999999999999
 74
     0
 49
-3.174999999999999
 74
     0
  0
LTYPE
  5
A5
330
5
100
AcDbSymbolTableRecord
100
AcDbLinetypeTableRecord
  2
DIVIDE2
 70
     0
  3
Divide (.5x) __..__..__..__..__..__..__..__.._
 72
    65
 73
     6
 40
15.875
 49
6.349999999999999
 74
     0
 49
-3.174999999999999
 74
     0
 49
0.0
 74
     0
 49
-3.174999999999999
 74
     0
 49
0.0
 74
     0
 49
-3.174999999999999
 74
     0
  0
LTYPE
  5
650B
330
5
100
AcDbSymbolTableRecord
100
AcDbLinetypeTableRecord
  2
CENTER
 70
     0
  3
Center ____ _ ____ _ ____ _ ____ _ ____ _ ____
 72
    65
 73
     4
 40
50.8
 49
31.75
 74
     0
 49
-6.349999999999999
 74
     0
 49
6.349999999999999
 74
     0
 49
-6.349999999999999
 74
     0
  0
LTYPE
  5
650C
330
5
100
AcDbSymbolTableRecord
100
AcDbLinetypeTableRecord
  2
HIDDEN
 70
     0
  3
Hidden __ __ __ __ __ __ __ __ __ __ __ __ __ _
 72
    65
 73
     2
 40
9.524999999999998
 49
6.349999999999999
 74
     0
 49
-3.174999999999999
 74
     0
  0
ENDTAB
  0
TABLE
  2
LAYER
  5
2
102
{ACAD_XDICTIONARY
360
7BFE
102
}
330
0
100
AcDbSymbolTable
 70
     9
  0
LAYER
  5
E
330
2
100
AcDbSymbolTableRecord
100
AcDbLayerTableRecord
  2
0
 70
     0
 62
     7
  6
CONTINUOUS
370
    -3
390
5CF2
  0
LAYER
  5
B9
330
2
100
AcDbSymbolTableRecord
100
AcDbLayerTableRecord
  2
dim
 70
     0
 62
     3
  6
CONTINUOUS
370
    -3
390
5CF2
  0
LAYER
  5
F2
330
2
100
AcDbSymbolTableRecord
100
AcDbLayerTableRecord
  2
DEFPOINTS
 70
     0
 62
     4
  6
CONTINUOUS
290
     0
370
    -3
390
5CF2
  0
LAYER
  5
5F8B
330
2
100
AcDbSymbolTableRecord
100
AcDbLayerTableRecord
  2
mark
 70
     0
 62
     6
  6
CONTINUOUS
370
    -3
390
5CF2
  0
LAYER
  5
644E
330
2
100
AcDbSymbolTableRecord
100
AcDbLayerTableRecord
  2
frame
 70
     0
 62
     9
  6
CONTINUOUS
370
    -3
390
5CF2
  0
LAYER
  5
650D
330
2
100
AcDbSymbolTableRecord
100
AcDbLayerTableRecord
  2
center
 70
     0
 62
     1
  6
CENTER
370
    -3
390
5CF2
  0
LAYER
  5
650E
330
2
100
AcDbSymbolTableRecord
100
AcDbLayerTableRecord
  2
bowle
 70
     0
 62
     4
  6
HIDDEN
370
    -3
390
5CF2
  0
LAYER
  5
650F
330
2
100
AcDbSymbolTableRecord
100
AcDbLayerTableRecord
  2
contour
 70
     0
 62
     2
  6
CONTINUOUS
370
    -3
390
5CF2
  0
LAYER
  5
6510
330
2
100
AcDbSymbolTableRecord
100
AcDbLayerTableRecord
  2
section
 70
     0
 62
     5
  6
CONTINUOUS
370
    -3
390
5CF2
  0
ENDTAB
  0
TABLE
  2
STYLE
  5
3
330
0
100
AcDbSymbolTable
 70
     5
  0
STYLE
  5
F
330
3
100
AcDbSymbolTableRecord
100
AcDbTextStyleTableRecord
  2
STANDARD
 70
     0
 40
0.0
 41
1.0
 50
0.0
 71
     0
 42
2.5
  3
txt
  4

  0
STYLE
  5
BE
330
3
100
AcDbSymbolTableRecord
100
AcDbTextStyleTableRecord
  2
ISOCP3
 70
     0
 40
0.0
 41
1.0
 50
0.0
 71
     0
 42
2.5
  3
isocp3.shx
  4

  0
STYLE
  5
2A37
330
3
100
AcDbSymbolTableRecord
100
AcDbTextStyleTableRecord
  2
TXT
 70
     0
 40
0.0
 41
1.0
 50
0.0
 71
     0
 42
2.5
  3
txt.shx
  4
bigfont.shx
  0
STYLE
  5
5DCB
330
3
100
AcDbSymbolTableRecord
100
AcDbTextStyleTableRecord
  2
LKK
 70
     0
 40
50.0
 41
1.5
 50
0.0
 71
     0
 42
50.0
  3
MS PGothic.ttf
  4

1001
ACAD
1000
MS PGothic
1071
    32818
  0
STYLE
  5
5DCC
330
3
100
AcDbSymbolTableRecord
100
AcDbTextStyleTableRecord
  2
JL
 70
     0
 40
10.0
 41
0.5
 50
0.0
 71
     0
 42
5.0
  3
MS Mincho.ttf
  4

1001
ACAD
1000
MS Mincho
1071
    32785
  0
ENDTAB
  0
TABLE
  2
VIEW
  5
6
330
0
100
AcDbSymbolTable
 70
     0
  0
ENDTAB
  0
TABLE
  2
UCS
  5
7
330
0
100
AcDbSymbolTable
 70
     0
  0
ENDTAB
  0
TABLE
  2
APPID
  5
9
330
0
100
AcDbSymbolTable
 70
    11
  0
APPID
  5
10
330
9
100
AcDbSymbolTableRecord
100
AcDbRegAppTableRecord
  2
ACAD
 70
     0
  0
APPID
  5
7C91
330
9
100
AcDbSymbolTableRecord
100
AcDbRegAppTableRecord
  2
ACAD_DSTYLE_DIMEXT_LENGTH
 70
     0
  0
APPID
  5
7C92
330
9
100
AcDbSymbolTableRecord
100
AcDbRegAppTableRecord
  2
ACAD_DSTYLE_DIMEXT_ENABLED
 70
     0
  0
APPID
  5
7C93
330
9
100
AcDbSymbolTableRecord
100
AcDbRegAppTableRecord
  2
ACAD_DSTYLE_DIMJOGGED_JOGANGLE_SYMBOL
 70
     0
  0
APPID
  5
7C94
330
9
100
AcDbSymbolTableRecord
100
AcDbRegAppTableRecord
  2
ACAD_DSTYLE_DIMARC_LENGTH_SYMBOL
 70
     0
  0
APPID
  5
7F1C
330
9
100
AcDbSymbolTableRecord
100
AcDbRegAppTableRecord
  2
ACAD_EXEMPT_FROM_CAD_STANDARDS
 70
     0
  0
APPID
  5
7F49
330
9
100
AcDbSymbolTableRecord
100
AcDbRegAppTableRecord
  2
ACAD_DSTYLE_DIMTEXT_FILL
 70
     0
  0
APPID
  5
7F4C
330
9
100
AcDbSymbolTableRecord
100
AcDbRegAppTableRecord
  2
ACAD_DSTYLE_DIM_LINETYPE
 70
     0
  0
APPID
  5
7F4D
330
9
100
AcDbSymbolTableRecord
100
AcDbRegAppTableRecord
  2
ACAD_DSTYLE_DIM_EXT1_LINETYPE
 70
     0
  0
APPID
  5
7F4E
330
9
100
AcDbSymbolTableRecord
100
AcDbRegAppTableRecord
  2
ACAD_DSTYLE_DIM_EXT2_LINETYPE
 70
     0
  0
APPID
  5
8C73
330
9
100
AcDbSymbolTableRecord
100
AcDbRegAppTableRecord
  2
ACAD_PSEXT
 70
     0
  0
ENDTAB
  0
TABLE
  2
DIMSTYLE
  5
A
330
0
100
AcDbSymbolTable
 70
     1
100
AcDbDimStyleTable
 71
     1
340
1D
  0
DIMSTYLE
105
1D
102
{ACAD_REACTORS
330
893A
330
894C
330
8979
330
8988
330
8995
330
89A3
330
89BF
330
89CE
330
89DF
330
89EE
330
8CA0
102
}
330
A
100
AcDbSymbolTableRecord
100
AcDbDimStyleTableRecord
  2
STANDARD
 70
     0
 41
3.0
 42
0.8
 44
0.8
 73
     0
 74
     0
 77
     3
 78
     8
 79
     2
140
2.5
147
0.8
172
     1
176
   256
177
   256
178
     3
179
     2
271
     2
272
     2
340
F
341
7C04
342
7C04
1001
ACAD_DSTYLE_DIMEXT_LENGTH
1070
   378
1040
0.18
1001
ACAD_DSTYLE_DIMEXT_ENABLED
1070
   383
1070
     0
1001
ACAD_DSTYLE_DIMARC_LENGTH_SYMBOL
1070
   379
1070
     0
1001
ACAD_DSTYLE_DIMJOGGED_JOGANGLE_SYMBOL
1070
   384
1040
1.570796326794896
  0
ENDTAB
  0
TABLE
  2
BLOCK_RECORD
  5
1
330
0
100
AcDbSymbolTable
 70
    14
  0
BLOCK_RECORD
  5
18
102
{ACAD_XDICTIONARY
360
45F
102
}
330
1
100
AcDbSymbolTableRecord
100
AcDbBlockTableRecord
  2
*MODEL_SPACE
340
5CF5
  0
BLOCK_RECORD
  5
15
102
{ACAD_XDICTIONARY
360
5D89
102
}
330
1
100
AcDbSymbolTableRecord
100
AcDbBlockTableRecord
  2
*PAPER_SPACE
340
5CF6
  0
BLOCK_RECORD
  5
639D
330
1
100
AcDbSymbolTableRecord
100
AcDbBlockTableRecord
  2
A$C255C26A2
340
0
  0
BLOCK_RECORD
  5
7C04
330
1
100
AcDbSymbolTableRecord
100
AcDbBlockTableRecord
  2
_Open30
340
0
102
{BLKREFS
331
8B25
331
8B26
331
8B30
331
8B31
331
8B39
331
8B3A
331
8B42
331
8B43
331
8B4B
331
8B4C
331
8B56
331
8B57
331
8B5F
331
8B60
331
8B68
331
8B70
331
8B71
331
8B79
331
8B7A
331
8CB9
331
8CBA
102
}
  0
BLOCK_RECORD
  5
7C0A
102
{ACAD_XDICTIONARY
360
7C0B
102
}
330
1
100
AcDbSymbolTableRecord
100
AcDbBlockTableRecord
  2
A
340
0
310
2800000020000000200000000100080000000000000400000000000000000000000000000000000000000000000080000080000000808000800000008000800080800000C0C0C000C0DCC000F0CAA6000020400000206000002080000020A0000020C0000020E00000400000004020000040400000406000004080000040A0
310
000040C0000040E00000600000006020000060400000606000006080000060A0000060C0000060E00000800000008020000080400000806000008080000080A0000080C0000080E00000A0000000A0200000A0400000A0600000A0800000A0A00000A0C00000A0E00000C0000000C0200000C0400000C0600000C0800000C0
310
A00000C0C00000C0E00000E0000000E0200000E0400000E0600000E0800000E0A00000E0C00000E0E00040000000400020004000400040006000400080004000A0004000C0004000E00040200000402020004020400040206000402080004020A0004020C0004020E000404000004040200040404000404060004040800040
310
40A0004040C0004040E00040600000406020004060400040606000406080004060A0004060C0004060E00040800000408020004080400040806000408080004080A0004080C0004080E00040A0000040A0200040A0400040A0600040A0800040A0A00040A0C00040A0E00040C0000040C0200040C0400040C0600040C08000
310
40C0A00040C0C00040C0E00040E0000040E0200040E0400040E0600040E0800040E0A00040E0C00040E0E00080000000800020008000400080006000800080008000A0008000C0008000E00080200000802020008020400080206000802080008020A0008020C0008020E00080400000804020008040400080406000804080
310
008040A0008040C0008040E00080600000806020008060400080606000806080008060A0008060C0008060E00080800000808020008080400080806000808080008080A0008080C0008080E00080A0000080A0200080A0400080A0600080A0800080A0A00080A0C00080A0E00080C0000080C0200080C0400080C0600080C0
310
800080C0A00080C0C00080C0E00080E0000080E0200080E0400080E0600080E0800080E0A00080E0C00080E0E000C0000000C0002000C0004000C0006000C0008000C000A000C000C000C000E000C0200000C0202000C0204000C0206000C0208000C020A000C020C000C020E000C0400000C0402000C0404000C0406000C0
310
408000C040A000C040C000C040E000C0600000C0602000C0604000C0606000C0608000C060A000C060C000C060E000C0800000C0802000C0804000C0806000C0808000C080A000C080C000C080E000C0A00000C0A02000C0A04000C0A06000C0A08000C0A0A000C0A0C000C0A0E000C0C00000C0C02000C0C04000C0C06000
310
C0C08000C0C0A000F0FBFF00A4A0A000808080000000FF0000FF000000FFFF00FF000000FF00FF00FFFF0000FFFFFF0000000000000000000000000000000000000000000000000000000000000000000000000000000000000000000000000000000000000000000000000000000000000000000000000000000000000000
310
00000000000000000000000000000000000000000000000000000000000000000000000000000000000000000000000000000000000000000000000000000000000000000000000000000000000000000000000000000000000000000000000000000000000000000000000000000000000000000000000000000000000000
310
00000000000000000000000000000000000000000000000000000000000000000000000000000000000000000000000000000000000000000000000000000000000000000000000000000000000000000000000000000000000000000000000000000000000000000000000000000000000000000000000000000000000000
310
000000000000FDFDFDFDFDFDFDFDFDFDFDFD0000FD0000000000000000000000000000000000FD0000FA0000000000FA00FD0000FDFD00000000000000000000000000000000FD0000FA0000000000FA00FD0000FDFDFD000000000000000000000000000000FD0000FA0000000000FA00FD0000FDFDFDFD00000000000000
310
00000000000000FD0000FAFAFAFAFAFAFA00FD0000FDFDFDFDFD00000000000000000000000000FD000000FA00000000FA00FD0000FDFDFDFDFDFDFDFDFDFDFDFDFDFDFDFDFDFDFD000000FA000000FA0000FD0000FDFDFDFDFD00000000000000000000000000FD00000000FA0000FA0000FD0000FDFDFDFD000000000000
310
0000000000000000FD00000000FA00FA000000FD0000FDFD00000000000000000000000000000000FD0000000000FAFA000000FD0000FD0000000000000000000000000000000000FD0000000000FA00000000FD0000000000000000000000000000000000000000FDFDFDFDFDFDFDFDFDFDFDFD0000000000000000000000
310
00000000000000000000000000000000000000000000000000000000000000000000000000000000000000000000000000000000000000000000000000000000000000000000000000000000000000000000000000000000000000000000000000000000000000000000000000000000000000000000000000000000000000
310
00000000000000000000000000000000000000000000000000000000000000000000000000000000000000000000000000000000000000000000000000000000000000000000000000000000000000000000000000000000000000000000000000000000000000000000000000000000000000000000000000000000000000
310
0000000000000000000000000000000000000000000000000000000000000000000000000000000000000000000000000000000000000000
102
{BLKREFS
331
8A08
102
}
  0
BLOCK_RECORD
  5
893B
330
1
100
AcDbSymbolTableRecord
100
AcDbBlockTableRecord
  2
*D3
340
0
  0
BLOCK_RECORD
  5
894D
330
1
100
AcDbSymbolTableRecord
100
AcDbBlockTableRecord
  2
*D4
340
0
  0
BLOCK_RECORD
  5
897A
330
1
100
AcDbSymbolTableRecord
100
AcDbBlockTableRecord
  2
*D5
340
0
  0
BLOCK_RECORD
  5
8989
330
1
100
AcDbSymbolTableRecord
100
AcDbBlockTableRecord
  2
*D6
340
0
  0
BLOCK_RECORD
  5
8996
330
1
100
AcDbSymbolTableRecord
100
AcDbBlockTableRecord
  2
*D7
340
0
  0
BLOCK_RECORD
  5
89A4
330
1
100
AcDbSymbolTableRecord
100
AcDbBlockTableRecord
  2
*D8
340
0
  0
BLOCK_RECORD
  5
89C0
330
1
100
AcDbSymbolTableRecord
100
AcDbBlockTableRecord
  2
*D9
340
0
  0
BLOCK_RECORD
  5
89CF
330
1
100
AcDbSymbolTableRecord
100
AcDbBlockTableRecord
  2
*D10
340
0
  0
BLOCK_RECORD
  5
89E0
330
1
100
AcDbSymbolTableRecord
100
AcDbBlockTableRecord
  2
*D11
340
0
  0
BLOCK_RECORD
  5
89EF
330
1
100
AcDbSymbolTableRecord
100
AcDbBlockTableRecord
  2
*D12
340
0
  0
BLOCK_RECORD
  5
8CA1
330
1
100
AcDbSymbolTableRecord
100
AcDbBlockTableRecord
  2
*D13
340
0
  0
ENDTAB
  0
ENDSEC
  0
SECTION
  2
BLOCKS
  0
BLOCK
  5
19
330
18
100
AcDbEntity
  8
0
100
AcDbBlockBegin
  2
*MODEL_SPACE
 70
     0
 10
0.0
 20
0.0
 30
0.0
  3
*MODEL_SPACE
  1

  0
ENDBLK
  5
1A
330
18
100
AcDbEntity
  8
0
100
AcDbBlockEnd
  0
BLOCK
  5
16
330
15
100
AcDbEntity
 67
     1
  8
0
100
AcDbBlockBegin
  2
*PAPER_SPACE
 70
     0
 10
0.0
 20
0.0
 30
0.0
  3
*PAPER_SPACE
  1

  0
ENDBLK
  5
17
330
15
100
AcDbEntity
 67
     1
  8
0
100
AcDbBlockEnd
  0
BLOCK
  5
63A1
330
639D
100
AcDbEntity
  8
0
100
AcDbBlockBegin
  2
A$C255C26A2
 70
     0
 10
0.0
 20
0.0
 30
0.0
  3
A$C255C26A2
  1

  0
LWPOLYLINE
  5
639E
330
639D
100
AcDbEntity
  8
0
100
AcDbPolyline
 90
        3
 70
     1
 43
0.0
 10
7.014806023851633
 20
0.0000006939811783
 10
5.611844869720698
 20
2.430000693981241
 10
8.417767177982568
 20
2.430000693981241
  0
LWPOLYLINE
  5
639F
330
639D
100
AcDbEntity
  8
0
100
AcDbPolyline
 90
        3
 70
     1
 43
0.0
 10
4.20888371558999
 20
0.0000006939811783
 10
2.805922561459283
 20
2.430000693981241
 10
5.611844869720698
 20
2.430000693981241
  0
LWPOLYLINE
  5
63A0
330
639D
100
AcDbEntity
  8
0
100
AcDbPolyline
 90
        3
 70
     1
 43
0.0
 10
1.402961407328348
 20
0.0000006939811783
 10
0.0000002531974133
 20
2.430000693981241
 10
2.805922561459283
 20
2.430000693981241
  0
ENDBLK
  5
63A2
330
639D
100
AcDbEntity
  8
0
100
AcDbBlockEnd
  0
BLOCK
  5
7C05
330
7C04
100
AcDbEntity
  8
0
100
AcDbBlockBegin
  2
_Open30
 70
     0
 10
0.0
 20
0.0
 30
0.0
  3
_Open30
  1

  0
LINE
  5
7C06
330
7C04
100
AcDbEntity
  8
0
  6
ByBlock
 62
     0
370
    -2
100
AcDbLine
 10
-1.0
 20
0.26794919
 30
0.0
 11
0.0
 21
0.0
 31
0.0
  0
LINE
  5
7C07
330
7C04
100
AcDbEntity
  8
0
  6
ByBlock
 62
     0
370
    -2
100
AcDbLine
 10
0.0
 20
0.0
 30
0.0
 11
-1.0
 21
-0.26794919
 31
0.0
  0
LINE
  5
7C08
330
7C04
100
AcDbEntity
  8
0
  6
ByBlock
 62
     0
370
    -2
100
AcDbLine
 10
0.0
 20
0.0
 30
0.0
 11
-1.0
 21
0.0
 31
0.0
  0
ENDBLK
  5
7C09
330
7C04
100
AcDbEntity
  8
0
100
AcDbBlockEnd
  0
BLOCK
  5
7C0E
330
7C0A
100
AcDbEntity
  8
0
100
AcDbBlockBegin
  2
A
 70
     0
 10
0.0
 20
0.0
 30
0.0
  3
A
  1

  0
MTEXT
  5
7C0F
330
7C0A
100
AcDbEntity
  8
mark
 62
     3
100
AcDbMText
 10
10.65641897020822
 20
-5.596245361730467
 30
0.0
 40
2.5
 41
0.0
 71
     5
 72
     1
  1
A
 73
     1
 44
1.0
1001
ACAD
1000
ACAD_MTEXT_DEFINED_HEIGHT_BEGIN
1070
    46
1040
0.0
1000
ACAD_MTEXT_DEFINED_HEIGHT_END
  0
LWPOLYLINE
  5
7C10
330
7C0A
100
AcDbEntity
  8
mark
100
AcDbPolyline
 90
        4
 70
     1
 43
0.0
 10
9.07926800414657
 20
-7.141145101782569
 10
12.07926800414657
 20
-7.141145101782569
 10
12.07926800414657
 20
-4.141145101782569
 10
9.07926800414657
 20
-4.141145101782569
  0
HATCH
  5
7C11
330
7C0A
100
AcDbEntity
  8
mark
100
AcDbHatch
 10
0.0
 20
0.0
 30
0.0
210
0.0
220
0.0
230
1.0
  2
SOLID
 70
     1
 71
     0
 91
        1
 92
        7
 72
     0
 73
     1
 93
        3
 10
5.32926800414657
 20
-5.641145101782569
 10
4.07926800414657
 20
-4.391145101782541
 10
4.07926800414657
 20
-6.891145101782541
 97
        0
 75
     0
 76
     1
 47
0.0398277943677868
 98
        1
 10
4.589689734415287
 20
-5.732163331855076
450
        0
451
        0
460
0.0
461
0.0
452
        1
462
1.0
453
        2
463
0.0
 63
     5
421
      255
463
1.0
 63
     7
421
 16777215
470
LINEAR
1001
ACAD
1010
0.0
1020
0.0
1030
0.0
  0
LINE
  5
7C12
330
7C0A
100
AcDbEntity
  8
mark
100
AcDbLine
 10
5.32926800414657
 20
-5.641145101782569
 30
0.0
 11
9.07926800414657
 21
-5.641145101782569
 31
0.0
  0
LINE
  5
7C13
330
7C0A
100
AcDbEntity
  8
mark
100
AcDbLine
 10
5.32926800414657
 20
-5.641145101782569
 30
0.0
 11
4.07926800414657
 21
-4.391145101782569
 31
0.0
  0
LINE
  5
7C14
330
7C0A
100
AcDbEntity
  8
mark
100
AcDbLine
 10
5.32926800414657
 20
-5.641145101782569
 30
0.0
 11
4.07926800414657
 21
-6.891145101782569
 31
0.0
  0
ENDBLK
  5
7C15
330
7C0A
100
AcDbEntity
  8
0
100
AcDbBlockEnd
  0
BLOCK
  5
8947
330
893B
100
AcDbEntity
  8
0
100
AcDbBlockBegin
  2
*D3
 70
     1
 10
0.0
 20
0.0
 30
0.0
  3
*D3
  1

  0
LINE
  5
8B20
330
893B
100
AcDbEntity
  8
mark
370
    -2
100
AcDbLine
 10
61.83875774943119
 20
185.2725564325757
 30
0.0
 11
55.03454196305376
 21
185.2725564325757
 31
0.0
  0
LINE
  5
8B21
330
893B
100
AcDbEntity
  8
mark
370
    -2
100
AcDbLine
 10
61.83875774943119
 20
191.2725564325757
 30
0.0
 11
55.03454196305376
 21
191.2725564325757
 31
0.0
  0
LINE
  5
8B22
330
893B
100
AcDbEntity
  8
mark
370
    -2
100
AcDbLine
 10
55.83454196305376
 20
182.2725564325757
 30
0.0
 11
55.83454196305376
 21
179.2725564325757
 31
0.0
  0
LINE
  5
8B23
330
893B
100
AcDbEntity
  8
mark
370
    -2
100
AcDbLine
 10
55.83454196305376
 20
194.2725564325757
 30
0.0
 11
55.83454196305376
 21
197.2725564325757
 31
0.0
  0
LINE
  5
8B24
330
893B
100
AcDbEntity
  8
mark
370
    -2
100
AcDbLine
 10
55.83454196305376
 20
185.2725564325757
 30
0.0
 11
55.83454196305376
 21
191.2725564325757
 31
0.0
  0
INSERT
  5
8B25
330
893B
100
AcDbEntity
  8
mark
370
    -2
100
AcDbBlockReference
  2
_Open30
 10
55.83454196305376
 20
185.2725564325757
 30
0.0
 41
3.0
 42
3.0
 43
3.0
 50
90.0
  0
INSERT
  5
8B26
330
893B
100
AcDbEntity
  8
mark
370
    -2
100
AcDbBlockReference
  2
_Open30
 10
55.83454196305376
 20
191.2725564325757
 30
0.0
 41
3.0
 42
3.0
 43
3.0
 50
270.0
  0
MTEXT
  5
8B27
330
893B
100
AcDbEntity
  8
mark
 62
     3
100
AcDbMText
 10
53.78454196305374
 20
188.2725564325757
 30
0.0
 40
2.5
 41
0.0
 71
     5
 72
     1
  1
\A1;6
 11
0.0000000000000001
 21
1.0
 31
0.0
 73
     1
 44
1.0
  0
POINT
  5
8B28
330
893B
100
AcDbEntity
  8
DEFPOINTS
 62
     0
100
AcDbPoint
 10
62.63875774943119
 20
185.2725564325757
 30
0.0
  0
POINT
  5
8B29
330
893B
100
AcDbEntity
  8
DEFPOINTS
 62
     0
100
AcDbPoint
 10
62.63875774943119
 20
191.2725564325757
 30
0.0
  0
POINT
  5
8B2A
330
893B
100
AcDbEntity
  8
DEFPOINTS
 62
     0
100
AcDbPoint
 10
55.83454196305376
 20
191.2725564325757
 30
0.0
  0
ENDBLK
  5
8948
330
893B
100
AcDbEntity
  8
0
100
AcDbBlockEnd
  0
BLOCK
  5
8959
330
894D
100
AcDbEntity
  8
0
100
AcDbBlockBegin
  2
*D4
 70
     1
 10
0.0
 20
0.0
 30
0.0
  3
*D4
  1

  0
LINE
  5
8B2B
330
894D
100
AcDbEntity
  8
mark
370
    -2
100
AcDbLine
 10
65.13875774943119
 20
184.4725564325757
 30
0.0
 11
65.13875774943119
 21
151.0212335933508
 31
0.0
  0
LINE
  5
8B2C
330
894D
100
AcDbEntity
  8
mark
370
    -2
100
AcDbLine
 10
62.63875774943119
 20
184.4725564325757
 30
0.0
 11
62.63875774943119
 21
151.0212335933508
 31
0.0
  0
LINE
  5
8B2D
330
894D
100
AcDbEntity
  8
mark
370
    -2
100
AcDbLine
 10
68.13875774943119
 20
151.8212335933508
 30
0.0
 11
71.13875774943119
 21
151.8212335933508
 31
0.0
  0
LINE
  5
8B2E
330
894D
100
AcDbEntity
  8
mark
370
    -2
100
AcDbLine
 10
59.63875774943119
 20
151.8212335933508
 30
0.0
 11
50.03875774943118
 21
151.8212335933508
 31
0.0
  0
LINE
  5
8B2F
330
894D
100
AcDbEntity
  8
mark
370
    -2
100
AcDbLine
 10
65.13875774943119
 20
151.8212335933508
 30
0.0
 11
62.63875774943119
 21
151.8212335933508
 31
0.0
  0
INSERT
  5
8B30
330
894D
100
AcDbEntity
  8
mark
370
    -2
100
AcDbBlockReference
  2
_Open30
 10
65.13875774943119
 20
151.8212335933508
 30
0.0
 41
3.0
 42
3.0
 43
3.0
 50
180.0
  0
INSERT
  5
8B31
330
894D
100
AcDbEntity
  8
mark
370
    -2
100
AcDbBlockReference
  2
_Open30
 10
62.63875774943119
 20
151.8212335933508
 30
0.0
 41
3.0
 42
3.0
 43
3.0
  0
MTEXT
  5
8B32
330
894D
100
AcDbEntity
  8
mark
 62
     3
100
AcDbMText
 10
53.33875774943118
 20
153.8712335933508
 30
0.0
 40
2.5
 41
0.0
 71
     5
 72
     1
  1
\A1;2.5
 73
     1
 44
1.0
  0
POINT
  5
8B33
330
894D
100
AcDbEntity
  8
DEFPOINTS
 62
     0
100
AcDbPoint
 10
65.13875774943119
 20
185.2725564325757
 30
0.0
  0
POINT
  5
8B34
330
894D
100
AcDbEntity
  8
DEFPOINTS
 62
     0
100
AcDbPoint
 10
62.63875774943119
 20
185.2725564325757
 30
0.0
  0
POINT
  5
8B35
330
894D
100
AcDbEntity
  8
DEFPOINTS
 62
     0
100
AcDbPoint
 10
62.63875774943119
 20
151.8212335933508
 30
0.0
  0
ENDBLK
  5
895A
330
894D
100
AcDbEntity
  8
0
100
AcDbBlockEnd
  0
BLOCK
  5
8984
330
897A
100
AcDbEntity
  8
0
100
AcDbBlockBegin
  2
*D5
 70
     1
 10
0.0
 20
0.0
 30
0.0
  3
*D5
  1

  0
LINE
  5
8B36
330
897A
100
AcDbEntity
  8
mark
370
    -2
100
AcDbLine
 10
72.0
 20
106.7666005508518
 30
0.0
 11
72.0
 21
115.2390383336256
 31
0.0
  0
LINE
  5
8B37
330
897A
100
AcDbEntity
  8
mark
370
    -2
100
AcDbLine
 10
118.0
 20
106.7666005508518
 30
0.0
 11
118.0
 21
115.2390383336256
 31
0.0
  0
LINE
  5
8B38
330
897A
100
AcDbEntity
  8
mark
370
    -2
100
AcDbLine
 10
75.0
 20
114.4390383336256
 30
0.0
 11
115.0
 21
114.4390383336256
 31
0.0
  0
INSERT
  5
8B39
330
897A
100
AcDbEntity
  8
mark
370
    -2
100
AcDbBlockReference
  2
_Open30
 10
72.0
 20
114.4390383336256
 30
0.0
 41
3.0
 42
3.0
 43
3.0
 50
180.0
  0
INSERT
  5
8B3A
330
897A
100
AcDbEntity
  8
mark
370
    -2
100
AcDbBlockReference
  2
_Open30
 10
118.0
 20
114.4390383336256
 30
0.0
 41
3.0
 42
3.0
 43
3.0
  0
MTEXT
  5
8B3B
330
897A
100
AcDbEntity
  8
mark
 62
     3
100
AcDbMText
 10
95.0
 20
116.4890383336256
 30
0.0
 40
2.5
 41
0.0
 71
     5
 72
     1
  1
\A1;%%c46
 73
     1
 44
1.0
  0
POINT
  5
8B3C
330
897A
100
AcDbEntity
  8
DEFPOINTS
 62
     0
100
AcDbPoint
 10
72.0
 20
105.9666005508518
 30
0.0
  0
POINT
  5
8B3D
330
897A
100
AcDbEntity
  8
DEFPOINTS
 62
     0
100
AcDbPoint
 10
118.0
 20
105.9666005508518
 30
0.0
  0
POINT
  5
8B3E
330
897A
100
AcDbEntity
  8
DEFPOINTS
 62
     0
100
AcDbPoint
 10
118.0
 20
114.4390383336256
 30
0.0
  0
ENDBLK
  5
8985
330
897A
100
AcDbEntity
  8
0
100
AcDbBlockEnd
  0
BLOCK
  5
8993
330
8989
100
AcDbEntity
  8
0
100
AcDbBlockBegin
  2
*D6
 70
     1
 10
0.0
 20
0.0
 30
0.0
  3
*D6
  1

  0
LINE
  5
8B3F
330
8989
100
AcDbEntity
  8
mark
370
    -2
100
AcDbLine
 10
65.5
 20
106.7666005508518
 30
0.0
 11
65.5
 21
121.4268640427336
 31
0.0
  0
LINE
  5
8B40
330
8989
100
AcDbEntity
  8
mark
370
    -2
100
AcDbLine
 10
124.5
 20
106.7666005508518
 30
0.0
 11
124.5
 21
121.4268640427336
 31
0.0
  0
LINE
  5
8B41
330
8989
100
AcDbEntity
  8
mark
370
    -2
100
AcDbLine
 10
68.5
 20
120.6268640427336
 30
0.0
 11
121.5
 21
120.6268640427336
 31
0.0
  0
INSERT
  5
8B42
330
8989
100
AcDbEntity
  8
mark
370
    -2
100
AcDbBlockReference
  2
_Open30
 10
65.5
 20
120.6268640427336
 30
0.0
 41
3.0
 42
3.0
 43
3.0
 50
180.0
  0
INSERT
  5
8B43
330
8989
100
AcDbEntity
  8
mark
370
    -2
100
AcDbBlockReference
  2
_Open30
 10
124.5
 20
120.6268640427336
 30
0.0
 41
3.0
 42
3.0
 43
3.0
  0
MTEXT
  5
8B44
330
8989
100
AcDbEntity
  8
mark
 62
     3
100
AcDbMText
 10
95.0
 20
122.6768640427336
 30
0.0
 40
2.5
 41
0.0
 71
     5
 72
     1
  1
\A1;%%c59%%p0.5
 73
     1
 44
1.0
  0
POINT
  5
8B45
330
8989
100
AcDbEntity
  8
DEFPOINTS
 62
     0
100
AcDbPoint
 10
65.5
 20
105.9666005508518
 30
0.0
  0
POINT
  5
8B46
330
8989
100
AcDbEntity
  8
DEFPOINTS
 62
     0
100
AcDbPoint
 10
124.5
 20
105.9666005508518
 30
0.0
  0
POINT
  5
8B47
330
8989
100
AcDbEntity
  8
DEFPOINTS
 62
     0
100
AcDbPoint
 10
124.5
 20
120.6268640427336
 30
0.0
  0
ENDBLK
  5
8994
330
8989
100
AcDbEntity
  8
0
100
AcDbBlockEnd
  0
BLOCK
  5
89A0
330
8996
100
AcDbEntity
  8
0
100
AcDbBlockBegin
  2
*D7
 70
     1
 10
0.0
 20
0.0
 30
0.0
  3
*D7
  1

  0
LINE
  5
8B48
330
8996
100
AcDbEntity
  8
mark
370
    -2
100
AcDbLine
 10
62.5
 20
104.7666005508518
 30
0.0
 11
62.5
 21
127.5103290800858
 31
0.0
  0
LINE
  5
8B49
330
8996
100
AcDbEntity
  8
mark
370
    -2
100
AcDbLine
 10
127.4999999999999
 20
104.7666005508518
 30
0.0
 11
127.4999999999999
 21
127.5103290800858
 31
0.0
  0
LINE
  5
8B4A
330
8996
100
AcDbEntity
  8
mark
370
    -2
100
AcDbLine
 10
65.5
 20
126.7103290800858
 30
0.0
 11
124.4999999999999
 21
126.7103290800858
 31
0.0
  0
INSERT
  5
8B4B
330
8996
100
AcDbEntity
  8
mark
370
    -2
100
AcDbBlockReference
  2
_Open30
 10
62.5
 20
126.7103290800858
 30
0.0
 41
3.0
 42
3.0
 43
3.0
 50
180.0
  0
INSERT
  5
8B4C
330
8996
100
AcDbEntity
  8
mark
370
    -2
100
AcDbBlockReference
  2
_Open30
 10
127.4999999999999
 20
126.7103290800858
 30
0.0
 41
3.0
 42
3.0
 43
3.0
  0
MTEXT
  5
8B4D
330
8996
100
AcDbEntity
  8
mark
 62
     3
100
AcDbMText
 10
94.99999999999998
 20
128.7603290800858
 30
0.0
 40
2.5
 41
0.0
 71
     5
 72
     1
  1
\A1;%%c65
 73
     1
 44
1.0
  0
POINT
  5
8B4E
330
8996
100
AcDbEntity
  8
DEFPOINTS
 62
     0
100
AcDbPoint
 10
62.5
 20
103.9666005508518
 30
0.0
  0
POINT
  5
8B4F
330
8996
100
AcDbEntity
  8
DEFPOINTS
 62
     0
100
AcDbPoint
 10
127.4999999999999
 20
103.9666005508518
 30
0.0
  0
POINT
  5
8B50
330
8996
100
AcDbEntity
  8
DEFPOINTS
 62
     0
100
AcDbPoint
 10
127.4999999999999
 20
126.7103290800858
 30
0.0
  0
ENDBLK
  5
89A1
330
8996
100
AcDbEntity
  8
0
100
AcDbBlockEnd
  0
BLOCK
  5
89B0
330
89A4
100
AcDbEntity
  8
0
100
AcDbBlockBegin
  2
*D8
 70
     1
 10
0.0
 20
0.0
 30
0.0
  3
*D8
  1

  0
LINE
  5
8B51
330
89A4
100
AcDbEntity
  8
mark
370
    -2
100
AcDbLine
 10
63.2
 20
105.4666005508518
 30
0.0
 11
55.03454196305376
 21
105.4666005508518
 31
0.0
  0
LINE
  5
8B52
330
89A4
100
AcDbEntity
  8
mark
370
    -2
100
AcDbLine
 10
64.7
 20
105.9666005508518
 30
0.0
 11
55.03454196305376
 21
105.9666005508518
 31
0.0
  0
LINE
  5
8B53
330
89A4
100
AcDbEntity
  8
mark
370
    -2
100
AcDbLine
 10
55.83454196305376
 20
102.4666005508518
 30
0.0
 11
55.83454196305376
 21
99.46660055085182
 31
0.0
  0
LINE
  5
8B54
330
89A4
100
AcDbEntity
  8
mark
370
    -2
100
AcDbLine
 10
55.83454196305376
 20
108.9666005508518
 30
0.0
 11
55.83454196305377
 21
118.1499338841851
 31
0.0
  0
LINE
  5
8B55
330
89A4
100
AcDbEntity
  8
mark
370
    -2
100
AcDbLine
 10
55.83454196305376
 20
105.4666005508518
 30
0.0
 11
55.83454196305376
 21
105.9666005508518
 31
0.0
  0
INSERT
  5
8B56
330
89A4
100
AcDbEntity
  8
mark
370
    -2
100
AcDbBlockReference
  2
_Open30
 10
55.83454196305376
 20
105.4666005508518
 30
0.0
 41
3.0
 42
3.0
 43
3.0
 50
90.0
  0
INSERT
  5
8B57
330
89A4
100
AcDbEntity
  8
mark
370
    -2
100
AcDbBlockReference
  2
_Open30
 10
55.83454196305376
 20
105.9666005508518
 30
0.0
 41
3.0
 42
3.0
 43
3.0
 50
270.0
  0
MTEXT
  5
8B58
330
89A4
100
AcDbEntity
  8
mark
 62
     3
100
AcDbMText
 10
53.78454196305376
 20
115.0582672175185
 30
0.0
 40
2.5
 41
0.0
 71
     5
 72
     1
  1
\A1;0.5
 11
0.0000000000000001
 21
1.0
 31
0.0
 73
     1
 44
1.0
  0
POINT
  5
8B59
330
89A4
100
AcDbEntity
  8
DEFPOINTS
 62
     0
100
AcDbPoint
 10
64.0
 20
105.4666005508518
 30
0.0
  0
POINT
  5
8B5A
330
89A4
100
AcDbEntity
  8
DEFPOINTS
 62
     0
100
AcDbPoint
 10
65.5
 20
105.9666005508518
 30
0.0
  0
POINT
  5
8B5B
330
89A4
100
AcDbEntity
  8
DEFPOINTS
 62
     0
100
AcDbPoint
 10
55.83454196305376
 20
105.9666005508518
 30
0.0
  0
ENDBLK
  5
89B1
330
89A4
100
AcDbEntity
  8
0
100
AcDbBlockEnd
  0
BLOCK
  5
89CA
330
89C0
100
AcDbEntity
  8
0
100
AcDbBlockBegin
  2
*D9
 70
     1
 10
0.0
 20
0.0
 30
0.0
  3
*D9
  1

  0
LINE
  5
8B5C
330
89C0
100
AcDbEntity
  8
mark
370
    -2
100
AcDbLine
 10
117.4999999999999
 20
91.91660055085181
 30
0.0
 11
117.4999999999999
 21
76.27113480152043
 31
0.0
  0
LINE
  5
8B5D
330
89C0
100
AcDbEntity
  8
mark
370
    -2
100
AcDbLine
 10
72.50000000000011
 20
91.9166005508517
 30
0.0
 11
72.50000000000011
 21
76.27113480152043
 31
0.0
  0
LINE
  5
8B5E
330
89C0
100
AcDbEntity
  8
mark
370
    -2
100
AcDbLine
 10
114.4999999999999
 20
77.07113480152043
 30
0.0
 11
75.50000000000011
 21
77.07113480152043
 31
0.0
  0
INSERT
  5
8B5F
330
89C0
100
AcDbEntity
  8
mark
370
    -2
100
AcDbBlockReference
  2
_Open30
 10
117.4999999999999
 20
77.07113480152043
 30
0.0
 41
3.0
 42
3.0
 43
3.0
  0
INSERT
  5
8B60
330
89C0
100
AcDbEntity
  8
mark
370
    -2
100
AcDbBlockReference
  2
_Open30
 10
72.50000000000011
 20
77.07113480152043
 30
0.0
 41
3.0
 42
3.0
 43
3.0
 50
180.0
  0
MTEXT
  5
8B61
330
89C0
100
AcDbEntity
  8
mark
 62
     3
100
AcDbMText
 10
95.00000000000003
 20
79.12113480152043
 30
0.0
 40
2.5
 41
0.0
 71
     5
 72
     1
  1
\A1;M45X1.5P
 73
     1
 44
1.0
  0
POINT
  5
8B62
330
89C0
100
AcDbEntity
  8
DEFPOINTS
 62
     0
100
AcDbPoint
 10
117.4999999999999
 20
92.71660055085181
 30
0.0
  0
POINT
  5
8B63
330
89C0
100
AcDbEntity
  8
DEFPOINTS
 62
     0
100
AcDbPoint
 10
72.50000000000011
 20
92.71660055085169
 30
0.0
  0
POINT
  5
8B64
330
89C0
100
AcDbEntity
  8
DEFPOINTS
 62
     0
100
AcDbPoint
 10
72.50000000000011
 20
77.07113480152043
 30
0.0
  0
ENDBLK
  5
89CB
330
89C0
100
AcDbEntity
  8
0
100
AcDbBlockEnd
  0
BLOCK
  5
89D6
330
89CF
100
AcDbEntity
  8
0
100
AcDbBlockBegin
  2
*D10
 70
     1
 10
0.0
 20
0.0
 30
0.0
  3
*D10
  1

  0
LINE
  5
8B65
330
89CF
100
AcDbEntity
  8
mark
370
    -2
100
AcDbLine
 10
49.31574917736014
 20
78.7823497282106
 30
0.0
 11
60.81801948466069
 21
90.28462003551238
 31
0.0
  0
MTEXT
  5
8B66
330
89CF
100
AcDbEntity
  8
mark
 62
     3
100
AcDbMText
 10
52.55665525779815
 20
84.92239361151396
 30
0.0
 40
2.5
 41
0.0
 71
     5
 72
     1
  1
\A1;2-R1.5
 11
0.7071067811865101
 21
0.7071067811865851
 31
0.0
 73
     1
 44
1.0
  0
LINE
  5
8B67
330
89CF
100
AcDbEntity
  8
mark
370
    -2
100
AcDbLine
 10
63.99999999999994
 20
93.46660055085198
 30
0.0
 11
62.93933982822022
 21
92.40594037907213
 31
0.0
  0
INSERT
  5
8B68
330
89CF
100
AcDbEntity
  8
mark
370
    -2
100
AcDbBlockReference
  2
_Open30
 10
62.93933982822022
 20
92.40594037907213
 30
0.0
 41
3.0
 42
3.0
 43
3.0
 50
45.00000000000304
  0
POINT
  5
8B69
330
89CF
100
AcDbEntity
  8
DEFPOINTS
 62
     0
100
AcDbPoint
 10
62.93933982822022
 20
92.40594037907213
 30
0.0
  0
POINT
  5
8B6A
330
89CF
100
AcDbEntity
  8
DEFPOINTS
 62
     0
100
AcDbPoint
 10
63.99999999999994
 20
93.46660055085198
 30
0.0
  0
ENDBLK
  5
89D7
330
89CF
100
AcDbEntity
  8
0
100
AcDbBlockEnd
  0
BLOCK
  5
89EC
330
89E0
100
AcDbEntity
  8
0
100
AcDbBlockBegin
  2
*D11
 70
     1
 10
0.0
 20
0.0
 30
0.0
  3
*D11
  1

  0
LINE
  5
8B6B
330
89E0
100
AcDbEntity
  8
mark
370
    -2
100
AcDbLine
 10
125.3
 20
105.9666005508518
 30
0.0
 11
139.9792717344223
 21
105.9666005508518
 31
0.0
  0
LINE
  5
8B6C
330
89E0
100
AcDbEntity
  8
mark
370
    -2
100
AcDbLine
 10
129.2999999999999
 20
98.96660055085181
 30
0.0
 11
139.9792717344223
 21
98.96660055085181
 31
0.0
  0
LINE
  5
8B6D
330
89E0
100
AcDbEntity
  8
mark
370
    -2
100
AcDbLine
 10
139.1792717344223
 20
108.9666005508518
 30
0.0
 11
139.1792717344223
 21
111.9666005508518
 31
0.0
  0
LINE
  5
8B6E
330
89E0
100
AcDbEntity
  8
mark
370
    -2
100
AcDbLine
 10
139.1792717344223
 20
95.9666005508518
 30
0.0
 11
139.1792717344223
 21
92.96660055085181
 31
0.0
  0
LINE
  5
8B6F
330
89E0
100
AcDbEntity
  8
mark
370
    -2
100
AcDbLine
 10
139.1792717344223
 20
105.9666005508518
 30
0.0
 11
139.1792717344223
 21
98.96660055085181
 31
0.0
  0
INSERT
  5
8B70
330
89E0
100
AcDbEntity
  8
mark
370
    -2
100
AcDbBlockReference
  2
_Open30
 10
139.1792717344223
 20
105.9666005508518
 30
0.0
 41
3.0
 42
3.0
 43
3.0
 50
270.0
  0
INSERT
  5
8B71
330
89E0
100
AcDbEntity
  8
mark
370
    -2
100
AcDbBlockReference
  2
_Open30
 10
139.1792717344223
 20
98.96660055085181
 30
0.0
 41
3.0
 42
3.0
 43
3.0
 50
90.0
  0
MTEXT
  5
8B72
330
89E0
100
AcDbEntity
  8
mark
 62
     3
100
AcDbMText
 10
137.1292717344222
 20
102.4666005508518
 30
0.0
 40
2.5
 41
0.0
 71
     5
 72
     1
  1
\A1;7
 11
0.0000000000000001
 21
1.0
 31
0.0
 73
     1
 44
1.0
  0
POINT
  5
8B73
330
89E0
100
AcDbEntity
  8
DEFPOINTS
 62
     0
100
AcDbPoint
 10
124.5
 20
105.9666005508518
 30
0.0
  0
POINT
  5
8B74
330
89E0
100
AcDbEntity
  8
DEFPOINTS
 62
     0
100
AcDbPoint
 10
128.4999999999999
 20
98.96660055085181
 30
0.0
  0
POINT
  5
8B75
330
89E0
100
AcDbEntity
  8
DEFPOINTS
 62
     0
100
AcDbPoint
 10
139.1792717344223
 20
98.96660055085181
 30
0.0
  0
ENDBLK
  5
89ED
330
89E0
100
AcDbEntity
  8
0
100
AcDbBlockEnd
  0
BLOCK
  5
89FA
330
89EF
100
AcDbEntity
  8
0
100
AcDbBlockBegin
  2
*D12
 70
     1
 10
0.0
 20
0.0
 30
0.0
  3
*D12
  1

  0
LINE
  5
8B76
330
89EF
100
AcDbEntity
  8
mark
370
    -2
100
AcDbLine
 10
125.3
 20
105.9666005508518
 30
0.0
 11
149.1582935870919
 21
105.9666005508518
 31
0.0
  0
LINE
  5
8B77
330
89EF
100
AcDbEntity
  8
mark
370
    -2
100
AcDbLine
 10
126.8
 20
91.9666005508518
 30
0.0
 11
149.1582935870919
 21
91.9666005508518
 31
0.0
  0
LINE
  5
8B78
330
89EF
100
AcDbEntity
  8
mark
370
    -2
100
AcDbLine
 10
148.3582935870919
 20
102.9666005508518
 30
0.0
 11
148.3582935870919
 21
94.96660055085181
 31
0.0
  0
INSERT
  5
8B79
330
89EF
100
AcDbEntity
  8
mark
370
    -2
100
AcDbBlockReference
  2
_Open30
 10
148.3582935870919
 20
105.9666005508518
 30
0.0
 41
3.0
 42
3.0
 43
3.0
 50
90.0
  0
INSERT
  5
8B7A
330
89EF
100
AcDbEntity
  8
mark
370
    -2
100
AcDbBlockReference
  2
_Open30
 10
148.3582935870919
 20
91.9666005508518
 30
0.0
 41
3.0
 42
3.0
 43
3.0
 50
270.0
  0
MTEXT
  5
8B7B
330
89EF
100
AcDbEntity
  8
mark
 62
     3
100
AcDbMText
 10
146.3082935870919
 20
98.96660055085183
 30
0.0
 40
2.5
 41
0.0
 71
     5
 72
     1
  1
\A1;%%C14%%P0.2
 11
0.0000000000000001
 21
1.0
 31
0.0
 73
     1
 44
1.0
  0
POINT
  5
8B7C
330
89EF
100
AcDbEntity
  8
DEFPOINTS
 62
     0
100
AcDbPoint
 10
124.5
 20
105.9666005508518
 30
0.0
  0
POINT
  5
8B7D
330
89EF
100
AcDbEntity
  8
DEFPOINTS
 62
     0
100
AcDbPoint
 10
126.0
 20
91.9666005508518
 30
0.0
  0
POINT
  5
8B7E
330
89EF
100
AcDbEntity
  8
DEFPOINTS
 62
     0
100
AcDbPoint
 10
148.3582935870919
 20
91.9666005508518
 30
0.0
  0
ENDBLK
  5
89FB
330
89EF
100
AcDbEntity
  8
0
100
AcDbBlockEnd
  0
BLOCK
  5
8CAB
330
8CA1
100
AcDbEntity
  8
0
100
AcDbBlockBegin
  2
*D13
 70
     1
 10
0.0
 20
0.0
 30
0.0
  3
*D13
  1

  0
LINE
  5
8CB6
330
8CA1
100
AcDbEntity
  8
mark
370
    -2
100
AcDbLine
 10
85.32739485453385
 20
108.9666005508518
 30
0.0
 11
85.32739485453385
 21
111.9666005508518
 31
0.0
  0
LINE
  5
8CB7
330
8CA1
100
AcDbEntity
  8
mark
370
    -2
100
AcDbLine
 10
85.32739485453385
 20
101.9666005508518
 30
0.0
 11
85.32739485453385
 21
96.53326721751847
 31
0.0
  0
LINE
  5
8CB8
330
8CA1
100
AcDbEntity
  8
mark
370
    -2
100
AcDbLine
 10
85.32739485453385
 20
105.9666005508518
 30
0.0
 11
85.32739485453385
 21
104.9666005508518
 31
0.0
  0
INSERT
  5
8CB9
330
8CA1
100
AcDbEntity
  8
mark
370
    -2
100
AcDbBlockReference
  2
_Open30
 10
85.32739485453385
 20
105.9666005508518
 30
0.0
 41
3.0
 42
3.0
 43
3.0
 50
270.0
  0
INSERT
  5
8CBA
330
8CA1
100
AcDbEntity
  8
mark
370
    -2
100
AcDbBlockReference
  2
_Open30
 10
85.32739485453385
 20
104.9666005508518
 30
0.0
 41
3.0
 42
3.0
 43
3.0
 50
90.0
  0
MTEXT
  5
8CBB
330
8CA1
100
AcDbEntity
  8
mark
 62
     3
100
AcDbMText
 10
83.27739485453383
 20
97.74993388418515
 30
0.0
 40
2.5
 41
0.0
 71
     5
 72
     1
  1
\A1;1
 11
0.0000000000000001
 21
1.0
 31
0.0
 73
     1
 44
1.0
  0
POINT
  5
8CBC
330
8CA1
100
AcDbEntity
  8
DEFPOINTS
 62
     0
100
AcDbPoint
 10
85.32739485453385
 20
105.9666005508518
 30
0.0
  0
POINT
  5
8CBD
330
8CA1
100
AcDbEntity
  8
DEFPOINTS
 62
     0
100
AcDbPoint
 10
85.32739485453385
 20
104.9666005508518
 30
0.0
  0
POINT
  5
8CBE
330
8CA1
100
AcDbEntity
  8
DEFPOINTS
 62
     0
100
AcDbPoint
 10
85.32739485453385
 20
104.9666005508518
 30
0.0
  0
ENDBLK
  5
8CAC
330
8CA1
100
AcDbEntity
  8
0
100
AcDbBlockEnd
  0
ENDSEC
  0
SECTION
  2
ENTITIES
  0
MTEXT
  5
C0
330
18
100
AcDbEntity
  8
0
100
AcDbMText
 10
41.26970765600413
 20
233.6950877649332
 30
0.0
 40
2.5
 41
0.0
 71
     1
 72
     5
  1

  7
ISOCP3
 73
     1
 44
1.0
  0
LWPOLYLINE
  5
7D6C
330
18
100
AcDbEntity
  8
frame
100
AcDbPolyline
 90
        4
 70
     1
 43
0.0
 10
190.0
 20
280.0
 10
0.0
 20
280.0
 10
0.0
 20
0.0
 10
190.0
 20
0.0
  0
MTEXT
  5
7D6D
330
18
100
AcDbEntity
  8
0
100
AcDbMText
 10
17.09950368689175
 20
19.07605901616614
 30
0.0
 40
4.5
 41
0.0
 71
     1
 72
     5
  1
{\Ftxt,bigfont|c128;林彦旭}
  7
JL
 73
     1
 44
1.0
1001
ACAD
1000
ACAD_MTEXT_DEFINED_HEIGHT_BEGIN
1070
    46
1040
0.0
1000
ACAD_MTEXT_DEFINED_HEIGHT_END
  0
MTEXT
  5
7D6E
330
18
100
AcDbEntity
  8
0
100
AcDbMText
 10
77.95294729228851
 20
28.93578979870677
 30
0.0
 40
4.5
 41
0.0
 71
     1
 72
     5
  1
\Ftxt.shx,bigfont.shx|c128;1 : 1
  7
JL
 73
     1
 44
1.0
  0
MTEXT
  5
7D6F
330
18
100
AcDbEntity
  8
0
 48
2.0
370
    25
100
AcDbMText
 10
140.2194500465656
 20
3.490021654633892
 30
0.0
 40
4.5
 41
0.0
 71
     5
 72
     1
  1
{\Ftxt,bigfont|c128;N L 4 0 0 3 4}
 73
     1
 44
1.0
1001
ACAD
1000
ACAD_MTEXT_DEFINED_HEIGHT_BEGIN
1070
    46
1040
0.0
1000
ACAD_MTEXT_DEFINED_HEIGHT_END
  0
MTEXT
  5
7D70
330
18
100
AcDbEntity
  8
0
 48
2.0
100
AcDbMText
 10
170.9328999644331
 20
21.76437127823692
 30
0.0
 40
4.318181818181822
 41
0.0
 71
     5
 72
     1
  1
\P{\Ftxt,bigfont|c128;MR45X1.5P}
 73
     1
 44
1.0
1001
ACAD
1000
ACAD_MTEXT_DEFINED_HEIGHT_BEGIN
1070
    46
1040
0.0
1000
ACAD_MTEXT_DEFINED_HEIGHT_END
  0
MTEXT
  5
7D71
330
18
100
AcDbEntity
  8
0
100
AcDbMText
 10
15.3760677136774
 20
28.37740359834709
 30
0.0
 40
4.5
 41
0.0
 71
     1
 72
     5
  1
{\Ftxt,bigfont|c128;06.06.14}
  7
JL
 73
     1
 44
1.0
1001
ACAD
1000
ACAD_MTEXT_DEFINED_HEIGHT_BEGIN
1070
    46
1040
0.0
1000
ACAD_MTEXT_DEFINED_HEIGHT_END
  0
LINE
  5
7D72
330
18
100
AcDbEntity
  8
0
 62
     7
 48
5.0
100
AcDbLine
 39
3.838383838383842
 10
47.92942413992534
 20
27.65712907016086
 30
0.0
 11
53.04580144287854
 21
28.93622339589922
 31
0.0
  0
MTEXT
  5
7D73
330
18
100
AcDbEntity
  8
0
100
AcDbMText
 10
14.91235548326415
 20
9.242195050049303
 30
0.0
 40
6.0
 41
0.0
 71
     1
 72
     5
  1
\Ftxt.shx,bigfont.shx|c128;日機株式会社
  7
LKK
 73
     1
 44
1.0
  0
LINE
  5
7D74
330
18
100
AcDbEntity
  8
frame
100
AcDbLine
 10
0.0
 20
12.0
 30
0.0
 11
190.0
 21
12.00000000000005
 31
0.0
  0
LINE
  5
7D75
330
18
100
AcDbEntity
  8
frame
100
AcDbLine
 10
0.0
 20
22.0
 30
0.0
 11
92.12121212121223
 21
22.0
 31
0.0
  0
LINE
  5
7D76
330
18
100
AcDbEntity
  8
frame
100
AcDbLine
 10
0.0
 20
32.0
 30
0.0
 11
190.0
 21
32.0
 31
0.0
  0
LINE
  5
7D77
330
18
100
AcDbEntity
  8
frame
100
AcDbLine
 10
12.19077332493799
 20
32.0
 30
0.0
 11
12.19077332493799
 21
12.0
 31
0.0
  0
LINE
  5
7D78
330
18
100
AcDbEntity
  8
frame
100
AcDbLine
 10
30.70707070707067
 20
32.0
 30
0.0
 11
30.70707070707078
 21
12.0
 31
0.0
  0
MTEXT
  5
7D79
330
18
100
AcDbEntity
  8
0
100
AcDbMText
 10
2.830274784221955
 20
29.08190089582831
 30
0.0
 40
4.5
 41
0.0
 71
     1
 72
     5
  1
\Ftxt.shx,bigfont.shx|c128;日 付
  7
JL
 73
     1
 44
1.0
  0
MTEXT
  5
7D7A
330
18
100
AcDbEntity
  8
0
100
AcDbMText
 10
2.97063307743889
 20
19.52163842926637
 30
0.0
 40
4.5
 41
0.0
 71
     1
 72
     5
  1
\Ftxt.shx,bigfont.shx|c128;製 図
  7
JL
 73
     1
 44
1.0
  0
LINE
  5
7D7B
330
18
100
AcDbEntity
  8
0
 62
     7
370
    25
100
AcDbLine
 10
53.04580144287854
 20
23.81984609294597
 30
0.0
 11
53.04580144287854
 21
28.93622339589922
 31
0.0
  0
MTEXT
  5
7D7C
330
18
100
AcDbEntity
  8
0
100
AcDbMText
 10
64.00748852490835
 20
29.12242703792379
 30
0.0
 40
4.5
 41
0.0
 71
     1
 72
     5
  1
\Ftxt.shx,bigfont.shx|c128;尺 度
  7
JL
 73
     1
 44
1.0
  0
LINE
  5
7D7D
330
18
100
AcDbEntity
  8
frame
100
AcDbLine
 10
61.41414141414145
 20
32.0
 30
0.0
 11
61.41414141414145
 21
12.0
 31
0.0
  0
LINE
  5
7D7E
330
18
100
AcDbEntity
  8
0
 62
     7
370
    25
100
AcDbLine
 10
39.6153110226262
 20
23.18889018332635
 30
0.0
 11
39.6153110226262
 21
29.36457992429672
 31
0.0
  0
CIRCLE
  5
7D7F
330
18
100
AcDbEntity
  8
0
 62
     7
100
AcDbCircle
 10
39.6153110226262
 20
26.37803474442251
 30
0.0
 40
2.558188651476678
  0
LINE
  5
7D80
330
18
100
AcDbEntity
  8
0
 62
     7
370
    25
100
AcDbLine
 10
47.19321986919976
 20
26.37803474442262
 30
0.0
 11
53.50512581624241
 21
26.37803474442262
 31
0.0
  0
LINE
  5
7D81
330
18
100
AcDbEntity
  8
0
 62
     7
100
AcDbLine
 10
47.92942413992534
 20
25.09894041868427
 30
0.0
 11
53.04580144287854
 21
23.81984609294597
 31
0.0
  0
LINE
  5
7D82
330
18
100
AcDbEntity
  8
frame
100
AcDbLine
 10
42.742241959951
 20
22.0
 30
0.0
 11
42.742241959951
 21
12.0
 31
0.0
  0
LINE
  5
7D83
330
18
100
AcDbEntity
  8
0
 62
     7
370
    25
100
AcDbLine
 10
36.41832228486612
 20
26.37803474442251
 30
0.0
 11
43.00325267619268
 21
26.37803474442262
 31
0.0
  0
CIRCLE
  5
7D84
330
18
100
AcDbEntity
  8
0
 62
     7
100
AcDbCircle
 10
39.6153110226262
 20
26.37803474442251
 30
0.0
 40
1.279094325738339
  0
MTEXT
  5
7D85
330
18
100
AcDbEntity
  8
0
100
AcDbMText
 10
33.70184032462407
 20
19.41013815785266
 30
0.0
 40
4.5
 41
0.0
 71
     1
 72
     5
  1
\Ftxt.shx,bigfont.shx|c128;検 図
  7
JL
 73
     1
 44
1.0
  0
LINE
  5
7D86
330
18
100
AcDbEntity
  8
0
 62
     7
370
    25
100
AcDbLine
 10
47.92942413992534
 20
25.09894041868427
 30
0.0
 11
47.92942413992534
 21
27.65712907016086
 31
0.0
  0
MTEXT
  5
7D87
330
18
100
AcDbEntity
  8
0
100
AcDbMText
 10
64.28820249919829
 20
19.32058534748881
 30
0.0
 40
4.5
 41
0.0
 71
     1
 72
     5
  1
\Ftxt.shx,bigfont.shx|c128;承 認
  7
JL
 73
     1
 44
1.0
  0
MTEXT
  5
7D88
330
18
100
AcDbEntity
  8
0
100
AcDbMText
 10
93.71128715606699
 20
10.7026821961914
 30
0.0
 40
4.5
 41
0.0
 71
     1
 72
     5
  1
\Ftxt.shx,bigfont.shx|c128;図  面  番  号
  7
JL
 73
     1
 44
1.0
  0
MTEXT
  5
7D89
330
18
100
AcDbEntity
  8
0
 48
2.0
100
AcDbMText
 10
116.9038190021384
 20
21.8757473149584
 30
0.0
 40
4.5
 41
0.0
 71
     5
 72
     1
  1
\P\Ftxt.shx,bigfont.shx|c128;    精密ロックナット
 73
     1
 44
1.0
  0
MTEXT
  5
7D8A
330
18
100
AcDbEntity
  8
0
100
AcDbMText
 10
94.8083613031232
 20
29.03862457973275
 30
0.0
 40
4.5
 41
0.0
 71
     1
 72
     5
  1
\Ftxt.shx,bigfont.shx|c128;品  名
  7
JL
 73
     1
 44
1.0
  0
LINE
  5
7D8B
330
18
100
AcDbEntity
  8
frame
100
AcDbLine
 10
92.12121212121223
 20
32.0
 30
0.0
 11
92.12121212121223
 21
0.1833227579584786
 31
0.0
  0
LINE
  5
7D8C
330
18
100
AcDbEntity
  8
frame
100
AcDbLine
 10
73.41414141414145
 20
32.0
 30
0.0
 11
73.41414141414145
 21
12.0
 31
0.0
  0
LINE
  5
7D8D
330
18
100
AcDbEntity
  8
frame
100
AcDbLine
 10
147.0327092740656
 20
32.0
 30
0.0
 11
147.0327092740657
 21
12.0
 31
0.0
  0
MTEXT
  5
7D8E
330
18
100
AcDbEntity
  8
0
100
AcDbMText
 10
150.895959446773
 20
29.04517782830391
 30
0.0
 40
4.5
 41
0.0
 71
     1
 72
     5
  1
\Ftxt.shx,bigfont.shx|c128;型  番
  7
JL
 73
     1
 44
1.0
  0
MTEXT
  5
7D8F
330
18
100
AcDbEntity
  8
0
100
AcDbMText
 10
165.8059614810325
 20
10.78298174971564
 30
0.0
 40
4.5
 41
0.0
 71
     1
 72
     5
  1
\Ftxt.shx,bigfont.shx|c128;変更
  7
JL
 73
     1
 44
1.0
  0
LINE
  5
7D90
330
18
100
AcDbEntity
  8
frame
100
AcDbLine
 10
164.0909090909092
 20
12.00000000000005
 30
0.0
 11
164.0909090909093
 21
0.0
 31
0.0
  0
LINE
  5
7D91
330
18
100
AcDbEntity
  8
frame
100
AcDbLine
 10
124.6157900786393
 20
43.13491348924492
 30
0.0
 11
184.6157900786393
 21
43.13491348924481
 31
0.0
  0
LINE
  5
7D92
330
18
100
AcDbEntity
  8
frame
100
AcDbLine
 10
124.6157900786393
 20
50.33491348924497
 30
0.0
 11
184.6157900786393
 21
50.33491348924497
 31
0.0
  0
LINE
  5
7D93
330
18
100
AcDbEntity
  8
frame
100
AcDbLine
 10
124.6157900786393
 20
57.5349134892449
 30
0.0
 11
184.6157900786393
 21
57.53491348924478
 31
0.0
  0
LINE
  5
7D94
330
18
100
AcDbEntity
  8
frame
100
AcDbLine
 10
124.6157900786393
 20
64.73491348924494
 30
0.0
 11
184.6157900786393
 21
64.73491348924483
 31
0.0
  0
LINE
  5
7D95
330
18
100
AcDbEntity
  8
frame
100
AcDbLine
 10
124.6157900786393
 20
35.93491348924488
 30
0.0
 11
184.6157900786393
 21
35.93491348924488
 31
0.0
  0
MTEXT
  5
7D96
330
18
100
AcDbEntity
  8
0
 62
     7
 48
2.0
100
AcDbMText
 10
154.5011900445106
 20
65.52808189982909
 30
0.0
 40
4.8
 41
0.0
 71
     5
 72
     1
  1
\P\Ftxt.shx,bigfont.shx|c128;諸　　　　元
 73
     1
 44
1.0
  0
LINE
  5
7D97
330
18
100
AcDbEntity
  8
frame
100
AcDbLine
 10
124.6157900786393
 20
64.73491348924483
 30
0.0
 11
124.6157900786393
 21
35.93491348924488
 31
0.0
  0
MTEXT
  5
7D98
330
18
100
AcDbEntity
  8
0
100
AcDbMText
 10
128.1382258923195
 20
56.00840432212407
 30
0.0
 40
4.4
 41
163.916286842249
 71
     1
 72
     5
  1
\Ftxt.shx,bigfont.shx|c128;熱　処　理
  7
JL
 73
     1
 44
1.0
  0
LINE
  5
7D99
330
18
100
AcDbEntity
  8
frame
100
AcDbLine
 10
148.6157900786393
 20
57.53491348924478
 30
0.0
 11
148.6157900786393
 21
35.93491348924488
 31
0.0
  0
MTEXT
  5
7D9A
330
18
100
AcDbEntity
  8
0
100
AcDbMText
 10
127.8579515249403
 20
49.00617587486397
 30
0.0
 40
4.4
 41
163.6058628849672
 71
     1
 72
     5
  1
\Ftxt.shx,bigfont.shx|c128;表 面 処 理
  7
JL
 73
     1
 44
1.0
  0
MTEXT
  5
7D9B
330
18
100
AcDbEntity
  8
0
100
AcDbMText
 10
128.1480173733753
 20
41.71770302125605
 30
0.0
 40
4.4
 41
166.1718
 71
     1
 72
     5
  1
\Ftxt.shx,bigfont.shx|c128;等     　級
  7
JL
 73
     1
 44
1.0
  0
LINE
  5
7D9C
330
18
100
AcDbEntity
  8
frame
100
AcDbLine
 10
184.6157900786393
 20
64.73491348924483
 30
0.0
 11
184.6157900786393
 21
35.93491348924499
 31
0.0
  0
MTEXT
  5
7D9D
330
18
100
AcDbEntity
  8
0
100
AcDbMText
 10
153.3627933880818
 20
55.83344641471445
 30
0.0
 40
4.4
 41
291.8960056857887
 71
     1
 72
     5
  1
\Ftxt.shx,bigfont.shx|c128;調質　HRC30%%d%%p２%%d
  7
JL
 73
     1
 44
1.0
  0
MTEXT
  5
7D9E
330
18
100
AcDbEntity
  8
0
100
AcDbMText
 10
153.6234323895182
 20
41.7183135927072
 30
0.0
 40
4.4
 41
290.783364796891
 71
     1
 72
     5
  1
\Ftxt.shx,bigfont.shx|c128;ＩＳＯ - ４Ｈ
  7
JL
 73
     1
 44
1.0
  0
MTEXT
  5
7D9F
330
18
100
AcDbEntity
  8
0
100
AcDbMText
 10
153.7978935876485
 20
48.65328293790913
 30
0.0
 40
4.4
 41
291.4548
 71
     1
 72
     5
  1
\Ftxt.shx,bigfont.shx|c128;黒  　    染
  7
JL
 73
     1
 44
1.0
  0
MTEXT
  5
7DA0
330
18
100
AcDbEntity
  8
0
100
AcDbMText
 10
57.63639061334425
 20
260.9000583279474
 30
0.0
 40
5.0
 41
0.0
 71
     1
 72
     5
  1
\Ftxt.shx,bigfont.shx|c128;M6X1.0P-6L
  7
JL
 73
     1
 44
1.0
  0
MTEXT
  5
7DA1
330
18
100
AcDbEntity
  8
0
100
AcDbMText
 10
57.63639061334425
 20
252.5660350862716
 30
0.0
 40
5.0
 41
0.0
 71
     1
 72
     5
  1
{\Ftxt,bigfont|c128;%%C5.2X5L}
  7
JL
 73
     1
 44
1.0
1001
ACAD
1000
ACAD_MTEXT_DEFINED_HEIGHT_BEGIN
1070
    46
1040
0.0
1000
ACAD_MTEXT_DEFINED_HEIGHT_END
  0
LINE
  5
7DA2
330
18
100
AcDbEntity
  8
frame
100
AcDbLine
 10
0.0
 20
254.0
 30
0.0
 11
190.0
 21
254.0
 31
0.0
  0
LINE
  5
7DA3
330
18
100
AcDbEntity
  8
frame
100
AcDbLine
 10
0.0
 20
262.0
 30
0.0
 11
190.0
 21
262.0
 31
0.0
  0
LINE
  5
7DA4
330
18
100
AcDbEntity
  8
frame
 62
     9
100
AcDbLine
 10
0.0
 20
270.0
 30
0.0
 11
190.0
 21
270.0
 31
0.0
  0
MTEXT
  5
7DA5
330
18
100
AcDbEntity
  8
0
100
AcDbMText
 10
57.0156439060371
 20
277.4240560049041
 30
0.0
 40
5.0
 41
0.0
 71
     1
 72
     5
  1
\Ftxt.shx,bigfont.shx|c128;図    番 / 規　　格
  7
JL
 73
     1
 44
1.0
  0
LINE
  5
7DA6
330
18
100
AcDbEntity
  8
frame
100
AcDbLine
 10
0.0
 20
254.0
 30
0.0
 11
190.0
 21
254.0
 31
0.0
  0
LINE
  5
7DA7
330
18
100
AcDbEntity
  8
frame
100
AcDbLine
 10
0.0
 20
245.8933909875332
 30
0.0
 11
190.0
 21
245.8933909875332
 31
0.0
  0
MTEXT
  5
7DA8
330
18
100
AcDbEntity
  8
0
100
AcDbMText
 10
21.12488048923433
 20
277.4637981386743
 30
0.0
 40
5.0
 41
0.0
 71
     1
 72
     5
  1
\Ftxt.shx,bigfont.shx|c128;品　          名
  7
JL
 73
     1
 44
1.0
  0
MTEXT
  5
7DA9
330
18
100
AcDbEntity
  8
0
100
AcDbMText
 10
18.10281387110132
 20
260.7907237289111
 30
0.0
 40
5.0
 41
0.0
 71
     1
 72
     5
  1
\Ftxt.shx,bigfont.shx|c128;セットスクリュ-
  7
JL
 73
     1
 44
1.0
  0
MTEXT
  5
7DAA
330
18
100
AcDbEntity
  8
0
100
AcDbMText
 10
17.91509480863158
 20
268.8361230282964
 30
0.0
 40
5.0
 41
0.0
 71
     1
 72
     5
  1
\Ftxt.shx,bigfont.shx|c128;ロックナット　  
  7
JL
 73
     1
 44
1.0
  0
MTEXT
  5
7DAB
330
18
100
AcDbEntity
  8
0
100
AcDbMText
 10
18.10281387110132
 20
252.8510545014035
 30
0.0
 40
5.0
 41
0.0
 71
     1
 72
     5
  1
\Ftxt.shx,bigfont.shx|c128;ロックピン 
  7
JL
 73
     1
 44
1.0
  0
LINE
  5
7DAC
330
18
100
AcDbEntity
  8
frame
 62
     9
100
AcDbLine
 10
14.39393939393937
 20
279.9999999999999
 30
0.0
 11
14.39393939393972
 21
245.8933909875332
 31
0.0
  0
LINE
  5
7DAD
330
18
100
AcDbEntity
  8
frame
 62
     9
100
AcDbLine
 10
14.39393939393937
 20
279.9999999999999
 30
0.0
 11
14.39393939393937
 21
255.0505050505051
 31
0.0
  0
MTEXT
  5
7DAE
330
18
100
AcDbEntity
  8
0
100
AcDbMText
 10
6.815009268013795
 20
268.7281674434121
 30
0.0
 40
5.0
 41
0.0
 71
     1
 72
     5
  1
\Ftxt.shx,bigfont.shx|c128;1
  7
JL
 73
     1
 44
1.0
  0
MTEXT
  5
7DAF
330
18
100
AcDbEntity
  8
0
100
AcDbMText
 10
2.119828072980226
 20
277.4734782639491
 30
0.0
 40
5.0
 41
0.0
 71
     1
 72
     5
  1
\Ftxt.shx,bigfont.shx|c128;照   号
  7
JL
 73
     1
 44
1.0
  0
LINE
  5
7DB0
330
18
100
AcDbEntity
  8
frame
 62
     9
100
AcDbLine
 10
52.77777777777783
 20
279.9999999999999
 30
0.0
 11
52.77777777777783
 21
245.8933909875332
 31
0.0
  0
MTEXT
  5
7DB1
330
18
100
AcDbEntity
  8
0
100
AcDbMText
 10
145.5736374372851
 20
277.6781663894194
 30
0.0
 40
5.0
 41
0.0
 71
     1
 72
     5
  1
\Ftxt.shx,bigfont.shx|c128;備           考
  7
JL
 73
     1
 44
1.0
  0
LINE
  5
7DB2
330
18
100
AcDbEntity
  8
frame
 62
     9
100
AcDbLine
 10
91.16161616161617
 20
280.0
 30
0.0
 11
91.16161616161617
 21
245.8933909875332
 31
0.0
  0
MTEXT
  5
7DB3
330
18
100
AcDbEntity
  8
0
100
AcDbMText
 10
92.87341089179369
 20
252.4309794461317
 30
0.0
 40
5.0
 41
0.0
 71
     1
 72
     5
  1
\Ftxt.shx,bigfont.shx|c128;C3604
  7
JL
 73
     1
 44
1.0
  0
MTEXT
  5
7DB4
330
18
100
AcDbEntity
  8
0
100
AcDbMText
 10
92.87341089179369
 20
268.8361230282964
 30
0.0
 40
5.0
 41
0.0
 71
     1
 72
     5
  1
\Ftxt.shx,bigfont.shx|c128;SCM-440
  7
JL
 73
     1
 44
1.0
  0
MTEXT
  5
7DB5
330
18
100
AcDbEntity
  8
0
100
AcDbMText
 10
92.87341089179369
 20
260.765002012584
 30
0.0
 40
5.0
 41
0.0
 71
     1
 72
     5
  1
\Ftxt.shx,bigfont.shx|c128;SCM435
  7
JL
 73
     1
 44
1.0
  0
MTEXT
  5
7DB6
330
18
100
AcDbEntity
  8
0
100
AcDbMText
 10
95.76798863104192
 20
277.5645499482919
 30
0.0
 40
5.0
 41
0.0
 71
     1
 72
     5
  1
\Ftxt.shx,bigfont.shx|c128;材　質
  7
JL
 73
     1
 44
1.0
  0
LINE
  5
7DB7
330
18
100
AcDbEntity
  8
frame
 62
     9
100
AcDbLine
 10
110.3535353535354
 20
280.0
 30
0.0
 11
110.3535353535354
 21
245.8933909875332
 31
0.0
  0
LINE
  5
7DB8
330
18
100
AcDbEntity
  8
frame
100
AcDbLine
 10
124.7474747474747
 20
280.0
 30
0.0
 11
124.7474747474748
 21
245.8933909875332
 31
0.0
  0
MTEXT
  5
7DB9
330
18
100
AcDbEntity
  8
0
100
AcDbMText
 10
116.5939070266884
 20
252.4642985589993
 30
0.0
 40
5.0
 41
0.0
 71
     1
 72
     5
  1
\Ftxt.shx,bigfont.shx|c128;3
  7
JL
 73
     1
 44
1.0
  0
MTEXT
  5
7DBA
330
18
100
AcDbEntity
  8
0
100
AcDbMText
 10
117.1685446215491
 20
269.0412711679932
 30
0.0
 40
5.0
 41
0.0
 71
     1
 72
     5
  1
\Ftxt.shx,bigfont.shx|c128;1
  7
JL
 73
     1
 44
1.0
  0
MTEXT
  5
7DBB
330
18
100
AcDbEntity
  8
0
100
AcDbMText
 10
116.5939070266884
 20
260.5092290150679
 30
0.0
 40
5.0
 41
0.0
 71
     1
 72
     5
  1
\Ftxt.shx,bigfont.shx|c128;3
  7
JL
 73
     1
 44
1.0
  0
MTEXT
  5
7DBC
330
18
100
AcDbEntity
  8
0
100
AcDbMText
 10
112.4223895919262
 20
277.5645499482919
 30
0.0
 40
5.0
 41
0.0
 71
     1
 72
     5
  1
\Ftxt.shx,bigfont.shx|c128;数   量
  7
JL
 73
     1
 44
1.0
  0
MTEXT
  5
7DBD
330
18
100
AcDbEntity
  8
0
100
AcDbMText
 10
6.404019699055993
 20
260.7281674434121
 30
0.0
 40
5.0
 41
0.0
 71
     1
 72
     5
  1
{\Ftxt,bigfont|c128;2}
  7
JL
 73
     1
 44
1.0
1001
ACAD
1000
ACAD_MTEXT_DEFINED_HEIGHT_BEGIN
1070
    46
1040
0.0
1000
ACAD_MTEXT_DEFINED_HEIGHT_END
  0
MTEXT
  5
7DBE
330
18
100
AcDbEntity
  8
0
100
AcDbMText
 10
6.404019699055993
 20
252.6215584309452
 30
0.0
 40
5.0
 41
0.0
 71
     1
 72
     5
  1
{\Ftxt,bigfont|c128;3}
  7
JL
 73
     1
 44
1.0
1001
ACAD
1000
ACAD_MTEXT_DEFINED_HEIGHT_BEGIN
1070
    46
1040
0.0
1000
ACAD_MTEXT_DEFINED_HEIGHT_END
  0
ARC
  5
7EF7
330
18
100
AcDbEntity
  8
contour
100
AcDbCircle
 10
95.0
 20
188.2725564325757
 30
0.0
 40
32.5
100
AcDbArc
 50
185.2963809118534
 51
294.7036190881479
  0
CIRCLE
  5
7EF8
330
18
100
AcDbEntity
  8
contour
100
AcDbCircle
 10
95.0
 20
188.2725564325757
 30
0.0
 40
29.5
  0
ARC
  5
7EF9
330
18
100
AcDbEntity
  8
contour
 62
     4
100
AcDbCircle
 10
95.0
 20
188.2725564325757
 30
0.0
 40
22.5
100
AcDbArc
 50
174.9003110857818
 51
95.09968891421641
  0
CIRCLE
  5
7EFB
330
18
100
AcDbEntity
  8
contour
100
AcDbCircle
 10
95.0
 20
188.2725564325757
 30
0.0
 40
21.688
  0
LINE
  5
7EFD
330
18
100
AcDbEntity
  8
center
 48
0.3
100
AcDbLine
 10
61.5
 20
188.2725564325757
 30
0.0
 11
128.5
 21
188.2725564325757
 31
0.0
  0
LINE
  5
7EFE
330
18
100
AcDbEntity
  8
center
 48
0.3
100
AcDbLine
 10
95.0
 20
221.7725564325757
 30
0.0
 11
95.0
 21
154.7725564325757
 31
0.0
  0
LINE
  5
7EFF
330
18
100
AcDbEntity
  8
contour
100
AcDbLine
 10
62.63875774943119
 20
191.2725564325757
 30
0.0
 11
65.13875774943119
 21
191.2725564325757
 31
0.0
  0
LINE
  5
7F00
330
18
100
AcDbEntity
  8
contour
100
AcDbLine
 10
62.63875774943119
 20
185.2725564325757
 30
0.0
 11
65.13875774943119
 21
185.2725564325757
 31
0.0
  0
LINE
  5
7F01
330
18
100
AcDbEntity
  8
contour
100
AcDbLine
 10
65.13875774943119
 20
191.2725564325757
 30
0.0
 11
65.13875774943119
 21
185.2725564325757
 31
0.0
  0
LINE
  5
7F02
330
18
100
AcDbEntity
  8
contour
100
AcDbLine
 10
113.7786973366377
 20
161.7468985455607
 30
0.0
 11
112.5286973366376
 21
163.9119620550218
 31
0.0
  0
LINE
  5
7F03
330
18
100
AcDbEntity
  8
contour
100
AcDbLine
 10
108.5825449139311
 20
158.7468985455607
 30
0.0
 11
107.3325449139311
 21
160.9119620550218
 31
0.0
  0
LINE
  5
7F04
330
18
100
AcDbEntity
  8
contour
100
AcDbLine
 10
107.3325449139311
 20
160.9119620550218
 30
0.0
 11
112.5286973366377
 21
163.9119620550218
 31
0.0
  0
LINE
  5
7F05
330
18
100
AcDbEntity
  8
contour
100
AcDbLine
 10
108.5825449139312
 20
217.7982143195905
 30
0.0
 11
107.3325449139312
 21
215.6331508101295
 31
0.0
  0
LINE
  5
7F06
330
18
100
AcDbEntity
  8
contour
100
AcDbLine
 10
113.7786973366378
 20
214.7982143195906
 30
0.0
 11
112.5286973366378
 21
212.6331508101294
 31
0.0
  0
LINE
  5
7F07
330
18
100
AcDbEntity
  8
contour
100
AcDbLine
 10
112.5286973366378
 20
212.6331508101294
 30
0.0
 11
107.3325449139312
 21
215.6331508101295
 31
0.0
  0
LINE
  5
7F08
330
18
100
AcDbEntity
  8
bowle
 48
0.2
100
AcDbLine
 10
116.4795098640541
 20
185.2725564325756
 30
0.0
 11
127.3612422505688
 21
185.2725564325756
 31
0.0
  0
LINE
  5
7F09
330
18
100
AcDbEntity
  8
bowle
 48
0.2
100
AcDbLine
 10
116.4795098640542
 20
191.2725564325756
 30
0.0
 11
127.3612422505688
 21
191.2725564325756
 31
0.0
  0
LINE
  5
7F0A
330
18
100
AcDbEntity
  8
bowle
 48
0.2
100
AcDbLine
 10
116.548033413748
 20
190.7325564325757
 30
0.0
 11
127.4067647259025
 21
190.7325564325757
 31
0.0
  0
LINE
  5
7F0B
330
18
100
AcDbEntity
  8
bowle
 48
0.2
100
AcDbLine
 10
116.548033413748
 20
185.8125564325754
 30
0.0
 11
127.4067647259025
 21
185.8125564325754
 31
0.0
  0
CIRCLE
  5
7F0C
330
18
100
AcDbEntity
  8
contour
100
AcDbCircle
 10
95.0
 20
188.2725564325757
 30
0.0
 40
23.0
  0
ARC
  5
7F0D
330
18
100
AcDbEntity
  8
contour
100
AcDbCircle
 10
95.0
 20
188.2725564325757
 30
0.0
 40
32.5
100
AcDbArc
 50
65.29638091185211
 51
174.7036190881465
  0
ARC
  5
7F0E
330
18
100
AcDbEntity
  8
contour
100
AcDbCircle
 10
95.0
 20
188.2725564325757
 30
0.0
 40
32.5
100
AcDbArc
 50
305.2963809118511
 51
54.70361908814894
  0
LINE
  5
7F10
330
18
100
AcDbEntity
  8
contour
100
AcDbLine
 10
124.5
 20
105.9666005508518
 30
0.0
 11
65.5
 21
105.9666005508518
 31
0.0
  0
LINE
  5
7F11
330
18
100
AcDbEntity
  8
contour
100
AcDbLine
 10
62.5
 20
103.9666005508518
 30
0.0
 11
62.5
 21
93.4666005508518
 31
0.0
  0
LINE
  5
7F12
330
18
100
AcDbEntity
  8
contour
100
AcDbLine
 10
64.0
 20
91.9666005508518
 30
0.0
 11
126.0
 21
91.9666005508518
 31
0.0
  0
LINE
  5
7F13
330
18
100
AcDbEntity
  8
contour
100
AcDbLine
 10
127.5
 20
93.4666005508518
 30
0.0
 11
127.5
 21
103.9666005508518
 31
0.0
  0
LINE
  5
7F15
330
18
100
AcDbEntity
  8
contour
100
AcDbLine
 10
65.5
 20
105.9666005508518
 30
0.0
 11
65.5
 21
105.4666005508518
 31
0.0
  0
LINE
  5
7F16
330
18
100
AcDbEntity
  8
contour
100
AcDbLine
 10
65.5
 20
105.4666005508518
 30
0.0
 11
64.0
 21
105.4666005508518
 31
0.0
  0
LINE
  5
7F17
330
18
100
AcDbEntity
  8
contour
100
AcDbLine
 10
124.5
 20
105.9666005508518
 30
0.0
 11
124.5
 21
105.4666005508518
 31
0.0
  0
LINE
  5
7F18
330
18
100
AcDbEntity
  8
contour
100
AcDbLine
 10
124.5
 20
105.4666005508518
 30
0.0
 11
126.0
 21
105.4666005508518
 31
0.0
  0
ARC
  5
7F19
330
18
100
AcDbEntity
  8
contour
100
AcDbCircle
 10
64.0
 20
103.9666005508518
 30
0.0
 40
1.5
100
AcDbArc
 50
90.0
 51
180.0
  0
ARC
  5
7F1A
330
18
100
AcDbEntity
  8
contour
100
AcDbCircle
 10
126.0
 20
103.9666005508518
 30
0.0
 40
1.5
100
AcDbArc
 50
0.0
 51
90.0
  0
ARC
  5
7F22
330
18
100
AcDbEntity
  8
contour
100
AcDbCircle
 10
64.0
 20
93.4666005508518
 30
0.0
 40
1.5
100
AcDbArc
 50
180.0
 51
270.0
  0
ARC
  5
7F23
330
18
100
AcDbEntity
  8
contour
100
AcDbCircle
 10
126.0
 20
93.4666005508518
 30
0.0
 40
1.5
100
AcDbArc
 50
270.0
 51
0.0
  0
LINE
  5
7F24
330
18
100
AcDbEntity
  8
contour
100
AcDbLine
 10
65.13875774943119
 20
105.4666005508518
 30
0.0
 11
65.13875774943119
 21
91.9666005508518
 31
0.0
  0
LINE
  5
7F29
330
18
100
AcDbEntity
  8
contour
 62
     4
100
AcDbLine
 10
72.5
 20
104.4666005508518
 30
0.0
 11
72.50000000000006
 21
92.6546005508519
 31
0.0
  0
LINE
  5
7F2A
330
18
100
AcDbEntity
  8
contour
100
AcDbLine
 10
73.3119999999999
 20
103.654600550852
 30
0.0
 11
73.31199999999995
 21
93.4666005508518
 31
0.0
  0
LINE
  5
7F2B
330
18
100
AcDbEntity
  8
contour
100
AcDbLine
 10
71.81199999999996
 20
91.9666005508518
 30
0.0
 11
73.31199999999995
 21
93.4666005508518
 31
0.0
  0
LINE
  5
7F2D
330
18
100
AcDbEntity
  8
contour
100
AcDbLine
 10
72.0
 20
105.9666005508518
 30
0.0
 11
72.0
 21
104.9666005508518
 31
0.0
  0
LINE
  5
7F2E
330
18
100
AcDbEntity
  8
contour
100
AcDbLine
 10
72.0
 20
104.9666005508518
 30
0.0
 11
73.31199999999995
 21
103.654600550852
 31
0.0
  0
LINE
  5
7F2F
330
18
100
AcDbEntity
  8
contour
 62
     4
100
AcDbLine
 10
117.5
 20
104.4666005508518
 30
0.0
 11
117.5
 21
101.9666005508518
 31
0.0
  0
LINE
  5
7F30
330
18
100
AcDbEntity
  8
contour
100
AcDbLine
 10
116.6880000000001
 20
103.654600550852
 30
0.0
 11
116.688
 21
93.4666005508518
 31
0.0
  0
LINE
  5
7F31
330
18
100
AcDbEntity
  8
contour
100
AcDbLine
 10
118.188
 20
91.9666005508518
 30
0.0
 11
116.688
 21
93.4666005508518
 31
0.0
  0
LINE
  5
7F32
330
18
100
AcDbEntity
  8
contour
100
AcDbLine
 10
118.0
 20
105.9666005508518
 30
0.0
 11
118.0
 21
104.9666005508518
 31
0.0
  0
LINE
  5
7F33
330
18
100
AcDbEntity
  8
contour
100
AcDbLine
 10
118.0
 20
104.9666005508518
 30
0.0
 11
116.688
 21
103.654600550852
 31
0.0
  0
LINE
  5
7F34
330
18
100
AcDbEntity
  8
contour
100
AcDbLine
 10
73.31199999999995
 20
93.4666005508518
 30
0.0
 11
116.688
 21
93.46660055085152
 31
0.0
  0
LINE
  5
7F35
330
18
100
AcDbEntity
  8
contour
100
AcDbLine
 10
73.31199999999995
 20
103.654600550852
 30
0.0
 11
116.6880000000001
 21
103.6546005508518
 31
0.0
  0
LINE
  5
7F36
330
18
100
AcDbEntity
  8
contour
100
AcDbLine
 10
72.0
 20
104.9666005508518
 30
0.0
 11
118.0
 21
104.9666005508518
 31
0.0
  0
LINE
  5
7F37
330
18
100
AcDbEntity
  8
center
 48
0.3
100
AcDbLine
 10
95.0
 20
106.9666005508518
 30
0.0
 11
95.0
 21
90.9666005508518
 31
0.0
  0
LINE
  5
7F38
330
18
100
AcDbEntity
  8
bowle
 48
0.2
100
AcDbLine
 10
86.85832127932632
 20
208.374357635685
 30
0.0
 11
81.41745508606902
 21
217.7982143195905
 31
0.0
  0
LINE
  5
7F39
330
18
100
AcDbEntity
  8
bowle
 48
0.2
100
AcDbLine
 10
81.6621688566197
 20
205.374357635685
 30
0.0
 11
76.22130266336239
 21
214.7982143195906
 31
0.0
  0
LINE
  5
7F3A
330
18
100
AcDbEntity
  8
bowle
 48
0.2
100
AcDbLine
 10
82.09556079981622
 20
205.7037007704772
 30
0.0
 11
76.66619514373895
 21
215.1076379396726
 31
0.0
  0
LINE
  5
7F3B
330
18
100
AcDbEntity
  8
bowle
 48
0.2
100
AcDbLine
 10
86.35640578643597
 20
208.1637007704773
 30
0.0
 11
80.9270401303587
 21
217.5676379396727
 31
0.0
  0
LINE
  5
7F3C
330
18
100
AcDbEntity
  8
bowle
 48
0.2
100
AcDbLine
 10
81.66216885661958
 20
171.1707552294664
 30
0.0
 11
76.22130266336228
 21
161.7468985455608
 31
0.0
  0
LINE
  5
7F3D
330
18
100
AcDbEntity
  8
bowle
 48
0.2
100
AcDbLine
 10
86.85832127932622
 20
168.1707552294663
 30
0.0
 11
81.41745508606891
 21
158.7468985455608
 31
0.0
  0
LINE
  5
7F3E
330
18
100
AcDbEntity
  8
bowle
 48
0.2
100
AcDbLine
 10
86.35640578643586
 20
168.381412094674
 30
0.0
 11
80.92704013035859
 21
158.9774749254786
 31
0.0
  0
LINE
  5
7F3F
330
18
100
AcDbEntity
  8
bowle
 48
0.2
100
AcDbLine
 10
82.09556079981609
 20
170.8414120946741
 30
0.0
 11
76.66619514373883
 21
161.4374749254788
 31
0.0
  0
LINE
  5
7F42
330
18
100
AcDbEntity
  8
center
 48
0.2
100
AcDbLine
 10
84.656
 20
206.1888899860682
 30
0.0
 11
78.25000000000006
 21
217.2844074593544
 31
0.0
  0
LINE
  5
7F46
330
18
100
AcDbEntity
  8
center
 48
0.2
100
AcDbLine
 10
84.656
 20
170.3562228790832
 30
0.0
 11
78.25000000000006
 21
159.260705405797
 31
0.0
  0
LWPOLYLINE
  5
8915
330
18
100
AcDbEntity
  8
contour
100
AcDbPolyline
 90
        2
 70
     0
 43
0.0
 10
127.4999999999999
 20
96.50660055085166
 10
127.4999999999999
 20
101.4266005508519
  0
LWPOLYLINE
  5
8916
330
18
100
AcDbEntity
  8
contour
100
AcDbPolyline
 90
        6
 70
     0
 43
0.0
 10
122.9999999999999
 20
101.9666005508518
 10
122.9999999999999
 20
101.9666005508518
 10
121.4999999999999
 20
100.4666005508518
 10
121.4999999999999
 20
97.46660055085181
 10
122.9999999999999
 20
95.9666005508518
 10
122.9999999999999
 20
95.9666005508518
  0
LINE
  5
8917
330
18
100
AcDbEntity
  8
contour
 62
     4
100
AcDbLine
 10
116.6880000000001
 20
95.96660055085193
 30
0.0
 11
127.5000000000001
 21
95.9666005508518
 31
0.0
  0
LINE
  5
8918
330
18
100
AcDbEntity
  8
contour
 62
     4
100
AcDbLine
 10
116.6880000000001
 20
101.9666005508518
 30
0.0
 11
127.4999999999999
 21
101.9666005508518
 31
0.0
  0
LINE
  5
8919
330
18
100
AcDbEntity
  8
contour
100
AcDbLine
 10
121.4999999999999
 20
101.4266005508519
 30
0.0
 11
122.4600000000001
 21
101.4266005508519
 31
0.0
  0
LINE
  5
891A
330
18
100
AcDbEntity
  8
contour
100
AcDbLine
 10
121.4999999999999
 20
96.50660055085166
 30
0.0
 11
122.4600000000001
 21
96.50660055085166
 31
0.0
  0
LINE
  5
891B
330
18
100
AcDbEntity
  8
contour
100
AcDbLine
 10
122.9999999999999
 20
101.9666005508518
 30
0.0
 11
122.9999999999999
 21
95.9666005508518
 31
0.0
  0
LINE
  5
891C
330
18
100
AcDbEntity
  8
contour
100
AcDbLine
 10
125.4999999999999
 20
100.4666005508518
 30
0.0
 11
127.4999999999999
 21
100.4666005508518
 31
0.0
  0
LINE
  5
891D
330
18
100
AcDbEntity
  8
contour
100
AcDbLine
 10
125.4999999999999
 20
97.46660055085181
 30
0.0
 11
127.4999999999999
 21
97.46660055085181
 31
0.0
  0
LINE
  5
891E
330
18
100
AcDbEntity
  8
contour
100
AcDbLine
 10
125.4999999999999
 20
100.4666005508518
 30
0.0
 11
125.4999999999999
 21
97.46660055085181
 31
0.0
  0
LINE
  5
891F
330
18
100
AcDbEntity
  8
contour
100
AcDbLine
 10
125.4999999999999
 20
100.4666005508518
 30
0.0
 11
124.9993278334879
 21
98.97523117583205
 31
0.0
  0
LINE
  5
8920
330
18
100
AcDbEntity
  8
contour
100
AcDbLine
 10
124.9993278334879
 20
98.97523117583205
 30
0.0
 11
125.4999999999999
 21
97.46660055085181
 31
0.0
  0
LINE
  5
8921
330
18
100
AcDbEntity
  8
contour
 62
     4
100
AcDbLine
 10
122.4600000000001
 20
101.4266005508519
 30
0.0
 11
127.4999999999999
 21
101.4266005508519
 31
0.0
  0
LINE
  5
8922
330
18
100
AcDbEntity
  8
contour
 62
     4
100
AcDbLine
 10
122.4600000000001
 20
96.50660055085166
 30
0.0
 11
127.5
 21
96.50660055085166
 31
0.0
  0
LINE
  5
8923
330
18
100
AcDbEntity
  8
contour
100
AcDbLine
 10
126.5646925639129
 20
101.9666005508518
 30
0.0
 11
127.4999999999999
 21
101.4266005508519
 31
0.0
  0
LINE
  5
8924
330
18
100
AcDbEntity
  8
contour
100
AcDbLine
 10
126.5646925639129
 20
95.9666005508518
 30
0.0
 11
127.4999999999999
 21
96.50660055085166
 31
0.0
  0
LINE
  5
8925
330
18
100
AcDbEntity
  8
contour
100
AcDbLine
 10
126.5646925639129
 20
101.9666005508518
 30
0.0
 11
126.5646925639129
 21
95.9666005508518
 31
0.0
  0
LWPOLYLINE
  5
8926
102
{ACAD_REACTORS
330
8935
102
}
330
18
100
AcDbEntity
  8
contour
100
AcDbPolyline
 90
        4
 70
     1
 43
0.0
 10
116.6880000000001
 20
101.5666005508518
 10
116.688
 20
96.3666005508519
 10
121.4999999999999
 20
96.36660055085179
 10
121.4999999999999
 20
101.5666005508518
  0
LINE
  5
8930
330
18
100
AcDbEntity
  8
contour
 62
     4
100
AcDbLine
 10
117.4999999999999
 20
95.96660055085193
 30
0.0
 11
117.4999999999999
 21
92.6546005508519
 31
0.0
  0
HATCH
  5
8935
330
18
100
AcDbEntity
  8
section
100
AcDbHatch
 10
0.0
 20
0.0
 30
0.0
210
0.0
220
0.0
230
1.0
  2
AR-SAND
 70
     0
 71
     1
 91
        1
 92
        7
 72
     0
 73
     1
 93
        4
 10
121.4999999999999
 20
101.5666005508518
 10
116.6880000000001
 20
101.5666005508518
 10
116.688
 20
96.3666005508519
 10
121.4999999999999
 20
96.36660055085179
 97
        1
330
8926
 75
     0
 76
     1
 52
0.0
 41
0.02
 77
     0
 78
     4
 53
37.5
 43
-171.5302176824713
 44
-24.82198846127722
 45
-0.0320006259196809
 46
0.9788264746586847
 79
     6
 49
0.0
 49
-0.7721600000000001
 49
0.0
 49
-0.8636000000000001
 49
0.0
 49
-0.8255
 53
7.499999999999999
 43
-171.5302176824713
 44
-24.82198846127722
 45
0.8990465662760053
 46
1.433650201136708
 79
     6
 49
0.0
 49
-0.4165600000000001
 49
0.0
 49
-0.69596
 49
0.0
 49
-0.2667000000000001
 53
327.5
 43
-172.1550576824713
 44
-24.82198846127722
 45
1.581984740482915
 46
0.0028743693570914
 79
     6
 49
0.0
 49
-0.254
 49
0.0
 49
-0.9144
 49
0.0
 49
-1.193799999999999
 53
317.5
 43
-172.1550576824713
 44
-24.82198846127722
 45
1.527112904944594
 46
0.4458586465144325
 79
     6
 49
0.0
 49
-0.127
 49
0.0
 49
-0.59944
 49
0.0
 49
-0.6858
 47
0.039610355336045
 98
        1
 10
119.944412275733
 20
99.35820444058117
1001
ACAD
1010
0.0
1020
0.0
1030
0.0
  0
LINE
  5
8937
330
18
100
AcDbEntity
  8
center
 48
0.2
100
AcDbLine
 10
128.4999999999999
 20
98.96660055085181
 30
0.0
 11
115.688
 21
98.96660055085176
 31
0.0
  0
DIMENSION
  5
893A
330
18
100
AcDbEntity
  8
mark
100
AcDbDimension
  2
*D3
 10
55.83454196305376
 20
191.2725564325757
 30
0.0
 11
53.78454196305374
 21
188.2725564325757
 31
0.0
 70
    32
 71
     5
 42
6.0
  3
STANDARD
100
AcDbAlignedDimension
 13
62.63875774943119
 23
185.2725564325757
 33
0.0
 14
62.63875774943119
 24
191.2725564325757
 34
0.0
 50
90.0
100
AcDbRotatedDimension
  0
MTEXT
  5
8949
330
18
100
AcDbEntity
  8
mark
 62
     3
100
AcDbMText
 10
51.42541289029589
 20
189.7482501057699
 30
0.0
 40
1.25
 41
0.0
 71
     1
 72
     1
  1
+0.15\P+0
 11
0.0000000000000001
 21
1.0
 31
0.0
 73
     1
 44
1.0
1001
ACAD
1000
ACAD_MTEXT_DEFINED_HEIGHT_BEGIN
1070
    46
1040
0.0
1000
ACAD_MTEXT_DEFINED_HEIGHT_END
  0
MTEXT
  5
894A
330
18
100
AcDbEntity
  8
mark
 62
     3
100
AcDbMText
 10
52.25874622362915
 20
195.0086471028557
 30
0.0
 40
2.5
 41
0.0
 71
     1
 72
     1
  1
(3{\Ftxt,bigfont|c128;等分\Ftxt,bigfont|c136;)}
 11
0.0000000000000001
 21
1.0
 31
0.0
 73
     1
 44
1.0
1001
ACAD
1000
ACAD_MTEXT_DEFINED_HEIGHT_BEGIN
1070
    46
1040
0.0
1000
ACAD_MTEXT_DEFINED_HEIGHT_END
  0
DIMENSION
  5
894C
330
18
100
AcDbEntity
  8
mark
100
AcDbDimension
  2
*D4
 10
62.63875774943119
 20
151.8212335933508
 30
0.0
 11
53.33875774943118
 21
151.8212335933508
 31
0.0
 70
   160
 71
     5
 42
2.5
  3
STANDARD
100
AcDbAlignedDimension
 13
65.13875774943119
 23
185.2725564325757
 33
0.0
 14
62.63875774943119
 24
185.2725564325757
 34
0.0
100
AcDbRotatedDimension
  0
MTEXT
  5
895B
330
18
100
AcDbEntity
  8
mark
 62
     3
100
AcDbMText
 10
56.61761989526588
 20
155.6715264939661
 30
0.0
 40
1.25
 41
0.0
 71
     1
 72
     1
  1
+0.15\P+0
 73
     1
 44
1.0
1001
ACAD
1000
ACAD_MTEXT_DEFINED_HEIGHT_BEGIN
1070
    46
1040
0.0
1000
ACAD_MTEXT_DEFINED_HEIGHT_END
  0
DIMENSION
  5
8979
330
18
100
AcDbEntity
  8
mark
100
AcDbDimension
  2
*D5
 10
118.0
 20
114.4390383336256
 30
0.0
 11
95.0
 21
116.4890383336256
 31
0.0
 70
    32
  1
%%c46
 71
     5
 42
46.0
  3
STANDARD
100
AcDbAlignedDimension
 13
72.0
 23
105.9666005508518
 33
0.0
 14
118.0
 24
105.9666005508518
 34
0.0
100
AcDbRotatedDimension
  0
LWPOLYLINE
  5
8986
330
18
100
AcDbEntity
  8
dim
100
AcDbPolyline
 90
        7
 70
     1
 43
0.0
 10
101.2535758175759
 20
108.4666005508519
 10
109.9138298554203
 20
108.4666005508519
 10
108.4704541824462
 20
105.9666005508518
 10
107.0270785094721
 20
108.4666005508519
 10
105.5837028364981
 20
105.9666005508518
 10
104.140327163524
 20
108.4666005508519
 10
102.6969514905499
 20
105.9666005508518
  0
MTEXT
  5
8987
330
18
100
AcDbEntity
  8
mark
 62
     3
100
AcDbMText
 10
105.604379754502
 20
110.5222769396047
 30
0.0
 40
2.5
 41
0.0
 71
     5
 72
     1
  1
G
 73
     1
 44
1.0
1001
ACAD
1000
ACAD_MTEXT_DEFINED_HEIGHT_BEGIN
1070
    46
1040
0.0
1000
ACAD_MTEXT_DEFINED_HEIGHT_END
  0
DIMENSION
  5
8988
330
18
100
AcDbEntity
  8
mark
100
AcDbDimension
  2
*D6
 10
124.5
 20
120.6268640427336
 30
0.0
 11
95.0
 21
122.6768640427336
 31
0.0
 70
    32
  1
%%c59%%p0.5
 71
     5
 42
59.0
  3
STANDARD
100
AcDbAlignedDimension
 13
65.5
 23
105.9666005508518
 33
0.0
 14
124.5
 24
105.9666005508518
 34
0.0
100
AcDbRotatedDimension
  0
DIMENSION
  5
8995
330
18
100
AcDbEntity
  8
mark
100
AcDbDimension
  2
*D7
 10
127.4999999999999
 20
126.7103290800858
 30
0.0
 11
94.99999999999998
 21
128.7603290800858
 31
0.0
 70
    32
  1
%%c65
 71
     5
 42
64.99999999999994
  3
STANDARD
100
AcDbAlignedDimension
 13
62.5
 23
103.9666005508518
 33
0.0
 14
127.4999999999999
 24
103.9666005508518
 34
0.0
100
AcDbRotatedDimension
  0
MTEXT
  5
89A2
330
18
100
AcDbEntity
  8
mark
 62
     3
100
AcDbMText
 10
100.1792073899038
 20
130.5606219807011
 30
0.0
 40
1.25
 41
0.0
 71
     1
 72
     1
  1
+0\P-0.2
 73
     1
 44
1.0
1001
ACAD
1000
ACAD_MTEXT_DEFINED_HEIGHT_BEGIN
1070
    46
1040
0.0
1000
ACAD_MTEXT_DEFINED_HEIGHT_END
  0
DIMENSION
  5
89A3
330
18
100
AcDbEntity
  8
mark
100
AcDbDimension
  2
*D8
 10
55.83454196305376
 20
105.9666005508518
 30
0.0
 11
53.78454196305376
 21
115.0582672175185
 31
0.0
 70
    32
 71
     5
 42
0.5
  3
STANDARD
100
AcDbAlignedDimension
 13
64.0
 23
105.4666005508518
 33
0.0
 14
65.5
 24
105.9666005508518
 34
0.0
 50
90.0
100
AcDbRotatedDimension
  0
DIMENSION
  5
89BF
330
18
100
AcDbEntity
  8
mark
100
AcDbDimension
  2
*D9
 10
72.50000000000011
 20
77.07113480152043
 30
0.0
 11
95.00000000000003
 21
79.12113480152043
 31
0.0
 70
    32
  1
M45X1.5P
 71
     5
 42
44.99999999999983
  3
STANDARD
100
AcDbAlignedDimension
 13
117.4999999999999
 23
92.71660055085181
 33
0.0
 14
72.50000000000011
 24
92.71660055085169
 34
0.0
100
AcDbRotatedDimension
  0
LEADER
  5
89CC
330
18
100
AcDbEntity
  8
mark
100
AcDbLeader
  3
STANDARD
 76
     2
 10
117.438
 20
92.71660055085181
 30
0.0
 10
108.7693305161866
 20
84.0479310670371
 30
0.0
211
0.0000000000000001
221
-1.0
231
0.0
1001
ACAD
1000
DSTYLE
1002
{
1070
   147
1040
0.8
1070
    77
1070
     0
1002
}
  0
MTEXT
  5
89CD
330
18
100
AcDbEntity
  8
mark
 62
     3
100
AcDbMText
 10
109.6591189250629
 20
87.87218786606985
 30
0.0
 40
2.5
 41
0.0
 71
     5
 72
     1
  1
C1.5
 11
0.7071067811862683
 21
0.7071067811868267
 31
0.0
 73
     1
 44
1.0
1001
ACAD
1000
ACAD_MTEXT_DEFINED_HEIGHT_BEGIN
1070
    46
1040
0.0
1000
ACAD_MTEXT_DEFINED_HEIGHT_END
  0
DIMENSION
  5
89CE
330
18
100
AcDbEntity
  8
mark
100
AcDbDimension
  2
*D10
 10
63.99999999999994
 20
93.46660055085198
 30
0.0
 11
52.55665525779815
 21
84.92239361151396
 31
0.0
 70
    36
  1
2-R1.5
 71
     5
 42
1.499999999999943
  3
STANDARD
100
AcDbRadialDimension
 15
62.93933982822022
 25
92.40594037907213
 35
0.0
 40
0.0
1001
ACAD
1000
DSTYLE
1002
{
1070
   288
1070
     1
1002
}
  0
DIMENSION
  5
89DF
330
18
100
AcDbEntity
  8
mark
100
AcDbDimension
  2
*D11
 10
139.1792717344223
 20
98.96660055085181
 30
0.0
 11
137.1292717344222
 21
102.4666005508518
 31
0.0
 70
    32
 71
     5
 42
7.0
  3
STANDARD
100
AcDbAlignedDimension
 13
124.5
 23
105.9666005508518
 33
0.0
 14
128.4999999999999
 24
98.96660055085181
 34
0.0
 50
90.0
100
AcDbRotatedDimension
  0
DIMENSION
  5
89EE
330
18
100
AcDbEntity
  8
mark
100
AcDbDimension
  2
*D12
 10
148.3582935870919
 20
91.9666005508518
 30
0.0
 11
148.3582935870919
 21
98.96660055085183
 31
0.0
 70
   160
  1
%%C14%%P0.2
 71
     5
 42
14.0
  3
STANDARD
100
AcDbAlignedDimension
 13
124.5
 23
105.9666005508518
 33
0.0
 14
126.0
 24
91.9666005508518
 34
0.0
 50
90.0
100
AcDbRotatedDimension
  0
TOLERANCE
  5
8A05
330
18
100
AcDbEntity
  8
mark
100
AcDbFcf
  3
STANDARD
 10
153.3582935870919
 20
115.9666005508518
 30
0.0
  1
{\Fgdt;h}%%v0.005%%v%%vA%%v%%v
1001
ACAD
1000
DSTYLE
1002
{
1070
    41
1040
2.5
1070
    42
1040
0.8
1070
    43
1040
6.0
1070
    44
1040
0.8
1070
    73
1070
     0
1070
    74
1070
     0
1070
    78
1070
     8
1070
    79
1070
     2
1070
   140
1040
2.5
1070
   141
1040
0.0
1070
   144
1040
1.0
1070
   147
1040
0.8
1070
   176
1070
   256
1070
   177
1070
   256
1070
   178
1070
     3
1070
   179
1070
     2
1070
   271
1070
     1
1070
   272
1070
     1
1070
   341
1005
7C04
1070
   342
1005
7C04
1002
}
  0
LWPOLYLINE
  5
8A06
330
18
100
AcDbEntity
  8
mark
100
AcDbPolyline
 90
        3
 70
     0
 43
0.0
 10
148.3582935870919
 20
105.9666005508518
 10
148.3582935870919
 20
115.9666005508518
 10
153.3582935870919
 20
115.9666005508518
  0
LINE
  5
8A07
330
18
100
AcDbEntity
  8
mark
100
AcDbLine
 10
72.50000000000011
 20
76.27113480152042
 30
0.0
 11
72.50000000000011
 21
67.52113480152042
 31
0.0
  0
INSERT
  5
8A08
330
18
100
AcDbEntity
  8
mark
100
AcDbBlockReference
  2
A
 10
68.42073199585354
 20
71.91227990330299
 30
0.0
  0
MTEXT
  5
8A09
330
18
100
AcDbEntity
  8
mark
 62
     3
100
AcDbMText
 10
135.2591764100094
 20
118.8172000968412
 30
0.0
 40
3.5
 41
0.0
 71
     5
 72
     1
  1
2
 73
     1
 44
1.0
1001
ACAD
1000
ACAD_MTEXT_DEFINED_HEIGHT_BEGIN
1070
    46
1040
0.0
1000
ACAD_MTEXT_DEFINED_HEIGHT_END
  0
LEADER
  5
8A0A
330
18
100
AcDbEntity
  8
mark
100
AcDbLeader
  3
STANDARD
 76
     2
 10
127.5
 20
98.96660055085192
 30
0.0
 10
133.2646019370668
 20
117.0173251981621
 30
0.0
1001
ACAD
1000
DSTYLE
1002
{
1070
   147
1040
0.8
1070
    77
1070
     0
1002
}
  0
MTEXT
  5
8A0B
330
18
100
AcDbEntity
  8
mark
 62
     3
100
AcDbMText
 10
135.0341764100093
 20
82.75942727444936
 30
0.0
 40
3.5
 41
0.0
 71
     5
 72
     1
  1
3
 73
     1
 44
1.0
1001
ACAD
1000
ACAD_MTEXT_DEFINED_HEIGHT_BEGIN
1070
    46
1040
0.0
1000
ACAD_MTEXT_DEFINED_HEIGHT_END
  0
LEADER
  5
8A0C
330
18
100
AcDbEntity
  8
mark
100
AcDbLeader
  3
STANDARD
 76
     2
 10
119.5940000000001
 20
96.36660055085185
 30
0.0
 10
132.9632046898585
 20
82.99739586099343
 30
0.0
211
0.7071067811865476
221
0.7071067811865475
231
0.0
1001
ACAD
1000
DSTYLE
1002
{
1070
   147
1040
0.8
1070
    77
1070
     0
1002
}
  0
LEADER
  5
8A0D
330
18
100
AcDbEntity
  8
mark
100
AcDbLeader
  3
STANDARD
 76
     2
 10
117.9809703885627
 20
211.2535268211385
 30
0.0
 10
133.2646019370668
 20
226.5371583696425
 30
0.0
211
0.8660254037844385
221
0.5000000000000005
231
0.0
1001
ACAD
1000
DSTYLE
1002
{
1070
   147
1040
0.8
1070
    77
1070
     0
1002
}
  0
MTEXT
  5
8A0E
330
18
100
AcDbEntity
  8
mark
 62
     3
100
AcDbMText
 10
134.6380127423639
 20
227.8600192173234
 30
0.0
 40
3.5
 41
0.0
 71
     5
 72
     1
  1
1
 73
     1
 44
1.0
1001
ACAD
1000
ACAD_MTEXT_DEFINED_HEIGHT_BEGIN
1070
    46
1040
0.0
1000
ACAD_MTEXT_DEFINED_HEIGHT_END
  0
HATCH
  5
8A60
330
18
100
AcDbEntity
  8
section
100
AcDbHatch
 10
0.0
 20
0.0
 30
0.0
210
0.0
220
0.0
230
1.0
  2
ANSI31
 70
     0
 71
     0
 91
       10
 92
        7
 72
     0
 73
     1
 93
        9
 10
72.5
 20
104.4666005508519
 10
72.0
 20
104.9666005508518
 10
72.0
 20
105.9666005508518
 10
65.5
 20
105.9666005508518
 10
65.5
 20
105.4666005508518
 10
65.13875774943119
 20
105.4666005508518
 10
65.13875774943119
 20
91.9666005508518
 10
71.81200000000001
 20
91.9666005508518
 10
72.50000000000006
 20
92.65460055085185
 97
        0
 92
        7
 72
     0
 73
     1
 93
        4
 10
73.31199999999995
 20
103.6546005508521
 10
72.50000000000006
 20
104.4666005508519
 10
72.50000000000006
 20
92.6546005508519
 10
73.3119999999999
 20
93.46660055085175
 97
        0
 92
        7
 72
     0
 73
     1
 93
        4
 10
117.5
 20
104.4666005508518
 10
116.6880000000001
 20
103.654600550852
 10
116.6880000000001
 20
101.9666005508518
 10
117.5
 20
101.9666005508518
 97
        0
 92
        7
 72
     1
 73
     1
 93
        9
 10
127.5
 20
103.9666005508518
 42
0.4142135623730951
 10
126.0
 20
105.4666005508518
 42
0.0
 10
124.5
 20
105.4666005508518
 42
0.0
 10
124.5
 20
105.9666005508518
 42
0.0
 10
118.0
 20
105.9666005508518
 42
0.0
 10
118.0
 20
104.9666005508518
 42
0.0
 10
117.5
 20
104.4666005508518
 42
0.0
 10
117.5
 20
101.9666005508518
 42
0.0
 10
127.5
 20
101.9666005508518
 42
0.0
 97
        0
 92
        7
 72
     0
 73
     1
 93
        4
 10
117.4999999999999
 20
95.96660055085193
 10
116.688
 20
95.96660055085193
 10
116.688
 20
93.4666005508518
 10
117.5
 20
92.65460055085185
 97
        0
 92
        7
 72
     1
 73
     1
 93
        6
 10
127.4999999999999
 20
95.9666005508518
 42
0.0
 10
117.4999999999999
 20
95.96660055085193
 42
0.0
 10
117.4999999999999
 20
92.65460055085197
 42
0.0
 10
118.188
 20
91.9666005508518
 42
0.0
 10
126.0
 20
91.9666005508518
 42
0.4142135623730951
 10
127.5
 20
93.4666005508518
 42
0.0
 97
        0
 92
        7
 72
     0
 73
     1
 93
        6
 10
123.0
 20
101.9666005508518
 10
116.6880000000001
 20
101.9666005508518
 10
116.6880000000001
 20
101.5666005508518
 10
121.4999999999999
 20
101.5666005508518
 10
121.5
 20
101.4266005508519
 10
122.4600000000001
 20
101.4266005508519
 97
        0
 92
        7
 72
     0
 73
     1
 93
        6
 10
122.4600000000001
 20
96.50660055085166
 10
121.4999999999999
 20
96.50660055085166
 10
121.4999999999999
 20
96.36660055085179
 10
116.688
 20
96.3666005508519
 10
116.688
 20
95.96660055085193
 10
122.9999999999999
 20
95.96660055085186
 97
        0
 92
        7
 72
     0
 73
     1
 93
        3
 10
127.5
 20
96.50660055085166
 10
126.5646925639129
 20
95.9666005508518
 10
127.5
 20
95.9666005508518
 97
        0
 92
        7
 72
     0
 73
     1
 93
        3
 10
127.5
 20
101.9666005508518
 10
126.5646925639129
 20
101.9666005508518
 10
127.5
 20
101.4266005508519
 97
        0
 75
     0
 76
     1
 52
0.0
 41
0.5
 77
     0
 78
     1
 53
45.0
 43
-171.5302176824713
 44
-24.82198846127722
 45
-1.122532015133643
 46
1.122532015133644
 79
     0
 47
0.0236210532420146
 98
       10
 10
69.98539339169941
 20
100.0113066890399
 10
73.06052826911593
 20
100.1439686978483
 10
117.277779250479
 20
102.6481297568204
 10
120.6514063481646
 20
103.0817508368448
 10
117.374167581797
 20
94.36114941776304
 10
118.9645919924684
 20
94.07206914985932
 10
121.7835250683071
 20
101.7822398652008
 10
121.6653839669671
 20
96.18404930665475
 10
127.3361503764489
 20
96.08956548414745
 10
127.1943813775825
 20
101.9003456605878
1001
ACAD
1010
0.0
1020
0.0
1030
0.0
  0
DIMENSION
  5
8CA0
330
18
100
AcDbEntity
  8
mark
100
AcDbDimension
  2
*D13
 10
85.32739485453385
 20
104.9666005508518
 30
0.0
 11
83.27739485453383
 21
97.74993388418515
 31
0.0
 70
    32
 71
     5
  3
STANDARD
100
AcDbAlignedDimension
 13
85.32739485453385
 23
105.9666005508518
 33
0.0
 14
85.32739485453385
 24
104.9666005508518
 34
0.0
 50
90.0
100
AcDbRotatedDimension
  0
MTEXT
  5
8CCA
330
18
100
AcDbEntity
  8
0
100
AcDbMText
 10
47.65097232190476
 20
19.07605901616614
 30
0.0
 40
4.5
 41
0.0
 71
     1
 72
     5
  1
{\Ftxt,bigfont|c128;小\~柳}
  7
JL
 73
     1
 44
1.0
1001
ACAD
1000
ACAD_MTEXT_DEFINED_HEIGHT_BEGIN
1070
    46
1040
0.0
1000
ACAD_MTEXT_DEFINED_HEIGHT_END
  0
ENDSEC
  0
SECTION
  2
OBJECTS
  0
DICTIONARY
  5
C
330
0
100
AcDbDictionary
281
     1
  3
ACAD_COLOR
350
7873
  3
ACAD_GROUP
350
D
  3
ACAD_LAYOUT
350
5CF3
  3
ACAD_MATERIAL
350
7872
  3
ACAD_MLINESTYLE
350
1B
  3
ACAD_PLOTSETTINGS
350
5CF4
  3
ACAD_PLOTSTYLENAME
350
5CF1
  3
ACAD_TABLESTYLE
350
7874
  3
ACDBVARIABLEDICTIONARY
350
45D
  0
DICTIONARY
  5
7BFE
330
2
100
AcDbDictionary
280
     1
281
     1
  3
ACAD_LAYERFILTERS
360
7C00
  3
ACLYDICTIONARY
360
7BFF
  0
DICTIONARY
  5
45F
330
18
100
AcDbDictionary
280
     1
281
     1
  3
ACAD_LAYOUTSELFREF
360
5D8B
  3
ACAD_SORTENTS
360
460
  0
DICTIONARY
  5
5D89
330
15
100
AcDbDictionary
280
     1
281
     1
  3
ACAD_LAYOUTSELFREF
360
5D8A
  0
DICTIONARY
  5
7C0B
330
7C0A
100
AcDbDictionary
280
     1
281
     1
  3
AcDbBlockTableRecordData
360
7C0C
  0
DICTIONARY
  5
7873
102
{ACAD_REACTORS
330
C
102
}
330
C
100
AcDbDictionary
281
     1
  0
DICTIONARY
  5
D
102
{ACAD_REACTORS
330
C
102
}
330
C
100
AcDbDictionary
281
     1
  0
DICTIONARY
  5
5CF3
102
{ACAD_REACTORS
330
C
102
}
330
C
100
AcDbDictionary
281
     1
  3
Model
350
5CF5
  3
配置1
350
5CF6
  0
DICTIONARY
  5
7872
102
{ACAD_REACTORS
330
C
102
}
330
C
100
AcDbDictionary
281
     1
  0
DICTIONARY
  5
1B
102
{ACAD_REACTORS
330
C
102
}
330
C
100
AcDbDictionary
281
     1
  3
STANDARD
350
1C
  0
DICTIONARY
  5
5CF4
102
{ACAD_REACTORS
330
C
102
}
330
C
100
AcDbDictionary
281
     1
  0
ACDBDICTIONARYWDFLT
  5
5CF1
102
{ACAD_REACTORS
330
C
102
}
330
C
100
AcDbDictionary
281
     1
  3
Normal
350
5CF2
100
AcDbDictionaryWithDefault
340
5CF2
  0
DICTIONARY
  5
7874
102
{ACAD_REACTORS
330
C
102
}
330
C
100
AcDbDictionary
281
     1
  3
Standard
350
7875
  0
DICTIONARY
  5
45D
102
{ACAD_REACTORS
330
C
102
}
330
C
100
AcDbDictionary
281
     1
  3
CTABLESTYLE
350
7880
  3
SORTENTS
350
45E
  0
DICTIONARY
  5
7C00
102
{ACAD_REACTORS
330
7BFE
102
}
330
7BFE
100
AcDbDictionary
281
     1
  0
DICTIONARY
  5
7BFF
102
{ACAD_REACTORS
330
7BFE
102
}
330
7BFE
100
AcDbDictionary
281
     1
1001
ACAD
1000
<All
  0
XRECORD
  5
5D8B
102
{ACAD_REACTORS
330
45F
102
}
330
45F
100
AcDbXrecord
280
     1
340
18
  0
SORTENTSTABLE
  5
460
102
{ACAD_REACTORS
330
45F
102
}
330
45F
100
AcDbSortentsTable
330
18
331
7F0B
  5
7F12
331
7D9C
  5
7D9C
331
7F42
  5
8916
331
8949
  5
894A
331
7F13
  5
7F22
331
C0
  5
CB
331
7D6D
  5
7D6D
331
7DA4
  5
7DA4
331
8979
  5
8986
331
7D75
  5
7D75
331
7DAC
  5
7DAC
331
8A07
  5
8A08
331
891A
  5
891E
331
7DB4
  5
7DB4
331
7D7D
  5
7D7D
331
7DBC
  5
7DBC
331
8922
  5
8926
331
7D85
  5
7D85
331
7F2B
  5
7F2F
331
7D8D
  5
7D8D
331
7F33
  5
7F38
331
893A
  5
8949
331
7F3B
  5
7F42
331
7D95
  5
7D95
331
7F04
  5
7F0A
331
7D9D
  5
7D9D
331
7F0C
  5
7F13
331
894A
  5
894C
331
7DA5
  5
7DA5
331
7D6E
  5
7D6E
331
7DAD
  5
7DAD
331
7D76
  5
7D76
331
8A08
  5
8A09
331
7DB5
  5
7DB5
331
891B
  5
891F
331
8A60
  5
7F15
331
7DBD
  5
7DBD
331
7D7E
  5
7D7E
331
7F24
  5
7F2B
331
8923
  5
8930
331
7D86
  5
7D86
331
7F34
  5
7F39
331
7D8E
  5
7D8E
331
7EFD
  5
7F02
331
7D96
  5
7D96
331
7F05
  5
7F0B
331
7F3C
  5
7F43
331
89A2
  5
89A3
331
7D9E
  5
7D9E
331
7F0D
  5
7EF9
331
7DA6
  5
7DA6
331
7D6F
  5
7D6F
331
7F15
  5
7F26
331
895B
  5
8979
331
7DAE
  5
7DAE
331
7D77
  5
7D77
331
8A09
  5
8A0A
331
7DB6
  5
7DB6
331
891C
  5
8920
331
7D7F
  5
7D7F
331
7DBE
  5
7DBE
331
8924
  5
8931
331
7D87
  5
7D87
331
7F2D
  5
7F30
331
7F35
  5
7F3A
331
7D8F
  5
7D8F
331
7EFE
  5
7F06
331
7D97
  5
7D97
331
7F06
  5
7F0C
331
7F3D
  5
7F44
331
89A3
  5
89BF
331
7D9F
  5
7D9F
331
7F0E
  5
7EF8
331
894C
  5
895B
331
7DA7
  5
7DA7
331
7D70
  5
7D70
331
7F16
  5
7F27
331
7DAF
  5
7DAF
331
8915
  5
8919
331
8A0A
  5
8A0B
331
7DB7
  5
7DB7
331
891D
  5
8921
331
7D78
  5
7D78
331
7D80
  5
7D80
331
8925
  5
8937
331
7F2E
  5
7F31
331
7D88
  5
7D88
331
7EF7
  5
7EF7
331
8935
  5
8938
331
7F36
  5
7F3B
331
7D90
  5
7D90
331
7EFF
  5
7F05
331
7F07
  5
7F0D
331
7F3E
  5
7F46
331
7D98
  5
7D98
331
7DA0
  5
7DA0
331
7F46
  5
8917
331
7DA8
  5
7DA8
331
7D71
  5
7D71
331
7F17
  5
7F29
331
7DB0
  5
7DB0
331
8916
  5
891A
331
8A0B
  5
8A0C
331
891E
  5
8922
331
89CC
  5
89CD
331
7D79
  5
7D79
331
7DB8
  5
7DB8
331
7D81
  5
7D81
331
8926
  5
8939
331
7F2F
  5
7F32
331
7D89
  5
7D89
331
7EF8
  5
7EFD
331
7F37
  5
7F3C
331
7D91
  5
7D91
331
7F00
  5
7F03
331
8995
  5
89A2
331
7F3F
  5
8914
331
7D99
  5
7D99
331
7F08
  5
7F0E
331
7DA1
  5
7DA1
331
7F10
  5
7F16
331
7DA9
  5
7DA9
331
7D72
  5
7D72
331
7F18
  5
7F2A
331
8917
  5
891B
331
7DB1
  5
7DB1
331
8A0C
  5
8A0D
331
891F
  5
8923
331
89CD
  5
89CE
331
7DB9
  5
7DB9
331
7D7A
  5
7D7A
331
8986
  5
8987
331
7D82
  5
7D82
331
8937
  5
893A
331
7F30
  5
7F35
331
7D8A
  5
7D8A
331
7EF9
  5
7EFE
331
7D92
  5
7D92
331
7F01
  5
7F07
331
7F38
  5
7F3D
331
7D9A
  5
7D9A
331
7F09
  5
7F10
331
7DA2
  5
7DA2
331
7F11
  5
7F17
331
8A05
  5
8A06
331
7DAA
  5
7DAA
331
7D73
  5
7D73
331
7F19
  5
7F18
331
8918
  5
891C
331
7DB2
  5
7DB2
331
8A0D
  5
8A0E
331
89CE
  5
89DF
331
8920
  5
8924
331
7D7B
  5
7D7B
331
7DBA
  5
7DBA
331
8930
  5
7F33
331
7D83
  5
7D83
331
7F29
  5
7F2D
331
8987
  5
8988
331
7D8B
  5
7D8B
331
7F31
  5
7F36
331
7F02
  5
7F08
331
7D93
  5
7D93
331
7F39
  5
7F3E
331
89EE
  5
8A05
331
7F0A
  5
7F11
331
7D9B
  5
7D9B
331
7F12
  5
7F19
331
7D6C
  5
7D6C
331
7DA3
  5
7DA3
331
8A06
  5
8A07
331
7F1A
  5
7F24
331
7D74
  5
7D74
331
7DAB
  5
7DAB
331
89BF
  5
89CC
331
8919
  5
891D
331
7DB3
  5
7DB3
331
8A0E
  5
8A1E
331
7F22
  5
7F1A
331
7DBB
  5
7DBB
331
7D7C
  5
7D7C
331
8921
  5
8925
331
7F2A
  5
7F2E
331
7D84
  5
7D84
331
8988
  5
8995
331
7F32
  5
7F37
331
7EFB
  5
7EFF
331
7D8C
  5
7D8C
331
89DF
  5
89EE
331
7F03
  5
7F09
331
7D94
  5
7D94
331
7F3A
  5
7F3F
  0
XRECORD
  5
5D8A
102
{ACAD_REACTORS
330
5D89
102
}
330
5D89
100
AcDbXrecord
280
     1
340
15
  0
DICTIONARY
  5
7C0C
102
{ACAD_REACTORS
330
7C0B
102
}
330
7C0B
100
AcDbDictionary
280
     1
281
     1
  3
Edit
360
7C0D
  0
LAYOUT
  5
5CF5
102
{ACAD_REACTORS
330
5CF3
102
}
330
5CF3
100
AcDbPlotSettings
  1

  2
hp LaserJet 1300 PCL 6
  4
A4
  6

 40
5.027083396911621
 41
5.069413185119628
 42
5.027084350585937
 43
5.027069091796875
 44
209.9733276367187
 45
296.9683227539062
 46
4.959579944610595
 47
3.435920238494873
 48
0.0
 49
0.0
140
190.0
141
280.0
142
1.0
143
1.0
 70
 11956
 72
     1
 73
     0
 74
     4
  7
LIN.ctb
 75
    16
147
1.0
 76
     0
 77
     2
 78
   300
148
0.0
149
0.0
100
AcDbLayout
  1
Model
 70
     1
 71
     0
 10
0.0
 20
0.0
 11
12.0
 21
9.0
 12
0.0
 22
0.0
 32
0.0
 14
0.0
 24
0.0
 34
0.0
 15
0.0
 25
0.0
 35
0.0
146
0.0
 13
0.0
 23
0.0
 33
0.0
 16
1.0
 26
0.0
 36
0.0
 17
0.0
 27
1.0
 37
0.0
 76
     0
330
18
1001
ACAD_PSEXT
1000
hp LaserJet 1300 PCL 6
1000
hp LaserJet 1300 PCL 6
1000
HP 1300
1000

1070
     0
  0
LAYOUT
  5
5CF6
102
{ACAD_REACTORS
330
5CF3
102
}
330
5CF3
100
AcDbPlotSettings
  1

  2
EPSON STYLUS COLOR 440
  4

  6

 40
0.0
 41
0.0
 42
0.0
 43
0.0
 44
0.0
 45
0.0
 46
0.0
 47
0.0
 48
0.0
 49
0.0
140
0.0
141
0.0
142
1.0
143
1.0
 70
   688
 72
     0
 73
     0
 74
     5
  7
LIN.ctb
 75
    16
147
1.0
 76
     0
 77
     2
 78
   300
148
0.0
149
0.0
100
AcDbLayout
  1
ｰtｸm1
 70
     1
 71
     1
 10
0.0
 20
0.0
 11
420.0
 21
297.0
 12
0.0
 22
0.0
 32
0.0
 14
1.000000000000000E+20
 24
1.000000000000000E+20
 34
1.000000000000000E+20
 15
-1.000000000000000E+20
 25
-1.000000000000000E+20
 35
-1.000000000000000E+20
146
0.0
 13
0.0
 23
0.0
 33
0.0
 16
1.0
 26
0.0
 36
0.0
 17
0.0
 27
1.0
 37
0.0
 76
     0
330
15
  0
MLINESTYLE
  5
1C
102
{ACAD_REACTORS
330
1B
102
}
330
1B
100
AcDbMlineStyle
  2
STANDARD
 70
     0
  3

 62
   256
 51
90.0
 52
90.0
 71
     2
 49
0.5
 62
   256
  6
BYLAYER
 49
-0.5
 62
   256
  6
BYLAYER
  0
ACDBPLACEHOLDER
  5
5CF2
102
{ACAD_REACTORS
330
5CF1
102
}
330
5CF1
  0
TABLESTYLE
  5
7875
102
{ACAD_REACTORS
330
7874
102
}
330
7874
100
AcDbTableStyle
  3
Standard
 70
     0
 71
     8
 40
1.5
 41
1.5
280
     0
281
     0
  7
STANDARD
140
4.5
170
     2
 62
     0
 63
     7
283
     0
274
    -2
284
     1
 64
     0
275
    -2
285
     1
 65
     0
276
    -2
286
     1
 66
     0
277
    -2
287
     1
 67
     0
278
    -2
288
     1
 68
     0
279
    -2
289
     1
 69
     0
  7
STANDARD
140
6.0
170
     5
 62
     0
 63
     7
283
     0
274
    -2
284
     1
 64
     0
275
    -2
285
     1
 65
     0
276
    -2
286
     1
 66
     0
277
    -2
287
     1
 67
     0
278
    -2
288
     1
 68
     0
279
    -2
289
     1
 69
     0
  7
STANDARD
140
4.5
170
     5
 62
     0
 63
     7
283
     0
274
    -2
284
     1
 64
     0
275
    -2
285
     1
 65
     0
276
    -2
286
     1
 66
     0
277
    -2
287
     1
 67
     0
278
    -2
288
     1
 68
     0
279
    -2
289
     1
 69
     0
  0
DICTIONARYVAR
  5
7880
102
{ACAD_REACTORS
330
45D
102
}
330
45D
100
DictionaryVariables
280
     0
  1
STANDARD
  0
DICTIONARYVAR
  5
45E
102
{ACAD_REACTORS
330
45D
102
}
330
45D
100
DictionaryVariables
280
     0
  1
127
  0
XRECORD
  5
7C0D
102
{ACAD_REACTORS
330
7C0C
102
}
330
7C0C
100
AcDbXrecord
280
     1
1070
     0
1070
     1
1070
     1
  0
ENDSEC
  0
EOF
