  0
SECTION
  2
HEADER
  9
$ACADVER
  1
AC1018
  9
$ACADMAINTVER
 70
    76
  9
$DWGCODEPAGE
  3
ANSI_932
  9
$INSBASE
 10
0.0
 20
0.0
 30
0.0
  9
$EXTMIN
 10
0.0
 20
0.0
 30
0.0
  9
$EXTMAX
 10
190.0
 20
280.0
 30
3.838383838383842
  9
$LIMMIN
 10
0.0
 20
0.0
  9
$LIMMAX
 10
420.0
 20
297.0
  9
$ORTHOMODE
 70
     1
  9
$REGENMODE
 70
     1
  9
$FILLMODE
 70
     1
  9
$QTEXTMODE
 70
     0
  9
$MIRRTEXT
 70
     1
  9
$LTSCALE
 40
1.0
  9
$ATTMODE
 70
     1
  9
$TEXTSIZE
 40
2.5
  9
$TRACEWID
 40
1.0
  9
$TEXTSTYLE
  7
TXT
  9
$CLAYER
  8
mark
  9
$CELTYPE
  6
BYLAYER
  9
$CECOLOR
 62
   256
  9
$CELTSCALE
 40
1.0
  9
$DISPSILH
 70
     0
  9
$DIMSCALE
 40
1.0
  9
$DIMASZ
 40
3.0
  9
$DIMEXO
 40
0.8
  9
$DIMDLI
 40
0.38
  9
$DIMRND
 40
0.0
  9
$DIMDLE
 40
0.0
  9
$DIMEXE
 40
0.8
  9
$DIMTP
 40
0.0
  9
$DIMTM
 40
0.0
  9
$DIMTXT
 40
2.5
  9
$DIMCEN
 40
0.09
  9
$DIMTSZ
 40
0.0
  9
$DIMTOL
 70
     0
  9
$DIMLIM
 70
     0
  9
$DIMTIH
 70
     0
  9
$DIMTOH
 70
     0
  9
$DIMSE1
 70
     0
  9
$DIMSE2
 70
     0
  9
$DIMTAD
 70
     3
  9
$DIMZIN
 70
     8
  9
$DIMBLK
  1
Open30
  9
$DIMASO
 70
     1
  9
$DIMSHO
 70
     1
  9
$DIMPOST
  1

  9
$DIMAPOST
  1

  9
$DIMALT
 70
     0
  9
$DIMALTD
 70
     2
  9
$DIMALTF
 40
25.4
  9
$DIMLFAC
 40
1.0
  9
$DIMTOFL
 70
     1
  9
$DIMTVP
 40
0.0
  9
$DIMTIX
 70
     0
  9
$DIMSOXD
 70
     0
  9
$DIMSAH
 70
     0
  9
$DIMBLK1
  1

  9
$DIMBLK2
  1

  9
$DIMSTYLE
  2
STANDARD
  9
$DIMCLRD
 70
   256
  9
$DIMCLRE
 70
   256
  9
$DIMCLRT
 70
     3
  9
$DIMTFAC
 40
1.0
  9
$DIMGAP
 40
0.8
  9
$DIMJUST
 70
     0
  9
$DIMSD1
 70
     0
  9
$DIMSD2
 70
     0
  9
$DIMTOLJ
 70
     1
  9
$DIMTZIN
 70
     0
  9
$DIMALTZ
 70
     0
  9
$DIMALTTZ
 70
     0
  9
$DIMUPT
 70
     0
  9
$DIMDEC
 70
     2
  9
$DIMTDEC
 70
     2
  9
$DIMALTU
 70
     2
  9
$DIMALTTD
 70
     2
  9
$DIMTXSTY
  7
STANDARD
  9
$DIMAUNIT
 70
     0
  9
$DIMADEC
 70
     2
  9
$DIMALTRND
 40
0.0
  9
$DIMAZIN
 70
     2
  9
$DIMDSEP
 70
    46
  9
$DIMATFIT
 70
     3
  9
$DIMFRAC
 70
     0
  9
$DIMLDRBLK
  1
Open30
  9
$DIMLUNIT
 70
     2
  9
$DIMLWD
 70
    -2
  9
$DIMLWE
 70
    -2
  9
$DIMTMOVE
 70
     0
  9
$LUNITS
 70
     2
  9
$LUPREC
 70
     2
  9
$SKETCHINC
 40
1.0
  9
$FILLETRAD
 40
2.0
  9
$AUNITS
 70
     0
  9
$AUPREC
 70
     2
  9
$MENU
  1
.
  9
$ELEVATION
 40
0.0
  9
$PELEVATION
 40
0.0
  9
$THICKNESS
 40
0.0
  9
$LIMCHECK
 70
     0
  9
$CHAMFERA
 40
2.0
  9
$CHAMFERB
 40
2.0
  9
$CHAMFERC
 40
1.75
  9
$CHAMFERD
 40
0.0174532925199433
  9
$SKPOLY
 70
     0
  9
$TDCREATE
 40
2451555.620234838
  9
$TDUCREATE
 40
2451555.245234838
  9
$TDUPDATE
 40
2455846.570381852
  9
$TDUUPDATE
 40
2455846.195381852
  9
$TDINDWG
 40
2.3775606829
  9
$TDUSRTIMER
 40
2.3775606829
  9
$USRTIMER
 70
     1
  9
$ANGBASE
 50
0.0
  9
$ANGDIR
 70
     0
  9
$PDMODE
 70
     0
  9
$PDSIZE
 40
0.0
  9
$PLINEWID
 40
0.0
  9
$SPLFRAME
 70
     0
  9
$SPLINETYPE
 70
     6
  9
$SPLINESEGS
 70
     8
  9
$HANDSEED
  5
8E01
  9
$SURFTAB1
 70
     6
  9
$SURFTAB2
 70
     6
  9
$SURFTYPE
 70
     6
  9
$SURFU
 70
     6
  9
$SURFV
 70
     6
  9
$UCSBASE
  2

  9
$UCSNAME
  2

  9
$UCSORG
 10
0.0
 20
0.0
 30
0.0
  9
$UCSXDIR
 10
1.0
 20
0.0
 30
0.0
  9
$UCSYDIR
 10
0.0
 20
1.0
 30
0.0
  9
$UCSORTHOREF
  2

  9
$UCSORTHOVIEW
 70
     0
  9
$UCSORGTOP
 10
0.0
 20
0.0
 30
0.0
  9
$UCSORGBOTTOM
 10
0.0
 20
0.0
 30
0.0
  9
$UCSORGLEFT
 10
0.0
 20
0.0
 30
0.0
  9
$UCSORGRIGHT
 10
0.0
 20
0.0
 30
0.0
  9
$UCSORGFRONT
 10
0.0
 20
0.0
 30
0.0
  9
$UCSORGBACK
 10
0.0
 20
0.0
 30
0.0
  9
$PUCSBASE
  2

  9
$PUCSNAME
  2

  9
$PUCSORG
 10
0.0
 20
0.0
 30
0.0
  9
$PUCSXDIR
 10
1.0
 20
0.0
 30
0.0
  9
$PUCSYDIR
 10
0.0
 20
1.0
 30
0.0
  9
$PUCSORTHOREF
  2

  9
$PUCSORTHOVIEW
 70
     0
  9
$PUCSORGTOP
 10
0.0
 20
0.0
 30
0.0
  9
$PUCSORGBOTTOM
 10
0.0
 20
0.0
 30
0.0
  9
$PUCSORGLEFT
 10
0.0
 20
0.0
 30
0.0
  9
$PUCSORGRIGHT
 10
0.0
 20
0.0
 30
0.0
  9
$PUCSORGFRONT
 10
0.0
 20
0.0
 30
0.0
  9
$PUCSORGBACK
 10
0.0
 20
0.0
 30
0.0
  9
$USERI1
 70
     0
  9
$USERI2
 70
     0
  9
$USERI3
 70
     0
  9
$USERI4
 70
     0
  9
$USERI5
 70
     0
  9
$USERR1
 40
0.0
  9
$USERR2
 40
0.0
  9
$USERR3
 40
0.0
  9
$USERR4
 40
0.0
  9
$USERR5
 40
0.0
  9
$WORLDVIEW
 70
     1
  9
$SHADEDGE
 70
     3
  9
$SHADEDIF
 70
    70
  9
$TILEMODE
 70
     1
  9
$MAXACTVP
 70
    48
  9
$PINSBASE
 10
0.0
 20
0.0
 30
0.0
  9
$PLIMCHECK
 70
     0
  9
$PEXTMIN
 10
1.000000000000000E+20
 20
1.000000000000000E+20
 30
1.000000000000000E+20
  9
$PEXTMAX
 10
-1.000000000000000E+20
 20
-1.000000000000000E+20
 30
-1.000000000000000E+20
  9
$PLIMMIN
 10
0.0
 20
0.0
  9
$PLIMMAX
 10
420.0
 20
297.0
  9
$UNITMODE
 70
     0
  9
$VISRETAIN
 70
     1
  9
$PLINEGEN
 70
     0
  9
$PSLTSCALE
 70
     1
  9
$TREEDEPTH
 70
  3020
  9
$CMLSTYLE
  2
STANDARD
  9
$CMLJUST
 70
     0
  9
$CMLSCALE
 40
20.0
  9
$PROXYGRAPHICS
 70
     1
  9
$MEASUREMENT
 70
     1
  9
$CELWEIGHT
370
    -1
  9
$ENDCAPS
280
     0
  9
$JOINSTYLE
280
     0
  9
$LWDISPLAY
290
     0
  9
$INSUNITS
 70
     0
  9
$HYPERLINKBASE
  1

  9
$STYLESHEET
  1
monochrome.ctb
  9
$XEDIT
290
     1
  9
$CEPSNTYPE
380
     0
  9
$PSTYLEMODE
290
     1
  9
$FINGERPRINTGUID
  2
{1CF51E8A-A506-11D4-A7D9-AF69F5C20846}
  9
$VERSIONGUID
  2
{7D55D8AD-00F8-4670-B742-0B5A1A251DFD}
  9
$EXTNAMES
290
     1
  9
$PSVPSCALE
 40
0.0
  9
$OLESTARTUP
290
     0
  9
$SORTENTS
280
   127
  9
$INDEXCTL
280
     0
  9
$HIDETEXT
280
     0
  9
$XCLIPFRAME
290
     0
  9
$HALOGAP
280
     0
  9
$OBSCOLOR
 70
   257
  9
$OBSLTYPE
280
     0
  9
$INTERSECTIONDISPLAY
280
     0
  9
$INTERSECTIONCOLOR
 70
   257
  9
$DIMASSOC
280
     1
  9
$PROJECTNAME
  1

  0
ENDSEC
  0
SECTION
  2
CLASSES
  0
CLASS
  1
DICTIONARYVAR
  2
AcDbDictionaryVar
  3
ObjectDBX Classes
 90
        0
 91
        2
280
     0
281
     0
  0
CLASS
  1
SORTENTSTABLE
  2
AcDbSortentsTable
  3
ObjectDBX Classes
 90
        0
 91
        1
280
     0
281
     0
  0
CLASS
  1
ACDBDICTIONARYWDFLT
  2
AcDbDictionaryWithDefault
  3
ObjectDBX Classes
 90
        0
 91
        1
280
     0
281
     0
  0
CLASS
  1
TABLESTYLE
  2
AcDbTableStyle
  3
ObjectDBX Classes
 90
     2047
 91
        1
280
     0
281
     0
  0
ENDSEC
  0
SECTION
  2
TABLES
  0
TABLE
  2
VPORT
  5
8
330
0
100
AcDbSymbolTable
 70
     2
  0
VPORT
  5
8E00
330
8
100
AcDbSymbolTableRecord
100
AcDbViewportTableRecord
  2
*Active
 70
     0
 10
0.0
 20
0.0
 11
1.0
 21
1.0
 12
120.3711311766234
 22
143.5582430827601
 13
0.0
 23
0.0
 14
10.0
 24
10.0
 15
10.0
 25
10.0
 16
0.0
 26
0.0
 36
1.0
 17
0.0
 27
0.0
 37
0.0
 40
315.8107516185389
 41
2.47104247104247
 42
50.0
 43
0.0
 44
0.0
 50
0.0
 51
0.0
 71
     0
 72
 20000
 73
     1
 74
     1
 75
     0
 76
     0
 77
     0
 78
     0
281
     0
 65
     1
110
0.0
120
0.0
130
0.0
111
1.0
121
0.0
131
0.0
112
0.0
122
1.0
132
0.0
 79
     0
146
0.0
  0
ENDTAB
  0
TABLE
  2
LTYPE
  5
5
330
0
100
AcDbSymbolTable
 70
     7
  0
LTYPE
  5
12
330
5
100
AcDbSymbolTableRecord
100
AcDbLinetypeTableRecord
  2
BYBLOCK
 70
     0
  3

 72
    65
 73
     0
 40
0.0
  0
LTYPE
  5
13
330
5
100
AcDbSymbolTableRecord
100
AcDbLinetypeTableRecord
  2
BYLAYER
 70
     0
  3

 72
    65
 73
     0
 40
0.0
  0
LTYPE
  5
14
330
5
100
AcDbSymbolTableRecord
100
AcDbLinetypeTableRecord
  2
CONTINUOUS
 70
     0
  3
Solid line
 72
    65
 73
     0
 40
0.0
  0
LTYPE
  5
9D
330
5
100
AcDbSymbolTableRecord
100
AcDbLinetypeTableRecord
  2
CENTERX2
 70
     0
  3
Center (2x) ________  __  ________  __  _____
 72
    65
 73
     4
 40
101.6
 49
63.5
 74
     0
 49
-12.7
 74
     0
 49
12.7
 74
     0
 49
-12.7
 74
     0
  0
LTYPE
  5
A1
330
5
100
AcDbSymbolTableRecord
100
AcDbLinetypeTableRecord
  2
DASHED
 70
     0
  3
Dashed __ __ __ __ __ __ __ __ __ __ __ __ __ _
 72
    65
 73
     2
 40
19.05
 49
12.7
 74
     0
 49
-6.349999999999999
 74
     0
  0
LTYPE
  5
A2
330
5
100
AcDbSymbolTableRecord
100
AcDbLinetypeTableRecord
  2
DASHED2
 70
     0
  3
Dashed (.5x) _ _ _ _ _ _ _ _ _ _ _ _ _ _ _ _ _
 72
    65
 73
     2
 40
9.524999999999998
 49
6.349999999999999
 74
     0
 49
-3.174999999999999
 74
     0
  0
LTYPE
  5
A5
330
5
100
AcDbSymbolTableRecord
100
AcDbLinetypeTableRecord
  2
DIVIDE2
 70
     0
  3
Divide (.5x) __..__..__..__..__..__..__..__.._
 72
    65
 73
     6
 40
15.875
 49
6.349999999999999
 74
     0
 49
-3.174999999999999
 74
     0
 49
0.0
 74
     0
 49
-3.174999999999999
 74
     0
 49
0.0
 74
     0
 49
-3.174999999999999
 74
     0
  0
LTYPE
  5
650B
330
5
100
AcDbSymbolTableRecord
100
AcDbLinetypeTableRecord
  2
CENTER
 70
     0
  3
Center ____ _ ____ _ ____ _ ____ _ ____ _ ____
 72
    65
 73
     4
 40
50.8
 49
31.75
 74
     0
 49
-6.349999999999999
 74
     0
 49
6.349999999999999
 74
     0
 49
-6.349999999999999
 74
     0
  0
LTYPE
  5
650C
330
5
100
AcDbSymbolTableRecord
100
AcDbLinetypeTableRecord
  2
HIDDEN
 70
     0
  3
Hidden __ __ __ __ __ __ __ __ __ __ __ __ __ _
 72
    65
 73
     2
 40
9.524999999999998
 49
6.349999999999999
 74
     0
 49
-3.174999999999999
 74
     0
  0
ENDTAB
  0
TABLE
  2
LAYER
  5
2
102
{ACAD_XDICTIONARY
360
7D58
102
}
330
0
100
AcDbSymbolTable
 70
     9
  0
LAYER
  5
E
330
2
100
AcDbSymbolTableRecord
100
AcDbLayerTableRecord
  2
0
 70
     0
 62
     7
  6
CONTINUOUS
370
    -3
390
5CF2
  0
LAYER
  5
B9
330
2
100
AcDbSymbolTableRecord
100
AcDbLayerTableRecord
  2
dim
 70
     0
 62
     3
  6
CONTINUOUS
370
    -3
390
5CF2
  0
LAYER
  5
F2
330
2
100
AcDbSymbolTableRecord
100
AcDbLayerTableRecord
  2
DEFPOINTS
 70
     0
 62
     7
  6
CONTINUOUS
290
     0
370
    -3
390
5CF2
  0
LAYER
  5
5F8B
330
2
100
AcDbSymbolTableRecord
100
AcDbLayerTableRecord
  2
mark
 70
     0
 62
     6
  6
CONTINUOUS
370
    -3
390
5CF2
  0
LAYER
  5
644E
330
2
100
AcDbSymbolTableRecord
100
AcDbLayerTableRecord
  2
frame
 70
     0
 62
     9
  6
CONTINUOUS
370
    -3
390
5CF2
  0
LAYER
  5
650D
330
2
100
AcDbSymbolTableRecord
100
AcDbLayerTableRecord
  2
center
 70
     0
 62
     1
  6
CENTER
370
    -3
390
5CF2
  0
LAYER
  5
650E
330
2
100
AcDbSymbolTableRecord
100
AcDbLayerTableRecord
  2
bowle
 70
     0
 62
     4
  6
HIDDEN
370
    -3
390
5CF2
  0
LAYER
  5
650F
330
2
100
AcDbSymbolTableRecord
100
AcDbLayerTableRecord
  2
contour
 70
     0
 62
     2
  6
CONTINUOUS
370
    -3
390
5CF2
  0
LAYER
  5
6510
330
2
100
AcDbSymbolTableRecord
100
AcDbLayerTableRecord
  2
section
 70
     0
 62
     5
  6
CONTINUOUS
370
    -3
390
5CF2
  0
ENDTAB
  0
TABLE
  2
STYLE
  5
3
330
0
100
AcDbSymbolTable
 70
     5
  0
STYLE
  5
F
330
3
100
AcDbSymbolTableRecord
100
AcDbTextStyleTableRecord
  2
STANDARD
 70
     0
 40
0.0
 41
1.0
 50
0.0
 71
     0
 42
2.5
  3
txt
  4

  0
STYLE
  5
BE
330
3
100
AcDbSymbolTableRecord
100
AcDbTextStyleTableRecord
  2
ISOCP3
 70
     0
 40
0.0
 41
1.0
 50
0.0
 71
     0
 42
2.5
  3
isocp3.shx
  4

  0
STYLE
  5
2A37
330
3
100
AcDbSymbolTableRecord
100
AcDbTextStyleTableRecord
  2
TXT
 70
     0
 40
0.0
 41
1.0
 50
0.0
 71
     0
 42
2.5
  3
txt.shx
  4
bigfont.shx
  0
STYLE
  5
5DCB
330
3
100
AcDbSymbolTableRecord
100
AcDbTextStyleTableRecord
  2
LKK
 70
     0
 40
50.0
 41
1.5
 50
0.0
 71
     0
 42
50.0
  3
MS PGothic.ttf
  4

1001
ACAD
1000
MS PGothic
1071
    32818
  0
STYLE
  5
5DCC
330
3
100
AcDbSymbolTableRecord
100
AcDbTextStyleTableRecord
  2
JL
 70
     0
 40
10.0
 41
0.5
 50
0.0
 71
     0
 42
5.0
  3
MS Mincho.ttf
  4

1001
ACAD
1000
MS Mincho
1071
    32785
  0
ENDTAB
  0
TABLE
  2
VIEW
  5
6
330
0
100
AcDbSymbolTable
 70
     0
  0
ENDTAB
  0
TABLE
  2
UCS
  5
7
330
0
100
AcDbSymbolTable
 70
     0
  0
ENDTAB
  0
TABLE
  2
APPID
  5
9
330
0
100
AcDbSymbolTable
 70
    11
  0
APPID
  5
10
330
9
100
AcDbSymbolTableRecord
100
AcDbRegAppTableRecord
  2
ACAD
 70
     0
  0
APPID
  5
7E02
330
9
100
AcDbSymbolTableRecord
100
AcDbRegAppTableRecord
  2
ACAD_DSTYLE_DIMEXT_LENGTH
 70
     0
  0
APPID
  5
7E03
330
9
100
AcDbSymbolTableRecord
100
AcDbRegAppTableRecord
  2
ACAD_DSTYLE_DIMEXT_ENABLED
 70
     0
  0
APPID
  5
7E04
330
9
100
AcDbSymbolTableRecord
100
AcDbRegAppTableRecord
  2
ACAD_DSTYLE_DIMJOGGED_JOGANGLE_SYMBOL
 70
     0
  0
APPID
  5
7E05
330
9
100
AcDbSymbolTableRecord
100
AcDbRegAppTableRecord
  2
ACAD_DSTYLE_DIMARC_LENGTH_SYMBOL
 70
     0
  0
APPID
  5
80AB
330
9
100
AcDbSymbolTableRecord
100
AcDbRegAppTableRecord
  2
ACAD_EXEMPT_FROM_CAD_STANDARDS
 70
     0
  0
APPID
  5
80EC
330
9
100
AcDbSymbolTableRecord
100
AcDbRegAppTableRecord
  2
ACAD_DSTYLE_DIMTEXT_FILL
 70
     0
  0
APPID
  5
80EF
330
9
100
AcDbSymbolTableRecord
100
AcDbRegAppTableRecord
  2
ACAD_DSTYLE_DIM_LINETYPE
 70
     0
  0
APPID
  5
80F0
330
9
100
AcDbSymbolTableRecord
100
AcDbRegAppTableRecord
  2
ACAD_DSTYLE_DIM_EXT1_LINETYPE
 70
     0
  0
APPID
  5
80F1
330
9
100
AcDbSymbolTableRecord
100
AcDbRegAppTableRecord
  2
ACAD_DSTYLE_DIM_EXT2_LINETYPE
 70
     0
  0
APPID
  5
8DED
330
9
100
AcDbSymbolTableRecord
100
AcDbRegAppTableRecord
  2
ACAD_PSEXT
 70
     0
  0
ENDTAB
  0
TABLE
  2
DIMSTYLE
  5
A
330
0
100
AcDbSymbolTable
 70
     1
100
AcDbDimStyleTable
 71
     1
340
1D
  0
DIMSTYLE
105
1D
102
{ACAD_REACTORS
330
8A8E
330
8A9B
330
8AA8
330
8AB8
330
8AC5
330
8AD4
330
8AE4
330
8AF6
330
8B06
330
8B13
330
8B33
102
}
330
A
100
AcDbSymbolTableRecord
100
AcDbDimStyleTableRecord
  2
STANDARD
 70
     0
 41
3.0
 42
0.8
 44
0.8
 73
     0
 74
     0
 77
     3
 78
     8
 79
     2
140
2.5
147
0.8
172
     1
176
   256
177
   256
178
     3
179
     2
271
     2
272
     2
340
F
341
7D6B
342
7D6B
1001
ACAD_DSTYLE_DIMEXT_LENGTH
1070
   378
1040
0.18
1001
ACAD_DSTYLE_DIMEXT_ENABLED
1070
   383
1070
     0
1001
ACAD_DSTYLE_DIMARC_LENGTH_SYMBOL
1070
   379
1070
     0
1001
ACAD_DSTYLE_DIMJOGGED_JOGANGLE_SYMBOL
1070
   384
1040
1.570796326794896
  0
ENDTAB
  0
TABLE
  2
BLOCK_RECORD
  5
1
330
0
100
AcDbSymbolTable
 70
    14
  0
BLOCK_RECORD
  5
18
102
{ACAD_XDICTIONARY
360
45F
102
}
330
1
100
AcDbSymbolTableRecord
100
AcDbBlockTableRecord
  2
*MODEL_SPACE
340
5CF5
  0
BLOCK_RECORD
  5
15
102
{ACAD_XDICTIONARY
360
5D89
102
}
330
1
100
AcDbSymbolTableRecord
100
AcDbBlockTableRecord
  2
*PAPER_SPACE
340
5CF6
  0
BLOCK_RECORD
  5
639D
330
1
100
AcDbSymbolTableRecord
100
AcDbBlockTableRecord
  2
A$C255C26A2
340
0
  0
BLOCK_RECORD
  5
7D6B
330
1
100
AcDbSymbolTableRecord
100
AcDbBlockTableRecord
  2
_Open30
340
0
102
{BLKREFS
331
8C19
331
8C1A
331
8C22
331
8C23
331
8C2B
331
8C2C
331
8C34
331
8C35
331
8C3F
331
8C40
331
8C4A
331
8C4B
331
8C55
331
8C56
331
8C5E
331
8C64
331
8C65
331
8C6D
331
8C6E
331
8C76
331
8C77
102
}
  0
BLOCK_RECORD
  5
7D71
102
{ACAD_XDICTIONARY
360
7D72
102
}
330
1
100
AcDbSymbolTableRecord
100
AcDbBlockTableRecord
  2
A
340
0
310
2800000020000000200000000100080000000000000400000000000000000000000000000000000000000000000080000080000000808000800000008000800080800000C0C0C000C0DCC000F0CAA6000020400000206000002080000020A0000020C0000020E00000400000004020000040400000406000004080000040A0
310
000040C0000040E00000600000006020000060400000606000006080000060A0000060C0000060E00000800000008020000080400000806000008080000080A0000080C0000080E00000A0000000A0200000A0400000A0600000A0800000A0A00000A0C00000A0E00000C0000000C0200000C0400000C0600000C0800000C0
310
A00000C0C00000C0E00000E0000000E0200000E0400000E0600000E0800000E0A00000E0C00000E0E00040000000400020004000400040006000400080004000A0004000C0004000E00040200000402020004020400040206000402080004020A0004020C0004020E000404000004040200040404000404060004040800040
310
40A0004040C0004040E00040600000406020004060400040606000406080004060A0004060C0004060E00040800000408020004080400040806000408080004080A0004080C0004080E00040A0000040A0200040A0400040A0600040A0800040A0A00040A0C00040A0E00040C0000040C0200040C0400040C0600040C08000
310
40C0A00040C0C00040C0E00040E0000040E0200040E0400040E0600040E0800040E0A00040E0C00040E0E00080000000800020008000400080006000800080008000A0008000C0008000E00080200000802020008020400080206000802080008020A0008020C0008020E00080400000804020008040400080406000804080
310
008040A0008040C0008040E00080600000806020008060400080606000806080008060A0008060C0008060E00080800000808020008080400080806000808080008080A0008080C0008080E00080A0000080A0200080A0400080A0600080A0800080A0A00080A0C00080A0E00080C0000080C0200080C0400080C0600080C0
310
800080C0A00080C0C00080C0E00080E0000080E0200080E0400080E0600080E0800080E0A00080E0C00080E0E000C0000000C0002000C0004000C0006000C0008000C000A000C000C000C000E000C0200000C0202000C0204000C0206000C0208000C020A000C020C000C020E000C0400000C0402000C0404000C0406000C0
310
408000C040A000C040C000C040E000C0600000C0602000C0604000C0606000C0608000C060A000C060C000C060E000C0800000C0802000C0804000C0806000C0808000C080A000C080C000C080E000C0A00000C0A02000C0A04000C0A06000C0A08000C0A0A000C0A0C000C0A0E000C0C00000C0C02000C0C04000C0C06000
310
C0C08000C0C0A000F0FBFF00A4A0A000808080000000FF0000FF000000FFFF00FF000000FF00FF00FFFF0000FFFFFF0000000000000000000000000000000000000000000000000000000000000000000000000000000000000000000000000000000000000000000000000000000000000000000000000000000000000000
310
00000000000000000000000000000000000000000000000000000000000000000000000000000000000000000000000000000000000000000000000000000000000000000000000000000000000000000000000000000000000000000000000000000000000000000000000000000000000000000000000000000000000000
310
00000000000000000000000000000000000000000000000000000000000000000000000000000000000000000000000000000000000000000000000000000000000000000000000000000000000000000000000000000000000000000000000000000000000000000000000000000000000000000000000000000000000000
310
000000000000FDFDFDFDFDFDFDFDFDFDFDFD0000FD0000000000000000000000000000000000FD0000FA0000000000FA00FD0000FDFD00000000000000000000000000000000FD0000FA0000000000FA00FD0000FDFDFD000000000000000000000000000000FD0000FA0000000000FA00FD0000FDFDFDFD00000000000000
310
00000000000000FD0000FAFAFAFAFAFAFA00FD0000FDFDFDFDFD00000000000000000000000000FD000000FA00000000FA00FD0000FDFDFDFDFDFDFDFDFDFDFDFDFDFDFDFDFDFDFD000000FA000000FA0000FD0000FDFDFDFDFD00000000000000000000000000FD00000000FA0000FA0000FD0000FDFDFDFD000000000000
310
0000000000000000FD00000000FA00FA000000FD0000FDFD00000000000000000000000000000000FD0000000000FAFA000000FD0000FD0000000000000000000000000000000000FD0000000000FA00000000FD0000000000000000000000000000000000000000FDFDFDFDFDFDFDFDFDFDFDFD0000000000000000000000
310
00000000000000000000000000000000000000000000000000000000000000000000000000000000000000000000000000000000000000000000000000000000000000000000000000000000000000000000000000000000000000000000000000000000000000000000000000000000000000000000000000000000000000
310
00000000000000000000000000000000000000000000000000000000000000000000000000000000000000000000000000000000000000000000000000000000000000000000000000000000000000000000000000000000000000000000000000000000000000000000000000000000000000000000000000000000000000
310
0000000000000000000000000000000000000000000000000000000000000000000000000000000000000000000000000000000000000000
102
{BLKREFS
331
8B2A
102
}
  0
BLOCK_RECORD
  5
8A8F
330
1
100
AcDbSymbolTableRecord
100
AcDbBlockTableRecord
  2
*D3
340
0
  0
BLOCK_RECORD
  5
8A9C
330
1
100
AcDbSymbolTableRecord
100
AcDbBlockTableRecord
  2
*D4
340
0
  0
BLOCK_RECORD
  5
8AA9
330
1
100
AcDbSymbolTableRecord
100
AcDbBlockTableRecord
  2
*D5
340
0
  0
BLOCK_RECORD
  5
8AB9
330
1
100
AcDbSymbolTableRecord
100
AcDbBlockTableRecord
  2
*D6
340
0
  0
BLOCK_RECORD
  5
8AC6
330
1
100
AcDbSymbolTableRecord
100
AcDbBlockTableRecord
  2
*D7
340
0
  0
BLOCK_RECORD
  5
8AD5
330
1
100
AcDbSymbolTableRecord
100
AcDbBlockTableRecord
  2
*D8
340
0
  0
BLOCK_RECORD
  5
8AE5
330
1
100
AcDbSymbolTableRecord
100
AcDbBlockTableRecord
  2
*D9
340
0
  0
BLOCK_RECORD
  5
8AF7
330
1
100
AcDbSymbolTableRecord
100
AcDbBlockTableRecord
  2
*D10
340
0
  0
BLOCK_RECORD
  5
8B07
330
1
100
AcDbSymbolTableRecord
100
AcDbBlockTableRecord
  2
*D11
340
0
  0
BLOCK_RECORD
  5
8B14
330
1
100
AcDbSymbolTableRecord
100
AcDbBlockTableRecord
  2
*D12
340
0
  0
BLOCK_RECORD
  5
8B34
330
1
100
AcDbSymbolTableRecord
100
AcDbBlockTableRecord
  2
*D13
340
0
  0
ENDTAB
  0
ENDSEC
  0
SECTION
  2
BLOCKS
  0
BLOCK
  5
19
330
18
100
AcDbEntity
  8
0
100
AcDbBlockBegin
  2
*MODEL_SPACE
 70
     0
 10
0.0
 20
0.0
 30
0.0
  3
*MODEL_SPACE
  1

  0
ENDBLK
  5
1A
330
18
100
AcDbEntity
  8
0
100
AcDbBlockEnd
  0
BLOCK
  5
16
330
15
100
AcDbEntity
 67
     1
  8
0
100
AcDbBlockBegin
  2
*PAPER_SPACE
 70
     0
 10
0.0
 20
0.0
 30
0.0
  3
*PAPER_SPACE
  1

  0
ENDBLK
  5
17
330
15
100
AcDbEntity
 67
     1
  8
0
100
AcDbBlockEnd
  0
BLOCK
  5
63A1
330
639D
100
AcDbEntity
  8
0
100
AcDbBlockBegin
  2
A$C255C26A2
 70
     0
 10
0.0
 20
0.0
 30
0.0
  3
A$C255C26A2
  1

  0
LWPOLYLINE
  5
639E
330
639D
100
AcDbEntity
  8
0
100
AcDbPolyline
 90
        3
 70
     1
 43
0.0
 10
7.014806023851633
 20
0.0000006939811783
 10
5.611844869720698
 20
2.430000693981241
 10
8.417767177982568
 20
2.430000693981241
  0
LWPOLYLINE
  5
639F
330
639D
100
AcDbEntity
  8
0
100
AcDbPolyline
 90
        3
 70
     1
 43
0.0
 10
4.20888371558999
 20
0.0000006939811783
 10
2.805922561459283
 20
2.430000693981241
 10
5.611844869720698
 20
2.430000693981241
  0
LWPOLYLINE
  5
63A0
330
639D
100
AcDbEntity
  8
0
100
AcDbPolyline
 90
        3
 70
     1
 43
0.0
 10
1.402961407328348
 20
0.0000006939811783
 10
0.0000002531974133
 20
2.430000693981241
 10
2.805922561459283
 20
2.430000693981241
  0
ENDBLK
  5
63A2
330
639D
100
AcDbEntity
  8
0
100
AcDbBlockEnd
  0
BLOCK
  5
7D6C
330
7D6B
100
AcDbEntity
  8
0
100
AcDbBlockBegin
  2
_Open30
 70
     0
 10
0.0
 20
0.0
 30
0.0
  3
_Open30
  1

  0
LINE
  5
7D6D
330
7D6B
100
AcDbEntity
  8
0
  6
ByBlock
 62
     0
370
    -2
100
AcDbLine
 10
-1.0
 20
0.26794919
 30
0.0
 11
0.0
 21
0.0
 31
0.0
  0
LINE
  5
7D6E
330
7D6B
100
AcDbEntity
  8
0
  6
ByBlock
 62
     0
370
    -2
100
AcDbLine
 10
0.0
 20
0.0
 30
0.0
 11
-1.0
 21
-0.26794919
 31
0.0
  0
LINE
  5
7D6F
330
7D6B
100
AcDbEntity
  8
0
  6
ByBlock
 62
     0
370
    -2
100
AcDbLine
 10
0.0
 20
0.0
 30
0.0
 11
-1.0
 21
0.0
 31
0.0
  0
ENDBLK
  5
7D70
330
7D6B
100
AcDbEntity
  8
0
100
AcDbBlockEnd
  0
BLOCK
  5
7D75
330
7D71
100
AcDbEntity
  8
0
100
AcDbBlockBegin
  2
A
 70
     0
 10
0.0
 20
0.0
 30
0.0
  3
A
  1

  0
MTEXT
  5
7D76
330
7D71
100
AcDbEntity
  8
mark
 62
     3
100
AcDbMText
 10
10.65641897020822
 20
-5.596245361730467
 30
0.0
 40
2.5
 41
0.0
 71
     5
 72
     1
  1
A
 73
     1
 44
1.0
1001
ACAD
1000
ACAD_MTEXT_DEFINED_HEIGHT_BEGIN
1070
    46
1040
0.0
1000
ACAD_MTEXT_DEFINED_HEIGHT_END
  0
LWPOLYLINE
  5
7D77
330
7D71
100
AcDbEntity
  8
mark
100
AcDbPolyline
 90
        4
 70
     1
 43
0.0
 10
9.07926800414657
 20
-7.141145101782569
 10
12.07926800414657
 20
-7.141145101782569
 10
12.07926800414657
 20
-4.141145101782569
 10
9.07926800414657
 20
-4.141145101782569
  0
HATCH
  5
7D78
330
7D71
100
AcDbEntity
  8
mark
100
AcDbHatch
 10
0.0
 20
0.0
 30
0.0
210
0.0
220
0.0
230
1.0
  2
SOLID
 70
     1
 71
     0
 91
        1
 92
        7
 72
     0
 73
     1
 93
        3
 10
5.32926800414657
 20
-5.641145101782569
 10
4.07926800414657
 20
-4.391145101782541
 10
4.07926800414657
 20
-6.891145101782541
 97
        0
 75
     0
 76
     1
 47
0.0398277943677868
 98
        1
 10
4.589689734415287
 20
-5.732163331855076
450
        0
451
        0
460
0.0
461
0.0
452
        1
462
1.0
453
        2
463
0.0
 63
     5
421
      255
463
1.0
 63
     7
421
 16777215
470
LINEAR
1001
ACAD
1010
0.0
1020
0.0
1030
0.0
  0
LINE
  5
7D79
330
7D71
100
AcDbEntity
  8
mark
100
AcDbLine
 10
5.32926800414657
 20
-5.641145101782569
 30
0.0
 11
9.07926800414657
 21
-5.641145101782569
 31
0.0
  0
LINE
  5
7D7A
330
7D71
100
AcDbEntity
  8
mark
100
AcDbLine
 10
5.32926800414657
 20
-5.641145101782569
 30
0.0
 11
4.07926800414657
 21
-4.391145101782569
 31
0.0
  0
LINE
  5
7D7B
330
7D71
100
AcDbEntity
  8
mark
100
AcDbLine
 10
5.32926800414657
 20
-5.641145101782569
 30
0.0
 11
4.07926800414657
 21
-6.891145101782569
 31
0.0
  0
ENDBLK
  5
7D7C
330
7D71
100
AcDbEntity
  8
0
100
AcDbBlockEnd
  0
BLOCK
  5
8A99
330
8A8F
100
AcDbEntity
  8
0
100
AcDbBlockBegin
  2
*D3
 70
     1
 10
0.0
 20
0.0
 30
0.0
  3
*D3
  1

  0
LINE
  5
8C16
330
8A8F
100
AcDbEntity
  8
mark
370
    -2
100
AcDbLine
 10
64.50000000000006
 20
104.644064972281
 30
0.0
 11
64.50000000000006
 21
113.1065538347739
 31
0.0
  0
LINE
  5
8C17
330
8A8F
100
AcDbEntity
  8
mark
370
    -2
100
AcDbLine
 10
125.4999999999999
 20
104.644064972281
 30
0.0
 11
125.4999999999999
 21
113.1065538347739
 31
0.0
  0
LINE
  5
8C18
330
8A8F
100
AcDbEntity
  8
mark
370
    -2
100
AcDbLine
 10
67.50000000000006
 20
112.3065538347739
 30
0.0
 11
122.4999999999999
 21
112.3065538347739
 31
0.0
  0
INSERT
  5
8C19
330
8A8F
100
AcDbEntity
  8
mark
370
    -2
100
AcDbBlockReference
  2
_Open30
 10
64.50000000000006
 20
112.3065538347739
 30
0.0
 41
3.0
 42
3.0
 43
3.0
 50
180.0
  0
INSERT
  5
8C1A
330
8A8F
100
AcDbEntity
  8
mark
370
    -2
100
AcDbBlockReference
  2
_Open30
 10
125.4999999999999
 20
112.3065538347739
 30
0.0
 41
3.0
 42
3.0
 43
3.0
  0
MTEXT
  5
8C1B
330
8A8F
100
AcDbEntity
  8
mark
 62
     3
100
AcDbMText
 10
95.0
 20
114.3565538347739
 30
0.0
 40
2.5
 41
0.0
 71
     5
 72
     1
  1
\A1;%%c61
 73
     1
 44
1.0
  0
POINT
  5
8C1C
330
8A8F
100
AcDbEntity
  8
DEFPOINTS
 62
     0
100
AcDbPoint
 10
64.50000000000006
 20
103.844064972281
 30
0.0
  0
POINT
  5
8C1D
330
8A8F
100
AcDbEntity
  8
DEFPOINTS
 62
     0
100
AcDbPoint
 10
125.4999999999999
 20
103.844064972281
 30
0.0
  0
POINT
  5
8C1E
330
8A8F
100
AcDbEntity
  8
DEFPOINTS
 62
     0
100
AcDbPoint
 10
125.4999999999999
 20
112.3065538347739
 30
0.0
  0
ENDBLK
  5
8A9A
330
8A8F
100
AcDbEntity
  8
0
100
AcDbBlockEnd
  0
BLOCK
  5
8AA6
330
8A9C
100
AcDbEntity
  8
0
100
AcDbBlockBegin
  2
*D4
 70
     1
 10
0.0
 20
0.0
 30
0.0
  3
*D4
  1

  0
LINE
  5
8C1F
330
8A9C
100
AcDbEntity
  8
mark
370
    -2
100
AcDbLine
 10
58.5
 20
104.644064972281
 30
0.0
 11
58.5
 21
119.8949798825102
 31
0.0
  0
LINE
  5
8C20
330
8A9C
100
AcDbEntity
  8
mark
370
    -2
100
AcDbLine
 10
131.5
 20
104.644064972281
 30
0.0
 11
131.5
 21
119.8949798825102
 31
0.0
  0
LINE
  5
8C21
330
8A9C
100
AcDbEntity
  8
mark
370
    -2
100
AcDbLine
 10
61.5
 20
119.0949798825102
 30
0.0
 11
128.5
 21
119.0949798825102
 31
0.0
  0
INSERT
  5
8C22
330
8A9C
100
AcDbEntity
  8
mark
370
    -2
100
AcDbBlockReference
  2
_Open30
 10
58.5
 20
119.0949798825102
 30
0.0
 41
3.0
 42
3.0
 43
3.0
 50
180.0
  0
INSERT
  5
8C23
330
8A9C
100
AcDbEntity
  8
mark
370
    -2
100
AcDbBlockReference
  2
_Open30
 10
131.5
 20
119.0949798825102
 30
0.0
 41
3.0
 42
3.0
 43
3.0
  0
MTEXT
  5
8C24
330
8A9C
100
AcDbEntity
  8
mark
 62
     3
100
AcDbMText
 10
95.0
 20
121.1449798825102
 30
0.0
 40
2.5
 41
0.0
 71
     5
 72
     1
  1
\A1;%%c73%%p0.5
 73
     1
 44
1.0
  0
POINT
  5
8C25
330
8A9C
100
AcDbEntity
  8
DEFPOINTS
 62
     0
100
AcDbPoint
 10
58.5
 20
103.844064972281
 30
0.0
  0
POINT
  5
8C26
330
8A9C
100
AcDbEntity
  8
DEFPOINTS
 62
     0
100
AcDbPoint
 10
131.5
 20
103.844064972281
 30
0.0
  0
POINT
  5
8C27
330
8A9C
100
AcDbEntity
  8
DEFPOINTS
 62
     0
100
AcDbPoint
 10
131.5
 20
119.0949798825102
 30
0.0
  0
ENDBLK
  5
8AA7
330
8A9C
100
AcDbEntity
  8
0
100
AcDbBlockEnd
  0
BLOCK
  5
8AB3
330
8AA9
100
AcDbEntity
  8
0
100
AcDbBlockBegin
  2
*D5
 70
     1
 10
0.0
 20
0.0
 30
0.0
  3
*D5
  1

  0
LINE
  5
8C28
330
8AA9
100
AcDbEntity
  8
mark
370
    -2
100
AcDbLine
 10
55.0
 20
102.144064972281
 30
0.0
 11
55.0
 21
127.6418422006146
 31
0.0
  0
LINE
  5
8C29
330
8AA9
100
AcDbEntity
  8
mark
370
    -2
100
AcDbLine
 10
134.9999999999999
 20
102.1440649722814
 30
0.0
 11
134.9999999999999
 21
127.6418422006146
 31
0.0
  0
LINE
  5
8C2A
330
8AA9
100
AcDbEntity
  8
mark
370
    -2
100
AcDbLine
 10
58.0
 20
126.8418422006146
 30
0.0
 11
131.9999999999999
 21
126.8418422006146
 31
0.0
  0
INSERT
  5
8C2B
330
8AA9
100
AcDbEntity
  8
mark
370
    -2
100
AcDbBlockReference
  2
_Open30
 10
55.0
 20
126.8418422006146
 30
0.0
 41
3.0
 42
3.0
 43
3.0
 50
180.0
  0
INSERT
  5
8C2C
330
8AA9
100
AcDbEntity
  8
mark
370
    -2
100
AcDbBlockReference
  2
_Open30
 10
134.9999999999999
 20
126.8418422006146
 30
0.0
 41
3.0
 42
3.0
 43
3.0
  0
MTEXT
  5
8C2D
330
8AA9
100
AcDbEntity
  8
mark
 62
     3
100
AcDbMText
 10
94.99999999999998
 20
128.8918422006147
 30
0.0
 40
2.5
 41
0.0
 71
     5
 72
     1
  1
\A1;%%c80
 73
     1
 44
1.0
  0
POINT
  5
8C2E
330
8AA9
100
AcDbEntity
  8
DEFPOINTS
 62
     0
100
AcDbPoint
 10
55.0
 20
101.344064972281
 30
0.0
  0
POINT
  5
8C2F
330
8AA9
100
AcDbEntity
  8
DEFPOINTS
 62
     0
100
AcDbPoint
 10
134.9999999999999
 20
101.3440649722814
 30
0.0
  0
POINT
  5
8C30
330
8AA9
100
AcDbEntity
  8
DEFPOINTS
 62
     0
100
AcDbPoint
 10
134.9999999999999
 20
126.8418422006146
 30
0.0
  0
ENDBLK
  5
8AB4
330
8AA9
100
AcDbEntity
  8
0
100
AcDbBlockEnd
  0
BLOCK
  5
8AC3
330
8AB9
100
AcDbEntity
  8
0
100
AcDbBlockBegin
  2
*D6
 70
     1
 10
0.0
 20
0.0
 30
0.0
  3
*D6
  1

  0
LINE
  5
8C31
330
8AB9
100
AcDbEntity
  8
mark
370
    -2
100
AcDbLine
 10
125.0
 20
87.96156497228102
 30
0.0
 11
125.0
 21
73.71350535504037
 31
0.0
  0
LINE
  5
8C32
330
8AB9
100
AcDbEntity
  8
mark
370
    -2
100
AcDbLine
 10
65.0
 20
87.96156497228102
 30
0.0
 11
65.0
 21
73.71350535504037
 31
0.0
  0
LINE
  5
8C33
330
8AB9
100
AcDbEntity
  8
mark
370
    -2
100
AcDbLine
 10
122.0
 20
74.51350535504037
 30
0.0
 11
68.0
 21
74.51350535504037
 31
0.0
  0
INSERT
  5
8C34
330
8AB9
100
AcDbEntity
  8
mark
370
    -2
100
AcDbBlockReference
  2
_Open30
 10
125.0
 20
74.51350535504037
 30
0.0
 41
3.0
 42
3.0
 43
3.0
  0
INSERT
  5
8C35
330
8AB9
100
AcDbEntity
  8
mark
370
    -2
100
AcDbBlockReference
  2
_Open30
 10
65.0
 20
74.51350535504037
 30
0.0
 41
3.0
 42
3.0
 43
3.0
 50
180.0
  0
MTEXT
  5
8C36
330
8AB9
100
AcDbEntity
  8
mark
 62
     3
100
AcDbMText
 10
95.0
 20
76.56350535504036
 30
0.0
 40
2.5
 41
0.0
 71
     5
 72
     1
  1
\A1;M60X2.P
 73
     1
 44
1.0
  0
POINT
  5
8C37
330
8AB9
100
AcDbEntity
  8
DEFPOINTS
 62
     0
100
AcDbPoint
 10
125.0
 20
88.761564972281
 30
0.0
  0
POINT
  5
8C38
330
8AB9
100
AcDbEntity
  8
DEFPOINTS
 62
     0
100
AcDbPoint
 10
65.0
 20
88.761564972281
 30
0.0
  0
POINT
  5
8C39
330
8AB9
100
AcDbEntity
  8
DEFPOINTS
 62
     0
100
AcDbPoint
 10
65.0
 20
74.51350535504037
 30
0.0
  0
ENDBLK
  5
8AC4
330
8AB9
100
AcDbEntity
  8
0
100
AcDbBlockEnd
  0
BLOCK
  5
8AD2
330
8AC6
100
AcDbEntity
  8
0
100
AcDbBlockBegin
  2
*D7
 70
     1
 10
0.0
 20
0.0
 30
0.0
  3
*D7
  1

  0
LINE
  5
8C3A
330
8AC6
100
AcDbEntity
  8
mark
370
    -2
100
AcDbLine
 10
56.2
 20
103.344064972281
 30
0.0
 11
44.43788175694278
 21
103.344064972281
 31
0.0
  0
LINE
  5
8C3B
330
8AC6
100
AcDbEntity
  8
mark
370
    -2
100
AcDbLine
 10
57.7
 20
103.844064972281
 30
0.0
 11
44.43788175694278
 21
103.844064972281
 31
0.0
  0
LINE
  5
8C3C
330
8AC6
100
AcDbEntity
  8
mark
370
    -2
100
AcDbLine
 10
45.23788175694278
 20
100.344064972281
 30
0.0
 11
45.23788175694278
 21
97.344064972281
 31
0.0
  0
LINE
  5
8C3D
330
8AC6
100
AcDbEntity
  8
mark
370
    -2
100
AcDbLine
 10
45.23788175694278
 20
106.844064972281
 30
0.0
 11
45.23788175694279
 21
116.0273983056143
 31
0.0
  0
LINE
  5
8C3E
330
8AC6
100
AcDbEntity
  8
mark
370
    -2
100
AcDbLine
 10
45.23788175694278
 20
103.344064972281
 30
0.0
 11
45.23788175694278
 21
103.844064972281
 31
0.0
  0
INSERT
  5
8C3F
330
8AC6
100
AcDbEntity
  8
mark
370
    -2
100
AcDbBlockReference
  2
_Open30
 10
45.23788175694278
 20
103.344064972281
 30
0.0
 41
3.0
 42
3.0
 43
3.0
 50
90.0
  0
INSERT
  5
8C40
330
8AC6
100
AcDbEntity
  8
mark
370
    -2
100
AcDbBlockReference
  2
_Open30
 10
45.23788175694278
 20
103.844064972281
 30
0.0
 41
3.0
 42
3.0
 43
3.0
 50
270.0
  0
MTEXT
  5
8C41
330
8AC6
100
AcDbEntity
  8
mark
 62
     3
100
AcDbMText
 10
43.18788175694277
 20
112.9357316389477
 30
0.0
 40
2.5
 41
0.0
 71
     5
 72
     1
  1
\A1;0.5
 11
0.0000000000000001
 21
1.0
 31
0.0
 73
     1
 44
1.0
  0
POINT
  5
8C42
330
8AC6
100
AcDbEntity
  8
DEFPOINTS
 62
     0
100
AcDbPoint
 10
57.0
 20
103.344064972281
 30
0.0
  0
POINT
  5
8C43
330
8AC6
100
AcDbEntity
  8
DEFPOINTS
 62
     0
100
AcDbPoint
 10
58.5
 20
103.844064972281
 30
0.0
  0
POINT
  5
8C44
330
8AC6
100
AcDbEntity
  8
DEFPOINTS
 62
     0
100
AcDbPoint
 10
45.23788175694278
 20
103.844064972281
 30
0.0
  0
ENDBLK
  5
8AD3
330
8AC6
100
AcDbEntity
  8
0
100
AcDbBlockEnd
  0
BLOCK
  5
8AE1
330
8AD5
100
AcDbEntity
  8
0
100
AcDbBlockBegin
  2
*D8
 70
     1
 10
0.0
 20
0.0
 30
0.0
  3
*D8
  1

  0
LINE
  5
8C45
330
8AD5
100
AcDbEntity
  8
mark
370
    -2
100
AcDbLine
 10
54.35341921820641
 20
197.9289414876179
 30
0.0
 11
44.43788175694284
 21
197.9289414876179
 31
0.0
  0
LINE
  5
8C46
330
8AD5
100
AcDbEntity
  8
mark
370
    -2
100
AcDbLine
 10
54.35341921820641
 20
190.928941487618
 30
0.0
 11
44.43788175694284
 21
190.928941487618
 31
0.0
  0
LINE
  5
8C47
330
8AD5
100
AcDbEntity
  8
mark
370
    -2
100
AcDbLine
 10
45.23788175694284
 20
200.928941487618
 30
0.0
 11
45.23788175694284
 21
203.928941487618
 31
0.0
  0
LINE
  5
8C48
330
8AD5
100
AcDbEntity
  8
mark
370
    -2
100
AcDbLine
 10
45.23788175694284
 20
187.9289414876179
 30
0.0
 11
45.23788175694284
 21
184.928941487618
 31
0.0
  0
LINE
  5
8C49
330
8AD5
100
AcDbEntity
  8
mark
370
    -2
100
AcDbLine
 10
45.23788175694284
 20
197.9289414876179
 30
0.0
 11
45.23788175694284
 21
190.928941487618
 31
0.0
  0
INSERT
  5
8C4A
330
8AD5
100
AcDbEntity
  8
mark
370
    -2
100
AcDbBlockReference
  2
_Open30
 10
45.23788175694284
 20
197.9289414876179
 30
0.0
 41
3.0
 42
3.0
 43
3.0
 50
270.0
  0
INSERT
  5
8C4B
330
8AD5
100
AcDbEntity
  8
mark
370
    -2
100
AcDbBlockReference
  2
_Open30
 10
45.23788175694284
 20
190.928941487618
 30
0.0
 41
3.0
 42
3.0
 43
3.0
 50
90.0
  0
MTEXT
  5
8C4C
330
8AD5
100
AcDbEntity
  8
mark
 62
     3
100
AcDbMText
 10
43.18788175694281
 20
194.428941487618
 30
0.0
 40
2.5
 41
0.0
 71
     5
 72
     1
  1
\A1;7
 11
0.0000000000000001
 21
1.0
 31
0.0
 73
     1
 44
1.0
  0
POINT
  5
8C4D
330
8AD5
100
AcDbEntity
  8
DEFPOINTS
 62
     0
100
AcDbPoint
 10
55.15341921820641
 20
197.9289414876179
 30
0.0
  0
POINT
  5
8C4E
330
8AD5
100
AcDbEntity
  8
DEFPOINTS
 62
     0
100
AcDbPoint
 10
55.15341921820641
 20
190.928941487618
 30
0.0
  0
POINT
  5
8C4F
330
8AD5
100
AcDbEntity
  8
DEFPOINTS
 62
     0
100
AcDbPoint
 10
45.23788175694284
 20
190.928941487618
 30
0.0
  0
ENDBLK
  5
8AE2
330
8AD5
100
AcDbEntity
  8
0
100
AcDbBlockEnd
  0
BLOCK
  5
8AF1
330
8AE5
100
AcDbEntity
  8
0
100
AcDbBlockBegin
  2
*D9
 70
     1
 10
0.0
 20
0.0
 30
0.0
  3
*D9
  1

  0
LINE
  5
8C50
330
8AE5
100
AcDbEntity
  8
mark
370
    -2
100
AcDbLine
 10
58.15341921820635
 20
190.1289414876179
 30
0.0
 11
58.15341921820635
 21
148.0285316625443
 31
0.0
  0
LINE
  5
8C51
330
8AE5
100
AcDbEntity
  8
mark
370
    -2
100
AcDbLine
 10
55.15341921820641
 20
190.1289414876179
 30
0.0
 11
55.15341921820641
 21
148.0285316625443
 31
0.0
  0
LINE
  5
8C52
330
8AE5
100
AcDbEntity
  8
mark
370
    -2
100
AcDbLine
 10
61.15341921820635
 20
148.8285316625443
 30
0.0
 11
64.15341921820635
 21
148.8285316625443
 31
0.0
  0
LINE
  5
8C53
330
8AE5
100
AcDbEntity
  8
mark
370
    -2
100
AcDbLine
 10
52.15341921820641
 20
148.8285316625443
 30
0.0
 11
45.88675255153974
 21
148.8285316625443
 31
0.0
  0
LINE
  5
8C54
330
8AE5
100
AcDbEntity
  8
mark
370
    -2
100
AcDbLine
 10
58.15341921820635
 20
148.8285316625443
 30
0.0
 11
55.15341921820641
 21
148.8285316625443
 31
0.0
  0
INSERT
  5
8C55
330
8AE5
100
AcDbEntity
  8
mark
370
    -2
100
AcDbBlockReference
  2
_Open30
 10
58.15341921820635
 20
148.8285316625443
 30
0.0
 41
3.0
 42
3.0
 43
3.0
 50
180.0
  0
INSERT
  5
8C56
330
8AE5
100
AcDbEntity
  8
mark
370
    -2
100
AcDbBlockReference
  2
_Open30
 10
55.15341921820641
 20
148.8285316625443
 30
0.0
 41
3.0
 42
3.0
 43
3.0
  0
MTEXT
  5
8C57
330
8AE5
100
AcDbEntity
  8
mark
 62
     3
100
AcDbMText
 10
47.52008588487307
 20
150.8785316625444
 30
0.0
 40
2.5
 41
0.0
 71
     5
 72
     1
  1
\A1;3
 73
     1
 44
1.0
  0
POINT
  5
8C58
330
8AE5
100
AcDbEntity
  8
DEFPOINTS
 62
     0
100
AcDbPoint
 10
58.15341921820635
 20
190.928941487618
 30
0.0
  0
POINT
  5
8C59
330
8AE5
100
AcDbEntity
  8
DEFPOINTS
 62
     0
100
AcDbPoint
 10
55.15341921820641
 20
190.928941487618
 30
0.0
  0
POINT
  5
8C5A
330
8AE5
100
AcDbEntity
  8
DEFPOINTS
 62
     0
100
AcDbPoint
 10
55.15341921820641
 20
148.8285316625443
 30
0.0
  0
ENDBLK
  5
8AF2
330
8AE5
100
AcDbEntity
  8
0
100
AcDbBlockEnd
  0
BLOCK
  5
8AFE
330
8AF7
100
AcDbEntity
  8
0
100
AcDbBlockBegin
  2
*D10
 70
     1
 10
0.0
 20
0.0
 30
0.0
  3
*D10
  1

  0
LINE
  5
8C5B
330
8AF7
100
AcDbEntity
  8
mark
370
    -2
100
AcDbLine
 10
43.72996273973163
 20
76.57402771201415
 30
0.0
 11
53.46446609406701
 21
86.30853106634837
 31
0.0
  0
MTEXT
  5
8C5C
330
8AF7
100
AcDbEntity
  8
mark
 62
     3
100
AcDbMText
 10
46.08698534368711
 20
81.83018811883403
 30
0.0
 40
2.5
 41
0.0
 71
     5
 72
     1
  1
\A1;2-R2
 11
0.70710678118659
 21
0.7071067811865052
 31
0.0
 73
     1
 44
1.0
  0
LINE
  5
8C5D
330
8AF7
100
AcDbEntity
  8
mark
370
    -2
100
AcDbLine
 10
57.00000000000001
 20
89.84406497228095
 30
0.0
 11
55.58578643762679
 21
88.42985140990789
 31
0.0
  0
INSERT
  5
8C5E
330
8AF7
100
AcDbEntity
  8
mark
370
    -2
100
AcDbBlockReference
  2
_Open30
 10
55.58578643762679
 20
88.42985140990789
 30
0.0
 41
3.0
 42
3.0
 43
3.0
 50
44.99999999999657
  0
POINT
  5
8C5F
330
8AF7
100
AcDbEntity
  8
DEFPOINTS
 62
     0
100
AcDbPoint
 10
55.58578643762679
 20
88.42985140990789
 30
0.0
  0
POINT
  5
8C60
330
8AF7
100
AcDbEntity
  8
DEFPOINTS
 62
     0
100
AcDbPoint
 10
57.00000000000001
 20
89.84406497228095
 30
0.0
  0
ENDBLK
  5
8AFF
330
8AF7
100
AcDbEntity
  8
0
100
AcDbBlockEnd
  0
BLOCK
  5
8B11
330
8B07
100
AcDbEntity
  8
0
100
AcDbBlockBegin
  2
*D11
 70
     1
 10
0.0
 20
0.0
 30
0.0
  3
*D11
  1

  0
LINE
  5
8C61
330
8B07
100
AcDbEntity
  8
mark
370
    -2
100
AcDbLine
 10
137.7999999999999
 20
95.84406497228105
 30
0.0
 11
146.4358814776898
 21
95.84406497228105
 31
0.0
  0
LINE
  5
8C62
330
8B07
100
AcDbEntity
  8
mark
370
    -2
100
AcDbLine
 10
132.3
 20
103.844064972281
 30
0.0
 11
146.4358814776898
 21
103.844064972281
 31
0.0
  0
LINE
  5
8C63
330
8B07
100
AcDbEntity
  8
mark
370
    -2
100
AcDbLine
 10
145.6358814776898
 20
98.84406497228106
 30
0.0
 11
145.6358814776898
 21
100.844064972281
 31
0.0
  0
INSERT
  5
8C64
330
8B07
100
AcDbEntity
  8
mark
370
    -2
100
AcDbBlockReference
  2
_Open30
 10
145.6358814776898
 20
95.84406497228105
 30
0.0
 41
3.0
 42
3.0
 43
3.0
 50
270.0
  0
INSERT
  5
8C65
330
8B07
100
AcDbEntity
  8
mark
370
    -2
100
AcDbBlockReference
  2
_Open30
 10
145.6358814776898
 20
103.844064972281
 30
0.0
 41
3.0
 42
3.0
 43
3.0
 50
90.0
  0
MTEXT
  5
8C66
330
8B07
100
AcDbEntity
  8
mark
 62
     3
100
AcDbMText
 10
143.5858814776898
 20
99.84406497228103
 30
0.0
 40
2.5
 41
0.0
 71
     5
 72
     1
  1
\A1;8
 11
0.0000000000000001
 21
1.0
 31
0.0
 73
     1
 44
1.0
  0
POINT
  5
8C67
330
8B07
100
AcDbEntity
  8
DEFPOINTS
 62
     0
100
AcDbPoint
 10
136.9999999999999
 20
95.84406497228105
 30
0.0
  0
POINT
  5
8C68
330
8B07
100
AcDbEntity
  8
DEFPOINTS
 62
     0
100
AcDbPoint
 10
131.5
 20
103.844064972281
 30
0.0
  0
POINT
  5
8C69
330
8B07
100
AcDbEntity
  8
DEFPOINTS
 62
     0
100
AcDbPoint
 10
145.6358814776898
 20
103.844064972281
 30
0.0
  0
ENDBLK
  5
8B12
330
8B07
100
AcDbEntity
  8
0
100
AcDbBlockEnd
  0
BLOCK
  5
8B1E
330
8B14
100
AcDbEntity
  8
0
100
AcDbBlockBegin
  2
*D12
 70
     1
 10
0.0
 20
0.0
 30
0.0
  3
*D12
  1

  0
LINE
  5
8C6A
330
8B14
100
AcDbEntity
  8
mark
370
    -2
100
AcDbLine
 10
132.3
 20
103.844064972281
 30
0.0
 11
155.1554876740462
 21
103.844064972281
 31
0.0
  0
LINE
  5
8C6B
330
8B14
100
AcDbEntity
  8
mark
370
    -2
100
AcDbLine
 10
133.8
 20
87.84406497228099
 30
0.0
 11
155.1554876740462
 21
87.84406497228099
 31
0.0
  0
LINE
  5
8C6C
330
8B14
100
AcDbEntity
  8
mark
370
    -2
100
AcDbLine
 10
154.3554876740462
 20
100.844064972281
 30
0.0
 11
154.3554876740462
 21
90.844064972281
 31
0.0
  0
INSERT
  5
8C6D
330
8B14
100
AcDbEntity
  8
mark
370
    -2
100
AcDbBlockReference
  2
_Open30
 10
154.3554876740462
 20
103.844064972281
 30
0.0
 41
3.0
 42
3.0
 43
3.0
 50
90.0
  0
INSERT
  5
8C6E
330
8B14
100
AcDbEntity
  8
mark
370
    -2
100
AcDbBlockReference
  2
_Open30
 10
154.3554876740462
 20
87.84406497228099
 30
0.0
 41
3.0
 42
3.0
 43
3.0
 50
270.0
  0
MTEXT
  5
8C6F
330
8B14
100
AcDbEntity
  8
mark
 62
     3
100
AcDbMText
 10
152.3054876740462
 20
95.844064972281
 30
0.0
 40
2.5
 41
0.0
 71
     5
 72
     1
  1
\A1;16%%P0.2
 11
0.0000000000000001
 21
1.0
 31
0.0
 73
     1
 44
1.0
  0
POINT
  5
8C70
330
8B14
100
AcDbEntity
  8
DEFPOINTS
 62
     0
100
AcDbPoint
 10
131.5
 20
103.844064972281
 30
0.0
  0
POINT
  5
8C71
330
8B14
100
AcDbEntity
  8
DEFPOINTS
 62
     0
100
AcDbPoint
 10
133.0
 20
87.84406497228099
 30
0.0
  0
POINT
  5
8C72
330
8B14
100
AcDbEntity
  8
DEFPOINTS
 62
     0
100
AcDbPoint
 10
154.3554876740462
 20
87.84406497228099
 30
0.0
  0
ENDBLK
  5
8B1F
330
8B14
100
AcDbEntity
  8
0
100
AcDbBlockEnd
  0
BLOCK
  5
8B3E
330
8B34
100
AcDbEntity
  8
0
100
AcDbBlockBegin
  2
*D13
 70
     1
 10
0.0
 20
0.0
 30
0.0
  3
*D13
  1

  0
LINE
  5
8C73
330
8B34
100
AcDbEntity
  8
mark
370
    -2
100
AcDbLine
 10
81.46626605778465
 20
106.844064972281
 30
0.0
 11
81.46626605778465
 21
109.844064972281
 31
0.0
  0
LINE
  5
8C74
330
8B34
100
AcDbEntity
  8
mark
370
    -2
100
AcDbLine
 10
81.46626605778465
 20
98.84406497228098
 30
0.0
 11
81.46626605778463
 21
92.57739830561432
 31
0.0
  0
LINE
  5
8C75
330
8B34
100
AcDbEntity
  8
mark
370
    -2
100
AcDbLine
 10
81.46626605778465
 20
103.844064972281
 30
0.0
 11
81.46626605778465
 21
101.844064972281
 31
0.0
  0
INSERT
  5
8C76
330
8B34
100
AcDbEntity
  8
mark
370
    -2
100
AcDbBlockReference
  2
_Open30
 10
81.46626605778465
 20
103.844064972281
 30
0.0
 41
3.0
 42
3.0
 43
3.0
 50
270.0
  0
INSERT
  5
8C77
330
8B34
100
AcDbEntity
  8
mark
370
    -2
100
AcDbBlockReference
  2
_Open30
 10
81.46626605778465
 20
101.844064972281
 30
0.0
 41
3.0
 42
3.0
 43
3.0
 50
90.0
  0
MTEXT
  5
8C78
330
8B34
100
AcDbEntity
  8
mark
 62
     3
100
AcDbMText
 10
79.41626605778463
 20
94.21073163894766
 30
0.0
 40
2.5
 41
0.0
 71
     5
 72
     1
  1
\A1;2
 11
0.0000000000000001
 21
1.0
 31
0.0
 73
     1
 44
1.0
  0
POINT
  5
8C79
330
8B34
100
AcDbEntity
  8
DEFPOINTS
 62
     0
100
AcDbPoint
 10
81.46626605778465
 20
103.844064972281
 30
0.0
  0
POINT
  5
8C7A
330
8B34
100
AcDbEntity
  8
DEFPOINTS
 62
     0
100
AcDbPoint
 10
81.46626605778465
 20
101.844064972281
 30
0.0
  0
POINT
  5
8C7B
330
8B34
100
AcDbEntity
  8
DEFPOINTS
 62
     0
100
AcDbPoint
 10
81.46626605778465
 20
101.844064972281
 30
0.0
  0
ENDBLK
  5
8B3F
330
8B34
100
AcDbEntity
  8
0
100
AcDbBlockEnd
  0
ENDSEC
  0
SECTION
  2
ENTITIES
  0
MTEXT
  5
C0
330
18
100
AcDbEntity
  8
0
100
AcDbMText
 10
41.26970765600413
 20
233.6950877649332
 30
0.0
 40
2.5
 41
0.0
 71
     1
 72
     5
  1

  7
ISOCP3
 73
     1
 44
1.0
  0
ARC
  5
7D5B
330
18
100
AcDbEntity
  8
contour
100
AcDbCircle
 10
95.0
 20
194.428941487618
 30
0.0
 40
40.0
100
AcDbArc
 50
185.0198001316768
 51
294.980199868322
  0
CIRCLE
  5
7D5C
330
18
100
AcDbEntity
  8
contour
100
AcDbCircle
 10
95.0
 20
194.428941487618
 30
0.0
 40
36.5
  0
ARC
  5
7D5D
330
18
100
AcDbEntity
  8
contour
 62
     4
100
AcDbCircle
 10
95.0
 20
194.428941487618
 30
0.0
 40
30.0
100
AcDbArc
 50
174.2608295227318
 51
95.73917047726819
  0
CIRCLE
  5
7D5E
330
18
100
AcDbEntity
  8
contour
100
AcDbCircle
 10
95.0
 20
194.428941487618
 30
0.0
 40
28.9175
  0
CIRCLE
  5
7D5F
330
18
100
AcDbEntity
  8
contour
100
AcDbCircle
 10
95.0
 20
194.428941487618
 30
0.0
 40
30.5
  0
LINE
  5
7D60
330
18
100
AcDbEntity
  8
center
 48
0.3
100
AcDbLine
 10
53.0
 20
194.428941487618
 30
0.0
 11
137.0
 21
194.428941487618
 31
0.0
  0
LINE
  5
7D61
330
18
100
AcDbEntity
  8
center
 48
0.3
100
AcDbLine
 10
95.0
 20
236.428941487618
 30
0.0
 11
95.0
 21
152.428941487618
 31
0.0
  0
LINE
  5
7D62
330
18
100
AcDbEntity
  8
contour
100
AcDbLine
 10
55.15341921820641
 20
197.9289414876179
 30
0.0
 11
58.15341921820635
 21
197.9289414876179
 31
0.0
  0
LINE
  5
7D63
330
18
100
AcDbEntity
  8
contour
100
AcDbLine
 10
55.15341921820641
 20
190.928941487618
 30
0.0
 11
58.15341921820635
 21
190.928941487618
 31
0.0
  0
LINE
  5
7D64
330
18
100
AcDbEntity
  8
contour
100
AcDbLine
 10
58.15341921820641
 20
190.928941487618
 30
0.0
 11
58.15341921820641
 21
197.9289414876179
 31
0.0
  0
LINE
  5
7D65
330
18
100
AcDbEntity
  8
contour
100
AcDbLine
 10
117.9543793041422
 20
161.6707902766359
 30
0.0
 11
116.4543793041423
 21
164.2688664879893
 31
0.0
  0
LINE
  5
7D66
330
18
100
AcDbEntity
  8
contour
100
AcDbLine
 10
111.8922014776512
 20
158.1707902766359
 30
0.0
 11
110.3922014776512
 21
160.7688664879892
 31
0.0
  0
LINE
  5
7D67
330
18
100
AcDbEntity
  8
contour
100
AcDbLine
 10
116.4543793041422
 20
164.2688664879892
 30
0.0
 11
110.3922014776512
 21
160.7688664879892
 31
0.0
  0
LINE
  5
7D68
330
18
100
AcDbEntity
  8
contour
100
AcDbLine
 10
111.8922014776511
 20
230.6870926985999
 30
0.0
 11
110.3922014776511
 21
228.0890164872467
 31
0.0
  0
LINE
  5
7D69
330
18
100
AcDbEntity
  8
contour
100
AcDbLine
 10
117.9543793041422
 20
227.1870926985999
 30
0.0
 11
116.4543793041423
 21
224.5890164872467
 31
0.0
  0
LINE
  5
7D6A
330
18
100
AcDbEntity
  8
contour
100
AcDbLine
 10
110.3922014776511
 20
228.0890164872467
 30
0.0
 11
116.4543793041422
 21
224.5890164872467
 31
0.0
  0
LWPOLYLINE
  5
7F20
330
18
100
AcDbEntity
  8
frame
100
AcDbPolyline
 90
        4
 70
     1
 43
0.0
 10
190.0
 20
280.0
 10
0.0
 20
280.0
 10
0.0
 20
0.0
 10
190.0
 20
0.0
  0
MTEXT
  5
7F21
330
18
100
AcDbEntity
  8
0
100
AcDbMText
 10
17.09950368689175
 20
19.07605901616614
 30
0.0
 40
4.5
 41
0.0
 71
     1
 72
     5
  1
{\Ftxt,bigfont|c128;林彦旭}
  7
JL
 73
     1
 44
1.0
1001
ACAD
1000
ACAD_MTEXT_DEFINED_HEIGHT_BEGIN
1070
    46
1040
0.0
1000
ACAD_MTEXT_DEFINED_HEIGHT_END
  0
MTEXT
  5
7F22
330
18
100
AcDbEntity
  8
0
100
AcDbMText
 10
77.95294729228851
 20
28.93578979870677
 30
0.0
 40
4.5
 41
0.0
 71
     1
 72
     5
  1
\Ftxt.shx,bigfont.shx|c128;1 : 1
  7
JL
 73
     1
 44
1.0
  0
MTEXT
  5
7F23
330
18
100
AcDbEntity
  8
0
 48
2.0
370
    25
100
AcDbMText
 10
140.2194500465656
 20
3.490021654633892
 30
0.0
 40
4.5
 41
0.0
 71
     5
 72
     1
  1
{\Ftxt,bigfont|c128;N L 4 0 0 3 7}
 73
     1
 44
1.0
1001
ACAD
1000
ACAD_MTEXT_DEFINED_HEIGHT_BEGIN
1070
    46
1040
0.0
1000
ACAD_MTEXT_DEFINED_HEIGHT_END
  0
MTEXT
  5
7F24
330
18
100
AcDbEntity
  8
0
 48
2.0
100
AcDbMText
 10
170.9328999644331
 20
21.76437127823692
 30
0.0
 40
4.318181818181822
 41
0.0
 71
     5
 72
     1
  1
\P{\Ftxt,bigfont|c128;MR60X2.0P}
 73
     1
 44
1.0
1001
ACAD
1000
ACAD_MTEXT_DEFINED_HEIGHT_BEGIN
1070
    46
1040
0.0
1000
ACAD_MTEXT_DEFINED_HEIGHT_END
  0
MTEXT
  5
7F25
330
18
100
AcDbEntity
  8
0
100
AcDbMText
 10
15.3760677136774
 20
28.37740359834709
 30
0.0
 40
4.5
 41
0.0
 71
     1
 72
     5
  1
{\Ftxt,bigfont|c128;06.06.14}
  7
JL
 73
     1
 44
1.0
1001
ACAD
1000
ACAD_MTEXT_DEFINED_HEIGHT_BEGIN
1070
    46
1040
0.0
1000
ACAD_MTEXT_DEFINED_HEIGHT_END
  0
LINE
  5
7F26
330
18
100
AcDbEntity
  8
0
 62
     7
 48
5.0
100
AcDbLine
 39
3.838383838383842
 10
47.92942413992534
 20
27.65712907016086
 30
0.0
 11
53.04580144287854
 21
28.93622339589922
 31
0.0
  0
MTEXT
  5
7F27
330
18
100
AcDbEntity
  8
0
100
AcDbMText
 10
14.91235548326415
 20
9.242195050049303
 30
0.0
 40
6.0
 41
0.0
 71
     1
 72
     5
  1
\Ftxt.shx,bigfont.shx|c128;日機株式会社
  7
LKK
 73
     1
 44
1.0
  0
LINE
  5
7F28
330
18
100
AcDbEntity
  8
frame
100
AcDbLine
 10
0.0
 20
12.0
 30
0.0
 11
190.0
 21
12.00000000000005
 31
0.0
  0
LINE
  5
7F29
330
18
100
AcDbEntity
  8
frame
100
AcDbLine
 10
0.0
 20
22.0
 30
0.0
 11
92.12121212121223
 21
22.0
 31
0.0
  0
LINE
  5
7F2A
330
18
100
AcDbEntity
  8
frame
100
AcDbLine
 10
0.0
 20
32.0
 30
0.0
 11
190.0
 21
32.0
 31
0.0
  0
LINE
  5
7F2B
330
18
100
AcDbEntity
  8
frame
100
AcDbLine
 10
12.19077332493799
 20
32.0
 30
0.0
 11
12.19077332493799
 21
12.0
 31
0.0
  0
LINE
  5
7F2C
330
18
100
AcDbEntity
  8
frame
100
AcDbLine
 10
30.70707070707067
 20
32.0
 30
0.0
 11
30.70707070707078
 21
12.0
 31
0.0
  0
MTEXT
  5
7F2D
330
18
100
AcDbEntity
  8
0
100
AcDbMText
 10
2.830274784221955
 20
29.08190089582831
 30
0.0
 40
4.5
 41
0.0
 71
     1
 72
     5
  1
\Ftxt.shx,bigfont.shx|c128;日 付
  7
JL
 73
     1
 44
1.0
  0
MTEXT
  5
7F2E
330
18
100
AcDbEntity
  8
0
100
AcDbMText
 10
2.97063307743889
 20
19.52163842926637
 30
0.0
 40
4.5
 41
0.0
 71
     1
 72
     5
  1
\Ftxt.shx,bigfont.shx|c128;製 図
  7
JL
 73
     1
 44
1.0
  0
LINE
  5
7F2F
330
18
100
AcDbEntity
  8
0
 62
     7
370
    25
100
AcDbLine
 10
53.04580144287854
 20
23.81984609294597
 30
0.0
 11
53.04580144287854
 21
28.93622339589922
 31
0.0
  0
MTEXT
  5
7F30
330
18
100
AcDbEntity
  8
0
100
AcDbMText
 10
64.00748852490835
 20
29.12242703792379
 30
0.0
 40
4.5
 41
0.0
 71
     1
 72
     5
  1
\Ftxt.shx,bigfont.shx|c128;尺 度
  7
JL
 73
     1
 44
1.0
  0
LINE
  5
7F31
330
18
100
AcDbEntity
  8
frame
100
AcDbLine
 10
61.41414141414145
 20
32.0
 30
0.0
 11
61.41414141414145
 21
12.0
 31
0.0
  0
LINE
  5
7F32
330
18
100
AcDbEntity
  8
0
 62
     7
370
    25
100
AcDbLine
 10
39.6153110226262
 20
23.18889018332635
 30
0.0
 11
39.6153110226262
 21
29.36457992429672
 31
0.0
  0
CIRCLE
  5
7F33
330
18
100
AcDbEntity
  8
0
 62
     7
100
AcDbCircle
 10
39.6153110226262
 20
26.37803474442251
 30
0.0
 40
2.558188651476678
  0
LINE
  5
7F34
330
18
100
AcDbEntity
  8
0
 62
     7
370
    25
100
AcDbLine
 10
47.19321986919976
 20
26.37803474442262
 30
0.0
 11
53.50512581624241
 21
26.37803474442262
 31
0.0
  0
LINE
  5
7F35
330
18
100
AcDbEntity
  8
0
 62
     7
100
AcDbLine
 10
47.92942413992534
 20
25.09894041868427
 30
0.0
 11
53.04580144287854
 21
23.81984609294597
 31
0.0
  0
LINE
  5
7F36
330
18
100
AcDbEntity
  8
frame
100
AcDbLine
 10
42.742241959951
 20
22.0
 30
0.0
 11
42.742241959951
 21
12.0
 31
0.0
  0
LINE
  5
7F37
330
18
100
AcDbEntity
  8
0
 62
     7
370
    25
100
AcDbLine
 10
36.41832228486612
 20
26.37803474442251
 30
0.0
 11
43.00325267619268
 21
26.37803474442262
 31
0.0
  0
CIRCLE
  5
7F38
330
18
100
AcDbEntity
  8
0
 62
     7
100
AcDbCircle
 10
39.6153110226262
 20
26.37803474442251
 30
0.0
 40
1.279094325738339
  0
MTEXT
  5
7F39
330
18
100
AcDbEntity
  8
0
100
AcDbMText
 10
33.70184032462407
 20
19.41013815785266
 30
0.0
 40
4.5
 41
0.0
 71
     1
 72
     5
  1
\Ftxt.shx,bigfont.shx|c128;検 図
  7
JL
 73
     1
 44
1.0
  0
LINE
  5
7F3A
330
18
100
AcDbEntity
  8
0
 62
     7
370
    25
100
AcDbLine
 10
47.92942413992534
 20
25.09894041868427
 30
0.0
 11
47.92942413992534
 21
27.65712907016086
 31
0.0
  0
MTEXT
  5
7F3B
330
18
100
AcDbEntity
  8
0
100
AcDbMText
 10
64.28820249919829
 20
19.32058534748881
 30
0.0
 40
4.5
 41
0.0
 71
     1
 72
     5
  1
\Ftxt.shx,bigfont.shx|c128;承 認
  7
JL
 73
     1
 44
1.0
  0
MTEXT
  5
7F3C
330
18
100
AcDbEntity
  8
0
100
AcDbMText
 10
93.71128715606699
 20
10.7026821961914
 30
0.0
 40
4.5
 41
0.0
 71
     1
 72
     5
  1
\Ftxt.shx,bigfont.shx|c128;図  面  番  号
  7
JL
 73
     1
 44
1.0
  0
MTEXT
  5
7F3D
330
18
100
AcDbEntity
  8
0
 48
2.0
100
AcDbMText
 10
116.9038190021384
 20
21.8757473149584
 30
0.0
 40
4.5
 41
0.0
 71
     5
 72
     1
  1
\P\Ftxt.shx,bigfont.shx|c128;    精密ロックナット
 73
     1
 44
1.0
  0
MTEXT
  5
7F3E
330
18
100
AcDbEntity
  8
0
100
AcDbMText
 10
94.8083613031232
 20
29.03862457973275
 30
0.0
 40
4.5
 41
0.0
 71
     1
 72
     5
  1
\Ftxt.shx,bigfont.shx|c128;品  名
  7
JL
 73
     1
 44
1.0
  0
LINE
  5
7F3F
330
18
100
AcDbEntity
  8
frame
100
AcDbLine
 10
92.12121212121223
 20
32.0
 30
0.0
 11
92.12121212121223
 21
0.1833227579584786
 31
0.0
  0
LINE
  5
7F40
330
18
100
AcDbEntity
  8
frame
100
AcDbLine
 10
73.41414141414145
 20
32.0
 30
0.0
 11
73.41414141414145
 21
12.0
 31
0.0
  0
LINE
  5
7F41
330
18
100
AcDbEntity
  8
frame
100
AcDbLine
 10
147.0327092740656
 20
32.0
 30
0.0
 11
147.0327092740657
 21
12.0
 31
0.0
  0
MTEXT
  5
7F42
330
18
100
AcDbEntity
  8
0
100
AcDbMText
 10
150.895959446773
 20
29.04517782830391
 30
0.0
 40
4.5
 41
0.0
 71
     1
 72
     5
  1
\Ftxt.shx,bigfont.shx|c128;型  番
  7
JL
 73
     1
 44
1.0
  0
MTEXT
  5
7F43
330
18
100
AcDbEntity
  8
0
100
AcDbMText
 10
165.8059614810325
 20
10.78298174971564
 30
0.0
 40
4.5
 41
0.0
 71
     1
 72
     5
  1
\Ftxt.shx,bigfont.shx|c128;変更
  7
JL
 73
     1
 44
1.0
  0
LINE
  5
7F44
330
18
100
AcDbEntity
  8
frame
100
AcDbLine
 10
164.0909090909092
 20
12.00000000000005
 30
0.0
 11
164.0909090909093
 21
0.0
 31
0.0
  0
LINE
  5
7F45
330
18
100
AcDbEntity
  8
frame
100
AcDbLine
 10
124.6157900786393
 20
43.13491348924492
 30
0.0
 11
184.6157900786393
 21
43.13491348924481
 31
0.0
  0
LINE
  5
7F46
330
18
100
AcDbEntity
  8
frame
100
AcDbLine
 10
124.6157900786393
 20
50.33491348924497
 30
0.0
 11
184.6157900786393
 21
50.33491348924497
 31
0.0
  0
LINE
  5
7F47
330
18
100
AcDbEntity
  8
frame
100
AcDbLine
 10
124.6157900786393
 20
57.5349134892449
 30
0.0
 11
184.6157900786393
 21
57.53491348924478
 31
0.0
  0
LINE
  5
7F48
330
18
100
AcDbEntity
  8
frame
100
AcDbLine
 10
124.6157900786393
 20
64.73491348924494
 30
0.0
 11
184.6157900786393
 21
64.73491348924483
 31
0.0
  0
LINE
  5
7F49
330
18
100
AcDbEntity
  8
frame
100
AcDbLine
 10
124.6157900786393
 20
35.93491348924488
 30
0.0
 11
184.6157900786393
 21
35.93491348924488
 31
0.0
  0
MTEXT
  5
7F4A
330
18
100
AcDbEntity
  8
0
 62
     7
 48
2.0
100
AcDbMText
 10
154.5011900445106
 20
65.52808189982909
 30
0.0
 40
4.8
 41
0.0
 71
     5
 72
     1
  1
\P\Ftxt.shx,bigfont.shx|c128;諸　　　　元
 73
     1
 44
1.0
  0
LINE
  5
7F4B
330
18
100
AcDbEntity
  8
frame
100
AcDbLine
 10
124.6157900786393
 20
64.73491348924483
 30
0.0
 11
124.6157900786393
 21
35.93491348924488
 31
0.0
  0
MTEXT
  5
7F4C
330
18
100
AcDbEntity
  8
0
100
AcDbMText
 10
128.1382258923195
 20
56.00840432212407
 30
0.0
 40
4.4
 41
163.916286842249
 71
     1
 72
     5
  1
\Ftxt.shx,bigfont.shx|c128;熱　処　理
  7
JL
 73
     1
 44
1.0
  0
LINE
  5
7F4D
330
18
100
AcDbEntity
  8
frame
100
AcDbLine
 10
148.6157900786393
 20
57.53491348924478
 30
0.0
 11
148.6157900786393
 21
35.93491348924488
 31
0.0
  0
MTEXT
  5
7F4E
330
18
100
AcDbEntity
  8
0
100
AcDbMText
 10
127.8579515249403
 20
49.00617587486397
 30
0.0
 40
4.4
 41
163.6058628849672
 71
     1
 72
     5
  1
\Ftxt.shx,bigfont.shx|c128;表 面 処 理
  7
JL
 73
     1
 44
1.0
  0
MTEXT
  5
7F4F
330
18
100
AcDbEntity
  8
0
100
AcDbMText
 10
128.1480173733753
 20
41.71770302125605
 30
0.0
 40
4.4
 41
166.1718
 71
     1
 72
     5
  1
\Ftxt.shx,bigfont.shx|c128;等     　級
  7
JL
 73
     1
 44
1.0
  0
LINE
  5
7F50
330
18
100
AcDbEntity
  8
frame
100
AcDbLine
 10
184.6157900786393
 20
64.73491348924483
 30
0.0
 11
184.6157900786393
 21
35.93491348924499
 31
0.0
  0
MTEXT
  5
7F51
330
18
100
AcDbEntity
  8
0
100
AcDbMText
 10
153.3627933880818
 20
55.83344641471445
 30
0.0
 40
4.4
 41
291.8960056857887
 71
     1
 72
     5
  1
\Ftxt.shx,bigfont.shx|c128;調質　HRC30%%d%%p２%%d
  7
JL
 73
     1
 44
1.0
  0
MTEXT
  5
7F52
330
18
100
AcDbEntity
  8
0
100
AcDbMText
 10
153.6234323895182
 20
41.7183135927072
 30
0.0
 40
4.4
 41
290.783364796891
 71
     1
 72
     5
  1
\Ftxt.shx,bigfont.shx|c128;ＩＳＯ - ４Ｈ
  7
JL
 73
     1
 44
1.0
  0
MTEXT
  5
7F53
330
18
100
AcDbEntity
  8
0
100
AcDbMText
 10
153.7978935876485
 20
48.65328293790913
 30
0.0
 40
4.4
 41
291.4548
 71
     1
 72
     5
  1
\Ftxt.shx,bigfont.shx|c128;黒  　    染
  7
JL
 73
     1
 44
1.0
  0
MTEXT
  5
7F54
330
18
100
AcDbEntity
  8
0
100
AcDbMText
 10
57.63639061334425
 20
260.9000583279474
 30
0.0
 40
5.0
 41
0.0
 71
     1
 72
     5
  1
{\Ftxt,bigfont|c128;M8X1.25P-6L}
  7
JL
 73
     1
 44
1.0
1001
ACAD
1000
ACAD_MTEXT_DEFINED_HEIGHT_BEGIN
1070
    46
1040
0.0
1000
ACAD_MTEXT_DEFINED_HEIGHT_END
  0
MTEXT
  5
7F55
330
18
100
AcDbEntity
  8
0
100
AcDbMText
 10
57.63639061334425
 20
252.5660350862716
 30
0.0
 40
5.0
 41
0.0
 71
     1
 72
     5
  1
{\Ftxt,bigfont|c128;%%C7X5L}
  7
JL
 73
     1
 44
1.0
1001
ACAD
1000
ACAD_MTEXT_DEFINED_HEIGHT_BEGIN
1070
    46
1040
0.0
1000
ACAD_MTEXT_DEFINED_HEIGHT_END
  0
LINE
  5
7F56
330
18
100
AcDbEntity
  8
frame
100
AcDbLine
 10
0.0
 20
254.0
 30
0.0
 11
190.0
 21
254.0
 31
0.0
  0
LINE
  5
7F57
330
18
100
AcDbEntity
  8
frame
100
AcDbLine
 10
0.0
 20
262.0
 30
0.0
 11
190.0
 21
262.0
 31
0.0
  0
LINE
  5
7F58
330
18
100
AcDbEntity
  8
frame
 62
     9
100
AcDbLine
 10
0.0
 20
270.0
 30
0.0
 11
190.0
 21
270.0
 31
0.0
  0
MTEXT
  5
7F59
330
18
100
AcDbEntity
  8
0
100
AcDbMText
 10
57.0156439060371
 20
277.4240560049041
 30
0.0
 40
5.0
 41
0.0
 71
     1
 72
     5
  1
\Ftxt.shx,bigfont.shx|c128;図    番 / 規　　格
  7
JL
 73
     1
 44
1.0
  0
LINE
  5
7F5A
330
18
100
AcDbEntity
  8
frame
100
AcDbLine
 10
0.0
 20
254.0
 30
0.0
 11
190.0
 21
254.0
 31
0.0
  0
LINE
  5
7F5B
330
18
100
AcDbEntity
  8
frame
100
AcDbLine
 10
0.0
 20
245.8933909875332
 30
0.0
 11
190.0
 21
245.8933909875332
 31
0.0
  0
MTEXT
  5
7F5C
330
18
100
AcDbEntity
  8
0
100
AcDbMText
 10
21.12488048923433
 20
277.4637981386743
 30
0.0
 40
5.0
 41
0.0
 71
     1
 72
     5
  1
\Ftxt.shx,bigfont.shx|c128;品　          名
  7
JL
 73
     1
 44
1.0
  0
MTEXT
  5
7F5D
330
18
100
AcDbEntity
  8
0
100
AcDbMText
 10
18.10281387110132
 20
260.7907237289111
 30
0.0
 40
5.0
 41
0.0
 71
     1
 72
     5
  1
\Ftxt.shx,bigfont.shx|c128;セットスクリュ-
  7
JL
 73
     1
 44
1.0
  0
MTEXT
  5
7F5E
330
18
100
AcDbEntity
  8
0
100
AcDbMText
 10
17.91509480863158
 20
268.8361230282964
 30
0.0
 40
5.0
 41
0.0
 71
     1
 72
     5
  1
\Ftxt.shx,bigfont.shx|c128;ロックナット　  
  7
JL
 73
     1
 44
1.0
  0
MTEXT
  5
7F5F
330
18
100
AcDbEntity
  8
0
100
AcDbMText
 10
18.10281387110132
 20
252.8510545014035
 30
0.0
 40
5.0
 41
0.0
 71
     1
 72
     5
  1
\Ftxt.shx,bigfont.shx|c128;ロックピン 
  7
JL
 73
     1
 44
1.0
  0
LINE
  5
7F60
330
18
100
AcDbEntity
  8
frame
 62
     9
100
AcDbLine
 10
14.39393939393937
 20
279.9999999999999
 30
0.0
 11
14.39393939393972
 21
245.8933909875332
 31
0.0
  0
LINE
  5
7F61
330
18
100
AcDbEntity
  8
frame
 62
     9
100
AcDbLine
 10
14.39393939393937
 20
279.9999999999999
 30
0.0
 11
14.39393939393937
 21
255.0505050505051
 31
0.0
  0
MTEXT
  5
7F62
330
18
100
AcDbEntity
  8
0
100
AcDbMText
 10
6.815009268013795
 20
268.7281674434121
 30
0.0
 40
5.0
 41
0.0
 71
     1
 72
     5
  1
\Ftxt.shx,bigfont.shx|c128;1
  7
JL
 73
     1
 44
1.0
  0
MTEXT
  5
7F63
330
18
100
AcDbEntity
  8
0
100
AcDbMText
 10
2.119828072980226
 20
277.4734782639491
 30
0.0
 40
5.0
 41
0.0
 71
     1
 72
     5
  1
\Ftxt.shx,bigfont.shx|c128;照   号
  7
JL
 73
     1
 44
1.0
  0
LINE
  5
7F64
330
18
100
AcDbEntity
  8
frame
 62
     9
100
AcDbLine
 10
52.77777777777783
 20
279.9999999999999
 30
0.0
 11
52.77777777777783
 21
245.8933909875332
 31
0.0
  0
MTEXT
  5
7F65
330
18
100
AcDbEntity
  8
0
100
AcDbMText
 10
145.5736374372851
 20
277.6781663894194
 30
0.0
 40
5.0
 41
0.0
 71
     1
 72
     5
  1
\Ftxt.shx,bigfont.shx|c128;備           考
  7
JL
 73
     1
 44
1.0
  0
LINE
  5
7F66
330
18
100
AcDbEntity
  8
frame
 62
     9
100
AcDbLine
 10
91.16161616161617
 20
280.0
 30
0.0
 11
91.16161616161617
 21
245.8933909875332
 31
0.0
  0
MTEXT
  5
7F67
330
18
100
AcDbEntity
  8
0
100
AcDbMText
 10
92.87341089179369
 20
252.4309794461317
 30
0.0
 40
5.0
 41
0.0
 71
     1
 72
     5
  1
\Ftxt.shx,bigfont.shx|c128;C3604
  7
JL
 73
     1
 44
1.0
  0
MTEXT
  5
7F68
330
18
100
AcDbEntity
  8
0
100
AcDbMText
 10
92.87341089179369
 20
268.8361230282964
 30
0.0
 40
5.0
 41
0.0
 71
     1
 72
     5
  1
\Ftxt.shx,bigfont.shx|c128;SCM-440
  7
JL
 73
     1
 44
1.0
  0
MTEXT
  5
7F69
330
18
100
AcDbEntity
  8
0
100
AcDbMText
 10
92.87341089179369
 20
260.765002012584
 30
0.0
 40
5.0
 41
0.0
 71
     1
 72
     5
  1
\Ftxt.shx,bigfont.shx|c128;SCM435
  7
JL
 73
     1
 44
1.0
  0
MTEXT
  5
7F6A
330
18
100
AcDbEntity
  8
0
100
AcDbMText
 10
95.76798863104192
 20
277.5645499482919
 30
0.0
 40
5.0
 41
0.0
 71
     1
 72
     5
  1
\Ftxt.shx,bigfont.shx|c128;材　質
  7
JL
 73
     1
 44
1.0
  0
LINE
  5
7F6B
330
18
100
AcDbEntity
  8
frame
 62
     9
100
AcDbLine
 10
110.3535353535354
 20
280.0
 30
0.0
 11
110.3535353535354
 21
245.8933909875332
 31
0.0
  0
LINE
  5
7F6C
330
18
100
AcDbEntity
  8
frame
100
AcDbLine
 10
124.7474747474747
 20
280.0
 30
0.0
 11
124.7474747474748
 21
245.8933909875332
 31
0.0
  0
MTEXT
  5
7F6D
330
18
100
AcDbEntity
  8
0
100
AcDbMText
 10
116.5939070266884
 20
252.4642985589993
 30
0.0
 40
5.0
 41
0.0
 71
     1
 72
     5
  1
\Ftxt.shx,bigfont.shx|c128;3
  7
JL
 73
     1
 44
1.0
  0
MTEXT
  5
7F6E
330
18
100
AcDbEntity
  8
0
100
AcDbMText
 10
117.1685446215491
 20
269.0412711679932
 30
0.0
 40
5.0
 41
0.0
 71
     1
 72
     5
  1
\Ftxt.shx,bigfont.shx|c128;1
  7
JL
 73
     1
 44
1.0
  0
MTEXT
  5
7F6F
330
18
100
AcDbEntity
  8
0
100
AcDbMText
 10
116.5939070266884
 20
260.5092290150679
 30
0.0
 40
5.0
 41
0.0
 71
     1
 72
     5
  1
\Ftxt.shx,bigfont.shx|c128;3
  7
JL
 73
     1
 44
1.0
  0
MTEXT
  5
7F70
330
18
100
AcDbEntity
  8
0
100
AcDbMText
 10
112.4223895919262
 20
277.5645499482919
 30
0.0
 40
5.0
 41
0.0
 71
     1
 72
     5
  1
\Ftxt.shx,bigfont.shx|c128;数   量
  7
JL
 73
     1
 44
1.0
  0
MTEXT
  5
7F71
330
18
100
AcDbEntity
  8
0
100
AcDbMText
 10
6.404019699055993
 20
260.7281674434121
 30
0.0
 40
5.0
 41
0.0
 71
     1
 72
     5
  1
{\Ftxt,bigfont|c128;2}
  7
JL
 73
     1
 44
1.0
1001
ACAD
1000
ACAD_MTEXT_DEFINED_HEIGHT_BEGIN
1070
    46
1040
0.0
1000
ACAD_MTEXT_DEFINED_HEIGHT_END
  0
MTEXT
  5
7F72
330
18
100
AcDbEntity
  8
0
100
AcDbMText
 10
6.404019699055993
 20
252.6215584309452
 30
0.0
 40
5.0
 41
0.0
 71
     1
 72
     5
  1
{\Ftxt,bigfont|c128;3}
  7
JL
 73
     1
 44
1.0
1001
ACAD
1000
ACAD_MTEXT_DEFINED_HEIGHT_BEGIN
1070
    46
1040
0.0
1000
ACAD_MTEXT_DEFINED_HEIGHT_END
  0
LINE
  5
8083
330
18
100
AcDbEntity
  8
bowle
  6
HIDDEN
 48
0.2
100
AcDbLine
 10
134.7994974842648
 20
198.428941487618
 30
0.0
 11
123.6395147698071
 21
198.428941487618
 31
0.0
  0
LINE
  5
8084
330
18
100
AcDbEntity
  8
bowle
  6
HIDDEN
 48
0.2
100
AcDbLine
 10
134.7994974842648
 20
190.4289414876179
 30
0.0
 11
123.6395147698071
 21
190.4289414876179
 31
0.0
  0
LINE
  5
8085
330
18
100
AcDbEntity
  8
bowle
  6
HIDDEN
 48
0.2
100
AcDbLine
 10
134.8616902269585
 20
197.7524414876179
 30
0.0
 11
123.7258795165613
 21
197.7524414876179
 31
0.0
  0
LINE
  5
8086
330
18
100
AcDbEntity
  8
bowle
  6
HIDDEN
 48
0.2
100
AcDbLine
 10
134.8616902269585
 20
191.105441487618
 30
0.0
 11
123.7258795165613
 21
191.105441487618
 31
0.0
  0
LINE
  5
8087
330
18
100
AcDbEntity
  8
bowle
  6
HIDDEN
 48
0.2
100
AcDbLine
 10
71.63614964272984
 20
226.8963173668463
 30
0.0
 11
77.21614099995861
 21
217.2314888303306
 31
0.0
  0
LINE
  5
8088
330
18
100
AcDbEntity
  8
bowle
  6
HIDDEN
 48
0.2
100
AcDbLine
 10
78.56435287300531
 20
230.8963173668463
 30
0.0
 11
84.1443442302342
 21
221.2314888303306
 31
0.0
  0
LINE
  5
8089
330
18
100
AcDbEntity
  8
bowle
  6
HIDDEN
 48
0.2
100
AcDbLine
 10
72.19091945704315
 20
227.2884278619499
 30
0.0
 11
77.75882481224176
 21
217.6445328950113
 31
0.0
  0
LINE
  5
808A
330
18
100
AcDbEntity
  8
bowle
  6
HIDDEN
 48
0.2
100
AcDbLine
 10
77.94739031599829
 20
230.6119278619499
 30
0.0
 11
83.51529567119683
 21
220.9680328950112
 31
0.0
  0
LINE
  5
808B
330
18
100
AcDbEntity
  8
bowle
  6
HIDDEN
 48
0.2
100
AcDbLine
 10
78.56435287300524
 20
157.9615656083898
 30
0.0
 11
84.14434423023408
 21
167.6263941449053
 31
0.0
  0
LINE
  5
808C
330
18
100
AcDbEntity
  8
bowle
  6
HIDDEN
 48
0.2
100
AcDbLine
 10
71.63614964272972
 20
161.9615656083898
 30
0.0
 11
77.21614099995861
 21
171.6263941449053
 31
0.0
  0
LINE
  5
808D
330
18
100
AcDbEntity
  8
bowle
  6
HIDDEN
 48
0.2
100
AcDbLine
 10
77.94739031599817
 20
158.245955113286
 30
0.0
 11
83.51529567119678
 21
167.8898500802248
 31
0.0
  0
LINE
  5
808E
330
18
100
AcDbEntity
  8
bowle
  6
HIDDEN
 48
0.2
100
AcDbLine
 10
72.1909194570431
 20
161.5694551132859
 30
0.0
 11
77.75882481224164
 21
171.2133500802247
 31
0.0
  0
LINE
  5
8093
330
18
100
AcDbEntity
  8
center
 48
0.2
100
AcDbLine
 10
74.00000000000005
 20
230.8020084465644
 30
0.0
 11
81.54124999999993
 21
217.7401802939855
 31
0.0
  0
LINE
  5
8095
330
18
100
AcDbEntity
  8
center
 48
0.2
100
AcDbLine
 10
74.00000000000005
 20
158.0558745286715
 30
0.0
 11
81.54124999999993
 21
171.1177026812504
 31
0.0
  0
ARC
  5
8096
330
18
100
AcDbEntity
  8
contour
100
AcDbCircle
 10
95.0
 20
194.428941487618
 30
0.0
 40
40.0
100
AcDbArc
 50
65.01980013167799
 51
174.9801998683231
  0
ARC
  5
8097
330
18
100
AcDbEntity
  8
contour
100
AcDbCircle
 10
95.0
 20
194.428941487618
 30
0.0
 40
40.0
100
AcDbArc
 50
305.0198001316772
 51
54.98019986832275
  0
LINE
  5
809D
102
{ACAD_REACTORS
330
8CCC
102
}
330
18
100
AcDbEntity
  8
contour
100
AcDbLine
 10
134.9999999999999
 20
101.344064972281
 30
0.0
 11
135.0
 21
89.84406497228098
 31
0.0
  0
LINE
  5
809E
102
{ACAD_REACTORS
330
8CCC
102
}
330
18
100
AcDbEntity
  8
contour
100
AcDbLine
 10
133.0
 20
87.84406497228099
 30
0.0
 11
57.0
 21
87.84406497228099
 31
0.0
  0
LINE
  5
809F
330
18
100
AcDbEntity
  8
contour
100
AcDbLine
 10
55.0
 20
89.84406497228098
 30
0.0
 11
55.0
 21
101.344064972281
 31
0.0
  0
LINE
  5
80A0
102
{ACAD_REACTORS
330
8CCC
102
}
330
18
100
AcDbEntity
  8
contour
100
AcDbLine
 10
58.5
 20
103.844064972281
 30
0.0
 11
131.5
 21
103.844064972281
 31
0.0
  0
LINE
  5
80A1
102
{ACAD_REACTORS
330
8CCC
102
}
330
18
100
AcDbEntity
  8
contour
100
AcDbLine
 10
58.5
 20
103.844064972281
 30
0.0
 11
58.5
 21
103.344064972281
 31
0.0
  0
LINE
  5
80A2
102
{ACAD_REACTORS
330
8CCC
102
}
330
18
100
AcDbEntity
  8
contour
100
AcDbLine
 10
57.0
 20
103.344064972281
 30
0.0
 11
58.5
 21
103.344064972281
 31
0.0
  0
ARC
  5
80A3
330
18
100
AcDbEntity
  8
contour
100
AcDbCircle
 10
57.0
 20
89.84406497228098
 30
0.0
 40
2.0
100
AcDbArc
 50
180.0
 51
270.0
  0
ARC
  5
80A4
330
18
100
AcDbEntity
  8
contour
100
AcDbCircle
 10
57.0
 20
101.344064972281
 30
0.0
 40
2.0
100
AcDbArc
 50
90.0
 51
180.0
  0
ARC
  5
80A5
102
{ACAD_REACTORS
330
8CCC
102
}
330
18
100
AcDbEntity
  8
contour
100
AcDbCircle
 10
133.0
 20
89.84406497228098
 30
0.0
 40
2.0
100
AcDbArc
 50
270.0
 51
0.0
  0
LINE
  5
80A7
102
{ACAD_REACTORS
330
8CCC
102
}
330
18
100
AcDbEntity
  8
contour
100
AcDbLine
 10
132.9999999999999
 20
103.344064972281
 30
0.0
 11
131.5
 21
103.344064972281
 31
0.0
  0
LINE
  5
80A8
102
{ACAD_REACTORS
330
8CCC
102
}
330
18
100
AcDbEntity
  8
contour
100
AcDbLine
 10
131.5
 20
103.844064972281
 30
0.0
 11
131.5
 21
103.344064972281
 31
0.0
  0
ARC
  5
80A9
102
{ACAD_REACTORS
330
8CCC
102
}
330
18
100
AcDbEntity
  8
contour
100
AcDbCircle
 10
132.9999999999999
 20
101.344064972281
 30
0.0
 40
2.0
100
AcDbArc
 50
0.0
 51
90.0
  0
LINE
  5
80B2
102
{ACAD_REACTORS
330
8CCC
102
}
330
18
100
AcDbEntity
  8
contour
100
AcDbLine
 10
58.15341921820641
 20
103.344064972281
 30
0.0
 11
58.15341921820641
 21
87.84406497228099
 31
0.0
  0
LINE
  5
80B4
102
{ACAD_REACTORS
330
8CCC
102
}
330
18
100
AcDbEntity
  8
contour
100
AcDbLine
 10
66.08249999999998
 20
100.2615649722811
 30
0.0
 11
66.08249999999998
 21
89.84406497228098
 31
0.0
  0
LINE
  5
80B5
102
{ACAD_REACTORS
330
8CCC
102
}
330
18
100
AcDbEntity
  8
contour
 62
     4
100
AcDbLine
 10
65.0
 20
101.3440649722811
 30
0.0
 11
65.0
 21
88.761564972281
 31
0.0
  0
LINE
  5
80B7
102
{ACAD_REACTORS
330
8CCC
102
}
330
18
100
AcDbEntity
  8
contour
100
AcDbLine
 10
64.50000000000006
 20
103.844064972281
 30
0.0
 11
64.50000000000006
 21
101.844064972281
 31
0.0
  0
LINE
  5
80B8
102
{ACAD_REACTORS
330
8CCC
102
}
330
18
100
AcDbEntity
  8
contour
100
AcDbLine
 10
64.08249999999998
 20
87.84406497228099
 30
0.0
 11
66.08249999999998
 21
89.84406497228098
 31
0.0
  0
LINE
  5
80B9
102
{ACAD_REACTORS
330
8CCC
102
}
330
18
100
AcDbEntity
  8
contour
100
AcDbLine
 10
64.50000000000006
 20
101.844064972281
 30
0.0
 11
66.08249999999998
 21
100.261564972281
 31
0.0
  0
LINE
  5
80BA
102
{ACAD_REACTORS
330
8CCC
102
}
330
18
100
AcDbEntity
  8
contour
100
AcDbLine
 10
123.9175
 20
100.2615649722811
 30
0.0
 11
123.9175
 21
89.84406497228098
 31
0.0
  0
LINE
  5
80BB
102
{ACAD_REACTORS
330
8CCC
102
}
330
18
100
AcDbEntity
  8
contour
100
AcDbLine
 10
125.9175
 20
87.84406497228099
 30
0.0
 11
123.9175
 21
89.84406497228098
 31
0.0
  0
LINE
  5
80BC
102
{ACAD_REACTORS
330
8CCC
102
}
330
18
100
AcDbEntity
  8
contour
 62
     4
100
AcDbLine
 10
125.0
 20
101.3440649722811
 30
0.0
 11
125.0
 21
99.84406497228105
 31
0.0
  0
LINE
  5
80BD
102
{ACAD_REACTORS
330
8CCC
102
}
330
18
100
AcDbEntity
  8
contour
100
AcDbLine
 10
125.4999999999999
 20
103.844064972281
 30
0.0
 11
125.4999999999999
 21
101.844064972281
 31
0.0
  0
LINE
  5
80BE
102
{ACAD_REACTORS
330
8CCC
102
}
330
18
100
AcDbEntity
  8
contour
100
AcDbLine
 10
125.4999999999999
 20
101.844064972281
 30
0.0
 11
123.9175
 21
100.261564972281
 31
0.0
  0
LINE
  5
80BF
330
18
100
AcDbEntity
  8
contour
100
AcDbLine
 10
66.08249999999998
 20
100.261564972281
 30
0.0
 11
123.9175
 21
100.261564972281
 31
0.0
  0
LINE
  5
80C0
330
18
100
AcDbEntity
  8
contour
100
AcDbLine
 10
123.9175
 20
89.84406497228098
 30
0.0
 11
66.08249999999998
 21
89.84406497228098
 31
0.0
  0
LINE
  5
80C1
330
18
100
AcDbEntity
  8
contour
100
AcDbLine
 10
64.50000000000006
 20
101.844064972281
 30
0.0
 11
125.4999999999999
 21
101.844064972281
 31
0.0
  0
LINE
  5
80C5
102
{ACAD_REACTORS
330
8CCC
102
}
330
18
100
AcDbEntity
  8
contour
 62
     4
100
AcDbLine
 10
135.0
 20
99.84406497228105
 30
0.0
 11
123.9175
 21
99.84406497228105
 31
0.0
  0
LINE
  5
80C6
102
{ACAD_REACTORS
330
8CCC
102
}
330
18
100
AcDbEntity
  8
contour
 62
     4
100
AcDbLine
 10
135.0
 20
91.84406497228104
 30
0.0
 11
123.9175
 21
91.84406497228104
 31
0.0
  0
LINE
  5
80C7
102
{ACAD_REACTORS
330
8CCC
102
}
330
18
100
AcDbEntity
  8
contour
100
AcDbLine
 10
129.8234999999999
 20
99.16756497228101
 30
0.0
 11
128.9999999999999
 21
99.16756497228101
 31
0.0
  0
LINE
  5
80C8
102
{ACAD_REACTORS
330
8CCC
102
}
330
18
100
AcDbEntity
  8
contour
100
AcDbLine
 10
129.8235
 20
92.52056497228101
 30
0.0
 11
128.9999999999999
 21
92.52056497228101
 31
0.0
  0
HATCH
  5
80C9
330
18
100
AcDbEntity
  8
section
100
AcDbHatch
 10
0.0
 20
0.0
 30
0.0
210
0.0
220
0.0
230
1.0
  2
AR-SAND
 70
     0
 71
     0
 91
        2
 92
        7
 72
     0
 73
     1
 93
        4
 10
123.9175
 20
99.34406497228099
 10
123.9175
 20
95.84406497228105
 10
128.9999999999999
 20
95.844064972281
 10
128.9999999999999
 20
99.34406497228104
 97
        0
 92
        7
 72
     0
 73
     1
 93
        4
 10
123.9175
 20
95.844064972281
 10
123.9175
 20
92.34406497228105
 10
128.9999999999999
 20
92.34406497228105
 10
128.9999999999999
 20
95.844064972281
 97
        0
 75
     0
 76
     1
 52
0.0
 41
0.02
 77
     0
 78
     4
 53
37.5
 43
-190.0292093299988
 44
-15.42816916467666
 45
-0.0320006259196809
 46
0.9788264746586847
 79
     6
 49
0.0
 49
-0.7721600000000001
 49
0.0
 49
-0.8636000000000001
 49
0.0
 49
-0.8255
 53
7.499999999999999
 43
-190.0292093299988
 44
-15.42816916467666
 45
0.8990465662760053
 46
1.433650201136708
 79
     6
 49
0.0
 49
-0.4165600000000001
 49
0.0
 49
-0.69596
 49
0.0
 49
-0.2667000000000001
 53
327.5
 43
-190.6540493299988
 44
-15.42816916467666
 45
1.581984740482915
 46
0.0028743693570914
 79
     6
 49
0.0
 49
-0.254
 49
0.0
 49
-0.9144
 49
0.0
 49
-1.193799999999999
 53
317.5
 43
-190.6540493299988
 44
-15.42816916467666
 45
1.527112904944594
 46
0.4458586465144325
 79
     6
 49
0.0
 49
-0.127
 49
0.0
 49
-0.59944
 49
0.0
 49
-0.6858
 47
0.0620254116255438
 98
        2
 10
126.0596111856101
 20
97.64478379926869
 10
125.8734783597466
 20
94.79161513304257
1001
ACAD
1010
0.0
1020
0.0
1030
0.0
  0
LWPOLYLINE
  5
80CA
102
{ACAD_REACTORS
330
8CCC
102
}
330
18
100
AcDbEntity
  8
contour
100
AcDbPolyline
 90
        6
 70
     0
 43
0.0
 10
130.4999999999999
 20
99.84406497228105
 10
130.4999999999999
 20
99.84406497228105
 10
128.9999999999999
 20
98.34406497228105
 10
128.9999999999999
 20
93.34406497228105
 10
130.4999999999999
 20
91.84406497228104
 10
130.4999999999999
 20
91.84406497228104
  0
LWPOLYLINE
  5
80CB
330
18
100
AcDbEntity
  8
contour
100
AcDbPolyline
 90
        2
 70
     0
 43
0.0
 10
134.9999999999999
 20
92.52056497228108
 10
134.9999999999999
 20
99.16756497228101
  0
LINE
  5
80CC
330
18
100
AcDbEntity
  8
contour
100
AcDbLine
 10
130.4999999999999
 20
99.84406497228105
 30
0.0
 11
130.4999999999999
 21
91.84406497228104
 31
0.0
  0
LINE
  5
80CD
330
18
100
AcDbEntity
  8
contour
100
AcDbLine
 10
132.4999999999999
 20
98.34406497228105
 30
0.0
 11
134.9999999999999
 21
98.34406497228105
 31
0.0
  0
LINE
  5
80CE
330
18
100
AcDbEntity
  8
contour
100
AcDbLine
 10
132.4999999999999
 20
93.34406497228105
 30
0.0
 11
134.9999999999999
 21
93.34406497228105
 31
0.0
  0
LINE
  5
80CF
330
18
100
AcDbEntity
  8
contour
100
AcDbLine
 10
132.4999999999999
 20
98.34406497228105
 30
0.0
 11
132.4999999999999
 21
93.34406497228105
 31
0.0
  0
LINE
  5
80D0
330
18
100
AcDbEntity
  8
contour
100
AcDbLine
 10
131.9999999999999
 20
95.84406497228105
 30
0.0
 11
132.4999999999999
 21
98.34406497228105
 31
0.0
  0
LINE
  5
80D1
330
18
100
AcDbEntity
  8
contour
100
AcDbLine
 10
131.9999999999999
 20
95.84406497228105
 30
0.0
 11
132.4999999999999
 21
93.34406497228105
 31
0.0
  0
LINE
  5
80D2
330
18
100
AcDbEntity
  8
contour
 62
     4
100
AcDbLine
 10
134.9999999999999
 20
99.16756497228101
 30
0.0
 11
129.8234999999999
 21
99.16756497228101
 31
0.0
  0
LINE
  5
80D3
330
18
100
AcDbEntity
  8
contour
 62
     4
100
AcDbLine
 10
134.9999999999999
 20
92.52056497228101
 30
0.0
 11
129.8235
 21
92.52056497228101
 31
0.0
  0
LINE
  5
80D4
102
{ACAD_REACTORS
330
8CCC
102
}
330
18
100
AcDbEntity
  8
contour
100
AcDbLine
 10
134.9999999999999
 20
99.16756497228101
 30
0.0
 11
133.8282676286796
 21
99.84406497228105
 31
0.0
  0
LINE
  5
80D5
330
18
100
AcDbEntity
  8
contour
100
AcDbLine
 10
133.8282676286796
 20
99.84406497228105
 30
0.0
 11
133.8282676286796
 21
91.84406497228104
 31
0.0
  0
LINE
  5
80D6
102
{ACAD_REACTORS
330
8CCC
102
}
330
18
100
AcDbEntity
  8
contour
100
AcDbLine
 10
134.9999999999999
 20
92.52056497228108
 30
0.0
 11
133.8282676286796
 21
91.84406497228104
 31
0.0
  0
LWPOLYLINE
  5
80D7
102
{ACAD_REACTORS
330
8CCC
102
}
330
18
100
AcDbEntity
  8
contour
100
AcDbPolyline
 90
        4
 70
     1
 43
0.0
 10
123.9175
 20
99.34406497228099
 10
123.9175
 20
92.34406497228105
 10
128.9999999999999
 20
92.34406497228105
 10
128.9999999999999
 20
99.34406497228104
  0
LINE
  5
80D8
102
{ACAD_REACTORS
330
8CCC
102
}
330
18
100
AcDbEntity
  8
contour
 62
     4
100
AcDbLine
 10
125.0
 20
91.84406497228104
 30
0.0
 11
125.0
 21
88.761564972281
 31
0.0
  0
LINE
  5
80D9
330
18
100
AcDbEntity
  8
center
 48
0.2
100
AcDbLine
 10
136.9999999999999
 20
95.84406497228105
 30
0.0
 11
121.9175
 21
95.844064972281
 31
0.0
  0
LINE
  5
80DB
330
18
100
AcDbEntity
  8
center
 48
0.2
100
AcDbLine
 10
95.0
 20
105.844064972281
 30
0.0
 11
95.0
 21
85.844064972281
 31
0.0
  0
LWPOLYLINE
  5
80DD
330
18
100
AcDbEntity
  8
dim
100
AcDbPolyline
 90
        7
 70
     1
 43
0.0
 10
104.9831692171083
 20
106.3440649722811
 10
113.6434232549527
 20
106.3440649722811
 10
112.2000475819786
 20
103.844064972281
 10
110.7566719090046
 20
106.3440649722811
 10
109.3132962360305
 20
103.844064972281
 10
107.8699205630564
 20
106.3440649722811
 10
106.4265448900823
 20
103.844064972281
  0
MTEXT
  5
80DE
330
18
100
AcDbEntity
  8
mark
 62
     3
100
AcDbMText
 10
109.3339731540344
 20
108.3997413610338
 30
0.0
 40
2.5
 41
0.0
 71
     5
 72
     1
  1
G
 73
     1
 44
1.0
1001
ACAD
1000
ACAD_MTEXT_DEFINED_HEIGHT_BEGIN
1070
    46
1040
0.0
1000
ACAD_MTEXT_DEFINED_HEIGHT_END
  0
DIMENSION
  5
8A8E
330
18
100
AcDbEntity
  8
mark
100
AcDbDimension
  2
*D3
 10
125.4999999999999
 20
112.3065538347739
 30
0.0
 11
95.0
 21
114.3565538347739
 31
0.0
 70
    32
  1
%%c61
 71
     5
 42
60.99999999999988
  3
STANDARD
100
AcDbAlignedDimension
 13
64.50000000000006
 23
103.844064972281
 33
0.0
 14
125.4999999999999
 24
103.844064972281
 34
0.0
100
AcDbRotatedDimension
  0
DIMENSION
  5
8A9B
330
18
100
AcDbEntity
  8
mark
100
AcDbDimension
  2
*D4
 10
131.5
 20
119.0949798825102
 30
0.0
 11
95.0
 21
121.1449798825102
 31
0.0
 70
    32
  1
%%c73%%p0.5
 71
     5
 42
73.0
  3
STANDARD
100
AcDbAlignedDimension
 13
58.5
 23
103.844064972281
 33
0.0
 14
131.5
 24
103.844064972281
 34
0.0
100
AcDbRotatedDimension
  0
DIMENSION
  5
8AA8
330
18
100
AcDbEntity
  8
mark
100
AcDbDimension
  2
*D5
 10
134.9999999999999
 20
126.8418422006146
 30
0.0
 11
94.99999999999998
 21
128.8918422006147
 31
0.0
 70
    32
  1
%%c80
 71
     5
 42
79.99999999999994
  3
STANDARD
100
AcDbAlignedDimension
 13
55.0
 23
101.344064972281
 33
0.0
 14
134.9999999999999
 24
101.3440649722814
 34
0.0
100
AcDbRotatedDimension
  0
MTEXT
  5
8AB5
330
18
100
AcDbEntity
  8
mark
 62
     3
100
AcDbMText
 10
99.29321016738583
 20
130.69213510123
 30
0.0
 40
1.25
 41
0.0
 71
     1
 72
     1
  1
+0\P-0.2
 73
     1
 44
1.0
1001
ACAD
1000
ACAD_MTEXT_DEFINED_HEIGHT_BEGIN
1070
    46
1040
0.0
1000
ACAD_MTEXT_DEFINED_HEIGHT_END
  0
LEADER
  5
8AB6
330
18
100
AcDbEntity
  8
mark
100
AcDbLeader
  3
STANDARD
 76
     2
 10
124.9175
 20
88.84406497228098
 30
0.0
 10
116.2488305161865
 20
80.17539548846627
 30
0.0
211
0.0000000000000001
221
-1.0
231
0.0
1001
ACAD
1000
DSTYLE
1002
{
1070
   147
1040
0.8
1070
    77
1070
     0
1002
}
  0
MTEXT
  5
8AB7
330
18
100
AcDbEntity
  8
mark
 62
     3
100
AcDbMText
 10
117.1386189250629
 20
83.99965228749904
 30
0.0
 40
2.5
 41
0.0
 71
     5
 72
     1
  1
C2
 11
0.7071067811862683
 21
0.7071067811868267
 31
0.0
 73
     1
 44
1.0
1001
ACAD
1000
ACAD_MTEXT_DEFINED_HEIGHT_BEGIN
1070
    46
1040
0.0
1000
ACAD_MTEXT_DEFINED_HEIGHT_END
  0
DIMENSION
  5
8AB8
330
18
100
AcDbEntity
  8
mark
100
AcDbDimension
  2
*D6
 10
65.0
 20
74.51350535504037
 30
0.0
 11
95.0
 21
76.56350535504036
 31
0.0
 70
    32
  1
M60X2.P
 71
     5
 42
60.0
  3
STANDARD
100
AcDbAlignedDimension
 13
125.0
 23
88.761564972281
 33
0.0
 14
65.0
 24
88.761564972281
 34
0.0
100
AcDbRotatedDimension
  0
DIMENSION
  5
8AC5
330
18
100
AcDbEntity
  8
mark
100
AcDbDimension
  2
*D7
 10
45.23788175694278
 20
103.844064972281
 30
0.0
 11
43.18788175694277
 21
112.9357316389477
 31
0.0
 70
    32
 71
     5
 42
0.5
  3
STANDARD
100
AcDbAlignedDimension
 13
57.0
 23
103.344064972281
 33
0.0
 14
58.5
 24
103.844064972281
 34
0.0
 50
90.0
100
AcDbRotatedDimension
  0
DIMENSION
  5
8AD4
330
18
100
AcDbEntity
  8
mark
100
AcDbDimension
  2
*D8
 10
45.23788175694284
 20
190.928941487618
 30
0.0
 11
43.18788175694281
 21
194.428941487618
 31
0.0
 70
    32
 71
     5
 42
7.0
  3
STANDARD
100
AcDbAlignedDimension
 13
55.15341921820641
 23
197.9289414876179
 33
0.0
 14
55.15341921820641
 24
190.928941487618
 34
0.0
 50
90.0
100
AcDbRotatedDimension
  0
DIMENSION
  5
8AE4
330
18
100
AcDbEntity
  8
mark
100
AcDbDimension
  2
*D9
 10
55.15341921820641
 20
148.8285316625443
 30
0.0
 11
47.52008588487307
 21
150.8785316625444
 31
0.0
 70
    32
 71
     5
 42
2.999999999999943
  3
STANDARD
100
AcDbAlignedDimension
 13
58.15341921820635
 23
190.928941487618
 33
0.0
 14
55.15341921820641
 24
190.928941487618
 34
0.0
100
AcDbRotatedDimension
  0
MTEXT
  5
8AF3
330
18
100
AcDbEntity
  8
mark
 62
     3
100
AcDbMText
 10
49.09021497806645
 20
152.5387257061112
 30
0.0
 40
1.25
 41
0.0
 71
     1
 72
     1
  1
+0.15\P+0
 73
     1
 44
1.0
1001
ACAD
1000
ACAD_MTEXT_DEFINED_HEIGHT_BEGIN
1070
    46
1040
0.0
1000
ACAD_MTEXT_DEFINED_HEIGHT_END
  0
MTEXT
  5
8AF4
330
18
100
AcDbEntity
  8
mark
 62
     3
100
AcDbMText
 10
40.82875268418496
 20
195.9046351608122
 30
0.0
 40
1.25
 41
0.0
 71
     1
 72
     1
  1
+0.15\P+0
 11
0.0000000000000001
 21
1.0
 31
0.0
 73
     1
 44
1.0
1001
ACAD
1000
ACAD_MTEXT_DEFINED_HEIGHT_BEGIN
1070
    46
1040
0.0
1000
ACAD_MTEXT_DEFINED_HEIGHT_END
  0
MTEXT
  5
8AF5
330
18
100
AcDbEntity
  8
mark
 62
     3
100
AcDbMText
 10
41.66208601751821
 20
201.1650321578981
 30
0.0
 40
2.5
 41
0.0
 71
     1
 72
     1
  1
(3{\Ftxt,bigfont|c128;等分\Ftxt,bigfont|c136;)}
 11
0.0000000000000001
 21
1.0
 31
0.0
 73
     1
 44
1.0
1001
ACAD
1000
ACAD_MTEXT_DEFINED_HEIGHT_BEGIN
1070
    46
1040
0.0
1000
ACAD_MTEXT_DEFINED_HEIGHT_END
  0
DIMENSION
  5
8AF6
330
18
100
AcDbEntity
  8
mark
100
AcDbDimension
  2
*D10
 10
57.00000000000001
 20
89.84406497228095
 30
0.0
 11
46.08698534368711
 21
81.83018811883403
 31
0.0
 70
    36
  1
2-R2
 71
     5
 42
2.000000000000056
  3
STANDARD
100
AcDbRadialDimension
 15
55.58578643762679
 25
88.42985140990789
 35
0.0
 40
0.0
1001
ACAD
1000
DSTYLE
1002
{
1070
   288
1070
     1
1002
}
  0
DIMENSION
  5
8B06
330
18
100
AcDbEntity
  8
mark
100
AcDbDimension
  2
*D11
 10
145.6358814776898
 20
103.844064972281
 30
0.0
 11
143.5858814776898
 21
99.84406497228103
 31
0.0
 70
    32
 71
     5
 42
7.999999999999943
  3
STANDARD
100
AcDbAlignedDimension
 13
136.9999999999999
 23
95.84406497228105
 33
0.0
 14
131.5
 24
103.844064972281
 34
0.0
 50
90.0
100
AcDbRotatedDimension
  0
DIMENSION
  5
8B13
330
18
100
AcDbEntity
  8
mark
100
AcDbDimension
  2
*D12
 10
154.3554876740462
 20
87.84406497228099
 30
0.0
 11
152.3054876740462
 21
95.844064972281
 31
0.0
 70
    32
  1
16%%P0.2
 71
     5
 42
16.0
  3
STANDARD
100
AcDbAlignedDimension
 13
131.5
 23
103.844064972281
 33
0.0
 14
133.0
 24
87.84406497228099
 34
0.0
 50
90.0
100
AcDbRotatedDimension
  0
LINE
  5
8B29
330
18
100
AcDbEntity
  8
mark
100
AcDbLine
 10
65.0
 20
73.71350535504035
 30
0.0
 11
65.0
 21
64.96350535504035
 31
0.0
  0
INSERT
  5
8B2A
330
18
100
AcDbEntity
  8
mark
100
AcDbBlockReference
  2
A
 10
60.92073199585342
 20
69.35465045682292
 30
0.0
  0
TOLERANCE
  5
8B2B
330
18
100
AcDbEntity
  8
mark
100
AcDbFcf
  3
STANDARD
 10
159.3554876740462
 20
113.844064972281
 30
0.0
  1
{\Fgdt;h}%%v0.005%%v%%vA%%v%%v
1001
ACAD
1000
DSTYLE
1002
{
1070
    41
1040
2.5
1070
    42
1040
0.8
1070
    43
1040
6.0
1070
    44
1040
0.8
1070
    73
1070
     0
1070
    74
1070
     0
1070
    78
1070
     8
1070
    79
1070
     2
1070
   140
1040
2.5
1070
   141
1040
0.0
1070
   144
1040
1.0
1070
   147
1040
0.8
1070
   176
1070
   256
1070
   177
1070
   256
1070
   178
1070
     3
1070
   179
1070
     2
1070
   271
1070
     1
1070
   272
1070
     1
1070
   341
1005
7D6B
1070
   342
1005
7D6B
1002
}
  0
LWPOLYLINE
  5
8B2C
330
18
100
AcDbEntity
  8
mark
100
AcDbPolyline
 90
        3
 70
     0
 43
0.0
 10
154.3554876740462
 20
103.844064972281
 10
154.3554876740462
 20
113.844064972281
 10
159.3554876740462
 20
113.844064972281
  0
MTEXT
  5
8B2D
330
18
100
AcDbEntity
  8
mark
 62
     3
100
AcDbMText
 10
142.7591764100093
 20
115.6946645182706
 30
0.0
 40
3.5
 41
0.0
 71
     5
 72
     1
  1
2
 73
     1
 44
1.0
1001
ACAD
1000
ACAD_MTEXT_DEFINED_HEIGHT_BEGIN
1070
    46
1040
0.0
1000
ACAD_MTEXT_DEFINED_HEIGHT_END
  0
LEADER
  5
8B2E
330
18
100
AcDbEntity
  8
mark
100
AcDbLeader
  3
STANDARD
 76
     2
 10
135.0
 20
95.84406497228128
 30
0.0
 10
140.7646019370668
 20
113.8947896195914
 30
0.0
1001
ACAD
1000
DSTYLE
1002
{
1070
   147
1040
0.8
1070
    77
1070
     0
1002
}
  0
MTEXT
  5
8B2F
330
18
100
AcDbEntity
  8
mark
 62
     3
100
AcDbMText
 10
142.5341764100093
 20
79.63689169587872
 30
0.0
 40
3.5
 41
0.0
 71
     5
 72
     1
  1
3
 73
     1
 44
1.0
1001
ACAD
1000
ACAD_MTEXT_DEFINED_HEIGHT_BEGIN
1070
    46
1040
0.0
1000
ACAD_MTEXT_DEFINED_HEIGHT_END
  0
LEADER
  5
8B30
330
18
100
AcDbEntity
  8
mark
100
AcDbLeader
  3
STANDARD
 76
     2
 10
126.45875
 20
92.34406497228111
 30
0.0
 10
140.4632046898584
 20
79.87486028242279
 30
0.0
211
0.7071067811865476
221
0.7071067811865475
231
0.0
1001
ACAD
1000
DSTYLE
1002
{
1070
   147
1040
0.8
1070
    77
1070
     0
1002
}
  0
LEADER
  5
8B31
330
18
100
AcDbEntity
  8
mark
100
AcDbLeader
  3
STANDARD
 76
     2
 10
123.2842712474619
 20
222.7132127350799
 30
0.0
 10
140.0323688900332
 20
239.4613103776511
 30
0.0
211
0.8660254037844385
221
0.5000000000000005
231
0.0
1001
ACAD
1000
DSTYLE
1002
{
1070
   147
1040
0.8
1070
    77
1070
     0
1002
}
  0
MTEXT
  5
8B32
330
18
100
AcDbEntity
  8
mark
 62
     3
100
AcDbMText
 10
141.2938676094454
 20
239.864290791872
 30
0.0
 40
3.5
 41
0.0
 71
     5
 72
     1
  1
1
 73
     1
 44
1.0
1001
ACAD
1000
ACAD_MTEXT_DEFINED_HEIGHT_BEGIN
1070
    46
1040
0.0
1000
ACAD_MTEXT_DEFINED_HEIGHT_END
  0
DIMENSION
  5
8B33
330
18
100
AcDbEntity
  8
mark
100
AcDbDimension
  2
*D13
 10
81.46626605778465
 20
101.844064972281
 30
0.0
 11
79.41626605778463
 21
94.21073163894766
 31
0.0
 70
    32
 71
     5
 42
2.0
  3
STANDARD
100
AcDbAlignedDimension
 13
81.46626605778465
 23
103.844064972281
 33
0.0
 14
81.46626605778465
 24
101.844064972281
 34
0.0
 50
90.0
100
AcDbRotatedDimension
  0
HATCH
  5
8CCC
330
18
100
AcDbEntity
  8
section
100
AcDbHatch
 10
0.0
 20
0.0
 30
0.0
210
0.0
220
0.0
230
1.0
  2
ANSI31
 70
     0
 71
     1
 91
       10
 92
        7
 72
     0
 73
     1
 93
        9
 10
64.50000000000006
 20
101.844064972281
 10
64.50000000000006
 20
103.844064972281
 10
58.49999999999999
 20
103.844064972281
 10
58.5
 20
103.344064972281
 10
58.15341921820641
 20
103.344064972281
 10
58.1534192182064
 20
87.84406497228099
 10
64.08249999999998
 20
87.84406497228097
 10
65.0
 20
88.761564972281
 10
65.0
 20
101.344064972281
 97
        9
330
80B9
330
80B7
330
80A0
330
80A1
330
80A2
330
80B2
330
809E
330
80B8
330
80B5
 92
        7
 72
     0
 73
     1
 93
        4
 10
65.0
 20
88.76156497228102
 10
66.08249999999999
 20
89.844064972281
 10
66.08249999999998
 20
100.261564972281
 10
65.0
 20
101.344064972281
 97
        4
330
80B9
330
80B5
330
80B8
330
80B4
 92
        7
 72
     1
 73
     1
 93
        9
 10
125.4999999999999
 20
103.844064972281
 42
0.0
 10
125.4999999999999
 20
101.844064972281
 42
0.0
 10
125.0
 20
101.344064972281
 42
0.0
 10
125.0
 20
99.84406497228105
 42
0.0
 10
134.9999999999999
 20
99.84406497228105
 42
0.0
 10
134.9999999999999
 20
101.344064972281
 42
0.4142135623730951
 10
132.9999999999999
 20
103.344064972281
 42
0.0
 10
131.5
 20
103.344064972281
 42
0.0
 10
131.5
 20
103.844064972281
 42
0.0
 97
        9
330
80A7
330
80A8
330
80A0
330
80BD
330
80BE
330
80BC
330
80C5
330
809D
330
80A9
 92
        7
 72
     0
 73
     1
 93
        4
 10
123.9175
 20
100.261564972281
 10
123.9175
 20
99.84406497228105
 10
125.0
 20
99.84406497228105
 10
125.0
 20
101.344064972281
 97
        4
330
80BE
330
80BA
330
80C5
330
80BC
 92
        7
 72
     0
 73
     1
 93
        6
 10
128.9999999999999
 20
99.34406497228106
 10
129.0
 20
99.16756497228101
 10
129.8234999999999
 20
99.16756497228101
 10
130.4999999999999
 20
99.84406497228103
 10
123.9175
 20
99.84406497228103
 10
123.9175
 20
99.34406497228099
 97
        5
330
80C5
330
80BA
330
80D7
330
80C7
330
80CA
 92
        7
 72
     0
 73
     1
 93
        3
 10
134.9999999999999
 20
99.16756497228099
 10
134.9999999999999
 20
99.84406497228105
 10
133.8282676286796
 20
99.84406497228105
 97
        3
330
80C5
330
80D4
330
809D
 92
        7
 72
     0
 73
     1
 93
        3
 10
135.0
 20
91.84406497228104
 10
134.9999999999999
 20
92.52056497228108
 10
133.8282676286796
 20
91.84406497228104
 97
        3
330
80D6
330
80C6
330
809D
 92
        7
 72
     0
 73
     1
 93
        6
 10
123.9175
 20
92.34406497228105
 10
123.9175
 20
91.84406497228104
 10
130.4999999999999
 20
91.84406497228106
 10
129.8235
 20
92.52056497228103
 10
128.9999999999999
 20
92.52056497228101
 10
128.9999999999999
 20
92.34406497228105
 97
        5
330
80C8
330
80D7
330
80BA
330
80C6
330
80CA
 92
        7
 72
     1
 73
     1
 93
        6
 10
125.0
 20
91.84406497228104
 42
0.0
 10
125.0
 20
88.761564972281
 42
0.0
 10
125.9175
 20
87.84406497228099
 42
0.0
 10
133.0
 20
87.84406497228099
 42
0.4142135623730951
 10
135.0
 20
89.84406497228098
 42
0.0
 10
135.0
 20
91.84406497228104
 42
0.0
 97
        6
330
80C6
330
80D8
330
80BB
330
809E
330
80A5
330
809D
 92
        7
 72
     0
 73
     1
 93
        4
 10
123.9175
 20
89.84406497228098
 10
125.0
 20
88.76156497228102
 10
125.0
 20
91.84406497228104
 10
123.9175
 20
91.84406497228103
 97
        4
330
80C6
330
80BA
330
80BB
330
80D8
 75
     0
 76
     1
 52
0.0
 41
0.5
 77
     0
 78
     1
 53
45.0
 43
0.0
 44
0.0
 45
-1.122532015133643
 46
1.122532015133644
 79
     0
 47
0.2236351257742535
 98
       10
 10
62.37504422162055
 20
100.8718557037684
 10
65.28342786776807
 20
98.28038429366712
 10
129.5356367535578
 20
101.9942562145879
 10
124.3126669217183
 20
100.3729776140465
 10
125.7816146200907
 20
99.48504525096678
 10
134.7319427488364
 20
99.58749891172159
 10
134.5611349297692
 20
91.97177265811717
 10
128.890316699918
 20
92.3132851789021
 10
131.2474636942584
 20
90.26421005419194
 10
124.2101829118687
 20
90.8106298964866
1001
ACAD
1010
0.0
1020
0.0
1030
0.0
  0
MTEXT
  5
8DE2
330
18
100
AcDbEntity
  8
0
100
AcDbMText
 10
47.65097232190476
 20
19.07605901616615
 30
0.0
 40
4.5
 41
0.0
 71
     1
 72
     5
  1
{\Ftxt,bigfont|c128;小\~柳}
  7
JL
 73
     1
 44
1.0
1001
ACAD
1000
ACAD_MTEXT_DEFINED_HEIGHT_BEGIN
1070
    46
1040
0.0
1000
ACAD_MTEXT_DEFINED_HEIGHT_END
  0
ENDSEC
  0
SECTION
  2
OBJECTS
  0
DICTIONARY
  5
C
330
0
100
AcDbDictionary
281
     1
  3
ACAD_COLOR
350
7D26
  3
ACAD_GROUP
350
D
  3
ACAD_LAYOUT
350
5CF3
  3
ACAD_MATERIAL
350
7D25
  3
ACAD_MLINESTYLE
350
1B
  3
ACAD_PLOTSETTINGS
350
5CF4
  3
ACAD_PLOTSTYLENAME
350
5CF1
  3
ACAD_TABLESTYLE
350
7D27
  3
ACDBVARIABLEDICTIONARY
350
45D
  0
DICTIONARY
  5
7D58
330
2
100
AcDbDictionary
280
     1
281
     1
  3
ACAD_LAYERFILTERS
360
7D5A
  3
ACLYDICTIONARY
360
7D59
  0
DICTIONARY
  5
45F
330
18
100
AcDbDictionary
280
     1
281
     1
  3
ACAD_LAYOUTSELFREF
360
5D8B
  3
ACAD_SORTENTS
360
460
  0
DICTIONARY
  5
5D89
330
15
100
AcDbDictionary
280
     1
281
     1
  3
ACAD_LAYOUTSELFREF
360
5D8A
  0
DICTIONARY
  5
7D72
330
7D71
100
AcDbDictionary
280
     1
281
     1
  3
AcDbBlockTableRecordData
360
7D73
  0
DICTIONARY
  5
7D26
102
{ACAD_REACTORS
330
C
102
}
330
C
100
AcDbDictionary
281
     1
  0
DICTIONARY
  5
D
102
{ACAD_REACTORS
330
C
102
}
330
C
100
AcDbDictionary
281
     1
  0
DICTIONARY
  5
5CF3
102
{ACAD_REACTORS
330
C
102
}
330
C
100
AcDbDictionary
281
     1
  3
Model
350
5CF5
  3
配置1
350
5CF6
  0
DICTIONARY
  5
7D25
102
{ACAD_REACTORS
330
C
102
}
330
C
100
AcDbDictionary
281
     1
  0
DICTIONARY
  5
1B
102
{ACAD_REACTORS
330
C
102
}
330
C
100
AcDbDictionary
281
     1
  3
STANDARD
350
1C
  0
DICTIONARY
  5
5CF4
102
{ACAD_REACTORS
330
C
102
}
330
C
100
AcDbDictionary
281
     1
  0
ACDBDICTIONARYWDFLT
  5
5CF1
102
{ACAD_REACTORS
330
C
102
}
330
C
100
AcDbDictionary
281
     1
  3
Normal
350
5CF2
100
AcDbDictionaryWithDefault
340
5CF2
  0
DICTIONARY
  5
7D27
102
{ACAD_REACTORS
330
C
102
}
330
C
100
AcDbDictionary
281
     1
  3
Standard
350
7D28
  0
DICTIONARY
  5
45D
102
{ACAD_REACTORS
330
C
102
}
330
C
100
AcDbDictionary
281
     1
  3
CTABLESTYLE
350
7D33
  3
SORTENTS
350
45E
  0
DICTIONARY
  5
7D5A
102
{ACAD_REACTORS
330
7D58
102
}
330
7D58
100
AcDbDictionary
281
     1
  0
DICTIONARY
  5
7D59
102
{ACAD_REACTORS
330
7D58
102
}
330
7D58
100
AcDbDictionary
281
     1
1001
ACAD
1000
<All
  0
XRECORD
  5
5D8B
102
{ACAD_REACTORS
330
45F
102
}
330
45F
100
AcDbXrecord
280
     1
340
18
  0
SORTENTSTABLE
  5
460
102
{ACAD_REACTORS
330
45F
102
}
330
45F
100
AcDbSortentsTable
330
18
331
808B
  5
8094
331
7F44
  5
7F4B
331
8093
  5
809A
331
C0
  5
CB
331
7F4C
  5
7F53
331
80CA
  5
80CC
331
80D2
  5
80D4
331
7F54
  5
7F5B
331
7F5C
  5
7F63
331
7F64
  5
7F6B
331
7F25
  5
7F2C
331
7F6C
  5
7F73
331
7F2D
  5
7F34
331
7D5E
  5
7D63
331
7F35
  5
7F3C
331
7D66
  5
7ED0
331
8B30
  5
8B31
331
8084
  5
808B
331
7F3D
  5
7F44
331
80BB
  5
80BC
331
808C
  5
8095
331
7F45
  5
7F4C
331
80CB
  5
80CD
331
7F4D
  5
7F54
331
80D3
  5
80D5
331
7F55
  5
7F5C
331
80DB
  5
80DD
331
7F5D
  5
7F64
331
80A4
  5
80A6
331
7F65
  5
7F6C
331
7F26
  5
7F2D
331
7F2E
  5
7F35
331
7D5F
  5
7D64
331
7F6D
  5
7F74
331
8B29
  5
8B2A
331
80B4
  5
80B5
331
7F36
  5
7F3D
331
7D67
  5
7ED1
331
8B31
  5
8B32
331
80BC
  5
80BD
331
8085
  5
808C
331
7F3E
  5
7F45
331
8A9B
  5
8AA8
331
808D
  5
8096
331
7F46
  5
7F4D
331
8095
  5
809B
331
7F4E
  5
7F55
331
80CC
  5
80CE
331
809D
  5
809F
331
7F56
  5
7F5D
331
80D4
  5
80D6
331
7F5E
  5
7F65
331
7F66
  5
7F6D
331
7F27
  5
7F2E
331
80A5
  5
80A0
331
7F6E
  5
7F75
331
7F2F
  5
7F36
331
7D60
  5
7D65
331
8B2A
  5
8B2B
331
8B32
  5
8B33
331
7F37
  5
7F3E
331
7D68
  5
7ED2
331
80B5
  5
80B8
331
7F3F
  5
7F46
331
8086
  5
808D
331
80BD
  5
80BF
331
8AF3
  5
8AF4
331
80C5
  5
80C7
331
7F47
  5
7F4E
331
808E
  5
8097
331
80CD
  5
80CF
331
7F4F
  5
7F56
331
8096
  5
7D5F
331
80D5
  5
80D7
331
7F57
  5
7F5E
331
809E
  5
80A1
331
8B13
  5
8B29
331
7F5F
  5
7F66
331
80DD
  5
80DE
331
7F20
  5
7F27
331
7F67
  5
7F6E
331
7F28
  5
7F2F
331
7F30
  5
7F37
331
7D61
  5
7D69
331
7F6F
  5
7F76
331
8B2B
  5
8B2C
331
8B33
  5
8C86
331
7F38
  5
7F3F
331
7D69
  5
7ED3
331
8AD4
  5
8AE4
331
8AE4
  5
8AF3
331
80BE
  5
80C0
331
8087
  5
808E
331
7F40
  5
7F47
331
8AF4
  5
8AF5
331
7F48
  5
7F4F
331
80C6
  5
80C8
331
7F50
  5
7F57
331
8097
  5
7D5E
331
80CE
  5
80D0
331
8AB5
  5
8AB6
331
80D6
  5
80D8
331
7F58
  5
7F5F
331
809F
  5
80A2
331
80DE
  5
8A8E
331
7F21
  5
7F28
331
7F60
  5
7F67
331
80A7
  5
80A8
331
7F68
  5
7F6F
331
7F29
  5
7F30
331
8B2C
  5
8B2D
331
8AC5
  5
8AD4
331
7F70
  5
7F77
331
7D62
  5
7D68
331
7F31
  5
7F38
331
8A8E
  5
8A9B
331
80B7
  5
80B9
331
7D6A
  5
7ED4
331
7F39
  5
7F40
331
80BF
  5
80C1
331
8088
  5
808F
331
7F41
  5
7F48
331
8AF5
  5
8AF6
331
80C7
  5
80C9
331
7F49
  5
7F50
331
80CF
  5
80D1
331
7F51
  5
7F58
331
8AB6
  5
8AB7
331
80D7
  5
80D9
331
7F59
  5
7F60
331
80A0
  5
80A4
331
7F61
  5
7F68
331
7F22
  5
7F29
331
80A8
  5
80B2
331
7D5B
  5
7D5B
331
7F2A
  5
7F31
331
7F69
  5
7F70
331
8B2D
  5
8B2E
331
7D63
  5
7D67
331
7F32
  5
7F39
331
7F71
  5
7F78
331
80B8
  5
80B6
331
7F3A
  5
7F41
331
80C0
  5
80C5
331
8089
  5
8090
331
7F42
  5
7F49
331
8AF6
  5
8B06
331
80C8
  5
80CA
331
7F4A
  5
7F51
331
80D0
  5
80D2
331
7F52
  5
7F59
331
8B06
  5
8B13
331
8AB7
  5
8AB8
331
80D8
  5
80BE
331
7F5A
  5
7F61
331
80A1
  5
80A7
331
7F62
  5
7F69
331
7F23
  5
7F2A
331
7F6A
  5
7F71
331
7F2B
  5
7F32
331
7D5C
  5
7D60
331
8B2E
  5
8B2F
331
7F33
  5
7F3A
331
7D64
  5
7ECE
331
7F72
  5
7F79
331
80B9
  5
80BA
331
7F3B
  5
7F42
331
8CCC
  5
809D
331
808A
  5
8093
331
7F43
  5
7F4A
331
80C1
  5
80C6
331
8AA8
  5
8AB5
331
80C9
  5
80CB
331
7F4B
  5
7F52
331
80D1
  5
80D3
331
7F53
  5
7F5A
331
80D9
  5
80DB
331
7F5B
  5
7F62
331
8AB8
  5
8AC5
331
80A2
  5
80A5
331
7F63
  5
7F6A
331
7F24
  5
7F2B
331
7F6B
  5
7F72
331
7F2C
  5
7F33
331
7D5D
  5
7D62
331
8B2F
  5
8B30
331
80B2
  5
80B4
331
7F34
  5
7F3B
331
7D65
  5
7ECF
331
80BA
  5
80BB
331
8083
  5
808A
331
7F3C
  5
7F43
  0
XRECORD
  5
5D8A
102
{ACAD_REACTORS
330
5D89
102
}
330
5D89
100
AcDbXrecord
280
     1
340
15
  0
DICTIONARY
  5
7D73
102
{ACAD_REACTORS
330
7D72
102
}
330
7D72
100
AcDbDictionary
280
     1
281
     1
  3
Edit
360
7D74
  0
LAYOUT
  5
5CF5
102
{ACAD_REACTORS
330
5CF3
102
}
330
5CF3
100
AcDbPlotSettings
  1

  2
none_device
  4
ISO_A4_(210.00_x_297.00_MM)
  6

 40
7.5
 41
20.0
 42
7.5
 43
20.0
 44
210.0
 45
297.0
 46
0.0
 47
0.0
 48
0.0
 49
0.0
140
0.0
141
0.0
142
1.0
143
2.27994706149715
 70
 11952
 72
     1
 73
     1
 74
     0
  7
a.ctb
 75
     0
147
0.4386066750792625
 76
     0
 77
     2
 78
   300
148
186.2945212311197
149
7.031053739720391
100
AcDbLayout
  1
Model
 70
     1
 71
     0
 10
0.0
 20
0.0
 11
12.0
 21
9.0
 12
0.0
 22
0.0
 32
0.0
 14
0.0
 24
0.0
 34
0.0
 15
0.0
 25
0.0
 35
0.0
146
0.0
 13
0.0
 23
0.0
 33
0.0
 16
1.0
 26
0.0
 36
0.0
 17
0.0
 27
1.0
 37
0.0
 76
     0
330
18
1001
ACAD_PSEXT
1000
なし
1000
なし
1000
適切ではありません
1000
新しいプロッタ環境設定名を選択しない限り、レイアウトは印刷されません。
1070
     0
  0
LAYOUT
  5
5CF6
102
{ACAD_REACTORS
330
5CF3
102
}
330
5CF3
100
AcDbPlotSettings
  1

  2
EPSON STYLUS COLOR 440
  4

  6

 40
0.0
 41
0.0
 42
0.0
 43
0.0
 44
0.0
 45
0.0
 46
0.0
 47
0.0
 48
0.0
 49
0.0
140
0.0
141
0.0
142
1.0
143
1.0
 70
   688
 72
     0
 73
     0
 74
     5
  7
a.ctb
 75
    16
147
1.0
 76
     0
 77
     2
 78
   300
148
0.0
149
0.0
100
AcDbLayout
  1
ｰtｸm1
 70
     1
 71
     1
 10
0.0
 20
0.0
 11
420.0
 21
297.0
 12
0.0
 22
0.0
 32
0.0
 14
1.000000000000000E+20
 24
1.000000000000000E+20
 34
1.000000000000000E+20
 15
-1.000000000000000E+20
 25
-1.000000000000000E+20
 35
-1.000000000000000E+20
146
0.0
 13
0.0
 23
0.0
 33
0.0
 16
1.0
 26
0.0
 36
0.0
 17
0.0
 27
1.0
 37
0.0
 76
     0
330
15
  0
MLINESTYLE
  5
1C
102
{ACAD_REACTORS
330
1B
102
}
330
1B
100
AcDbMlineStyle
  2
STANDARD
 70
     0
  3

 62
   256
 51
90.0
 52
90.0
 71
     2
 49
0.5
 62
   256
  6
BYLAYER
 49
-0.5
 62
   256
  6
BYLAYER
  0
ACDBPLACEHOLDER
  5
5CF2
102
{ACAD_REACTORS
330
5CF1
102
}
330
5CF1
  0
TABLESTYLE
  5
7D28
102
{ACAD_REACTORS
330
7D27
102
}
330
7D27
100
AcDbTableStyle
  3
Standard
 70
     0
 71
     8
 40
1.5
 41
1.5
280
     0
281
     0
  7
STANDARD
140
4.5
170
     2
 62
     0
 63
     7
283
     0
274
    -2
284
     1
 64
     0
275
    -2
285
     1
 65
     0
276
    -2
286
     1
 66
     0
277
    -2
287
     1
 67
     0
278
    -2
288
     1
 68
     0
279
    -2
289
     1
 69
     0
  7
STANDARD
140
6.0
170
     5
 62
     0
 63
     7
283
     0
274
    -2
284
     1
 64
     0
275
    -2
285
     1
 65
     0
276
    -2
286
     1
 66
     0
277
    -2
287
     1
 67
     0
278
    -2
288
     1
 68
     0
279
    -2
289
     1
 69
     0
  7
STANDARD
140
4.5
170
     5
 62
     0
 63
     7
283
     0
274
    -2
284
     1
 64
     0
275
    -2
285
     1
 65
     0
276
    -2
286
     1
 66
     0
277
    -2
287
     1
 67
     0
278
    -2
288
     1
 68
     0
279
    -2
289
     1
 69
     0
  0
DICTIONARYVAR
  5
7D33
102
{ACAD_REACTORS
330
45D
102
}
330
45D
100
DictionaryVariables
280
     0
  1
STANDARD
  0
DICTIONARYVAR
  5
45E
102
{ACAD_REACTORS
330
45D
102
}
330
45D
100
DictionaryVariables
280
     0
  1
127
  0
XRECORD
  5
7D74
102
{ACAD_REACTORS
330
7D73
102
}
330
7D73
100
AcDbXrecord
280
     1
1070
     0
1070
     1
1070
     1
  0
ENDSEC
  0
EOF
