  0
SECTION
  2
HEADER
  9
$ACADVER
  1
AC1018
  9
$ACADMAINTVER
 70
    76
  9
$DWGCODEPAGE
  3
ANSI_932
  9
$INSBASE
 10
0.0
 20
0.0
 30
0.0
  9
$EXTMIN
 10
0.0
 20
0.0
 30
0.0
  9
$EXTMAX
 10
190.0
 20
280.0
 30
3.838383838383842
  9
$LIMMIN
 10
0.0
 20
0.0
  9
$LIMMAX
 10
420.0
 20
297.0
  9
$ORTHOMODE
 70
     1
  9
$REGENMODE
 70
     1
  9
$FILLMODE
 70
     1
  9
$QTEXTMODE
 70
     0
  9
$MIRRTEXT
 70
     1
  9
$LTSCALE
 40
1.0
  9
$ATTMODE
 70
     1
  9
$TEXTSIZE
 40
2.5
  9
$TRACEWID
 40
1.0
  9
$TEXTSTYLE
  7
TXT
  9
$CLAYER
  8
0
  9
$CELTYPE
  6
BYLAYER
  9
$CECOLOR
 62
   256
  9
$CELTSCALE
 40
1.0
  9
$DISPSILH
 70
     0
  9
$DIMSCALE
 40
1.0
  9
$DIMASZ
 40
3.0
  9
$DIMEXO
 40
0.8
  9
$DIMDLI
 40
0.38
  9
$DIMRND
 40
0.0
  9
$DIMDLE
 40
0.0
  9
$DIMEXE
 40
0.8
  9
$DIMTP
 40
0.0
  9
$DIMTM
 40
0.0
  9
$DIMTXT
 40
2.5
  9
$DIMCEN
 40
0.09
  9
$DIMTSZ
 40
0.0
  9
$DIMTOL
 70
     0
  9
$DIMLIM
 70
     0
  9
$DIMTIH
 70
     0
  9
$DIMTOH
 70
     0
  9
$DIMSE1
 70
     0
  9
$DIMSE2
 70
     0
  9
$DIMTAD
 70
     3
  9
$DIMZIN
 70
     8
  9
$DIMBLK
  1
Open30
  9
$DIMASO
 70
     1
  9
$DIMSHO
 70
     1
  9
$DIMPOST
  1

  9
$DIMAPOST
  1

  9
$DIMALT
 70
     0
  9
$DIMALTD
 70
     2
  9
$DIMALTF
 40
25.4
  9
$DIMLFAC
 40
1.0
  9
$DIMTOFL
 70
     1
  9
$DIMTVP
 40
0.0
  9
$DIMTIX
 70
     0
  9
$DIMSOXD
 70
     0
  9
$DIMSAH
 70
     0
  9
$DIMBLK1
  1

  9
$DIMBLK2
  1

  9
$DIMSTYLE
  2
STANDARD
  9
$DIMCLRD
 70
   256
  9
$DIMCLRE
 70
   256
  9
$DIMCLRT
 70
     3
  9
$DIMTFAC
 40
1.0
  9
$DIMGAP
 40
0.8
  9
$DIMJUST
 70
     0
  9
$DIMSD1
 70
     0
  9
$DIMSD2
 70
     0
  9
$DIMTOLJ
 70
     1
  9
$DIMTZIN
 70
     0
  9
$DIMALTZ
 70
     0
  9
$DIMALTTZ
 70
     0
  9
$DIMUPT
 70
     0
  9
$DIMDEC
 70
     2
  9
$DIMTDEC
 70
     2
  9
$DIMALTU
 70
     2
  9
$DIMALTTD
 70
     2
  9
$DIMTXSTY
  7
STANDARD
  9
$DIMAUNIT
 70
     0
  9
$DIMADEC
 70
     2
  9
$DIMALTRND
 40
0.0
  9
$DIMAZIN
 70
     2
  9
$DIMDSEP
 70
    46
  9
$DIMATFIT
 70
     3
  9
$DIMFRAC
 70
     0
  9
$DIMLDRBLK
  1
Open30
  9
$DIMLUNIT
 70
     2
  9
$DIMLWD
 70
    -2
  9
$DIMLWE
 70
    -2
  9
$DIMTMOVE
 70
     0
  9
$LUNITS
 70
     2
  9
$LUPREC
 70
     2
  9
$SKETCHINC
 40
1.0
  9
$FILLETRAD
 40
2.0
  9
$AUNITS
 70
     0
  9
$AUPREC
 70
     2
  9
$MENU
  1
.
  9
$ELEVATION
 40
0.0
  9
$PELEVATION
 40
0.0
  9
$THICKNESS
 40
0.0
  9
$LIMCHECK
 70
     0
  9
$CHAMFERA
 40
2.0
  9
$CHAMFERB
 40
2.0
  9
$CHAMFERC
 40
1.75
  9
$CHAMFERD
 40
0.0174532925199433
  9
$SKPOLY
 70
     0
  9
$TDCREATE
 40
2451555.620234838
  9
$TDUCREATE
 40
2451555.245234838
  9
$TDUPDATE
 40
2455846.570898345
  9
$TDUUPDATE
 40
2455846.195898345
  9
$TDINDWG
 40
2.3675009259
  9
$TDUSRTIMER
 40
2.3675009259
  9
$USRTIMER
 70
     1
  9
$ANGBASE
 50
0.0
  9
$ANGDIR
 70
     0
  9
$PDMODE
 70
     0
  9
$PDSIZE
 40
0.0
  9
$PLINEWID
 40
0.0
  9
$SPLFRAME
 70
     0
  9
$SPLINETYPE
 70
     6
  9
$SPLINESEGS
 70
     8
  9
$HANDSEED
  5
93AD
  9
$SURFTAB1
 70
     6
  9
$SURFTAB2
 70
     6
  9
$SURFTYPE
 70
     6
  9
$SURFU
 70
     6
  9
$SURFV
 70
     6
  9
$UCSBASE
  2

  9
$UCSNAME
  2

  9
$UCSORG
 10
0.0
 20
0.0
 30
0.0
  9
$UCSXDIR
 10
1.0
 20
0.0
 30
0.0
  9
$UCSYDIR
 10
0.0
 20
1.0
 30
0.0
  9
$UCSORTHOREF
  2

  9
$UCSORTHOVIEW
 70
     0
  9
$UCSORGTOP
 10
0.0
 20
0.0
 30
0.0
  9
$UCSORGBOTTOM
 10
0.0
 20
0.0
 30
0.0
  9
$UCSORGLEFT
 10
0.0
 20
0.0
 30
0.0
  9
$UCSORGRIGHT
 10
0.0
 20
0.0
 30
0.0
  9
$UCSORGFRONT
 10
0.0
 20
0.0
 30
0.0
  9
$UCSORGBACK
 10
0.0
 20
0.0
 30
0.0
  9
$PUCSBASE
  2

  9
$PUCSNAME
  2

  9
$PUCSORG
 10
0.0
 20
0.0
 30
0.0
  9
$PUCSXDIR
 10
1.0
 20
0.0
 30
0.0
  9
$PUCSYDIR
 10
0.0
 20
1.0
 30
0.0
  9
$PUCSORTHOREF
  2

  9
$PUCSORTHOVIEW
 70
     0
  9
$PUCSORGTOP
 10
0.0
 20
0.0
 30
0.0
  9
$PUCSORGBOTTOM
 10
0.0
 20
0.0
 30
0.0
  9
$PUCSORGLEFT
 10
0.0
 20
0.0
 30
0.0
  9
$PUCSORGRIGHT
 10
0.0
 20
0.0
 30
0.0
  9
$PUCSORGFRONT
 10
0.0
 20
0.0
 30
0.0
  9
$PUCSORGBACK
 10
0.0
 20
0.0
 30
0.0
  9
$USERI1
 70
     0
  9
$USERI2
 70
     0
  9
$USERI3
 70
     0
  9
$USERI4
 70
     0
  9
$USERI5
 70
     0
  9
$USERR1
 40
0.0
  9
$USERR2
 40
0.0
  9
$USERR3
 40
0.0
  9
$USERR4
 40
0.0
  9
$USERR5
 40
0.0
  9
$WORLDVIEW
 70
     1
  9
$SHADEDGE
 70
     3
  9
$SHADEDIF
 70
    70
  9
$TILEMODE
 70
     1
  9
$MAXACTVP
 70
    48
  9
$PINSBASE
 10
0.0
 20
0.0
 30
0.0
  9
$PLIMCHECK
 70
     0
  9
$PEXTMIN
 10
1.000000000000000E+20
 20
1.000000000000000E+20
 30
1.000000000000000E+20
  9
$PEXTMAX
 10
-1.000000000000000E+20
 20
-1.000000000000000E+20
 30
-1.000000000000000E+20
  9
$PLIMMIN
 10
0.0
 20
0.0
  9
$PLIMMAX
 10
420.0
 20
297.0
  9
$UNITMODE
 70
     0
  9
$VISRETAIN
 70
     1
  9
$PLINEGEN
 70
     0
  9
$PSLTSCALE
 70
     1
  9
$TREEDEPTH
 70
  3020
  9
$CMLSTYLE
  2
STANDARD
  9
$CMLJUST
 70
     0
  9
$CMLSCALE
 40
20.0
  9
$PROXYGRAPHICS
 70
     1
  9
$MEASUREMENT
 70
     1
  9
$CELWEIGHT
370
    -1
  9
$ENDCAPS
280
     0
  9
$JOINSTYLE
280
     0
  9
$LWDISPLAY
290
     0
  9
$INSUNITS
 70
     0
  9
$HYPERLINKBASE
  1

  9
$STYLESHEET
  1
monochrome.ctb
  9
$XEDIT
290
     1
  9
$CEPSNTYPE
380
     0
  9
$PSTYLEMODE
290
     1
  9
$FINGERPRINTGUID
  2
{1CF51E8A-A506-11D4-A7D9-AF69F5C20846}
  9
$VERSIONGUID
  2
{66FD6FA6-EEDC-4087-A139-A0CF7DB2B856}
  9
$EXTNAMES
290
     1
  9
$PSVPSCALE
 40
0.0
  9
$OLESTARTUP
290
     0
  9
$SORTENTS
280
   127
  9
$INDEXCTL
280
     0
  9
$HIDETEXT
280
     0
  9
$XCLIPFRAME
290
     0
  9
$HALOGAP
280
     0
  9
$OBSCOLOR
 70
   257
  9
$OBSLTYPE
280
     0
  9
$INTERSECTIONDISPLAY
280
     0
  9
$INTERSECTIONCOLOR
 70
   257
  9
$DIMASSOC
280
     1
  9
$PROJECTNAME
  1

  0
ENDSEC
  0
SECTION
  2
CLASSES
  0
CLASS
  1
DICTIONARYVAR
  2
AcDbDictionaryVar
  3
ObjectDBX Classes
 90
        0
 91
        2
280
     0
281
     0
  0
CLASS
  1
SORTENTSTABLE
  2
AcDbSortentsTable
  3
ObjectDBX Classes
 90
        0
 91
        1
280
     0
281
     0
  0
CLASS
  1
ACDBDICTIONARYWDFLT
  2
AcDbDictionaryWithDefault
  3
ObjectDBX Classes
 90
        0
 91
        1
280
     0
281
     0
  0
CLASS
  1
TABLESTYLE
  2
AcDbTableStyle
  3
ObjectDBX Classes
 90
     2047
 91
        1
280
     0
281
     0
  0
ENDSEC
  0
SECTION
  2
TABLES
  0
TABLE
  2
VPORT
  5
8
330
0
100
AcDbSymbolTable
 70
     2
  0
VPORT
  5
93AC
330
8
100
AcDbSymbolTableRecord
100
AcDbViewportTableRecord
  2
*Active
 70
     0
 10
0.0
 20
0.0
 11
1.0
 21
1.0
 12
252.3599662213579
 22
147.7491595034492
 13
0.0
 23
0.0
 14
10.0
 24
10.0
 15
10.0
 25
10.0
 16
0.0
 26
0.0
 36
1.0
 17
0.0
 27
0.0
 37
0.0
 40
314.5084074281764
 41
2.47104247104247
 42
50.0
 43
0.0
 44
0.0
 50
0.0
 51
0.0
 71
     0
 72
 20000
 73
     1
 74
     1
 75
     0
 76
     0
 77
     0
 78
     0
281
     0
 65
     1
110
0.0
120
0.0
130
0.0
111
1.0
121
0.0
131
0.0
112
0.0
122
1.0
132
0.0
 79
     0
146
0.0
  0
ENDTAB
  0
TABLE
  2
LTYPE
  5
5
330
0
100
AcDbSymbolTable
 70
     7
  0
LTYPE
  5
12
330
5
100
AcDbSymbolTableRecord
100
AcDbLinetypeTableRecord
  2
BYBLOCK
 70
     0
  3

 72
    65
 73
     0
 40
0.0
  0
LTYPE
  5
13
330
5
100
AcDbSymbolTableRecord
100
AcDbLinetypeTableRecord
  2
BYLAYER
 70
     0
  3

 72
    65
 73
     0
 40
0.0
  0
LTYPE
  5
14
330
5
100
AcDbSymbolTableRecord
100
AcDbLinetypeTableRecord
  2
CONTINUOUS
 70
     0
  3
Solid line
 72
    65
 73
     0
 40
0.0
  0
LTYPE
  5
9D
330
5
100
AcDbSymbolTableRecord
100
AcDbLinetypeTableRecord
  2
CENTERX2
 70
     0
  3
Center (2x) ________  __  ________  __  _____
 72
    65
 73
     4
 40
101.6
 49
63.5
 74
     0
 49
-12.7
 74
     0
 49
12.7
 74
     0
 49
-12.7
 74
     0
  0
LTYPE
  5
A1
330
5
100
AcDbSymbolTableRecord
100
AcDbLinetypeTableRecord
  2
DASHED
 70
     0
  3
Dashed __ __ __ __ __ __ __ __ __ __ __ __ __ _
 72
    65
 73
     2
 40
19.05
 49
12.7
 74
     0
 49
-6.349999999999999
 74
     0
  0
LTYPE
  5
A2
330
5
100
AcDbSymbolTableRecord
100
AcDbLinetypeTableRecord
  2
DASHED2
 70
     0
  3
Dashed (.5x) _ _ _ _ _ _ _ _ _ _ _ _ _ _ _ _ _
 72
    65
 73
     2
 40
9.524999999999998
 49
6.349999999999999
 74
     0
 49
-3.174999999999999
 74
     0
  0
LTYPE
  5
A5
330
5
100
AcDbSymbolTableRecord
100
AcDbLinetypeTableRecord
  2
DIVIDE2
 70
     0
  3
Divide (.5x) __..__..__..__..__..__..__..__.._
 72
    65
 73
     6
 40
15.875
 49
6.349999999999999
 74
     0
 49
-3.174999999999999
 74
     0
 49
0.0
 74
     0
 49
-3.174999999999999
 74
     0
 49
0.0
 74
     0
 49
-3.174999999999999
 74
     0
  0
LTYPE
  5
650B
330
5
100
AcDbSymbolTableRecord
100
AcDbLinetypeTableRecord
  2
CENTER
 70
     0
  3
Center ____ _ ____ _ ____ _ ____ _ ____ _ ____
 72
    65
 73
     4
 40
50.8
 49
31.75
 74
     0
 49
-6.349999999999999
 74
     0
 49
6.349999999999999
 74
     0
 49
-6.349999999999999
 74
     0
  0
LTYPE
  5
650C
330
5
100
AcDbSymbolTableRecord
100
AcDbLinetypeTableRecord
  2
HIDDEN
 70
     0
  3
Hidden __ __ __ __ __ __ __ __ __ __ __ __ __ _
 72
    65
 73
     2
 40
9.524999999999998
 49
6.349999999999999
 74
     0
 49
-3.174999999999999
 74
     0
  0
ENDTAB
  0
TABLE
  2
LAYER
  5
2
102
{ACAD_XDICTIONARY
360
82DD
102
}
330
0
100
AcDbSymbolTable
 70
     9
  0
LAYER
  5
E
330
2
100
AcDbSymbolTableRecord
100
AcDbLayerTableRecord
  2
0
 70
     0
 62
     7
  6
CONTINUOUS
370
    -3
390
5CF2
  0
LAYER
  5
B9
330
2
100
AcDbSymbolTableRecord
100
AcDbLayerTableRecord
  2
dim
 70
     0
 62
     3
  6
CONTINUOUS
370
    -3
390
5CF2
  0
LAYER
  5
F2
330
2
100
AcDbSymbolTableRecord
100
AcDbLayerTableRecord
  2
DEFPOINTS
 70
     0
 62
     7
  6
CONTINUOUS
290
     0
370
    -3
390
5CF2
  0
LAYER
  5
5F8B
330
2
100
AcDbSymbolTableRecord
100
AcDbLayerTableRecord
  2
mark
 70
     0
 62
     6
  6
CONTINUOUS
370
    -3
390
5CF2
  0
LAYER
  5
644E
330
2
100
AcDbSymbolTableRecord
100
AcDbLayerTableRecord
  2
frame
 70
     0
 62
     9
  6
CONTINUOUS
370
    -3
390
5CF2
  0
LAYER
  5
650D
330
2
100
AcDbSymbolTableRecord
100
AcDbLayerTableRecord
  2
center
 70
     0
 62
     1
  6
CENTER
370
    -3
390
5CF2
  0
LAYER
  5
650E
330
2
100
AcDbSymbolTableRecord
100
AcDbLayerTableRecord
  2
bowle
 70
     0
 62
     4
  6
HIDDEN
370
    -3
390
5CF2
  0
LAYER
  5
650F
330
2
100
AcDbSymbolTableRecord
100
AcDbLayerTableRecord
  2
contour
 70
     0
 62
     2
  6
CONTINUOUS
370
    -3
390
5CF2
  0
LAYER
  5
6510
330
2
100
AcDbSymbolTableRecord
100
AcDbLayerTableRecord
  2
section
 70
     0
 62
     5
  6
CONTINUOUS
370
    -3
390
5CF2
  0
ENDTAB
  0
TABLE
  2
STYLE
  5
3
330
0
100
AcDbSymbolTable
 70
     5
  0
STYLE
  5
F
330
3
100
AcDbSymbolTableRecord
100
AcDbTextStyleTableRecord
  2
STANDARD
 70
     0
 40
0.0
 41
1.0
 50
0.0
 71
     0
 42
2.5
  3
txt
  4

  0
STYLE
  5
BE
330
3
100
AcDbSymbolTableRecord
100
AcDbTextStyleTableRecord
  2
ISOCP3
 70
     0
 40
0.0
 41
1.0
 50
0.0
 71
     0
 42
2.5
  3
isocp3.shx
  4

  0
STYLE
  5
2A37
330
3
100
AcDbSymbolTableRecord
100
AcDbTextStyleTableRecord
  2
TXT
 70
     0
 40
0.0
 41
1.0
 50
0.0
 71
     0
 42
2.5
  3
txt.shx
  4
bigfont.shx
  0
STYLE
  5
5DCB
330
3
100
AcDbSymbolTableRecord
100
AcDbTextStyleTableRecord
  2
LKK
 70
     0
 40
50.0
 41
1.5
 50
0.0
 71
     0
 42
50.0
  3
MS PGothic.ttf
  4

1001
ACAD
1000
MS PGothic
1071
    32818
  0
STYLE
  5
5DCC
330
3
100
AcDbSymbolTableRecord
100
AcDbTextStyleTableRecord
  2
JL
 70
     0
 40
10.0
 41
0.5
 50
0.0
 71
     0
 42
5.0
  3
MS Mincho.ttf
  4

1001
ACAD
1000
MS Mincho
1071
    32785
  0
ENDTAB
  0
TABLE
  2
VIEW
  5
6
330
0
100
AcDbSymbolTable
 70
     0
  0
ENDTAB
  0
TABLE
  2
UCS
  5
7
330
0
100
AcDbSymbolTable
 70
     0
  0
ENDTAB
  0
TABLE
  2
APPID
  5
9
330
0
100
AcDbSymbolTable
 70
    11
  0
APPID
  5
10
330
9
100
AcDbSymbolTableRecord
100
AcDbRegAppTableRecord
  2
ACAD
 70
     0
  0
APPID
  5
8379
330
9
100
AcDbSymbolTableRecord
100
AcDbRegAppTableRecord
  2
ACAD_DSTYLE_DIMEXT_LENGTH
 70
     0
  0
APPID
  5
837A
330
9
100
AcDbSymbolTableRecord
100
AcDbRegAppTableRecord
  2
ACAD_DSTYLE_DIMEXT_ENABLED
 70
     0
  0
APPID
  5
837B
330
9
100
AcDbSymbolTableRecord
100
AcDbRegAppTableRecord
  2
ACAD_DSTYLE_DIMJOGGED_JOGANGLE_SYMBOL
 70
     0
  0
APPID
  5
837C
330
9
100
AcDbSymbolTableRecord
100
AcDbRegAppTableRecord
  2
ACAD_DSTYLE_DIMARC_LENGTH_SYMBOL
 70
     0
  0
APPID
  5
86EA
330
9
100
AcDbSymbolTableRecord
100
AcDbRegAppTableRecord
  2
ACAD_EXEMPT_FROM_CAD_STANDARDS
 70
     0
  0
APPID
  5
8715
330
9
100
AcDbSymbolTableRecord
100
AcDbRegAppTableRecord
  2
ACAD_DSTYLE_DIMTEXT_FILL
 70
     0
  0
APPID
  5
8718
330
9
100
AcDbSymbolTableRecord
100
AcDbRegAppTableRecord
  2
ACAD_DSTYLE_DIM_LINETYPE
 70
     0
  0
APPID
  5
8719
330
9
100
AcDbSymbolTableRecord
100
AcDbRegAppTableRecord
  2
ACAD_DSTYLE_DIM_EXT1_LINETYPE
 70
     0
  0
APPID
  5
871A
330
9
100
AcDbSymbolTableRecord
100
AcDbRegAppTableRecord
  2
ACAD_DSTYLE_DIM_EXT2_LINETYPE
 70
     0
  0
APPID
  5
9399
330
9
100
AcDbSymbolTableRecord
100
AcDbRegAppTableRecord
  2
ACAD_PSEXT
 70
     0
  0
ENDTAB
  0
TABLE
  2
DIMSTYLE
  5
A
330
0
100
AcDbSymbolTable
 70
     2
100
AcDbDimStyleTable
 71
     1
340
1D
  0
DIMSTYLE
105
1D
102
{ACAD_REACTORS
330
8F65
330
8F74
330
8F81
330
8F8E
330
8FA0
330
8FB0
330
8FCB
330
8FD7
330
8FE7
330
8FF4
330
91F5
102
}
330
A
100
AcDbSymbolTableRecord
100
AcDbDimStyleTableRecord
  2
STANDARD
 70
     0
 41
3.0
 42
0.8
 44
0.8
 73
     0
 74
     0
 77
     3
 78
     8
 79
     2
140
2.5
147
0.8
172
     1
176
   256
177
   256
178
     3
179
     2
271
     2
272
     2
340
F
341
82E2
342
82E2
1001
ACAD_DSTYLE_DIMEXT_LENGTH
1070
   378
1040
0.18
1001
ACAD_DSTYLE_DIMEXT_ENABLED
1070
   383
1070
     0
1001
ACAD_DSTYLE_DIMARC_LENGTH_SYMBOL
1070
   379
1070
     0
1001
ACAD_DSTYLE_DIMJOGGED_JOGANGLE_SYMBOL
1070
   384
1040
1.570796326794896
  0
DIMSTYLE
105
9313
330
A
100
AcDbSymbolTableRecord
100
AcDbDimStyleTableRecord
  2
A
 70
     0
 41
2.5
 42
1.0
 43
6.0
 44
1.0
 73
     0
 74
     0
 77
     3
 78
     8
140
3.0
141
0.0
147
1.0
176
     6
177
     6
178
     3
271
     1
272
     1
279
     1
340
2A37
  0
ENDTAB
  0
TABLE
  2
BLOCK_RECORD
  5
1
330
0
100
AcDbSymbolTable
 70
    14
  0
BLOCK_RECORD
  5
18
102
{ACAD_XDICTIONARY
360
45F
102
}
330
1
100
AcDbSymbolTableRecord
100
AcDbBlockTableRecord
  2
*MODEL_SPACE
340
5CF5
  0
BLOCK_RECORD
  5
15
102
{ACAD_XDICTIONARY
360
5D89
102
}
330
1
100
AcDbSymbolTableRecord
100
AcDbBlockTableRecord
  2
*PAPER_SPACE
340
5CF6
  0
BLOCK_RECORD
  5
639D
330
1
100
AcDbSymbolTableRecord
100
AcDbBlockTableRecord
  2
A$C255C26A2
340
0
  0
BLOCK_RECORD
  5
82E2
330
1
100
AcDbSymbolTableRecord
100
AcDbBlockTableRecord
  2
_Open30
340
0
102
{BLKREFS
331
9322
331
9323
331
932B
331
932C
331
9334
331
9335
331
933D
331
933E
331
9348
331
9349
331
9353
331
9354
331
935C
331
9362
331
9363
331
936B
331
936C
331
9374
331
9375
331
937D
331
937E
102
}
  0
BLOCK_RECORD
  5
82E8
102
{ACAD_XDICTIONARY
360
82E9
102
}
330
1
100
AcDbSymbolTableRecord
100
AcDbBlockTableRecord
  2
A
340
0
310
2800000020000000200000000100080000000000000400000000000000000000000000000000000000000000000080000080000000808000800000008000800080800000C0C0C000C0DCC000F0CAA6000020400000206000002080000020A0000020C0000020E00000400000004020000040400000406000004080000040A0
310
000040C0000040E00000600000006020000060400000606000006080000060A0000060C0000060E00000800000008020000080400000806000008080000080A0000080C0000080E00000A0000000A0200000A0400000A0600000A0800000A0A00000A0C00000A0E00000C0000000C0200000C0400000C0600000C0800000C0
310
A00000C0C00000C0E00000E0000000E0200000E0400000E0600000E0800000E0A00000E0C00000E0E00040000000400020004000400040006000400080004000A0004000C0004000E00040200000402020004020400040206000402080004020A0004020C0004020E000404000004040200040404000404060004040800040
310
40A0004040C0004040E00040600000406020004060400040606000406080004060A0004060C0004060E00040800000408020004080400040806000408080004080A0004080C0004080E00040A0000040A0200040A0400040A0600040A0800040A0A00040A0C00040A0E00040C0000040C0200040C0400040C0600040C08000
310
40C0A00040C0C00040C0E00040E0000040E0200040E0400040E0600040E0800040E0A00040E0C00040E0E00080000000800020008000400080006000800080008000A0008000C0008000E00080200000802020008020400080206000802080008020A0008020C0008020E00080400000804020008040400080406000804080
310
008040A0008040C0008040E00080600000806020008060400080606000806080008060A0008060C0008060E00080800000808020008080400080806000808080008080A0008080C0008080E00080A0000080A0200080A0400080A0600080A0800080A0A00080A0C00080A0E00080C0000080C0200080C0400080C0600080C0
310
800080C0A00080C0C00080C0E00080E0000080E0200080E0400080E0600080E0800080E0A00080E0C00080E0E000C0000000C0002000C0004000C0006000C0008000C000A000C000C000C000E000C0200000C0202000C0204000C0206000C0208000C020A000C020C000C020E000C0400000C0402000C0404000C0406000C0
310
408000C040A000C040C000C040E000C0600000C0602000C0604000C0606000C0608000C060A000C060C000C060E000C0800000C0802000C0804000C0806000C0808000C080A000C080C000C080E000C0A00000C0A02000C0A04000C0A06000C0A08000C0A0A000C0A0C000C0A0E000C0C00000C0C02000C0C04000C0C06000
310
C0C08000C0C0A000F0FBFF00A4A0A000808080000000FF0000FF000000FFFF00FF000000FF00FF00FFFF0000FFFFFF0000000000000000000000000000000000000000000000000000000000000000000000000000000000000000000000000000000000000000000000000000000000000000000000000000000000000000
310
00000000000000000000000000000000000000000000000000000000000000000000000000000000000000000000000000000000000000000000000000000000000000000000000000000000000000000000000000000000000000000000000000000000000000000000000000000000000000000000000000000000000000
310
00000000000000000000000000000000000000000000000000000000000000000000000000000000000000000000000000000000000000000000000000000000000000000000000000000000000000000000000000000000000000000000000000000000000000000000000000000000000000000000000000000000000000
310
000000000000FDFDFDFDFDFDFDFDFDFDFDFD0000FD0000000000000000000000000000000000FD0000FA0000000000FA00FD0000FDFD00000000000000000000000000000000FD0000FA0000000000FA00FD0000FDFDFD000000000000000000000000000000FD0000FA0000000000FA00FD0000FDFDFDFD00000000000000
310
00000000000000FD0000FAFAFAFAFAFAFA00FD0000FDFDFDFDFD00000000000000000000000000FD000000FA00000000FA00FD0000FDFDFDFDFDFDFDFDFDFDFDFDFDFDFDFDFDFDFD000000FA000000FA0000FD0000FDFDFDFDFD00000000000000000000000000FD00000000FA0000FA0000FD0000FDFDFDFD000000000000
310
0000000000000000FD00000000FA00FA000000FD0000FDFD00000000000000000000000000000000FD0000000000FAFA000000FD0000FD0000000000000000000000000000000000FD0000000000FA00000000FD0000000000000000000000000000000000000000FDFDFDFDFDFDFDFDFDFDFDFD0000000000000000000000
310
00000000000000000000000000000000000000000000000000000000000000000000000000000000000000000000000000000000000000000000000000000000000000000000000000000000000000000000000000000000000000000000000000000000000000000000000000000000000000000000000000000000000000
310
00000000000000000000000000000000000000000000000000000000000000000000000000000000000000000000000000000000000000000000000000000000000000000000000000000000000000000000000000000000000000000000000000000000000000000000000000000000000000000000000000000000000000
310
0000000000000000000000000000000000000000000000000000000000000000000000000000000000000000000000000000000000000000
102
{BLKREFS
331
8FE5
102
}
  0
BLOCK_RECORD
  5
8F66
330
1
100
AcDbSymbolTableRecord
100
AcDbBlockTableRecord
  2
*D3
340
0
  0
BLOCK_RECORD
  5
8F75
330
1
100
AcDbSymbolTableRecord
100
AcDbBlockTableRecord
  2
*D4
340
0
  0
BLOCK_RECORD
  5
8F82
330
1
100
AcDbSymbolTableRecord
100
AcDbBlockTableRecord
  2
*D5
340
0
  0
BLOCK_RECORD
  5
8F8F
330
1
100
AcDbSymbolTableRecord
100
AcDbBlockTableRecord
  2
*D6
340
0
  0
BLOCK_RECORD
  5
8FA1
330
1
100
AcDbSymbolTableRecord
100
AcDbBlockTableRecord
  2
*D7
340
0
  0
BLOCK_RECORD
  5
8FB1
330
1
100
AcDbSymbolTableRecord
100
AcDbBlockTableRecord
  2
*D8
340
0
  0
BLOCK_RECORD
  5
8FCC
330
1
100
AcDbSymbolTableRecord
100
AcDbBlockTableRecord
  2
*D9
340
0
  0
BLOCK_RECORD
  5
8FD8
330
1
100
AcDbSymbolTableRecord
100
AcDbBlockTableRecord
  2
*D10
340
0
  0
BLOCK_RECORD
  5
8FE8
330
1
100
AcDbSymbolTableRecord
100
AcDbBlockTableRecord
  2
*D11
340
0
  0
BLOCK_RECORD
  5
8FF5
330
1
100
AcDbSymbolTableRecord
100
AcDbBlockTableRecord
  2
*D12
340
0
  0
BLOCK_RECORD
  5
91F6
330
1
100
AcDbSymbolTableRecord
100
AcDbBlockTableRecord
  2
*D13
340
0
  0
ENDTAB
  0
ENDSEC
  0
SECTION
  2
BLOCKS
  0
BLOCK
  5
19
330
18
100
AcDbEntity
  8
0
100
AcDbBlockBegin
  2
*MODEL_SPACE
 70
     0
 10
0.0
 20
0.0
 30
0.0
  3
*MODEL_SPACE
  1

  0
ENDBLK
  5
1A
330
18
100
AcDbEntity
  8
0
100
AcDbBlockEnd
  0
BLOCK
  5
16
330
15
100
AcDbEntity
 67
     1
  8
0
100
AcDbBlockBegin
  2
*PAPER_SPACE
 70
     0
 10
0.0
 20
0.0
 30
0.0
  3
*PAPER_SPACE
  1

  0
ENDBLK
  5
17
330
15
100
AcDbEntity
 67
     1
  8
0
100
AcDbBlockEnd
  0
BLOCK
  5
63A1
330
639D
100
AcDbEntity
  8
0
100
AcDbBlockBegin
  2
A$C255C26A2
 70
     0
 10
0.0
 20
0.0
 30
0.0
  3
A$C255C26A2
  1

  0
LWPOLYLINE
  5
639E
330
639D
100
AcDbEntity
  8
0
100
AcDbPolyline
 90
        3
 70
     1
 43
0.0
 10
7.014806023851633
 20
0.0000006939811783
 10
5.611844869720698
 20
2.430000693981241
 10
8.417767177982568
 20
2.430000693981241
  0
LWPOLYLINE
  5
639F
330
639D
100
AcDbEntity
  8
0
100
AcDbPolyline
 90
        3
 70
     1
 43
0.0
 10
4.20888371558999
 20
0.0000006939811783
 10
2.805922561459283
 20
2.430000693981241
 10
5.611844869720698
 20
2.430000693981241
  0
LWPOLYLINE
  5
63A0
330
639D
100
AcDbEntity
  8
0
100
AcDbPolyline
 90
        3
 70
     1
 43
0.0
 10
1.402961407328348
 20
0.0000006939811783
 10
0.0000002531974133
 20
2.430000693981241
 10
2.805922561459283
 20
2.430000693981241
  0
ENDBLK
  5
63A2
330
639D
100
AcDbEntity
  8
0
100
AcDbBlockEnd
  0
BLOCK
  5
82E3
330
82E2
100
AcDbEntity
  8
0
100
AcDbBlockBegin
  2
_Open30
 70
     0
 10
0.0
 20
0.0
 30
0.0
  3
_Open30
  1

  0
LINE
  5
82E4
330
82E2
100
AcDbEntity
  8
0
  6
ByBlock
 62
     0
370
    -2
100
AcDbLine
 10
-1.0
 20
0.26794919
 30
0.0
 11
0.0
 21
0.0
 31
0.0
  0
LINE
  5
82E5
330
82E2
100
AcDbEntity
  8
0
  6
ByBlock
 62
     0
370
    -2
100
AcDbLine
 10
0.0
 20
0.0
 30
0.0
 11
-1.0
 21
-0.26794919
 31
0.0
  0
LINE
  5
82E6
330
82E2
100
AcDbEntity
  8
0
  6
ByBlock
 62
     0
370
    -2
100
AcDbLine
 10
0.0
 20
0.0
 30
0.0
 11
-1.0
 21
0.0
 31
0.0
  0
ENDBLK
  5
82E7
330
82E2
100
AcDbEntity
  8
0
100
AcDbBlockEnd
  0
BLOCK
  5
82EC
330
82E8
100
AcDbEntity
  8
0
100
AcDbBlockBegin
  2
A
 70
     0
 10
0.0
 20
0.0
 30
0.0
  3
A
  1

  0
MTEXT
  5
82ED
330
82E8
100
AcDbEntity
  8
mark
 62
     3
100
AcDbMText
 10
10.65641897020822
 20
-5.596245361730467
 30
0.0
 40
2.5
 41
0.0
 71
     5
 72
     1
  1
A
 73
     1
 44
1.0
1001
ACAD
1000
ACAD_MTEXT_DEFINED_HEIGHT_BEGIN
1070
    46
1040
0.0
1000
ACAD_MTEXT_DEFINED_HEIGHT_END
  0
LWPOLYLINE
  5
82EE
330
82E8
100
AcDbEntity
  8
mark
100
AcDbPolyline
 90
        4
 70
     1
 43
0.0
 10
9.07926800414657
 20
-7.141145101782569
 10
12.07926800414657
 20
-7.141145101782569
 10
12.07926800414657
 20
-4.141145101782569
 10
9.07926800414657
 20
-4.141145101782569
  0
HATCH
  5
82EF
330
82E8
100
AcDbEntity
  8
mark
100
AcDbHatch
 10
0.0
 20
0.0
 30
0.0
210
0.0
220
0.0
230
1.0
  2
SOLID
 70
     1
 71
     0
 91
        1
 92
        7
 72
     0
 73
     1
 93
        3
 10
5.32926800414657
 20
-5.641145101782569
 10
4.07926800414657
 20
-4.391145101782541
 10
4.07926800414657
 20
-6.891145101782541
 97
        0
 75
     0
 76
     1
 47
0.0398277943677868
 98
        1
 10
4.589689734415287
 20
-5.732163331855076
450
        0
451
        0
460
0.0
461
0.0
452
        1
462
1.0
453
        2
463
0.0
 63
     5
421
      255
463
1.0
 63
     7
421
 16777215
470
LINEAR
1001
ACAD
1010
0.0
1020
0.0
1030
0.0
  0
LINE
  5
82F0
330
82E8
100
AcDbEntity
  8
mark
100
AcDbLine
 10
5.32926800414657
 20
-5.641145101782569
 30
0.0
 11
9.07926800414657
 21
-5.641145101782569
 31
0.0
  0
LINE
  5
82F1
330
82E8
100
AcDbEntity
  8
mark
100
AcDbLine
 10
5.32926800414657
 20
-5.641145101782569
 30
0.0
 11
4.07926800414657
 21
-4.391145101782569
 31
0.0
  0
LINE
  5
82F2
330
82E8
100
AcDbEntity
  8
mark
100
AcDbLine
 10
5.32926800414657
 20
-5.641145101782569
 30
0.0
 11
4.07926800414657
 21
-6.891145101782569
 31
0.0
  0
ENDBLK
  5
82F3
330
82E8
100
AcDbEntity
  8
0
100
AcDbBlockEnd
  0
BLOCK
  5
8F70
330
8F66
100
AcDbEntity
  8
0
100
AcDbBlockBegin
  2
*D3
 70
     1
 10
0.0
 20
0.0
 30
0.0
  3
*D3
  1

  0
LINE
  5
931F
330
8F66
100
AcDbEntity
  8
mark
370
    -2
100
AcDbLine
 10
43.2517906142506
 20
191.9466954937666
 30
0.0
 11
31.54757285632088
 21
191.9466954937666
 31
0.0
  0
LINE
  5
9320
330
8F66
100
AcDbEntity
  8
mark
370
    -2
100
AcDbLine
 10
43.2517906142506
 20
183.9466954937666
 30
0.0
 11
31.54757285632088
 21
183.9466954937666
 31
0.0
  0
LINE
  5
9321
330
8F66
100
AcDbEntity
  8
mark
370
    -2
100
AcDbLine
 10
32.34757285632088
 20
188.9466954937666
 30
0.0
 11
32.34757285632088
 21
186.9466954937666
 31
0.0
  0
INSERT
  5
9322
330
8F66
100
AcDbEntity
  8
mark
370
    -2
100
AcDbBlockReference
  2
_Open30
 10
32.34757285632088
 20
191.9466954937666
 30
0.0
 41
3.0
 42
3.0
 43
3.0
 50
90.0
  0
INSERT
  5
9323
330
8F66
100
AcDbEntity
  8
mark
370
    -2
100
AcDbBlockReference
  2
_Open30
 10
32.34757285632088
 20
183.9466954937666
 30
0.0
 41
3.0
 42
3.0
 43
3.0
 50
270.0
  0
MTEXT
  5
9324
330
8F66
100
AcDbEntity
  8
mark
 62
     3
100
AcDbMText
 10
30.29757285632085
 20
187.9466954937666
 30
0.0
 40
2.5
 41
0.0
 71
     5
 72
     1
  1
\A1;8
 11
0.0000000000000001
 21
1.0
 31
0.0
 73
     1
 44
1.0
  0
POINT
  5
9325
330
8F66
100
AcDbEntity
  8
DEFPOINTS
 62
     0
100
AcDbPoint
 10
44.05179061425059
 20
191.9466954937666
 30
0.0
  0
POINT
  5
9326
330
8F66
100
AcDbEntity
  8
DEFPOINTS
 62
     0
100
AcDbPoint
 10
44.05179061425059
 20
183.9466954937666
 30
0.0
  0
POINT
  5
9327
330
8F66
100
AcDbEntity
  8
DEFPOINTS
 62
     0
100
AcDbPoint
 10
32.34757285632088
 20
183.9466954937666
 30
0.0
  0
ENDBLK
  5
8F71
330
8F66
100
AcDbEntity
  8
0
100
AcDbBlockEnd
  0
BLOCK
  5
8F7F
330
8F75
100
AcDbEntity
  8
0
100
AcDbBlockBegin
  2
*D4
 70
     1
 10
0.0
 20
0.0
 30
0.0
  3
*D4
  1

  0
LINE
  5
9328
330
8F75
100
AcDbEntity
  8
mark
370
    -2
100
AcDbLine
 10
54.88825240254971
 20
101.0060216402949
 30
0.0
 11
54.88825240254971
 21
109.1300353097297
 31
0.0
  0
LINE
  5
9329
330
8F75
100
AcDbEntity
  8
mark
370
    -2
100
AcDbLine
 10
130.8882524025497
 20
101.0060216402949
 30
0.0
 11
130.8882524025497
 21
109.1300353097297
 31
0.0
  0
LINE
  5
932A
330
8F75
100
AcDbEntity
  8
mark
370
    -2
100
AcDbLine
 10
57.88825240254971
 20
108.3300353097297
 30
0.0
 11
127.8882524025497
 21
108.3300353097297
 31
0.0
  0
INSERT
  5
932B
330
8F75
100
AcDbEntity
  8
mark
370
    -2
100
AcDbBlockReference
  2
_Open30
 10
54.88825240254971
 20
108.3300353097297
 30
0.0
 41
3.0
 42
3.0
 43
3.0
 50
180.0
  0
INSERT
  5
932C
330
8F75
100
AcDbEntity
  8
mark
370
    -2
100
AcDbBlockReference
  2
_Open30
 10
130.8882524025497
 20
108.3300353097297
 30
0.0
 41
3.0
 42
3.0
 43
3.0
  0
MTEXT
  5
932D
330
8F75
100
AcDbEntity
  8
mark
 62
     3
100
AcDbMText
 10
92.8882524025497
 20
110.3800353097297
 30
0.0
 40
2.5
 41
0.0
 71
     5
 72
     1
  1
\A1;%%c76
 73
     1
 44
1.0
  0
POINT
  5
932E
330
8F75
100
AcDbEntity
  8
DEFPOINTS
 62
     0
100
AcDbPoint
 10
54.88825240254971
 20
100.2060216402949
 30
0.0
  0
POINT
  5
932F
330
8F75
100
AcDbEntity
  8
DEFPOINTS
 62
     0
100
AcDbPoint
 10
130.8882524025497
 20
100.2060216402949
 30
0.0
  0
POINT
  5
9330
330
8F75
100
AcDbEntity
  8
DEFPOINTS
 62
     0
100
AcDbPoint
 10
130.8882524025497
 20
108.3300353097297
 30
0.0
  0
ENDBLK
  5
8F80
330
8F75
100
AcDbEntity
  8
0
100
AcDbBlockEnd
  0
BLOCK
  5
8F8C
330
8F82
100
AcDbEntity
  8
0
100
AcDbBlockBegin
  2
*D5
 70
     1
 10
0.0
 20
0.0
 30
0.0
  3
*D5
  1

  0
LINE
  5
9331
330
8F82
100
AcDbEntity
  8
mark
370
    -2
100
AcDbLine
 10
47.88825240254971
 20
101.0060216402949
 30
0.0
 11
47.88825240254971
 21
115.5869166120738
 31
0.0
  0
LINE
  5
9332
330
8F82
100
AcDbEntity
  8
mark
370
    -2
100
AcDbLine
 10
137.8882524025497
 20
101.0060216402949
 30
0.0
 11
137.8882524025497
 21
115.5869166120738
 31
0.0
  0
LINE
  5
9333
330
8F82
100
AcDbEntity
  8
mark
370
    -2
100
AcDbLine
 10
50.88825240254971
 20
114.7869166120738
 30
0.0
 11
134.8882524025498
 21
114.7869166120738
 31
0.0
  0
INSERT
  5
9334
330
8F82
100
AcDbEntity
  8
mark
370
    -2
100
AcDbBlockReference
  2
_Open30
 10
47.88825240254971
 20
114.7869166120738
 30
0.0
 41
3.0
 42
3.0
 43
3.0
 50
180.0
  0
INSERT
  5
9335
330
8F82
100
AcDbEntity
  8
mark
370
    -2
100
AcDbBlockReference
  2
_Open30
 10
137.8882524025497
 20
114.7869166120738
 30
0.0
 41
3.0
 42
3.0
 43
3.0
  0
MTEXT
  5
9336
330
8F82
100
AcDbEntity
  8
mark
 62
     3
100
AcDbMText
 10
92.88825240254974
 20
116.8369166120738
 30
0.0
 40
2.5
 41
0.0
 71
     5
 72
     1
  1
\A1;%%c90%%p0.5
 73
     1
 44
1.0
  0
POINT
  5
9337
330
8F82
100
AcDbEntity
  8
DEFPOINTS
 62
     0
100
AcDbPoint
 10
47.88825240254971
 20
100.2060216402949
 30
0.0
  0
POINT
  5
9338
330
8F82
100
AcDbEntity
  8
DEFPOINTS
 62
     0
100
AcDbPoint
 10
137.8882524025497
 20
100.2060216402949
 30
0.0
  0
POINT
  5
9339
330
8F82
100
AcDbEntity
  8
DEFPOINTS
 62
     0
100
AcDbPoint
 10
137.8882524025497
 20
114.7869166120738
 30
0.0
  0
ENDBLK
  5
8F8D
330
8F82
100
AcDbEntity
  8
0
100
AcDbBlockEnd
  0
BLOCK
  5
8F99
330
8F8F
100
AcDbEntity
  8
0
100
AcDbBlockBegin
  2
*D6
 70
     1
 10
0.0
 20
0.0
 30
0.0
  3
*D6
  1

  0
LINE
  5
933A
330
8F8F
100
AcDbEntity
  8
mark
370
    -2
100
AcDbLine
 10
43.88825240254971
 20
98.50602130312012
 30
0.0
 11
43.88825240254971
 21
121.9885175793727
 31
0.0
  0
LINE
  5
933B
330
8F8F
100
AcDbEntity
  8
mark
370
    -2
100
AcDbLine
 10
141.8882524025497
 20
98.50602130311971
 30
0.0
 11
141.8882524025497
 21
121.9885175793727
 31
0.0
  0
LINE
  5
933C
330
8F8F
100
AcDbEntity
  8
mark
370
    -2
100
AcDbLine
 10
46.88825240254971
 20
121.1885175793727
 30
0.0
 11
138.8882524025497
 21
121.1885175793727
 31
0.0
  0
INSERT
  5
933D
330
8F8F
100
AcDbEntity
  8
mark
370
    -2
100
AcDbBlockReference
  2
_Open30
 10
43.88825240254971
 20
121.1885175793727
 30
0.0
 41
3.0
 42
3.0
 43
3.0
 50
180.0
  0
INSERT
  5
933E
330
8F8F
100
AcDbEntity
  8
mark
370
    -2
100
AcDbBlockReference
  2
_Open30
 10
141.8882524025497
 20
121.1885175793727
 30
0.0
 41
3.0
 42
3.0
 43
3.0
  0
MTEXT
  5
933F
330
8F8F
100
AcDbEntity
  8
mark
 62
     3
100
AcDbMText
 10
92.8882524025497
 20
123.2385175793727
 30
0.0
 40
2.5
 41
0.0
 71
     5
 72
     1
  1
\A1;%%C98
 73
     1
 44
1.0
  0
POINT
  5
9340
330
8F8F
100
AcDbEntity
  8
DEFPOINTS
 62
     0
100
AcDbPoint
 10
43.88825240254971
 20
97.70602130312012
 30
0.0
  0
POINT
  5
9341
330
8F8F
100
AcDbEntity
  8
DEFPOINTS
 62
     0
100
AcDbPoint
 10
141.8882524025497
 20
97.70602130311971
 30
0.0
  0
POINT
  5
9342
330
8F8F
100
AcDbEntity
  8
DEFPOINTS
 62
     0
100
AcDbPoint
 10
141.8882524025497
 20
121.1885175793727
 30
0.0
  0
ENDBLK
  5
8F9A
330
8F8F
100
AcDbEntity
  8
0
100
AcDbBlockEnd
  0
BLOCK
  5
8FAD
330
8FA1
100
AcDbEntity
  8
0
100
AcDbBlockBegin
  2
*D7
 70
     1
 10
0.0
 20
0.0
 30
0.0
  3
*D7
  1

  0
LINE
  5
9343
330
8FA1
100
AcDbEntity
  8
mark
370
    -2
100
AcDbLine
 10
47.55179061425059
 20
183.1466954937665
 30
0.0
 11
47.55179061425059
 21
133.0088616764182
 31
0.0
  0
LINE
  5
9344
330
8FA1
100
AcDbEntity
  8
mark
370
    -2
100
AcDbLine
 10
44.05179061425059
 20
183.1466954937665
 30
0.0
 11
44.05179061425059
 21
133.0088616764182
 31
0.0
  0
LINE
  5
9345
330
8FA1
100
AcDbEntity
  8
mark
370
    -2
100
AcDbLine
 10
50.55179061425059
 20
133.8088616764182
 30
0.0
 11
53.55179061425059
 21
133.8088616764182
 31
0.0
  0
LINE
  5
9346
330
8FA1
100
AcDbEntity
  8
mark
370
    -2
100
AcDbLine
 10
41.05179061425059
 20
133.8088616764182
 30
0.0
 11
31.45179061425059
 21
133.8088616764182
 31
0.0
  0
LINE
  5
9347
330
8FA1
100
AcDbEntity
  8
mark
370
    -2
100
AcDbLine
 10
47.55179061425059
 20
133.8088616764182
 30
0.0
 11
44.05179061425059
 21
133.8088616764182
 31
0.0
  0
INSERT
  5
9348
330
8FA1
100
AcDbEntity
  8
mark
370
    -2
100
AcDbBlockReference
  2
_Open30
 10
47.55179061425059
 20
133.8088616764182
 30
0.0
 41
3.0
 42
3.0
 43
3.0
 50
180.0
  0
INSERT
  5
9349
330
8FA1
100
AcDbEntity
  8
mark
370
    -2
100
AcDbBlockReference
  2
_Open30
 10
44.05179061425059
 20
133.8088616764182
 30
0.0
 41
3.0
 42
3.0
 43
3.0
  0
MTEXT
  5
934A
330
8FA1
100
AcDbEntity
  8
mark
 62
     3
100
AcDbMText
 10
34.75179061425059
 20
135.8588616764182
 30
0.0
 40
2.5
 41
0.0
 71
     5
 72
     1
  1
\A1;3.5
 73
     1
 44
1.0
  0
POINT
  5
934B
330
8FA1
100
AcDbEntity
  8
DEFPOINTS
 62
     0
100
AcDbPoint
 10
47.55179061425059
 20
183.9466954937666
 30
0.0
  0
POINT
  5
934C
330
8FA1
100
AcDbEntity
  8
DEFPOINTS
 62
     0
100
AcDbPoint
 10
44.05179061425059
 20
183.9466954937666
 30
0.0
  0
POINT
  5
934D
330
8FA1
100
AcDbEntity
  8
DEFPOINTS
 62
     0
100
AcDbPoint
 10
44.05179061425059
 20
133.8088616764182
 30
0.0
  0
ENDBLK
  5
8FAE
330
8FA1
100
AcDbEntity
  8
0
100
AcDbBlockEnd
  0
BLOCK
  5
8FBD
330
8FB1
100
AcDbEntity
  8
0
100
AcDbBlockBegin
  2
*D8
 70
     1
 10
0.0
 20
0.0
 30
0.0
  3
*D8
  1

  0
LINE
  5
934E
330
8FB1
100
AcDbEntity
  8
mark
370
    -2
100
AcDbLine
 10
45.08825240254971
 20
99.70602164029493
 30
0.0
 11
31.54757285632088
 21
99.70602164029493
 31
0.0
  0
LINE
  5
934F
330
8FB1
100
AcDbEntity
  8
mark
370
    -2
100
AcDbLine
 10
47.08825240254971
 20
100.2060216402949
 30
0.0
 11
31.54757285632088
 21
100.2060216402949
 31
0.0
  0
LINE
  5
9350
330
8FB1
100
AcDbEntity
  8
mark
370
    -2
100
AcDbLine
 10
32.34757285632088
 20
96.70602164029492
 30
0.0
 11
32.34757285632088
 21
93.70602164029492
 31
0.0
  0
LINE
  5
9351
330
8FB1
100
AcDbEntity
  8
mark
370
    -2
100
AcDbLine
 10
32.34757285632088
 20
103.2060216402949
 30
0.0
 11
32.34757285632089
 21
112.3893549736282
 31
0.0
  0
LINE
  5
9352
330
8FB1
100
AcDbEntity
  8
mark
370
    -2
100
AcDbLine
 10
32.34757285632088
 20
99.70602164029493
 30
0.0
 11
32.34757285632088
 21
100.2060216402949
 31
0.0
  0
INSERT
  5
9353
330
8FB1
100
AcDbEntity
  8
mark
370
    -2
100
AcDbBlockReference
  2
_Open30
 10
32.34757285632088
 20
99.70602164029493
 30
0.0
 41
3.0
 42
3.0
 43
3.0
 50
90.0
  0
INSERT
  5
9354
330
8FB1
100
AcDbEntity
  8
mark
370
    -2
100
AcDbBlockReference
  2
_Open30
 10
32.34757285632088
 20
100.2060216402949
 30
0.0
 41
3.0
 42
3.0
 43
3.0
 50
270.0
  0
MTEXT
  5
9355
330
8FB1
100
AcDbEntity
  8
mark
 62
     3
100
AcDbMText
 10
30.29757285632087
 20
109.2976883069616
 30
0.0
 40
2.5
 41
0.0
 71
     5
 72
     1
  1
\A1;0.5
 11
0.0000000000000001
 21
1.0
 31
0.0
 73
     1
 44
1.0
  0
POINT
  5
9356
330
8FB1
100
AcDbEntity
  8
DEFPOINTS
 62
     0
100
AcDbPoint
 10
45.88825240254971
 20
99.70602164029493
 30
0.0
  0
POINT
  5
9357
330
8FB1
100
AcDbEntity
  8
DEFPOINTS
 62
     0
100
AcDbPoint
 10
47.88825240254971
 20
100.2060216402949
 30
0.0
  0
POINT
  5
9358
330
8FB1
100
AcDbEntity
  8
DEFPOINTS
 62
     0
100
AcDbPoint
 10
32.34757285632088
 20
100.2060216402949
 30
0.0
  0
ENDBLK
  5
8FBE
330
8FB1
100
AcDbEntity
  8
0
100
AcDbBlockEnd
  0
BLOCK
  5
8FD3
330
8FCC
100
AcDbEntity
  8
0
100
AcDbBlockBegin
  2
*D9
 70
     1
 10
0.0
 20
0.0
 30
0.0
  3
*D9
  1

  0
LINE
  5
9359
330
8FCC
100
AcDbEntity
  8
mark
370
    -2
100
AcDbLine
 10
32.61821514228245
 20
70.93598438002712
 30
0.0
 11
42.35271849661704
 21
80.67048773436212
 31
0.0
  0
MTEXT
  5
935A
330
8FCC
100
AcDbEntity
  8
mark
 62
     3
100
AcDbMText
 10
34.9752377462375
 20
76.19214478684718
 30
0.0
 40
2.5
 41
0.0
 71
     5
 72
     1
  1
\A1;2-R2
 11
0.7071067811865328
 21
0.7071067811865622
 31
0.0
 73
     1
 44
1.0
  0
LINE
  5
935B
330
8FCC
100
AcDbEntity
  8
mark
370
    -2
100
AcDbLine
 10
45.88825240254968
 20
84.20602164029491
 30
0.0
 11
44.47403884017664
 21
82.79180807792181
 31
0.0
  0
INSERT
  5
935C
330
8FCC
100
AcDbEntity
  8
mark
370
    -2
100
AcDbBlockReference
  2
_Open30
 10
44.47403884017664
 20
82.79180807792181
 30
0.0
 41
3.0
 42
3.0
 43
3.0
 50
45.00000000000119
  0
POINT
  5
935D
330
8FCC
100
AcDbEntity
  8
DEFPOINTS
 62
     0
100
AcDbPoint
 10
44.47403884017664
 20
82.79180807792181
 30
0.0
  0
POINT
  5
935E
330
8FCC
100
AcDbEntity
  8
DEFPOINTS
 62
     0
100
AcDbPoint
 10
45.88825240254968
 20
84.20602164029491
 30
0.0
  0
ENDBLK
  5
8FD4
330
8FCC
100
AcDbEntity
  8
0
100
AcDbBlockEnd
  0
BLOCK
  5
8FE2
330
8FD8
100
AcDbEntity
  8
0
100
AcDbBlockBegin
  2
*D10
 70
     1
 10
0.0
 20
0.0
 30
0.0
  3
*D10
  1

  0
LINE
  5
935F
330
8FD8
100
AcDbEntity
  8
mark
370
    -2
100
AcDbLine
 10
55.38825240254971
 20
82.32352164029494
 30
0.0
 11
55.38825240254971
 21
69.37374790803342
 31
0.0
  0
LINE
  5
9360
330
8FD8
100
AcDbEntity
  8
mark
370
    -2
100
AcDbLine
 10
130.3882524025497
 20
82.32352164029494
 30
0.0
 11
130.3882524025497
 21
69.37374790803342
 31
0.0
  0
LINE
  5
9361
330
8FD8
100
AcDbEntity
  8
mark
370
    -2
100
AcDbLine
 10
58.38825240254971
 20
70.17374790803342
 30
0.0
 11
127.3882524025497
 21
70.17374790803342
 31
0.0
  0
INSERT
  5
9362
330
8FD8
100
AcDbEntity
  8
mark
370
    -2
100
AcDbBlockReference
  2
_Open30
 10
55.38825240254971
 20
70.17374790803342
 30
0.0
 41
3.0
 42
3.0
 43
3.0
 50
180.0
  0
INSERT
  5
9363
330
8FD8
100
AcDbEntity
  8
mark
370
    -2
100
AcDbBlockReference
  2
_Open30
 10
130.3882524025497
 20
70.17374790803342
 30
0.0
 41
3.0
 42
3.0
 43
3.0
  0
MTEXT
  5
9364
330
8FD8
100
AcDbEntity
  8
mark
 62
     3
100
AcDbMText
 10
92.8882524025497
 20
72.22374790803342
 30
0.0
 40
2.5
 41
0.0
 71
     5
 72
     1
  1
\A1;M75X2.0P
 73
     1
 44
1.0
  0
POINT
  5
9365
330
8FD8
100
AcDbEntity
  8
DEFPOINTS
 62
     0
100
AcDbPoint
 10
55.38825240254971
 20
83.12352164029494
 30
0.0
  0
POINT
  5
9366
330
8FD8
100
AcDbEntity
  8
DEFPOINTS
 62
     0
100
AcDbPoint
 10
130.3882524025497
 20
83.12352164029494
 30
0.0
  0
POINT
  5
9367
330
8FD8
100
AcDbEntity
  8
DEFPOINTS
 62
     0
100
AcDbPoint
 10
130.3882524025497
 20
70.17374790803342
 30
0.0
  0
ENDBLK
  5
8FE3
330
8FD8
100
AcDbEntity
  8
0
100
AcDbBlockEnd
  0
BLOCK
  5
8FF2
330
8FE8
100
AcDbEntity
  8
0
100
AcDbBlockBegin
  2
*D11
 70
     1
 10
0.0
 20
0.0
 30
0.0
  3
*D11
  1

  0
LINE
  5
9368
330
8FE8
100
AcDbEntity
  8
mark
370
    -2
100
AcDbLine
 10
138.6882524025498
 20
100.2060216402949
 30
0.0
 11
155.6048384147868
 21
100.2060216402949
 31
0.0
  0
LINE
  5
9369
330
8FE8
100
AcDbEntity
  8
mark
370
    -2
100
AcDbLine
 10
144.6882524025497
 20
91.20602164029492
 30
0.0
 11
155.6048384147868
 21
91.20602164029492
 31
0.0
  0
LINE
  5
936A
330
8FE8
100
AcDbEntity
  8
mark
370
    -2
100
AcDbLine
 10
154.8048384147868
 20
97.20602164029493
 30
0.0
 11
154.8048384147868
 21
94.20602164029492
 31
0.0
  0
INSERT
  5
936B
330
8FE8
100
AcDbEntity
  8
mark
370
    -2
100
AcDbBlockReference
  2
_Open30
 10
154.8048384147868
 20
100.2060216402949
 30
0.0
 41
3.0
 42
3.0
 43
3.0
 50
90.0
  0
INSERT
  5
936C
330
8FE8
100
AcDbEntity
  8
mark
370
    -2
100
AcDbBlockReference
  2
_Open30
 10
154.8048384147868
 20
91.20602164029492
 30
0.0
 41
3.0
 42
3.0
 43
3.0
 50
270.0
  0
MTEXT
  5
936D
330
8FE8
100
AcDbEntity
  8
mark
 62
     3
100
AcDbMText
 10
152.7548384147867
 20
95.70602164029493
 30
0.0
 40
2.5
 41
0.0
 71
     5
 72
     1
  1
\A1;9
 11
0.0000000000000001
 21
1.0
 31
0.0
 73
     1
 44
1.0
  0
POINT
  5
936E
330
8FE8
100
AcDbEntity
  8
DEFPOINTS
 62
     0
100
AcDbPoint
 10
137.8882524025497
 20
100.2060216402949
 30
0.0
  0
POINT
  5
936F
330
8FE8
100
AcDbEntity
  8
DEFPOINTS
 62
     0
100
AcDbPoint
 10
143.8882524025497
 20
91.20602164029492
 30
0.0
  0
POINT
  5
9370
330
8FE8
100
AcDbEntity
  8
DEFPOINTS
 62
     0
100
AcDbPoint
 10
154.8048384147868
 20
91.20602164029492
 30
0.0
  0
ENDBLK
  5
8FF3
330
8FE8
100
AcDbEntity
  8
0
100
AcDbBlockEnd
  0
BLOCK
  5
8FFF
330
8FF5
100
AcDbEntity
  8
0
100
AcDbBlockBegin
  2
*D12
 70
     1
 10
0.0
 20
0.0
 30
0.0
  3
*D12
  1

  0
LINE
  5
9371
330
8FF5
100
AcDbEntity
  8
mark
370
    -2
100
AcDbLine
 10
140.6882524025497
 20
82.20602164029491
 30
0.0
 11
161.9988775214253
 21
82.20602164029491
 31
0.0
  0
LINE
  5
9372
330
8FF5
100
AcDbEntity
  8
mark
370
    -2
100
AcDbLine
 10
138.6882524025498
 20
100.2060216402949
 30
0.0
 11
161.9988775214253
 21
100.2060216402949
 31
0.0
  0
LINE
  5
9373
330
8FF5
100
AcDbEntity
  8
mark
370
    -2
100
AcDbLine
 10
161.1988775214253
 20
85.2060216402949
 30
0.0
 11
161.1988775214253
 21
97.20602164029491
 31
0.0
  0
INSERT
  5
9374
330
8FF5
100
AcDbEntity
  8
mark
370
    -2
100
AcDbBlockReference
  2
_Open30
 10
161.1988775214253
 20
82.20602164029491
 30
0.0
 41
3.0
 42
3.0
 43
3.0
 50
270.0
  0
INSERT
  5
9375
330
8FF5
100
AcDbEntity
  8
mark
370
    -2
100
AcDbBlockReference
  2
_Open30
 10
161.1988775214253
 20
100.2060216402949
 30
0.0
 41
3.0
 42
3.0
 43
3.0
 50
90.0
  0
MTEXT
  5
9376
330
8FF5
100
AcDbEntity
  8
mark
 62
     3
100
AcDbMText
 10
159.1488775214252
 20
91.20602164029493
 30
0.0
 40
2.5
 41
0.0
 71
     5
 72
     1
  1
\A1;18%%P0.2
 11
0.0000000000000001
 21
1.0
 31
0.0
 73
     1
 44
1.0
  0
POINT
  5
9377
330
8FF5
100
AcDbEntity
  8
DEFPOINTS
 62
     0
100
AcDbPoint
 10
139.8882524025496
 20
82.20602164029491
 30
0.0
  0
POINT
  5
9378
330
8FF5
100
AcDbEntity
  8
DEFPOINTS
 62
     0
100
AcDbPoint
 10
137.8882524025497
 20
100.2060216402949
 30
0.0
  0
POINT
  5
9379
330
8FF5
100
AcDbEntity
  8
DEFPOINTS
 62
     0
100
AcDbPoint
 10
161.1988775214253
 20
100.2060216402949
 30
0.0
  0
ENDBLK
  5
9000
330
8FF5
100
AcDbEntity
  8
0
100
AcDbBlockEnd
  0
BLOCK
  5
9200
330
91F6
100
AcDbEntity
  8
0
100
AcDbBlockBegin
  2
*D13
 70
     1
 10
0.0
 20
0.0
 30
0.0
  3
*D13
  1

  0
LINE
  5
937A
330
91F6
100
AcDbEntity
  8
mark
370
    -2
100
AcDbLine
 10
75.25476407343387
 20
103.2060216402949
 30
0.0
 11
75.25476407343387
 21
106.2060216402949
 31
0.0
  0
LINE
  5
937B
330
91F6
100
AcDbEntity
  8
mark
370
    -2
100
AcDbLine
 10
75.25476407343386
 20
95.20602164029492
 30
0.0
 11
75.25476407343386
 21
88.93935497362825
 31
0.0
  0
LINE
  5
937C
330
91F6
100
AcDbEntity
  8
mark
370
    -2
100
AcDbLine
 10
75.25476407343387
 20
100.2060216402949
 30
0.0
 11
75.25476407343387
 21
98.20602164029493
 31
0.0
  0
INSERT
  5
937D
330
91F6
100
AcDbEntity
  8
mark
370
    -2
100
AcDbBlockReference
  2
_Open30
 10
75.25476407343387
 20
100.2060216402949
 30
0.0
 41
3.0
 42
3.0
 43
3.0
 50
270.0
  0
INSERT
  5
937E
330
91F6
100
AcDbEntity
  8
mark
370
    -2
100
AcDbBlockReference
  2
_Open30
 10
75.25476407343387
 20
98.20602164029493
 30
0.0
 41
3.0
 42
3.0
 43
3.0
 50
90.0
  0
MTEXT
  5
937F
330
91F6
100
AcDbEntity
  8
mark
 62
     3
100
AcDbMText
 10
73.20476407343385
 20
90.57268830696159
 30
0.0
 40
2.5
 41
0.0
 71
     5
 72
     1
  1
\A1;2
 11
0.0000000000000001
 21
1.0
 31
0.0
 73
     1
 44
1.0
  0
POINT
  5
9380
330
91F6
100
AcDbEntity
  8
DEFPOINTS
 62
     0
100
AcDbPoint
 10
75.2547640734339
 20
100.2060216402949
 30
0.0
  0
POINT
  5
9381
330
91F6
100
AcDbEntity
  8
DEFPOINTS
 62
     0
100
AcDbPoint
 10
75.25476407343387
 20
98.20602164029493
 30
0.0
  0
POINT
  5
9382
330
91F6
100
AcDbEntity
  8
DEFPOINTS
 62
     0
100
AcDbPoint
 10
75.25476407343387
 20
98.20602164029493
 30
0.0
  0
ENDBLK
  5
9201
330
91F6
100
AcDbEntity
  8
0
100
AcDbBlockEnd
  0
ENDSEC
  0
SECTION
  2
ENTITIES
  0
MTEXT
  5
C0
330
18
100
AcDbEntity
  8
0
100
AcDbMText
 10
41.26970765600413
 20
233.6950877649332
 30
0.0
 40
2.5
 41
0.0
 71
     1
 72
     5
  1

  7
ISOCP3
 73
     1
 44
1.0
  0
LWPOLYLINE
  5
8443
330
18
100
AcDbEntity
  8
frame
100
AcDbPolyline
 90
        4
 70
     1
 43
0.0
 10
190.0
 20
280.0
 10
0.0
 20
280.0
 10
0.0
 20
0.0
 10
190.0
 20
0.0
  0
MTEXT
  5
8444
330
18
100
AcDbEntity
  8
0
100
AcDbMText
 10
17.09950368689175
 20
19.07605901616614
 30
0.0
 40
4.5
 41
0.0
 71
     1
 72
     5
  1
{\Ftxt,bigfont|c128;林彦旭}
  7
JL
 73
     1
 44
1.0
1001
ACAD
1000
ACAD_MTEXT_DEFINED_HEIGHT_BEGIN
1070
    46
1040
0.0
1000
ACAD_MTEXT_DEFINED_HEIGHT_END
  0
MTEXT
  5
8445
330
18
100
AcDbEntity
  8
0
100
AcDbMText
 10
77.95294729228851
 20
28.93578979870677
 30
0.0
 40
4.5
 41
0.0
 71
     1
 72
     5
  1
\Ftxt.shx,bigfont.shx|c128;1 : 1
  7
JL
 73
     1
 44
1.0
  0
MTEXT
  5
8446
330
18
100
AcDbEntity
  8
0
 48
2.0
370
    25
100
AcDbMText
 10
140.2194500465656
 20
3.490021654633892
 30
0.0
 40
4.5
 41
0.0
 71
     5
 72
     1
  1
{\Ftxt,bigfont|c128;N L 4 0 0 4 0}
 73
     1
 44
1.0
1001
ACAD
1000
ACAD_MTEXT_DEFINED_HEIGHT_BEGIN
1070
    46
1040
0.0
1000
ACAD_MTEXT_DEFINED_HEIGHT_END
  0
MTEXT
  5
8447
330
18
100
AcDbEntity
  8
0
 48
2.0
100
AcDbMText
 10
170.9328999644331
 20
21.76437127823692
 30
0.0
 40
4.318181818181822
 41
0.0
 71
     5
 72
     1
  1
\P{\Ftxt,bigfont|c128;MR75X2.0P}
 73
     1
 44
1.0
1001
ACAD
1000
ACAD_MTEXT_DEFINED_HEIGHT_BEGIN
1070
    46
1040
0.0
1000
ACAD_MTEXT_DEFINED_HEIGHT_END
  0
MTEXT
  5
8448
330
18
100
AcDbEntity
  8
0
100
AcDbMText
 10
15.3760677136774
 20
28.37740359834709
 30
0.0
 40
4.5
 41
0.0
 71
     1
 72
     5
  1
{\Ftxt,bigfont|c128;06.06.14}
  7
JL
 73
     1
 44
1.0
1001
ACAD
1000
ACAD_MTEXT_DEFINED_HEIGHT_BEGIN
1070
    46
1040
0.0
1000
ACAD_MTEXT_DEFINED_HEIGHT_END
  0
LINE
  5
8449
330
18
100
AcDbEntity
  8
0
 62
     7
 48
5.0
100
AcDbLine
 39
3.838383838383842
 10
47.92942413992534
 20
27.65712907016086
 30
0.0
 11
53.04580144287854
 21
28.93622339589922
 31
0.0
  0
MTEXT
  5
844A
330
18
100
AcDbEntity
  8
0
100
AcDbMText
 10
14.91235548326415
 20
9.242195050049303
 30
0.0
 40
6.0
 41
0.0
 71
     1
 72
     5
  1
\Ftxt.shx,bigfont.shx|c128;日機株式会社
  7
LKK
 73
     1
 44
1.0
  0
LINE
  5
844B
330
18
100
AcDbEntity
  8
frame
100
AcDbLine
 10
0.0
 20
12.0
 30
0.0
 11
190.0
 21
12.00000000000005
 31
0.0
  0
LINE
  5
844C
330
18
100
AcDbEntity
  8
frame
100
AcDbLine
 10
0.0
 20
22.0
 30
0.0
 11
92.12121212121223
 21
22.0
 31
0.0
  0
LINE
  5
844D
330
18
100
AcDbEntity
  8
frame
100
AcDbLine
 10
0.0
 20
32.0
 30
0.0
 11
190.0
 21
32.0
 31
0.0
  0
LINE
  5
844E
330
18
100
AcDbEntity
  8
frame
100
AcDbLine
 10
12.19077332493799
 20
32.0
 30
0.0
 11
12.19077332493799
 21
12.0
 31
0.0
  0
LINE
  5
844F
330
18
100
AcDbEntity
  8
frame
100
AcDbLine
 10
30.70707070707067
 20
32.0
 30
0.0
 11
30.70707070707078
 21
12.0
 31
0.0
  0
MTEXT
  5
8450
330
18
100
AcDbEntity
  8
0
100
AcDbMText
 10
2.830274784221955
 20
29.08190089582831
 30
0.0
 40
4.5
 41
0.0
 71
     1
 72
     5
  1
\Ftxt.shx,bigfont.shx|c128;日 付
  7
JL
 73
     1
 44
1.0
  0
MTEXT
  5
8451
330
18
100
AcDbEntity
  8
0
100
AcDbMText
 10
2.97063307743889
 20
19.52163842926637
 30
0.0
 40
4.5
 41
0.0
 71
     1
 72
     5
  1
\Ftxt.shx,bigfont.shx|c128;製 図
  7
JL
 73
     1
 44
1.0
  0
LINE
  5
8452
330
18
100
AcDbEntity
  8
0
 62
     7
370
    25
100
AcDbLine
 10
53.04580144287854
 20
23.81984609294597
 30
0.0
 11
53.04580144287854
 21
28.93622339589922
 31
0.0
  0
MTEXT
  5
8453
330
18
100
AcDbEntity
  8
0
100
AcDbMText
 10
64.00748852490835
 20
29.12242703792379
 30
0.0
 40
4.5
 41
0.0
 71
     1
 72
     5
  1
\Ftxt.shx,bigfont.shx|c128;尺 度
  7
JL
 73
     1
 44
1.0
  0
LINE
  5
8454
330
18
100
AcDbEntity
  8
frame
100
AcDbLine
 10
61.41414141414145
 20
32.0
 30
0.0
 11
61.41414141414145
 21
12.0
 31
0.0
  0
LINE
  5
8455
330
18
100
AcDbEntity
  8
0
 62
     7
370
    25
100
AcDbLine
 10
39.6153110226262
 20
23.18889018332635
 30
0.0
 11
39.6153110226262
 21
29.36457992429672
 31
0.0
  0
CIRCLE
  5
8456
330
18
100
AcDbEntity
  8
0
 62
     7
100
AcDbCircle
 10
39.6153110226262
 20
26.37803474442251
 30
0.0
 40
2.558188651476678
  0
LINE
  5
8457
330
18
100
AcDbEntity
  8
0
 62
     7
370
    25
100
AcDbLine
 10
47.19321986919976
 20
26.37803474442262
 30
0.0
 11
53.50512581624241
 21
26.37803474442262
 31
0.0
  0
LINE
  5
8458
330
18
100
AcDbEntity
  8
0
 62
     7
100
AcDbLine
 10
47.92942413992534
 20
25.09894041868427
 30
0.0
 11
53.04580144287854
 21
23.81984609294597
 31
0.0
  0
LINE
  5
8459
330
18
100
AcDbEntity
  8
frame
100
AcDbLine
 10
42.742241959951
 20
22.0
 30
0.0
 11
42.742241959951
 21
12.0
 31
0.0
  0
LINE
  5
845A
330
18
100
AcDbEntity
  8
0
 62
     7
370
    25
100
AcDbLine
 10
36.41832228486612
 20
26.37803474442251
 30
0.0
 11
43.00325267619268
 21
26.37803474442262
 31
0.0
  0
CIRCLE
  5
845B
330
18
100
AcDbEntity
  8
0
 62
     7
100
AcDbCircle
 10
39.6153110226262
 20
26.37803474442251
 30
0.0
 40
1.279094325738339
  0
MTEXT
  5
845C
330
18
100
AcDbEntity
  8
0
100
AcDbMText
 10
33.70184032462407
 20
19.41013815785266
 30
0.0
 40
4.5
 41
0.0
 71
     1
 72
     5
  1
\Ftxt.shx,bigfont.shx|c128;検 図
  7
JL
 73
     1
 44
1.0
  0
LINE
  5
845D
330
18
100
AcDbEntity
  8
0
 62
     7
370
    25
100
AcDbLine
 10
47.92942413992534
 20
25.09894041868427
 30
0.0
 11
47.92942413992534
 21
27.65712907016086
 31
0.0
  0
MTEXT
  5
845E
330
18
100
AcDbEntity
  8
0
100
AcDbMText
 10
64.28820249919829
 20
19.32058534748881
 30
0.0
 40
4.5
 41
0.0
 71
     1
 72
     5
  1
\Ftxt.shx,bigfont.shx|c128;承 認
  7
JL
 73
     1
 44
1.0
  0
MTEXT
  5
845F
330
18
100
AcDbEntity
  8
0
100
AcDbMText
 10
93.71128715606699
 20
10.7026821961914
 30
0.0
 40
4.5
 41
0.0
 71
     1
 72
     5
  1
\Ftxt.shx,bigfont.shx|c128;図  面  番  号
  7
JL
 73
     1
 44
1.0
  0
MTEXT
  5
8460
330
18
100
AcDbEntity
  8
0
 48
2.0
100
AcDbMText
 10
116.9038190021384
 20
21.8757473149584
 30
0.0
 40
4.5
 41
0.0
 71
     5
 72
     1
  1
\P\Ftxt.shx,bigfont.shx|c128;    精密ロックナット
 73
     1
 44
1.0
  0
MTEXT
  5
8461
330
18
100
AcDbEntity
  8
0
100
AcDbMText
 10
94.8083613031232
 20
29.03862457973275
 30
0.0
 40
4.5
 41
0.0
 71
     1
 72
     5
  1
\Ftxt.shx,bigfont.shx|c128;品  名
  7
JL
 73
     1
 44
1.0
  0
LINE
  5
8462
330
18
100
AcDbEntity
  8
frame
100
AcDbLine
 10
92.12121212121223
 20
32.0
 30
0.0
 11
92.12121212121223
 21
0.1833227579584786
 31
0.0
  0
LINE
  5
8463
330
18
100
AcDbEntity
  8
frame
100
AcDbLine
 10
73.41414141414145
 20
32.0
 30
0.0
 11
73.41414141414145
 21
12.0
 31
0.0
  0
LINE
  5
8464
330
18
100
AcDbEntity
  8
frame
100
AcDbLine
 10
147.0327092740656
 20
32.0
 30
0.0
 11
147.0327092740657
 21
12.0
 31
0.0
  0
MTEXT
  5
8465
330
18
100
AcDbEntity
  8
0
100
AcDbMText
 10
150.895959446773
 20
29.04517782830391
 30
0.0
 40
4.5
 41
0.0
 71
     1
 72
     5
  1
\Ftxt.shx,bigfont.shx|c128;型  番
  7
JL
 73
     1
 44
1.0
  0
MTEXT
  5
8466
330
18
100
AcDbEntity
  8
0
100
AcDbMText
 10
165.8059614810325
 20
10.78298174971564
 30
0.0
 40
4.5
 41
0.0
 71
     1
 72
     5
  1
\Ftxt.shx,bigfont.shx|c128;変更
  7
JL
 73
     1
 44
1.0
  0
LINE
  5
8467
330
18
100
AcDbEntity
  8
frame
100
AcDbLine
 10
164.0909090909092
 20
12.00000000000005
 30
0.0
 11
164.0909090909093
 21
0.0
 31
0.0
  0
LINE
  5
8468
330
18
100
AcDbEntity
  8
frame
100
AcDbLine
 10
124.6157900786393
 20
43.13491348924492
 30
0.0
 11
184.6157900786393
 21
43.13491348924481
 31
0.0
  0
LINE
  5
8469
330
18
100
AcDbEntity
  8
frame
100
AcDbLine
 10
124.6157900786393
 20
50.33491348924497
 30
0.0
 11
184.6157900786393
 21
50.33491348924497
 31
0.0
  0
LINE
  5
846A
330
18
100
AcDbEntity
  8
frame
100
AcDbLine
 10
124.6157900786393
 20
57.5349134892449
 30
0.0
 11
184.6157900786393
 21
57.53491348924478
 31
0.0
  0
LINE
  5
846B
330
18
100
AcDbEntity
  8
frame
100
AcDbLine
 10
124.6157900786393
 20
64.73491348924494
 30
0.0
 11
184.6157900786393
 21
64.73491348924483
 31
0.0
  0
LINE
  5
846C
330
18
100
AcDbEntity
  8
frame
100
AcDbLine
 10
124.6157900786393
 20
35.93491348924488
 30
0.0
 11
184.6157900786393
 21
35.93491348924488
 31
0.0
  0
MTEXT
  5
846D
330
18
100
AcDbEntity
  8
0
 62
     7
 48
2.0
100
AcDbMText
 10
154.5011900445106
 20
65.52808189982909
 30
0.0
 40
4.8
 41
0.0
 71
     5
 72
     1
  1
\P\Ftxt.shx,bigfont.shx|c128;諸　　　　元
 73
     1
 44
1.0
  0
LINE
  5
846E
330
18
100
AcDbEntity
  8
frame
100
AcDbLine
 10
124.6157900786393
 20
64.73491348924483
 30
0.0
 11
124.6157900786393
 21
35.93491348924488
 31
0.0
  0
MTEXT
  5
846F
330
18
100
AcDbEntity
  8
0
100
AcDbMText
 10
128.1382258923195
 20
56.00840432212407
 30
0.0
 40
4.4
 41
163.916286842249
 71
     1
 72
     5
  1
\Ftxt.shx,bigfont.shx|c128;熱　処　理
  7
JL
 73
     1
 44
1.0
  0
LINE
  5
8470
330
18
100
AcDbEntity
  8
frame
100
AcDbLine
 10
148.6157900786393
 20
57.53491348924478
 30
0.0
 11
148.6157900786393
 21
35.93491348924488
 31
0.0
  0
MTEXT
  5
8471
330
18
100
AcDbEntity
  8
0
100
AcDbMText
 10
127.8579515249403
 20
49.00617587486397
 30
0.0
 40
4.4
 41
163.6058628849672
 71
     1
 72
     5
  1
\Ftxt.shx,bigfont.shx|c128;表 面 処 理
  7
JL
 73
     1
 44
1.0
  0
MTEXT
  5
8472
330
18
100
AcDbEntity
  8
0
100
AcDbMText
 10
128.1480173733753
 20
41.71770302125605
 30
0.0
 40
4.4
 41
166.1718
 71
     1
 72
     5
  1
\Ftxt.shx,bigfont.shx|c128;等     　級
  7
JL
 73
     1
 44
1.0
  0
LINE
  5
8473
330
18
100
AcDbEntity
  8
frame
100
AcDbLine
 10
184.6157900786393
 20
64.73491348924483
 30
0.0
 11
184.6157900786393
 21
35.93491348924499
 31
0.0
  0
MTEXT
  5
8474
330
18
100
AcDbEntity
  8
0
100
AcDbMText
 10
153.3627933880818
 20
55.83344641471445
 30
0.0
 40
4.4
 41
291.8960056857887
 71
     1
 72
     5
  1
\Ftxt.shx,bigfont.shx|c128;調質　HRC30%%d%%p２%%d
  7
JL
 73
     1
 44
1.0
  0
MTEXT
  5
8475
330
18
100
AcDbEntity
  8
0
100
AcDbMText
 10
153.6234323895182
 20
41.7183135927072
 30
0.0
 40
4.4
 41
290.783364796891
 71
     1
 72
     5
  1
\Ftxt.shx,bigfont.shx|c128;ＩＳＯ - ４Ｈ
  7
JL
 73
     1
 44
1.0
  0
MTEXT
  5
8476
330
18
100
AcDbEntity
  8
0
100
AcDbMText
 10
153.7978935876485
 20
48.65328293790913
 30
0.0
 40
4.4
 41
291.4548
 71
     1
 72
     5
  1
\Ftxt.shx,bigfont.shx|c128;黒  　    染
  7
JL
 73
     1
 44
1.0
  0
MTEXT
  5
8477
330
18
100
AcDbEntity
  8
0
100
AcDbMText
 10
57.63639061334425
 20
260.9000583279474
 30
0.0
 40
5.0
 41
0.0
 71
     1
 72
     5
  1
{\Ftxt,bigfont|c128;M8X1.25P-8L}
  7
JL
 73
     1
 44
1.0
1001
ACAD
1000
ACAD_MTEXT_DEFINED_HEIGHT_BEGIN
1070
    46
1040
0.0
1000
ACAD_MTEXT_DEFINED_HEIGHT_END
  0
MTEXT
  5
8478
330
18
100
AcDbEntity
  8
0
100
AcDbMText
 10
57.63639061334425
 20
252.5660350862716
 30
0.0
 40
5.0
 41
0.0
 71
     1
 72
     5
  1
{\Ftxt,bigfont|c128;%%C7X5L}
  7
JL
 73
     1
 44
1.0
1001
ACAD
1000
ACAD_MTEXT_DEFINED_HEIGHT_BEGIN
1070
    46
1040
0.0
1000
ACAD_MTEXT_DEFINED_HEIGHT_END
  0
LINE
  5
8479
330
18
100
AcDbEntity
  8
frame
100
AcDbLine
 10
0.0
 20
254.0
 30
0.0
 11
190.0
 21
254.0
 31
0.0
  0
LINE
  5
847A
330
18
100
AcDbEntity
  8
frame
100
AcDbLine
 10
0.0
 20
262.0
 30
0.0
 11
190.0
 21
262.0
 31
0.0
  0
LINE
  5
847B
330
18
100
AcDbEntity
  8
frame
 62
     9
100
AcDbLine
 10
0.0
 20
270.0
 30
0.0
 11
190.0
 21
270.0
 31
0.0
  0
MTEXT
  5
847C
330
18
100
AcDbEntity
  8
0
100
AcDbMText
 10
57.0156439060371
 20
277.4240560049041
 30
0.0
 40
5.0
 41
0.0
 71
     1
 72
     5
  1
\Ftxt.shx,bigfont.shx|c128;図    番 / 規　　格
  7
JL
 73
     1
 44
1.0
  0
LINE
  5
847D
330
18
100
AcDbEntity
  8
frame
100
AcDbLine
 10
0.0
 20
254.0
 30
0.0
 11
190.0
 21
254.0
 31
0.0
  0
LINE
  5
847E
330
18
100
AcDbEntity
  8
frame
100
AcDbLine
 10
0.0
 20
245.8933909875332
 30
0.0
 11
190.0
 21
245.8933909875332
 31
0.0
  0
MTEXT
  5
847F
330
18
100
AcDbEntity
  8
0
100
AcDbMText
 10
21.12488048923433
 20
277.4637981386743
 30
0.0
 40
5.0
 41
0.0
 71
     1
 72
     5
  1
\Ftxt.shx,bigfont.shx|c128;品　          名
  7
JL
 73
     1
 44
1.0
  0
MTEXT
  5
8480
330
18
100
AcDbEntity
  8
0
100
AcDbMText
 10
18.10281387110132
 20
260.7907237289111
 30
0.0
 40
5.0
 41
0.0
 71
     1
 72
     5
  1
\Ftxt.shx,bigfont.shx|c128;セットスクリュ-
  7
JL
 73
     1
 44
1.0
  0
MTEXT
  5
8481
330
18
100
AcDbEntity
  8
0
100
AcDbMText
 10
17.91509480863158
 20
268.8361230282964
 30
0.0
 40
5.0
 41
0.0
 71
     1
 72
     5
  1
\Ftxt.shx,bigfont.shx|c128;ロックナット　  
  7
JL
 73
     1
 44
1.0
  0
MTEXT
  5
8482
330
18
100
AcDbEntity
  8
0
100
AcDbMText
 10
18.10281387110132
 20
252.8510545014035
 30
0.0
 40
5.0
 41
0.0
 71
     1
 72
     5
  1
\Ftxt.shx,bigfont.shx|c128;ロックピン 
  7
JL
 73
     1
 44
1.0
  0
LINE
  5
8483
330
18
100
AcDbEntity
  8
frame
 62
     9
100
AcDbLine
 10
14.39393939393937
 20
279.9999999999999
 30
0.0
 11
14.39393939393972
 21
245.8933909875332
 31
0.0
  0
LINE
  5
8484
330
18
100
AcDbEntity
  8
frame
 62
     9
100
AcDbLine
 10
14.39393939393937
 20
279.9999999999999
 30
0.0
 11
14.39393939393937
 21
255.0505050505051
 31
0.0
  0
MTEXT
  5
8485
330
18
100
AcDbEntity
  8
0
100
AcDbMText
 10
6.815009268013795
 20
268.7281674434121
 30
0.0
 40
5.0
 41
0.0
 71
     1
 72
     5
  1
\Ftxt.shx,bigfont.shx|c128;1
  7
JL
 73
     1
 44
1.0
  0
MTEXT
  5
8486
330
18
100
AcDbEntity
  8
0
100
AcDbMText
 10
2.119828072980226
 20
277.4734782639491
 30
0.0
 40
5.0
 41
0.0
 71
     1
 72
     5
  1
\Ftxt.shx,bigfont.shx|c128;照   号
  7
JL
 73
     1
 44
1.0
  0
LINE
  5
8487
330
18
100
AcDbEntity
  8
frame
 62
     9
100
AcDbLine
 10
52.77777777777783
 20
279.9999999999999
 30
0.0
 11
52.77777777777783
 21
245.8933909875332
 31
0.0
  0
MTEXT
  5
8488
330
18
100
AcDbEntity
  8
0
100
AcDbMText
 10
145.5736374372851
 20
277.6781663894194
 30
0.0
 40
5.0
 41
0.0
 71
     1
 72
     5
  1
\Ftxt.shx,bigfont.shx|c128;備           考
  7
JL
 73
     1
 44
1.0
  0
LINE
  5
8489
330
18
100
AcDbEntity
  8
frame
 62
     9
100
AcDbLine
 10
91.16161616161617
 20
280.0
 30
0.0
 11
91.16161616161617
 21
245.8933909875332
 31
0.0
  0
MTEXT
  5
848A
330
18
100
AcDbEntity
  8
0
100
AcDbMText
 10
92.87341089179369
 20
252.4309794461317
 30
0.0
 40
5.0
 41
0.0
 71
     1
 72
     5
  1
\Ftxt.shx,bigfont.shx|c128;C3604
  7
JL
 73
     1
 44
1.0
  0
MTEXT
  5
848B
330
18
100
AcDbEntity
  8
0
100
AcDbMText
 10
92.87341089179369
 20
268.8361230282964
 30
0.0
 40
5.0
 41
0.0
 71
     1
 72
     5
  1
\Ftxt.shx,bigfont.shx|c128;SCM-440
  7
JL
 73
     1
 44
1.0
  0
MTEXT
  5
848C
330
18
100
AcDbEntity
  8
0
100
AcDbMText
 10
92.87341089179369
 20
260.765002012584
 30
0.0
 40
5.0
 41
0.0
 71
     1
 72
     5
  1
\Ftxt.shx,bigfont.shx|c128;SCM435
  7
JL
 73
     1
 44
1.0
  0
MTEXT
  5
848D
330
18
100
AcDbEntity
  8
0
100
AcDbMText
 10
95.76798863104192
 20
277.5645499482919
 30
0.0
 40
5.0
 41
0.0
 71
     1
 72
     5
  1
\Ftxt.shx,bigfont.shx|c128;材　質
  7
JL
 73
     1
 44
1.0
  0
LINE
  5
848E
330
18
100
AcDbEntity
  8
frame
 62
     9
100
AcDbLine
 10
110.3535353535354
 20
280.0
 30
0.0
 11
110.3535353535354
 21
245.8933909875332
 31
0.0
  0
LINE
  5
848F
330
18
100
AcDbEntity
  8
frame
100
AcDbLine
 10
124.7474747474747
 20
280.0
 30
0.0
 11
124.7474747474748
 21
245.8933909875332
 31
0.0
  0
MTEXT
  5
8490
330
18
100
AcDbEntity
  8
0
100
AcDbMText
 10
116.5939070266884
 20
252.4642985589993
 30
0.0
 40
5.0
 41
0.0
 71
     1
 72
     5
  1
\Ftxt.shx,bigfont.shx|c128;3
  7
JL
 73
     1
 44
1.0
  0
MTEXT
  5
8491
330
18
100
AcDbEntity
  8
0
100
AcDbMText
 10
117.1685446215491
 20
269.0412711679932
 30
0.0
 40
5.0
 41
0.0
 71
     1
 72
     5
  1
\Ftxt.shx,bigfont.shx|c128;1
  7
JL
 73
     1
 44
1.0
  0
MTEXT
  5
8492
330
18
100
AcDbEntity
  8
0
100
AcDbMText
 10
116.5939070266884
 20
260.5092290150679
 30
0.0
 40
5.0
 41
0.0
 71
     1
 72
     5
  1
\Ftxt.shx,bigfont.shx|c128;3
  7
JL
 73
     1
 44
1.0
  0
MTEXT
  5
8493
330
18
100
AcDbEntity
  8
0
100
AcDbMText
 10
112.4223895919262
 20
277.5645499482919
 30
0.0
 40
5.0
 41
0.0
 71
     1
 72
     5
  1
\Ftxt.shx,bigfont.shx|c128;数   量
  7
JL
 73
     1
 44
1.0
  0
MTEXT
  5
8494
330
18
100
AcDbEntity
  8
0
100
AcDbMText
 10
6.404019699055993
 20
260.7281674434121
 30
0.0
 40
5.0
 41
0.0
 71
     1
 72
     5
  1
{\Ftxt,bigfont|c128;2}
  7
JL
 73
     1
 44
1.0
1001
ACAD
1000
ACAD_MTEXT_DEFINED_HEIGHT_BEGIN
1070
    46
1040
0.0
1000
ACAD_MTEXT_DEFINED_HEIGHT_END
  0
MTEXT
  5
8495
330
18
100
AcDbEntity
  8
0
100
AcDbMText
 10
6.404019699055993
 20
252.6215584309452
 30
0.0
 40
5.0
 41
0.0
 71
     1
 72
     5
  1
{\Ftxt,bigfont|c128;3}
  7
JL
 73
     1
 44
1.0
1001
ACAD
1000
ACAD_MTEXT_DEFINED_HEIGHT_BEGIN
1070
    46
1040
0.0
1000
ACAD_MTEXT_DEFINED_HEIGHT_END
  0
ARC
  5
86A9
330
18
100
AcDbEntity
  8
contour
100
AcDbCircle
 10
92.8882524025497
 20
187.9466954937666
 30
0.0
 40
49.0
100
AcDbArc
 50
184.6824168622685
 51
295.3175831377309
  0
CIRCLE
  5
86AA
330
18
100
AcDbEntity
  8
contour
100
AcDbCircle
 10
92.8882524025497
 20
187.9466954937666
 30
0.0
 40
45.0
  0
ARC
  5
86AB
330
18
100
AcDbEntity
  8
contour
 62
     4
100
AcDbCircle
 10
92.8882524025497
 20
187.9466954937666
 30
0.0
 40
37.5
100
AcDbArc
 50
173.8768011337295
 51
96.12319886627027
  0
CIRCLE
  5
86AC
330
18
100
AcDbEntity
  8
contour
100
AcDbCircle
 10
92.8882524025497
 20
187.9466954937666
 30
0.0
 40
36.4175
  0
CIRCLE
  5
86AD
330
18
100
AcDbEntity
  8
contour
100
AcDbCircle
 10
92.8882524025497
 20
187.9466954937666
 30
0.0
 40
38.0
  0
LINE
  5
86AE
330
18
100
AcDbEntity
  8
center
  6
CENTER
 48
0.5
100
AcDbLine
 10
41.88825240254971
 20
187.9466954937666
 30
0.0
 11
143.8882524025497
 21
187.9466954937666
 31
0.0
  0
LINE
  5
86AF
330
18
100
AcDbEntity
  8
contour
100
AcDbLine
 10
44.05179061425059
 20
191.9466954937666
 30
0.0
 11
47.55179061425059
 21
191.9466954937666
 31
0.0
  0
LINE
  5
86B0
330
18
100
AcDbEntity
  8
contour
100
AcDbLine
 10
44.05179061425059
 20
183.9466954937666
 30
0.0
 11
47.55179061425059
 21
183.9466954937666
 31
0.0
  0
LINE
  5
86B1
330
18
100
AcDbEntity
  8
contour
100
AcDbLine
 10
47.55179061425059
 20
191.9466954937666
 30
0.0
 11
47.55179061425059
 21
183.9466954937666
 31
0.0
  0
LINE
  5
86B2
330
18
100
AcDbEntity
  8
contour
100
AcDbLine
 10
120.7705849118371
 20
147.6530789541515
 30
0.0
 11
119.0205849118371
 21
150.684167867397
 31
0.0
  0
LINE
  5
86B3
330
18
100
AcDbEntity
  8
contour
100
AcDbLine
 10
113.8423816815615
 20
143.6530789541515
 30
0.0
 11
112.0923816815615
 21
146.684167867397
 31
0.0
  0
LINE
  5
86B4
330
18
100
AcDbEntity
  8
contour
100
AcDbLine
 10
112.0923816815615
 20
146.684167867397
 30
0.0
 11
119.0205849118371
 21
150.684167867397
 31
0.0
  0
LINE
  5
86B5
330
18
100
AcDbEntity
  8
contour
100
AcDbLine
 10
113.8423816815615
 20
232.2403120333817
 30
0.0
 11
112.0923816815615
 21
229.2092231201361
 31
0.0
  0
LINE
  5
86B6
330
18
100
AcDbEntity
  8
contour
100
AcDbLine
 10
120.7705849118371
 20
228.2403120333816
 30
0.0
 11
119.0205849118371
 21
225.2092231201361
 31
0.0
  0
LINE
  5
86B7
330
18
100
AcDbEntity
  8
contour
100
AcDbLine
 10
119.0205849118371
 20
225.2092231201361
 30
0.0
 11
112.0923816815615
 21
229.2092231201361
 31
0.0
  0
LINE
  5
86B8
330
18
100
AcDbEntity
  8
bowle
  6
HIDDEN
 48
0.2
100
AcDbLine
 10
141.7247141908488
 20
191.9466954937665
 30
0.0
 11
129.0854112171583
 21
191.9466954937665
 31
0.0
  0
LINE
  5
86B9
330
18
100
AcDbEntity
  8
bowle
  6
HIDDEN
 48
0.2
100
AcDbLine
 10
141.7247141908488
 20
183.9466954937665
 30
0.0
 11
129.0854112171583
 21
183.9466954937665
 31
0.0
  0
LINE
  5
86BA
330
18
100
AcDbEntity
  8
bowle
  6
HIDDEN
 48
0.2
100
AcDbLine
 10
141.7754117365712
 20
191.2701954937664
 30
0.0
 11
129.1537822346092
 21
191.2701954937665
 31
0.0
  0
LINE
  5
86BB
330
18
100
AcDbEntity
  8
bowle
  6
HIDDEN
 48
0.2
100
AcDbLine
 10
141.7754117365711
 20
184.6231954937664
 30
0.0
 11
129.1537822346092
 21
184.6231954937665
 31
0.0
  0
LINE
  5
86BC
330
18
100
AcDbEntity
  8
bowle
  6
HIDDEN
 48
0.2
100
AcDbLine
 10
65.0059198932625
 20
228.2403120333817
 30
0.0
 11
71.32557138010771
 21
217.2943545720375
 31
0.0
  0
LINE
  5
86BD
330
18
100
AcDbEntity
  8
bowle
  6
HIDDEN
 48
0.2
100
AcDbLine
 10
71.93412312353803
 20
232.2403120333817
 30
0.0
 11
78.25377461038323
 21
221.2943545720375
 31
0.0
  0
LINE
  5
86BE
330
18
100
AcDbEntity
  8
bowle
  6
HIDDEN
 48
0.2
100
AcDbLine
 10
65.56643730606163
 20
228.6224673958868
 30
0.0
 11
71.87725205704248
 21
217.6918156100326
 31
0.0
  0
LINE
  5
86BF
330
18
100
AcDbEntity
  8
bowle
  6
HIDDEN
 48
0.2
100
AcDbLine
 10
71.32290816501677
 20
231.9459673958867
 30
0.0
 11
77.63372291599757
 21
221.0153156100325
 31
0.0
  0
LINE
  5
86C0
330
18
100
AcDbEntity
  8
bowle
  6
HIDDEN
 48
0.2
100
AcDbLine
 10
71.93412312353785
 20
143.6530789541516
 30
0.0
 11
78.25377461038311
 21
154.5990364154957
 31
0.0
  0
LINE
  5
86C1
330
18
100
AcDbEntity
  8
bowle
  6
HIDDEN
 48
0.2
100
AcDbLine
 10
65.00591989326238
 20
147.6530789541515
 30
0.0
 11
71.32557138010759
 21
158.5990364154957
 31
0.0
  0
LINE
  5
86C2
330
18
100
AcDbEntity
  8
bowle
  6
HIDDEN
 48
0.2
100
AcDbLine
 10
71.32290816501643
 20
143.9474235916466
 30
0.0
 11
77.6337229159975
 21
154.8780753775006
 31
0.0
  0
LINE
  5
86C3
330
18
100
AcDbEntity
  8
bowle
  6
HIDDEN
 48
0.2
100
AcDbLine
 10
65.56643730606129
 20
147.2709235916465
 30
0.0
 11
71.87725205704237
 21
158.2015753775006
 31
0.0
  0
LINE
  5
86C6
330
18
100
AcDbEntity
  8
center
 48
0.2
100
AcDbLine
 10
67.38825240254977
 20
232.113991086773
 30
0.0
 11
75.67950240254981
 21
217.7531248285176
 31
0.0
  0
LINE
  5
86C9
330
18
100
AcDbEntity
  8
center
  6
CENTER
 48
0.5
100
AcDbLine
 10
92.8882524025497
 20
238.9466954937666
 30
0.0
 11
92.8882524025497
 21
136.9466954937666
 31
0.0
  0
LINE
  5
86CA
330
18
100
AcDbEntity
  8
center
 48
0.2
100
AcDbLine
 10
67.38825240254977
 20
143.7793999007602
 30
0.0
 11
75.67950240254981
 21
158.1402661590156
 31
0.0
  0
ARC
  5
86CB
330
18
100
AcDbEntity
  8
contour
100
AcDbCircle
 10
92.8882524025497
 20
187.9466954937666
 30
0.0
 40
49.0
100
AcDbArc
 50
64.68241686226912
 51
175.3175831377314
  0
ARC
  5
86CC
330
18
100
AcDbEntity
  8
contour
100
AcDbCircle
 10
92.8882524025497
 20
187.9466954937666
 30
0.0
 40
49.0
100
AcDbArc
 50
304.6824168622689
 51
55.31758313773111
  0
LINE
  5
86CD
330
18
100
AcDbEntity
  8
contour
100
AcDbLine
 10
141.8882524025497
 20
97.70602164029492
 30
0.0
 11
141.8882524025496
 21
84.20602164029492
 31
0.0
  0
LINE
  5
86CE
330
18
100
AcDbEntity
  8
contour
100
AcDbLine
 10
139.8882524025496
 20
82.20602164029491
 30
0.0
 11
45.88825240254971
 21
82.20602164029491
 31
0.0
  0
LINE
  5
86CF
330
18
100
AcDbEntity
  8
contour
100
AcDbLine
 10
43.88825240254971
 20
84.20602164029492
 30
0.0
 11
43.88825240254971
 21
97.70602164029492
 31
0.0
  0
LINE
  5
86D0
330
18
100
AcDbEntity
  8
contour
100
AcDbLine
 10
47.88825240254971
 20
100.2060216402949
 30
0.0
 11
137.8882524025497
 21
100.2060216402949
 31
0.0
  0
LINE
  5
86D1
330
18
100
AcDbEntity
  8
contour
100
AcDbLine
 10
45.88825240254971
 20
99.70602164029493
 30
0.0
 11
47.88825240254971
 21
99.70602164029493
 31
0.0
  0
LINE
  5
86D3
330
18
100
AcDbEntity
  8
contour
100
AcDbLine
 10
47.88825240254971
 20
100.2060216402949
 30
0.0
 11
47.88825240254971
 21
99.70602164029493
 31
0.0
  0
LINE
  5
86D5
330
18
100
AcDbEntity
  8
contour
100
AcDbLine
 10
137.8882524025497
 20
100.2060216402949
 30
0.0
 11
137.8882524025497
 21
99.70602164029493
 31
0.0
  0
ARC
  5
86D6
330
18
100
AcDbEntity
  8
contour
100
AcDbCircle
 10
45.88825240254971
 20
97.70602164029492
 30
0.0
 40
2.0
100
AcDbArc
 50
90.0
 51
180.0
  0
ARC
  5
86D7
330
18
100
AcDbEntity
  8
contour
100
AcDbCircle
 10
45.88825240254971
 20
84.20602164029492
 30
0.0
 40
2.0
100
AcDbArc
 50
180.0
 51
270.0
  0
ARC
  5
86D8
330
18
100
AcDbEntity
  8
contour
100
AcDbCircle
 10
139.8882524025496
 20
84.20602164029492
 30
0.0
 40
2.0
100
AcDbArc
 50
270.0
 51
0.0
  0
ARC
  5
86D9
330
18
100
AcDbEntity
  8
contour
100
AcDbCircle
 10
139.8882524025497
 20
97.70602164029492
 30
0.0
 40
2.0
100
AcDbArc
 50
0.0
 51
90.0
  0
LINE
  5
86DA
330
18
100
AcDbEntity
  8
contour
100
AcDbLine
 10
137.8882524025497
 20
99.70602164029493
 30
0.0
 11
139.8882524025497
 21
99.70602164029493
 31
0.0
  0
LINE
  5
86DC
330
18
100
AcDbEntity
  8
contour
100
AcDbLine
 10
47.55179061425065
 20
99.70602164029493
 30
0.0
 11
47.55179061425065
 21
82.20602164029491
 31
0.0
  0
LINE
  5
86E3
330
18
100
AcDbEntity
  8
contour
100
AcDbLine
 10
56.47075240254975
 20
96.62352164029488
 30
0.0
 11
56.47075240254969
 21
84.20602164029492
 31
0.0
  0
LINE
  5
86E5
330
18
100
AcDbEntity
  8
contour
 62
     4
100
AcDbLine
 10
55.38825240254971
 20
97.70602164029492
 30
0.0
 11
55.38825240254971
 21
83.12352164029494
 31
0.0
  0
LINE
  5
86E7
330
18
100
AcDbEntity
  8
contour
100
AcDbLine
 10
54.88825240254971
 20
100.2060216402949
 30
0.0
 11
54.88825240254971
 21
98.20602164029493
 31
0.0
  0
LINE
  5
86E8
330
18
100
AcDbEntity
  8
contour
100
AcDbLine
 10
54.47075240254969
 20
82.20602164029491
 30
0.0
 11
56.47075240254969
 21
84.20602164029492
 31
0.0
  0
LINE
  5
86F0
330
18
100
AcDbEntity
  8
contour
100
AcDbLine
 10
54.88825240254971
 20
98.20602164029493
 30
0.0
 11
56.47075240254969
 21
96.62352164029488
 31
0.0
  0
LINE
  5
86F1
330
18
100
AcDbEntity
  8
contour
100
AcDbLine
 10
129.3057524025496
 20
96.62352164029488
 30
0.0
 11
129.3057524025496
 21
84.20602164029492
 31
0.0
  0
LINE
  5
86F2
330
18
100
AcDbEntity
  8
contour
100
AcDbLine
 10
131.3057524025496
 20
82.20602164029491
 30
0.0
 11
129.3057524025496
 21
84.20602164029492
 31
0.0
  0
LINE
  5
86F3
330
18
100
AcDbEntity
  8
contour
 62
     4
100
AcDbLine
 10
130.3882524025497
 20
97.70602164029492
 30
0.0
 11
130.3882524025497
 21
95.20602164029492
 31
0.0
  0
LINE
  5
86F4
330
18
100
AcDbEntity
  8
contour
100
AcDbLine
 10
130.8882524025497
 20
100.2060216402949
 30
0.0
 11
130.8882524025497
 21
98.20602164029493
 31
0.0
  0
LINE
  5
86F5
330
18
100
AcDbEntity
  8
contour
100
AcDbLine
 10
130.8882524025497
 20
98.20602164029493
 30
0.0
 11
129.3057524025496
 21
96.62352164029488
 31
0.0
  0
LINE
  5
86F6
330
18
100
AcDbEntity
  8
contour
100
AcDbLine
 10
56.47075240254969
 20
84.20602164029492
 30
0.0
 11
129.3057524025496
 21
84.20602164029526
 31
0.0
  0
LINE
  5
86F7
330
18
100
AcDbEntity
  8
contour
100
AcDbLine
 10
129.3057524025496
 20
96.62352164029488
 30
0.0
 11
56.47075240254975
 21
96.62352164029488
 31
0.0
  0
LINE
  5
86F8
330
18
100
AcDbEntity
  8
contour
100
AcDbLine
 10
54.88825240254971
 20
98.20602164029493
 30
0.0
 11
130.8882524025497
 21
98.20602164029493
 31
0.0
  0
LINE
  5
86FA
330
18
100
AcDbEntity
  8
center
  6
CENTER
 48
0.3
100
AcDbLine
 10
92.8882524025497
 20
102.2060216402949
 30
0.0
 11
92.8882524025497
 21
80.20602164029492
 31
0.0
  0
LINE
  5
86FE
330
18
100
AcDbEntity
  8
contour
 62
     4
100
AcDbLine
 10
141.8882524025498
 20
95.20602164029492
 30
0.0
 11
129.3057524025496
 21
95.20602164029492
 31
0.0
  0
LINE
  5
86FF
330
18
100
AcDbEntity
  8
contour
 62
     4
100
AcDbLine
 10
141.8882524025499
 20
87.20602164029491
 30
0.0
 11
129.3057524025496
 21
87.20602164029491
 31
0.0
  0
LWPOLYLINE
  5
8700
330
18
100
AcDbEntity
  8
contour
100
AcDbPolyline
 90
        6
 70
     0
 43
0.0
 10
135.3882524025497
 20
95.20602164029492
 10
135.3882524025497
 20
95.20602164029492
 10
133.8882524025497
 20
93.70602164029492
 10
133.8882524025497
 20
88.70602164029492
 10
135.3882524025497
 20
87.20602164029491
 10
135.3882524025497
 20
87.20602164029491
  0
LWPOLYLINE
  5
8701
330
18
100
AcDbEntity
  8
contour
100
AcDbPolyline
 90
        2
 70
     0
 43
0.0
 10
141.8882524025497
 20
87.88252164029495
 10
141.8882524025497
 20
94.52952164029488
  0
LINE
  5
8702
330
18
100
AcDbEntity
  8
contour
100
AcDbLine
 10
135.3882524025497
 20
95.20602164029492
 30
0.0
 11
135.3882524025497
 21
87.20602164029491
 31
0.0
  0
LINE
  5
8703
330
18
100
AcDbEntity
  8
contour
100
AcDbLine
 10
139.3882524025497
 20
93.70602164029492
 30
0.0
 11
141.8882524025497
 21
93.70602164029492
 31
0.0
  0
LINE
  5
8704
330
18
100
AcDbEntity
  8
contour
100
AcDbLine
 10
139.3882524025497
 20
88.70602164029492
 30
0.0
 11
141.8882524025497
 21
88.70602164029492
 31
0.0
  0
LINE
  5
8705
330
18
100
AcDbEntity
  8
contour
100
AcDbLine
 10
139.3882524025497
 20
93.70602164029492
 30
0.0
 11
139.3882524025497
 21
88.70602164029492
 31
0.0
  0
LINE
  5
8706
330
18
100
AcDbEntity
  8
contour
100
AcDbLine
 10
138.8882524025497
 20
91.20602164029492
 30
0.0
 11
139.3882524025497
 21
93.70602164029492
 31
0.0
  0
LINE
  5
8707
330
18
100
AcDbEntity
  8
contour
100
AcDbLine
 10
138.8882524025497
 20
91.20602164029492
 30
0.0
 11
139.3882524025497
 21
88.70602164029492
 31
0.0
  0
LINE
  5
8708
330
18
100
AcDbEntity
  8
contour
 62
     4
100
AcDbLine
 10
141.8882524025497
 20
94.52952164029488
 30
0.0
 11
134.7117524025497
 21
94.52952164029488
 31
0.0
  0
LINE
  5
8709
330
18
100
AcDbEntity
  8
contour
 62
     4
100
AcDbLine
 10
141.8882524025497
 20
87.88252164029485
 30
0.0
 11
134.7117524025498
 21
87.88252164029485
 31
0.0
  0
LINE
  5
870A
330
18
100
AcDbEntity
  8
contour
100
AcDbLine
 10
141.8882524025497
 20
94.52952164029488
 30
0.0
 11
140.7165200312294
 21
95.20602164029492
 31
0.0
  0
LINE
  5
870B
330
18
100
AcDbEntity
  8
contour
100
AcDbLine
 10
140.7165200312294
 20
95.20602164029492
 30
0.0
 11
140.7165200312294
 21
87.20602164029491
 31
0.0
  0
LINE
  5
870C
330
18
100
AcDbEntity
  8
contour
100
AcDbLine
 10
141.8882524025497
 20
87.88252164029495
 30
0.0
 11
140.7165200312294
 21
87.20602164029491
 31
0.0
  0
HATCH
  5
870D
330
18
100
AcDbEntity
  8
section
100
AcDbHatch
 10
0.0
 20
0.0
 30
0.0
210
0.0
220
0.0
230
1.0
  2
AR-SAND
 70
     0
 71
     1
 91
        1
 92
        7
 72
     0
 73
     1
 93
        4
 10
129.3057524025496
 20
94.70602164029479
 10
129.3057524025496
 20
87.70602164029492
 10
133.8882524025497
 20
87.70602164029492
 10
133.8882524025497
 20
94.70602164029491
 97
        1
330
870E
 75
     0
 76
     1
 52
0.0
 41
0.02
 77
     0
 78
     4
 53
37.5
 43
-198.0350393784739
 44
121.2760248695813
 45
-0.0320006259196809
 46
0.9788264746586847
 79
     6
 49
0.0
 49
-0.7721600000000001
 49
0.0
 49
-0.8636000000000001
 49
0.0
 49
-0.8255
 53
7.499999999999999
 43
-198.0350393784739
 44
121.2760248695813
 45
0.8990465662760053
 46
1.433650201136708
 79
     6
 49
0.0
 49
-0.4165600000000001
 49
0.0
 49
-0.69596
 49
0.0
 49
-0.2667000000000001
 53
327.5
 43
-198.6598793784739
 44
121.2760248695813
 45
1.581984740482915
 46
0.0028743693570914
 79
     6
 49
0.0
 49
-0.254
 49
0.0
 49
-0.9144
 49
0.0
 49
-1.193799999999999
 53
317.5
 43
-198.6598793784739
 44
121.2760248695813
 45
1.527112904944594
 46
0.4458586465144325
 79
     6
 49
0.0
 49
-0.127
 49
0.0
 49
-0.59944
 49
0.0
 49
-0.6858
 47
0.0366952879874147
 98
        1
 10
131.6920336796284
 20
92.53113985140975
1001
ACAD
1010
0.0
1020
0.0
1030
0.0
  0
LWPOLYLINE
  5
870E
102
{ACAD_REACTORS
330
870D
102
}
330
18
100
AcDbEntity
  8
contour
100
AcDbPolyline
 90
        4
 70
     1
 43
0.0
 10
129.3057524025496
 20
94.70602164029481
 10
129.3057524025496
 20
87.70602164029492
 10
133.8882524025497
 20
87.70602164029492
 10
133.8882524025497
 20
94.70602164029491
  0
LINE
  5
870F
330
18
100
AcDbEntity
  8
contour
100
AcDbLine
 10
134.7117524025497
 20
94.52952164029488
 30
0.0
 11
133.8882524025497
 21
94.52952164029488
 31
0.0
  0
LINE
  5
8710
330
18
100
AcDbEntity
  8
contour
100
AcDbLine
 10
134.7117524025498
 20
87.88252164029485
 30
0.0
 11
133.8882524025497
 21
87.88252164029485
 31
0.0
  0
LINE
  5
8713
330
18
100
AcDbEntity
  8
contour
 62
     4
100
AcDbLine
 10
130.3882524025497
 20
87.20602164029491
 30
0.0
 11
130.3882524025497
 21
83.12352164029494
 31
0.0
  0
DIMENSION
  5
8F65
330
18
100
AcDbEntity
  8
mark
100
AcDbDimension
  2
*D3
 10
32.34757285632088
 20
183.9466954937666
 30
0.0
 11
30.29757285632085
 21
187.9466954937666
 31
0.0
 70
    32
 71
     5
 42
8.0
  3
STANDARD
100
AcDbAlignedDimension
 13
44.05179061425059
 23
191.9466954937666
 33
0.0
 14
44.05179061425059
 24
183.9466954937666
 34
0.0
 50
90.0
100
AcDbRotatedDimension
  0
LWPOLYLINE
  5
8F72
330
18
100
AcDbEntity
  8
dim
100
AcDbPolyline
 90
        7
 70
     1
 43
0.0
 10
106.207161179267
 20
102.706021640295
 10
114.8674152171114
 20
102.706021640295
 10
113.4240395441374
 20
100.2060216402949
 10
111.9806638711633
 20
102.706021640295
 10
110.5372881981892
 20
100.2060216402949
 10
109.0939125252151
 20
102.706021640295
 10
107.6505368522411
 20
100.2060216402949
  0
MTEXT
  5
8F73
330
18
100
AcDbEntity
  8
mark
 62
     3
100
AcDbMText
 10
110.5579651161931
 20
104.7616980290478
 30
0.0
 40
2.5
 41
0.0
 71
     5
 72
     1
  1
G
 73
     1
 44
1.0
1001
ACAD
1000
ACAD_MTEXT_DEFINED_HEIGHT_BEGIN
1070
    46
1040
0.0
1000
ACAD_MTEXT_DEFINED_HEIGHT_END
  0
DIMENSION
  5
8F74
330
18
100
AcDbEntity
  8
mark
100
AcDbDimension
  2
*D4
 10
130.8882524025497
 20
108.3300353097297
 30
0.0
 11
92.8882524025497
 21
110.3800353097297
 31
0.0
 70
    32
  1
%%c76
 71
     5
 42
76.0
  3
STANDARD
100
AcDbAlignedDimension
 13
54.88825240254971
 23
100.2060216402949
 33
0.0
 14
130.8882524025497
 24
100.2060216402949
 34
0.0
100
AcDbRotatedDimension
  0
DIMENSION
  5
8F81
330
18
100
AcDbEntity
  8
mark
100
AcDbDimension
  2
*D5
 10
137.8882524025497
 20
114.7869166120738
 30
0.0
 11
92.88825240254974
 21
116.8369166120738
 31
0.0
 70
    32
  1
%%c90%%p0.5
 71
     5
 42
90.00000000000005
  3
STANDARD
100
AcDbAlignedDimension
 13
47.88825240254971
 23
100.2060216402949
 33
0.0
 14
137.8882524025497
 24
100.2060216402949
 34
0.0
100
AcDbRotatedDimension
  0
DIMENSION
  5
8F8E
330
18
100
AcDbEntity
  8
mark
100
AcDbDimension
  2
*D6
 10
141.8882524025497
 20
121.1885175793727
 30
0.0
 11
92.8882524025497
 21
123.2385175793727
 31
0.0
 70
    32
  1
%%C98
 71
     5
 42
98.0
  3
STANDARD
100
AcDbAlignedDimension
 13
43.88825240254971
 23
97.70602130312012
 33
0.0
 14
141.8882524025497
 24
97.70602130311971
 34
0.0
100
AcDbRotatedDimension
  0
MTEXT
  5
8F9B
330
18
100
AcDbEntity
  8
mark
 62
     3
100
AcDbMText
 10
97.1167046789044
 20
124.8947879375327
 30
0.0
 40
1.25
 41
0.0
 71
     1
 72
     1
  1
+0\P-0.2
 73
     1
 44
1.0
1001
ACAD
1000
ACAD_MTEXT_DEFINED_HEIGHT_BEGIN
1070
    46
1040
0.0
1000
ACAD_MTEXT_DEFINED_HEIGHT_END
  0
MTEXT
  5
8F9D
330
18
100
AcDbEntity
  8
mark
 62
     3
100
AcDbMText
 10
27.938443783563
 20
189.4223891669608
 30
0.0
 40
1.25
 41
0.0
 71
     1
 72
     1
  1
+0.15\P+0
 11
0.0000000000000001
 21
1.0
 31
0.0
 73
     1
 44
1.0
1001
ACAD
1000
ACAD_MTEXT_DEFINED_HEIGHT_BEGIN
1070
    46
1040
0.0
1000
ACAD_MTEXT_DEFINED_HEIGHT_END
  0
MTEXT
  5
8F9E
330
18
100
AcDbEntity
  8
mark
 62
     3
100
AcDbMText
 10
28.77177711689626
 20
194.6827861640465
 30
0.0
 40
2.5
 41
0.0
 71
     1
 72
     1
  1
(3{\Ftxt,bigfont|c128;等分\Ftxt,bigfont|c136;)}
 11
0.0000000000000001
 21
1.0
 31
0.0
 73
     1
 44
1.0
1001
ACAD
1000
ACAD_MTEXT_DEFINED_HEIGHT_BEGIN
1070
    46
1040
0.0
1000
ACAD_MTEXT_DEFINED_HEIGHT_END
  0
DIMENSION
  5
8FA0
330
18
100
AcDbEntity
  8
mark
100
AcDbDimension
  2
*D7
 10
44.05179061425059
 20
133.8088616764182
 30
0.0
 11
34.75179061425059
 21
135.8588616764182
 31
0.0
 70
    33
 71
     5
 42
3.5
  3
STANDARD
100
AcDbAlignedDimension
 13
47.55179061425059
 23
183.9466954937666
 33
0.0
 14
44.05179061425059
 24
183.9466954937666
 34
0.0
  0
MTEXT
  5
8FAF
330
18
100
AcDbEntity
  8
mark
 62
     3
100
AcDbMText
 10
38.22126902723528
 20
137.5151320345782
 30
0.0
 40
1.25
 41
0.0
 71
     1
 72
     1
  1
+0.15\P+0
 73
     1
 44
1.0
1001
ACAD
1000
ACAD_MTEXT_DEFINED_HEIGHT_BEGIN
1070
    46
1040
0.0
1000
ACAD_MTEXT_DEFINED_HEIGHT_END
  0
DIMENSION
  5
8FB0
330
18
100
AcDbEntity
  8
mark
100
AcDbDimension
  2
*D8
 10
32.34757285632088
 20
100.2060216402949
 30
0.0
 11
30.29757285632087
 21
109.2976883069616
 31
0.0
 70
    32
 71
     5
 42
0.5
  3
STANDARD
100
AcDbAlignedDimension
 13
45.88825240254971
 23
99.70602164029493
 33
0.0
 14
47.88825240254971
 24
100.2060216402949
 34
0.0
 50
90.0
100
AcDbRotatedDimension
  0
LEADER
  5
8FBF
330
18
100
AcDbEntity
  8
mark
100
AcDbLeader
  3
STANDARD
 76
     2
 10
130.3057524025496
 20
83.20602164029493
 30
0.0
 10
121.6370829187361
 20
74.53735215648021
 30
0.0
211
0.0000000000000001
221
-1.0
231
0.0
1001
ACAD
1000
DSTYLE
1002
{
1070
   147
1040
0.8
1070
    77
1070
     0
1002
}
  0
MTEXT
  5
8FC0
330
18
100
AcDbEntity
  8
mark
 62
     3
100
AcDbMText
 10
122.5268713276125
 20
78.36160895551296
 30
0.0
 40
2.5
 41
0.0
 71
     5
 72
     1
  1
C2
 11
0.7071067811862683
 21
0.7071067811868267
 31
0.0
 73
     1
 44
1.0
1001
ACAD
1000
ACAD_MTEXT_DEFINED_HEIGHT_BEGIN
1070
    46
1040
0.0
1000
ACAD_MTEXT_DEFINED_HEIGHT_END
  0
DIMENSION
  5
8FCB
330
18
100
AcDbEntity
  8
mark
100
AcDbDimension
  2
*D9
 10
45.88825240254968
 20
84.20602164029491
 30
0.0
 11
34.9752377462375
 21
76.19214478684718
 31
0.0
 70
    36
  1
2-R2
 71
     5
 42
1.999999999999971
  3
STANDARD
100
AcDbRadialDimension
 15
44.47403884017664
 25
82.79180807792181
 35
0.0
 40
0.0
1001
ACAD
1000
DSTYLE
1002
{
1070
   288
1070
     1
1002
}
  0
DIMENSION
  5
8FD7
330
18
100
AcDbEntity
  8
mark
100
AcDbDimension
  2
*D10
 10
130.3882524025497
 20
70.17374790803342
 30
0.0
 11
92.8882524025497
 21
72.22374790803342
 31
0.0
 70
    32
  1
M75X2.0P
 71
     5
 42
75.0
  3
STANDARD
100
AcDbAlignedDimension
 13
55.38825240254971
 23
83.12352164029494
 33
0.0
 14
130.3882524025497
 24
83.12352164029494
 34
0.0
100
AcDbRotatedDimension
  0
LINE
  5
8FE4
330
18
100
AcDbEntity
  8
mark
100
AcDbLine
 10
55.38825240254971
 20
69.37374790803341
 30
0.0
 11
55.38825240254971
 21
60.62374790803341
 31
0.0
  0
INSERT
  5
8FE5
330
18
100
AcDbEntity
  8
mark
100
AcDbBlockReference
  2
A
 10
51.30898439840314
 20
65.01489300981598
 30
0.0
  0
LINE
  5
8FE6
330
18
100
AcDbEntity
  8
center
  6
CENTER
 48
0.3
100
AcDbLine
 10
127.3057524025496
 20
91.20602164029486
 30
0.0
 11
143.8882524025497
 21
91.20602164029492
 31
0.0
  0
DIMENSION
  5
8FE7
330
18
100
AcDbEntity
  8
mark
100
AcDbDimension
  2
*D11
 10
154.8048384147868
 20
91.20602164029492
 30
0.0
 11
152.7548384147867
 21
95.70602164029493
 31
0.0
 70
    32
 71
     5
 42
9.0
  3
STANDARD
100
AcDbAlignedDimension
 13
137.8882524025497
 23
100.2060216402949
 33
0.0
 14
143.8882524025497
 24
91.20602164029492
 34
0.0
 50
90.0
100
AcDbRotatedDimension
  0
DIMENSION
  5
8FF4
330
18
100
AcDbEntity
  8
mark
100
AcDbDimension
  2
*D12
 10
161.1988775214253
 20
100.2060216402949
 30
0.0
 11
159.1488775214252
 21
91.20602164029493
 31
0.0
 70
    32
  1
18%%P0.2
 71
     5
 42
18.0
  3
STANDARD
100
AcDbAlignedDimension
 13
139.8882524025496
 23
82.20602164029491
 33
0.0
 14
137.8882524025497
 24
100.2060216402949
 34
0.0
 50
90.0
100
AcDbRotatedDimension
  0
MTEXT
  5
900A
330
18
100
AcDbEntity
  8
mark
 62
     3
100
AcDbMText
 10
149.6474288125591
 20
111.0566211862846
 30
0.0
 40
3.5
 41
0.0
 71
     5
 72
     1
  1
2
 73
     1
 44
1.0
1001
ACAD
1000
ACAD_MTEXT_DEFINED_HEIGHT_BEGIN
1070
    46
1040
0.0
1000
ACAD_MTEXT_DEFINED_HEIGHT_END
  0
LEADER
  5
900B
330
18
100
AcDbEntity
  8
mark
100
AcDbLeader
  3
STANDARD
 76
     2
 10
141.8882524025498
 20
91.20602164029525
 30
0.0
 10
147.6528543396166
 20
109.2567462876054
 30
0.0
1001
ACAD
1000
DSTYLE
1002
{
1070
   147
1040
0.8
1070
    77
1070
     0
1002
}
  0
MTEXT
  5
900C
330
18
100
AcDbEntity
  8
mark
 62
     3
100
AcDbMText
 10
149.4224288125591
 20
74.9988483638927
 30
0.0
 40
3.5
 41
0.0
 71
     5
 72
     1
  1
3
 73
     1
 44
1.0
1001
ACAD
1000
ACAD_MTEXT_DEFINED_HEIGHT_BEGIN
1070
    46
1040
0.0
1000
ACAD_MTEXT_DEFINED_HEIGHT_END
  0
LEADER
  5
900D
330
18
100
AcDbEntity
  8
mark
100
AcDbLeader
  3
STANDARD
 76
     2
 10
131.8470024025497
 20
87.70602164029492
 30
0.0
 10
147.3514570924083
 20
75.23681695043677
 30
0.0
211
0.7071067811865476
221
0.7071067811865475
231
0.0
1001
ACAD
1000
DSTYLE
1002
{
1070
   147
1040
0.8
1070
    77
1070
     0
1002
}
  0
LEADER
  5
900E
330
18
100
AcDbEntity
  8
mark
100
AcDbLeader
  3
STANDARD
 76
     2
 10
128.7292953745592
 20
221.3595618580665
 30
0.0
 10
146.920621292583
 20
239.6200241942882
 30
0.0
211
0.8660254037844385
221
0.5000000000000005
231
0.0
1001
ACAD
1000
DSTYLE
1002
{
1070
   147
1040
0.8
1070
    77
1070
     0
1002
}
  0
MTEXT
  5
900F
330
18
100
AcDbEntity
  8
mark
 62
     3
100
AcDbMText
 10
148.1821200119952
 20
240.0230046085093
 30
0.0
 40
3.5
 41
0.0
 71
     5
 72
     1
  1
1
 73
     1
 44
1.0
1001
ACAD
1000
ACAD_MTEXT_DEFINED_HEIGHT_BEGIN
1070
    46
1040
0.0
1000
ACAD_MTEXT_DEFINED_HEIGHT_END
  0
HATCH
  5
91F4
330
18
100
AcDbEntity
  8
section
100
AcDbHatch
 10
0.0
 20
0.0
 30
0.0
210
0.0
220
0.0
230
1.0
  2
ANSI31
 70
     0
 71
     0
 91
       10
 92
        7
 72
     0
 73
     1
 93
        9
 10
55.38825240254971
 20
97.70602164029492
 10
54.88825240254971
 20
98.20602164029493
 10
54.88825240254971
 20
100.2060216402949
 10
47.88825240254971
 20
100.2060216402949
 10
47.88825240254971
 20
99.70602164029493
 10
47.55179061425064
 20
99.70602164029491
 10
47.55179061425063
 20
82.20602164029491
 10
54.47075240254967
 20
82.20602164029491
 10
55.38825240254972
 20
83.12352164029494
 97
        0
 92
        7
 72
     0
 73
     1
 93
        4
 10
56.47075240254974
 20
96.62352164029483
 10
55.3882524025497
 20
97.7060216402949
 10
55.38825240254971
 20
83.12352164029494
 10
56.4707524025497
 20
84.20602164029494
 97
        0
 92
        7
 72
     0
 73
     1
 93
        4
 10
130.3882524025497
 20
97.70602164029494
 10
129.3057524025496
 20
96.62352164029488
 10
129.3057524025496
 20
95.2060216402949
 10
130.3882524025497
 20
95.20602164029492
 97
        0
 92
        7
 72
     1
 73
     1
 93
        9
 10
141.8882524025497
 20
97.70602164029492
 42
0.4142135623730951
 10
139.8882524025497
 20
99.70602164029493
 42
0.0
 10
137.8882524025497
 20
99.70602164029493
 42
0.0
 10
137.8882524025497
 20
100.2060216402949
 42
0.0
 10
130.8882524025497
 20
100.2060216402949
 42
0.0
 10
130.8882524025497
 20
98.20602164029493
 42
0.0
 10
130.3882524025497
 20
97.70602164029497
 42
0.0
 10
130.3882524025496
 20
95.2060216402949
 42
0.0
 10
141.8882524025497
 20
95.20602164029492
 42
0.0
 97
        0
 92
        7
 72
     0
 73
     1
 93
        4
 10
130.3882524025497
 20
87.20602164029491
 10
129.3057524025496
 20
87.20602164029491
 10
129.3057524025497
 20
84.20602164029494
 10
130.3882524025496
 20
83.12352164029489
 97
        0
 92
        7
 72
     1
 73
     1
 93
        6
 10
141.8882524025496
 20
87.20602164029491
 42
0.0
 10
130.3882524025497
 20
87.20602164029491
 42
0.0
 10
130.3882524025497
 20
83.12352164029489
 42
0.0
 10
131.3057524025497
 20
82.20602164029491
 42
0.0
 10
139.8882524025496
 20
82.20602164029491
 42
0.4142135623730951
 10
141.8882524025496
 20
84.20602164029492
 42
0.0
 97
        0
 92
        7
 72
     0
 73
     1
 93
        6
 10
134.7117524025498
 20
87.88252164029485
 10
133.8882524025497
 20
87.88252164029483
 10
133.8882524025497
 20
87.70602164029494
 10
129.3057524025496
 20
87.70602164029492
 10
129.3057524025496
 20
87.20602164029491
 10
135.3882524025497
 20
87.20602164029491
 97
        0
 92
        7
 72
     0
 73
     1
 93
        6
 10
135.3882524025497
 20
95.20602164029492
 10
129.3057524025496
 20
95.20602164029492
 10
129.3057524025496
 20
94.70602164029481
 10
133.8882524025497
 20
94.70602164029491
 10
133.8882524025497
 20
94.52952164029488
 10
134.7117524025497
 20
94.52952164029488
 97
        0
 92
        7
 72
     0
 73
     1
 93
        3
 10
141.8882524025496
 20
95.2060216402949
 10
140.7165200312294
 20
95.2060216402949
 10
141.8882524025497
 20
94.52952164029488
 97
        0
 92
        7
 72
     0
 73
     1
 93
        3
 10
141.8882524025496
 20
87.88252164029492
 10
140.7165200312294
 20
87.20602164029491
 10
141.8882524025496
 20
87.20602164029491
 97
        0
 75
     0
 76
     1
 52
0.0
 41
0.5
 77
     0
 78
     1
 53
45.0
 43
-2.111747597450289
 44
0.0
 45
-1.122532015133643
 46
1.122532015133644
 79
     0
 47
0.1269131002994231
 98
       10
 10
52.23646073480779
 20
90.891620605517
 10
56.36526670618207
 20
94.76120727573652
 10
130.027156906256
 20
96.13397605453668
 10
134.3918630101765
 20
96.82958831758652
 10
130.2801831936414
 20
85.4468355406051
 10
132.5574218973271
 20
85.3835985417387
 10
134.5131476906014
 20
87.60533169630946
 10
134.3270730451244
 20
94.82907420284778
 10
141.6770474773549
 20
95.17010887472554
 10
141.6770474773549
 20
87.4193129042743
1001
ACAD
1010
0.0
1020
0.0
1030
0.0
  0
DIMENSION
  5
91F5
330
18
100
AcDbEntity
  8
mark
100
AcDbDimension
  2
*D13
 10
75.25476407343387
 20
98.20602164029493
 30
0.0
 11
73.20476407343385
 21
90.57268830696159
 31
0.0
 70
    32
 71
     5
 42
2.0
  3
STANDARD
100
AcDbAlignedDimension
 13
75.2547640734339
 23
100.2060216402949
 33
0.0
 14
75.25476407343387
 24
98.20602164029493
 34
0.0
 50
90.0
100
AcDbRotatedDimension
  0
TOLERANCE
  5
931D
330
18
100
AcDbEntity
  8
mark
100
AcDbFcf
  3
STANDARD
 10
166.1988775214252
 20
110.2060216402949
 30
0.0
  1
{\Fgdt;h}%%v0.005%%v%%vA%%v%%v
1001
ACAD
1000
DSTYLE
1002
{
1070
    41
1040
2.5
1070
    43
1040
6.0
1070
   141
1040
0.0
1070
   271
1070
     1
1070
   272
1070
     1
1002
}
  0
LWPOLYLINE
  5
931E
330
18
100
AcDbEntity
  8
mark
100
AcDbPolyline
 90
        3
 70
     0
 43
0.0
 10
161.1988775214253
 20
100.2060216402949
 10
161.1988775214253
 20
110.2060216402949
 10
166.1988775214252
 20
110.2060216402949
  0
MTEXT
  5
938E
330
18
100
AcDbEntity
  8
0
100
AcDbMText
 10
47.65097232190476
 20
19.07605901616615
 30
0.0
 40
4.5
 41
0.0
 71
     1
 72
     5
  1
{\Ftxt,bigfont|c128;小\~柳}
  7
JL
 73
     1
 44
1.0
1001
ACAD
1000
ACAD_MTEXT_DEFINED_HEIGHT_BEGIN
1070
    46
1040
0.0
1000
ACAD_MTEXT_DEFINED_HEIGHT_END
  0
ENDSEC
  0
SECTION
  2
OBJECTS
  0
DICTIONARY
  5
C
330
0
100
AcDbDictionary
281
     1
  3
ACAD_COLOR
350
82D1
  3
ACAD_GROUP
350
D
  3
ACAD_LAYOUT
350
5CF3
  3
ACAD_MATERIAL
350
82D0
  3
ACAD_MLINESTYLE
350
1B
  3
ACAD_PLOTSETTINGS
350
5CF4
  3
ACAD_PLOTSTYLENAME
350
5CF1
  3
ACAD_TABLESTYLE
350
82D2
  3
ACDBVARIABLEDICTIONARY
350
45D
  0
DICTIONARY
  5
82DD
330
2
100
AcDbDictionary
280
     1
281
     1
  3
ACAD_LAYERFILTERS
360
82E1
  3
ACLYDICTIONARY
360
82E0
  0
DICTIONARY
  5
45F
330
18
100
AcDbDictionary
280
     1
281
     1
  3
ACAD_LAYOUTSELFREF
360
5D8B
  3
ACAD_SORTENTS
360
460
  0
DICTIONARY
  5
5D89
330
15
100
AcDbDictionary
280
     1
281
     1
  3
ACAD_LAYOUTSELFREF
360
5D8A
  0
DICTIONARY
  5
82E9
330
82E8
100
AcDbDictionary
280
     1
281
     1
  3
AcDbBlockTableRecordData
360
82EA
  0
DICTIONARY
  5
82D1
102
{ACAD_REACTORS
330
C
102
}
330
C
100
AcDbDictionary
281
     1
  0
DICTIONARY
  5
D
102
{ACAD_REACTORS
330
C
102
}
330
C
100
AcDbDictionary
281
     1
  0
DICTIONARY
  5
5CF3
102
{ACAD_REACTORS
330
C
102
}
330
C
100
AcDbDictionary
281
     1
  3
Model
350
5CF5
  3
配置1
350
5CF6
  0
DICTIONARY
  5
82D0
102
{ACAD_REACTORS
330
C
102
}
330
C
100
AcDbDictionary
281
     1
  0
DICTIONARY
  5
1B
102
{ACAD_REACTORS
330
C
102
}
330
C
100
AcDbDictionary
281
     1
  3
STANDARD
350
1C
  0
DICTIONARY
  5
5CF4
102
{ACAD_REACTORS
330
C
102
}
330
C
100
AcDbDictionary
281
     1
  0
ACDBDICTIONARYWDFLT
  5
5CF1
102
{ACAD_REACTORS
330
C
102
}
330
C
100
AcDbDictionary
281
     1
  3
Normal
350
5CF2
100
AcDbDictionaryWithDefault
340
5CF2
  0
DICTIONARY
  5
82D2
102
{ACAD_REACTORS
330
C
102
}
330
C
100
AcDbDictionary
281
     1
  3
Standard
350
82D3
  0
DICTIONARY
  5
45D
102
{ACAD_REACTORS
330
C
102
}
330
C
100
AcDbDictionary
281
     1
  3
CTABLESTYLE
350
85F7
  3
SORTENTS
350
45E
  0
DICTIONARY
  5
82E1
102
{ACAD_REACTORS
330
82DD
102
}
330
82DD
100
AcDbDictionary
281
     1
  0
DICTIONARY
  5
82E0
102
{ACAD_REACTORS
330
82DD
102
}
330
82DD
100
AcDbDictionary
281
     1
1001
ACAD
1000
<All
  0
XRECORD
  5
5D8B
102
{ACAD_REACTORS
330
45F
102
}
330
45F
100
AcDbXrecord
280
     1
340
18
  0
SORTENTSTABLE
  5
460
102
{ACAD_REACTORS
330
45F
102
}
330
45F
100
AcDbSortentsTable
330
18
331
86FA
  5
86FF
331
847C
  5
847C
331
8445
  5
8445
331
86C3
  5
86CA
331
8F81
  5
8F8E
331
8FC0
  5
8FCB
331
8702
  5
8704
331
8484
  5
8484
331
844D
  5
844D
331
C0
  5
CB
331
86CB
  5
86AC
331
870A
  5
870C
331
848C
  5
848C
331
8455
  5
8455
331
86D3
  5
86E3
331
900F
  5
91B8
331
8494
  5
8494
331
845D
  5
845D
331
86E3
  5
86E8
331
8465
  5
8465
331
86AC
  5
86B0
331
846D
  5
846D
331
86B4
  5
86B9
331
8F72
  5
8F73
331
86F3
  5
86F6
331
8475
  5
8475
331
86BC
  5
86C1
331
847D
  5
847D
331
8446
  5
8446
331
8703
  5
8705
331
8485
  5
8485
331
844E
  5
844E
331
86CC
  5
86AB
331
848D
  5
848D
331
8456
  5
8456
331
870B
  5
870D
331
8495
  5
8495
331
8713
  5
86F7
331
845E
  5
845E
331
86DC
  5
86E7
331
8466
  5
8466
331
86AD
  5
86B1
331
846E
  5
846E
331
86B5
  5
86BA
331
8F73
  5
8F74
331
86F4
  5
86F8
331
8476
  5
8476
331
86BD
  5
86C2
331
847E
  5
847E
331
8447
  5
8447
331
8704
  5
8706
331
8486
  5
8486
331
844F
  5
844F
331
86CD
  5
86D0
331
870C
  5
870E
331
848E
  5
848E
331
8457
  5
8457
331
86D5
  5
86E5
331
8F9B
  5
8F9D
331
845F
  5
845F
331
86E5
  5
86F1
331
8467
  5
8467
331
86AE
  5
86B2
331
8F74
  5
8F81
331
846F
  5
846F
331
86B6
  5
86BB
331
86F5
  5
86FA
331
8477
  5
8477
331
86BE
  5
86C3
331
847F
  5
847F
331
8448
  5
8448
331
86C6
  5
86CB
331
900A
  5
900B
331
8FCB
  5
8FD7
331
8705
  5
8707
331
8487
  5
8487
331
8450
  5
8450
331
86CE
  5
86D6
331
870D
  5
870F
331
848F
  5
848F
331
86D6
  5
86D9
331
8458
  5
8458
331
8460
  5
8460
331
8F65
  5
8F72
331
8468
  5
8468
331
86AF
  5
86B5
331
8470
  5
8470
331
86B7
  5
86BC
331
86F6
  5
86FB
331
86BF
  5
86C6
331
8478
  5
8478
331
8480
  5
8480
331
8449
  5
8449
331
86FE
  5
8700
331
900B
  5
900C
331
8706
  5
8708
331
8488
  5
8488
331
8451
  5
8451
331
86CF
  5
86D7
331
8F9D
  5
8F9E
331
86D7
  5
86D8
331
8490
  5
8490
331
870E
  5
8710
331
8459
  5
8459
331
8FE4
  5
8FE5
331
8461
  5
8461
331
86E7
  5
86F2
331
86B0
  5
86B4
331
8469
  5
8469
331
86B8
  5
86BD
331
8471
  5
8471
331
8FF4
  5
900A
331
86F7
  5
86FC
331
86C0
  5
86C7
331
8479
  5
8479
331
86FF
  5
8701
331
8481
  5
8481
331
844A
  5
844A
331
8707
  5
8709
331
86D0
  5
86DC
331
8489
  5
8489
331
8452
  5
8452
331
8F8E
  5
8F9B
331
900C
  5
900D
331
870F
  5
8713
331
8491
  5
8491
331
8F9E
  5
8FA0
331
91F4
  5
86CF
331
86D8
  5
86D3
331
845A
  5
845A
331
86A9
  5
86A9
331
8462
  5
8462
331
8FE5
  5
8FE6
331
86E8
  5
86F0
331
86B1
  5
86B6
331
846A
  5
846A
331
86F0
  5
86F3
331
86B9
  5
86BE
331
8472
  5
8472
331
86F8
  5
86FE
331
86C1
  5
86C8
331
847A
  5
847A
331
8443
  5
8443
331
8700
  5
8702
331
86C9
  5
86CC
331
8482
  5
8482
331
844B
  5
844B
331
8708
  5
870A
331
86D1
  5
86DD
331
848A
  5
848A
331
8453
  5
8453
331
900D
  5
900E
331
8710
  5
8F65
331
8492
  5
8492
331
86D9
  5
86D1
331
845B
  5
845B
331
86AA
  5
86AD
331
8463
  5
8463
331
8FE6
  5
8FE7
331
86B2
  5
86B7
331
846B
  5
846B
331
8FAF
  5
8FB0
331
86F1
  5
86F4
331
86BA
  5
86BF
331
8473
  5
8473
331
8FBF
  5
8FC0
331
86C2
  5
86C9
331
847B
  5
847B
331
8444
  5
8444
331
8701
  5
8703
331
86CA
  5
86CE
331
8483
  5
8483
331
844C
  5
844C
331
848B
  5
848B
331
8454
  5
8454
331
8709
  5
870B
331
900E
  5
900F
331
8493
  5
8493
331
8FD7
  5
8FE4
331
845C
  5
845C
331
86DA
  5
86DE
331
8FA0
  5
8FAF
331
8464
  5
8464
331
86AB
  5
86AF
331
8FE7
  5
8FF4
331
846C
  5
846C
331
86B3
  5
86B8
331
8FB0
  5
8FBF
331
86F2
  5
86F5
331
8474
  5
8474
331
86BB
  5
86C0
  0
XRECORD
  5
5D8A
102
{ACAD_REACTORS
330
5D89
102
}
330
5D89
100
AcDbXrecord
280
     1
340
15
  0
DICTIONARY
  5
82EA
102
{ACAD_REACTORS
330
82E9
102
}
330
82E9
100
AcDbDictionary
280
     1
281
     1
  3
Edit
360
82EB
  0
LAYOUT
  5
5CF5
102
{ACAD_REACTORS
330
5CF3
102
}
330
5CF3
100
AcDbPlotSettings
  1

  2
none_device
  4
ISO_A4_(210.00_x_297.00_MM)
  6

 40
7.5
 41
20.0
 42
7.5
 43
20.0
 44
210.0
 45
297.0
 46
0.0
 47
0.0
 48
0.0
 49
0.0
140
0.0
141
0.0
142
1.0
143
2.270544987221455
 70
 11952
 72
     1
 73
     1
 74
     0
  7
a.ctb
 75
     0
147
0.4404228965415632
 76
     0
 77
     2
 78
   300
148
136.2218499061186
149
9.50504421063897
100
AcDbLayout
  1
Model
 70
     1
 71
     0
 10
0.0
 20
0.0
 11
12.0
 21
9.0
 12
0.0
 22
0.0
 32
0.0
 14
0.0
 24
0.0
 34
0.0
 15
0.0
 25
0.0
 35
0.0
146
0.0
 13
0.0
 23
0.0
 33
0.0
 16
1.0
 26
0.0
 36
0.0
 17
0.0
 27
1.0
 37
0.0
 76
     0
330
18
1001
ACAD_PSEXT
1000
なし
1000
なし
1000
適切ではありません
1000
新しいプロッタ環境設定名を選択しない限り、レイアウトは印刷されません。
1070
     0
  0
LAYOUT
  5
5CF6
102
{ACAD_REACTORS
330
5CF3
102
}
330
5CF3
100
AcDbPlotSettings
  1

  2
EPSON STYLUS COLOR 440
  4

  6

 40
0.0
 41
0.0
 42
0.0
 43
0.0
 44
0.0
 45
0.0
 46
0.0
 47
0.0
 48
0.0
 49
0.0
140
0.0
141
0.0
142
1.0
143
1.0
 70
   688
 72
     0
 73
     0
 74
     5
  7
a.ctb
 75
    16
147
1.0
 76
     0
 77
     2
 78
   300
148
0.0
149
0.0
100
AcDbLayout
  1
ｰtｸm1
 70
     1
 71
     1
 10
0.0
 20
0.0
 11
420.0
 21
297.0
 12
0.0
 22
0.0
 32
0.0
 14
1.000000000000000E+20
 24
1.000000000000000E+20
 34
1.000000000000000E+20
 15
-1.000000000000000E+20
 25
-1.000000000000000E+20
 35
-1.000000000000000E+20
146
0.0
 13
0.0
 23
0.0
 33
0.0
 16
1.0
 26
0.0
 36
0.0
 17
0.0
 27
1.0
 37
0.0
 76
     0
330
15
  0
MLINESTYLE
  5
1C
102
{ACAD_REACTORS
330
1B
102
}
330
1B
100
AcDbMlineStyle
  2
STANDARD
 70
     0
  3

 62
   256
 51
90.0
 52
90.0
 71
     2
 49
0.5
 62
   256
  6
BYLAYER
 49
-0.5
 62
   256
  6
BYLAYER
  0
ACDBPLACEHOLDER
  5
5CF2
102
{ACAD_REACTORS
330
5CF1
102
}
330
5CF1
  0
TABLESTYLE
  5
82D3
102
{ACAD_REACTORS
330
82D2
102
}
330
82D2
100
AcDbTableStyle
  3
Standard
 70
     0
 71
     8
 40
1.5
 41
1.5
280
     0
281
     0
  7
STANDARD
140
4.5
170
     2
 62
     0
 63
     7
283
     0
274
    -2
284
     1
 64
     0
275
    -2
285
     1
 65
     0
276
    -2
286
     1
 66
     0
277
    -2
287
     1
 67
     0
278
    -2
288
     1
 68
     0
279
    -2
289
     1
 69
     0
  7
STANDARD
140
6.0
170
     5
 62
     0
 63
     7
283
     0
274
    -2
284
     1
 64
     0
275
    -2
285
     1
 65
     0
276
    -2
286
     1
 66
     0
277
    -2
287
     1
 67
     0
278
    -2
288
     1
 68
     0
279
    -2
289
     1
 69
     0
  7
STANDARD
140
4.5
170
     5
 62
     0
 63
     7
283
     0
274
    -2
284
     1
 64
     0
275
    -2
285
     1
 65
     0
276
    -2
286
     1
 66
     0
277
    -2
287
     1
 67
     0
278
    -2
288
     1
 68
     0
279
    -2
289
     1
 69
     0
  0
DICTIONARYVAR
  5
85F7
102
{ACAD_REACTORS
330
45D
102
}
330
45D
100
DictionaryVariables
280
     0
  1
STANDARD
  0
DICTIONARYVAR
  5
45E
102
{ACAD_REACTORS
330
45D
102
}
330
45D
100
DictionaryVariables
280
     0
  1
127
  0
XRECORD
  5
82EB
102
{ACAD_REACTORS
330
82EA
102
}
330
82EA
100
AcDbXrecord
280
     1
1070
     0
1070
     1
1070
     1
  0
ENDSEC
  0
EOF
