  0
SECTION
  2
HEADER
  9
$ACADVER
  1
AC1018
  9
$ACADMAINTVER
 70
    76
  9
$DWGCODEPAGE
  3
ANSI_932
  9
$INSBASE
 10
0.0
 20
0.0
 30
0.0
  9
$EXTMIN
 10
305.0755501772419
 20
254.729492987716
 30
0.0
  9
$EXTMAX
 10
495.0755501772419
 20
534.7294929877159
 30
3.838383838383842
  9
$LIMMIN
 10
0.0
 20
0.0
  9
$LIMMAX
 10
420.0
 20
297.0
  9
$ORTHOMODE
 70
     1
  9
$REGENMODE
 70
     1
  9
$FILLMODE
 70
     1
  9
$QTEXTMODE
 70
     0
  9
$MIRRTEXT
 70
     1
  9
$LTSCALE
 40
1.0
  9
$ATTMODE
 70
     1
  9
$TEXTSIZE
 40
2.5
  9
$TRACEWID
 40
1.0
  9
$TEXTSTYLE
  7
TXT
  9
$CLAYER
  8
mark
  9
$CELTYPE
  6
BYLAYER
  9
$CECOLOR
 62
   256
  9
$CELTSCALE
 40
1.0
  9
$DISPSILH
 70
     0
  9
$DIMSCALE
 40
1.0
  9
$DIMASZ
 40
2.5
  9
$DIMEXO
 40
0.8
  9
$DIMDLI
 40
0.38
  9
$DIMRND
 40
0.0
  9
$DIMDLE
 40
0.0
  9
$DIMEXE
 40
0.8
  9
$DIMTP
 40
0.0
  9
$DIMTM
 40
0.0
  9
$DIMTXT
 40
2.5
  9
$DIMCEN
 40
0.09
  9
$DIMTSZ
 40
0.0
  9
$DIMTOL
 70
     0
  9
$DIMLIM
 70
     0
  9
$DIMTIH
 70
     0
  9
$DIMTOH
 70
     0
  9
$DIMSE1
 70
     0
  9
$DIMSE2
 70
     0
  9
$DIMTAD
 70
     3
  9
$DIMZIN
 70
     8
  9
$DIMBLK
  1
Open30
  9
$DIMASO
 70
     1
  9
$DIMSHO
 70
     1
  9
$DIMPOST
  1

  9
$DIMAPOST
  1

  9
$DIMALT
 70
     0
  9
$DIMALTD
 70
     2
  9
$DIMALTF
 40
25.4
  9
$DIMLFAC
 40
1.0
  9
$DIMTOFL
 70
     1
  9
$DIMTVP
 40
0.0
  9
$DIMTIX
 70
     0
  9
$DIMSOXD
 70
     0
  9
$DIMSAH
 70
     0
  9
$DIMBLK1
  1

  9
$DIMBLK2
  1

  9
$DIMSTYLE
  2
STANDARD
  9
$DIMCLRD
 70
   256
  9
$DIMCLRE
 70
   256
  9
$DIMCLRT
 70
     3
  9
$DIMTFAC
 40
1.0
  9
$DIMGAP
 40
0.8
  9
$DIMJUST
 70
     0
  9
$DIMSD1
 70
     0
  9
$DIMSD2
 70
     0
  9
$DIMTOLJ
 70
     1
  9
$DIMTZIN
 70
     0
  9
$DIMALTZ
 70
     0
  9
$DIMALTTZ
 70
     0
  9
$DIMUPT
 70
     0
  9
$DIMDEC
 70
     2
  9
$DIMTDEC
 70
     2
  9
$DIMALTU
 70
     2
  9
$DIMALTTD
 70
     2
  9
$DIMTXSTY
  7
STANDARD
  9
$DIMAUNIT
 70
     0
  9
$DIMADEC
 70
     2
  9
$DIMALTRND
 40
0.0
  9
$DIMAZIN
 70
     2
  9
$DIMDSEP
 70
    46
  9
$DIMATFIT
 70
     3
  9
$DIMFRAC
 70
     0
  9
$DIMLDRBLK
  1
Open30
  9
$DIMLUNIT
 70
     2
  9
$DIMLWD
 70
    -2
  9
$DIMLWE
 70
    -2
  9
$DIMTMOVE
 70
     0
  9
$LUNITS
 70
     2
  9
$LUPREC
 70
     2
  9
$SKETCHINC
 40
1.0
  9
$FILLETRAD
 40
2.0
  9
$AUNITS
 70
     0
  9
$AUPREC
 70
     2
  9
$MENU
  1
.
  9
$ELEVATION
 40
0.0
  9
$PELEVATION
 40
0.0
  9
$THICKNESS
 40
0.0
  9
$LIMCHECK
 70
     0
  9
$CHAMFERA
 40
2.0
  9
$CHAMFERB
 40
2.0
  9
$CHAMFERC
 40
1.75
  9
$CHAMFERD
 40
0.0174532925199433
  9
$SKPOLY
 70
     0
  9
$TDCREATE
 40
2451555.620234838
  9
$TDUCREATE
 40
2451555.245234838
  9
$TDUPDATE
 40
2455846.571287708
  9
$TDUUPDATE
 40
2455846.196287708
  9
$TDINDWG
 40
2.4258981134
  9
$TDUSRTIMER
 40
2.4258981134
  9
$USRTIMER
 70
     1
  9
$ANGBASE
 50
0.0
  9
$ANGDIR
 70
     0
  9
$PDMODE
 70
     0
  9
$PDSIZE
 40
0.0
  9
$PLINEWID
 40
0.0
  9
$SPLFRAME
 70
     0
  9
$SPLINETYPE
 70
     6
  9
$SPLINESEGS
 70
     8
  9
$HANDSEED
  5
9ABD
  9
$SURFTAB1
 70
     6
  9
$SURFTAB2
 70
     6
  9
$SURFTYPE
 70
     6
  9
$SURFU
 70
     6
  9
$SURFV
 70
     6
  9
$UCSBASE
  2

  9
$UCSNAME
  2

  9
$UCSORG
 10
0.0
 20
0.0
 30
0.0
  9
$UCSXDIR
 10
1.0
 20
0.0
 30
0.0
  9
$UCSYDIR
 10
0.0
 20
1.0
 30
0.0
  9
$UCSORTHOREF
  2

  9
$UCSORTHOVIEW
 70
     0
  9
$UCSORGTOP
 10
0.0
 20
0.0
 30
0.0
  9
$UCSORGBOTTOM
 10
0.0
 20
0.0
 30
0.0
  9
$UCSORGLEFT
 10
0.0
 20
0.0
 30
0.0
  9
$UCSORGRIGHT
 10
0.0
 20
0.0
 30
0.0
  9
$UCSORGFRONT
 10
0.0
 20
0.0
 30
0.0
  9
$UCSORGBACK
 10
0.0
 20
0.0
 30
0.0
  9
$PUCSBASE
  2

  9
$PUCSNAME
  2

  9
$PUCSORG
 10
0.0
 20
0.0
 30
0.0
  9
$PUCSXDIR
 10
1.0
 20
0.0
 30
0.0
  9
$PUCSYDIR
 10
0.0
 20
1.0
 30
0.0
  9
$PUCSORTHOREF
  2

  9
$PUCSORTHOVIEW
 70
     0
  9
$PUCSORGTOP
 10
0.0
 20
0.0
 30
0.0
  9
$PUCSORGBOTTOM
 10
0.0
 20
0.0
 30
0.0
  9
$PUCSORGLEFT
 10
0.0
 20
0.0
 30
0.0
  9
$PUCSORGRIGHT
 10
0.0
 20
0.0
 30
0.0
  9
$PUCSORGFRONT
 10
0.0
 20
0.0
 30
0.0
  9
$PUCSORGBACK
 10
0.0
 20
0.0
 30
0.0
  9
$USERI1
 70
     0
  9
$USERI2
 70
     0
  9
$USERI3
 70
     0
  9
$USERI4
 70
     0
  9
$USERI5
 70
     0
  9
$USERR1
 40
0.0
  9
$USERR2
 40
0.0
  9
$USERR3
 40
0.0
  9
$USERR4
 40
0.0
  9
$USERR5
 40
0.0
  9
$WORLDVIEW
 70
     1
  9
$SHADEDGE
 70
     3
  9
$SHADEDIF
 70
    70
  9
$TILEMODE
 70
     1
  9
$MAXACTVP
 70
    48
  9
$PINSBASE
 10
0.0
 20
0.0
 30
0.0
  9
$PLIMCHECK
 70
     0
  9
$PEXTMIN
 10
1.000000000000000E+20
 20
1.000000000000000E+20
 30
1.000000000000000E+20
  9
$PEXTMAX
 10
-1.000000000000000E+20
 20
-1.000000000000000E+20
 30
-1.000000000000000E+20
  9
$PLIMMIN
 10
0.0
 20
0.0
  9
$PLIMMAX
 10
420.0
 20
297.0
  9
$UNITMODE
 70
     0
  9
$VISRETAIN
 70
     1
  9
$PLINEGEN
 70
     0
  9
$PSLTSCALE
 70
     1
  9
$TREEDEPTH
 70
  3020
  9
$CMLSTYLE
  2
STANDARD
  9
$CMLJUST
 70
     0
  9
$CMLSCALE
 40
20.0
  9
$PROXYGRAPHICS
 70
     1
  9
$MEASUREMENT
 70
     1
  9
$CELWEIGHT
370
    -1
  9
$ENDCAPS
280
     0
  9
$JOINSTYLE
280
     0
  9
$LWDISPLAY
290
     0
  9
$INSUNITS
 70
     0
  9
$HYPERLINKBASE
  1

  9
$STYLESHEET
  1
monochrome.ctb
  9
$XEDIT
290
     1
  9
$CEPSNTYPE
380
     0
  9
$PSTYLEMODE
290
     1
  9
$FINGERPRINTGUID
  2
{1CF51E8A-A506-11D4-A7D9-AF69F5C20846}
  9
$VERSIONGUID
  2
{7F9F703E-6B48-4B68-860F-375C441D8D72}
  9
$EXTNAMES
290
     1
  9
$PSVPSCALE
 40
0.0
  9
$OLESTARTUP
290
     0
  9
$SORTENTS
280
   127
  9
$INDEXCTL
280
     0
  9
$HIDETEXT
280
     0
  9
$XCLIPFRAME
290
     0
  9
$HALOGAP
280
     0
  9
$OBSCOLOR
 70
   257
  9
$OBSLTYPE
280
     0
  9
$INTERSECTIONDISPLAY
280
     0
  9
$INTERSECTIONCOLOR
 70
   257
  9
$DIMASSOC
280
     1
  9
$PROJECTNAME
  1

  0
ENDSEC
  0
SECTION
  2
CLASSES
  0
CLASS
  1
DICTIONARYVAR
  2
AcDbDictionaryVar
  3
ObjectDBX Classes
 90
        0
 91
        2
280
     0
281
     0
  0
CLASS
  1
SORTENTSTABLE
  2
AcDbSortentsTable
  3
ObjectDBX Classes
 90
        0
 91
        2
280
     0
281
     0
  0
CLASS
  1
ACDBDICTIONARYWDFLT
  2
AcDbDictionaryWithDefault
  3
ObjectDBX Classes
 90
        0
 91
        1
280
     0
281
     0
  0
CLASS
  1
TABLESTYLE
  2
AcDbTableStyle
  3
ObjectDBX Classes
 90
     2047
 91
        1
280
     0
281
     0
  0
ENDSEC
  0
SECTION
  2
TABLES
  0
TABLE
  2
VPORT
  5
8
330
0
100
AcDbSymbolTable
 70
     2
  0
VPORT
  5
9ABC
330
8
100
AcDbSymbolTableRecord
100
AcDbViewportTableRecord
  2
*Active
 70
     0
 10
0.0
 20
0.0
 11
1.0
 21
1.0
 12
527.2191709133108
 22
386.6792184688492
 13
0.0
 23
0.0
 14
10.0
 24
10.0
 15
10.0
 25
10.0
 16
0.0
 26
0.0
 36
1.0
 17
0.0
 27
0.0
 37
0.0
 40
314.6383509492232
 41
2.47104247104247
 42
50.0
 43
0.0
 44
0.0
 50
0.0
 51
0.0
 71
     0
 72
 20000
 73
     1
 74
     1
 75
     0
 76
     0
 77
     0
 78
     0
281
     0
 65
     1
110
0.0
120
0.0
130
0.0
111
1.0
121
0.0
131
0.0
112
0.0
122
1.0
132
0.0
 79
     0
146
0.0
  0
ENDTAB
  0
TABLE
  2
LTYPE
  5
5
330
0
100
AcDbSymbolTable
 70
     8
  0
LTYPE
  5
12
330
5
100
AcDbSymbolTableRecord
100
AcDbLinetypeTableRecord
  2
BYBLOCK
 70
     0
  3

 72
    65
 73
     0
 40
0.0
  0
LTYPE
  5
13
330
5
100
AcDbSymbolTableRecord
100
AcDbLinetypeTableRecord
  2
BYLAYER
 70
     0
  3

 72
    65
 73
     0
 40
0.0
  0
LTYPE
  5
14
330
5
100
AcDbSymbolTableRecord
100
AcDbLinetypeTableRecord
  2
CONTINUOUS
 70
     0
  3
Solid line
 72
    65
 73
     0
 40
0.0
  0
LTYPE
  5
9D
330
5
100
AcDbSymbolTableRecord
100
AcDbLinetypeTableRecord
  2
CENTERX2
 70
     0
  3
Center (2x) ________  __  ________  __  _____
 72
    65
 73
     4
 40
101.6
 49
63.5
 74
     0
 49
-12.7
 74
     0
 49
12.7
 74
     0
 49
-12.7
 74
     0
  0
LTYPE
  5
A1
330
5
100
AcDbSymbolTableRecord
100
AcDbLinetypeTableRecord
  2
DASHED
 70
     0
  3
Dashed __ __ __ __ __ __ __ __ __ __ __ __ __ _
 72
    65
 73
     2
 40
19.05
 49
12.7
 74
     0
 49
-6.349999999999999
 74
     0
  0
LTYPE
  5
A2
330
5
100
AcDbSymbolTableRecord
100
AcDbLinetypeTableRecord
  2
DASHED2
 70
     0
  3
Dashed (.5x) _ _ _ _ _ _ _ _ _ _ _ _ _ _ _ _ _
 72
    65
 73
     2
 40
9.524999999999998
 49
6.349999999999999
 74
     0
 49
-3.174999999999999
 74
     0
  0
LTYPE
  5
A5
330
5
100
AcDbSymbolTableRecord
100
AcDbLinetypeTableRecord
  2
DIVIDE2
 70
     0
  3
Divide (.5x) __..__..__..__..__..__..__..__.._
 72
    65
 73
     6
 40
15.875
 49
6.349999999999999
 74
     0
 49
-3.174999999999999
 74
     0
 49
0.0
 74
     0
 49
-3.174999999999999
 74
     0
 49
0.0
 74
     0
 49
-3.174999999999999
 74
     0
  0
LTYPE
  5
650B
330
5
100
AcDbSymbolTableRecord
100
AcDbLinetypeTableRecord
  2
CENTER
 70
     0
  3
Center ____ _ ____ _ ____ _ ____ _ ____ _ ____
 72
    65
 73
     4
 40
50.8
 49
31.75
 74
     0
 49
-6.349999999999999
 74
     0
 49
6.349999999999999
 74
     0
 49
-6.349999999999999
 74
     0
  0
LTYPE
  5
650C
330
5
100
AcDbSymbolTableRecord
100
AcDbLinetypeTableRecord
  2
HIDDEN
 70
     0
  3
Hidden __ __ __ __ __ __ __ __ __ __ __ __ __ _
 72
    65
 73
     2
 40
9.524999999999998
 49
6.349999999999999
 74
     0
 49
-3.174999999999999
 74
     0
  0
LTYPE
  5
8303
330
5
100
AcDbSymbolTableRecord
100
AcDbLinetypeTableRecord
  2
ACAD_ISO03W100
 70
     0
  3
ISO dash space __    __    __    __    __    __
 72
    65
 73
     2
 40
30.0
 49
12.0
 74
     0
 49
-18.0
 74
     0
  0
ENDTAB
  0
TABLE
  2
LAYER
  5
2
102
{ACAD_XDICTIONARY
360
887E
102
}
330
0
100
AcDbSymbolTable
 70
     9
  0
LAYER
  5
E
330
2
100
AcDbSymbolTableRecord
100
AcDbLayerTableRecord
  2
0
 70
     0
 62
     7
  6
CONTINUOUS
370
    -3
390
5CF2
  0
LAYER
  5
B9
330
2
100
AcDbSymbolTableRecord
100
AcDbLayerTableRecord
  2
dim
 70
     0
 62
     3
  6
CONTINUOUS
370
    -3
390
5CF2
  0
LAYER
  5
F2
330
2
100
AcDbSymbolTableRecord
100
AcDbLayerTableRecord
  2
DEFPOINTS
 70
     0
 62
     7
  6
CONTINUOUS
290
     0
370
    -3
390
5CF2
  0
LAYER
  5
5F8B
330
2
100
AcDbSymbolTableRecord
100
AcDbLayerTableRecord
  2
mark
 70
     0
 62
     6
  6
CONTINUOUS
370
    -3
390
5CF2
  0
LAYER
  5
644E
330
2
100
AcDbSymbolTableRecord
100
AcDbLayerTableRecord
  2
frame
 70
     0
 62
     9
  6
CONTINUOUS
370
    -3
390
5CF2
  0
LAYER
  5
650D
330
2
100
AcDbSymbolTableRecord
100
AcDbLayerTableRecord
  2
center
 70
     0
 62
     1
  6
CENTER
370
    -3
390
5CF2
  0
LAYER
  5
650E
330
2
100
AcDbSymbolTableRecord
100
AcDbLayerTableRecord
  2
bowle
 70
     0
 62
     4
  6
HIDDEN
370
    -3
390
5CF2
  0
LAYER
  5
650F
330
2
100
AcDbSymbolTableRecord
100
AcDbLayerTableRecord
  2
contour
 70
     0
 62
     2
  6
CONTINUOUS
370
    -3
390
5CF2
  0
LAYER
  5
6510
330
2
100
AcDbSymbolTableRecord
100
AcDbLayerTableRecord
  2
section
 70
     0
 62
     5
  6
CONTINUOUS
370
    -3
390
5CF2
  0
ENDTAB
  0
TABLE
  2
STYLE
  5
3
330
0
100
AcDbSymbolTable
 70
     5
  0
STYLE
  5
F
330
3
100
AcDbSymbolTableRecord
100
AcDbTextStyleTableRecord
  2
STANDARD
 70
     0
 40
0.0
 41
1.0
 50
0.0
 71
     0
 42
2.5
  3
txt
  4

  0
STYLE
  5
BE
330
3
100
AcDbSymbolTableRecord
100
AcDbTextStyleTableRecord
  2
ISOCP3
 70
     0
 40
0.0
 41
1.0
 50
0.0
 71
     0
 42
2.5
  3
isocp3.shx
  4

  0
STYLE
  5
2A37
330
3
100
AcDbSymbolTableRecord
100
AcDbTextStyleTableRecord
  2
TXT
 70
     0
 40
0.0
 41
1.0
 50
0.0
 71
     0
 42
2.5
  3
txt.shx
  4
bigfont.shx
  0
STYLE
  5
5DCB
330
3
100
AcDbSymbolTableRecord
100
AcDbTextStyleTableRecord
  2
LKK
 70
     0
 40
50.0
 41
1.5
 50
0.0
 71
     0
 42
50.0
  3
MS PGothic.ttf
  4

1001
ACAD
1000
MS PGothic
1071
    32818
  0
STYLE
  5
5DCC
330
3
100
AcDbSymbolTableRecord
100
AcDbTextStyleTableRecord
  2
JL
 70
     0
 40
10.0
 41
0.5
 50
0.0
 71
     0
 42
5.0
  3
MS Mincho.ttf
  4

1001
ACAD
1000
MS Mincho
1071
    32785
  0
ENDTAB
  0
TABLE
  2
VIEW
  5
6
330
0
100
AcDbSymbolTable
 70
     0
  0
ENDTAB
  0
TABLE
  2
UCS
  5
7
330
0
100
AcDbSymbolTable
 70
     0
  0
ENDTAB
  0
TABLE
  2
APPID
  5
9
330
0
100
AcDbSymbolTable
 70
    11
  0
APPID
  5
10
330
9
100
AcDbSymbolTableRecord
100
AcDbRegAppTableRecord
  2
ACAD
 70
     0
  0
APPID
  5
8918
330
9
100
AcDbSymbolTableRecord
100
AcDbRegAppTableRecord
  2
ACAD_DSTYLE_DIMEXT_LENGTH
 70
     0
  0
APPID
  5
8919
330
9
100
AcDbSymbolTableRecord
100
AcDbRegAppTableRecord
  2
ACAD_DSTYLE_DIMEXT_ENABLED
 70
     0
  0
APPID
  5
891A
330
9
100
AcDbSymbolTableRecord
100
AcDbRegAppTableRecord
  2
ACAD_DSTYLE_DIMJOGGED_JOGANGLE_SYMBOL
 70
     0
  0
APPID
  5
891B
330
9
100
AcDbSymbolTableRecord
100
AcDbRegAppTableRecord
  2
ACAD_DSTYLE_DIMARC_LENGTH_SYMBOL
 70
     0
  0
APPID
  5
8D1B
330
9
100
AcDbSymbolTableRecord
100
AcDbRegAppTableRecord
  2
ACAD_EXEMPT_FROM_CAD_STANDARDS
 70
     0
  0
APPID
  5
8D43
330
9
100
AcDbSymbolTableRecord
100
AcDbRegAppTableRecord
  2
ACAD_DSTYLE_DIMTEXT_FILL
 70
     0
  0
APPID
  5
8D46
330
9
100
AcDbSymbolTableRecord
100
AcDbRegAppTableRecord
  2
ACAD_DSTYLE_DIM_LINETYPE
 70
     0
  0
APPID
  5
8D47
330
9
100
AcDbSymbolTableRecord
100
AcDbRegAppTableRecord
  2
ACAD_DSTYLE_DIM_EXT1_LINETYPE
 70
     0
  0
APPID
  5
8D48
330
9
100
AcDbSymbolTableRecord
100
AcDbRegAppTableRecord
  2
ACAD_DSTYLE_DIM_EXT2_LINETYPE
 70
     0
  0
APPID
  5
9A8D
330
9
100
AcDbSymbolTableRecord
100
AcDbRegAppTableRecord
  2
ACAD_PSEXT
 70
     0
  0
ENDTAB
  0
TABLE
  2
DIMSTYLE
  5
A
330
0
100
AcDbSymbolTable
 70
     1
100
AcDbDimStyleTable
 71
     1
340
1D
  0
DIMSTYLE
105
1D
102
{ACAD_REACTORS
330
8CCF
330
8CD4
330
8CD6
330
8CD7
330
8CDC
330
969B
330
96A8
330
96B5
330
96C2
330
96D2
330
96E0
330
9701
330
9711
330
9724
330
9731
330
9979
102
}
330
A
100
AcDbSymbolTableRecord
100
AcDbDimStyleTableRecord
  2
STANDARD
 70
     0
 41
2.5
 42
0.8
 44
0.8
 73
     0
 74
     0
 77
     3
 78
     8
 79
     2
140
2.5
147
0.8
172
     1
176
   256
177
   256
178
     3
179
     2
271
     2
272
     2
340
F
341
8881
342
8881
1001
ACAD_DSTYLE_DIMEXT_LENGTH
1070
   378
1040
0.18
1001
ACAD_DSTYLE_DIMEXT_ENABLED
1070
   383
1070
     0
1001
ACAD_DSTYLE_DIMARC_LENGTH_SYMBOL
1070
   379
1070
     0
1001
ACAD_DSTYLE_DIMJOGGED_JOGANGLE_SYMBOL
1070
   384
1040
1.570796326794896
  0
ENDTAB
  0
TABLE
  2
BLOCK_RECORD
  5
1
330
0
100
AcDbSymbolTable
 70
    26
  0
BLOCK_RECORD
  5
18
102
{ACAD_XDICTIONARY
360
45F
102
}
330
1
100
AcDbSymbolTableRecord
100
AcDbBlockTableRecord
  2
*MODEL_SPACE
340
5CF5
  0
BLOCK_RECORD
  5
15
102
{ACAD_XDICTIONARY
360
5D89
102
}
330
1
100
AcDbSymbolTableRecord
100
AcDbBlockTableRecord
  2
*PAPER_SPACE
340
5CF6
  0
BLOCK_RECORD
  5
639D
330
1
100
AcDbSymbolTableRecord
100
AcDbBlockTableRecord
  2
A$C255C26A2
340
0
  0
BLOCK_RECORD
  5
8881
330
1
100
AcDbSymbolTableRecord
100
AcDbBlockTableRecord
  2
_Open30
340
0
102
{BLKREFS
331
8B9C
331
8B9D
331
8BA8
331
8BA9
331
8BB4
331
8BB5
331
8BC2
331
8BC3
331
8BCE
331
8BCF
331
8BDC
331
8BDD
331
8BE8
331
8BE9
331
8BF4
331
8BF5
331
8C00
331
8C09
331
8C0A
331
8C15
331
8C16
331
98CB
331
98CC
331
98D4
331
98D5
331
98DD
331
98DE
331
98E8
331
98E9
331
98F1
331
98F7
331
98F8
331
9900
331
9901
331
9909
331
990A
331
991E
331
991F
331
9929
331
992A
331
9989
331
998A
102
}
  0
BLOCK_RECORD
  5
8887
102
{ACAD_XDICTIONARY
360
8888
102
}
330
1
100
AcDbSymbolTableRecord
100
AcDbBlockTableRecord
  2
A
340
0
310
2800000020000000200000000100080000000000000400000000000000000000000000000000000000000000000080000080000000808000800000008000800080800000C0C0C000C0DCC000F0CAA6000020400000206000002080000020A0000020C0000020E00000400000004020000040400000406000004080000040A0
310
000040C0000040E00000600000006020000060400000606000006080000060A0000060C0000060E00000800000008020000080400000806000008080000080A0000080C0000080E00000A0000000A0200000A0400000A0600000A0800000A0A00000A0C00000A0E00000C0000000C0200000C0400000C0600000C0800000C0
310
A00000C0C00000C0E00000E0000000E0200000E0400000E0600000E0800000E0A00000E0C00000E0E00040000000400020004000400040006000400080004000A0004000C0004000E00040200000402020004020400040206000402080004020A0004020C0004020E000404000004040200040404000404060004040800040
310
40A0004040C0004040E00040600000406020004060400040606000406080004060A0004060C0004060E00040800000408020004080400040806000408080004080A0004080C0004080E00040A0000040A0200040A0400040A0600040A0800040A0A00040A0C00040A0E00040C0000040C0200040C0400040C0600040C08000
310
40C0A00040C0C00040C0E00040E0000040E0200040E0400040E0600040E0800040E0A00040E0C00040E0E00080000000800020008000400080006000800080008000A0008000C0008000E00080200000802020008020400080206000802080008020A0008020C0008020E00080400000804020008040400080406000804080
310
008040A0008040C0008040E00080600000806020008060400080606000806080008060A0008060C0008060E00080800000808020008080400080806000808080008080A0008080C0008080E00080A0000080A0200080A0400080A0600080A0800080A0A00080A0C00080A0E00080C0000080C0200080C0400080C0600080C0
310
800080C0A00080C0C00080C0E00080E0000080E0200080E0400080E0600080E0800080E0A00080E0C00080E0E000C0000000C0002000C0004000C0006000C0008000C000A000C000C000C000E000C0200000C0202000C0204000C0206000C0208000C020A000C020C000C020E000C0400000C0402000C0404000C0406000C0
310
408000C040A000C040C000C040E000C0600000C0602000C0604000C0606000C0608000C060A000C060C000C060E000C0800000C0802000C0804000C0806000C0808000C080A000C080C000C080E000C0A00000C0A02000C0A04000C0A06000C0A08000C0A0A000C0A0C000C0A0E000C0C00000C0C02000C0C04000C0C06000
310
C0C08000C0C0A000F0FBFF00A4A0A000808080000000FF0000FF000000FFFF00FF000000FF00FF00FFFF0000FFFFFF0000000000000000000000000000000000000000000000000000000000000000000000000000000000000000000000000000000000000000000000000000000000000000000000000000000000000000
310
00000000000000000000000000000000000000000000000000000000000000000000000000000000000000000000000000000000000000000000000000000000000000000000000000000000000000000000000000000000000000000000000000000000000000000000000000000000000000000000000000000000000000
310
00000000000000000000000000000000000000000000000000000000000000000000000000000000000000000000000000000000000000000000000000000000000000000000000000000000000000000000000000000000000000000000000000000000000000000000000000000000000000000000000000000000000000
310
000000000000FDFDFDFDFDFDFDFDFDFDFDFD0000FD0000000000000000000000000000000000FD0000FA0000000000FA00FD0000FDFD00000000000000000000000000000000FD0000FA0000000000FA00FD0000FDFDFD000000000000000000000000000000FD0000FA0000000000FA00FD0000FDFDFDFD00000000000000
310
00000000000000FD0000FAFAFAFAFAFAFA00FD0000FDFDFDFDFD00000000000000000000000000FD000000FA00000000FA00FD0000FDFDFDFDFDFDFDFDFDFDFDFDFDFDFDFDFDFDFD000000FA000000FA0000FD0000FDFDFDFDFD00000000000000000000000000FD00000000FA0000FA0000FD0000FDFDFDFD000000000000
310
0000000000000000FD00000000FA00FA000000FD0000FDFD00000000000000000000000000000000FD0000000000FAFA000000FD0000FD0000000000000000000000000000000000FD0000000000FA00000000FD0000000000000000000000000000000000000000FDFDFDFDFDFDFDFDFDFDFDFD0000000000000000000000
310
00000000000000000000000000000000000000000000000000000000000000000000000000000000000000000000000000000000000000000000000000000000000000000000000000000000000000000000000000000000000000000000000000000000000000000000000000000000000000000000000000000000000000
310
00000000000000000000000000000000000000000000000000000000000000000000000000000000000000000000000000000000000000000000000000000000000000000000000000000000000000000000000000000000000000000000000000000000000000000000000000000000000000000000000000000000000000
310
0000000000000000000000000000000000000000000000000000000000000000000000000000000000000000000000000000000000000000
102
{BLKREFS
331
8CDB
331
971F
102
}
  0
BLOCK_RECORD
  5
8B97
330
1
100
AcDbSymbolTableRecord
100
AcDbBlockTableRecord
  2
*D3
340
0
  0
BLOCK_RECORD
  5
8BA3
330
1
100
AcDbSymbolTableRecord
100
AcDbBlockTableRecord
  2
*D4
340
0
  0
BLOCK_RECORD
  5
8BAF
330
1
100
AcDbSymbolTableRecord
100
AcDbBlockTableRecord
  2
*D5
340
0
  0
BLOCK_RECORD
  5
8BBB
330
1
100
AcDbSymbolTableRecord
100
AcDbBlockTableRecord
  2
*D6
340
0
  0
BLOCK_RECORD
  5
8BC9
330
1
100
AcDbSymbolTableRecord
100
AcDbBlockTableRecord
  2
*D7
340
0
  0
BLOCK_RECORD
  5
8BD5
330
1
100
AcDbSymbolTableRecord
100
AcDbBlockTableRecord
  2
*D8
340
0
  0
BLOCK_RECORD
  5
8BE3
330
1
100
AcDbSymbolTableRecord
100
AcDbBlockTableRecord
  2
*D9
340
0
  0
BLOCK_RECORD
  5
8BEF
330
1
100
AcDbSymbolTableRecord
100
AcDbBlockTableRecord
  2
*D10
340
0
  0
BLOCK_RECORD
  5
8BFB
330
1
100
AcDbSymbolTableRecord
100
AcDbBlockTableRecord
  2
*D11
340
0
  0
BLOCK_RECORD
  5
8C04
330
1
100
AcDbSymbolTableRecord
100
AcDbBlockTableRecord
  2
*D12
340
0
  0
BLOCK_RECORD
  5
8C10
330
1
100
AcDbSymbolTableRecord
100
AcDbBlockTableRecord
  2
*D13
340
0
  0
BLOCK_RECORD
  5
8C1C
102
{ACAD_XDICTIONARY
360
8CDE
102
}
330
1
100
AcDbSymbolTableRecord
100
AcDbBlockTableRecord
  2
A$C709822D4
340
0
1001
ACAD
1000
DesignCenter Data
1002
{
1070
     1
1070
     0
1002
}
  0
BLOCK_RECORD
  5
969C
330
1
100
AcDbSymbolTableRecord
100
AcDbBlockTableRecord
  2
*D15
340
0
  0
BLOCK_RECORD
  5
96A9
330
1
100
AcDbSymbolTableRecord
100
AcDbBlockTableRecord
  2
*D16
340
0
  0
BLOCK_RECORD
  5
96B6
330
1
100
AcDbSymbolTableRecord
100
AcDbBlockTableRecord
  2
*D17
340
0
  0
BLOCK_RECORD
  5
96C3
330
1
100
AcDbSymbolTableRecord
100
AcDbBlockTableRecord
  2
*D18
340
0
  0
BLOCK_RECORD
  5
96D3
330
1
100
AcDbSymbolTableRecord
100
AcDbBlockTableRecord
  2
*D19
340
0
  0
BLOCK_RECORD
  5
96E1
330
1
100
AcDbSymbolTableRecord
100
AcDbBlockTableRecord
  2
*D20
340
0
  0
BLOCK_RECORD
  5
9702
330
1
100
AcDbSymbolTableRecord
100
AcDbBlockTableRecord
  2
*D21
340
0
  0
BLOCK_RECORD
  5
9712
330
1
100
AcDbSymbolTableRecord
100
AcDbBlockTableRecord
  2
*D22
340
0
  0
BLOCK_RECORD
  5
9725
330
1
100
AcDbSymbolTableRecord
100
AcDbBlockTableRecord
  2
*D23
340
0
  0
BLOCK_RECORD
  5
9732
330
1
100
AcDbSymbolTableRecord
100
AcDbBlockTableRecord
  2
*D24
340
0
  0
BLOCK_RECORD
  5
997A
330
1
100
AcDbSymbolTableRecord
100
AcDbBlockTableRecord
  2
*D25
340
0
  0
ENDTAB
  0
ENDSEC
  0
SECTION
  2
BLOCKS
  0
BLOCK
  5
19
330
18
100
AcDbEntity
  8
0
100
AcDbBlockBegin
  2
*MODEL_SPACE
 70
     0
 10
0.0
 20
0.0
 30
0.0
  3
*MODEL_SPACE
  1

  0
ENDBLK
  5
1A
330
18
100
AcDbEntity
  8
0
100
AcDbBlockEnd
  0
BLOCK
  5
16
330
15
100
AcDbEntity
 67
     1
  8
0
100
AcDbBlockBegin
  2
*PAPER_SPACE
 70
     0
 10
0.0
 20
0.0
 30
0.0
  3
*PAPER_SPACE
  1

  0
ENDBLK
  5
17
330
15
100
AcDbEntity
 67
     1
  8
0
100
AcDbBlockEnd
  0
BLOCK
  5
63A1
330
639D
100
AcDbEntity
  8
0
100
AcDbBlockBegin
  2
A$C255C26A2
 70
     0
 10
0.0
 20
0.0
 30
0.0
  3
A$C255C26A2
  1

  0
LWPOLYLINE
  5
639E
330
639D
100
AcDbEntity
  8
0
100
AcDbPolyline
 90
        3
 70
     1
 43
0.0
 10
7.014806023851633
 20
0.0000006939811783
 10
5.611844869720698
 20
2.430000693981241
 10
8.417767177982568
 20
2.430000693981241
  0
LWPOLYLINE
  5
639F
330
639D
100
AcDbEntity
  8
0
100
AcDbPolyline
 90
        3
 70
     1
 43
0.0
 10
4.20888371558999
 20
0.0000006939811783
 10
2.805922561459283
 20
2.430000693981241
 10
5.611844869720698
 20
2.430000693981241
  0
LWPOLYLINE
  5
63A0
330
639D
100
AcDbEntity
  8
0
100
AcDbPolyline
 90
        3
 70
     1
 43
0.0
 10
1.402961407328348
 20
0.0000006939811783
 10
0.0000002531974133
 20
2.430000693981241
 10
2.805922561459283
 20
2.430000693981241
  0
ENDBLK
  5
63A2
330
639D
100
AcDbEntity
  8
0
100
AcDbBlockEnd
  0
BLOCK
  5
8882
330
8881
100
AcDbEntity
  8
0
100
AcDbBlockBegin
  2
_Open30
 70
     0
 10
0.0
 20
0.0
 30
0.0
  3
_Open30
  1

  0
LINE
  5
8883
330
8881
100
AcDbEntity
  8
0
  6
ByBlock
 62
     0
370
    -2
100
AcDbLine
 10
-1.0
 20
0.26794919
 30
0.0
 11
0.0
 21
0.0
 31
0.0
  0
LINE
  5
8884
330
8881
100
AcDbEntity
  8
0
  6
ByBlock
 62
     0
370
    -2
100
AcDbLine
 10
0.0
 20
0.0
 30
0.0
 11
-1.0
 21
-0.26794919
 31
0.0
  0
LINE
  5
8885
330
8881
100
AcDbEntity
  8
0
  6
ByBlock
 62
     0
370
    -2
100
AcDbLine
 10
0.0
 20
0.0
 30
0.0
 11
-1.0
 21
0.0
 31
0.0
  0
ENDBLK
  5
8886
330
8881
100
AcDbEntity
  8
0
100
AcDbBlockEnd
  0
BLOCK
  5
888B
330
8887
100
AcDbEntity
  8
0
100
AcDbBlockBegin
  2
A
 70
     0
 10
0.0
 20
0.0
 30
0.0
  3
A
  1

  0
MTEXT
  5
888C
330
8887
100
AcDbEntity
  8
mark
 62
     3
100
AcDbMText
 10
10.65641897020822
 20
-5.596245361730467
 30
0.0
 40
2.5
 41
0.0
 71
     5
 72
     1
  1
A
 73
     1
 44
1.0
1001
ACAD
1000
ACAD_MTEXT_DEFINED_HEIGHT_BEGIN
1070
    46
1040
0.0
1000
ACAD_MTEXT_DEFINED_HEIGHT_END
  0
LWPOLYLINE
  5
888D
330
8887
100
AcDbEntity
  8
mark
100
AcDbPolyline
 90
        4
 70
     1
 43
0.0
 10
9.07926800414657
 20
-7.141145101782569
 10
12.07926800414657
 20
-7.141145101782569
 10
12.07926800414657
 20
-4.141145101782569
 10
9.07926800414657
 20
-4.141145101782569
  0
HATCH
  5
888E
330
8887
100
AcDbEntity
  8
mark
100
AcDbHatch
 10
0.0
 20
0.0
 30
0.0
210
0.0
220
0.0
230
1.0
  2
SOLID
 70
     1
 71
     0
 91
        1
 92
        7
 72
     0
 73
     1
 93
        3
 10
5.32926800414657
 20
-5.641145101782569
 10
4.07926800414657
 20
-4.391145101782541
 10
4.07926800414657
 20
-6.891145101782541
 97
        0
 75
     0
 76
     1
 47
0.0398277943677868
 98
        1
 10
4.589689734415287
 20
-5.732163331855076
450
        0
451
        0
460
0.0
461
0.0
452
        1
462
1.0
453
        2
463
0.0
 63
     5
421
      255
463
1.0
 63
     7
421
 16777215
470
LINEAR
1001
ACAD
1010
0.0
1020
0.0
1030
0.0
  0
LINE
  5
888F
330
8887
100
AcDbEntity
  8
mark
100
AcDbLine
 10
5.32926800414657
 20
-5.641145101782569
 30
0.0
 11
9.07926800414657
 21
-5.641145101782569
 31
0.0
  0
LINE
  5
8890
330
8887
100
AcDbEntity
  8
mark
100
AcDbLine
 10
5.32926800414657
 20
-5.641145101782569
 30
0.0
 11
4.07926800414657
 21
-4.391145101782569
 31
0.0
  0
LINE
  5
8891
330
8887
100
AcDbEntity
  8
mark
100
AcDbLine
 10
5.32926800414657
 20
-5.641145101782569
 30
0.0
 11
4.07926800414657
 21
-6.891145101782569
 31
0.0
  0
ENDBLK
  5
8892
330
8887
100
AcDbEntity
  8
0
100
AcDbBlockEnd
  0
BLOCK
  5
8B98
330
8B97
100
AcDbEntity
  8
0
100
AcDbBlockBegin
  2
*D3
 70
     1
 10
0.0
 20
0.0
 30
0.0
  3
*D3
  1

  0
LINE
  5
8B99
330
8B97
100
AcDbEntity
  8
mark
370
    -2
100
AcDbLine
 10
48.21071114124038
 20
101.2875822180513
 30
0.0
 11
48.21071114124038
 21
109.4787951184169
 31
0.0
  0
LINE
  5
8B9A
330
8B97
100
AcDbEntity
  8
mark
370
    -2
100
AcDbLine
 10
129.2107111412404
 20
101.2875822180513
 30
0.0
 11
129.2107111412404
 21
109.4787951184169
 31
0.0
  0
LINE
  5
8B9B
330
8B97
100
AcDbEntity
  8
mark
370
    -2
100
AcDbLine
 10
51.21071114124038
 20
108.6787951184169
 30
0.0
 11
126.2107111412404
 21
108.6787951184169
 31
0.0
  0
INSERT
  5
8B9C
330
8B97
100
AcDbEntity
  8
mark
370
    -2
100
AcDbBlockReference
  2
_Open30
 10
48.21071114124038
 20
108.6787951184169
 30
0.0
 41
3.0
 42
3.0
 43
3.0
 50
180.0
  0
INSERT
  5
8B9D
330
8B97
100
AcDbEntity
  8
mark
370
    -2
100
AcDbBlockReference
  2
_Open30
 10
129.2107111412404
 20
108.6787951184169
 30
0.0
 41
3.0
 42
3.0
 43
3.0
  0
MTEXT
  5
8B9E
330
8B97
100
AcDbEntity
  8
mark
 62
     3
100
AcDbMText
 10
88.71071114124038
 20
110.7287951184169
 30
0.0
 40
2.5
 41
0.0
 71
     5
 72
     1
  1
\A1;%%c81
 73
     1
 44
1.0
  0
POINT
  5
8B9F
330
8B97
100
AcDbEntity
  8
DEFPOINTS
 62
     0
100
AcDbPoint
 10
48.21071114124038
 20
100.4875822180513
 30
0.0
  0
POINT
  5
8BA0
330
8B97
100
AcDbEntity
  8
DEFPOINTS
 62
     0
100
AcDbPoint
 10
129.2107111412404
 20
100.4875822180513
 30
0.0
  0
POINT
  5
8BA1
330
8B97
100
AcDbEntity
  8
DEFPOINTS
 62
     0
100
AcDbPoint
 10
129.2107111412404
 20
108.6787951184169
 30
0.0
  0
ENDBLK
  5
8BA2
330
8B97
100
AcDbEntity
  8
0
100
AcDbBlockEnd
  0
BLOCK
  5
8BA4
330
8BA3
100
AcDbEntity
  8
0
100
AcDbBlockBegin
  2
*D4
 70
     1
 10
0.0
 20
0.0
 30
0.0
  3
*D4
  1

  0
LINE
  5
8BA5
330
8BA3
100
AcDbEntity
  8
mark
370
    -2
100
AcDbLine
 10
40.71071114124038
 20
101.2875822180513
 30
0.0
 11
40.71071114124038
 21
115.3057448289235
 31
0.0
  0
LINE
  5
8BA6
330
8BA3
100
AcDbEntity
  8
mark
370
    -2
100
AcDbLine
 10
136.7107111412404
 20
101.2875822180513
 30
0.0
 11
136.7107111412404
 21
115.3057448289235
 31
0.0
  0
LINE
  5
8BA7
330
8BA3
100
AcDbEntity
  8
mark
370
    -2
100
AcDbLine
 10
43.71071114124037
 20
114.5057448289235
 30
0.0
 11
133.7107111412404
 21
114.5057448289235
 31
0.0
  0
INSERT
  5
8BA8
330
8BA3
100
AcDbEntity
  8
mark
370
    -2
100
AcDbBlockReference
  2
_Open30
 10
40.71071114124038
 20
114.5057448289235
 30
0.0
 41
3.0
 42
3.0
 43
3.0
 50
180.0
  0
INSERT
  5
8BA9
330
8BA3
100
AcDbEntity
  8
mark
370
    -2
100
AcDbBlockReference
  2
_Open30
 10
136.7107111412404
 20
114.5057448289235
 30
0.0
 41
3.0
 42
3.0
 43
3.0
  0
MTEXT
  5
8BAA
330
8BA3
100
AcDbEntity
  8
mark
 62
     3
100
AcDbMText
 10
88.71071114124038
 20
116.5557448289235
 30
0.0
 40
2.5
 41
0.0
 71
     5
 72
     1
  1
\A1;%%c96%%p0.5
 73
     1
 44
1.0
  0
POINT
  5
8BAB
330
8BA3
100
AcDbEntity
  8
DEFPOINTS
 62
     0
100
AcDbPoint
 10
40.71071114124038
 20
100.4875822180513
 30
0.0
  0
POINT
  5
8BAC
330
8BA3
100
AcDbEntity
  8
DEFPOINTS
 62
     0
100
AcDbPoint
 10
136.7107111412404
 20
100.4875822180513
 30
0.0
  0
POINT
  5
8BAD
330
8BA3
100
AcDbEntity
  8
DEFPOINTS
 62
     0
100
AcDbPoint
 10
136.7107111412404
 20
114.5057448289235
 30
0.0
  0
ENDBLK
  5
8BAE
330
8BA3
100
AcDbEntity
  8
0
100
AcDbBlockEnd
  0
BLOCK
  5
8BB0
330
8BAF
100
AcDbEntity
  8
0
100
AcDbBlockBegin
  2
*D5
 70
     1
 10
0.0
 20
0.0
 30
0.0
  3
*D5
  1

  0
LINE
  5
8BB1
330
8BAF
100
AcDbEntity
  8
mark
370
    -2
100
AcDbLine
 10
36.21071114124038
 20
98.78758221805133
 30
0.0
 11
36.21071114124038
 21
120.9933275850207
 31
0.0
  0
LINE
  5
8BB2
330
8BAF
100
AcDbEntity
  8
mark
370
    -2
100
AcDbLine
 10
141.2107111412403
 20
98.78758221805043
 30
0.0
 11
141.2107111412403
 21
120.9933275850207
 31
0.0
  0
LINE
  5
8BB3
330
8BAF
100
AcDbEntity
  8
mark
370
    -2
100
AcDbLine
 10
39.21071114124038
 20
120.1933275850207
 30
0.0
 11
138.2107111412404
 21
120.1933275850207
 31
0.0
  0
INSERT
  5
8BB4
330
8BAF
100
AcDbEntity
  8
mark
370
    -2
100
AcDbBlockReference
  2
_Open30
 10
36.21071114124038
 20
120.1933275850207
 30
0.0
 41
3.0
 42
3.0
 43
3.0
 50
180.0
  0
INSERT
  5
8BB5
330
8BAF
100
AcDbEntity
  8
mark
370
    -2
100
AcDbBlockReference
  2
_Open30
 10
141.2107111412403
 20
120.1933275850207
 30
0.0
 41
3.0
 42
3.0
 43
3.0
  0
MTEXT
  5
8BB6
330
8BAF
100
AcDbEntity
  8
mark
 62
     3
100
AcDbMText
 10
88.71071114124038
 20
122.2433275850207
 30
0.0
 40
2.5
 41
0.0
 71
     5
 72
     1
  1
\A1;%%c105
 73
     1
 44
1.0
  0
POINT
  5
8BB7
330
8BAF
100
AcDbEntity
  8
DEFPOINTS
 62
     0
100
AcDbPoint
 10
36.21071114124038
 20
97.98758221805133
 30
0.0
  0
POINT
  5
8BB8
330
8BAF
100
AcDbEntity
  8
DEFPOINTS
 62
     0
100
AcDbPoint
 10
141.2107111412403
 20
97.98758221805043
 30
0.0
  0
POINT
  5
8BB9
330
8BAF
100
AcDbEntity
  8
DEFPOINTS
 62
     0
100
AcDbPoint
 10
141.2107111412403
 20
120.1933275850207
 30
0.0
  0
ENDBLK
  5
8BBA
330
8BAF
100
AcDbEntity
  8
0
100
AcDbBlockEnd
  0
BLOCK
  5
8BBC
330
8BBB
100
AcDbEntity
  8
0
100
AcDbBlockBegin
  2
*D6
 70
     1
 10
0.0
 20
0.0
 30
0.0
  3
*D6
  1

  0
LINE
  5
8BBD
330
8BBB
100
AcDbEntity
  8
mark
370
    -2
100
AcDbLine
 10
37.41071114124038
 20
99.98758221805132
 30
0.0
 11
27.43376326154209
 21
99.98758221805134
 31
0.0
  0
LINE
  5
8BBE
330
8BBB
100
AcDbEntity
  8
mark
370
    -2
100
AcDbLine
 10
39.91071114124038
 20
100.4875822180513
 30
0.0
 11
27.43376326154209
 21
100.4875822180513
 31
0.0
  0
LINE
  5
8BBF
330
8BBB
100
AcDbEntity
  8
mark
370
    -2
100
AcDbLine
 10
28.23376326154209
 20
96.98758221805135
 30
0.0
 11
28.23376326154209
 21
93.98758221805135
 31
0.0
  0
LINE
  5
8BC0
330
8BBB
100
AcDbEntity
  8
mark
370
    -2
100
AcDbLine
 10
28.23376326154209
 20
103.4875822180513
 30
0.0
 11
28.2337632615421
 21
112.6709155513847
 31
0.0
  0
LINE
  5
8BC1
330
8BBB
100
AcDbEntity
  8
mark
370
    -2
100
AcDbLine
 10
28.23376326154209
 20
99.98758221805134
 30
0.0
 11
28.23376326154209
 21
100.4875822180513
 31
0.0
  0
INSERT
  5
8BC2
330
8BBB
100
AcDbEntity
  8
mark
370
    -2
100
AcDbBlockReference
  2
_Open30
 10
28.23376326154209
 20
99.98758221805134
 30
0.0
 41
3.0
 42
3.0
 43
3.0
 50
90.0
  0
INSERT
  5
8BC3
330
8BBB
100
AcDbEntity
  8
mark
370
    -2
100
AcDbBlockReference
  2
_Open30
 10
28.23376326154209
 20
100.4875822180513
 30
0.0
 41
3.0
 42
3.0
 43
3.0
 50
270.0
  0
MTEXT
  5
8BC4
330
8BBB
100
AcDbEntity
  8
mark
 62
     3
100
AcDbMText
 10
26.18376326154208
 20
109.579248884718
 30
0.0
 40
2.5
 41
0.0
 71
     5
 72
     1
  1
\A1;0.5
 11
0.0000000000000001
 21
1.0
 31
0.0
 73
     1
 44
1.0
  0
POINT
  5
8BC5
330
8BBB
100
AcDbEntity
  8
DEFPOINTS
 62
     0
100
AcDbPoint
 10
38.21071114124038
 20
99.98758221805132
 30
0.0
  0
POINT
  5
8BC6
330
8BBB
100
AcDbEntity
  8
DEFPOINTS
 62
     0
100
AcDbPoint
 10
40.71071114124038
 20
100.4875822180513
 30
0.0
  0
POINT
  5
8BC7
330
8BBB
100
AcDbEntity
  8
DEFPOINTS
 62
     0
100
AcDbPoint
 10
28.23376326154209
 20
100.4875822180513
 30
0.0
  0
ENDBLK
  5
8BC8
330
8BBB
100
AcDbEntity
  8
0
100
AcDbBlockEnd
  0
BLOCK
  5
8BCA
330
8BC9
100
AcDbEntity
  8
0
100
AcDbBlockBegin
  2
*D7
 70
     1
 10
0.0
 20
0.0
 30
0.0
  3
*D7
  1

  0
LINE
  5
8BCB
330
8BC9
100
AcDbEntity
  8
mark
370
    -2
100
AcDbLine
 10
35.56331388024946
 20
190.7858744067084
 30
0.0
 11
27.4337632615421
 21
190.7858744067084
 31
0.0
  0
LINE
  5
8BCC
330
8BC9
100
AcDbEntity
  8
mark
370
    -2
100
AcDbLine
 10
35.56331388024946
 20
182.7858744067084
 30
0.0
 11
27.43376326154209
 21
182.7858744067084
 31
0.0
  0
LINE
  5
8BCD
330
8BC9
100
AcDbEntity
  8
mark
370
    -2
100
AcDbLine
 10
28.2337632615421
 20
187.7858744067084
 30
0.0
 11
28.2337632615421
 21
185.7858744067084
 31
0.0
  0
INSERT
  5
8BCE
330
8BC9
100
AcDbEntity
  8
mark
370
    -2
100
AcDbBlockReference
  2
_Open30
 10
28.2337632615421
 20
190.7858744067084
 30
0.0
 41
3.0
 42
3.0
 43
3.0
 50
90.0
  0
INSERT
  5
8BCF
330
8BC9
100
AcDbEntity
  8
mark
370
    -2
100
AcDbBlockReference
  2
_Open30
 10
28.23376326154209
 20
182.7858744067084
 30
0.0
 41
3.0
 42
3.0
 43
3.0
 50
270.0
  0
MTEXT
  5
8BD0
330
8BC9
100
AcDbEntity
  8
mark
 62
     3
100
AcDbMText
 10
26.18376326154207
 20
186.7858744067084
 30
0.0
 40
2.5
 41
0.0
 71
     5
 72
     1
  1
\A1;8
 11
0.0000000000000001
 21
1.0
 31
0.0
 73
     1
 44
1.0
  0
POINT
  5
8BD1
330
8BC9
100
AcDbEntity
  8
DEFPOINTS
 62
     0
100
AcDbPoint
 10
36.36331388024945
 20
190.7858744067084
 30
0.0
  0
POINT
  5
8BD2
330
8BC9
100
AcDbEntity
  8
DEFPOINTS
 62
     0
100
AcDbPoint
 10
36.36331388024945
 20
182.7858744067084
 30
0.0
  0
POINT
  5
8BD3
330
8BC9
100
AcDbEntity
  8
DEFPOINTS
 62
     0
100
AcDbPoint
 10
28.23376326154209
 20
182.7858744067084
 30
0.0
  0
ENDBLK
  5
8BD4
330
8BC9
100
AcDbEntity
  8
0
100
AcDbBlockEnd
  0
BLOCK
  5
8BD6
330
8BD5
100
AcDbEntity
  8
0
100
AcDbBlockBegin
  2
*D8
 70
     1
 10
0.0
 20
0.0
 30
0.0
  3
*D8
  1

  0
LINE
  5
8BD7
330
8BD5
100
AcDbEntity
  8
mark
370
    -2
100
AcDbLine
 10
39.86331388024951
 20
181.9858744067084
 30
0.0
 11
39.86331388024951
 21
129.5123966619966
 31
0.0
  0
LINE
  5
8BD8
330
8BD5
100
AcDbEntity
  8
mark
370
    -2
100
AcDbLine
 10
36.36331388024945
 20
181.9858744067084
 30
0.0
 11
36.36331388024945
 21
129.5123966619966
 31
0.0
  0
LINE
  5
8BD9
330
8BD5
100
AcDbEntity
  8
mark
370
    -2
100
AcDbLine
 10
42.8633138802495
 20
130.3123966619966
 30
0.0
 11
45.86331388024951
 21
130.3123966619966
 31
0.0
  0
LINE
  5
8BDA
330
8BD5
100
AcDbEntity
  8
mark
370
    -2
100
AcDbLine
 10
33.36331388024945
 20
130.3123966619966
 30
0.0
 11
23.76331388024945
 21
130.3123966619966
 31
0.0
  0
LINE
  5
8BDB
330
8BD5
100
AcDbEntity
  8
mark
370
    -2
100
AcDbLine
 10
39.86331388024951
 20
130.3123966619966
 30
0.0
 11
36.36331388024945
 21
130.3123966619966
 31
0.0
  0
INSERT
  5
8BDC
330
8BD5
100
AcDbEntity
  8
mark
370
    -2
100
AcDbBlockReference
  2
_Open30
 10
39.86331388024951
 20
130.3123966619966
 30
0.0
 41
3.0
 42
3.0
 43
3.0
 50
180.0
  0
INSERT
  5
8BDD
330
8BD5
100
AcDbEntity
  8
mark
370
    -2
100
AcDbBlockReference
  2
_Open30
 10
36.36331388024945
 20
130.3123966619966
 30
0.0
 41
3.0
 42
3.0
 43
3.0
  0
MTEXT
  5
8BDE
330
8BD5
100
AcDbEntity
  8
mark
 62
     3
100
AcDbMText
 10
27.06331388024945
 20
132.3623966619967
 30
0.0
 40
2.5
 41
0.0
 71
     5
 72
     1
  1
\A1;3.5
 73
     1
 44
1.0
  0
POINT
  5
8BDF
330
8BD5
100
AcDbEntity
  8
DEFPOINTS
 62
     0
100
AcDbPoint
 10
39.86331388024951
 20
182.7858744067084
 30
0.0
  0
POINT
  5
8BE0
330
8BD5
100
AcDbEntity
  8
DEFPOINTS
 62
     0
100
AcDbPoint
 10
36.36331388024945
 20
182.7858744067084
 30
0.0
  0
POINT
  5
8BE1
330
8BD5
100
AcDbEntity
  8
DEFPOINTS
 62
     0
100
AcDbPoint
 10
36.36331388024945
 20
130.3123966619966
 30
0.0
  0
ENDBLK
  5
8BE2
330
8BD5
100
AcDbEntity
  8
0
100
AcDbBlockEnd
  0
BLOCK
  5
8BE4
330
8BE3
100
AcDbEntity
  8
0
100
AcDbBlockBegin
  2
*D9
 70
     1
 10
0.0
 20
0.0
 30
0.0
  3
*D9
  1

  0
LINE
  5
8BE5
330
8BE3
100
AcDbEntity
  8
mark
370
    -2
100
AcDbLine
 10
137.5107111412404
 20
100.4875822180513
 30
0.0
 11
151.5049115039772
 21
100.4875822180513
 31
0.0
  0
LINE
  5
8BE6
330
8BE3
100
AcDbEntity
  8
mark
370
    -2
100
AcDbLine
 10
144.0107111412404
 20
91.48758221805133
 30
0.0
 11
151.5049115039772
 21
91.48758221805133
 31
0.0
  0
LINE
  5
8BE7
330
8BE3
100
AcDbEntity
  8
mark
370
    -2
100
AcDbLine
 10
150.7049115039772
 20
97.48758221805132
 30
0.0
 11
150.7049115039772
 21
94.48758221805134
 31
0.0
  0
INSERT
  5
8BE8
330
8BE3
100
AcDbEntity
  8
mark
370
    -2
100
AcDbBlockReference
  2
_Open30
 10
150.7049115039772
 20
100.4875822180513
 30
0.0
 41
3.0
 42
3.0
 43
3.0
 50
90.0
  0
INSERT
  5
8BE9
330
8BE3
100
AcDbEntity
  8
mark
370
    -2
100
AcDbBlockReference
  2
_Open30
 10
150.7049115039772
 20
91.48758221805133
 30
0.0
 41
3.0
 42
3.0
 43
3.0
 50
270.0
  0
MTEXT
  5
8BEA
330
8BE3
100
AcDbEntity
  8
mark
 62
     3
100
AcDbMText
 10
148.6549115039771
 20
95.98758221805134
 30
0.0
 40
2.5
 41
0.0
 71
     5
 72
     1
  1
\A1;9
 11
0.0000000000000001
 21
1.0
 31
0.0
 73
     1
 44
1.0
  0
POINT
  5
8BEB
330
8BE3
100
AcDbEntity
  8
DEFPOINTS
 62
     0
100
AcDbPoint
 10
136.7107111412404
 20
100.4875822180513
 30
0.0
  0
POINT
  5
8BEC
330
8BE3
100
AcDbEntity
  8
DEFPOINTS
 62
     0
100
AcDbPoint
 10
143.2107111412403
 20
91.48758221805133
 30
0.0
  0
POINT
  5
8BED
330
8BE3
100
AcDbEntity
  8
DEFPOINTS
 62
     0
100
AcDbPoint
 10
150.7049115039772
 20
91.48758221805133
 30
0.0
  0
ENDBLK
  5
8BEE
330
8BE3
100
AcDbEntity
  8
0
100
AcDbBlockEnd
  0
BLOCK
  5
8BF0
330
8BEF
100
AcDbEntity
  8
0
100
AcDbBlockBegin
  2
*D10
 70
     1
 10
0.0
 20
0.0
 30
0.0
  3
*D10
  1

  0
LINE
  5
8BF1
330
8BEF
100
AcDbEntity
  8
mark
370
    -2
100
AcDbLine
 10
137.5107111412404
 20
100.4875822180513
 30
0.0
 11
160.7070567580517
 21
100.4875822180513
 31
0.0
  0
LINE
  5
8BF2
330
8BEF
100
AcDbEntity
  8
mark
370
    -2
100
AcDbLine
 10
140.0107111412404
 20
82.48758221805132
 30
0.0
 11
160.7070567580517
 21
82.48758221805131
 31
0.0
  0
LINE
  5
8BF3
330
8BEF
100
AcDbEntity
  8
mark
370
    -2
100
AcDbLine
 10
159.9070567580517
 20
97.48758221805132
 30
0.0
 11
159.9070567580517
 21
85.48758221805133
 31
0.0
  0
INSERT
  5
8BF4
330
8BEF
100
AcDbEntity
  8
mark
370
    -2
100
AcDbBlockReference
  2
_Open30
 10
159.9070567580517
 20
100.4875822180513
 30
0.0
 41
3.0
 42
3.0
 43
3.0
 50
90.0
  0
INSERT
  5
8BF5
330
8BEF
100
AcDbEntity
  8
mark
370
    -2
100
AcDbBlockReference
  2
_Open30
 10
159.9070567580517
 20
82.48758221805132
 30
0.0
 41
3.0
 42
3.0
 43
3.0
 50
270.0
  0
MTEXT
  5
8BF6
330
8BEF
100
AcDbEntity
  8
mark
 62
     3
100
AcDbMText
 10
157.8570567580516
 20
91.48758221805135
 30
0.0
 40
2.5
 41
0.0
 71
     5
 72
     1
  1
\A1;18%%p0.2
 11
0.0000000000000001
 21
1.0
 31
0.0
 73
     1
 44
1.0
  0
POINT
  5
8BF7
330
8BEF
100
AcDbEntity
  8
DEFPOINTS
 62
     0
100
AcDbPoint
 10
136.7107111412404
 20
100.4875822180513
 30
0.0
  0
POINT
  5
8BF8
330
8BEF
100
AcDbEntity
  8
DEFPOINTS
 62
     0
100
AcDbPoint
 10
139.2107111412403
 20
82.48758221805132
 30
0.0
  0
POINT
  5
8BF9
330
8BEF
100
AcDbEntity
  8
DEFPOINTS
 62
     0
100
AcDbPoint
 10
159.9070567580517
 20
82.48758221805132
 30
0.0
  0
ENDBLK
  5
8BFA
330
8BEF
100
AcDbEntity
  8
0
100
AcDbBlockEnd
  0
BLOCK
  5
8BFC
330
8BFB
100
AcDbEntity
  8
0
100
AcDbBlockBegin
  2
*D11
 70
     1
 10
0.0
 20
0.0
 30
0.0
  3
*D11
  1

  0
LINE
  5
8BFD
330
8BFB
100
AcDbEntity
  8
mark
370
    -2
100
AcDbLine
 10
24.94067388097427
 20
71.21754495778235
 30
0.0
 11
34.67517723530789
 21
80.95204831211832
 31
0.0
  0
MTEXT
  5
8BFE
330
8BFB
100
AcDbEntity
  8
mark
 62
     3
100
AcDbMText
 10
27.2976964849288
 20
76.47370536460264
 30
0.0
 40
2.5
 41
0.0
 71
     5
 72
     1
  1
\A1;2-R2
 11
0.7071067811864618
 21
0.7071067811866333
 31
0.0
 73
     1
 44
1.0
  0
LINE
  5
8BFF
330
8BFB
100
AcDbEntity
  8
mark
370
    -2
100
AcDbLine
 10
38.21071114123999
 20
84.48758221805126
 30
0.0
 11
36.79649757886727
 21
83.07336865567823
 31
0.0
  0
INSERT
  5
8C00
330
8BFB
100
AcDbEntity
  8
mark
370
    -2
100
AcDbBlockReference
  2
_Open30
 10
36.79649757886727
 20
83.07336865567823
 30
0.0
 41
3.0
 42
3.0
 43
3.0
 50
45.00000000000695
  0
POINT
  5
8C01
330
8BFB
100
AcDbEntity
  8
DEFPOINTS
 62
     0
100
AcDbPoint
 10
36.79649757886727
 20
83.07336865567823
 30
0.0
  0
POINT
  5
8C02
330
8BFB
100
AcDbEntity
  8
DEFPOINTS
 62
     0
100
AcDbPoint
 10
38.21071114123999
 20
84.48758221805126
 30
0.0
  0
ENDBLK
  5
8C03
330
8BFB
100
AcDbEntity
  8
0
100
AcDbBlockEnd
  0
BLOCK
  5
8C05
330
8C04
100
AcDbEntity
  8
0
100
AcDbBlockBegin
  2
*D12
 70
     1
 10
0.0
 20
0.0
 30
0.0
  3
*D12
  1

  0
LINE
  5
8C06
330
8C04
100
AcDbEntity
  8
mark
370
    -2
100
AcDbLine
 10
48.71071114124038
 20
82.6050822180513
 30
0.0
 11
48.71071114124038
 21
68.48304540329657
 31
0.0
  0
LINE
  5
8C07
330
8C04
100
AcDbEntity
  8
mark
370
    -2
100
AcDbLine
 10
128.7107111412403
 20
82.6050822180513
 30
0.0
 11
128.7107111412403
 21
68.48304540329657
 31
0.0
  0
LINE
  5
8C08
330
8C04
100
AcDbEntity
  8
mark
370
    -2
100
AcDbLine
 10
51.71071114124038
 20
69.28304540329657
 30
0.0
 11
125.7107111412404
 21
69.28304540329657
 31
0.0
  0
INSERT
  5
8C09
330
8C04
100
AcDbEntity
  8
mark
370
    -2
100
AcDbBlockReference
  2
_Open30
 10
48.71071114124038
 20
69.28304540329657
 30
0.0
 41
3.0
 42
3.0
 43
3.0
 50
180.0
  0
INSERT
  5
8C0A
330
8C04
100
AcDbEntity
  8
mark
370
    -2
100
AcDbBlockReference
  2
_Open30
 10
128.7107111412403
 20
69.28304540329657
 30
0.0
 41
3.0
 42
3.0
 43
3.0
  0
MTEXT
  5
8C0B
330
8C04
100
AcDbEntity
  8
mark
 62
     3
100
AcDbMText
 10
88.71071114124038
 20
71.33304540329657
 30
0.0
 40
2.5
 41
0.0
 71
     5
 72
     1
  1
\A1;M80X2.0P
 73
     1
 44
1.0
  0
POINT
  5
8C0C
330
8C04
100
AcDbEntity
  8
DEFPOINTS
 62
     0
100
AcDbPoint
 10
48.71071114124038
 20
83.40508221805128
 30
0.0
  0
POINT
  5
8C0D
330
8C04
100
AcDbEntity
  8
DEFPOINTS
 62
     0
100
AcDbPoint
 10
128.7107111412403
 20
83.40508221805128
 30
0.0
  0
POINT
  5
8C0E
330
8C04
100
AcDbEntity
  8
DEFPOINTS
 62
     0
100
AcDbPoint
 10
128.7107111412403
 20
69.28304540329657
 30
0.0
  0
ENDBLK
  5
8C0F
330
8C04
100
AcDbEntity
  8
0
100
AcDbBlockEnd
  0
BLOCK
  5
8C11
330
8C10
100
AcDbEntity
  8
0
100
AcDbBlockBegin
  2
*D13
 70
     1
 10
0.0
 20
0.0
 30
0.0
  3
*D13
  1

  0
LINE
  5
8C12
330
8C10
100
AcDbEntity
  8
mark
370
    -2
100
AcDbLine
 10
71.12887445215893
 20
103.4875822180513
 30
0.0
 11
71.12887445215893
 21
106.4875822180513
 31
0.0
  0
LINE
  5
8C13
330
8C10
100
AcDbEntity
  8
mark
370
    -2
100
AcDbLine
 10
71.12887445215891
 20
95.48758221805133
 30
0.0
 11
71.12887445215891
 21
89.22091555138466
 31
0.0
  0
LINE
  5
8C14
330
8C10
100
AcDbEntity
  8
mark
370
    -2
100
AcDbLine
 10
71.12887445215893
 20
100.4875822180513
 30
0.0
 11
71.12887445215893
 21
98.48758221805134
 31
0.0
  0
INSERT
  5
8C15
330
8C10
100
AcDbEntity
  8
mark
370
    -2
100
AcDbBlockReference
  2
_Open30
 10
71.12887445215893
 20
100.4875822180513
 30
0.0
 41
3.0
 42
3.0
 43
3.0
 50
270.0
  0
INSERT
  5
8C16
330
8C10
100
AcDbEntity
  8
mark
370
    -2
100
AcDbBlockReference
  2
_Open30
 10
71.12887445215893
 20
98.48758221805134
 30
0.0
 41
3.0
 42
3.0
 43
3.0
 50
90.0
  0
MTEXT
  5
8C17
330
8C10
100
AcDbEntity
  8
mark
 62
     3
100
AcDbMText
 10
69.0788744521589
 20
90.854248884718
 30
0.0
 40
2.5
 41
0.0
 71
     5
 72
     1
  1
\A1;2
 11
0.0000000000000001
 21
1.0
 31
0.0
 73
     1
 44
1.0
  0
POINT
  5
8C18
330
8C10
100
AcDbEntity
  8
DEFPOINTS
 62
     0
100
AcDbPoint
 10
71.12887445215893
 20
100.4875822180513
 30
0.0
  0
POINT
  5
8C19
330
8C10
100
AcDbEntity
  8
DEFPOINTS
 62
     0
100
AcDbPoint
 10
71.12887445215893
 20
98.48758221805134
 30
0.0
  0
POINT
  5
8C1A
330
8C10
100
AcDbEntity
  8
DEFPOINTS
 62
     0
100
AcDbPoint
 10
71.12887445215893
 20
98.48758221805134
 30
0.0
  0
ENDBLK
  5
8C1B
330
8C10
100
AcDbEntity
  8
0
100
AcDbBlockEnd
  0
BLOCK
  5
8CE0
330
8C1C
100
AcDbEntity
  8
0
100
AcDbBlockBegin
  2
A$C709822D4
 70
     0
 10
0.0
 20
0.0
 30
0.0
  3
A$C709822D4
  1

  0
LWPOLYLINE
  5
8C1D
330
8C1C
100
AcDbEntity
  8
frame
100
AcDbPolyline
 90
        4
 70
     1
 43
0.0
 10
190.0000002909664
 20
280.0000000993267
 10
0.0000002909664545
 20
280.0000000993267
 10
0.0000002909664545
 20
0.0000000993267122
 10
190.0000002909664
 20
0.0000000993267122
  0
MTEXT
  5
8C1E
330
8C1C
100
AcDbEntity
  8
0
100
AcDbMText
 10
17.0995039778582
 20
19.07605911549285
 30
0.0
 40
4.5
 41
0.0
 71
     1
 72
     5
  1
{\Ftxt,bigfont|c128;林彦旭}
  7
JL
 73
     1
 44
1.0
1001
ACAD
1000
ACAD_MTEXT_DEFINED_HEIGHT_BEGIN
1070
    46
1040
0.0
1000
ACAD_MTEXT_DEFINED_HEIGHT_END
  0
MTEXT
  5
8C1F
330
8C1C
100
AcDbEntity
  8
0
100
AcDbMText
 10
77.95294758325496
 20
28.93578989803348
 30
0.0
 40
4.5
 41
0.0
 71
     1
 72
     5
  1
\Ftxt.shx,bigfont.shx|c128;1 : 1
  7
JL
 73
     1
 44
1.0
  0
MTEXT
  5
8C20
330
8C1C
100
AcDbEntity
  8
0
 48
2.0
370
    25
100
AcDbMText
 10
140.219450337532
 20
3.490021753960604
 30
0.0
 40
4.5
 41
0.0
 71
     5
 72
     1
  1
{\Ftxt,bigfont|c128;N L 4 0 0 4 1}
 73
     1
 44
1.0
1001
ACAD
1000
ACAD_MTEXT_DEFINED_HEIGHT_BEGIN
1070
    46
1040
0.0
1000
ACAD_MTEXT_DEFINED_HEIGHT_END
  0
MTEXT
  5
8C21
330
8C1C
100
AcDbEntity
  8
0
 48
2.0
100
AcDbMText
 10
170.9329002553995
 20
21.76437137756364
 30
0.0
 40
4.318181818181822
 41
0.0
 71
     5
 72
     1
  1
\P{\Ftxt,bigfont|c128;MR80X2.0P}
 73
     1
 44
1.0
1001
ACAD
1000
ACAD_MTEXT_DEFINED_HEIGHT_BEGIN
1070
    46
1040
0.0
1000
ACAD_MTEXT_DEFINED_HEIGHT_END
  0
MTEXT
  5
8C22
330
8C1C
100
AcDbEntity
  8
0
100
AcDbMText
 10
15.37606800464385
 20
28.3774036976738
 30
0.0
 40
4.5
 41
0.0
 71
     1
 72
     5
  1
{\Ftxt,bigfont|c128;06.06.14}
  7
JL
 73
     1
 44
1.0
1001
ACAD
1000
ACAD_MTEXT_DEFINED_HEIGHT_BEGIN
1070
    46
1040
0.0
1000
ACAD_MTEXT_DEFINED_HEIGHT_END
  0
LINE
  5
8C23
330
8C1C
100
AcDbEntity
  8
0
 62
     7
 48
5.0
100
AcDbLine
 39
3.838383838383842
 10
47.9294244308918
 20
27.65712916948757
 30
0.0
 11
53.045801733845
 21
28.93622349522593
 31
0.0
  0
MTEXT
  5
8C24
330
8C1C
100
AcDbEntity
  8
0
100
AcDbMText
 10
14.9123557742306
 20
9.242195149376016
 30
0.0
 40
6.0
 41
0.0
 71
     1
 72
     5
  1
\Ftxt.shx,bigfont.shx|c128;日機株式会社
  7
LKK
 73
     1
 44
1.0
  0
LINE
  5
8C25
330
8C1C
100
AcDbEntity
  8
frame
100
AcDbLine
 10
0.0000002909664545
 20
12.00000009932671
 30
0.0
 11
190.0000002909664
 21
12.00000009932677
 31
0.0
  0
LINE
  5
8C26
330
8C1C
100
AcDbEntity
  8
frame
100
AcDbLine
 10
0.0000002909664545
 20
22.00000009932671
 30
0.0
 11
92.1212124121787
 21
22.00000009932671
 31
0.0
  0
LINE
  5
8C27
330
8C1C
100
AcDbEntity
  8
frame
100
AcDbLine
 10
0.0000002909664545
 20
32.00000009932671
 30
0.0
 11
190.0000002909664
 21
32.00000009932671
 31
0.0
  0
LINE
  5
8C28
330
8C1C
100
AcDbEntity
  8
frame
100
AcDbLine
 10
12.19077361590445
 20
32.00000009932671
 30
0.0
 11
12.19077361590445
 21
12.00000009932671
 31
0.0
  0
LINE
  5
8C29
330
8C1C
100
AcDbEntity
  8
frame
100
AcDbLine
 10
30.70707099803712
 20
32.00000009932671
 30
0.0
 11
30.70707099803724
 21
12.00000009932671
 31
0.0
  0
MTEXT
  5
8C2A
330
8C1C
100
AcDbEntity
  8
0
100
AcDbMText
 10
2.83027507518841
 20
29.08190099515503
 30
0.0
 40
4.5
 41
0.0
 71
     1
 72
     5
  1
\Ftxt.shx,bigfont.shx|c128;日 付
  7
JL
 73
     1
 44
1.0
  0
MTEXT
  5
8C2B
330
8C1C
100
AcDbEntity
  8
0
100
AcDbMText
 10
2.970633368405344
 20
19.52163852859309
 30
0.0
 40
4.5
 41
0.0
 71
     1
 72
     5
  1
\Ftxt.shx,bigfont.shx|c128;製 図
  7
JL
 73
     1
 44
1.0
  0
LINE
  5
8C2C
330
8C1C
100
AcDbEntity
  8
0
 62
     7
370
    25
100
AcDbLine
 10
53.045801733845
 20
23.81984619227268
 30
0.0
 11
53.045801733845
 21
28.93622349522593
 31
0.0
  0
MTEXT
  5
8C2D
330
8C1C
100
AcDbEntity
  8
0
100
AcDbMText
 10
64.00748881587481
 20
29.1224271372505
 30
0.0
 40
4.5
 41
0.0
 71
     1
 72
     5
  1
\Ftxt.shx,bigfont.shx|c128;尺 度
  7
JL
 73
     1
 44
1.0
  0
LINE
  5
8C2E
330
8C1C
100
AcDbEntity
  8
frame
100
AcDbLine
 10
61.41414170510791
 20
32.00000009932671
 30
0.0
 11
61.41414170510791
 21
12.00000009932671
 31
0.0
  0
LINE
  5
8C2F
330
8C1C
100
AcDbEntity
  8
0
 62
     7
370
    25
100
AcDbLine
 10
39.61531131359265
 20
23.18889028265306
 30
0.0
 11
39.61531131359265
 21
29.36458002362343
 31
0.0
  0
CIRCLE
  5
8C30
330
8C1C
100
AcDbEntity
  8
0
 62
     7
100
AcDbCircle
 10
39.61531131359265
 20
26.37803484374922
 30
0.0
 40
2.558188651476678
  0
LINE
  5
8C31
330
8C1C
100
AcDbEntity
  8
0
 62
     7
370
    25
100
AcDbLine
 10
47.19322016016621
 20
26.37803484374933
 30
0.0
 11
53.50512610720887
 21
26.37803484374933
 31
0.0
  0
LINE
  5
8C32
330
8C1C
100
AcDbEntity
  8
0
 62
     7
100
AcDbLine
 10
47.9294244308918
 20
25.09894051801098
 30
0.0
 11
53.045801733845
 21
23.81984619227268
 31
0.0
  0
LINE
  5
8C33
330
8C1C
100
AcDbEntity
  8
frame
100
AcDbLine
 10
42.74224225091745
 20
22.00000009932671
 30
0.0
 11
42.74224225091745
 21
12.00000009932671
 31
0.0
  0
LINE
  5
8C34
330
8C1C
100
AcDbEntity
  8
0
 62
     7
370
    25
100
AcDbLine
 10
36.41832257583258
 20
26.37803484374922
 30
0.0
 11
43.00325296715914
 21
26.37803484374933
 31
0.0
  0
CIRCLE
  5
8C35
330
8C1C
100
AcDbEntity
  8
0
 62
     7
100
AcDbCircle
 10
39.61531131359265
 20
26.37803484374922
 30
0.0
 40
1.279094325738339
  0
MTEXT
  5
8C36
330
8C1C
100
AcDbEntity
  8
0
100
AcDbMText
 10
33.70184061559053
 20
19.41013825717937
 30
0.0
 40
4.5
 41
0.0
 71
     1
 72
     5
  1
\Ftxt.shx,bigfont.shx|c128;検 図
  7
JL
 73
     1
 44
1.0
  0
LINE
  5
8C37
330
8C1C
100
AcDbEntity
  8
0
 62
     7
370
    25
100
AcDbLine
 10
47.9294244308918
 20
25.09894051801098
 30
0.0
 11
47.9294244308918
 21
27.65712916948757
 31
0.0
  0
MTEXT
  5
8C38
330
8C1C
100
AcDbEntity
  8
0
100
AcDbMText
 10
64.28820279016474
 20
19.32058544681552
 30
0.0
 40
4.5
 41
0.0
 71
     1
 72
     5
  1
\Ftxt.shx,bigfont.shx|c128;承 認
  7
JL
 73
     1
 44
1.0
  0
MTEXT
  5
8C39
330
8C1C
100
AcDbEntity
  8
0
100
AcDbMText
 10
93.71128744703344
 20
10.70268229551811
 30
0.0
 40
4.5
 41
0.0
 71
     1
 72
     5
  1
\Ftxt.shx,bigfont.shx|c128;図  面  番  号
  7
JL
 73
     1
 44
1.0
  0
MTEXT
  5
8C3A
330
8C1C
100
AcDbEntity
  8
0
 48
2.0
100
AcDbMText
 10
116.9038192931049
 20
21.87574741428512
 30
0.0
 40
4.5
 41
0.0
 71
     5
 72
     1
  1
\P\Ftxt.shx,bigfont.shx|c128;    精密ロックナット
 73
     1
 44
1.0
  0
MTEXT
  5
8C3B
330
8C1C
100
AcDbEntity
  8
0
100
AcDbMText
 10
94.80836159408966
 20
29.03862467905947
 30
0.0
 40
4.5
 41
0.0
 71
     1
 72
     5
  1
\Ftxt.shx,bigfont.shx|c128;品  名
  7
JL
 73
     1
 44
1.0
  0
LINE
  5
8C3C
330
8C1C
100
AcDbEntity
  8
frame
100
AcDbLine
 10
92.1212124121787
 20
32.00000009932671
 30
0.0
 11
92.1212124121787
 21
0.1833228572851908
 31
0.0
  0
LINE
  5
8C3D
330
8C1C
100
AcDbEntity
  8
frame
100
AcDbLine
 10
73.41414170510791
 20
32.00000009932671
 30
0.0
 11
73.41414170510791
 21
12.00000009932671
 31
0.0
  0
LINE
  5
8C3E
330
8C1C
100
AcDbEntity
  8
frame
100
AcDbLine
 10
147.032709565032
 20
32.00000009932671
 30
0.0
 11
147.0327095650322
 21
12.00000009932671
 31
0.0
  0
MTEXT
  5
8C3F
330
8C1C
100
AcDbEntity
  8
0
100
AcDbMText
 10
150.8959597377395
 20
29.04517792763062
 30
0.0
 40
4.5
 41
0.0
 71
     1
 72
     5
  1
\Ftxt.shx,bigfont.shx|c128;型  番
  7
JL
 73
     1
 44
1.0
  0
MTEXT
  5
8C40
330
8C1C
100
AcDbEntity
  8
0
100
AcDbMText
 10
165.805961771999
 20
10.78298184904236
 30
0.0
 40
4.5
 41
0.0
 71
     1
 72
     5
  1
\Ftxt.shx,bigfont.shx|c128;変更
  7
JL
 73
     1
 44
1.0
  0
LINE
  5
8C41
330
8C1C
100
AcDbEntity
  8
frame
100
AcDbLine
 10
164.0909093818757
 20
12.00000009932677
 30
0.0
 11
164.0909093818758
 21
0.0000000993267122
 31
0.0
  0
LINE
  5
8C42
330
8C1C
100
AcDbEntity
  8
frame
100
AcDbLine
 10
124.6157903696057
 20
43.13491358857163
 30
0.0
 11
184.6157903696057
 21
43.13491358857151
 31
0.0
  0
LINE
  5
8C43
330
8C1C
100
AcDbEntity
  8
frame
100
AcDbLine
 10
124.6157903696057
 20
50.33491358857168
 30
0.0
 11
184.6157903696057
 21
50.33491358857168
 31
0.0
  0
LINE
  5
8C44
330
8C1C
100
AcDbEntity
  8
frame
100
AcDbLine
 10
124.6157903696057
 20
57.53491358857161
 30
0.0
 11
184.6157903696057
 21
57.5349135885715
 31
0.0
  0
LINE
  5
8C45
330
8C1C
100
AcDbEntity
  8
frame
100
AcDbLine
 10
124.6157903696057
 20
64.73491358857166
 30
0.0
 11
184.6157903696057
 21
64.73491358857154
 31
0.0
  0
LINE
  5
8C46
330
8C1C
100
AcDbEntity
  8
frame
100
AcDbLine
 10
124.6157903696057
 20
35.93491358857159
 30
0.0
 11
184.6157903696057
 21
35.93491358857159
 31
0.0
  0
MTEXT
  5
8C47
330
8C1C
100
AcDbEntity
  8
0
 62
     7
 48
2.0
100
AcDbMText
 10
154.5011903354771
 20
65.5280819991558
 30
0.0
 40
4.8
 41
0.0
 71
     5
 72
     1
  1
\P\Ftxt.shx,bigfont.shx|c128;諸　　　　元
 73
     1
 44
1.0
  0
LINE
  5
8C48
330
8C1C
100
AcDbEntity
  8
frame
100
AcDbLine
 10
124.6157903696057
 20
64.73491358857154
 30
0.0
 11
124.6157903696057
 21
35.93491358857159
 31
0.0
  0
MTEXT
  5
8C49
330
8C1C
100
AcDbEntity
  8
0
100
AcDbMText
 10
128.1382261832859
 20
56.00840442145079
 30
0.0
 40
4.4
 41
163.916286842249
 71
     1
 72
     5
  1
\Ftxt.shx,bigfont.shx|c128;熱　処　理
  7
JL
 73
     1
 44
1.0
  0
LINE
  5
8C4A
330
8C1C
100
AcDbEntity
  8
frame
100
AcDbLine
 10
148.6157903696057
 20
57.5349135885715
 30
0.0
 11
148.6157903696057
 21
35.93491358857159
 31
0.0
  0
MTEXT
  5
8C4B
330
8C1C
100
AcDbEntity
  8
0
100
AcDbMText
 10
127.8579518159067
 20
49.00617597419068
 30
0.0
 40
4.4
 41
163.6058628849672
 71
     1
 72
     5
  1
\Ftxt.shx,bigfont.shx|c128;表 面 処 理
  7
JL
 73
     1
 44
1.0
  0
MTEXT
  5
8C4C
330
8C1C
100
AcDbEntity
  8
0
100
AcDbMText
 10
128.1480176643417
 20
41.71770312058277
 30
0.0
 40
4.4
 41
166.1718
 71
     1
 72
     5
  1
\Ftxt.shx,bigfont.shx|c128;等     　級
  7
JL
 73
     1
 44
1.0
  0
LINE
  5
8C4D
330
8C1C
100
AcDbEntity
  8
frame
100
AcDbLine
 10
184.6157903696057
 20
64.73491358857154
 30
0.0
 11
184.6157903696057
 21
35.9349135885717
 31
0.0
  0
MTEXT
  5
8C4E
330
8C1C
100
AcDbEntity
  8
0
100
AcDbMText
 10
153.3627936790483
 20
55.83344651404115
 30
0.0
 40
4.4
 41
291.8960056857887
 71
     1
 72
     5
  1
\Ftxt.shx,bigfont.shx|c128;調質　HRC30%%d%%p２%%d
  7
JL
 73
     1
 44
1.0
  0
MTEXT
  5
8C4F
330
8C1C
100
AcDbEntity
  8
0
100
AcDbMText
 10
153.6234326804847
 20
41.71831369203391
 30
0.0
 40
4.4
 41
290.783364796891
 71
     1
 72
     5
  1
\Ftxt.shx,bigfont.shx|c128;ＩＳＯ - ４Ｈ
  7
JL
 73
     1
 44
1.0
  0
MTEXT
  5
8C50
330
8C1C
100
AcDbEntity
  8
0
100
AcDbMText
 10
153.797893878615
 20
48.65328303723583
 30
0.0
 40
4.4
 41
291.4548
 71
     1
 72
     5
  1
\Ftxt.shx,bigfont.shx|c128;黒  　    染
  7
JL
 73
     1
 44
1.0
  0
MTEXT
  5
8C51
330
8C1C
100
AcDbEntity
  8
0
100
AcDbMText
 10
57.6363909043107
 20
260.9000584272741
 30
0.0
 40
5.0
 41
0.0
 71
     1
 72
     5
  1
{\Ftxt,bigfont|c128;M8X1.25P-8L}
  7
JL
 73
     1
 44
1.0
1001
ACAD
1000
ACAD_MTEXT_DEFINED_HEIGHT_BEGIN
1070
    46
1040
0.0
1000
ACAD_MTEXT_DEFINED_HEIGHT_END
  0
MTEXT
  5
8C52
330
8C1C
100
AcDbEntity
  8
0
100
AcDbMText
 10
57.6363909043107
 20
252.5660351855984
 30
0.0
 40
5.0
 41
0.0
 71
     1
 72
     5
  1
{\Ftxt,bigfont|c128;%%C7X5L}
  7
JL
 73
     1
 44
1.0
1001
ACAD
1000
ACAD_MTEXT_DEFINED_HEIGHT_BEGIN
1070
    46
1040
0.0
1000
ACAD_MTEXT_DEFINED_HEIGHT_END
  0
LINE
  5
8C53
330
8C1C
100
AcDbEntity
  8
frame
100
AcDbLine
 10
0.0000002909664545
 20
254.0000000993267
 30
0.0
 11
190.0000002909664
 21
254.0000000993267
 31
0.0
  0
LINE
  5
8C54
330
8C1C
100
AcDbEntity
  8
frame
100
AcDbLine
 10
0.0000002909664545
 20
262.0000000993267
 30
0.0
 11
190.0000002909664
 21
262.0000000993267
 31
0.0
  0
LINE
  5
8C55
330
8C1C
100
AcDbEntity
  8
frame
 62
     9
100
AcDbLine
 10
0.0000002909664545
 20
270.0000000993267
 30
0.0
 11
190.0000002909664
 21
270.0000000993267
 31
0.0
  0
MTEXT
  5
8C56
330
8C1C
100
AcDbEntity
  8
0
100
AcDbMText
 10
57.01564419700355
 20
277.4240561042308
 30
0.0
 40
5.0
 41
0.0
 71
     1
 72
     5
  1
\Ftxt.shx,bigfont.shx|c128;図    番 / 規　　格
  7
JL
 73
     1
 44
1.0
  0
LINE
  5
8C57
330
8C1C
100
AcDbEntity
  8
frame
100
AcDbLine
 10
0.0000002909664545
 20
254.0000000993267
 30
0.0
 11
190.0000002909664
 21
254.0000000993267
 31
0.0
  0
LINE
  5
8C58
330
8C1C
100
AcDbEntity
  8
frame
100
AcDbLine
 10
0.0000002909664545
 20
245.8933910868599
 30
0.0
 11
190.0000002909664
 21
245.8933910868599
 31
0.0
  0
MTEXT
  5
8C59
330
8C1C
100
AcDbEntity
  8
0
100
AcDbMText
 10
21.12488078020078
 20
277.463798238001
 30
0.0
 40
5.0
 41
0.0
 71
     1
 72
     5
  1
\Ftxt.shx,bigfont.shx|c128;品　          名
  7
JL
 73
     1
 44
1.0
  0
MTEXT
  5
8C5A
330
8C1C
100
AcDbEntity
  8
0
100
AcDbMText
 10
18.10281416206777
 20
260.7907238282378
 30
0.0
 40
5.0
 41
0.0
 71
     1
 72
     5
  1
\Ftxt.shx,bigfont.shx|c128;セットスクリュ-
  7
JL
 73
     1
 44
1.0
  0
MTEXT
  5
8C5B
330
8C1C
100
AcDbEntity
  8
0
100
AcDbMText
 10
17.91509509959803
 20
268.8361231276231
 30
0.0
 40
5.0
 41
0.0
 71
     1
 72
     5
  1
\Ftxt.shx,bigfont.shx|c128;ロックナット　  
  7
JL
 73
     1
 44
1.0
  0
MTEXT
  5
8C5C
330
8C1C
100
AcDbEntity
  8
0
100
AcDbMText
 10
18.10281416206777
 20
252.8510546007302
 30
0.0
 40
5.0
 41
0.0
 71
     1
 72
     5
  1
\Ftxt.shx,bigfont.shx|c128;ロックピン 
  7
JL
 73
     1
 44
1.0
  0
LINE
  5
8C5D
330
8C1C
100
AcDbEntity
  8
frame
 62
     9
100
AcDbLine
 10
14.39393968490583
 20
280.0000000993266
 30
0.0
 11
14.39393968490617
 21
245.8933910868599
 31
0.0
  0
LINE
  5
8C5E
330
8C1C
100
AcDbEntity
  8
frame
 62
     9
100
AcDbLine
 10
14.39393968490583
 20
280.0000000993266
 30
0.0
 11
14.39393968490583
 21
255.0505051498318
 31
0.0
  0
MTEXT
  5
8C5F
330
8C1C
100
AcDbEntity
  8
0
100
AcDbMText
 10
6.81500955898025
 20
268.7281675427388
 30
0.0
 40
5.0
 41
0.0
 71
     1
 72
     5
  1
\Ftxt.shx,bigfont.shx|c128;1
  7
JL
 73
     1
 44
1.0
  0
MTEXT
  5
8C60
330
8C1C
100
AcDbEntity
  8
0
100
AcDbMText
 10
2.11982836394668
 20
277.4734783632758
 30
0.0
 40
5.0
 41
0.0
 71
     1
 72
     5
  1
\Ftxt.shx,bigfont.shx|c128;照   号
  7
JL
 73
     1
 44
1.0
  0
LINE
  5
8C61
330
8C1C
100
AcDbEntity
  8
frame
 62
     9
100
AcDbLine
 10
52.77777806874428
 20
280.0000000993266
 30
0.0
 11
52.77777806874428
 21
245.8933910868599
 31
0.0
  0
MTEXT
  5
8C62
330
8C1C
100
AcDbEntity
  8
0
100
AcDbMText
 10
145.5736377282516
 20
277.6781664887461
 30
0.0
 40
5.0
 41
0.0
 71
     1
 72
     5
  1
\Ftxt.shx,bigfont.shx|c128;備           考
  7
JL
 73
     1
 44
1.0
  0
LINE
  5
8C63
330
8C1C
100
AcDbEntity
  8
frame
 62
     9
100
AcDbLine
 10
91.16161645258262
 20
280.0000000993267
 30
0.0
 11
91.16161645258262
 21
245.8933910868599
 31
0.0
  0
MTEXT
  5
8C64
330
8C1C
100
AcDbEntity
  8
0
100
AcDbMText
 10
92.87341118276016
 20
252.4309795454584
 30
0.0
 40
5.0
 41
0.0
 71
     1
 72
     5
  1
\Ftxt.shx,bigfont.shx|c128;C3604
  7
JL
 73
     1
 44
1.0
  0
MTEXT
  5
8C65
330
8C1C
100
AcDbEntity
  8
0
100
AcDbMText
 10
92.87341118276016
 20
268.8361231276231
 30
0.0
 40
5.0
 41
0.0
 71
     1
 72
     5
  1
\Ftxt.shx,bigfont.shx|c128;SCM-440
  7
JL
 73
     1
 44
1.0
  0
MTEXT
  5
8C66
330
8C1C
100
AcDbEntity
  8
0
100
AcDbMText
 10
92.87341118276016
 20
260.7650021119107
 30
0.0
 40
5.0
 41
0.0
 71
     1
 72
     5
  1
\Ftxt.shx,bigfont.shx|c128;SCM435
  7
JL
 73
     1
 44
1.0
  0
MTEXT
  5
8C67
330
8C1C
100
AcDbEntity
  8
0
100
AcDbMText
 10
95.76798892200839
 20
277.5645500476186
 30
0.0
 40
5.0
 41
0.0
 71
     1
 72
     5
  1
\Ftxt.shx,bigfont.shx|c128;材　質
  7
JL
 73
     1
 44
1.0
  0
LINE
  5
8C68
330
8C1C
100
AcDbEntity
  8
frame
 62
     9
100
AcDbLine
 10
110.3535356445019
 20
280.0000000993267
 30
0.0
 11
110.3535356445019
 21
245.8933910868599
 31
0.0
  0
LINE
  5
8C69
330
8C1C
100
AcDbEntity
  8
frame
100
AcDbLine
 10
124.7474750384411
 20
280.0000000993267
 30
0.0
 11
124.7474750384413
 21
245.8933910868599
 31
0.0
  0
MTEXT
  5
8C6A
330
8C1C
100
AcDbEntity
  8
0
100
AcDbMText
 10
116.5939073176548
 20
252.464298658326
 30
0.0
 40
5.0
 41
0.0
 71
     1
 72
     5
  1
\Ftxt.shx,bigfont.shx|c128;3
  7
JL
 73
     1
 44
1.0
  0
MTEXT
  5
8C6B
330
8C1C
100
AcDbEntity
  8
0
100
AcDbMText
 10
117.1685449125156
 20
269.0412712673199
 30
0.0
 40
5.0
 41
0.0
 71
     1
 72
     5
  1
\Ftxt.shx,bigfont.shx|c128;1
  7
JL
 73
     1
 44
1.0
  0
MTEXT
  5
8C6C
330
8C1C
100
AcDbEntity
  8
0
100
AcDbMText
 10
116.5939073176548
 20
260.5092291143947
 30
0.0
 40
5.0
 41
0.0
 71
     1
 72
     5
  1
\Ftxt.shx,bigfont.shx|c128;3
  7
JL
 73
     1
 44
1.0
  0
MTEXT
  5
8C6D
330
8C1C
100
AcDbEntity
  8
0
100
AcDbMText
 10
112.4223898828927
 20
277.5645500476186
 30
0.0
 40
5.0
 41
0.0
 71
     1
 72
     5
  1
\Ftxt.shx,bigfont.shx|c128;数   量
  7
JL
 73
     1
 44
1.0
  0
MTEXT
  5
8C6E
330
8C1C
100
AcDbEntity
  8
0
100
AcDbMText
 10
6.404019990022447
 20
260.7281675427388
 30
0.0
 40
5.0
 41
0.0
 71
     1
 72
     5
  1
{\Ftxt,bigfont|c128;2}
  7
JL
 73
     1
 44
1.0
1001
ACAD
1000
ACAD_MTEXT_DEFINED_HEIGHT_BEGIN
1070
    46
1040
0.0
1000
ACAD_MTEXT_DEFINED_HEIGHT_END
  0
MTEXT
  5
8C6F
330
8C1C
100
AcDbEntity
  8
0
100
AcDbMText
 10
6.404019990022447
 20
252.621558530272
 30
0.0
 40
5.0
 41
0.0
 71
     1
 72
     5
  1
{\Ftxt,bigfont|c128;3}
  7
JL
 73
     1
 44
1.0
1001
ACAD
1000
ACAD_MTEXT_DEFINED_HEIGHT_BEGIN
1070
    46
1040
0.0
1000
ACAD_MTEXT_DEFINED_HEIGHT_END
  0
ARC
  5
8C70
330
8C1C
100
AcDbEntity
  8
contour
100
AcDbCircle
 10
88.71071143220683
 20
186.7858745060351
 30
0.0
 40
52.5
100
AcDbArc
 50
184.3696273051341
 51
295.630372694869
  0
ARC
  5
8C71
330
8C1C
100
AcDbEntity
  8
contour
100
AcDbCircle
 10
88.71071143220683
 20
186.7858745060351
 30
0.0
 40
52.5
100
AcDbArc
 50
304.3696273051298
 51
55.63037269486748
  0
ARC
  5
8C72
330
8C1C
100
AcDbEntity
  8
contour
100
AcDbCircle
 10
88.71071143220683
 20
186.7858745060351
 30
0.0
 40
52.5
100
AcDbArc
 50
64.36962730513103
 51
175.6303726948658
  0
CIRCLE
  5
8C73
330
8C1C
100
AcDbEntity
  8
contour
100
AcDbCircle
 10
88.71071143220683
 20
186.7858745060351
 30
0.0
 40
48.0
  0
ARC
  5
8C74
330
8C1C
100
AcDbEntity
  8
contour
 62
     4
100
AcDbCircle
 10
88.71071143220683
 20
186.7858745060351
 30
0.0
 40
40.0
100
AcDbArc
 50
172.8192442185418
 51
97.18075578145816
  0
CIRCLE
  5
8C75
330
8C1C
100
AcDbEntity
  8
contour
100
AcDbCircle
 10
88.71071143220683
 20
186.7858745060351
 30
0.0
 40
38.9175
  0
CIRCLE
  5
8C76
330
8C1C
100
AcDbEntity
  8
contour
100
AcDbCircle
 10
88.71071143220683
 20
186.7858745060351
 30
0.0
 40
40.49999999999999
  0
LINE
  5
8C77
330
8C1C
100
AcDbEntity
  8
center
  6
CENTER
 48
0.5
100
AcDbLine
 10
34.21071143220684
 20
186.7858745060351
 30
0.0
 11
143.2107114322068
 21
186.7858745060351
 31
0.0
  0
LINE
  5
8C78
330
8C1C
100
AcDbEntity
  8
contour
100
AcDbLine
 10
36.36331417121591
 20
182.7858745060351
 30
0.0
 11
39.86331417121596
 21
182.7858745060351
 31
0.0
  0
LINE
  5
8C79
330
8C1C
100
AcDbEntity
  8
contour
100
AcDbLine
 10
36.36331417121591
 20
190.7858745060351
 30
0.0
 11
39.86331417121596
 21
190.7858745060351
 31
0.0
  0
LINE
  5
8C7A
330
8C1C
100
AcDbEntity
  8
contour
100
AcDbLine
 10
39.86331417121596
 20
190.7858745060352
 30
0.0
 11
39.86331417121596
 21
182.7858745060352
 31
0.0
  0
LINE
  5
8C7B
330
8C1C
100
AcDbEntity
  8
bowle
  6
HIDDEN
 48
0.2
100
AcDbLine
 10
141.0581086931977
 20
190.7858745060353
 30
0.0
 11
127.4221026013446
 21
190.7858745060353
 31
0.0
  0
LINE
  5
8C7C
330
8C1C
100
AcDbEntity
  8
bowle
  6
HIDDEN
 48
0.2
100
AcDbLine
 10
141.0581086931977
 20
182.7858745060352
 30
0.0
 11
127.4221026013447
 21
182.7858745060352
 31
0.0
  0
LINE
  5
8C7D
330
8C1C
100
AcDbEntity
  8
bowle
  6
HIDDEN
 48
0.2
100
AcDbLine
 10
141.1054091386542
 20
190.1093745060351
 30
0.0
 11
127.4860406248778
 21
190.1093745060352
 31
0.0
  0
LINE
  5
8C7E
330
8C1C
100
AcDbEntity
  8
bowle
  6
HIDDEN
 48
0.2
100
AcDbLine
 10
141.1054091386542
 20
183.4623745060352
 30
0.0
 11
127.4860406248778
 21
183.4623745060353
 31
0.0
  0
LINE
  5
8C7F
330
8C1C
100
AcDbEntity
  8
bowle
  6
HIDDEN
 48
0.2
100
AcDbLine
 10
59.07291118657354
 20
230.1200503560492
 30
0.0
 11
65.8909142325001
 21
218.310922674345
 31
0.0
  0
LINE
  5
8C80
330
8C1C
100
AcDbEntity
  8
bowle
  6
HIDDEN
 48
0.2
100
AcDbLine
 10
66.00111441684908
 20
234.1200503560492
 30
0.0
 11
72.81911746277557
 21
222.310922674345
 31
0.0
  0
LINE
  5
8C81
330
8C1C
100
AcDbEntity
  8
bowle
  6
HIDDEN
 48
0.2
100
AcDbLine
 10
59.63512714950565
 20
230.4992637434249
 30
0.0
 11
66.44481140639368
 21
218.7045446269924
 31
0.0
  0
LINE
  5
8C82
330
8C1C
100
AcDbEntity
  8
bowle
  6
HIDDEN
 48
0.2
100
AcDbLine
 10
65.39159800846073
 20
233.8227637434248
 30
0.0
 11
72.20128226534882
 21
222.0280446269925
 31
0.0
  0
LINE
  5
8C83
330
8C1C
100
AcDbEntity
  8
bowle
  6
HIDDEN
 48
0.2
100
AcDbLine
 10
66.00111441684919
 20
139.451698656021
 30
0.0
 11
72.81911746277581
 21
151.2608263377252
 31
0.0
  0
LINE
  5
8C84
330
8C1C
100
AcDbEntity
  8
bowle
  6
HIDDEN
 48
0.2
100
AcDbLine
 10
59.07291118657372
 20
143.451698656021
 30
0.0
 11
65.89091423250028
 21
155.2608263377251
 31
0.0
  0
LINE
  5
8C85
330
8C1C
100
AcDbEntity
  8
bowle
  6
HIDDEN
 48
0.2
100
AcDbLine
 10
65.39159800846073
 20
139.7489852686455
 30
0.0
 11
72.20128226534905
 21
151.5437043850777
 31
0.0
  0
LINE
  5
8C86
330
8C1C
100
AcDbEntity
  8
bowle
  6
HIDDEN
 48
0.2
100
AcDbLine
 10
59.63512714950559
 20
143.0724852686455
 30
0.0
 11
66.44481140639391
 21
154.8672043850777
 31
0.0
  0
LINE
  5
8C87
330
8C1C
100
AcDbEntity
  8
center
 48
0.2
100
AcDbLine
 10
61.46071143220672
 20
233.984259012287
 30
0.0
 11
70.25196143220671
 21
218.7573673502472
 31
0.0
  0
LINE
  5
8C88
330
8C1C
100
AcDbEntity
  8
center
  6
CENTER
 48
0.5
100
AcDbLine
 10
88.71071143220683
 20
241.2858745060352
 30
0.0
 11
88.71071143220683
 21
132.2858745060351
 31
0.0
  0
LINE
  5
8C89
330
8C1C
100
AcDbEntity
  8
center
 48
0.2
100
AcDbLine
 10
61.46071143220672
 20
139.5874899997833
 30
0.0
 11
70.25196143220671
 21
154.8143816618232
 31
0.0
  0
HATCH
  5
8C8A
330
8C1C
100
AcDbEntity
  8
section
100
AcDbHatch
 10
0.0
 20
0.0
 30
0.0
210
0.0
220
0.0
230
1.0
  2
ANSI31
 70
     0
 71
     1
 91
       10
 92
        7
 72
     0
 73
     1
 93
        9
 10
48.71071143220678
 20
97.98758231737812
 10
48.21071143220684
 20
98.48758231737804
 10
48.21071143220684
 20
100.487582317378
 10
40.71071143220684
 20
100.487582317378
 10
40.71071143220684
 20
99.98758231737804
 10
39.86331417121596
 20
99.98758231737804
 10
39.86331417121591
 20
82.48758231737806
 10
47.79321143220681
 20
82.48758231737804
 10
48.71071143220683
 20
83.40508231737805
 97
        9
330
8C9B
330
8C9A
330
8C8B
330
8C91
330
8C92
330
8CA5
330
8C8E
330
8C98
330
8C99
 92
        7
 72
     0
 73
     1
 93
        4
 10
49.79321143220676
 20
96.90508231737814
 10
48.71071143220678
 20
97.98758231737812
 10
48.71071143220684
 20
83.40508231737805
 10
49.79321143220682
 20
84.48758231737803
 97
        4
330
8C9B
330
8C99
330
8C98
330
8C97
 92
        7
 72
     0
 73
     1
 93
        4
 10
128.7107114322068
 20
97.98758231737807
 10
127.6282114322068
 20
96.90508231737808
 10
127.6282114322068
 20
95.48758231737805
 10
128.7107114322068
 20
95.48758231737807
 97
        4
330
8CA1
330
8C9C
330
8CB3
330
8C9E
 92
        7
 72
     1
 73
     1
 93
        9
 10
141.2107114322068
 20
97.98758231737805
 42
0.4142135623730951
 10
139.2107114322068
 20
99.98758231737804
 42
0.0
 10
136.7107114322068
 20
99.98758231737804
 42
0.0
 10
136.7107114322068
 20
100.487582317378
 42
0.0
 10
129.2107114322068
 20
100.487582317378
 42
0.0
 10
129.2107114322068
 20
98.48758231737804
 42
0.0
 10
128.7107114322068
 20
97.98758231737807
 42
0.0
 10
128.7107114322068
 20
95.48758231737805
 42
0.0
 10
141.2107114322068
 20
95.48758231737805
 42
0.0
 97
        9
330
8C96
330
8C95
330
8C94
330
8C8B
330
8CA0
330
8CA1
330
8C9E
330
8CB3
330
8C8F
 92
        7
 72
     0
 73
     1
 93
        4
 10
128.7107114322068
 20
87.48758231737804
 10
127.6282114322068
 20
87.48758231737802
 10
127.6282114322068
 20
84.48758231737803
 10
128.7107114322068
 20
83.40508231737803
 97
        4
330
8CB4
330
8C9C
330
8C9D
330
8C9F
 92
        7
 72
     1
 73
     1
 93
        6
 10
141.2107114322068
 20
87.48758231737806
 42
0.0
 10
128.7107114322068
 20
87.487582317378
 42
0.0
 10
128.7107114322068
 20
83.40508231737807
 42
0.0
 10
129.6282114322068
 20
82.48758231737806
 42
0.0
 10
139.2107114322068
 20
82.48758231737804
 42
0.4142135623730951
 10
141.2107114322068
 20
84.48758231737803
 42
0.0
 97
        6
330
8CB4
330
8C9F
330
8C9D
330
8C8E
330
8C90
330
8C8F
 92
        7
 72
     0
 73
     1
 93
        6
 10
134.0342114322069
 20
88.16408231737796
 10
133.2107114322068
 20
88.16408231737796
 10
133.2107114322068
 20
87.98758231737805
 10
127.6282114322068
 20
87.98758231737805
 10
127.6282114322068
 20
87.48758231737804
 10
134.7107114322068
 20
87.48758231737806
 97
        5
330
8CC5
330
8CC3
330
8C9C
330
8CB4
330
8CB5
 92
        7
 72
     0
 73
     1
 93
        3
 10
141.2107114322068
 20
88.16408231737808
 10
140.0389790608865
 20
87.48758231737806
 10
141.2107114322068
 20
87.48758231737802
 97
        3
330
8CC1
330
8CB4
330
8C8F
 92
        7
 72
     0
 73
     1
 93
        3
 10
141.2107114322068
 20
95.48758231737805
 10
140.0389790608865
 20
95.48758231737805
 10
141.2107114322068
 20
94.81108231737803
 97
        3
330
8CB3
330
8CBF
330
8C8F
 92
        7
 72
     0
 73
     1
 93
        6
 10
134.7107114322068
 20
95.48758231737805
 10
127.6282114322068
 20
95.48758231737803
 10
127.6282114322068
 20
94.98758231737792
 10
133.2107114322068
 20
94.98758231737802
 10
133.2107114322068
 20
94.81108231737799
 10
134.0342114322068
 20
94.81108231737801
 97
        5
330
8CB3
330
8C9C
330
8CC3
330
8CC4
330
8CB5
 75
     0
 76
     1
 52
0.0
 41
0.5
 77
     0
 78
     1
 53
45.0
 43
0.0000002909664545
 44
0.0000000993267122
 45
-1.122532015133643
 46
1.122532015133644
 79
     0
 47
0.0442562223465128
 98
       10
 10
44.93538777628089
 20
91.13451365110904
 10
49.53988784567036
 20
93.15988224511455
 10
128.5046789479454
 20
96.72538695597564
 10
132.7486453788457
 20
97.17673634755966
 10
128.5031742696085
 20
85.69776071213244
 10
132.4231327756217
 20
85.50814243024513
 10
129.6337195942327
 20
87.66410392398119
 10
141.0110059332388
 20
87.66410392398119
 10
140.9224668315154
 20
95.36468691948732
 10
133.7507925313908
 20
95.27617456221253
1001
ACAD
1010
0.0
1020
0.0
1030
0.0
  0
LINE
  5
8C8B
102
{ACAD_REACTORS
330
8C8A
102
}
330
8C1C
100
AcDbEntity
  8
contour
100
AcDbLine
 10
136.7107114322068
 20
100.487582317378
 30
0.0
 11
40.71071143220684
 21
100.487582317378
 31
0.0
  0
LINE
  5
8C8C
330
8C1C
100
AcDbEntity
  8
contour
100
AcDbLine
 10
36.21071143220684
 20
97.98758231737805
 30
0.0
 11
36.21071143220684
 21
84.48758231737803
 31
0.0
  0
ARC
  5
8C8D
330
8C1C
100
AcDbEntity
  8
contour
100
AcDbCircle
 10
38.21071143220684
 20
84.48758231737803
 30
0.0
 40
2.0
100
AcDbArc
 50
180.0
 51
270.0
  0
LINE
  5
8C8E
102
{ACAD_REACTORS
330
8C8A
102
}
330
8C1C
100
AcDbEntity
  8
contour
100
AcDbLine
 10
38.21071143220684
 20
82.48758231737804
 30
0.0
 11
139.2107114322068
 21
82.48758231737804
 31
0.0
  0
LINE
  5
8C8F
102
{ACAD_REACTORS
330
8C8A
102
}
330
8C1C
100
AcDbEntity
  8
contour
100
AcDbLine
 10
141.2107114322068
 20
84.48758231737803
 30
0.0
 11
141.2107114322068
 21
97.98758231737805
 31
0.0
  0
ARC
  5
8C90
102
{ACAD_REACTORS
330
8C8A
102
}
330
8C1C
100
AcDbEntity
  8
contour
100
AcDbCircle
 10
139.2107114322068
 20
84.48758231737803
 30
0.0
 40
2.0
100
AcDbArc
 50
270.0
 51
0.0
  0
LINE
  5
8C91
102
{ACAD_REACTORS
330
8C8A
102
}
330
8C1C
100
AcDbEntity
  8
contour
100
AcDbLine
 10
40.71071143220684
 20
100.487582317378
 30
0.0
 11
40.71071143220684
 21
99.98758231737804
 31
0.0
  0
LINE
  5
8C92
102
{ACAD_REACTORS
330
8C8A
102
}
330
8C1C
100
AcDbEntity
  8
contour
100
AcDbLine
 10
40.71071143220684
 20
99.98758231737804
 30
0.0
 11
38.21071143220684
 21
99.98758231737804
 31
0.0
  0
ARC
  5
8C93
330
8C1C
100
AcDbEntity
  8
contour
100
AcDbCircle
 10
38.21071143220684
 20
97.98758231737805
 30
0.0
 40
2.0
100
AcDbArc
 50
90.0
 51
180.0
  0
LINE
  5
8C94
102
{ACAD_REACTORS
330
8C8A
102
}
330
8C1C
100
AcDbEntity
  8
contour
100
AcDbLine
 10
136.7107114322068
 20
100.487582317378
 30
0.0
 11
136.7107114322068
 21
99.98758231737804
 31
0.0
  0
LINE
  5
8C95
102
{ACAD_REACTORS
330
8C8A
102
}
330
8C1C
100
AcDbEntity
  8
contour
100
AcDbLine
 10
136.7107114322068
 20
99.98758231737804
 30
0.0
 11
139.2107114322068
 21
99.98758231737804
 31
0.0
  0
ARC
  5
8C96
102
{ACAD_REACTORS
330
8C8A
102
}
330
8C1C
100
AcDbEntity
  8
contour
100
AcDbCircle
 10
139.2107114322068
 20
97.98758231737805
 30
0.0
 40
2.0
100
AcDbArc
 50
0.0
 51
90.0
  0
LINE
  5
8C97
102
{ACAD_REACTORS
330
8C8A
102
}
330
8C1C
100
AcDbEntity
  8
contour
100
AcDbLine
 10
49.79321143220676
 20
96.90508231737807
 30
0.0
 11
49.79321143220682
 21
84.48758231737803
 31
0.0
  0
LINE
  5
8C98
102
{ACAD_REACTORS
330
8C8A
102
}
330
8C1C
100
AcDbEntity
  8
contour
100
AcDbLine
 10
47.79321143220681
 20
82.48758231737804
 30
0.0
 11
49.79321143220682
 21
84.48758231737803
 31
0.0
  0
LINE
  5
8C99
102
{ACAD_REACTORS
330
8C8A
102
}
330
8C1C
100
AcDbEntity
  8
contour
 62
     4
100
AcDbLine
 10
48.71071143220678
 20
97.98758231737805
 30
0.0
 11
48.71071143220683
 21
83.405082317378
 31
0.0
  0
LINE
  5
8C9A
102
{ACAD_REACTORS
330
8C8A
102
}
330
8C1C
100
AcDbEntity
  8
contour
100
AcDbLine
 10
48.21071143220684
 20
100.487582317378
 30
0.0
 11
48.21071143220684
 21
98.48758231737804
 31
0.0
  0
LINE
  5
8C9B
102
{ACAD_REACTORS
330
8C8A
102
}
330
8C1C
100
AcDbEntity
  8
contour
100
AcDbLine
 10
48.21071143220684
 20
98.48758231737804
 30
0.0
 11
49.79321143220682
 21
96.90508231737807
 31
0.0
  0
LINE
  5
8C9C
102
{ACAD_REACTORS
330
8C8A
102
}
330
8C1C
100
AcDbEntity
  8
contour
100
AcDbLine
 10
127.6282114322068
 20
96.90508231737807
 30
0.0
 11
127.6282114322068
 21
84.48758231737803
 31
0.0
  0
LINE
  5
8C9D
102
{ACAD_REACTORS
330
8C8A
102
}
330
8C1C
100
AcDbEntity
  8
contour
100
AcDbLine
 10
129.6282114322068
 20
82.48758231737804
 30
0.0
 11
127.6282114322068
 21
84.48758231737803
 31
0.0
  0
LINE
  5
8C9E
102
{ACAD_REACTORS
330
8C8A
102
}
330
8C1C
100
AcDbEntity
  8
contour
 62
     4
100
AcDbLine
 10
128.7107114322068
 20
97.98758231737805
 30
0.0
 11
128.7107114322068
 21
95.48758231737805
 31
0.0
  0
LINE
  5
8C9F
102
{ACAD_REACTORS
330
8C8A
102
}
330
8C1C
100
AcDbEntity
  8
contour
 62
     4
100
AcDbLine
 10
128.7107114322068
 20
87.48758231737804
 30
0.0
 11
128.7107114322068
 21
83.405082317378
 31
0.0
  0
LINE
  5
8CA0
102
{ACAD_REACTORS
330
8C8A
102
}
330
8C1C
100
AcDbEntity
  8
contour
100
AcDbLine
 10
129.2107114322068
 20
100.487582317378
 30
0.0
 11
129.2107114322068
 21
98.48758231737804
 31
0.0
  0
LINE
  5
8CA1
102
{ACAD_REACTORS
330
8C8A
102
}
330
8C1C
100
AcDbEntity
  8
contour
100
AcDbLine
 10
129.2107114322068
 20
98.48758231737804
 30
0.0
 11
127.6282114322068
 21
96.90508231737807
 31
0.0
  0
LINE
  5
8CA2
330
8C1C
100
AcDbEntity
  8
contour
100
AcDbLine
 10
49.79321143220676
 20
96.90508231737807
 30
0.0
 11
127.6282114322068
 21
96.90508231737773
 31
0.0
  0
LINE
  5
8CA3
330
8C1C
100
AcDbEntity
  8
contour
100
AcDbLine
 10
127.6282114322068
 20
84.48758231737803
 30
0.0
 11
49.79321143220682
 21
84.48758231737803
 31
0.0
  0
LINE
  5
8CA4
330
8C1C
100
AcDbEntity
  8
contour
100
AcDbLine
 10
48.21071143220684
 20
98.48758231737804
 30
0.0
 11
129.2107114322068
 21
98.48758231737804
 31
0.0
  0
LINE
  5
8CA5
102
{ACAD_REACTORS
330
8C8A
102
}
330
8C1C
100
AcDbEntity
  8
contour
100
AcDbLine
 10
39.86331417121596
 20
99.98758231737804
 30
0.0
 11
39.8633141712159
 21
82.48758231737804
 31
0.0
  0
LWPOLYLINE
  5
8CA6
330
8C1C
100
AcDbEntity
  8
dim
100
AcDbPolyline
 90
        7
 70
     1
 43
0.0
 10
104.8086653388695
 20
102.9875823173781
 10
113.468919376714
 20
102.9875823173781
 10
112.0255437037399
 20
100.487582317378
 10
110.5821680307658
 20
102.9875823173781
 10
109.1387923577918
 20
100.487582317378
 10
107.6954166848177
 20
102.9875823173781
 10
106.2520410118436
 20
100.487582317378
  0
MTEXT
  5
8CA7
330
8C1C
100
AcDbEntity
  8
mark
 62
     3
100
AcDbMText
 10
109.1594692757957
 20
105.0432587061309
 30
0.0
 40
2.5
 41
0.0
 71
     5
 72
     1
  1
G
 73
     1
 44
1.0
1001
ACAD
1000
ACAD_MTEXT_DEFINED_HEIGHT_BEGIN
1070
    46
1040
0.0
1000
ACAD_MTEXT_DEFINED_HEIGHT_END
  0
LINE
  5
8CA8
330
8C1C
100
AcDbEntity
  8
center
 48
0.3
100
AcDbLine
 10
88.71071143220683
 20
102.487582317378
 30
0.0
 11
88.71071143220683
 21
80.48758231737805
 31
0.0
  0
LINE
  5
8CA9
330
8C1C
100
AcDbEntity
  8
contour
100
AcDbLine
 10
118.34851167784
 20
143.451698656021
 30
0.0
 11
116.5985116778399
 21
146.4827875692666
 31
0.0
  0
LINE
  5
8CAA
330
8C1C
100
AcDbEntity
  8
contour
100
AcDbLine
 10
111.4203084475645
 20
139.451698656021
 30
0.0
 11
109.6703084475645
 21
142.4827875692666
 31
0.0
  0
LINE
  5
8CAB
330
8C1C
100
AcDbEntity
  8
contour
100
AcDbLine
 10
109.6703084475645
 20
142.4827875692666
 30
0.0
 11
116.5985116778399
 21
146.4827875692666
 31
0.0
  0
LINE
  5
8CAC
330
8C1C
100
AcDbEntity
  8
contour
100
AcDbLine
 10
111.4203084475646
 20
234.1200503560492
 30
0.0
 11
109.6703084475646
 21
231.0889614428037
 31
0.0
  0
LINE
  5
8CAD
330
8C1C
100
AcDbEntity
  8
contour
100
AcDbLine
 10
118.34851167784
 20
230.1200503560492
 30
0.0
 11
116.59851167784
 21
227.0889614428037
 31
0.0
  0
LINE
  5
8CAE
330
8C1C
100
AcDbEntity
  8
contour
100
AcDbLine
 10
116.5985116778402
 20
227.0889614428035
 30
0.0
 11
109.6703084475646
 21
231.0889614428037
 31
0.0
  0
DIMENSION
  5
8CAF
330
8C1C
100
AcDbEntity
  8
mark
100
AcDbDimension
  2
*D3
 10
129.2107114322068
 20
108.6787952177436
 30
0.0
 11
88.71071143220683
 21
110.7287952177436
 31
0.0
 12
0.0000002909664545
 22
0.0000000993267122
 32
0.0
  1
%%c81
 71
     5
 42
81.0
  3
STANDARD
100
AcDbAlignedDimension
 13
48.21071143220684
 23
100.487582317378
 33
0.0
 14
129.2107114322068
 24
100.487582317378
 34
0.0
100
AcDbRotatedDimension
  0
DIMENSION
  5
8CB0
330
8C1C
100
AcDbEntity
  8
mark
100
AcDbDimension
  2
*D4
 10
136.7107114322068
 20
114.5057449282502
 30
0.0
 11
88.71071143220683
 21
116.5557449282502
 31
0.0
 12
0.0000002909664545
 22
0.0000000993267122
 32
0.0
  1
%%c96%%p0.5
 71
     5
 42
96.0
  3
STANDARD
100
AcDbAlignedDimension
 13
40.71071143220684
 23
100.487582317378
 33
0.0
 14
136.7107114322068
 24
100.487582317378
 34
0.0
100
AcDbRotatedDimension
  0
DIMENSION
  5
8CB1
330
8C1C
100
AcDbEntity
  8
mark
100
AcDbDimension
  2
*D5
 10
141.2107114322068
 20
120.1933276843474
 30
0.0
 11
88.71071143220683
 21
122.2433276843474
 31
0.0
 12
0.0000002909664545
 22
0.0000000993267122
 32
0.0
  1
%%c105
 71
     5
 42
105.0
  3
STANDARD
100
AcDbAlignedDimension
 13
36.21071143220684
 23
97.98758231737805
 33
0.0
 14
141.2107114322068
 24
97.98758231737714
 34
0.0
100
AcDbRotatedDimension
  0
MTEXT
  5
8CB2
330
8C1C
100
AcDbEntity
  8
mark
 62
     3
100
AcDbMText
 10
93.783348505694
 20
124.1874816307392
 30
0.0
 40
1.25
 41
0.0
 71
     1
 72
     1
  1
+0\P-0.2
 73
     1
 44
1.0
1001
ACAD
1000
ACAD_MTEXT_DEFINED_HEIGHT_BEGIN
1070
    46
1040
0.0
1000
ACAD_MTEXT_DEFINED_HEIGHT_END
  0
LINE
  5
8CB3
102
{ACAD_REACTORS
330
8C8A
102
}
330
8C1C
100
AcDbEntity
  8
contour
 62
     4
100
AcDbLine
 10
141.2107114322069
 20
95.48758231737805
 30
0.0
 11
127.6282114322068
 21
95.48758231737805
 31
0.0
  0
LINE
  5
8CB4
102
{ACAD_REACTORS
330
8C8A
102
}
330
8C1C
100
AcDbEntity
  8
contour
 62
     4
100
AcDbLine
 10
141.210711432207
 20
87.48758231737804
 30
0.0
 11
127.6282114322068
 21
87.48758231737804
 31
0.0
  0
LWPOLYLINE
  5
8CB5
102
{ACAD_REACTORS
330
8C8A
102
}
330
8C1C
100
AcDbEntity
  8
contour
100
AcDbPolyline
 90
        6
 70
     0
 43
0.0
 10
134.7107114322068
 20
95.48758231737805
 10
134.7107114322068
 20
95.48758231737805
 10
133.2107114322068
 20
93.98758231737804
 10
133.2107114322068
 20
88.98758231737804
 10
134.7107114322068
 20
87.48758231737804
 10
134.7107114322068
 20
87.48758231737804
  0
LWPOLYLINE
  5
8CB6
330
8C1C
100
AcDbEntity
  8
contour
100
AcDbPolyline
 90
        2
 70
     0
 43
0.0
 10
141.2107114322068
 20
88.16408231737808
 10
141.2107114322068
 20
94.81108231737801
  0
LINE
  5
8CB7
330
8C1C
100
AcDbEntity
  8
contour
100
AcDbLine
 10
134.7107114322068
 20
95.48758231737805
 30
0.0
 11
134.7107114322068
 21
87.48758231737804
 31
0.0
  0
LINE
  5
8CB8
330
8C1C
100
AcDbEntity
  8
contour
100
AcDbLine
 10
138.7107114322068
 20
93.98758231737804
 30
0.0
 11
141.2107114322068
 21
93.98758231737804
 31
0.0
  0
LINE
  5
8CB9
330
8C1C
100
AcDbEntity
  8
contour
100
AcDbLine
 10
138.7107114322068
 20
88.98758231737804
 30
0.0
 11
141.2107114322068
 21
88.98758231737804
 31
0.0
  0
LINE
  5
8CBA
330
8C1C
100
AcDbEntity
  8
contour
100
AcDbLine
 10
138.7107114322068
 20
93.98758231737804
 30
0.0
 11
138.7107114322068
 21
88.98758231737804
 31
0.0
  0
LINE
  5
8CBB
330
8C1C
100
AcDbEntity
  8
contour
100
AcDbLine
 10
138.2107114322068
 20
91.48758231737804
 30
0.0
 11
138.7107114322068
 21
93.98758231737804
 31
0.0
  0
LINE
  5
8CBC
330
8C1C
100
AcDbEntity
  8
contour
100
AcDbLine
 10
138.2107114322068
 20
91.48758231737804
 30
0.0
 11
138.7107114322068
 21
88.98758231737804
 31
0.0
  0
LINE
  5
8CBD
330
8C1C
100
AcDbEntity
  8
contour
 62
     4
100
AcDbLine
 10
141.2107114322068
 20
94.81108231737801
 30
0.0
 11
134.0342114322068
 21
94.81108231737801
 31
0.0
  0
LINE
  5
8CBE
330
8C1C
100
AcDbEntity
  8
contour
 62
     4
100
AcDbLine
 10
141.2107114322068
 20
88.16408231737796
 30
0.0
 11
134.0342114322069
 21
88.16408231737796
 31
0.0
  0
LINE
  5
8CBF
102
{ACAD_REACTORS
330
8C8A
102
}
330
8C1C
100
AcDbEntity
  8
contour
100
AcDbLine
 10
141.2107114322068
 20
94.81108231737801
 30
0.0
 11
140.0389790608865
 21
95.48758231737805
 31
0.0
  0
LINE
  5
8CC0
330
8C1C
100
AcDbEntity
  8
contour
100
AcDbLine
 10
140.0389790608865
 20
95.48758231737805
 30
0.0
 11
140.0389790608865
 21
87.48758231737804
 31
0.0
  0
LINE
  5
8CC1
102
{ACAD_REACTORS
330
8C8A
102
}
330
8C1C
100
AcDbEntity
  8
contour
100
AcDbLine
 10
141.2107114322068
 20
88.16408231737808
 30
0.0
 11
140.0389790608865
 21
87.48758231737804
 31
0.0
  0
HATCH
  5
8CC2
330
8C1C
100
AcDbEntity
  8
section
100
AcDbHatch
 10
0.0
 20
0.0
 30
0.0
210
0.0
220
0.0
230
1.0
  2
AR-SAND
 70
     0
 71
     1
 91
        1
 92
        7
 72
     0
 73
     1
 93
        4
 10
127.6282114322068
 20
94.98758231737793
 10
127.6282114322068
 20
87.98758231737805
 10
133.2107114322068
 20
87.98758231737803
 10
133.2107114322068
 20
94.98758231737804
 97
        1
330
8CC3
 75
     0
 76
     1
 52
0.0
 41
0.02
 77
     0
 78
     4
 53
37.5
 43
-198.7125803488168
 44
121.5575855466644
 45
-0.0320006259196809
 46
0.9788264746586847
 79
     6
 49
0.0
 49
-0.7721600000000001
 49
0.0
 49
-0.8636000000000001
 49
0.0
 49
-0.8255
 53
7.499999999999999
 43
-198.7125803488168
 44
121.5575855466644
 45
0.8990465662760053
 46
1.433650201136708
 79
     6
 49
0.0
 49
-0.4165600000000001
 49
0.0
 49
-0.69596
 49
0.0
 49
-0.2667000000000001
 53
327.5
 43
-199.3374203488168
 44
121.5575855466644
 45
1.581984740482915
 46
0.0028743693570914
 79
     6
 49
0.0
 49
-0.254
 49
0.0
 49
-0.9144
 49
0.0
 49
-1.193799999999999
 53
317.5
 43
-199.3374203488168
 44
121.5575855466644
 45
1.527112904944594
 46
0.4458586465144325
 79
     6
 49
0.0
 49
-0.127
 49
0.0
 49
-0.59944
 49
0.0
 49
-0.6858
 47
0.0366952879874147
 98
        1
 10
131.0144927092856
 20
92.81270052849288
1001
ACAD
1010
0.0
1020
0.0
1030
0.0
  0
LWPOLYLINE
  5
8CC3
102
{ACAD_REACTORS
330
8CC2
330
8C8A
102
}
330
8C1C
100
AcDbEntity
  8
contour
100
AcDbPolyline
 90
        4
 70
     1
 43
0.0
 10
127.6282114322068
 20
94.98758231737793
 10
127.6282114322068
 20
87.98758231737805
 10
133.2107114322068
 20
87.98758231737805
 10
133.2107114322068
 20
94.98758231737804
  0
LINE
  5
8CC4
102
{ACAD_REACTORS
330
8C8A
102
}
330
8C1C
100
AcDbEntity
  8
contour
100
AcDbLine
 10
134.0342114322068
 20
94.81108231737801
 30
0.0
 11
133.2107114322068
 21
94.81108231737801
 31
0.0
  0
LINE
  5
8CC5
102
{ACAD_REACTORS
330
8C8A
102
}
330
8C1C
100
AcDbEntity
  8
contour
100
AcDbLine
 10
134.0342114322069
 20
88.16408231737796
 30
0.0
 11
133.2107114322068
 21
88.16408231737796
 31
0.0
  0
LINE
  5
8CC6
330
8C1C
100
AcDbEntity
  8
center
 48
0.2
100
AcDbLine
 10
125.6282114322068
 20
91.48758231737799
 30
0.0
 11
143.2107114322068
 21
91.48758231737804
 31
0.0
  0
DIMENSION
  5
8CC7
330
8C1C
100
AcDbEntity
  8
mark
100
AcDbDimension
  2
*D6
 10
28.23376355250855
 20
100.487582317378
 30
0.0
 11
26.18376355250854
 21
109.5792489840447
 31
0.0
 12
0.0000002909664545
 22
0.0000000993267122
 32
0.0
 71
     5
 42
0.5
  3
STANDARD
100
AcDbAlignedDimension
 13
38.21071143220684
 23
99.98758231737804
 33
0.0
 14
40.71071143220684
 24
100.487582317378
 34
0.0
 50
90.0
100
AcDbRotatedDimension
  0
DIMENSION
  5
8CC8
330
8C1C
100
AcDbEntity
  8
mark
100
AcDbDimension
  2
*D7
 10
28.23376355250855
 20
182.7858745060351
 30
0.0
 11
26.18376355250852
 21
186.7858745060351
 31
0.0
 12
0.0000002909664545
 22
0.0000000993267122
 32
0.0
 71
     5
 42
8.0
  3
STANDARD
100
AcDbAlignedDimension
 13
36.36331417121591
 23
190.7858745060351
 33
0.0
 14
36.36331417121591
 24
182.7858745060351
 34
0.0
 50
90.0
100
AcDbRotatedDimension
  0
MTEXT
  5
8CC9
330
8C1C
100
AcDbEntity
  8
mark
 62
     3
100
AcDbMText
 10
23.82463447975067
 20
188.2615681792293
 30
0.0
 40
1.25
 41
0.0
 71
     1
 72
     1
  1
+0.15\P+0
 11
0.0000000000000001
 21
1.0
 31
0.0
 73
     1
 44
1.0
1001
ACAD
1000
ACAD_MTEXT_DEFINED_HEIGHT_BEGIN
1070
    46
1040
0.0
1000
ACAD_MTEXT_DEFINED_HEIGHT_END
  0
MTEXT
  5
8CCA
330
8C1C
100
AcDbEntity
  8
mark
 62
     3
100
AcDbMText
 10
24.65796781308393
 20
193.5219651763151
 30
0.0
 40
2.5
 41
0.0
 71
     1
 72
     1
  1
({\Ftxt,bigfont|c128;三等分\Ftxt,bigfont|c136;)}
 11
0.0000000000000001
 21
1.0
 31
0.0
 73
     1
 44
1.0
1001
ACAD
1000
ACAD_MTEXT_DEFINED_HEIGHT_BEGIN
1070
    46
1040
0.0
1000
ACAD_MTEXT_DEFINED_HEIGHT_END
  0
MTEXT
  5
8CCB
330
8C1C
100
AcDbEntity
  8
mark
 62
     3
100
AcDbMText
 10
30.40176124513278
 20
133.9786548878082
 30
0.0
 40
1.25
 41
0.0
 71
     1
 72
     1
  1
+0.15\P+0
 73
     1
 44
1.0
1001
ACAD
1000
ACAD_MTEXT_DEFINED_HEIGHT_BEGIN
1070
    46
1040
0.0
1000
ACAD_MTEXT_DEFINED_HEIGHT_END
  0
DIMENSION
  5
8CCC
330
8C1C
100
AcDbEntity
  8
mark
100
AcDbDimension
  2
*D8
 10
36.36331417121591
 20
130.3123967613234
 30
0.0
 11
27.06331417121591
 21
132.3623967613234
 31
0.0
 12
0.0000002909664545
 22
0.0000000993267122
 32
0.0
 71
     5
 42
3.500000000000056
  3
STANDARD
100
AcDbAlignedDimension
 13
39.86331417121596
 23
182.7858745060351
 33
0.0
 14
36.36331417121591
 24
182.7858745060351
 34
0.0
100
AcDbRotatedDimension
  0
DIMENSION
  5
8CCD
330
8C1C
100
AcDbEntity
  8
mark
100
AcDbDimension
  2
*D9
 10
150.7049117949436
 20
91.48758231737804
 30
0.0
 11
148.6549117949436
 21
95.98758231737805
 31
0.0
 12
0.0000002909664545
 22
0.0000000993267122
 32
0.0
 71
     5
 42
9.0
  3
STANDARD
100
AcDbAlignedDimension
 13
136.7107114322068
 23
100.487582317378
 33
0.0
 14
143.2107114322068
 24
91.48758231737804
 34
0.0
 50
90.0
100
AcDbRotatedDimension
  0
DIMENSION
  5
8CCE
330
8C1C
100
AcDbEntity
  8
mark
100
AcDbDimension
  2
*D10
 10
159.9070570490181
 20
82.48758231737804
 30
0.0
 11
157.8570570490181
 21
91.48758231737806
 31
0.0
 12
0.0000002909664545
 22
0.0000000993267122
 32
0.0
  1
18%%p0.2
 71
     5
 42
18.0
  3
STANDARD
100
AcDbAlignedDimension
 13
136.7107114322068
 23
100.487582317378
 33
0.0
 14
139.2107114322068
 24
82.48758231737804
 34
0.0
 50
90.0
100
AcDbRotatedDimension
  0
LEADER
  5
8CCF
330
8C1C
100
AcDbEntity
  8
mark
100
AcDbLeader
  3
STANDARD
 76
     2
 10
128.6282114322068
 20
83.48758231737804
 30
0.0
 10
119.9595419483933
 20
74.81891283356333
 30
0.0
211
0.0000000000000001
221
-1.0
231
0.0
1001
ACAD
1000
DSTYLE
1002
{
1070
   147
1040
0.8
1070
    77
1070
     0
1002
}
  0
MTEXT
  5
8CD0
330
8C1C
100
AcDbEntity
  8
mark
 62
     3
100
AcDbMText
 10
120.8493303572697
 20
78.64316963259608
 30
0.0
 40
2.5
 41
0.0
 71
     5
 72
     1
  1
C2
 11
0.7071067811862683
 21
0.7071067811868267
 31
0.0
 73
     1
 44
1.0
1001
ACAD
1000
ACAD_MTEXT_DEFINED_HEIGHT_BEGIN
1070
    46
1040
0.0
1000
ACAD_MTEXT_DEFINED_HEIGHT_END
  0
DIMENSION
  5
8CD1
330
8C1C
100
AcDbEntity
  8
mark
100
AcDbDimension
  2
*D11
 10
38.21071143220644
 20
84.48758231737796
 30
0.0
 11
27.29769677589525
 21
76.47370546392934
 31
0.0
 12
0.0000002909664545
 22
0.0000000993267122
 32
0.0
 70
     4
  1
2-R2
 71
     5
 42
1.999999999999687
  3
STANDARD
100
AcDbRadialDimension
 15
36.79649786983373
 25
83.07336875500494
 35
0.0
 40
0.0
1001
ACAD
1000
DSTYLE
1002
{
1070
   288
1070
     1
1002
}
  0
DIMENSION
  5
8CD2
330
8C1C
100
AcDbEntity
  8
mark
100
AcDbDimension
  2
*D12
 10
128.7107114322068
 20
69.28304550262328
 30
0.0
 11
88.71071143220683
 21
71.33304550262328
 31
0.0
 12
0.0000002909664545
 22
0.0000000993267122
 32
0.0
  1
M80X2.0P
 71
     5
 42
80.0
  3
STANDARD
100
AcDbAlignedDimension
 13
48.71071143220683
 23
83.405082317378
 33
0.0
 14
128.7107114322068
 24
83.405082317378
 34
0.0
100
AcDbRotatedDimension
  0
MTEXT
  5
8CD3
330
8C1C
100
AcDbEntity
  8
mark
 62
     3
100
AcDbMText
 10
148.9698878422163
 20
111.3381818633677
 30
0.0
 40
3.5
 41
0.0
 71
     5
 72
     1
  1
2
 73
     1
 44
1.0
1001
ACAD
1000
ACAD_MTEXT_DEFINED_HEIGHT_BEGIN
1070
    46
1040
0.0
1000
ACAD_MTEXT_DEFINED_HEIGHT_END
  0
LEADER
  5
8CD4
330
8C1C
100
AcDbEntity
  8
mark
100
AcDbLeader
  3
STANDARD
 76
     2
 10
141.2107114322069
 20
91.48758231737838
 30
0.0
 10
146.9753133692737
 20
109.5383069646885
 30
0.0
1001
ACAD
1000
DSTYLE
1002
{
1070
   147
1040
0.8
1070
    77
1070
     0
1002
}
  0
MTEXT
  5
8CD5
330
8C1C
100
AcDbEntity
  8
mark
 62
     3
100
AcDbMText
 10
148.7448878422162
 20
75.28040904097583
 30
0.0
 40
3.5
 41
0.0
 71
     5
 72
     1
  1
3
 73
     1
 44
1.0
1001
ACAD
1000
ACAD_MTEXT_DEFINED_HEIGHT_BEGIN
1070
    46
1040
0.0
1000
ACAD_MTEXT_DEFINED_HEIGHT_END
  0
LEADER
  5
8CD6
330
8C1C
100
AcDbEntity
  8
mark
100
AcDbLeader
  3
STANDARD
 76
     2
 10
130.4194614322068
 20
87.98758231737805
 30
0.0
 10
146.6739161220654
 20
75.5183776275199
 30
0.0
211
0.7071067811865476
221
0.7071067811865475
231
0.0
1001
ACAD
1000
DSTYLE
1002
{
1070
   147
1040
0.8
1070
    77
1070
     0
1002
}
  0
LEADER
  5
8CD7
330
8C1C
100
AcDbEntity
  8
mark
100
AcDbLeader
  3
STANDARD
 76
     2
 10
125.8601891431589
 20
223.8825900722882
 30
0.0
 10
144.0515150611827
 20
242.1430524085099
 30
0.0
211
0.8660254037844383
221
0.5000000000000004
231
0.0
1001
ACAD
1000
DSTYLE
1002
{
1070
   147
1040
0.8
1070
    77
1070
     0
1002
}
  0
MTEXT
  5
8CD8
330
8C1C
100
AcDbEntity
  8
mark
 62
     3
100
AcDbMText
 10
145.3130137805949
 20
242.5460328227309
 30
0.0
 40
3.5
 41
0.0
 71
     5
 72
     1
  1
1
 73
     1
 44
1.0
1001
ACAD
1000
ACAD_MTEXT_DEFINED_HEIGHT_BEGIN
1070
    46
1040
0.0
1000
ACAD_MTEXT_DEFINED_HEIGHT_END
  0
DIMENSION
  5
8CD9
330
8C1C
100
AcDbEntity
  8
mark
100
AcDbDimension
  2
*D13
 10
71.12887474312538
 20
98.48758231737804
 30
0.0
 11
69.07887474312535
 21
90.85424898404472
 31
0.0
 12
0.0000002909664545
 22
0.0000000993267122
 32
0.0
 71
     5
 42
2.0
  3
STANDARD
100
AcDbAlignedDimension
 13
71.12887474312538
 23
100.487582317378
 33
0.0
 14
71.12887474312538
 24
98.48758231737804
 34
0.0
 50
90.0
100
AcDbRotatedDimension
  0
LINE
  5
8CDA
330
8C1C
100
AcDbEntity
  8
mark
100
AcDbLine
 10
48.71071143220683
 20
68.48304550262326
 30
0.0
 11
48.71071143220683
 21
59.73304550262326
 31
0.0
  0
INSERT
  5
8CDB
330
8C1C
100
AcDbEntity
  8
mark
100
AcDbBlockReference
  2
A
 10
44.63144342806026
 20
64.12419060440583
 30
0.0
  0
TOLERANCE
  5
8CDC
330
8C1C
100
AcDbEntity
  8
mark
100
AcDbFcf
  3
STANDARD
 10
164.9070570490181
 20
110.487582317378
 30
0.0
  1
{\Fgdt;h}%%v0.005%%v%%vA%%v%%v
1001
ACAD
1000
DSTYLE
1002
{
1070
    41
1040
2.5
1070
    42
1040
0.8
1070
    43
1040
6.0
1070
    44
1040
0.8
1070
    73
1070
     0
1070
    74
1070
     0
1070
    78
1070
     8
1070
    79
1070
     2
1070
   140
1040
2.5
1070
   141
1040
0.0
1070
   144
1040
1.0
1070
   147
1040
0.8
1070
   176
1070
   256
1070
   177
1070
   256
1070
   178
1070
     3
1070
   179
1070
     2
1070
   271
1070
     1
1070
   272
1070
     1
1070
   341
1005
8881
1070
   342
1005
8881
1002
}
  0
LWPOLYLINE
  5
8CDD
330
8C1C
100
AcDbEntity
  8
mark
100
AcDbPolyline
 90
        3
 70
     0
 43
0.0
 10
159.9070570490181
 20
100.487582317378
 10
159.9070570490181
 20
110.487582317378
 10
164.9070570490181
 20
110.487582317378
  0
ENDBLK
  5
8CE1
330
8C1C
100
AcDbEntity
  8
0
100
AcDbBlockEnd
  0
BLOCK
  5
96A6
330
969C
100
AcDbEntity
  8
0
100
AcDbBlockBegin
  2
*D15
 70
     1
 10
0.0
 20
0.0
 30
0.0
  3
*D15
  1

  0
LINE
  5
98C8
330
969C
100
AcDbEntity
  8
mark
370
    -2
100
AcDbLine
 10
350.0424047654342
 20
353.1020933385599
 30
0.0
 11
350.0424047654342
 21
361.5682852307783
 31
0.0
  0
LINE
  5
98C9
330
969C
100
AcDbEntity
  8
mark
370
    -2
100
AcDbLine
 10
436.0424047654341
 20
353.1020933385599
 30
0.0
 11
436.0424047654341
 21
361.5682852307783
 31
0.0
  0
LINE
  5
98CA
330
969C
100
AcDbEntity
  8
mark
370
    -2
100
AcDbLine
 10
352.5424047654342
 20
360.7682852307783
 30
0.0
 11
433.5424047654341
 21
360.7682852307783
 31
0.0
  0
INSERT
  5
98CB
330
969C
100
AcDbEntity
  8
mark
370
    -2
100
AcDbBlockReference
  2
_Open30
 10
350.0424047654342
 20
360.7682852307783
 30
0.0
 41
2.5
 42
2.5
 43
2.5
 50
180.0
  0
INSERT
  5
98CC
330
969C
100
AcDbEntity
  8
mark
370
    -2
100
AcDbBlockReference
  2
_Open30
 10
436.0424047654341
 20
360.7682852307783
 30
0.0
 41
2.5
 42
2.5
 43
2.5
  0
MTEXT
  5
98CD
330
969C
100
AcDbEntity
  8
mark
 62
     3
100
AcDbMText
 10
393.0424047654342
 20
362.8182852307783
 30
0.0
 40
2.5
 41
0.0
 71
     5
 72
     1
  1
\A1;%%c86
 73
     1
 44
1.0
  0
POINT
  5
98CE
330
969C
100
AcDbEntity
  8
DEFPOINTS
 62
     0
100
AcDbPoint
 10
350.0424047654342
 20
352.3020933385599
 30
0.0
  0
POINT
  5
98CF
330
969C
100
AcDbEntity
  8
DEFPOINTS
 62
     0
100
AcDbPoint
 10
436.0424047654341
 20
352.3020933385599
 30
0.0
  0
POINT
  5
98D0
330
969C
100
AcDbEntity
  8
DEFPOINTS
 62
     0
100
AcDbPoint
 10
436.0424047654341
 20
360.7682852307783
 30
0.0
  0
ENDBLK
  5
96A7
330
969C
100
AcDbEntity
  8
0
100
AcDbBlockEnd
  0
BLOCK
  5
96B3
330
96A9
100
AcDbEntity
  8
0
100
AcDbBlockBegin
  2
*D16
 70
     1
 10
0.0
 20
0.0
 30
0.0
  3
*D16
  1

  0
LINE
  5
98D1
330
96A9
100
AcDbEntity
  8
mark
370
    -2
100
AcDbLine
 10
445.0424047654341
 20
353.1020933385599
 30
0.0
 11
445.0424047654341
 21
367.6660033437404
 31
0.0
  0
LINE
  5
98D2
330
96A9
100
AcDbEntity
  8
mark
370
    -2
100
AcDbLine
 10
341.0424047654342
 20
353.1020933385599
 30
0.0
 11
341.0424047654342
 21
367.6660033437404
 31
0.0
  0
LINE
  5
98D3
330
96A9
100
AcDbEntity
  8
mark
370
    -2
100
AcDbLine
 10
442.5424047654342
 20
366.8660033437404
 30
0.0
 11
343.5424047654342
 21
366.8660033437404
 31
0.0
  0
INSERT
  5
98D4
330
96A9
100
AcDbEntity
  8
mark
370
    -2
100
AcDbBlockReference
  2
_Open30
 10
445.0424047654341
 20
366.8660033437404
 30
0.0
 41
2.5
 42
2.5
 43
2.5
  0
INSERT
  5
98D5
330
96A9
100
AcDbEntity
  8
mark
370
    -2
100
AcDbBlockReference
  2
_Open30
 10
341.0424047654342
 20
366.8660033437404
 30
0.0
 41
2.5
 42
2.5
 43
2.5
 50
180.0
  0
MTEXT
  5
98D6
330
96A9
100
AcDbEntity
  8
mark
 62
     3
100
AcDbMText
 10
393.0424047654342
 20
368.9160033437405
 30
0.0
 40
2.5
 41
0.0
 71
     5
 72
     1
  1
\A1;%%c104%%p0.5
 73
     1
 44
1.0
  0
POINT
  5
98D7
330
96A9
100
AcDbEntity
  8
DEFPOINTS
 62
     0
100
AcDbPoint
 10
445.0424047654341
 20
352.3020933385599
 30
0.0
  0
POINT
  5
98D8
330
96A9
100
AcDbEntity
  8
DEFPOINTS
 62
     0
100
AcDbPoint
 10
341.0424047654342
 20
352.3020933385599
 30
0.0
  0
POINT
  5
98D9
330
96A9
100
AcDbEntity
  8
DEFPOINTS
 62
     0
100
AcDbPoint
 10
341.0424047654342
 20
366.8660033437404
 30
0.0
  0
ENDBLK
  5
96B4
330
96A9
100
AcDbEntity
  8
0
100
AcDbBlockEnd
  0
BLOCK
  5
96C0
330
96B6
100
AcDbEntity
  8
0
100
AcDbBlockBegin
  2
*D17
 70
     1
 10
0.0
 20
0.0
 30
0.0
  3
*D17
  1

  0
LINE
  5
98DA
330
96B6
100
AcDbEntity
  8
mark
370
    -2
100
AcDbLine
 10
337.0424047654342
 20
350.6020933385599
 30
0.0
 11
337.0424047654342
 21
374.1418310003851
 31
0.0
  0
LINE
  5
98DB
330
96B6
100
AcDbEntity
  8
mark
370
    -2
100
AcDbLine
 10
449.0424047654342
 20
350.6020933385594
 30
0.0
 11
449.0424047654342
 21
374.1418310003851
 31
0.0
  0
LINE
  5
98DC
330
96B6
100
AcDbEntity
  8
mark
370
    -2
100
AcDbLine
 10
339.5424047654342
 20
373.3418310003851
 30
0.0
 11
446.5424047654342
 21
373.3418310003851
 31
0.0
  0
INSERT
  5
98DD
330
96B6
100
AcDbEntity
  8
mark
370
    -2
100
AcDbBlockReference
  2
_Open30
 10
337.0424047654342
 20
373.3418310003851
 30
0.0
 41
2.5
 42
2.5
 43
2.5
 50
180.0
  0
INSERT
  5
98DE
330
96B6
100
AcDbEntity
  8
mark
370
    -2
100
AcDbBlockReference
  2
_Open30
 10
449.0424047654342
 20
373.3418310003851
 30
0.0
 41
2.5
 42
2.5
 43
2.5
  0
MTEXT
  5
98DF
330
96B6
100
AcDbEntity
  8
mark
 62
     3
100
AcDbMText
 10
393.0424047654342
 20
375.3918310003852
 30
0.0
 40
2.5
 41
0.0
 71
     5
 72
     1
  1
\A1;%%c112
 73
     1
 44
1.0
  0
POINT
  5
98E0
330
96B6
100
AcDbEntity
  8
DEFPOINTS
 62
     0
100
AcDbPoint
 10
337.0424047654342
 20
349.8020933385599
 30
0.0
  0
POINT
  5
98E1
330
96B6
100
AcDbEntity
  8
DEFPOINTS
 62
     0
100
AcDbPoint
 10
449.0424047654342
 20
349.8020933385594
 30
0.0
  0
POINT
  5
98E2
330
96B6
100
AcDbEntity
  8
DEFPOINTS
 62
     0
100
AcDbPoint
 10
449.0424047654342
 20
373.3418310003851
 30
0.0
  0
ENDBLK
  5
96C1
330
96B6
100
AcDbEntity
  8
0
100
AcDbBlockEnd
  0
BLOCK
  5
96CF
330
96C3
100
AcDbEntity
  8
0
100
AcDbBlockBegin
  2
*D18
 70
     1
 10
0.0
 20
0.0
 30
0.0
  3
*D18
  1

  0
LINE
  5
98E3
330
96C3
100
AcDbEntity
  8
mark
370
    -2
100
AcDbLine
 10
338.2424047654342
 20
351.8020933385599
 30
0.0
 11
325.8906898776324
 21
351.8020933385599
 31
0.0
  0
LINE
  5
98E4
330
96C3
100
AcDbEntity
  8
mark
370
    -2
100
AcDbLine
 10
340.2424047654342
 20
352.3020933385599
 30
0.0
 11
325.8906898776324
 21
352.3020933385599
 31
0.0
  0
LINE
  5
98E5
330
96C3
100
AcDbEntity
  8
mark
370
    -2
100
AcDbLine
 10
326.6906898776324
 20
349.3020933385599
 30
0.0
 11
326.6906898776324
 21
346.8020933385599
 31
0.0
  0
LINE
  5
98E6
330
96C3
100
AcDbEntity
  8
mark
370
    -2
100
AcDbLine
 10
326.6906898776324
 20
354.8020933385599
 30
0.0
 11
326.6906898776324
 21
363.4854266718932
 31
0.0
  0
LINE
  5
98E7
330
96C3
100
AcDbEntity
  8
mark
370
    -2
100
AcDbLine
 10
326.6906898776324
 20
351.8020933385599
 30
0.0
 11
326.6906898776324
 21
352.3020933385599
 31
0.0
  0
INSERT
  5
98E8
330
96C3
100
AcDbEntity
  8
mark
370
    -2
100
AcDbBlockReference
  2
_Open30
 10
326.6906898776324
 20
351.8020933385599
 30
0.0
 41
2.5
 42
2.5
 43
2.5
 50
90.0
  0
INSERT
  5
98E9
330
96C3
100
AcDbEntity
  8
mark
370
    -2
100
AcDbBlockReference
  2
_Open30
 10
326.6906898776324
 20
352.3020933385599
 30
0.0
 41
2.5
 42
2.5
 43
2.5
 50
270.0
  0
MTEXT
  5
98EA
330
96C3
100
AcDbEntity
  8
mark
 62
     3
100
AcDbMText
 10
324.6406898776323
 20
360.3937600052266
 30
0.0
 40
2.5
 41
0.0
 71
     5
 72
     1
  1
\A1;0.5
 11
0.0000000000000001
 21
1.0
 31
0.0
 73
     1
 44
1.0
  0
POINT
  5
98EB
330
96C3
100
AcDbEntity
  8
DEFPOINTS
 62
     0
100
AcDbPoint
 10
339.0424047654342
 20
351.8020933385599
 30
0.0
  0
POINT
  5
98EC
330
96C3
100
AcDbEntity
  8
DEFPOINTS
 62
     0
100
AcDbPoint
 10
341.0424047654342
 20
352.3020933385599
 30
0.0
  0
POINT
  5
98ED
330
96C3
100
AcDbEntity
  8
DEFPOINTS
 62
     0
100
AcDbPoint
 10
326.6906898776324
 20
352.3020933385599
 30
0.0
  0
ENDBLK
  5
96D0
330
96C3
100
AcDbEntity
  8
0
100
AcDbBlockEnd
  0
BLOCK
  5
96DD
330
96D3
100
AcDbEntity
  8
0
100
AcDbBlockBegin
  2
*D19
 70
     1
 10
0.0
 20
0.0
 30
0.0
  3
*D19
  1

  0
LINE
  5
991B
330
96D3
100
AcDbEntity
  8
mark
370
    -2
100
AcDbLine
 10
336.3854445903584
 20
443.8130017652992
 30
0.0
 11
325.8906898776324
 21
443.8130017652992
 31
0.0
  0
LINE
  5
991C
330
96D3
100
AcDbEntity
  8
mark
370
    -2
100
AcDbLine
 10
336.3854445903584
 20
435.8130017652992
 30
0.0
 11
325.8906898776324
 21
435.8130017652992
 31
0.0
  0
LINE
  5
991D
330
96D3
100
AcDbEntity
  8
mark
370
    -2
100
AcDbLine
 10
326.6906898776324
 20
441.3130017652991
 30
0.0
 11
326.6906898776324
 21
438.3130017652992
 31
0.0
  0
INSERT
  5
991E
330
96D3
100
AcDbEntity
  8
mark
370
    -2
100
AcDbBlockReference
  2
_Open30
 10
326.6906898776324
 20
443.8130017652992
 30
0.0
 41
2.5
 42
2.5
 43
2.5
 50
90.0
  0
INSERT
  5
991F
330
96D3
100
AcDbEntity
  8
mark
370
    -2
100
AcDbBlockReference
  2
_Open30
 10
326.6906898776324
 20
435.8130017652992
 30
0.0
 41
2.5
 42
2.5
 43
2.5
 50
270.0
  0
MTEXT
  5
9920
330
96D3
100
AcDbEntity
  8
mark
 62
     3
100
AcDbMText
 10
324.6406898776323
 20
439.8130017652992
 30
0.0
 40
2.5
 41
0.0
 71
     5
 72
     1
  1
\A1;8
 11
0.0000000000000001
 21
1.0
 31
0.0
 73
     1
 44
1.0
  0
POINT
  5
9921
330
96D3
100
AcDbEntity
  8
DEFPOINTS
 62
     0
100
AcDbPoint
 10
337.1854445903584
 20
443.8130017652992
 30
0.0
  0
POINT
  5
9922
330
96D3
100
AcDbEntity
  8
DEFPOINTS
 62
     0
100
AcDbPoint
 10
337.1854445903584
 20
435.8130017652992
 30
0.0
  0
POINT
  5
9923
330
96D3
100
AcDbEntity
  8
DEFPOINTS
 62
     0
100
AcDbPoint
 10
326.6906898776324
 20
435.8130017652992
 30
0.0
  0
ENDBLK
  5
96DE
330
96D3
100
AcDbEntity
  8
0
100
AcDbBlockEnd
  0
BLOCK
  5
96ED
330
96E1
100
AcDbEntity
  8
0
100
AcDbBlockBegin
  2
*D20
 70
     1
 10
0.0
 20
0.0
 30
0.0
  3
*D20
  1

  0
LINE
  5
9924
330
96E1
100
AcDbEntity
  8
mark
370
    -2
100
AcDbLine
 10
340.6854445903584
 20
435.0130017652992
 30
0.0
 11
340.6854445903584
 21
383.0130017652992
 31
0.0
  0
LINE
  5
9925
330
96E1
100
AcDbEntity
  8
mark
370
    -2
100
AcDbLine
 10
337.1854445903584
 20
435.0130017652992
 30
0.0
 11
337.1854445903584
 21
383.0130017652992
 31
0.0
  0
LINE
  5
9926
330
96E1
100
AcDbEntity
  8
mark
370
    -2
100
AcDbLine
 10
343.1854445903584
 20
383.8130017652992
 30
0.0
 11
345.6854445903584
 21
383.8130017652992
 31
0.0
  0
LINE
  5
9927
330
96E1
100
AcDbEntity
  8
mark
370
    -2
100
AcDbLine
 10
334.6854445903584
 20
383.8130017652992
 30
0.0
 11
325.5854445903584
 21
383.8130017652992
 31
0.0
  0
LINE
  5
9928
330
96E1
100
AcDbEntity
  8
mark
370
    -2
100
AcDbLine
 10
340.6854445903584
 20
383.8130017652992
 30
0.0
 11
337.1854445903584
 21
383.8130017652992
 31
0.0
  0
INSERT
  5
9929
330
96E1
100
AcDbEntity
  8
mark
370
    -2
100
AcDbBlockReference
  2
_Open30
 10
340.6854445903584
 20
383.8130017652992
 30
0.0
 41
2.5
 42
2.5
 43
2.5
 50
180.0
  0
INSERT
  5
992A
330
96E1
100
AcDbEntity
  8
mark
370
    -2
100
AcDbBlockReference
  2
_Open30
 10
337.1854445903584
 20
383.8130017652992
 30
0.0
 41
2.5
 42
2.5
 43
2.5
  0
MTEXT
  5
992B
330
96E1
100
AcDbEntity
  8
mark
 62
     3
100
AcDbMText
 10
328.8854445903584
 20
385.8630017652992
 30
0.0
 40
2.5
 41
0.0
 71
     5
 72
     1
  1
\A1;3.5
 73
     1
 44
1.0
  0
POINT
  5
992C
330
96E1
100
AcDbEntity
  8
DEFPOINTS
 62
     0
100
AcDbPoint
 10
340.6854445903584
 20
435.8130017652992
 30
0.0
  0
POINT
  5
992D
330
96E1
100
AcDbEntity
  8
DEFPOINTS
 62
     0
100
AcDbPoint
 10
337.1854445903584
 20
435.8130017652992
 30
0.0
  0
POINT
  5
992E
330
96E1
100
AcDbEntity
  8
DEFPOINTS
 62
     0
100
AcDbPoint
 10
337.1854445903584
 20
383.8130017652992
 30
0.0
  0
ENDBLK
  5
96EE
330
96E1
100
AcDbEntity
  8
0
100
AcDbBlockEnd
  0
BLOCK
  5
9709
330
9702
100
AcDbEntity
  8
0
100
AcDbBlockBegin
  2
*D21
 70
     1
 10
0.0
 20
0.0
 30
0.0
  3
*D21
  1

  0
LINE
  5
98EE
330
9702
100
AcDbEntity
  8
mark
370
    -2
100
AcDbLine
 10
326.4794742863521
 20
323.7391628594801
 30
0.0
 11
335.8604242500945
 21
333.1201128232206
 31
0.0
  0
MTEXT
  5
98EF
330
9702
100
AcDbEntity
  8
mark
 62
     3
100
AcDbMText
 10
328.8364968903078
 20
328.9953232662998
 30
0.0
 40
2.5
 41
0.0
 71
     5
 72
     1
  1
\A1;2-R2
 11
0.7071067811866186
 21
0.7071067811864764
 31
0.0
 73
     1
 44
1.0
  0
LINE
  5
98F0
330
9702
100
AcDbEntity
  8
mark
370
    -2
100
AcDbLine
 10
339.0424047654343
 20
336.3020933385596
 30
0.0
 11
337.6281912030611
 21
334.8878797761868
 31
0.0
  0
INSERT
  5
98F1
330
9702
100
AcDbEntity
  8
mark
370
    -2
100
AcDbBlockReference
  2
_Open30
 10
337.6281912030611
 20
334.8878797761868
 30
0.0
 41
2.5
 42
2.5
 43
2.5
 50
44.99999999999424
  0
POINT
  5
98F2
330
9702
100
AcDbEntity
  8
DEFPOINTS
 62
     0
100
AcDbPoint
 10
337.6281912030611
 20
334.8878797761868
 30
0.0
  0
POINT
  5
98F3
330
9702
100
AcDbEntity
  8
DEFPOINTS
 62
     0
100
AcDbPoint
 10
339.0424047654343
 20
336.3020933385596
 30
0.0
  0
ENDBLK
  5
970A
330
9702
100
AcDbEntity
  8
0
100
AcDbBlockEnd
  0
BLOCK
  5
971C
330
9712
100
AcDbEntity
  8
0
100
AcDbBlockBegin
  2
*D22
 70
     1
 10
0.0
 20
0.0
 30
0.0
  3
*D22
  1

  0
LINE
  5
98F4
330
9712
100
AcDbEntity
  8
mark
370
    -2
100
AcDbLine
 10
350.5424047654342
 20
334.4195933385599
 30
0.0
 11
350.5424047654342
 21
320.4046037173516
 31
0.0
  0
LINE
  5
98F5
330
9712
100
AcDbEntity
  8
mark
370
    -2
100
AcDbLine
 10
435.5424047654341
 20
334.4195933385599
 30
0.0
 11
435.5424047654341
 21
320.4046037173516
 31
0.0
  0
LINE
  5
98F6
330
9712
100
AcDbEntity
  8
mark
370
    -2
100
AcDbLine
 10
353.0424047654342
 20
321.2046037173516
 30
0.0
 11
433.0424047654341
 21
321.2046037173516
 31
0.0
  0
INSERT
  5
98F7
330
9712
100
AcDbEntity
  8
mark
370
    -2
100
AcDbBlockReference
  2
_Open30
 10
350.5424047654342
 20
321.2046037173516
 30
0.0
 41
2.5
 42
2.5
 43
2.5
 50
180.0
  0
INSERT
  5
98F8
330
9712
100
AcDbEntity
  8
mark
370
    -2
100
AcDbBlockReference
  2
_Open30
 10
435.5424047654341
 20
321.2046037173516
 30
0.0
 41
2.5
 42
2.5
 43
2.5
  0
MTEXT
  5
98F9
330
9712
100
AcDbEntity
  8
mark
 62
     3
100
AcDbMText
 10
393.0424047654342
 20
323.2546037173516
 30
0.0
 40
2.5
 41
0.0
 71
     5
 72
     1
  1
\A1;M85X2.0P
 73
     1
 44
1.0
  0
POINT
  5
98FA
330
9712
100
AcDbEntity
  8
DEFPOINTS
 62
     0
100
AcDbPoint
 10
350.5424047654342
 20
335.2195933385599
 30
0.0
  0
POINT
  5
98FB
330
9712
100
AcDbEntity
  8
DEFPOINTS
 62
     0
100
AcDbPoint
 10
435.5424047654341
 20
335.2195933385599
 30
0.0
  0
POINT
  5
98FC
330
9712
100
AcDbEntity
  8
DEFPOINTS
 62
     0
100
AcDbPoint
 10
435.5424047654341
 20
321.2046037173516
 30
0.0
  0
ENDBLK
  5
971D
330
9712
100
AcDbEntity
  8
0
100
AcDbBlockEnd
  0
BLOCK
  5
972F
330
9725
100
AcDbEntity
  8
0
100
AcDbBlockBegin
  2
*D23
 70
     1
 10
0.0
 20
0.0
 30
0.0
  3
*D23
  1

  0
LINE
  5
98FD
330
9725
100
AcDbEntity
  8
mark
370
    -2
100
AcDbLine
 10
451.8424047654342
 20
343.3020933385599
 30
0.0
 11
460.5464882740641
 21
343.3020933385599
 31
0.0
  0
LINE
  5
98FE
330
9725
100
AcDbEntity
  8
mark
370
    -2
100
AcDbLine
 10
445.8424047654341
 20
352.3020933385599
 30
0.0
 11
460.5464882740641
 21
352.3020933385599
 31
0.0
  0
LINE
  5
98FF
330
9725
100
AcDbEntity
  8
mark
370
    -2
100
AcDbLine
 10
459.7464882740641
 20
345.8020933385599
 30
0.0
 11
459.7464882740641
 21
349.8020933385599
 31
0.0
  0
INSERT
  5
9900
330
9725
100
AcDbEntity
  8
mark
370
    -2
100
AcDbBlockReference
  2
_Open30
 10
459.7464882740641
 20
343.3020933385599
 30
0.0
 41
2.5
 42
2.5
 43
2.5
 50
270.0
  0
INSERT
  5
9901
330
9725
100
AcDbEntity
  8
mark
370
    -2
100
AcDbBlockReference
  2
_Open30
 10
459.7464882740641
 20
352.3020933385599
 30
0.0
 41
2.5
 42
2.5
 43
2.5
 50
90.0
  0
MTEXT
  5
9902
330
9725
100
AcDbEntity
  8
mark
 62
     3
100
AcDbMText
 10
457.696488274064
 20
347.80209333856
 30
0.0
 40
2.5
 41
0.0
 71
     5
 72
     1
  1
\A1;9
 11
0.0000000000000001
 21
1.0
 31
0.0
 73
     1
 44
1.0
  0
POINT
  5
9903
330
9725
100
AcDbEntity
  8
DEFPOINTS
 62
     0
100
AcDbPoint
 10
451.0424047654342
 20
343.3020933385599
 30
0.0
  0
POINT
  5
9904
330
9725
100
AcDbEntity
  8
DEFPOINTS
 62
     0
100
AcDbPoint
 10
445.0424047654341
 20
352.3020933385599
 30
0.0
  0
POINT
  5
9905
330
9725
100
AcDbEntity
  8
DEFPOINTS
 62
     0
100
AcDbPoint
 10
459.7464882740641
 20
352.3020933385599
 30
0.0
  0
ENDBLK
  5
9730
330
9725
100
AcDbEntity
  8
0
100
AcDbBlockEnd
  0
BLOCK
  5
973C
330
9732
100
AcDbEntity
  8
0
100
AcDbBlockBegin
  2
*D24
 70
     1
 10
0.0
 20
0.0
 30
0.0
  3
*D24
  1

  0
LINE
  5
9906
330
9732
100
AcDbEntity
  8
mark
370
    -2
100
AcDbLine
 10
447.8424047654342
 20
334.3020933385599
 30
0.0
 11
467.6268355070049
 21
334.3020933385599
 31
0.0
  0
LINE
  5
9907
330
9732
100
AcDbEntity
  8
mark
370
    -2
100
AcDbLine
 10
445.8424047654341
 20
352.3020933385599
 30
0.0
 11
467.6268355070049
 21
352.3020933385599
 31
0.0
  0
LINE
  5
9908
330
9732
100
AcDbEntity
  8
mark
370
    -2
100
AcDbLine
 10
466.8268355070049
 20
336.8020933385599
 30
0.0
 11
466.8268355070049
 21
349.8020933385599
 31
0.0
  0
INSERT
  5
9909
330
9732
100
AcDbEntity
  8
mark
370
    -2
100
AcDbBlockReference
  2
_Open30
 10
466.8268355070049
 20
334.3020933385599
 30
0.0
 41
2.5
 42
2.5
 43
2.5
 50
270.0
  0
INSERT
  5
990A
330
9732
100
AcDbEntity
  8
mark
370
    -2
100
AcDbBlockReference
  2
_Open30
 10
466.8268355070049
 20
352.3020933385599
 30
0.0
 41
2.5
 42
2.5
 43
2.5
 50
90.0
  0
MTEXT
  5
990B
330
9732
100
AcDbEntity
  8
mark
 62
     3
100
AcDbMText
 10
464.7768355070049
 20
343.3020933385599
 30
0.0
 40
2.5
 41
0.0
 71
     5
 72
     1
  1
\A1;18%%P0.2
 11
0.0000000000000001
 21
1.0
 31
0.0
 73
     1
 44
1.0
  0
POINT
  5
990C
330
9732
100
AcDbEntity
  8
DEFPOINTS
 62
     0
100
AcDbPoint
 10
447.0424047654342
 20
334.3020933385599
 30
0.0
  0
POINT
  5
990D
330
9732
100
AcDbEntity
  8
DEFPOINTS
 62
     0
100
AcDbPoint
 10
445.0424047654341
 20
352.3020933385599
 30
0.0
  0
POINT
  5
990E
330
9732
100
AcDbEntity
  8
DEFPOINTS
 62
     0
100
AcDbPoint
 10
466.8268355070049
 20
352.3020933385599
 30
0.0
  0
ENDBLK
  5
973D
330
9732
100
AcDbEntity
  8
0
100
AcDbBlockEnd
  0
BLOCK
  5
9984
330
997A
100
AcDbEntity
  8
0
100
AcDbBlockBegin
  2
*D25
 70
     1
 10
0.0
 20
0.0
 30
0.0
  3
*D25
  1

  0
LINE
  5
9986
330
997A
100
AcDbEntity
  8
mark
370
    -2
100
AcDbLine
 10
373.8632380358533
 20
354.8020933385599
 30
0.0
 11
373.8632380358533
 21
357.3020933385599
 31
0.0
  0
LINE
  5
9987
330
997A
100
AcDbEntity
  8
mark
370
    -2
100
AcDbLine
 10
373.8632380358533
 20
347.8020933385599
 30
0.0
 11
373.8632380358533
 21
342.0354266718932
 31
0.0
  0
LINE
  5
9988
330
997A
100
AcDbEntity
  8
mark
370
    -2
100
AcDbLine
 10
373.8632380358533
 20
352.3020933385599
 30
0.0
 11
373.8632380358533
 21
350.3020933385599
 31
0.0
  0
INSERT
  5
9989
330
997A
100
AcDbEntity
  8
mark
370
    -2
100
AcDbBlockReference
  2
_Open30
 10
373.8632380358533
 20
352.3020933385599
 30
0.0
 41
2.5
 42
2.5
 43
2.5
 50
270.0
  0
INSERT
  5
998A
330
997A
100
AcDbEntity
  8
mark
370
    -2
100
AcDbBlockReference
  2
_Open30
 10
373.8632380358533
 20
350.3020933385599
 30
0.0
 41
2.5
 42
2.5
 43
2.5
 50
90.0
  0
MTEXT
  5
998B
330
997A
100
AcDbEntity
  8
mark
 62
     3
100
AcDbMText
 10
371.8132380358533
 20
343.6687600052266
 30
0.0
 40
2.5
 41
0.0
 71
     5
 72
     1
  1
\A1;2
 11
0.0000000000000001
 21
1.0
 31
0.0
 73
     1
 44
1.0
  0
POINT
  5
998C
330
997A
100
AcDbEntity
  8
DEFPOINTS
 62
     0
100
AcDbPoint
 10
373.8632380358533
 20
352.3020933385599
 30
0.0
  0
POINT
  5
998D
330
997A
100
AcDbEntity
  8
DEFPOINTS
 62
     0
100
AcDbPoint
 10
373.8632380358533
 20
350.3020933385599
 30
0.0
  0
POINT
  5
998E
330
997A
100
AcDbEntity
  8
DEFPOINTS
 62
     0
100
AcDbPoint
 10
373.8632380358533
 20
350.3020933385599
 30
0.0
  0
ENDBLK
  5
9985
330
997A
100
AcDbEntity
  8
0
100
AcDbBlockEnd
  0
ENDSEC
  0
SECTION
  2
ENTITIES
  0
MTEXT
  5
C0
330
18
100
AcDbEntity
  8
0
100
AcDbMText
 10
41.26970765600413
 20
233.6950877649332
 30
0.0
 40
2.5
 41
0.0
 71
     1
 72
     5
  1

  7
ISOCP3
 73
     1
 44
1.0
  0
LWPOLYLINE
  5
89E3
330
18
100
AcDbEntity
  8
frame
100
AcDbPolyline
 90
        4
 70
     1
 43
0.0
 10
495.0755501772419
 20
534.7294929877159
 10
305.0755501772419
 20
534.7294929877159
 10
305.0755501772419
 20
254.729492987716
 10
495.0755501772419
 20
254.729492987716
  0
MTEXT
  5
89E4
330
18
100
AcDbEntity
  8
0
100
AcDbMText
 10
322.1750538641336
 20
273.8055520038821
 30
0.0
 40
4.5
 41
0.0
 71
     1
 72
     5
  1
{\Ftxt,bigfont|c128;林彦旭}
  7
JL
 73
     1
 44
1.0
1001
ACAD
1000
ACAD_MTEXT_DEFINED_HEIGHT_BEGIN
1070
    46
1040
0.0
1000
ACAD_MTEXT_DEFINED_HEIGHT_END
  0
MTEXT
  5
89E5
330
18
100
AcDbEntity
  8
0
100
AcDbMText
 10
383.0284974695304
 20
283.6652827864227
 30
0.0
 40
4.5
 41
0.0
 71
     1
 72
     5
  1
\Ftxt.shx,bigfont.shx|c128;1 : 1
  7
JL
 73
     1
 44
1.0
  0
MTEXT
  5
89E6
330
18
100
AcDbEntity
  8
0
 48
2.0
370
    25
100
AcDbMText
 10
445.2950002238075
 20
258.2195146423499
 30
0.0
 40
4.5
 41
0.0
 71
     5
 72
     1
  1
{\Ftxt,bigfont|c128;N L 4 0 0 4 2}
 73
     1
 44
1.0
1001
ACAD
1000
ACAD_MTEXT_DEFINED_HEIGHT_BEGIN
1070
    46
1040
0.0
1000
ACAD_MTEXT_DEFINED_HEIGHT_END
  0
MTEXT
  5
89E7
330
18
100
AcDbEntity
  8
0
 48
2.0
100
AcDbMText
 10
476.0084501416749
 20
276.4938642659529
 30
0.0
 40
4.318181818181822
 41
0.0
 71
     5
 72
     1
  1
\P{\Ftxt,bigfont|c128;MR85X2.0P}
 73
     1
 44
1.0
1001
ACAD
1000
ACAD_MTEXT_DEFINED_HEIGHT_BEGIN
1070
    46
1040
0.0
1000
ACAD_MTEXT_DEFINED_HEIGHT_END
  0
MTEXT
  5
89E8
330
18
100
AcDbEntity
  8
0
100
AcDbMText
 10
320.4516178909193
 20
283.106896586063
 30
0.0
 40
4.5
 41
0.0
 71
     1
 72
     5
  1
{\Ftxt,bigfont|c128;06.06.15}
  7
JL
 73
     1
 44
1.0
1001
ACAD
1000
ACAD_MTEXT_DEFINED_HEIGHT_BEGIN
1070
    46
1040
0.0
1000
ACAD_MTEXT_DEFINED_HEIGHT_END
  0
LINE
  5
89E9
330
18
100
AcDbEntity
  8
0
 62
     7
 48
5.0
100
AcDbLine
 39
3.838383838383842
 10
353.0049743171673
 20
282.3866220578768
 30
0.0
 11
358.1213516201204
 21
283.6657163836152
 31
0.0
  0
MTEXT
  5
89EA
330
18
100
AcDbEntity
  8
0
100
AcDbMText
 10
319.987905660506
 20
263.9716880377652
 30
0.0
 40
6.0
 41
0.0
 71
     1
 72
     5
  1
\Ftxt.shx,bigfont.shx|c128;日機株式会社
  7
LKK
 73
     1
 44
1.0
  0
LINE
  5
89EB
330
18
100
AcDbEntity
  8
frame
100
AcDbLine
 10
305.0755501772419
 20
266.729492987716
 30
0.0
 11
495.0755501772419
 21
266.729492987716
 31
0.0
  0
LINE
  5
89EC
330
18
100
AcDbEntity
  8
frame
100
AcDbLine
 10
305.0755501772419
 20
276.7294929877159
 30
0.0
 11
397.1967622984541
 21
276.7294929877159
 31
0.0
  0
LINE
  5
89ED
330
18
100
AcDbEntity
  8
frame
100
AcDbLine
 10
305.0755501772419
 20
286.7294929877159
 30
0.0
 11
495.0755501772419
 21
286.7294929877159
 31
0.0
  0
LINE
  5
89EE
330
18
100
AcDbEntity
  8
frame
100
AcDbLine
 10
317.2663235021799
 20
286.7294929877159
 30
0.0
 11
317.2663235021799
 21
266.729492987716
 31
0.0
  0
LINE
  5
89EF
330
18
100
AcDbEntity
  8
frame
100
AcDbLine
 10
335.7826208843126
 20
286.7294929877159
 30
0.0
 11
335.7826208843127
 21
266.729492987716
 31
0.0
  0
MTEXT
  5
89F0
330
18
100
AcDbEntity
  8
0
100
AcDbMText
 10
307.9058249614639
 20
283.8113938835443
 30
0.0
 40
4.5
 41
0.0
 71
     1
 72
     5
  1
\Ftxt.shx,bigfont.shx|c128;日 付
  7
JL
 73
     1
 44
1.0
  0
MTEXT
  5
89F1
330
18
100
AcDbEntity
  8
0
100
AcDbMText
 10
308.0461832546808
 20
274.2511314169823
 30
0.0
 40
4.5
 41
0.0
 71
     1
 72
     5
  1
\Ftxt.shx,bigfont.shx|c128;製 図
  7
JL
 73
     1
 44
1.0
  0
LINE
  5
89F2
330
18
100
AcDbEntity
  8
0
 62
     7
370
    25
100
AcDbLine
 10
358.1213516201204
 20
278.5493390806619
 30
0.0
 11
358.1213516201204
 21
283.6657163836152
 31
0.0
  0
MTEXT
  5
89F3
330
18
100
AcDbEntity
  8
0
100
AcDbMText
 10
369.0830387021502
 20
283.8519200256397
 30
0.0
 40
4.5
 41
0.0
 71
     1
 72
     5
  1
\Ftxt.shx,bigfont.shx|c128;尺 度
  7
JL
 73
     1
 44
1.0
  0
LINE
  5
89F4
330
18
100
AcDbEntity
  8
frame
100
AcDbLine
 10
366.4896915913833
 20
286.7294929877159
 30
0.0
 11
366.4896915913833
 21
266.729492987716
 31
0.0
  0
LINE
  5
89F5
330
18
100
AcDbEntity
  8
0
 62
     7
370
    25
100
AcDbLine
 10
344.6908611998681
 20
277.9183831710423
 30
0.0
 11
344.6908611998681
 21
284.0940729120127
 31
0.0
  0
CIRCLE
  5
89F6
330
18
100
AcDbEntity
  8
0
 62
     7
100
AcDbCircle
 10
344.6908611998681
 20
281.1075277321385
 30
0.0
 40
2.558188651476678
  0
LINE
  5
89F7
330
18
100
AcDbEntity
  8
0
 62
     7
370
    25
100
AcDbLine
 10
352.2687700464417
 20
281.1075277321386
 30
0.0
 11
358.5806759934843
 21
281.1075277321386
 31
0.0
  0
LINE
  5
89F8
330
18
100
AcDbEntity
  8
0
 62
     7
100
AcDbLine
 10
353.0049743171673
 20
279.8284334064002
 30
0.0
 11
358.1213516201204
 21
278.5493390806619
 31
0.0
  0
LINE
  5
89F9
330
18
100
AcDbEntity
  8
frame
100
AcDbLine
 10
347.8177921371929
 20
276.7294929877159
 30
0.0
 11
347.8177921371929
 21
266.729492987716
 31
0.0
  0
LINE
  5
89FA
330
18
100
AcDbEntity
  8
0
 62
     7
370
    25
100
AcDbLine
 10
341.493872462108
 20
281.1075277321385
 30
0.0
 11
348.0788028534346
 21
281.1075277321386
 31
0.0
  0
CIRCLE
  5
89FB
330
18
100
AcDbEntity
  8
0
 62
     7
100
AcDbCircle
 10
344.6908611998681
 20
281.1075277321385
 30
0.0
 40
1.279094325738339
  0
MTEXT
  5
89FC
330
18
100
AcDbEntity
  8
0
100
AcDbMText
 10
338.777390501866
 20
274.1396311455686
 30
0.0
 40
4.5
 41
0.0
 71
     1
 72
     5
  1
\Ftxt.shx,bigfont.shx|c128;検 図
  7
JL
 73
     1
 44
1.0
  0
LINE
  5
89FD
330
18
100
AcDbEntity
  8
0
 62
     7
370
    25
100
AcDbLine
 10
353.0049743171673
 20
279.8284334064002
 30
0.0
 11
353.0049743171673
 21
282.3866220578768
 31
0.0
  0
MTEXT
  5
89FE
330
18
100
AcDbEntity
  8
0
100
AcDbMText
 10
369.3637526764402
 20
274.0500783352048
 30
0.0
 40
4.5
 41
0.0
 71
     1
 72
     5
  1
\Ftxt.shx,bigfont.shx|c128;承 認
  7
JL
 73
     1
 44
1.0
  0
MTEXT
  5
89FF
330
18
100
AcDbEntity
  8
0
100
AcDbMText
 10
398.7868373333089
 20
265.4321751839074
 30
0.0
 40
4.5
 41
0.0
 71
     1
 72
     5
  1
\Ftxt.shx,bigfont.shx|c128;図  面  番  号
  7
JL
 73
     1
 44
1.0
  0
MTEXT
  5
8A00
330
18
100
AcDbEntity
  8
0
 48
2.0
100
AcDbMText
 10
421.9793691793803
 20
276.6052403026744
 30
0.0
 40
4.5
 41
0.0
 71
     5
 72
     1
  1
\P\Ftxt.shx,bigfont.shx|c128;    精密ロックナット
 73
     1
 44
1.0
  0
MTEXT
  5
8A01
330
18
100
AcDbEntity
  8
0
100
AcDbMText
 10
399.8839114803651
 20
283.7681175674487
 30
0.0
 40
4.5
 41
0.0
 71
     1
 72
     5
  1
\Ftxt.shx,bigfont.shx|c128;品  名
  7
JL
 73
     1
 44
1.0
  0
LINE
  5
8A02
330
18
100
AcDbEntity
  8
frame
100
AcDbLine
 10
397.1967622984541
 20
286.7294929877159
 30
0.0
 11
397.1967622984541
 21
254.9128157456745
 31
0.0
  0
LINE
  5
8A03
330
18
100
AcDbEntity
  8
frame
100
AcDbLine
 10
378.4896915913833
 20
286.7294929877159
 30
0.0
 11
378.4896915913833
 21
266.729492987716
 31
0.0
  0
LINE
  5
8A04
330
18
100
AcDbEntity
  8
frame
100
AcDbLine
 10
452.1082594513075
 20
286.7294929877159
 30
0.0
 11
452.1082594513075
 21
266.729492987716
 31
0.0
  0
MTEXT
  5
8A05
330
18
100
AcDbEntity
  8
0
100
AcDbMText
 10
455.9715096240149
 20
283.7746708160199
 30
0.0
 40
4.5
 41
0.0
 71
     1
 72
     5
  1
\Ftxt.shx,bigfont.shx|c128;型  番
  7
JL
 73
     1
 44
1.0
  0
MTEXT
  5
8A06
330
18
100
AcDbEntity
  8
0
100
AcDbMText
 10
470.8815116582744
 20
265.5124747374316
 30
0.0
 40
4.5
 41
0.0
 71
     1
 72
     5
  1
\Ftxt.shx,bigfont.shx|c128;変更
  7
JL
 73
     1
 44
1.0
  0
LINE
  5
8A07
330
18
100
AcDbEntity
  8
frame
100
AcDbLine
 10
469.1664592681511
 20
266.729492987716
 30
0.0
 11
469.1664592681512
 21
254.729492987716
 31
0.0
  0
LINE
  5
8A08
330
18
100
AcDbEntity
  8
frame
100
AcDbLine
 10
429.6913402558812
 20
297.8644064769609
 30
0.0
 11
489.6913402558811
 21
297.8644064769607
 31
0.0
  0
LINE
  5
8A09
330
18
100
AcDbEntity
  8
frame
100
AcDbLine
 10
429.6913402558812
 20
305.0644064769609
 30
0.0
 11
489.6913402558811
 21
305.0644064769609
 31
0.0
  0
LINE
  5
8A0A
330
18
100
AcDbEntity
  8
frame
100
AcDbLine
 10
429.6913402558812
 20
312.2644064769608
 30
0.0
 11
489.6913402558811
 21
312.2644064769608
 31
0.0
  0
LINE
  5
8A0B
330
18
100
AcDbEntity
  8
frame
100
AcDbLine
 10
429.6913402558812
 20
319.4644064769609
 30
0.0
 11
489.6913402558811
 21
319.4644064769608
 31
0.0
  0
LINE
  5
8A0C
330
18
100
AcDbEntity
  8
frame
100
AcDbLine
 10
429.6913402558812
 20
290.6644064769608
 30
0.0
 11
489.6913402558811
 21
290.6644064769608
 31
0.0
  0
MTEXT
  5
8A0D
330
18
100
AcDbEntity
  8
0
 62
     7
 48
2.0
100
AcDbMText
 10
459.5767402217525
 20
320.257574887545
 30
0.0
 40
4.8
 41
0.0
 71
     5
 72
     1
  1
\P\Ftxt.shx,bigfont.shx|c128;諸　　　　元
 73
     1
 44
1.0
  0
LINE
  5
8A0E
330
18
100
AcDbEntity
  8
frame
100
AcDbLine
 10
429.6913402558812
 20
319.4644064769608
 30
0.0
 11
429.6913402558812
 21
290.6644064769608
 31
0.0
  0
MTEXT
  5
8A0F
330
18
100
AcDbEntity
  8
0
100
AcDbMText
 10
433.2137760695614
 20
310.73789730984
 30
0.0
 40
4.4
 41
163.916286842249
 71
     1
 72
     5
  1
\Ftxt.shx,bigfont.shx|c128;熱　処　理
  7
JL
 73
     1
 44
1.0
  0
LINE
  5
8A10
330
18
100
AcDbEntity
  8
frame
100
AcDbLine
 10
453.6913402558812
 20
312.2644064769608
 30
0.0
 11
453.6913402558812
 21
290.6644064769608
 31
0.0
  0
MTEXT
  5
8A11
330
18
100
AcDbEntity
  8
0
100
AcDbMText
 10
432.9335017021821
 20
303.7356688625799
 30
0.0
 40
4.4
 41
163.6058628849672
 71
     1
 72
     5
  1
\Ftxt.shx,bigfont.shx|c128;表 面 処 理
  7
JL
 73
     1
 44
1.0
  0
MTEXT
  5
8A12
330
18
100
AcDbEntity
  8
0
100
AcDbMText
 10
433.2235675506171
 20
296.447196008972
 30
0.0
 40
4.4
 41
166.1718
 71
     1
 72
     5
  1
\Ftxt.shx,bigfont.shx|c128;等     　級
  7
JL
 73
     1
 44
1.0
  0
LINE
  5
8A13
330
18
100
AcDbEntity
  8
frame
100
AcDbLine
 10
489.6913402558811
 20
319.4644064769608
 30
0.0
 11
489.6913402558811
 21
290.664406476961
 31
0.0
  0
MTEXT
  5
8A14
330
18
100
AcDbEntity
  8
0
100
AcDbMText
 10
458.4383435653237
 20
310.5629394024304
 30
0.0
 40
4.4
 41
291.8960056857887
 71
     1
 72
     5
  1
\Ftxt.shx,bigfont.shx|c128;調質　HRC30%%d%%p２%%d
  7
JL
 73
     1
 44
1.0
  0
MTEXT
  5
8A15
330
18
100
AcDbEntity
  8
0
100
AcDbMText
 10
458.6989825667601
 20
296.4478065804232
 30
0.0
 40
4.4
 41
290.783364796891
 71
     1
 72
     5
  1
\Ftxt.shx,bigfont.shx|c128;ＩＳＯ - ４Ｈ
  7
JL
 73
     1
 44
1.0
  0
MTEXT
  5
8A16
330
18
100
AcDbEntity
  8
0
100
AcDbMText
 10
458.8734437648904
 20
303.3827759256251
 30
0.0
 40
4.4
 41
291.4548
 71
     1
 72
     5
  1
\Ftxt.shx,bigfont.shx|c128;黒  　    染
  7
JL
 73
     1
 44
1.0
  0
MTEXT
  5
8A17
330
18
100
AcDbEntity
  8
0
100
AcDbMText
 10
362.7119407905861
 20
515.6295513156633
 30
0.0
 40
5.0
 41
0.0
 71
     1
 72
     5
  1
{\Ftxt,bigfont|c128;M8X1.25P-10L}
  7
JL
 73
     1
 44
1.0
1001
ACAD
1000
ACAD_MTEXT_DEFINED_HEIGHT_BEGIN
1070
    46
1040
0.0
1000
ACAD_MTEXT_DEFINED_HEIGHT_END
  0
MTEXT
  5
8A18
330
18
100
AcDbEntity
  8
0
100
AcDbMText
 10
362.7119407905861
 20
507.2955280739876
 30
0.0
 40
5.0
 41
0.0
 71
     1
 72
     5
  1
{\Ftxt,bigfont|c128;%%C7X5L}
  7
JL
 73
     1
 44
1.0
1001
ACAD
1000
ACAD_MTEXT_DEFINED_HEIGHT_BEGIN
1070
    46
1040
0.0
1000
ACAD_MTEXT_DEFINED_HEIGHT_END
  0
LINE
  5
8A19
330
18
100
AcDbEntity
  8
frame
100
AcDbLine
 10
305.0755501772419
 20
508.7294929877159
 30
0.0
 11
495.0755501772419
 21
508.7294929877159
 31
0.0
  0
LINE
  5
8A1A
330
18
100
AcDbEntity
  8
frame
100
AcDbLine
 10
305.0755501772419
 20
516.7294929877159
 30
0.0
 11
495.0755501772419
 21
516.7294929877159
 31
0.0
  0
LINE
  5
8A1B
330
18
100
AcDbEntity
  8
frame
 62
     9
100
AcDbLine
 10
305.0755501772419
 20
524.7294929877159
 30
0.0
 11
495.0755501772419
 21
524.7294929877159
 31
0.0
  0
MTEXT
  5
8A1C
330
18
100
AcDbEntity
  8
0
100
AcDbMText
 10
355.0580486714713
 20
532.1535489926199
 30
0.0
 40
5.0
 41
0.0
 71
     1
 72
     5
  1
\Ftxt.shx,bigfont.shx|c128;図    番 / 規　　格
  7
JL
 73
     1
 44
1.0
  0
LINE
  5
8A1D
330
18
100
AcDbEntity
  8
frame
100
AcDbLine
 10
305.0755501772419
 20
508.7294929877159
 30
0.0
 11
495.0755501772419
 21
508.7294929877159
 31
0.0
  0
LINE
  5
8A1E
330
18
100
AcDbEntity
  8
frame
100
AcDbLine
 10
305.0755501772419
 20
500.6228839752491
 30
0.0
 11
495.0755501772419
 21
500.6228839752491
 31
0.0
  0
MTEXT
  5
8A1F
330
18
100
AcDbEntity
  8
0
100
AcDbMText
 10
326.2004306664762
 20
532.1932911263902
 30
0.0
 40
5.0
 41
0.0
 71
     1
 72
     5
  1
\Ftxt.shx,bigfont.shx|c128;品　          名
  7
JL
 73
     1
 44
1.0
  0
MTEXT
  5
8A20
330
18
100
AcDbEntity
  8
0
100
AcDbMText
 10
323.1783640483432
 20
515.520216716627
 30
0.0
 40
5.0
 41
0.0
 71
     1
 72
     5
  1
\Ftxt.shx,bigfont.shx|c128;セットスクリュ-
  7
JL
 73
     1
 44
1.0
  0
MTEXT
  5
8A21
330
18
100
AcDbEntity
  8
0
100
AcDbMText
 10
322.9906449858735
 20
523.5656160160123
 30
0.0
 40
5.0
 41
0.0
 71
     1
 72
     5
  1
\Ftxt.shx,bigfont.shx|c128;ロックナット　  
  7
JL
 73
     1
 44
1.0
  0
MTEXT
  5
8A22
330
18
100
AcDbEntity
  8
0
100
AcDbMText
 10
323.1783640483432
 20
507.5805474891194
 30
0.0
 40
5.0
 41
0.0
 71
     1
 72
     5
  1
\Ftxt.shx,bigfont.shx|c128;ロックピン 
  7
JL
 73
     1
 44
1.0
  0
LINE
  5
8A23
330
18
100
AcDbEntity
  8
frame
 62
     9
100
AcDbLine
 10
319.4694895711813
 20
534.7294929877158
 30
0.0
 11
319.4694895711816
 21
500.6228839752491
 31
0.0
  0
LINE
  5
8A24
330
18
100
AcDbEntity
  8
frame
 62
     9
100
AcDbLine
 10
319.4694895711813
 20
534.7294929877158
 30
0.0
 11
319.4694895711813
 21
509.779998038221
 31
0.0
  0
MTEXT
  5
8A25
330
18
100
AcDbEntity
  8
0
100
AcDbMText
 10
311.8905594452557
 20
523.457660431128
 30
0.0
 40
5.0
 41
0.0
 71
     1
 72
     5
  1
\Ftxt.shx,bigfont.shx|c128;1
  7
JL
 73
     1
 44
1.0
  0
MTEXT
  5
8A26
330
18
100
AcDbEntity
  8
0
100
AcDbMText
 10
307.1953782502221
 20
532.202971251665
 30
0.0
 40
5.0
 41
0.0
 71
     1
 72
     5
  1
\Ftxt.shx,bigfont.shx|c128;照   号
  7
JL
 73
     1
 44
1.0
  0
LINE
  5
8A27
330
18
100
AcDbEntity
  8
frame
 62
     9
100
AcDbLine
 10
357.8533279550197
 20
534.7294929877158
 30
0.0
 11
357.8533279550197
 21
500.6228839752491
 31
0.0
  0
MTEXT
  5
8A28
330
18
100
AcDbEntity
  8
0
100
AcDbMText
 10
450.649187614527
 20
532.4076593771353
 30
0.0
 40
5.0
 41
0.0
 71
     1
 72
     5
  1
\Ftxt.shx,bigfont.shx|c128;備           考
  7
JL
 73
     1
 44
1.0
  0
LINE
  5
8A29
330
18
100
AcDbEntity
  8
frame
 62
     9
100
AcDbLine
 10
396.237166338858
 20
534.7294929877159
 30
0.0
 11
396.237166338858
 21
500.6228839752491
 31
0.0
  0
MTEXT
  5
8A2A
330
18
100
AcDbEntity
  8
0
100
AcDbMText
 10
397.9489610690356
 20
507.1604724338476
 30
0.0
 40
5.0
 41
0.0
 71
     1
 72
     5
  1
\Ftxt.shx,bigfont.shx|c128;C3604
  7
JL
 73
     1
 44
1.0
  0
MTEXT
  5
8A2B
330
18
100
AcDbEntity
  8
0
100
AcDbMText
 10
397.9489610690356
 20
523.5656160160123
 30
0.0
 40
5.0
 41
0.0
 71
     1
 72
     5
  1
\Ftxt.shx,bigfont.shx|c128;SCM-440
  7
JL
 73
     1
 44
1.0
  0
MTEXT
  5
8A2C
330
18
100
AcDbEntity
  8
0
100
AcDbMText
 10
397.9489610690356
 20
515.4944950002999
 30
0.0
 40
5.0
 41
0.0
 71
     1
 72
     5
  1
\Ftxt.shx,bigfont.shx|c128;SCM435
  7
JL
 73
     1
 44
1.0
  0
MTEXT
  5
8A2D
330
18
100
AcDbEntity
  8
0
100
AcDbMText
 10
400.8435388082838
 20
532.2940429360078
 30
0.0
 40
5.0
 41
0.0
 71
     1
 72
     5
  1
\Ftxt.shx,bigfont.shx|c128;材　質
  7
JL
 73
     1
 44
1.0
  0
LINE
  5
8A2E
330
18
100
AcDbEntity
  8
frame
 62
     9
100
AcDbLine
 10
415.4290855307773
 20
534.7294929877159
 30
0.0
 11
415.4290855307773
 21
500.6228839752491
 31
0.0
  0
LINE
  5
8A2F
330
18
100
AcDbEntity
  8
frame
100
AcDbLine
 10
429.8230249247166
 20
534.7294929877159
 30
0.0
 11
429.8230249247167
 21
500.6228839752491
 31
0.0
  0
MTEXT
  5
8A30
330
18
100
AcDbEntity
  8
0
100
AcDbMText
 10
421.6694572039302
 20
507.1937915467152
 30
0.0
 40
5.0
 41
0.0
 71
     1
 72
     5
  1
\Ftxt.shx,bigfont.shx|c128;3
  7
JL
 73
     1
 44
1.0
  0
MTEXT
  5
8A31
330
18
100
AcDbEntity
  8
0
100
AcDbMText
 10
422.244094798791
 20
523.7707641557091
 30
0.0
 40
5.0
 41
0.0
 71
     1
 72
     5
  1
\Ftxt.shx,bigfont.shx|c128;1
  7
JL
 73
     1
 44
1.0
  0
MTEXT
  5
8A32
330
18
100
AcDbEntity
  8
0
100
AcDbMText
 10
421.6694572039302
 20
515.2387220027839
 30
0.0
 40
5.0
 41
0.0
 71
     1
 72
     5
  1
\Ftxt.shx,bigfont.shx|c128;3
  7
JL
 73
     1
 44
1.0
  0
MTEXT
  5
8A33
330
18
100
AcDbEntity
  8
0
100
AcDbMText
 10
417.4979397691681
 20
532.2940429360078
 30
0.0
 40
5.0
 41
0.0
 71
     1
 72
     5
  1
\Ftxt.shx,bigfont.shx|c128;数   量
  7
JL
 73
     1
 44
1.0
  0
MTEXT
  5
8A34
330
18
100
AcDbEntity
  8
0
100
AcDbMText
 10
311.4795698762979
 20
515.457660431128
 30
0.0
 40
5.0
 41
0.0
 71
     1
 72
     5
  1
{\Ftxt,bigfont|c128;2}
  7
JL
 73
     1
 44
1.0
1001
ACAD
1000
ACAD_MTEXT_DEFINED_HEIGHT_BEGIN
1070
    46
1040
0.0
1000
ACAD_MTEXT_DEFINED_HEIGHT_END
  0
MTEXT
  5
8A35
330
18
100
AcDbEntity
  8
0
100
AcDbMText
 10
311.4795698762979
 20
507.3510514186612
 30
0.0
 40
5.0
 41
0.0
 71
     1
 72
     5
  1
{\Ftxt,bigfont|c128;3}
  7
JL
 73
     1
 44
1.0
1001
ACAD
1000
ACAD_MTEXT_DEFINED_HEIGHT_BEGIN
1070
    46
1040
0.0
1000
ACAD_MTEXT_DEFINED_HEIGHT_END
  0
ARC
  5
8CE2
330
18
100
AcDbEntity
  8
contour
100
AcDbCircle
 10
393.0424047654342
 20
439.8130017652992
 30
0.0
 40
56.0
100
AcDbArc
 50
184.0960437581514
 51
295.9039562418474
  0
CIRCLE
  5
8CE3
330
18
100
AcDbEntity
  8
contour
100
AcDbCircle
 10
393.0424047654342
 20
439.8130017652992
 30
0.0
 40
52.0
  0
ARC
  5
8CE4
330
18
100
AcDbEntity
  8
contour
 62
     4
100
AcDbCircle
 10
393.0424047654342
 20
439.8130017652992
 30
0.0
 40
42.5
100
AcDbArc
 50
173.2436729694117
 51
96.75632703058759
  0
CIRCLE
  5
8CE6
330
18
100
AcDbEntity
  8
contour
100
AcDbCircle
 10
393.0424047654342
 20
439.8130017652992
 30
0.0
 40
43.0
  0
LINE
  5
8CE7
330
18
100
AcDbEntity
  8
center
  6
CENTER
 48
0.5
100
AcDbLine
 10
335.0424047654342
 20
439.8130017652992
 30
0.0
 11
451.0424047654342
 21
439.8130017652992
 31
0.0
  0
LINE
  5
8CE8
330
18
100
AcDbEntity
  8
contour
100
AcDbLine
 10
337.1854445903584
 20
443.8130017652992
 30
0.0
 11
340.6854445903584
 21
443.8130017652992
 31
0.0
  0
LINE
  5
8CE9
330
18
100
AcDbEntity
  8
contour
100
AcDbLine
 10
337.1854445903584
 20
435.8130017652992
 30
0.0
 11
340.6854445903584
 21
435.8130017652992
 31
0.0
  0
LINE
  5
8CEA
330
18
100
AcDbEntity
  8
contour
100
AcDbLine
 10
340.6854445903584
 20
443.8130017652992
 30
0.0
 11
340.6854445903584
 21
435.8130017652992
 31
0.0
  0
LINE
  5
8CEB
330
18
100
AcDbEntity
  8
contour
100
AcDbLine
 10
424.4349864681099
 20
393.4394552755079
 30
0.0
 11
422.6849864681099
 21
396.4705441887534
 31
0.0
  0
LINE
  5
8CEC
330
18
100
AcDbEntity
  8
contour
100
AcDbLine
 10
417.5067832378344
 20
389.4394552755079
 30
0.0
 11
415.7567832378344
 21
392.4705441887534
 31
0.0
  0
LINE
  5
8CED
330
18
100
AcDbEntity
  8
contour
100
AcDbLine
 10
415.7567832378344
 20
392.4705441887534
 30
0.0
 11
422.6849864681099
 21
396.4705441887534
 31
0.0
  0
LINE
  5
8CEE
330
18
100
AcDbEntity
  8
contour
100
AcDbLine
 10
417.5067832378344
 20
490.1865482550905
 30
0.0
 11
415.7567832378344
 21
487.155459341845
 31
0.0
  0
LINE
  5
8CEF
330
18
100
AcDbEntity
  8
contour
100
AcDbLine
 10
424.4349864681099
 20
486.1865482550905
 30
0.0
 11
422.6849864681099
 21
483.155459341845
 31
0.0
  0
LINE
  5
8CF0
330
18
100
AcDbEntity
  8
contour
100
AcDbLine
 10
422.6849864681099
 20
483.155459341845
 30
0.0
 11
415.7567832378344
 21
487.155459341845
 31
0.0
  0
LINE
  5
8CF1
330
18
100
AcDbEntity
  8
bowle
  6
HIDDEN
 48
0.2
100
AcDbLine
 10
448.8993649405099
 20
443.8130017652992
 30
0.0
 11
434.2662971853646
 21
443.8130017652992
 31
0.0
  0
LINE
  5
8CF2
330
18
100
AcDbEntity
  8
bowle
  6
HIDDEN
 48
0.2
100
AcDbLine
 10
448.8993649405099
 20
435.8130017652992
 30
0.0
 11
434.2662971853646
 21
435.8130017652992
 31
0.0
  0
LINE
  5
8CF3
330
18
100
AcDbEntity
  8
bowle
  6
HIDDEN
 48
0.2
100
AcDbLine
 10
448.9436958753003
 20
443.1365017652991
 30
0.0
 11
434.3263441850195
 21
443.1365017652992
 31
0.0
  0
LINE
  5
8CF4
330
18
100
AcDbEntity
  8
bowle
  6
HIDDEN
 48
0.2
100
AcDbLine
 10
448.9436958753003
 20
436.4895017652992
 30
0.0
 11
434.3263441850196
 21
436.4895017652994
 31
0.0
  0
LINE
  5
8CF5
330
18
100
AcDbEntity
  8
bowle
  6
HIDDEN
 48
0.2
100
AcDbLine
 10
361.6498230627584
 20
486.1865482550904
 30
0.0
 11
368.9663569403311
 21
473.5139398438357
 31
0.0
  0
LINE
  5
8CF6
330
18
100
AcDbEntity
  8
bowle
  6
HIDDEN
 48
0.2
100
AcDbLine
 10
368.5780262930339
 20
490.1865482550904
 30
0.0
 11
375.8945601706066
 21
477.5139398438357
 31
0.0
  0
LINE
  5
8CF7
330
18
100
AcDbEntity
  8
bowle
  6
HIDDEN
 48
0.2
100
AcDbLine
 10
362.2135237810235
 20
486.5631899707925
 30
0.0
 11
369.5221996261639
 21
473.9041920709579
 31
0.0
  0
LINE
  5
8CF8
330
18
100
AcDbEntity
  8
bowle
  6
HIDDEN
 48
0.2
100
AcDbLine
 10
367.9699946399786
 20
489.8866899707924
 30
0.0
 11
375.2786704851189
 21
477.2276920709579
 31
0.0
  0
LINE
  5
8CF9
330
18
100
AcDbEntity
  8
bowle
  6
HIDDEN
 48
0.2
100
AcDbLine
 10
368.578026293034
 20
389.4394552755078
 30
0.0
 11
375.8945601706067
 21
402.1120636867626
 31
0.0
  0
LINE
  5
8CFA
330
18
100
AcDbEntity
  8
bowle
  6
HIDDEN
 48
0.2
100
AcDbLine
 10
361.6498230627585
 20
393.4394552755078
 30
0.0
 11
368.9663569403312
 21
406.1120636867626
 31
0.0
  0
LINE
  5
8CFB
330
18
100
AcDbEntity
  8
bowle
  6
HIDDEN
 48
0.2
100
AcDbLine
 10
367.9699946399785
 20
389.7393135598059
 30
0.0
 11
375.278670485119
 21
402.3983114596403
 31
0.0
  0
LINE
  5
8CFC
330
18
100
AcDbEntity
  8
bowle
  6
HIDDEN
 48
0.2
100
AcDbLine
 10
362.2135237810234
 20
393.0628135598058
 30
0.0
 11
369.5221996261639
 21
405.7218114596404
 31
0.0
  0
LINE
  5
8D00
330
18
100
AcDbEntity
  8
center
  6
CENTER
 48
0.5
100
AcDbLine
 10
393.0424047654342
 20
497.8130017652992
 30
0.0
 11
393.0424047654342
 21
381.8130017652992
 31
0.0
  0
LINE
  5
8D03
330
18
100
AcDbEntity
  8
center
 48
0.3
100
AcDbLine
 10
373.333654765434
 20
473.9495581189721
 30
0.0
 11
364.042404765434
 21
490.0424751847965
 31
0.0
  0
LINE
  5
8D04
330
18
100
AcDbEntity
  8
center
 48
0.3
100
AcDbLine
 10
373.333654765434
 20
405.6764454116261
 30
0.0
 11
364.042404765434
 21
389.5835283458019
 31
0.0
  0
ARC
  5
8D05
330
18
100
AcDbEntity
  8
contour
100
AcDbCircle
 10
393.0424047654342
 20
439.8130017652992
 30
0.0
 40
56.0
100
AcDbArc
 50
64.09604375815264
 51
175.9039562418486
  0
ARC
  5
8D06
330
18
100
AcDbEntity
  8
contour
100
AcDbCircle
 10
393.0424047654342
 20
439.8130017652992
 30
0.0
 40
56.0
100
AcDbArc
 50
304.096043758153
 51
55.90395624184698
  0
LINE
  5
8D0A
102
{ACAD_REACTORS
330
9976
102
}
330
18
100
AcDbEntity
  8
contour
100
AcDbLine
 10
449.0424047654342
 20
349.8020933385599
 30
0.0
 11
449.0424047654341
 21
336.3020933385599
 31
0.0
  0
LINE
  5
8D0B
102
{ACAD_REACTORS
330
9976
102
}
330
18
100
AcDbEntity
  8
contour
100
AcDbLine
 10
447.0424047654342
 20
334.3020933385599
 30
0.0
 11
339.0424047654342
 21
334.3020933385599
 31
0.0
  0
LINE
  5
8D0C
330
18
100
AcDbEntity
  8
contour
100
AcDbLine
 10
337.0424047654342
 20
336.3020933385599
 30
0.0
 11
337.0424047654342
 21
349.8020933385599
 31
0.0
  0
LINE
  5
8D0D
102
{ACAD_REACTORS
330
9976
102
}
330
18
100
AcDbEntity
  8
contour
100
AcDbLine
 10
341.0424047654342
 20
352.3020933385599
 30
0.0
 11
445.0424047654341
 21
352.3020933385599
 31
0.0
  0
LINE
  5
8D0E
102
{ACAD_REACTORS
330
9976
102
}
330
18
100
AcDbEntity
  8
contour
100
AcDbLine
 10
339.0424047654342
 20
351.8020933385599
 30
0.0
 11
341.0424047654342
 21
351.8020933385599
 31
0.0
  0
LINE
  5
8D10
102
{ACAD_REACTORS
330
9976
102
}
330
18
100
AcDbEntity
  8
contour
100
AcDbLine
 10
341.0424047654342
 20
352.3020933385599
 30
0.0
 11
341.0424047654342
 21
351.8020933385599
 31
0.0
  0
LINE
  5
8D12
102
{ACAD_REACTORS
330
9976
102
}
330
18
100
AcDbEntity
  8
contour
100
AcDbLine
 10
445.0424047654342
 20
352.3020933385599
 30
0.0
 11
445.0424047654342
 21
351.8020933385599
 31
0.0
  0
ARC
  5
8D13
330
18
100
AcDbEntity
  8
contour
100
AcDbCircle
 10
339.0424047654342
 20
336.3020933385599
 30
0.0
 40
2.0
100
AcDbArc
 50
180.0
 51
270.0
  0
ARC
  5
8D14
102
{ACAD_REACTORS
330
9976
102
}
330
18
100
AcDbEntity
  8
contour
100
AcDbCircle
 10
447.0424047654342
 20
336.3020933385599
 30
0.0
 40
2.0
100
AcDbArc
 50
270.0
 51
0.0
  0
ARC
  5
8D15
330
18
100
AcDbEntity
  8
contour
100
AcDbCircle
 10
339.0424047654342
 20
349.8020933385599
 30
0.0
 40
2.0
100
AcDbArc
 50
90.0
 51
180.0
  0
ARC
  5
8D16
102
{ACAD_REACTORS
330
9976
102
}
330
18
100
AcDbEntity
  8
contour
100
AcDbCircle
 10
447.0424047654342
 20
349.8020933385599
 30
0.0
 40
2.0
100
AcDbArc
 50
0.0
 51
90.0
  0
LINE
  5
8D17
102
{ACAD_REACTORS
330
9976
102
}
330
18
100
AcDbEntity
  8
contour
100
AcDbLine
 10
445.0424047654342
 20
351.8020933385599
 30
0.0
 11
447.0424047654342
 21
351.8020933385599
 31
0.0
  0
LINE
  5
8D30
330
18
100
AcDbEntity
  8
contour
100
AcDbLine
 10
436.0424047654341
 20
350.3020933385599
 30
0.0
 11
436.0424047654341
 21
352.3020933385599
 31
0.0
  0
CIRCLE
  5
8D32
330
18
100
AcDbEntity
  8
contour
100
AcDbCircle
 10
393.0424047654342
 20
439.8130017652992
 30
0.0
 40
41.4175
  0
LINE
  5
8D35
102
{ACAD_REACTORS
330
9976
102
}
330
18
100
AcDbEntity
  8
contour
100
AcDbLine
 10
350.0424047654342
 20
352.3020933385599
 30
0.0
 11
350.0424047654342
 21
350.3020933385599
 31
0.0
  0
LINE
  5
8D36
330
18
100
AcDbEntity
  8
contour
100
AcDbLine
 10
350.0424047654342
 20
350.3020933385599
 30
0.0
 11
436.0424047654341
 21
350.3020933385599
 31
0.0
  0
LINE
  5
8D37
102
{ACAD_REACTORS
330
9976
102
}
330
18
100
AcDbEntity
  8
contour
 62
     4
100
AcDbLine
 10
350.5424047654342
 20
349.8020933385599
 30
0.0
 11
350.5424047654342
 21
335.2195933385599
 31
0.0
  0
LINE
  5
8D38
102
{ACAD_REACTORS
330
9976
102
}
330
18
100
AcDbEntity
  8
contour
100
AcDbLine
 10
351.6249047654341
 20
348.7195933385599
 30
0.0
 11
351.6249047654341
 21
336.3020933385599
 31
0.0
  0
LINE
  5
8D39
102
{ACAD_REACTORS
330
9976
102
}
330
18
100
AcDbEntity
  8
contour
100
AcDbLine
 10
349.6249047654341
 20
334.3020933385599
 30
0.0
 11
351.6249047654341
 21
336.3020933385599
 31
0.0
  0
LINE
  5
8D3A
102
{ACAD_REACTORS
330
9976
102
}
330
18
100
AcDbEntity
  8
contour
100
AcDbLine
 10
350.0424047654342
 20
350.3020933385599
 30
0.0
 11
351.6249047654341
 21
348.7195933385599
 31
0.0
  0
LINE
  5
8D3B
102
{ACAD_REACTORS
330
9976
102
}
330
18
100
AcDbEntity
  8
contour
100
AcDbLine
 10
436.0424047654341
 20
352.3020933385599
 30
0.0
 11
436.0424047654341
 21
350.3020933385599
 31
0.0
  0
LINE
  5
8D3C
102
{ACAD_REACTORS
330
9976
102
}
330
18
100
AcDbEntity
  8
contour
 62
     4
100
AcDbLine
 10
435.5424047654341
 20
349.8020933385599
 30
0.0
 11
435.5424047654342
 21
347.3020933385599
 31
0.0
  0
LINE
  5
8D3D
102
{ACAD_REACTORS
330
9976
102
}
330
18
100
AcDbEntity
  8
contour
100
AcDbLine
 10
434.4599047654342
 20
348.7195933385599
 30
0.0
 11
434.4599047654342
 21
336.3020933385599
 31
0.0
  0
LINE
  5
8D3E
102
{ACAD_REACTORS
330
9976
102
}
330
18
100
AcDbEntity
  8
contour
100
AcDbLine
 10
436.4599047654341
 20
334.3020933385599
 30
0.0
 11
434.4599047654342
 21
336.3020933385599
 31
0.0
  0
LINE
  5
8D3F
102
{ACAD_REACTORS
330
9976
102
}
330
18
100
AcDbEntity
  8
contour
100
AcDbLine
 10
436.0424047654341
 20
350.3020933385599
 30
0.0
 11
434.4599047654342
 21
348.7195933385599
 31
0.0
  0
LINE
  5
8D40
330
18
100
AcDbEntity
  8
contour
100
AcDbLine
 10
351.6249047654341
 20
336.3020933385599
 30
0.0
 11
434.4599047654342
 21
336.3020933385599
 31
0.0
  0
LINE
  5
8D41
330
18
100
AcDbEntity
  8
contour
100
AcDbLine
 10
434.4599047654342
 20
348.7195933385599
 30
0.0
 11
351.6249047654341
 21
348.7195933385599
 31
0.0
  0
LINE
  5
8D42
102
{ACAD_REACTORS
330
9976
102
}
330
18
100
AcDbEntity
  8
contour
100
AcDbLine
 10
340.6854445903584
 20
351.8020933385599
 30
0.0
 11
340.6854445903584
 21
334.3020933385599
 31
0.0
  0
LINE
  5
9683
102
{ACAD_REACTORS
330
9976
102
}
330
18
100
AcDbEntity
  8
contour
 62
     4
100
AcDbLine
 10
449.0424047654343
 20
347.3020933385599
 30
0.0
 11
434.4599047654342
 21
347.3020933385599
 31
0.0
  0
LINE
  5
9684
102
{ACAD_REACTORS
330
9976
102
}
330
18
100
AcDbEntity
  8
contour
 62
     4
100
AcDbLine
 10
449.0424047654344
 20
339.3020933385599
 30
0.0
 11
434.4599047654342
 21
339.3020933385599
 31
0.0
  0
LWPOLYLINE
  5
9685
102
{ACAD_REACTORS
330
9976
102
}
330
18
100
AcDbEntity
  8
contour
100
AcDbPolyline
 90
        6
 70
     0
 43
0.0
 10
440.5424047654342
 20
347.3020933385599
 10
440.5424047654342
 20
347.3020933385599
 10
439.0424047654342
 20
345.8020933385599
 10
439.0424047654342
 20
340.8020933385599
 10
440.5424047654342
 20
339.3020933385599
 10
440.5424047654342
 20
339.3020933385599
  0
LWPOLYLINE
  5
9686
330
18
100
AcDbEntity
  8
contour
100
AcDbPolyline
 90
        2
 70
     0
 43
0.0
 10
449.0424047654342
 20
339.9785933385599
 10
449.0424047654342
 20
346.6255933385598
  0
LINE
  5
9687
330
18
100
AcDbEntity
  8
contour
100
AcDbLine
 10
440.5424047654342
 20
347.3020933385599
 30
0.0
 11
440.5424047654342
 21
339.3020933385599
 31
0.0
  0
LINE
  5
9688
330
18
100
AcDbEntity
  8
contour
100
AcDbLine
 10
446.5424047654342
 20
345.8020933385599
 30
0.0
 11
449.0424047654342
 21
345.8020933385599
 31
0.0
  0
LINE
  5
9689
330
18
100
AcDbEntity
  8
contour
100
AcDbLine
 10
446.5424047654342
 20
340.8020933385599
 30
0.0
 11
449.0424047654342
 21
340.8020933385599
 31
0.0
  0
LINE
  5
968A
330
18
100
AcDbEntity
  8
contour
100
AcDbLine
 10
446.5424047654342
 20
345.8020933385599
 30
0.0
 11
446.5424047654342
 21
340.8020933385599
 31
0.0
  0
LINE
  5
968B
330
18
100
AcDbEntity
  8
contour
100
AcDbLine
 10
446.0424047654342
 20
343.3020933385599
 30
0.0
 11
446.5424047654342
 21
345.8020933385599
 31
0.0
  0
LINE
  5
968C
330
18
100
AcDbEntity
  8
contour
100
AcDbLine
 10
446.0424047654342
 20
343.3020933385599
 30
0.0
 11
446.5424047654342
 21
340.8020933385599
 31
0.0
  0
LINE
  5
968D
330
18
100
AcDbEntity
  8
contour
 62
     4
100
AcDbLine
 10
449.0424047654342
 20
346.6255933385598
 30
0.0
 11
439.8659047654342
 21
346.6255933385598
 31
0.0
  0
LINE
  5
968E
330
18
100
AcDbEntity
  8
contour
 62
     4
100
AcDbLine
 10
449.0424047654342
 20
339.9785933385598
 30
0.0
 11
439.8659047654343
 21
339.9785933385598
 31
0.0
  0
LINE
  5
968F
102
{ACAD_REACTORS
330
9976
102
}
330
18
100
AcDbEntity
  8
contour
100
AcDbLine
 10
449.0424047654342
 20
346.6255933385598
 30
0.0
 11
447.8706723941138
 21
347.3020933385599
 31
0.0
  0
LINE
  5
9690
330
18
100
AcDbEntity
  8
contour
100
AcDbLine
 10
447.8706723941138
 20
347.3020933385599
 30
0.0
 11
447.8706723941138
 21
339.3020933385599
 31
0.0
  0
LINE
  5
9691
102
{ACAD_REACTORS
330
9976
102
}
330
18
100
AcDbEntity
  8
contour
100
AcDbLine
 10
449.0424047654342
 20
339.9785933385599
 30
0.0
 11
447.8706723941138
 21
339.3020933385599
 31
0.0
  0
HATCH
  5
9692
330
18
100
AcDbEntity
  8
section
100
AcDbHatch
 10
0.0
 20
0.0
 30
0.0
210
0.0
220
0.0
230
1.0
  2
AR-SAND
 70
     0
 71
     1
 91
        1
 92
        7
 72
     0
 73
     1
 93
        4
 10
434.4599047654341
 20
346.8020933385597
 10
434.4599047654341
 20
339.8020933385599
 10
439.0424047654342
 20
339.8020933385598
 10
439.0424047654342
 20
346.8020933385598
 97
        1
330
9693
 75
     0
 76
     1
 52
0.0
 41
0.02
 77
     0
 78
     4
 53
37.5
 43
107.1191129844106
 44
373.3720965678462
 45
-0.0320006259196809
 46
0.9788264746586847
 79
     6
 49
0.0
 49
-0.7721600000000001
 49
0.0
 49
-0.8636000000000001
 49
0.0
 49
-0.8255
 53
7.499999999999999
 43
107.1191129844106
 44
373.3720965678462
 45
0.8990465662760053
 46
1.433650201136708
 79
     6
 49
0.0
 49
-0.4165600000000001
 49
0.0
 49
-0.69596
 49
0.0
 49
-0.2667000000000001
 53
327.5
 43
106.4942729844106
 44
373.3720965678462
 45
1.581984740482915
 46
0.0028743693570914
 79
     6
 49
0.0
 49
-0.254
 49
0.0
 49
-0.9144
 49
0.0
 49
-1.193799999999999
 53
317.5
 43
106.4942729844106
 44
373.3720965678462
 45
1.527112904944594
 46
0.4458586465144325
 79
     6
 49
0.0
 49
-0.127
 49
0.0
 49
-0.59944
 49
0.0
 49
-0.6858
 47
0.0366952879874147
 98
        1
 10
436.846186042513
 20
344.6272115496747
1001
ACAD
1010
0.0
1020
0.0
1030
0.0
  0
LWPOLYLINE
  5
9693
102
{ACAD_REACTORS
330
9692
330
9976
102
}
330
18
100
AcDbEntity
  8
contour
100
AcDbPolyline
 90
        4
 70
     1
 43
0.0
 10
434.4599047654342
 20
346.8020933385598
 10
434.4599047654342
 20
339.8020933385599
 10
439.0424047654342
 20
339.8020933385599
 10
439.0424047654342
 20
346.8020933385599
  0
LINE
  5
9694
102
{ACAD_REACTORS
330
9976
102
}
330
18
100
AcDbEntity
  8
contour
100
AcDbLine
 10
439.8659047654342
 20
346.6255933385598
 30
0.0
 11
439.0424047654342
 21
346.6255933385598
 31
0.0
  0
LINE
  5
9695
102
{ACAD_REACTORS
330
9976
102
}
330
18
100
AcDbEntity
  8
contour
100
AcDbLine
 10
439.8659047654343
 20
339.9785933385598
 30
0.0
 11
439.0424047654342
 21
339.9785933385598
 31
0.0
  0
LINE
  5
9696
102
{ACAD_REACTORS
330
9976
102
}
330
18
100
AcDbEntity
  8
contour
 62
     4
100
AcDbLine
 10
435.5424047654341
 20
339.3020933385599
 30
0.0
 11
435.5424047654341
 21
335.2195933385599
 31
0.0
  0
LWPOLYLINE
  5
9698
330
18
100
AcDbEntity
  8
dim
100
AcDbPolyline
 90
        7
 70
     1
 43
0.0
 10
409.1403586720969
 20
354.80209333856
 10
417.8006127099413
 20
354.80209333856
 10
416.3572370369672
 20
352.3020933385599
 10
414.9138613639932
 20
354.80209333856
 10
413.470485691019
 20
352.3020933385599
 10
412.027110018045
 20
354.80209333856
 10
410.5837343450709
 20
352.3020933385599
  0
MTEXT
  5
9699
330
18
100
AcDbEntity
  8
mark
 62
     3
100
AcDbMText
 10
413.491162609023
 20
356.8577697273128
 30
0.0
 40
2.5
 41
0.0
 71
     5
 72
     1
  1
G
 73
     1
 44
1.0
1001
ACAD
1000
ACAD_MTEXT_DEFINED_HEIGHT_BEGIN
1070
    46
1040
0.0
1000
ACAD_MTEXT_DEFINED_HEIGHT_END
  0
LINE
  5
969A
330
18
100
AcDbEntity
  8
center
 48
0.3
100
AcDbLine
 10
393.0424047654342
 20
355.6019316568895
 30
0.0
 11
393.0424047654342
 21
333.6019316568895
 31
0.0
  0
DIMENSION
  5
969B
330
18
100
AcDbEntity
  8
mark
100
AcDbDimension
  2
*D15
 10
436.0424047654341
 20
360.7682852307783
 30
0.0
 11
393.0424047654342
 21
362.8182852307783
 31
0.0
 70
    32
  1
%%c86
 71
     5
 42
86.0
  3
STANDARD
100
AcDbAlignedDimension
 13
350.0424047654342
 23
352.3020933385599
 33
0.0
 14
436.0424047654341
 24
352.3020933385599
 34
0.0
100
AcDbRotatedDimension
  0
DIMENSION
  5
96A8
330
18
100
AcDbEntity
  8
mark
100
AcDbDimension
  2
*D16
 10
341.0424047654342
 20
366.8660033437404
 30
0.0
 11
393.0424047654342
 21
368.9160033437405
 31
0.0
 70
    32
  1
%%c104%%p0.5
 71
     5
 42
104.0
  3
STANDARD
100
AcDbAlignedDimension
 13
445.0424047654341
 23
352.3020933385599
 33
0.0
 14
341.0424047654342
 24
352.3020933385599
 34
0.0
100
AcDbRotatedDimension
  0
DIMENSION
  5
96B5
330
18
100
AcDbEntity
  8
mark
100
AcDbDimension
  2
*D17
 10
449.0424047654342
 20
373.3418310003851
 30
0.0
 11
393.0424047654342
 21
375.3918310003852
 31
0.0
 70
    32
  1
%%c112
 71
     5
 42
112.0
  3
STANDARD
100
AcDbAlignedDimension
 13
337.0424047654342
 23
349.8020933385599
 33
0.0
 14
449.0424047654342
 24
349.8020933385594
 34
0.0
100
AcDbRotatedDimension
  0
DIMENSION
  5
96C2
330
18
100
AcDbEntity
  8
mark
100
AcDbDimension
  2
*D18
 10
326.6906898776324
 20
352.3020933385599
 30
0.0
 11
324.6406898776323
 21
360.3937600052266
 31
0.0
 70
    32
 71
     5
 42
0.5
  3
STANDARD
100
AcDbAlignedDimension
 13
339.0424047654342
 23
351.8020933385599
 33
0.0
 14
341.0424047654342
 24
352.3020933385599
 34
0.0
 50
90.0
100
AcDbRotatedDimension
  0
DIMENSION
  5
96D2
330
18
100
AcDbEntity
  8
mark
100
AcDbDimension
  2
*D19
 10
326.6906898776324
 20
435.8130017652992
 30
0.0
 11
324.6406898776323
 21
439.8130017652992
 31
0.0
 70
    32
 71
     5
 42
8.0
  3
STANDARD
100
AcDbAlignedDimension
 13
337.1854445903584
 23
443.8130017652992
 33
0.0
 14
337.1854445903584
 24
435.8130017652992
 34
0.0
 50
90.0
100
AcDbRotatedDimension
  0
DIMENSION
  5
96E0
330
18
100
AcDbEntity
  8
mark
100
AcDbDimension
  2
*D20
 10
337.1854445903584
 20
383.8130017652992
 30
0.0
 11
328.8854445903584
 21
385.8630017652992
 31
0.0
 70
    32
 71
     5
 42
3.5
  3
STANDARD
100
AcDbAlignedDimension
 13
340.6854445903584
 23
435.8130017652992
 33
0.0
 14
337.1854445903584
 24
435.8130017652992
 34
0.0
100
AcDbRotatedDimension
  0
MTEXT
  5
96EF
330
18
100
AcDbEntity
  8
mark
 62
     3
100
AcDbMText
 10
322.2815608048745
 20
441.2886954384934
 30
0.0
 40
1.25
 41
0.0
 71
     1
 72
     1
  1
+0.15\P+0
 11
0.0000000000000001
 21
1.0
 31
0.0
 73
     1
 44
1.0
1001
ACAD
1000
ACAD_MTEXT_DEFINED_HEIGHT_BEGIN
1070
    46
1040
0.0
1000
ACAD_MTEXT_DEFINED_HEIGHT_END
  0
MTEXT
  5
96F0
330
18
100
AcDbEntity
  8
mark
 62
     3
100
AcDbMText
 10
323.1148941382078
 20
446.5490924355791
 30
0.0
 40
2.5
 41
0.0
 71
     1
 72
     1
  1
(3{\Ftxt,bigfont|c128;等分\Ftxt,bigfont|c136;)}
 11
0.0000000000000001
 21
1.0
 31
0.0
 73
     1
 44
1.0
1001
ACAD
1000
ACAD_MTEXT_DEFINED_HEIGHT_BEGIN
1070
    46
1040
0.0
1000
ACAD_MTEXT_DEFINED_HEIGHT_END
  0
MTEXT
  5
96F1
330
18
100
AcDbEntity
  8
mark
 62
     3
100
AcDbMText
 10
332.0316062768346
 20
387.6605793520317
 30
0.0
 40
1.25
 41
0.0
 71
     1
 72
     1
  1
+0.15\P+0
 73
     1
 44
1.0
1001
ACAD
1000
ACAD_MTEXT_DEFINED_HEIGHT_BEGIN
1070
    46
1040
0.0
1000
ACAD_MTEXT_DEFINED_HEIGHT_END
  0
MTEXT
  5
96F2
330
18
100
AcDbEntity
  8
mark
 62
     3
100
AcDbMText
 10
398.1150418389213
 20
378.6358232651066
 30
0.0
 40
1.25
 41
0.0
 71
     1
 72
     1
  1
+0\P-0.2
 73
     1
 44
1.0
1001
ACAD
1000
ACAD_MTEXT_DEFINED_HEIGHT_BEGIN
1070
    46
1040
0.0
1000
ACAD_MTEXT_DEFINED_HEIGHT_END
  0
LINE
  5
96F3
330
18
100
AcDbEntity
  8
center
 48
0.3
100
AcDbLine
 10
432.4599047654341
 20
343.3020933385598
 30
0.0
 11
451.0424047654342
 21
343.3020933385599
 31
0.0
  0
LEADER
  5
96F5
330
18
100
AcDbEntity
  8
mark
100
AcDbLeader
  3
STANDARD
 76
     2
 10
435.4599047654342
 20
335.3020933385599
 30
0.0
 10
426.7912352816206
 20
326.6334238547452
 30
0.0
211
0.0000000000000001
221
-1.0
231
0.0
1001
ACAD
1000
DSTYLE
1002
{
1070
   147
1040
0.8
1070
    77
1070
     0
1002
}
  0
MTEXT
  5
96F6
330
18
100
AcDbEntity
  8
mark
 62
     3
100
AcDbMText
 10
427.6810236904971
 20
330.4576806537779
 30
0.0
 40
2.5
 41
0.0
 71
     5
 72
     1
  1
C2
 11
0.7071067811862683
 21
0.7071067811868267
 31
0.0
 73
     1
 44
1.0
1001
ACAD
1000
ACAD_MTEXT_DEFINED_HEIGHT_BEGIN
1070
    46
1040
0.0
1000
ACAD_MTEXT_DEFINED_HEIGHT_END
  0
DIMENSION
  5
9701
330
18
100
AcDbEntity
  8
mark
100
AcDbDimension
  2
*D21
 10
339.0424047654343
 20
336.3020933385596
 30
0.0
 11
328.8364968903078
 21
328.9953232662998
 31
0.0
 70
    36
  1
2-R2
 71
     5
 42
1.999999999999886
  3
STANDARD
100
AcDbRadialDimension
 15
337.6281912030611
 25
334.8878797761868
 35
0.0
 40
0.0
1001
ACAD
1000
DSTYLE
1002
{
1070
   288
1070
     1
1002
}
  0
DIMENSION
  5
9711
330
18
100
AcDbEntity
  8
mark
100
AcDbDimension
  2
*D22
 10
435.5424047654341
 20
321.2046037173516
 30
0.0
 11
393.0424047654342
 21
323.2546037173516
 31
0.0
 70
    32
  1
M85X2.0P
 71
     5
 42
85.0
  3
STANDARD
100
AcDbAlignedDimension
 13
350.5424047654342
 23
335.2195933385599
 33
0.0
 14
435.5424047654341
 24
335.2195933385599
 34
0.0
100
AcDbRotatedDimension
  0
LINE
  5
971E
330
18
100
AcDbEntity
  8
mark
100
AcDbLine
 10
350.5424047654342
 20
320.4046037173516
 30
0.0
 11
350.5424047654342
 21
311.6546037173516
 31
0.0
  0
INSERT
  5
971F
330
18
100
AcDbEntity
  8
mark
100
AcDbBlockReference
  2
A
 10
346.4631367612876
 20
316.0457488191341
 30
0.0
  0
MTEXT
  5
9720
330
18
100
AcDbEntity
  8
mark
 62
     3
100
AcDbMText
 10
456.8015811754436
 20
363.1526928845496
 30
0.0
 40
3.5
 41
0.0
 71
     5
 72
     1
  1
2
 73
     1
 44
1.0
1001
ACAD
1000
ACAD_MTEXT_DEFINED_HEIGHT_BEGIN
1070
    46
1040
0.0
1000
ACAD_MTEXT_DEFINED_HEIGHT_END
  0
LEADER
  5
9721
330
18
100
AcDbEntity
  8
mark
100
AcDbLeader
  3
STANDARD
 76
     2
 10
449.0424047654342
 20
343.3020933385602
 30
0.0
 10
454.8070067025011
 20
361.3528179858704
 30
0.0
1001
ACAD
1000
DSTYLE
1002
{
1070
   147
1040
0.8
1070
    77
1070
     0
1002
}
  0
MTEXT
  5
9722
330
18
100
AcDbEntity
  8
mark
 62
     3
100
AcDbMText
 10
456.5765811754435
 20
327.0949200621577
 30
0.0
 40
3.5
 41
0.0
 71
     5
 72
     1
  1
3
 73
     1
 44
1.0
1001
ACAD
1000
ACAD_MTEXT_DEFINED_HEIGHT_BEGIN
1070
    46
1040
0.0
1000
ACAD_MTEXT_DEFINED_HEIGHT_END
  0
LEADER
  5
9723
330
18
100
AcDbEntity
  8
mark
100
AcDbLeader
  3
STANDARD
 76
     2
 10
438.2511547654342
 20
339.8020933385599
 30
0.0
 10
454.5056094552927
 20
327.3328886487017
 30
0.0
211
0.7071067811865476
221
0.7071067811865475
231
0.0
1001
ACAD
1000
DSTYLE
1002
{
1070
   147
1040
0.8
1070
    77
1070
     0
1002
}
  0
DIMENSION
  5
9724
330
18
100
AcDbEntity
  8
mark
100
AcDbDimension
  2
*D23
 10
459.7464882740641
 20
352.3020933385599
 30
0.0
 11
457.696488274064
 21
347.80209333856
 31
0.0
 70
    32
 71
     5
 42
9.0
  3
STANDARD
100
AcDbAlignedDimension
 13
451.0424047654342
 23
343.3020933385599
 33
0.0
 14
445.0424047654341
 24
352.3020933385599
 34
0.0
 50
90.0
100
AcDbRotatedDimension
  0
DIMENSION
  5
9731
330
18
100
AcDbEntity
  8
mark
100
AcDbDimension
  2
*D24
 10
466.8268355070049
 20
352.3020933385599
 30
0.0
 11
464.7768355070049
 21
343.3020933385599
 31
0.0
 70
    32
  1
18%%P0.2
 71
     5
 42
18.0
  3
STANDARD
100
AcDbAlignedDimension
 13
447.0424047654342
 23
334.3020933385599
 33
0.0
 14
445.0424047654341
 24
352.3020933385599
 34
0.0
 50
90.0
100
AcDbRotatedDimension
  0
TOLERANCE
  5
973F
330
18
100
AcDbEntity
  8
mark
100
AcDbFcf
  3
STANDARD
 10
471.8268355070049
 20
362.3020933385599
 30
0.0
  1
{\Fgdt;h}%%v0.005%%v%%vA%%v%%v
1001
ACAD
1000
DSTYLE
1002
{
1070
    41
1040
2.5
1070
    42
1040
0.8
1070
    43
1040
6.0
1070
    44
1040
0.8
1070
    73
1070
     0
1070
    74
1070
     0
1070
    78
1070
     8
1070
    79
1070
     2
1070
   140
1040
2.5
1070
   141
1040
0.0
1070
   144
1040
1.0
1070
   147
1040
0.8
1070
   176
1070
   256
1070
   177
1070
   256
1070
   178
1070
     3
1070
   179
1070
     2
1070
   271
1070
     1
1070
   272
1070
     1
1070
   341
1005
8881
1070
   342
1005
8881
1002
}
  0
LWPOLYLINE
  5
9740
330
18
100
AcDbEntity
  8
mark
100
AcDbPolyline
 90
        3
 70
     0
 43
0.0
 10
466.8268355070049
 20
352.3020933385599
 10
466.8268355070049
 20
362.3020933385599
 10
471.8268355070049
 20
362.3020933385599
  0
LEADER
  5
9741
330
18
100
AcDbEntity
  8
mark
100
AcDbLeader
  3
STANDARD
 76
     2
 10
441.5398273773627
 20
467.8130017652992
 30
0.0
 10
454.5056094552927
 20
475.298799538246
 30
0.0
211
0.8660254037844385
221
0.5000000000000005
231
0.0
1001
ACAD
1000
DSTYLE
1002
{
1070
   147
1040
0.8
1070
    77
1070
     0
1002
}
  0
MTEXT
  5
9742
330
18
100
AcDbEntity
  8
mark
 62
     3
100
AcDbMText
 10
456.5082576431235
 20
475.950850861801
 30
0.0
 40
3.5
 41
0.0
 71
     5
 72
     1
  1
1
 73
     1
 44
1.0
1001
ACAD
1000
ACAD_MTEXT_DEFINED_HEIGHT_BEGIN
1070
    46
1040
0.0
1000
ACAD_MTEXT_DEFINED_HEIGHT_END
  0
HATCH
  5
9976
330
18
100
AcDbEntity
  8
section
100
AcDbHatch
 10
0.0
 20
0.0
 30
0.0
210
0.0
220
0.0
230
1.0
  2
ANSI31
 70
     0
 71
     1
 91
        9
 92
        7
 72
     0
 73
     1
 93
        9
 10
350.5424047654342
 20
349.8020933385598
 10
350.0424047654342
 20
350.3020933385598
 10
350.0424047654342
 20
352.3020933385598
 10
341.0424047654342
 20
352.3020933385598
 10
341.0424047654342
 20
351.8020933385599
 10
340.6854445903584
 20
351.8020933385598
 10
340.6854445903585
 20
334.3020933385599
 10
349.6249047654341
 20
334.3020933385598
 10
350.5424047654342
 20
335.2195933385599
 97
        9
330
8D3A
330
8D35
330
8D0D
330
8D10
330
8D0E
330
8D42
330
8D0B
330
8D39
330
8D37
 92
        7
 72
     0
 73
     1
 93
        4
 10
351.6249047654341
 20
348.7195933385598
 10
350.5424047654342
 20
349.8020933385599
 10
350.5424047654342
 20
335.2195933385599
 10
351.6249047654341
 20
336.3020933385599
 97
        4
330
8D3A
330
8D37
330
8D39
330
8D38
 92
        7
 72
     1
 73
     1
 93
        9
 10
447.0424047654342
 20
351.8020933385599
 42
0.0
 10
445.0424047654342
 20
351.8020933385599
 42
0.0
 10
445.0424047654343
 20
352.3020933385599
 42
0.0
 10
436.0424047654342
 20
352.3020933385599
 42
0.0
 10
436.0424047654341
 20
350.3020933385598
 42
0.0
 10
435.5424047654341
 20
349.8020933385598
 42
0.0
 10
435.5424047654341
 20
347.3020933385599
 42
0.0
 10
449.0424047654342
 20
347.3020933385599
 42
0.0
 10
449.0424047654342
 20
349.8020933385599
 42
0.4142135623730951
 97
        9
330
8D17
330
8D12
330
8D0D
330
8D3B
330
8D3F
330
8D3C
330
9683
330
8D0A
330
8D16
 92
        7
 72
     1
 73
     1
 93
        6
 10
449.0424047654342
 20
339.3020933385599
 42
0.0
 10
435.5424047654341
 20
339.3020933385598
 42
0.0
 10
435.5424047654341
 20
335.2195933385599
 42
0.0
 10
436.4599047654341
 20
334.3020933385599
 42
0.0
 10
447.0424047654342
 20
334.3020933385599
 42
0.4142135623730951
 10
449.0424047654341
 20
336.3020933385599
 42
0.0
 97
        6
330
9684
330
9696
330
8D3E
330
8D0B
330
8D14
330
8D0A
 92
        7
 72
     0
 73
     1
 93
        4
 10
435.5424047654341
 20
339.3020933385599
 10
434.4599047654342
 20
339.3020933385598
 10
434.4599047654341
 20
336.3020933385599
 10
435.5424047654341
 20
335.2195933385599
 97
        4
330
9684
330
8D3D
330
8D3E
330
9696
 92
        7
 72
     0
 73
     1
 93
        6
 10
440.5424047654341
 20
347.3020933385599
 10
434.4599047654342
 20
347.3020933385598
 10
434.4599047654342
 20
346.8020933385597
 10
439.0424047654342
 20
346.8020933385599
 10
439.0424047654342
 20
346.6255933385598
 10
439.8659047654343
 20
346.6255933385598
 97
        5
330
9683
330
8D3D
330
9693
330
9694
330
9685
 92
        7
 72
     0
 73
     1
 93
        6
 10
439.8659047654343
 20
339.9785933385597
 10
439.0424047654343
 20
339.9785933385598
 10
439.0424047654342
 20
339.8020933385599
 10
434.4599047654342
 20
339.8020933385599
 10
434.4599047654342
 20
339.3020933385599
 10
440.5424047654341
 20
339.3020933385599
 97
        5
330
9695
330
9693
330
8D3D
330
9684
330
9685
 92
        7
 72
     0
 73
     1
 93
        3
 10
449.0424047654342
 20
339.9785933385599
 10
447.8706723941138
 20
339.3020933385599
 10
449.0424047654342
 20
339.3020933385599
 97
        3
330
9691
330
9684
330
8D0A
 92
        7
 72
     0
 73
     1
 93
        3
 10
449.0424047654342
 20
347.3020933385599
 10
447.8706723941138
 20
347.3020933385599
 10
449.0424047654342
 20
346.6255933385599
 97
        3
330
9683
330
968F
330
8D0A
 75
     0
 76
     1
 52
0.0
 41
0.5
 77
     0
 78
     1
 53
45.0
 43
0.0
 44
0.0
 45
-1.122532015133643
 46
1.122532015133644
 79
     0
 47
0.1132535749404606
 98
        9
 10
345.0811805561855
 20
345.1163882141841
 10
350.934718892534
 20
344.1634195452002
 10
440.2447786600562
 20
350.0227896647164
 10
447.0172342173216
 20
338.8290457354201
 10
434.7365160313217
 20
338.2874135469931
 10
437.9752784832401
 20
347.0004357138675
 10
437.7586546230768
 20
339.4689643186541
 10
448.6935165528334
 20
339.5574785976214
 10
448.6492461446175
 20
346.9927104012438
1001
ACAD
1010
0.0
1020
0.0
1030
0.0
  0
DIMENSION
  5
9979
330
18
100
AcDbEntity
  8
mark
100
AcDbDimension
  2
*D25
 10
373.8632380358533
 20
350.3020933385599
 30
0.0
 11
371.8132380358533
 21
343.6687600052266
 31
0.0
 70
    32
 71
     5
 42
2.0
  3
STANDARD
100
AcDbAlignedDimension
 13
373.8632380358533
 23
352.3020933385599
 33
0.0
 14
373.8632380358533
 24
350.3020933385599
 34
0.0
 50
90.0
100
AcDbRotatedDimension
  0
MTEXT
  5
9A8C
330
18
100
AcDbEntity
  8
0
100
AcDbMText
 10
352.7265224991467
 20
273.8055520038821
 30
0.0
 40
4.5
 41
0.0
 71
     1
 72
     5
  1
{\Ftxt,bigfont|c128;小\~柳}
  7
JL
 73
     1
 44
1.0
1001
ACAD
1000
ACAD_MTEXT_DEFINED_HEIGHT_BEGIN
1070
    46
1040
0.0
1000
ACAD_MTEXT_DEFINED_HEIGHT_END
  0
ENDSEC
  0
SECTION
  2
OBJECTS
  0
DICTIONARY
  5
C
330
0
100
AcDbDictionary
281
     1
  3
ACAD_COLOR
350
8872
  3
ACAD_GROUP
350
D
  3
ACAD_LAYOUT
350
5CF3
  3
ACAD_MATERIAL
350
8871
  3
ACAD_MLINESTYLE
350
1B
  3
ACAD_PLOTSETTINGS
350
5CF4
  3
ACAD_PLOTSTYLENAME
350
5CF1
  3
ACAD_TABLESTYLE
350
8873
  3
ACDBVARIABLEDICTIONARY
350
45D
  0
DICTIONARY
  5
887E
330
2
100
AcDbDictionary
280
     1
281
     1
  3
ACAD_LAYERFILTERS
360
8880
  3
ACLYDICTIONARY
360
887F
  0
DICTIONARY
  5
45F
330
18
100
AcDbDictionary
280
     1
281
     1
  3
ACAD_LAYOUTSELFREF
360
5D8B
  3
ACAD_SORTENTS
360
460
  0
DICTIONARY
  5
5D89
330
15
100
AcDbDictionary
280
     1
281
     1
  3
ACAD_LAYOUTSELFREF
360
5D8A
  0
DICTIONARY
  5
8888
330
8887
100
AcDbDictionary
280
     1
281
     1
  3
AcDbBlockTableRecordData
360
8889
  0
DICTIONARY
  5
8CDE
330
8C1C
100
AcDbDictionary
280
     1
281
     1
  3
ACAD_SORTENTS
360
8CDF
  0
DICTIONARY
  5
8872
102
{ACAD_REACTORS
330
C
102
}
330
C
100
AcDbDictionary
281
     1
  0
DICTIONARY
  5
D
102
{ACAD_REACTORS
330
C
102
}
330
C
100
AcDbDictionary
281
     1
  0
DICTIONARY
  5
5CF3
102
{ACAD_REACTORS
330
C
102
}
330
C
100
AcDbDictionary
281
     1
  3
Model
350
5CF5
  3
配置1
350
5CF6
  0
DICTIONARY
  5
8871
102
{ACAD_REACTORS
330
C
102
}
330
C
100
AcDbDictionary
281
     1
  0
DICTIONARY
  5
1B
102
{ACAD_REACTORS
330
C
102
}
330
C
100
AcDbDictionary
281
     1
  3
STANDARD
350
1C
  0
DICTIONARY
  5
5CF4
102
{ACAD_REACTORS
330
C
102
}
330
C
100
AcDbDictionary
281
     1
  0
ACDBDICTIONARYWDFLT
  5
5CF1
102
{ACAD_REACTORS
330
C
102
}
330
C
100
AcDbDictionary
281
     1
  3
Normal
350
5CF2
100
AcDbDictionaryWithDefault
340
5CF2
  0
DICTIONARY
  5
8873
102
{ACAD_REACTORS
330
C
102
}
330
C
100
AcDbDictionary
281
     1
  3
Standard
350
8874
  0
DICTIONARY
  5
45D
102
{ACAD_REACTORS
330
C
102
}
330
C
100
AcDbDictionary
281
     1
  3
CTABLESTYLE
350
8D08
  3
SORTENTS
350
45E
  0
DICTIONARY
  5
8880
102
{ACAD_REACTORS
330
887E
102
}
330
887E
100
AcDbDictionary
281
     1
  0
DICTIONARY
  5
887F
102
{ACAD_REACTORS
330
887E
102
}
330
887E
100
AcDbDictionary
281
     1
1001
ACAD
1000
<All
  0
XRECORD
  5
5D8B
102
{ACAD_REACTORS
330
45F
102
}
330
45F
100
AcDbXrecord
280
     1
340
18
  0
SORTENTSTABLE
  5
460
102
{ACAD_REACTORS
330
45F
102
}
330
45F
100
AcDbSortentsTable
330
18
331
8A14
  5
8A14
331
8D15
  5
8D25
331
89E5
  5
89E5
331
C0
  5
CB
331
8A1C
  5
8A1C
331
968C
  5
968E
331
8A24
  5
8A24
331
89ED
  5
89ED
331
9694
  5
9696
331
8CE6
  5
8CEA
331
8A2C
  5
8A2C
331
8D35
  5
8D36
331
9722
  5
9723
331
8CEE
  5
8CF3
331
8A34
  5
8A34
331
89F5
  5
89F5
331
8CF6
  5
8CFB
331
89FD
  5
89FD
331
8D3D
  5
8D3F
331
8A05
  5
8A05
331
96F3
  5
96F5
331
9742
  5
9934
331
8A0D
  5
8A0D
331
8D06
  5
8CE4
331
9685
  5
9687
331
8D0E
  5
8D14
331
8A15
  5
8A15
331
968D
  5
968F
331
89E6
  5
89E6
331
8A1D
  5
8A1D
331
8D16
  5
8D17
331
8A25
  5
8A25
331
89EE
  5
89EE
331
9695
  5
9698
331
9723
  5
9724
331
8A2D
  5
8A2D
331
8CE7
  5
8CEB
331
8D36
  5
8D37
331
8CEF
  5
8CF4
331
8A35
  5
8A35
331
89F6
  5
89F6
331
89FE
  5
89FE
331
8CF7
  5
8CFC
331
8D3E
  5
8D40
331
8A06
  5
8A06
331
96B5
  5
96C2
331
8A0E
  5
8A0E
331
9686
  5
9688
331
8A16
  5
8A16
331
968E
  5
9690
331
89E7
  5
89E7
331
8A1E
  5
8A1E
331
8D17
  5
8D16
331
8A26
  5
8A26
331
89EF
  5
89EF
331
9696
  5
8D3E
331
9724
  5
9731
331
8A2E
  5
8A2E
331
8CE8
  5
8CEE
331
8D37
  5
8D38
331
89F7
  5
89F7
331
8CF0
  5
8CF5
331
89FF
  5
89FF
331
8CF8
  5
8CFF
331
8D3F
  5
8D41
331
96F5
  5
96F6
331
8A07
  5
8A07
331
8D00
  5
8D06
331
8A0F
  5
8A0F
331
9687
  5
9689
331
8D10
  5
8D26
331
8A17
  5
8A17
331
968F
  5
9691
331
89E8
  5
89E8
331
8A1F
  5
8A1F
331
8D30
  5
8D32
331
8A27
  5
8A27
331
8CE9
  5
8CED
331
8A2F
  5
8A2F
331
89F0
  5
89F0
331
8CF1
  5
8CF6
331
89F8
  5
89F8
331
8D38
  5
8D39
331
8CF9
  5
8D00
331
8A00
  5
8A00
331
8D40
  5
8D42
331
96F6
  5
9701
331
8A08
  5
8A08
331
8A10
  5
8A10
331
9688
  5
968A
331
8A18
  5
8A18
331
9690
  5
9692
331
89E9
  5
89E9
331
8A20
  5
8A20
331
971E
  5
971F
331
9698
  5
9699
331
8CE2
  5
8CE2
331
8A28
  5
8A28
331
8CEA
  5
8CEF
331
8A30
  5
8A30
331
89F1
  5
89F1
331
96A8
  5
96B5
331
8CF2
  5
8CF7
331
89F9
  5
89F9
331
8D39
  5
8D3A
331
96EF
  5
96F0
331
8CFA
  5
8D02
331
8A01
  5
8A01
331
8D41
  5
9683
331
8A09
  5
8A09
331
8D0A
  5
8D0D
331
8A11
  5
8A11
331
9689
  5
968B
331
8D12
  5
8D31
331
8A19
  5
8A19
331
9691
  5
9693
331
8A21
  5
8A21
331
89EA
  5
89EA
331
971F
  5
9720
331
9699
  5
969A
331
8CE3
  5
8CE6
331
8A29
  5
8A29
331
8D32
  5
8D35
331
96E0
  5
96EF
331
8CEB
  5
8CF0
331
8A31
  5
8A31
331
89F2
  5
89F2
331
8CF3
  5
8CF8
331
89FA
  5
89FA
331
8D3A
  5
8D3B
331
96F0
  5
96F1
331
8CFB
  5
8D03
331
8A02
  5
8A02
331
8D42
  5
9684
331
973F
  5
9740
331
8D03
  5
8D05
331
8A0A
  5
8A0A
331
8D0B
  5
8D0F
331
8A12
  5
8A12
331
968A
  5
968C
331
8D13
  5
8D11
331
89E3
  5
89E3
331
8A1A
  5
8A1A
331
9692
  5
9694
331
89EB
  5
89EB
331
8A22
  5
8A22
331
9720
  5
9721
331
969A
  5
969B
331
8CE4
  5
8CE8
331
8A2A
  5
8A2A
331
8CEC
  5
8CF1
331
8A32
  5
8A32
331
89F3
  5
89F3
331
8CF4
  5
8CF9
331
89FB
  5
89FB
331
8D3B
  5
8D3C
331
96F1
  5
96F2
331
8CFC
  5
8D04
331
8A03
  5
8A03
331
9976
  5
8D0C
331
9740
  5
9741
331
9701
  5
9711
331
8D04
  5
8D0B
331
8A0B
  5
8A0B
331
96C2
  5
96D2
331
8D0C
  5
8D10
331
9683
  5
9685
331
8A13
  5
8A13
331
96D2
  5
96E0
331
8D14
  5
8D0E
331
89E4
  5
89E4
331
8A1B
  5
8A1B
331
968B
  5
968D
331
9711
  5
971E
331
8A23
  5
8A23
331
89EC
  5
89EC
331
9693
  5
9695
331
9721
  5
9722
331
8A2B
  5
8A2B
331
969B
  5
96A8
331
8CED
  5
8CF2
331
8A33
  5
8A33
331
89F4
  5
89F4
331
8CF5
  5
8CFA
331
89FC
  5
89FC
331
8D3C
  5
8D3D
331
9731
  5
973F
331
8A04
  5
8A04
331
96F2
  5
96F3
331
8D05
  5
8CE5
331
8A0C
  5
8A0C
331
9741
  5
9742
331
8D0D
  5
8D12
331
9684
  5
9686
  0
XRECORD
  5
5D8A
102
{ACAD_REACTORS
330
5D89
102
}
330
5D89
100
AcDbXrecord
280
     1
340
15
  0
DICTIONARY
  5
8889
102
{ACAD_REACTORS
330
8888
102
}
330
8888
100
AcDbDictionary
280
     1
281
     1
  3
Edit
360
888A
  0
SORTENTSTABLE
  5
8CDF
102
{ACAD_REACTORS
330
8CDE
102
}
330
8CDE
100
AcDbSortentsTable
330
8C1C
  0
LAYOUT
  5
5CF5
102
{ACAD_REACTORS
330
5CF3
102
}
330
5CF3
100
AcDbPlotSettings
  1

  2
none_device
  4
ISO_A4_(210.00_x_297.00_MM)
  6

 40
7.5
 41
20.0
 42
7.5
 43
20.0
 44
210.0
 45
297.0
 46
0.0
 47
0.0
 48
0.0
 49
0.0
140
0.0
141
0.0
142
1.0
143
2.288374268095543
 70
 11952
 72
     1
 73
     1
 74
     0
  7
a.ctb
 75
     0
147
0.4369914545631695
 76
     0
 77
     2
 78
   300
148
-156.2819783897771
149
-232.2822650695017
100
AcDbLayout
  1
Model
 70
     1
 71
     0
 10
0.0
 20
0.0
 11
12.0
 21
9.0
 12
0.0
 22
0.0
 32
0.0
 14
0.0
 24
0.0
 34
0.0
 15
0.0
 25
0.0
 35
0.0
146
0.0
 13
0.0
 23
0.0
 33
0.0
 16
1.0
 26
0.0
 36
0.0
 17
0.0
 27
1.0
 37
0.0
 76
     0
330
18
1001
ACAD_PSEXT
1000
なし
1000
なし
1000
適切ではありません
1000
新しいプロッタ環境設定名を選択しない限り、レイアウトは印刷されません。
1070
     0
  0
LAYOUT
  5
5CF6
102
{ACAD_REACTORS
330
5CF3
102
}
330
5CF3
100
AcDbPlotSettings
  1

  2
EPSON STYLUS COLOR 440
  4

  6

 40
0.0
 41
0.0
 42
0.0
 43
0.0
 44
0.0
 45
0.0
 46
0.0
 47
0.0
 48
0.0
 49
0.0
140
0.0
141
0.0
142
1.0
143
1.0
 70
   688
 72
     0
 73
     0
 74
     5
  7
a.ctb
 75
    16
147
1.0
 76
     0
 77
     2
 78
   300
148
0.0
149
0.0
100
AcDbLayout
  1
ｰtｸm1
 70
     1
 71
     1
 10
0.0
 20
0.0
 11
420.0
 21
297.0
 12
0.0
 22
0.0
 32
0.0
 14
1.000000000000000E+20
 24
1.000000000000000E+20
 34
1.000000000000000E+20
 15
-1.000000000000000E+20
 25
-1.000000000000000E+20
 35
-1.000000000000000E+20
146
0.0
 13
0.0
 23
0.0
 33
0.0
 16
1.0
 26
0.0
 36
0.0
 17
0.0
 27
1.0
 37
0.0
 76
     0
330
15
  0
MLINESTYLE
  5
1C
102
{ACAD_REACTORS
330
1B
102
}
330
1B
100
AcDbMlineStyle
  2
STANDARD
 70
     0
  3

 62
   256
 51
90.0
 52
90.0
 71
     2
 49
0.5
 62
   256
  6
BYLAYER
 49
-0.5
 62
   256
  6
BYLAYER
  0
ACDBPLACEHOLDER
  5
5CF2
102
{ACAD_REACTORS
330
5CF1
102
}
330
5CF1
  0
TABLESTYLE
  5
8874
102
{ACAD_REACTORS
330
8873
102
}
330
8873
100
AcDbTableStyle
  3
Standard
 70
     0
 71
     8
 40
1.5
 41
1.5
280
     0
281
     0
  7
STANDARD
140
4.5
170
     2
 62
     0
 63
     7
283
     0
274
    -2
284
     1
 64
     0
275
    -2
285
     1
 65
     0
276
    -2
286
     1
 66
     0
277
    -2
287
     1
 67
     0
278
    -2
288
     1
 68
     0
279
    -2
289
     1
 69
     0
  7
STANDARD
140
6.0
170
     5
 62
     0
 63
     7
283
     0
274
    -2
284
     1
 64
     0
275
    -2
285
     1
 65
     0
276
    -2
286
     1
 66
     0
277
    -2
287
     1
 67
     0
278
    -2
288
     1
 68
     0
279
    -2
289
     1
 69
     0
  7
STANDARD
140
4.5
170
     5
 62
     0
 63
     7
283
     0
274
    -2
284
     1
 64
     0
275
    -2
285
     1
 65
     0
276
    -2
286
     1
 66
     0
277
    -2
287
     1
 67
     0
278
    -2
288
     1
 68
     0
279
    -2
289
     1
 69
     0
  0
DICTIONARYVAR
  5
8D08
102
{ACAD_REACTORS
330
45D
102
}
330
45D
100
DictionaryVariables
280
     0
  1
STANDARD
  0
DICTIONARYVAR
  5
45E
102
{ACAD_REACTORS
330
45D
102
}
330
45D
100
DictionaryVariables
280
     0
  1
127
  0
XRECORD
  5
888A
102
{ACAD_REACTORS
330
8889
102
}
330
8889
100
AcDbXrecord
280
     1
1070
     0
1070
     1
1070
     1
  0
ENDSEC
  0
EOF
