  0
SECTION
  2
HEADER
  9
$ACADVER
  1
AC1024
  9
$ACADMAINTVER
 70
    39
  9
$DWGCODEPAGE
  3
ANSI_950
  9
$LASTSAVEDBY
  1
USER
  9
$INSBASE
 10
0.0
 20
0.0
 30
0.0
  9
$EXTMIN
 10
-0.0128164049386896
 20
-0.0090630292066862
 30
-0.0000585646209328
  9
$EXTMAX
 10
95.02807677144664
 20
140.0027623495584
 30
1.919250492749786
  9
$LIMMIN
 10
0.0
 20
0.0
  9
$LIMMAX
 10
420.0
 20
297.0
  9
$ORTHOMODE
 70
     1
  9
$REGENMODE
 70
     1
  9
$FILLMODE
 70
     1
  9
$QTEXTMODE
 70
     0
  9
$MIRRTEXT
 70
     1
  9
$LTSCALE
 40
1.0
  9
$ATTMODE
 70
     1
  9
$TEXTSIZE
 40
1.25
  9
$TRACEWID
 40
1.0
  9
$TEXTSTYLE
  7
TXT
  9
$CLAYER
  8
mark
  9
$CELTYPE
  6
BYLAYER
  9
$CECOLOR
 62
   256
  9
$CELTSCALE
 40
1.0
  9
$DISPSILH
 70
     0
  9
$DIMSCALE
 40
1.0
  9
$DIMASZ
 40
1.25
  9
$DIMEXO
 40
0.4
  9
$DIMDLI
 40
0.38
  9
$DIMRND
 40
0.0
  9
$DIMDLE
 40
0.0
  9
$DIMEXE
 40
0.4
  9
$DIMTP
 40
0.0
  9
$DIMTM
 40
0.0
  9
$DIMTXT
 40
1.25
  9
$DIMCEN
 40
0.09
  9
$DIMTSZ
 40
0.0
  9
$DIMTOL
 70
     0
  9
$DIMLIM
 70
     0
  9
$DIMTIH
 70
     0
  9
$DIMTOH
 70
     0
  9
$DIMSE1
 70
     0
  9
$DIMSE2
 70
     0
  9
$DIMTAD
 70
     3
  9
$DIMZIN
 70
     8
  9
$DIMBLK
  1
Open30
  9
$DIMASO
 70
     1
  9
$DIMSHO
 70
     1
  9
$DIMPOST
  1

  9
$DIMAPOST
  1

  9
$DIMALT
 70
     0
  9
$DIMALTD
 70
     2
  9
$DIMALTF
 40
25.4
  9
$DIMLFAC
 40
1.0
  9
$DIMTOFL
 70
     1
  9
$DIMTVP
 40
0.0
  9
$DIMTIX
 70
     0
  9
$DIMSOXD
 70
     0
  9
$DIMSAH
 70
     0
  9
$DIMBLK1
  1

  9
$DIMBLK2
  1

  9
$DIMSTYLE
  2
STANDARD
  9
$DIMCLRD
 70
   256
  9
$DIMCLRE
 70
   256
  9
$DIMCLRT
 70
     3
  9
$DIMTFAC
 40
1.0
  9
$DIMGAP
 40
0.4
  9
$DIMJUST
 70
     0
  9
$DIMSD1
 70
     0
  9
$DIMSD2
 70
     0
  9
$DIMTOLJ
 70
     1
  9
$DIMTZIN
 70
     0
  9
$DIMALTZ
 70
     0
  9
$DIMALTTZ
 70
     0
  9
$DIMUPT
 70
     0
  9
$DIMDEC
 70
     2
  9
$DIMTDEC
 70
     2
  9
$DIMALTU
 70
     2
  9
$DIMALTTD
 70
     2
  9
$DIMTXSTY
  7
STANDARD
  9
$DIMAUNIT
 70
     0
  9
$DIMADEC
 70
     2
  9
$DIMALTRND
 40
0.0
  9
$DIMAZIN
 70
     2
  9
$DIMDSEP
 70
    46
  9
$DIMATFIT
 70
     3
  9
$DIMFRAC
 70
     0
  9
$DIMLDRBLK
  1
Open30
  9
$DIMLUNIT
 70
     2
  9
$DIMLWD
 70
    -2
  9
$DIMLWE
 70
    -2
  9
$DIMTMOVE
 70
     0
  9
$DIMFXL
 40
0.18
  9
$DIMFXLON
 70
     0
  9
$DIMJOGANG
 40
1.570796326794896
  9
$DIMTFILL
 70
     0
  9
$DIMTFILLCLR
 70
     0
  9
$DIMARCSYM
 70
     1
  9
$DIMLTYPE
  6
BYBLOCK
  9
$DIMLTEX1
  6
BYBLOCK
  9
$DIMLTEX2
  6
BYBLOCK
  9
$DIMTXTDIRECTION
 70
     0
  9
$LUNITS
 70
     2
  9
$LUPREC
 70
     2
  9
$SKETCHINC
 40
1.0
  9
$FILLETRAD
 40
1.0
  9
$AUNITS
 70
     0
  9
$AUPREC
 70
     2
  9
$MENU
  1
.
  9
$ELEVATION
 40
0.0
  9
$PELEVATION
 40
0.0
  9
$THICKNESS
 40
0.0
  9
$LIMCHECK
 70
     0
  9
$CHAMFERA
 40
0.75
  9
$CHAMFERB
 40
0.75
  9
$CHAMFERC
 40
1.75
  9
$CHAMFERD
 40
0.0174532925199433
  9
$SKPOLY
 70
     0
  9
$TDCREATE
 40
2451555.578568171
  9
$TDUCREATE
 40
2451555.245234838
  9
$TDUPDATE
 40
2458459.491321760
  9
$TDUUPDATE
 40
2458459.157988426
  9
$TDINDWG
 40
2.7786391782
  9
$TDUSRTIMER
 40
2.7786391782
  9
$USRTIMER
 70
     1
  9
$ANGBASE
 50
0.0
  9
$ANGDIR
 70
     0
  9
$PDMODE
 70
     0
  9
$PDSIZE
 40
0.0
  9
$PLINEWID
 40
0.0
  9
$SPLFRAME
 70
     0
  9
$SPLINETYPE
 70
     6
  9
$SPLINESEGS
 70
     8
  9
$HANDSEED
  5
B726
  9
$SURFTAB1
 70
     6
  9
$SURFTAB2
 70
     6
  9
$SURFTYPE
 70
     6
  9
$SURFU
 70
     6
  9
$SURFV
 70
     6
  9
$UCSBASE
  2

  9
$UCSNAME
  2

  9
$UCSORG
 10
0.0
 20
0.0
 30
0.0
  9
$UCSXDIR
 10
1.0
 20
0.0
 30
0.0
  9
$UCSYDIR
 10
0.0
 20
1.0
 30
0.0
  9
$UCSORTHOREF
  2

  9
$UCSORTHOVIEW
 70
     0
  9
$UCSORGTOP
 10
0.0
 20
0.0
 30
0.0
  9
$UCSORGBOTTOM
 10
0.0
 20
0.0
 30
0.0
  9
$UCSORGLEFT
 10
0.0
 20
0.0
 30
0.0
  9
$UCSORGRIGHT
 10
0.0
 20
0.0
 30
0.0
  9
$UCSORGFRONT
 10
0.0
 20
0.0
 30
0.0
  9
$UCSORGBACK
 10
0.0
 20
0.0
 30
0.0
  9
$PUCSBASE
  2

  9
$PUCSNAME
  2

  9
$PUCSORG
 10
0.0
 20
0.0
 30
0.0
  9
$PUCSXDIR
 10
1.0
 20
0.0
 30
0.0
  9
$PUCSYDIR
 10
0.0
 20
1.0
 30
0.0
  9
$PUCSORTHOREF
  2

  9
$PUCSORTHOVIEW
 70
     0
  9
$PUCSORGTOP
 10
0.0
 20
0.0
 30
0.0
  9
$PUCSORGBOTTOM
 10
0.0
 20
0.0
 30
0.0
  9
$PUCSORGLEFT
 10
0.0
 20
0.0
 30
0.0
  9
$PUCSORGRIGHT
 10
0.0
 20
0.0
 30
0.0
  9
$PUCSORGFRONT
 10
0.0
 20
0.0
 30
0.0
  9
$PUCSORGBACK
 10
0.0
 20
0.0
 30
0.0
  9
$USERI1
 70
     0
  9
$USERI2
 70
     0
  9
$USERI3
 70
     0
  9
$USERI4
 70
     0
  9
$USERI5
 70
     0
  9
$USERR1
 40
0.0
  9
$USERR2
 40
0.0
  9
$USERR3
 40
0.0
  9
$USERR4
 40
0.0
  9
$USERR5
 40
0.0
  9
$WORLDVIEW
 70
     1
  9
$SHADEDGE
 70
     3
  9
$SHADEDIF
 70
    70
  9
$TILEMODE
 70
     1
  9
$MAXACTVP
 70
    48
  9
$PINSBASE
 10
0.0
 20
0.0
 30
0.0
  9
$PLIMCHECK
 70
     0
  9
$PEXTMIN
 10
1.000000000000000E+20
 20
1.000000000000000E+20
 30
1.000000000000000E+20
  9
$PEXTMAX
 10
-1.000000000000000E+20
 20
-1.000000000000000E+20
 30
-1.000000000000000E+20
  9
$PLIMMIN
 10
0.0
 20
0.0
  9
$PLIMMAX
 10
420.0
 20
297.0
  9
$UNITMODE
 70
     0
  9
$VISRETAIN
 70
     1
  9
$PLINEGEN
 70
     0
  9
$PSLTSCALE
 70
     1
  9
$TREEDEPTH
 70
  3020
  9
$CMLSTYLE
  2
STANDARD
  9
$CMLJUST
 70
     0
  9
$CMLSCALE
 40
20.0
  9
$PROXYGRAPHICS
 70
     1
  9
$MEASUREMENT
 70
     1
  9
$CELWEIGHT
370
    -1
  9
$ENDCAPS
280
     0
  9
$JOINSTYLE
280
     0
  9
$LWDISPLAY
290
     0
  9
$INSUNITS
 70
     0
  9
$HYPERLINKBASE
  1

  9
$STYLESHEET
  1
LIN.ctb
  9
$XEDIT
290
     1
  9
$CEPSNTYPE
380
     0
  9
$PSTYLEMODE
290
     1
  9
$FINGERPRINTGUID
  2
{1CF51E8A-A506-11D4-A7D9-AF69F5C20846}
  9
$VERSIONGUID
  2
{561A933F-5921-4B8A-8A1C-AAA7FB0C01F4}
  9
$EXTNAMES
290
     1
  9
$PSVPSCALE
 40
0.0
  9
$OLESTARTUP
290
     0
  9
$SORTENTS
280
   127
  9
$INDEXCTL
280
     0
  9
$HIDETEXT
280
     0
  9
$XCLIPFRAME
280
     2
  9
$HALOGAP
280
     0
  9
$OBSCOLOR
 70
   257
  9
$OBSLTYPE
280
     0
  9
$INTERSECTIONDISPLAY
280
     0
  9
$INTERSECTIONCOLOR
 70
   257
  9
$DIMASSOC
280
     1
  9
$PROJECTNAME
  1

  9
$CAMERADISPLAY
290
     0
  9
$LENSLENGTH
 40
50.0
  9
$CAMERAHEIGHT
 40
0.0
  9
$STEPSPERSEC
 40
2.0
  9
$STEPSIZE
 40
6.0
  9
$3DDWFPREC
 40
2.0
  9
$PSOLWIDTH
 40
0.25
  9
$PSOLHEIGHT
 40
4.0
  9
$LOFTANG1
 40
1.570796326794896
  9
$LOFTANG2
 40
1.570796326794896
  9
$LOFTMAG1
 40
0.0
  9
$LOFTMAG2
 40
0.0
  9
$LOFTPARAM
 70
     7
  9
$LOFTNORMALS
280
     1
  9
$LATITUDE
 40
37.795
  9
$LONGITUDE
 40
-122.394
  9
$NORTHDIRECTION
 40
0.0
  9
$TIMEZONE
 70
 -8000
  9
$LIGHTGLYPHDISPLAY
280
     1
  9
$TILEMODELIGHTSYNCH
280
     1
  9
$CMATERIAL
347
AB0A
  9
$SOLIDHIST
280
     1
  9
$SHOWHIST
280
     1
  9
$DWFFRAME
280
     2
  9
$DGNFRAME
280
     0
  9
$REALWORLDSCALE
290
     1
  9
$INTERFERECOLOR
 62
     1
  9
$INTERFEREOBJVS
345
AB2C
  9
$INTERFEREVPVS
346
AB29
  9
$CSHADOW
280
     0
  9
$SHADOWPLANELOCATION
 40
0.0
  0
ENDSEC
  0
SECTION
  2
CLASSES
  0
CLASS
  1
DICTIONARYVAR
  2
AcDbDictionaryVar
  3
ObjectDBX Classes
 90
        0
 91
       22
280
     0
281
     0
  0
CLASS
  1
SORTENTSTABLE
  2
AcDbSortentsTable
  3
ObjectDBX Classes
 90
        0
 91
        1
280
     0
281
     0
  0
CLASS
  1
ACDBDICTIONARYWDFLT
  2
AcDbDictionaryWithDefault
  3
ObjectDBX Classes
 90
        0
 91
        1
280
     0
281
     0
  0
CLASS
  1
TABLESTYLE
  2
AcDbTableStyle
  3
ObjectDBX Classes
 90
     4095
 91
        1
280
     0
281
     0
  0
CLASS
  1
MATERIAL
  2
AcDbMaterial
  3
ObjectDBX Classes
 90
     1153
 91
        3
280
     0
281
     0
  0
CLASS
  1
VISUALSTYLE
  2
AcDbVisualStyle
  3
ObjectDBX Classes
 90
     4095
 91
       24
280
     0
281
     0
  0
CLASS
  1
SCALE
  2
AcDbScale
  3
ObjectDBX Classes
 90
     1153
 91
       17
280
     0
281
     0
  0
CLASS
  1
MLEADERSTYLE
  2
AcDbMLeaderStyle
  3
ACDB_MLEADERSTYLE_CLASS
 90
     4095
 91
        1
280
     0
281
     0
  0
CLASS
  1
ACME_DOCUMENT
  2
AcMeDbDoc
  3
AcMeServices
 90
     1024
 91
        2
280
     0
281
     0
  0
CLASS
  1
AMGSETTINGSOBJ
  2
AmgSettingsObj
  3
"AcadM|Product Description: AutoCAD Mechanical|Company: Autodesk, Inc."
 90
     1024
 91
        2
280
     0
281
     0
  0
CLASS
  1
ACMESCOPE
  2
AcMeScope
  3
AcMeServices
 90
     1024
 91
        1
280
     0
281
     0
  0
CLASS
  1
ACMECOMMANDHISTORY
  2
AcMeCommandHistory
  3
AcMeServices
 90
     1024
 91
        1
280
     0
281
     0
  0
CLASS
  1
ACIMSYSVARMAN
  2
AcImSysVarManager
  3
AcMeServices
 90
     1024
 91
        4
280
     0
281
     0
  0
CLASS
  1
ACIMINTSYSVAR
  2
AcImIntSysVar
  3
AcMeServices
 90
     1024
 91
       27
280
     0
281
     0
  0
CLASS
  1
ACMESTATEMGR
  2
AcMeStateMgr
  3
AcMeServices
 90
     1024
 91
        1
280
     0
281
     0
  0
CLASS
  1
ACDBENTITYCACHE
  2
AcMeEntityCache
  3
AcMeServices
 90
     1024
 91
        1
280
     0
281
     0
  0
CLASS
  1
ACGREFMASTER
  2
AcGrefMaster
  3
AcAttribServices
 90
     1024
 91
        1
280
     0
281
     0
  0
CLASS
  1
AM_DRAWING_MGR
  2
AcDmDwgMgr
  3
AcMechDwgViewMgmt
 90
     1024
 91
        1
280
     0
281
     0
  0
CLASS
  1
AM_DWG_DOCUMENT
  2
AcDmDwgDocument
  3
AcMechDwgViewMgmt
 90
     1024
 91
        1
280
     0
281
     0
  0
CLASS
  1
AM_DWG_SHEET
  2
AcDmSheet
  3
AcMechDwgViewMgmt
 90
     1024
 91
        1
280
     0
281
     0
  0
CLASS
  1
AM_VIEWDIMPARMAP
  2
AcDmViewDimParMap
  3
AcMechDwgViewMgmt
 90
     1024
 91
        1
280
     0
281
     0
  0
CLASS
  1
AMDTINTERNALREACTOR
  2
AmdtInternalReactor
  3
AcMeServices
 90
     1024
 91
        1
280
     0
281
     0
  0
CLASS
  1
ACIMREALSYSVAR
  2
AcImRealSysVar
  3
AcMeServices
 90
     1024
 91
        1
280
     0
281
     0
  0
CLASS
  1
AM_DWGMGR_NAME
  2
AcDmDwgMgrName
  3
AcMechDwgViewMgmt
 90
     1024
 91
        1
280
     0
281
     0
  0
CLASS
  1
ACME_DATABASE
  2
AcMeDbDatabase
  3
AcMeServices
 90
     1024
 91
        1
280
     0
281
     0
  0
CLASS
  1
ACRFINSADJUSTERMGR
  2
AcRfInsAdjusterMgr
  3
AcMeServices
 90
     1024
 91
        1
280
     0
281
     0
  0
CLASS
  1
ACGREFACADMASTER
  2
AcGrefacadMaster
  3
AcGrefServices
 90
     1024
 91
        1
280
     0
281
     0
  0
CLASS
  1
AMDTMENUSTATEMGR
  2
AmdtMenuStateMgr
  3
McadcomServices
 90
     1024
 91
        1
280
     0
281
     0
  0
CLASS
  1
AMDTMCOMMENUSTATE
  2
AmdtMcomMenuState
  3
McadcomServices
 90
     1024
 91
        1
280
     0
281
     0
  0
CLASS
  1
AMIMASTER
  2
AmiMaster
  3
AmiServices
 90
     1024
 91
        1
280
     0
281
     0
  0
CLASS
  1
MAPIAMMOUDLE
  2
MApiAmModule
  3
MApiAmServices
 90
     1024
 91
        1
280
     0
281
     0
  0
CLASS
  1
ACIMSTRSYSVAR
  2
AcImStrSysVar
  3
AcMeServices
 90
     1024
 91
        5
280
     0
281
     0
  0
CLASS
  1
AMDTDMMENUSTATE
  2
AmdtDmMenuState
  3
AcMechDwgViewMgmt
 90
     1024
 91
        1
280
     0
281
     0
  0
CLASS
  1
AMDTAMMENUSTATE
  2
AmdtAmMenuState
  3
DesignerAssemblies
 90
     1024
 91
        1
280
     0
281
     0
  0
CLASS
  1
ACAMPROJECT
  2
AcAmProject
  3
DesignerAssemblies
 90
     1024
 91
        1
280
     0
281
     0
  0
CLASS
  1
ACAMGRCOMPDEF
  2
AcAmGrCompDef
  3
DesignerAssemblies
 90
     1024
 91
        1
280
     0
281
     0
  0
CLASS
  1
ACAMCOMPDEF
  2
AcAmCompDef
  3
DesignerAssemblies
 90
     1024
 91
        1
280
     0
281
     0
  0
CLASS
  1
ACAMCOMPDEFMGR
  2
AcAmCompDefMgr
  3
DesignerAssemblies
 90
     1024
 91
        1
280
     0
281
     0
  0
CLASS
  1
AMCONTEXTMGR
  2
AcAmContextMgr
  3
DesignerAssemblies
 90
     1024
 91
        1
280
     0
281
     0
  0
CLASS
  1
ACAMCONTEXTMODELER
  2
AcAmContextModeler
  3
DesignerAssemblies
 90
     1024
 91
        1
280
     0
281
     0
  0
CLASS
  1
ACMDATADICTIONARY
  2
AcmDataDictionary
  3
"AcmSymBB|Product Description: AutoCAD Mechanical|Company: Autodesk, Inc."
 90
     1024
 91
        1
280
     0
281
     0
  0
CLASS
  1
ACAMGRCOMPDEFSET
  2
AcAmGrCompDefSet
  3
DesignerAssemblies
 90
     1024
 91
        1
280
     0
281
     0
  0
CLASS
  1
AMDTBROWSERDBTAB
  2
AmdtBrowserDbTab
  3
McadcomServices
 90
     1024
 91
        1
280
     0
281
     0
  0
CLASS
  1
CBROWSERAPPOBJECT
  2
CBrowserAppObject
  3
McadcomServices
 90
     1024
 91
        2
280
     0
281
     0
  0
CLASS
  1
DM_PLACEHOLDER
  2
AcDmSelsetPlaceholder
  3
AcMechDwgViewMgmt
 90
     1024
 91
        1
280
     0
281
     0
  0
CLASS
  1
EXACXREFPANELOBJECT
  2
ExAcXREFPanelObject
  3
EXAC_ESW
 90
     1025
 91
        1
280
     0
281
     0
  0
CLASS
  1
NPOCOLLECTION
  2
AcDbImpNonPersistentObjectsCollection
  3
ObjectDBX Classes
 90
     1153
 91
        1
280
     0
281
     0
  0
CLASS
  1
ACMSTANDARDISO
  2
AcmStandardISO
  3
"Amdt_StdImp|Product Description: AutoCAD Mechanical|Company: Autodesk, Inc."
 90
     1024
 91
        1
280
     0
281
     0
  0
CLASS
  1
AMDTEDGESTANDARDISO13715
  2
AmdtEdgeStdISO13715
  3
"Amdt_StdImp|Product Description: AutoCAD Mechanical|Company: Autodesk, Inc."
 90
     1024
 91
        1
280
     0
281
     0
  0
CLASS
  1
ACMSURFSTANDARDISO2002
  2
AcmSurfTextStdISO2002
  3
"Amdt_StdImp|Product Description: AutoCAD Mechanical|Company: Autodesk, Inc."
 90
     1024
 91
        1
280
     0
281
     0
  0
CLASS
  1
ACMFCFSTANDARDISO
  2
AcmFCFStdISO
  3
"Amdt_StdImp|Product Description: AutoCAD Mechanical|Company: Autodesk, Inc."
 90
     1024
 91
        1
280
     0
281
     0
  0
CLASS
  1
ACMWELDSTANDARDISO
  2
AcmWeldingStdISO
  3
"Amdt_StdImp|Product Description: AutoCAD Mechanical|Company: Autodesk, Inc."
 90
     1024
 91
        1
280
     0
281
     0
  0
CLASS
  1
ACMIDSTANDARDISO
  2
AcmIdStdISO
  3
"Amdt_StdImp|Product Description: AutoCAD Mechanical|Company: Autodesk, Inc."
 90
     1024
 91
        1
280
     0
281
     0
  0
CLASS
  1
ACMDATUMSTANDARDISO
  2
AcmDatumStdISO
  3
"Amdt_StdImp|Product Description: AutoCAD Mechanical|Company: Autodesk, Inc."
 90
     1024
 91
        1
280
     0
281
     0
  0
CLASS
  1
ACMBOMSTANDARDISO
  2
AcmBOMStdISO
  3
"Amdt_StdImp|Product Description: AutoCAD Mechanical|Company: Autodesk, Inc."
 90
     1024
 91
        1
280
     0
281
     0
  0
CLASS
  1
ACMDETAILSTANDARDISO
  2
AmdtDetailSymStdISO
  3
"Amdt_StdImp|Product Description: AutoCAD Mechanical|Company: Autodesk, Inc."
 90
     1024
 91
        1
280
     0
281
     0
  0
CLASS
  1
ACMSECTIONSTANDARDISO2001
  2
AmdtSectionSymStdISO2001
  3
"Amdt_StdImp|Product Description: AutoCAD Mechanical|Company: Autodesk, Inc."
 90
     1024
 91
        1
280
     0
281
     0
  0
CLASS
  1
ACMCENTERLINESTANDARDISO
  2
AmdtCenterLineStdISO
  3
"Amdt_StdImp|Product Description: AutoCAD Mechanical|Company: Autodesk, Inc."
 90
     1024
 91
        1
280
     0
281
     0
  0
CLASS
  1
ACMTHREADLINESTANDARDISO
  2
AmdtThreadLineStdISO
  3
"Amdt_StdImp|Product Description: AutoCAD Mechanical|Company: Autodesk, Inc."
 90
     1024
 91
        1
280
     0
281
     0
  0
CLASS
  1
ACMNOTESTANDARDISO
  2
AmdtNoteStdISO
  3
"Amdt_StdImp|Product Description: AutoCAD Mechanical|Company: Autodesk, Inc."
 90
     1024
 91
        1
280
     0
281
     0
  0
CLASS
  1
ACMTAPERSTANDARDISO
  2
AcmTaperStdISO
  3
"Amdt_StdImp|Product Description: AutoCAD Mechanical|Company: Autodesk, Inc."
 90
     1024
 91
        1
280
     0
281
     0
  0
CLASS
  1
ACMANOOTATIONVIEWSTANDARDISO
  2
AmdtAnViewStdISO
  3
"Amdt_StdImp|Product Description: AutoCAD Mechanical|Company: Autodesk, Inc."
 90
     1024
 91
        1
280
     0
281
     0
  0
CLASS
  1
ACAMGLAYSTD
  2
AcAmgLayStd
  3
"AmgLay|Product Description: AutoCAD Mechanical|Company: Autodesk, Inc."
 90
     1024
 91
        1
280
     0
281
     0
  0
CLASS
  1
ACAMGDIMSTD
  2
AcAmgDimStd
  3
"AmgDim|Product Description: AutoCAD Mechanical|Company: Autodesk, Inc."
 90
     1024
 91
        1
280
     0
281
     0
  0
CLASS
  1
AMGOBJPROPCFG
  2
AmgObjPropCfg
  3
"AmgLay|Product Description: AutoCAD Mechanical|Company: Autodesk, Inc."
 90
     1025
 91
        1
280
     0
281
     0
  0
CLASS
  1
ACAMGHOLECHARTSTDISO
  2
AcAmgHoleChartStdISO
  3
AmgDim|Product Description: AutoCAD Mechanical|Company: Autodesk, Inc.
 90
     1024
 91
        1
280
     0
281
     0
  0
CLASS
  1
ACAMGTITLESTD
  2
AcAmgTitleStd
  3
"AmgTitle|Product Description: AutoCAD Mechanical|Company: Autodesk, Inc."
 90
     4095
 91
        1
280
     0
281
     0
  0
CLASS
  1
AMDTNOTETEMPLATEDB
  2
AmdtNoteTemplateDB
  3
AcmSymBB|Product Description: AutoCAD Mechanical|Company: Autodesk, Inc.
 90
     1024
 91
        6
280
     0
281
     0
  0
CLASS
  1
ACAMGFILTERDAT
  2
AcAmgFilterDat
  3
"AcadM|Product Description: AutoCAD Mechanical|Company: Autodesk, Inc."
 90
     1024
 91
        0
280
     0
281
     0
  0
CLASS
  1
CELLSTYLEMAP
  2
AcDbCellStyleMap
  3
ObjectDBX Classes
 90
     1152
 91
        5
280
     0
281
     0
  0
CLASS
  1
MULTILEADER
  2
AcDbMLeader
  3
ACDB_MLEADER_CLASS
 90
     1025
 91
        3
280
     0
281
     1
  0
CLASS
  1
DIMASSOC
  2
AcDbDimAssoc
  3
"AcDbDimAssoc|Product Desc:     AcDim ARX App For Dimension|Company:          Autodesk, Inc.|WEB Address:      www.autodesk.com"
 90
        0
 91
        4
280
     0
281
     0
  0
CLASS
  1
CAMSSTRUCTBTNSTATE
  2
StructBtnState
  3
DesignerAssemblies
 90
     1024
 91
        1
280
     0
281
     0
  0
ENDSEC
  0
SECTION
  2
TABLES
  0
TABLE
  2
VPORT
  5
8
102
{ACAD_XDICTIONARY
360
B0B2
102
}
330
0
100
AcDbSymbolTable
 70
     1
  0
VPORT
  5
AB08
330
8
100
AcDbSymbolTableRecord
100
AcDbViewportTableRecord
  2
*Active
 70
     0
 10
0.0
 20
0.0
 11
1.0
 21
1.0
 12
47.50763018325399
 22
69.99684966017587
 13
0.0
 23
0.0
 14
10.0
 24
10.0
 15
10.0
 25
10.0
 16
0.0
 26
0.0
 36
1.0
 17
0.0
 27
0.0
 37
0.0
 40
141.0323466056255
 41
1.764004767580452
 42
50.0
 43
0.0
 44
0.0
 50
0.0
 51
0.0
 71
     0
 72
 20000
 73
     1
 74
     1
 75
     0
 76
     0
 77
     0
 78
     0
281
     0
 65
     1
110
0.0
120
0.0
130
0.0
111
1.0
121
0.0
131
0.0
112
0.0
122
1.0
132
0.0
 79
     0
146
0.0
348
AB28
 60
     3
 61
     5
292
     1
282
     1
141
0.0
142
0.0
 63
   250
421
  3355443
  0
ENDTAB
  0
TABLE
  2
LTYPE
  5
5
330
0
100
AcDbSymbolTable
 70
    21
  0
LTYPE
  5
12
330
5
100
AcDbSymbolTableRecord
100
AcDbLinetypeTableRecord
  2
BYBLOCK
 70
     0
  3

 72
    65
 73
     0
 40
0.0
  0
LTYPE
  5
13
330
5
100
AcDbSymbolTableRecord
100
AcDbLinetypeTableRecord
  2
BYLAYER
 70
     0
  3

 72
    65
 73
     0
 40
0.0
  0
LTYPE
  5
14
330
5
100
AcDbSymbolTableRecord
100
AcDbLinetypeTableRecord
  2
CONTINUOUS
 70
     0
  3
Solid line
 72
    65
 73
     0
 40
0.0
  0
LTYPE
  5
9D
330
5
100
AcDbSymbolTableRecord
100
AcDbLinetypeTableRecord
  2
CENTERX2
 70
     0
  3
Center (2x) ________  __  ________  __  _____
 72
    65
 73
     4
 40
101.6
 49
63.5
 74
     0
 49
-12.7
 74
     0
 49
12.7
 74
     0
 49
-12.7
 74
     0
  0
LTYPE
  5
A1
330
5
100
AcDbSymbolTableRecord
100
AcDbLinetypeTableRecord
  2
DASHED
 70
     0
  3
Dashed __ __ __ __ __ __ __ __ __ __ __ __ __ _
 72
    65
 73
     2
 40
19.05
 49
12.7
 74
     0
 49
-6.349999999999999
 74
     0
  0
LTYPE
  5
A2
330
5
100
AcDbSymbolTableRecord
100
AcDbLinetypeTableRecord
  2
DASHED2
 70
     0
  3
Dashed (.5x) _ _ _ _ _ _ _ _ _ _ _ _ _ _ _ _ _
 72
    65
 73
     2
 40
9.524999999999998
 49
6.349999999999999
 74
     0
 49
-3.174999999999999
 74
     0
  0
LTYPE
  5
A5
330
5
100
AcDbSymbolTableRecord
100
AcDbLinetypeTableRecord
  2
DIVIDE2
 70
     0
  3
Divide (.5x) __..__..__..__..__..__..__..__.._
 72
    65
 73
     6
 40
15.875
 49
6.349999999999999
 74
     0
 49
-3.174999999999999
 74
     0
 49
0.0
 74
     0
 49
-3.174999999999999
 74
     0
 49
0.0
 74
     0
 49
-3.174999999999999
 74
     0
  0
LTYPE
  5
650B
330
5
100
AcDbSymbolTableRecord
100
AcDbLinetypeTableRecord
  2
CENTER
 70
     0
  3
Center ____ _ ____ _ ____ _ ____ _ ____ _ ____
 72
    65
 73
     4
 40
50.8
 49
31.75
 74
     0
 49
-6.349999999999999
 74
     0
 49
6.349999999999999
 74
     0
 49
-6.349999999999999
 74
     0
  0
LTYPE
  5
650C
330
5
100
AcDbSymbolTableRecord
100
AcDbLinetypeTableRecord
  2
HIDDEN
 70
     0
  3
Hidden __ __ __ __ __ __ __ __ __ __ __ __ __ _
 72
    65
 73
     2
 40
9.524999999999998
 49
6.349999999999999
 74
     0
 49
-3.174999999999999
 74
     0
  0
LTYPE
  5
AB89
330
5
100
AcDbSymbolTableRecord
100
AcDbLinetypeTableRecord
  2
PHANTOM2
 70
     0
  3
Phantom (.5x) ___ _ _ ___ _ _ ___ _ _ ___ _ _
 72
    65
 73
     6
 40
31.75
 49
15.875
 74
     0
 49
-3.174999999999999
 74
     0
 49
3.174999999999999
 74
     0
 49
-3.174999999999999
 74
     0
 49
3.174999999999999
 74
     0
 49
-3.174999999999999
 74
     0
  0
LTYPE
  5
ABC9
330
5
100
AcDbSymbolTableRecord
100
AcDbLinetypeTableRecord
  2
AM_ISO02W050
 70
     0
  3
__ __ __ __ __ __ __ __ __ __ __ __ __ __ __
 72
    65
 73
     2
 40
7.5
 49
6.0
 74
     0
 49
-1.5
 74
     0
  0
LTYPE
  5
ABCA
330
5
100
AcDbSymbolTableRecord
100
AcDbLinetypeTableRecord
  2
AM_ISO08W050
 70
     0
  3
____ . ____ . ____ . ____ . ____ . ____ . ____
 72
    65
 73
     4
 40
18.0
 49
12.0
 74
     0
 49
-1.5
 74
     0
 49
3.0
 74
     0
 49
-1.5
 74
     0
  0
LTYPE
  5
ABCB
330
5
100
AcDbSymbolTableRecord
100
AcDbLinetypeTableRecord
  2
AM_ISO09W050
 70
     0
  3
_____ . . _____ . . _____ . . ____ .. ____
 72
    65
 73
     6
 40
22.5
 49
12.0
 74
     0
 49
-1.5
 74
     0
 49
3.0
 74
     0
 49
-1.5
 74
     0
 49
3.0
 74
     0
 49
-1.5
 74
     0
  0
LTYPE
  5
ABCC
330
5
100
AcDbSymbolTableRecord
100
AcDbLinetypeTableRecord
  2
Amconstr
 70
     0
  3
_______________________
 72
    65
 73
     2
 40
9999.0
 49
9999.0
 74
     0
 49
0.0
 74
     0
  0
LTYPE
  5
ABCD
330
5
100
AcDbSymbolTableRecord
100
AcDbLinetypeTableRecord
  2
AM_ISO08W050x2
 70
     0
  3
__ . __ . __ . __ . __ . __
 72
    65
 73
     4
 40
9.0
 49
6.0
 74
     0
 49
-0.75
 74
     0
 49
1.5
 74
     0
 49
-0.75
 74
     0
  0
LTYPE
  5
ABCE
330
5
100
AcDbSymbolTableRecord
100
AcDbLinetypeTableRecord
  2
AM_ISO02W050x2
 70
     0
  3
 _ _ _ _ _ _ _ _ _ _ _ _
 72
    65
 73
     2
 40
3.75
 49
3.0
 74
     0
 49
-0.75
 74
     0
  0
LTYPE
  5
ABD1
330
5
100
AcDbSymbolTableRecord
100
AcDbLinetypeTableRecord
  2
Amzigzag
 70
     0
  3
/\/-/\/-/\/-/\/-/\/-/\/
 72
    65
 73
     2
 40
11.0001
 49
0.0001
 74
     4
 75
   136
340
ABD0
 46
0.04
 50
0.0
 44
0.0
 45
0.0
 49
-11.0
 74
     0
  0
LTYPE
  5
ABE0
330
5
100
AcDbSymbolTableRecord
100
AcDbLinetypeTableRecord
  2
ACISOWELD
 70
     0
  3
_ _ _ _ _
 72
    65
 73
     2
 40
2.0
 49
2.0
 74
     0
 49
-1.0
 74
     0
  0
LTYPE
  5
ABE1
330
5
100
AcDbSymbolTableRecord
100
AcDbLinetypeTableRecord
  2
ACISOTGB
 70
     0
  3
__ . . __ . .
 72
    65
 73
     6
 40
9.0
 49
4.0
 74
     0
 49
-1.0
 74
     0
 49
1.0
 74
     0
 49
-1.0
 74
     0
 49
1.0
 74
     0
 49
-1.0
 74
     0
  0
LTYPE
  5
ABE2
330
5
100
AcDbSymbolTableRecord
100
AcDbLinetypeTableRecord
  2
ACISOTGL
 70
     0
  3
_ _ _ _ _
 72
    65
 73
     2
 40
3.0
 49
2.0
 74
     0
 49
-1.0
 74
     0
  0
LTYPE
  5
AE27
330
5
100
AcDbSymbolTableRecord
100
AcDbLinetypeTableRecord
  2
ACAD_ISO04W100
 70
     0
  3
ISO long-dash dot ____ . ____ . ____ . ____ . _
 72
    65
 73
     4
 40
30.0
 49
24.0
 74
     0
 49
-3.0
 74
     0
 49
0.0
 74
     0
 49
-3.0
 74
     0
  0
ENDTAB
  0
TABLE
  2
LAYER
  5
2
102
{ACAD_XDICTIONARY
360
7BFE
102
}
330
0
100
AcDbSymbolTable
 70
     9
  0
LAYER
  5
E
102
{ACAD_XDICTIONARY
360
B09B
102
}
330
2
100
AcDbSymbolTableRecord
100
AcDbLayerTableRecord
  2
0
 70
     0
 62
     7
  6
CONTINUOUS
370
    -3
390
5CF2
347
AB1A
  0
LAYER
  5
B9
102
{ACAD_XDICTIONARY
360
B09D
102
}
330
2
100
AcDbSymbolTableRecord
100
AcDbLayerTableRecord
  2
dim
 70
     0
 62
     3
  6
CONTINUOUS
370
    -3
390
5CF2
347
AB1A
  0
LAYER
  5
F2
330
2
100
AcDbSymbolTableRecord
100
AcDbLayerTableRecord
  2
DEFPOINTS
 70
     0
 62
     4
  6
CONTINUOUS
290
     0
370
    -3
390
5CF2
347
AB1A
  0
LAYER
  5
5F8B
102
{ACAD_XDICTIONARY
360
B09F
102
}
330
2
100
AcDbSymbolTableRecord
100
AcDbLayerTableRecord
  2
mark
 70
     0
 62
     6
  6
CONTINUOUS
370
    -3
390
5CF2
347
AB1A
  0
LAYER
  5
644E
102
{ACAD_XDICTIONARY
360
B0A1
102
}
330
2
100
AcDbSymbolTableRecord
100
AcDbLayerTableRecord
  2
frame
 70
     0
 62
     9
  6
CONTINUOUS
370
    -3
390
5CF2
347
AB1A
  0
LAYER
  5
650D
102
{ACAD_XDICTIONARY
360
B0A3
102
}
330
2
100
AcDbSymbolTableRecord
100
AcDbLayerTableRecord
  2
center
 70
     0
 62
     1
  6
CENTER
370
    -3
390
5CF2
347
AB1A
  0
LAYER
  5
650E
102
{ACAD_XDICTIONARY
360
B0A5
102
}
330
2
100
AcDbSymbolTableRecord
100
AcDbLayerTableRecord
  2
bowle
 70
     0
 62
     4
  6
HIDDEN
370
    -3
390
5CF2
347
AB1A
  0
LAYER
  5
650F
102
{ACAD_XDICTIONARY
360
B0A7
102
}
330
2
100
AcDbSymbolTableRecord
100
AcDbLayerTableRecord
  2
contour
 70
     0
 62
     2
  6
CONTINUOUS
370
    -3
390
5CF2
347
AB1A
  0
LAYER
  5
6510
102
{ACAD_XDICTIONARY
360
B0A9
102
}
330
2
100
AcDbSymbolTableRecord
100
AcDbLayerTableRecord
  2
section
 70
     0
 62
     5
  6
CONTINUOUS
370
    -3
390
5CF2
347
AB1A
  0
ENDTAB
  0
TABLE
  2
STYLE
  5
3
330
0
100
AcDbSymbolTable
 70
     9
  0
STYLE
  5
F
330
3
100
AcDbSymbolTableRecord
100
AcDbTextStyleTableRecord
  2
STANDARD
 70
     0
 40
0.0
 41
1.0
 50
0.0
 71
     0
 42
2.5
  3
txt
  4

  0
STYLE
  5
BE
330
3
100
AcDbSymbolTableRecord
100
AcDbTextStyleTableRecord
  2
ISOCP3
 70
     0
 40
0.0
 41
1.0
 50
0.0
 71
     0
 42
2.5
  3
isocp3.shx
  4

  0
STYLE
  5
2A37
330
3
100
AcDbSymbolTableRecord
100
AcDbTextStyleTableRecord
  2
TXT
 70
     0
 40
0.0
 41
1.0
 50
0.0
 71
     0
 42
1.25
  3
txt.shx
  4
bigfont.shx
  0
STYLE
  5
5DCB
330
3
100
AcDbSymbolTableRecord
100
AcDbTextStyleTableRecord
  2
LKK
 70
     0
 40
50.0
 41
1.5
 50
0.0
 71
     0
 42
50.0
  3
MS PGothic.ttf
  4

1001
ACAD
1000
MS PGothic
1071
    32818
  0
STYLE
  5
5DCC
330
3
100
AcDbSymbolTableRecord
100
AcDbTextStyleTableRecord
  2
JL
 70
     0
 40
10.0
 41
0.5
 50
0.0
 71
     0
 42
5.0
  3
MS Mincho.ttf
  4

1001
ACAD
1000
MS Mincho
1071
    32785
  0
STYLE
  5
ABD0
330
3
100
AcDbSymbolTableRecord
100
AcDbTextStyleTableRecord
  2

 70
     1
 40
0.0
 41
1.0
 50
0.0
 71
     0
 42
1.25
  3
genltshp.shx
  4

  0
STYLE
  5
ABDE
330
3
100
AcDbSymbolTableRecord
100
AcDbTextStyleTableRecord
  2
ACISOTS
 70
     0
 40
1.0
 41
1.0
 50
0.0
 71
     0
 42
1.25
  3
isocp.shx
  4
chineset.shx
  0
STYLE
  5
ABDF
330
3
100
AcDbSymbolTableRecord
100
AcDbTextStyleTableRecord
  2
ACISOGDT
 70
     0
 40
0.0
 41
1.0
 50
0.0
 71
     0
 42
1.25
  3
amgdt.shx
  4

  0
ENDTAB
  0
TABLE
  2
VIEW
  5
6
330
0
100
AcDbSymbolTable
 70
     0
  0
ENDTAB
  0
TABLE
  2
UCS
  5
7
330
0
100
AcDbSymbolTable
 70
     0
  0
ENDTAB
  0
TABLE
  2
APPID
  5
9
330
0
100
AcDbSymbolTable
 70
    31
  0
APPID
  5
10
330
9
100
AcDbSymbolTableRecord
100
AcDbRegAppTableRecord
  2
ACAD
 70
     0
  0
APPID
  5
7C91
330
9
100
AcDbSymbolTableRecord
100
AcDbRegAppTableRecord
  2
ACAD_DSTYLE_DIMEXT_LENGTH
 70
     0
  0
APPID
  5
7C92
330
9
100
AcDbSymbolTableRecord
100
AcDbRegAppTableRecord
  2
ACAD_DSTYLE_DIMEXT_ENABLED
 70
     0
  0
APPID
  5
7C93
330
9
100
AcDbSymbolTableRecord
100
AcDbRegAppTableRecord
  2
ACAD_DSTYLE_DIMJOGGED_JOGANGLE_SYMBOL
 70
     0
  0
APPID
  5
7C94
330
9
100
AcDbSymbolTableRecord
100
AcDbRegAppTableRecord
  2
ACAD_DSTYLE_DIMARC_LENGTH_SYMBOL
 70
     0
  0
APPID
  5
7F1C
330
9
100
AcDbSymbolTableRecord
100
AcDbRegAppTableRecord
  2
ACAD_EXEMPT_FROM_CAD_STANDARDS
 70
     0
  0
APPID
  5
7F49
330
9
100
AcDbSymbolTableRecord
100
AcDbRegAppTableRecord
  2
ACAD_DSTYLE_DIMTEXT_FILL
 70
     0
  0
APPID
  5
7F4C
330
9
100
AcDbSymbolTableRecord
100
AcDbRegAppTableRecord
  2
ACAD_DSTYLE_DIM_LINETYPE
 70
     0
  0
APPID
  5
7F4D
330
9
100
AcDbSymbolTableRecord
100
AcDbRegAppTableRecord
  2
ACAD_DSTYLE_DIM_EXT1_LINETYPE
 70
     0
  0
APPID
  5
7F4E
330
9
100
AcDbSymbolTableRecord
100
AcDbRegAppTableRecord
  2
ACAD_DSTYLE_DIM_EXT2_LINETYPE
 70
     0
  0
APPID
  5
8C73
330
9
100
AcDbSymbolTableRecord
100
AcDbRegAppTableRecord
  2
ACAD_PSEXT
 70
     0
  0
APPID
  5
AB4F
330
9
100
AcDbSymbolTableRecord
100
AcDbRegAppTableRecord
  2
ACADSTRINGINFO
 70
     0
  0
APPID
  5
AB60
330
9
100
AcDbSymbolTableRecord
100
AcDbRegAppTableRecord
  2
MCAD_NO_VIS
 70
     0
  0
APPID
  5
AB61
330
9
100
AcDbSymbolTableRecord
100
AcDbRegAppTableRecord
  2
ACAD_TEMP_GRAPHIC
 70
     0
  0
APPID
  5
AB8B
330
9
100
AcDbSymbolTableRecord
100
AcDbRegAppTableRecord
  2
AD_DRAW
 70
     0
  0
APPID
  5
AB8E
330
9
100
AcDbSymbolTableRecord
100
AcDbRegAppTableRecord
  2
ACATTRIBSERVICES
 70
     0
  0
APPID
  5
ABA7
330
9
100
AcDbSymbolTableRecord
100
AcDbRegAppTableRecord
  2
DESIGNERASSEMBLIES
 70
     0
  0
APPID
  5
ABAC
330
9
100
AcDbSymbolTableRecord
100
AcDbRegAppTableRecord
  2
ACADM_DIM_EDIT
 70
     0
  0
APPID
  5
ABAD
330
9
100
AcDbSymbolTableRecord
100
AcDbRegAppTableRecord
  2
AMDT_DM_ADJ
 70
     0
  0
APPID
  5
ABC6
330
9
100
AcDbSymbolTableRecord
100
AcDbRegAppTableRecord
  2
ACAD_DSTYLE_DIMJAG
 70
     0
  0
APPID
  5
ABC7
330
9
100
AcDbSymbolTableRecord
100
AcDbRegAppTableRecord
  2
ACAD_DSTYLE_DIMBREAK
 70
     0
  0
APPID
  5
ADB4
330
9
100
AcDbSymbolTableRecord
100
AcDbRegAppTableRecord
  2
ACLAYERTOOLS
 70
     0
  0
APPID
  5
AE2A
330
9
100
AcDbSymbolTableRecord
100
AcDbRegAppTableRecord
  2
AcadAnnotative
 70
     0
  0
APPID
  5
AE2B
330
9
100
AcDbSymbolTableRecord
100
AcDbRegAppTableRecord
  2
ACAD_DSTYLE_DIMTALN
 70
     0
  0
APPID
  5
AE2C
330
9
100
AcDbSymbolTableRecord
100
AcDbRegAppTableRecord
  2
ACAD_NAV_VCDISPLAY
 70
     0
  0
APPID
  5
AE2D
330
9
100
AcDbSymbolTableRecord
100
AcDbRegAppTableRecord
  2
GRADIENTCOLOR1ACI
 70
     0
  0
APPID
  5
AE2E
330
9
100
AcDbSymbolTableRecord
100
AcDbRegAppTableRecord
  2
GRADIENTCOLOR2ACI
 70
     0
  0
APPID
  5
B12A
330
9
100
AcDbSymbolTableRecord
100
AcDbRegAppTableRecord
  2
ACAD_MLEADERVER
 70
     0
  0
APPID
  5
B2C8
330
9
100
AcDbSymbolTableRecord
100
AcDbRegAppTableRecord
  2
ACAD_DSTYLE_DIMINSPECT
 70
     0
  0
APPID
  5
B2D4
330
9
100
AcDbSymbolTableRecord
100
AcDbRegAppTableRecord
  2
GENIUS_GENDTOL_13
 70
     0
  0
APPID
  5
B40A
330
9
100
AcDbSymbolTableRecord
100
AcDbRegAppTableRecord
  2
ACAD_DSTYLE_DIMRADIAL_EXTENSION
 70
     0
  0
ENDTAB
  0
TABLE
  2
DIMSTYLE
  5
A
330
0
100
AcDbSymbolTable
 70
    12
100
AcDbDimStyleTable
 71
     1
340
1D
  0
DIMSTYLE
105
1D
102
{ACAD_REACTORS
330
B1AD
330
B1BA
330
AFE1
330
B327
330
B342
330
B3C9
330
B3D6
330
B40B
330
B41B
102
}
330
A
100
AcDbSymbolTableRecord
100
AcDbDimStyleTableRecord
  2
STANDARD
 70
     0
 41
1.25
 42
0.4
 44
0.4
 49
0.18
 50
90.0
 73
     0
 74
     0
 77
     3
 78
     8
 79
     2
140
1.25
147
0.4
172
     1
176
   256
177
   256
178
     3
179
     2
271
     2
272
     2
340
F
341
7C04
342
7C04
1001
ACAD_DSTYLE_DIMJOGGED_JOGANGLE_SYMBOL
1070
   384
1040
1.570796326794896
  0
DIMSTYLE
105
ABC5
102
{ACAD_REACTORS
330
B191
102
}
330
A
100
AcDbSymbolTableRecord
100
AcDbDimStyleTableRecord
  2
AM_ISO
 70
     0
  4
"
 41
3.5
 42
1.0
 43
10.0
 44
1.0
 47
0.1
 48
0.1
 73
     0
 74
     0
 77
     1
 78
     8
 79
     2
 90
     1
140
3.5
141
0.0
143
0.0393701
146
0.71
147
1.5
172
     1
176
   256
177
   256
178
     2
271
     2
272
     3
274
     4
283
     0
284
     8
340
F
345
12
346
12
347
12
371
    -1
372
    -1
1001
ACAD_DSTYLE_DIMJAG
1070
   388
1040
1.5
1001
ACAD_DSTYLE_DIMBREAK
1070
   391
1040
3.75
  0
DIMSTYLE
105
ABD2
330
A
100
AcDbSymbolTableRecord
100
AcDbDimStyleTableRecord
  2
AM_ISO$3
 70
     0
  4
"
 41
3.5
 42
1.0
 43
10.0
 44
1.0
 47
0.1
 48
0.1
 73
     0
 77
     1
 78
     8
 79
     2
 90
     1
140
3.5
141
0.0
143
0.0393701
146
0.71
147
1.5
176
   256
177
   256
178
     2
271
     2
272
     3
274
     4
283
     0
284
     8
288
     1
289
     0
340
F
345
12
346
12
347
12
371
    -1
372
    -1
1001
ACAD_DSTYLE_DIMBREAK
1070
   391
1040
3.75
1001
ACAD_DSTYLE_DIMJAG
1070
   388
1040
1.5
  0
DIMSTYLE
105
ABD3
330
A
100
AcDbSymbolTableRecord
100
AcDbDimStyleTableRecord
  2
AM_ISO$4
 70
     0
  4
"
 41
3.5
 42
1.0
 43
10.0
 44
1.0
 47
0.1
 48
0.1
 73
     0
 77
     1
 78
     8
 79
     2
 90
     1
140
3.5
141
0.0
143
0.0393701
146
0.71
147
1.5
176
   256
177
   256
178
     2
271
     2
272
     3
274
     4
283
     0
284
     8
288
     1
289
     0
340
F
345
12
346
12
347
12
371
    -1
372
    -1
1001
ACAD_DSTYLE_DIMBREAK
1070
   391
1040
3.75
1001
ACAD_DSTYLE_DIMJAG
1070
   388
1040
1.5
  0
DIMSTYLE
105
ABD4
330
A
100
AcDbSymbolTableRecord
100
AcDbDimStyleTableRecord
  2
AM_ISO$6
 70
     0
  4
"
 41
3.5
 42
1.0
 43
10.0
 44
1.0
 47
0.1
 48
0.1
 73
     0
 74
     0
 78
     8
 79
     2
 90
     1
140
3.5
141
0.0
143
0.0393701
146
0.71
147
1.5
172
     1
176
   256
177
   256
178
     2
271
     2
272
     3
274
     4
283
     0
284
     8
340
F
345
12
346
12
347
12
371
    -1
372
    -1
1001
ACAD_DSTYLE_DIMBREAK
1070
   391
1040
3.75
1001
ACAD_DSTYLE_DIMJAG
1070
   388
1040
1.5
  0
DIMSTYLE
105
ABD5
330
A
100
AcDbSymbolTableRecord
100
AcDbDimStyleTableRecord
  2
AM_ISO$7
 70
     0
  4
"
 41
3.5
 42
1.0
 43
10.0
 44
1.0
 47
0.1
 48
0.1
 73
     0
 74
     0
 77
     1
 78
     8
 79
     2
 90
     1
140
3.5
141
0.0
143
0.0393701
146
0.71
147
1.5
172
     1
176
   256
177
   256
178
     2
271
     2
272
     3
274
     4
283
     0
284
     8
340
F
345
12
346
12
347
12
371
    -1
372
    -1
1001
ACAD_DSTYLE_DIMBREAK
1070
   391
1040
3.75
1001
ACAD_DSTYLE_DIMJAG
1070
   388
1040
1.5
  0
DIMSTYLE
105
ABD6
330
A
100
AcDbSymbolTableRecord
100
AcDbDimStyleTableRecord
  2
AM_ISO$SF
 70
     0
  4
"
 41
3.5
 42
1.0
 43
10.0
 44
1.0
 47
0.1
 48
0.1
 73
     0
 74
     0
 75
     1
 76
     1
 77
     1
 78
     8
 79
     2
 90
     1
140
3.5
141
0.0
143
0.0393701
146
0.71
147
1.5
172
     1
176
   256
177
   256
178
     2
271
     2
272
     3
274
     4
283
     0
284
     8
340
F
345
12
346
12
347
12
371
    -1
372
    -1
1001
ACAD_DSTYLE_DIMBREAK
1070
   391
1040
3.75
1001
ACAD_DSTYLE_DIMJAG
1070
   388
1040
1.5
  0
DIMSTYLE
105
ABDB
330
A
100
AcDbSymbolTableRecord
100
AcDbDimStyleTableRecord
  2
AM_ISO$SH
 70
     0
  4
"
 41
3.5
 42
1.0
 43
10.0
 44
1.0
 47
0.1
 48
0.1
 73
     0
 74
     0
 75
     1
 76
     1
 77
     1
 78
     8
 79
     2
 90
     1
140
3.5
141
0.0
143
0.0393701
144
2.0
146
0.71
147
1.5
172
     1
173
     1
176
   256
177
   256
178
     2
271
     2
272
     3
274
     4
283
     0
284
     8
340
F
343
ABD7
345
12
346
12
347
12
371
    -1
372
    -1
1001
ACAD_DSTYLE_DIMBREAK
1070
   391
1040
3.75
1001
ACAD_DSTYLE_DIMJAG
1070
   388
1040
1.5
  0
DIMSTYLE
105
AE28
330
A
100
AcDbSymbolTableRecord
100
AcDbDimStyleTableRecord
  2
ISO-25
 70
     0
 41
2.0
 42
0.625
 43
3.75
 44
1.0
 73
     0
 74
     0
 77
     1
 78
     8
140
1.5
141
2.5
143
0.03937007874016
147
0.625
171
     3
172
     1
271
     2
272
     2
274
     3
278
    44
283
     0
284
     8
340
F
1001
ACAD_DSTYLE_DIMJAG
1070
   388
1040
1.5
1001
ACAD_DSTYLE_DIMTALN
1070
   392
1070
     0
  0
DIMSTYLE
105
AE29
330
A
100
AcDbSymbolTableRecord
100
AcDbDimStyleTableRecord
  2
Annotative
 70
     0
 40
0.0
 41
2.5
 42
0.625
 43
3.75
 44
1.25
 73
     0
 74
     0
 77
     1
 78
     8
140
2.5
141
2.5
143
0.03937007874016
147
0.625
171
     3
172
     1
271
     2
272
     2
274
     3
278
    44
283
     0
284
     8
340
F
1001
AcadAnnotative
1000
AnnotativeData
1002
{
1070
     1
1070
     1
1002
}
1001
ACAD_DSTYLE_DIMJAG
1070
   388
1040
1.5
1001
ACAD_DSTYLE_DIMTALN
1070
   392
1070
     0
  0
ENDTAB
  0
TABLE
  2
BLOCK_RECORD
  5
1
330
0
100
AcDbSymbolTable
 70
    51
  0
BLOCK_RECORD
  5
18
102
{ACAD_XDICTIONARY
360
45F
102
}
330
1
100
AcDbSymbolTableRecord
100
AcDbBlockTableRecord
  2
*MODEL_SPACE
340
5CF5
 70
     0
280
     1
281
     0
  0
BLOCK_RECORD
  5
15
102
{ACAD_XDICTIONARY
360
5D89
102
}
330
1
100
AcDbSymbolTableRecord
100
AcDbBlockTableRecord
  2
*PAPER_SPACE
340
5CF6
 70
     0
280
     1
281
     0
  0
BLOCK_RECORD
  5
639D
330
1
100
AcDbSymbolTableRecord
100
AcDbBlockTableRecord
  2
A$C255C26A2
340
0
 70
     0
280
     1
281
     0
  0
BLOCK_RECORD
  5
7C04
330
1
100
AcDbSymbolTableRecord
100
AcDbBlockTableRecord
  2
_Open30
340
0
102
{BLKREFS
331
AD6A
331
AD6B
331
AD73
331
AD74
331
AD7C
331
AD7D
331
AD85
331
AD86
331
AD8E
331
AD8F
331
AD97
331
AD9F
331
ADA0
331
ADAA
331
ADAB
331
B2BB
331
B2BC
331
B46A
331
B46B
331
B473
331
B474
331
B47C
331
B47D
331
B485
331
B486
331
B48E
331
B48F
331
B497
331
B49F
331
B4A0
331
B4AA
331
B4AB
331
B53A
331
B53B
331
B542
331
B543
331
B54B
331
B54C
331
B555
331
B556
331
B560
331
B561
331
B568
331
B569
331
B571
331
B572
331
B57A
331
B581
331
B582
102
}
 70
     0
280
     1
281
     0
  0
BLOCK_RECORD
  5
7C0A
102
{ACAD_XDICTIONARY
360
7C0B
102
}
330
1
100
AcDbSymbolTableRecord
100
AcDbBlockTableRecord
  2
A
340
0
310
2800000020000000200000000100080000000000000400000000000000000000000000000000000000000000000080000080000000808000800000008000800080800000C0C0C000C0DCC000F0CAA6000020400000206000002080000020A0000020C0000020E00000400000004020000040400000406000004080000040A0
310
000040C0000040E00000600000006020000060400000606000006080000060A0000060C0000060E00000800000008020000080400000806000008080000080A0000080C0000080E00000A0000000A0200000A0400000A0600000A0800000A0A00000A0C00000A0E00000C0000000C0200000C0400000C0600000C0800000C0
310
A00000C0C00000C0E00000E0000000E0200000E0400000E0600000E0800000E0A00000E0C00000E0E00040000000400020004000400040006000400080004000A0004000C0004000E00040200000402020004020400040206000402080004020A0004020C0004020E000404000004040200040404000404060004040800040
310
40A0004040C0004040E00040600000406020004060400040606000406080004060A0004060C0004060E00040800000408020004080400040806000408080004080A0004080C0004080E00040A0000040A0200040A0400040A0600040A0800040A0A00040A0C00040A0E00040C0000040C0200040C0400040C0600040C08000
310
40C0A00040C0C00040C0E00040E0000040E0200040E0400040E0600040E0800040E0A00040E0C00040E0E00080000000800020008000400080006000800080008000A0008000C0008000E00080200000802020008020400080206000802080008020A0008020C0008020E00080400000804020008040400080406000804080
310
008040A0008040C0008040E00080600000806020008060400080606000806080008060A0008060C0008060E00080800000808020008080400080806000808080008080A0008080C0008080E00080A0000080A0200080A0400080A0600080A0800080A0A00080A0C00080A0E00080C0000080C0200080C0400080C0600080C0
310
800080C0A00080C0C00080C0E00080E0000080E0200080E0400080E0600080E0800080E0A00080E0C00080E0E000C0000000C0002000C0004000C0006000C0008000C000A000C000C000C000E000C0200000C0202000C0204000C0206000C0208000C020A000C020C000C020E000C0400000C0402000C0404000C0406000C0
310
408000C040A000C040C000C040E000C0600000C0602000C0604000C0606000C0608000C060A000C060C000C060E000C0800000C0802000C0804000C0806000C0808000C080A000C080C000C080E000C0A00000C0A02000C0A04000C0A06000C0A08000C0A0A000C0A0C000C0A0E000C0C00000C0C02000C0C04000C0C06000
310
C0C08000C0C0A000F0FBFF00A4A0A000808080000000FF0000FF000000FFFF00FF000000FF00FF00FFFF0000FFFFFF0000000000000000000000000000000000000000000000000000000000000000000000000000000000000000000000000000000000000000000000000000000000000000000000000000000000000000
310
00000000000000000000000000000000000000000000000000000000000000000000000000000000000000000000000000000000000000000000000000000000000000000000000000000000000000000000000000000000000000000000000000000000000000000000000000000000000000000000000000000000000000
310
00000000000000000000000000000000000000000000000000000000000000000000000000000000000000000000000000000000000000000000000000000000000000000000000000000000000000000000000000000000000000000000000000000000000000000000000000000000000000000000000000000000000000
310
000000000000FDFDFDFDFDFDFDFDFDFDFDFD0000FD0000000000000000000000000000000000FD0000FA0000000000FA00FD0000FDFD00000000000000000000000000000000FD0000FA0000000000FA00FD0000FDFDFD000000000000000000000000000000FD0000FA0000000000FA00FD0000FDFDFDFD00000000000000
310
00000000000000FD0000FAFAFAFAFAFAFA00FD0000FDFDFDFDFD00000000000000000000000000FD000000FA00000000FA00FD0000FDFDFDFDFDFDFDFDFDFDFDFDFDFDFDFDFDFDFD000000FA000000FA0000FD0000FDFDFDFDFD00000000000000000000000000FD00000000FA0000FA0000FD0000FDFDFDFD000000000000
310
0000000000000000FD00000000FA00FA000000FD0000FDFD00000000000000000000000000000000FD0000000000FAFA000000FD0000FD0000000000000000000000000000000000FD0000000000FA00000000FD0000000000000000000000000000000000000000FDFDFDFDFDFDFDFDFDFDFDFD0000000000000000000000
310
00000000000000000000000000000000000000000000000000000000000000000000000000000000000000000000000000000000000000000000000000000000000000000000000000000000000000000000000000000000000000000000000000000000000000000000000000000000000000000000000000000000000000
310
00000000000000000000000000000000000000000000000000000000000000000000000000000000000000000000000000000000000000000000000000000000000000000000000000000000000000000000000000000000000000000000000000000000000000000000000000000000000000000000000000000000000000
310
0000000000000000000000000000000000000000000000000000000000000000000000000000000000000000000000000000000000000000
 70
     0
280
     1
281
     1
  0
BLOCK_RECORD
  5
8E72
102
{ACAD_XDICTIONARY
360
8E73
102
}
330
1
100
AcDbSymbolTableRecord
100
AcDbBlockTableRecord
  2
LS
340
0
310
2800000020000000200000000100080000000000000400000000000000000000000000000000000000000000000080000080000000808000800000008000800080800000C0C0C000C0DCC000F0CAA6000020400000206000002080000020A0000020C0000020E00000400000004020000040400000406000004080000040A0
310
000040C0000040E00000600000006020000060400000606000006080000060A0000060C0000060E00000800000008020000080400000806000008080000080A0000080C0000080E00000A0000000A0200000A0400000A0600000A0800000A0A00000A0C00000A0E00000C0000000C0200000C0400000C0600000C0800000C0
310
A00000C0C00000C0E00000E0000000E0200000E0400000E0600000E0800000E0A00000E0C00000E0E00040000000400020004000400040006000400080004000A0004000C0004000E00040200000402020004020400040206000402080004020A0004020C0004020E000404000004040200040404000404060004040800040
310
40A0004040C0004040E00040600000406020004060400040606000406080004060A0004060C0004060E00040800000408020004080400040806000408080004080A0004080C0004080E00040A0000040A0200040A0400040A0600040A0800040A0A00040A0C00040A0E00040C0000040C0200040C0400040C0600040C08000
310
40C0A00040C0C00040C0E00040E0000040E0200040E0400040E0600040E0800040E0A00040E0C00040E0E00080000000800020008000400080006000800080008000A0008000C0008000E00080200000802020008020400080206000802080008020A0008020C0008020E00080400000804020008040400080406000804080
310
008040A0008040C0008040E00080600000806020008060400080606000806080008060A0008060C0008060E00080800000808020008080400080806000808080008080A0008080C0008080E00080A0000080A0200080A0400080A0600080A0800080A0A00080A0C00080A0E00080C0000080C0200080C0400080C0600080C0
310
800080C0A00080C0C00080C0E00080E0000080E0200080E0400080E0600080E0800080E0A00080E0C00080E0E000C0000000C0002000C0004000C0006000C0008000C000A000C000C000C000E000C0200000C0202000C0204000C0206000C0208000C020A000C020C000C020E000C0400000C0402000C0404000C0406000C0
310
408000C040A000C040C000C040E000C0600000C0602000C0604000C0606000C0608000C060A000C060C000C060E000C0800000C0802000C0804000C0806000C0808000C080A000C080C000C080E000C0A00000C0A02000C0A04000C0A06000C0A08000C0A0A000C0A0C000C0A0E000C0C00000C0C02000C0C04000C0C06000
310
C0C08000C0C0A000F0FBFF00A4A0A000808080000000FF0000FF000000FFFF00FF000000FF00FF00FFFF0000FFFFFF00000000000000000000000000000000000000000000000000000000000000000000000000000000000000FBFBFEFBFEFBFBFEFBFEFBFB00000000000000000000000000000000000000FBFBFBFEFBFE
310
FBFBFEFBFEFBFBFB000000000000000000000000000000000000FB0000FE00FE0000FE00FE0000FB000000000000000000000000000000000000FB0000FE00FE0000FE00FE0000FB000000000000000000000000000000000000FB0000FEFEFEFEFEFEFEFE0000FB000000000000000000000000000000000000FB000000FE
310
FE0000FEFE000000FB000000000000000000000000000000000000FB0000000000FEFE0000000000FB000000000000000000000000000000000000FBFBFBFEFBFBFBFBFBFBFEFBFBFB000000000000000000000000000000000000000000FBFE0000000000FE000000000000000000000000000000000000000000000000FB
310
FBFBFBFBFBFEFB000000000000000000000000000000000000000000000000FBFE00000000FEFB000000000000000000000000000000000000000000000000FBFE00000000FEFB000000000000000000000000000000000000000000000000FBFE00000000FEFB000000000000000000000000000000000000000000000000
310
FBFE00000000FEFB000000000000000000000000000000000000000000000000FBFE00000000FEFB000000000000000000000000000000000000000000000000FBFE00000000FEFB000000000000000000000000000000000000000000000000FBFE00000000FEFB0000000000000000000000000000000000000000000000
310
00FBFE00000000FEFB000000000000000000000000000000000000000000000000FBFE00000000FEFB000000000000000000000000000000000000000000000000FBFE00000000FEFB000000000000000000000000000000000000000000000000FBFE00000000FEFB00000000000000000000000000000000000000000000
310
0000FBFE00000000FEFB000000000000000000000000000000000000000000000000FBFE00000000FEFB000000000000000000000000000000000000000000000000FBFE00000000FEFB000000000000000000000000000000000000000000000000FBFE00000000FEFB000000000000000000000000000000000000000000
310
000000FBFE00000000FEFB000000000000000000000000000000000000000000000000FBFE00000000FEFB000000000000000000000000000000000000000000000000FBFEFBFBFBFBFEFB00000000000000000000000000000000000000000000000000FE00000000FEFB0000000000000000000000000000000000000000
310
0000000000FBFBFBFBFBFB000000000000000000000000000000000000000000000000000000000000000000000000000000000000000000
 70
     0
280
     1
281
     1
  0
BLOCK_RECORD
  5
9B29
102
{ACAD_XDICTIONARY
360
9B2A
102
}
330
1
100
AcDbSymbolTableRecord
100
AcDbBlockTableRecord
  2
lss
340
0
310
2800000020000000200000000100080000000000000400000000000000000000000000000000000000000000000080000080000000808000800000008000800080800000C0C0C000C0DCC000F0CAA6000020400000206000002080000020A0000020C0000020E00000400000004020000040400000406000004080000040A0
310
000040C0000040E00000600000006020000060400000606000006080000060A0000060C0000060E00000800000008020000080400000806000008080000080A0000080C0000080E00000A0000000A0200000A0400000A0600000A0800000A0A00000A0C00000A0E00000C0000000C0200000C0400000C0600000C0800000C0
310
A00000C0C00000C0E00000E0000000E0200000E0400000E0600000E0800000E0A00000E0C00000E0E00040000000400020004000400040006000400080004000A0004000C0004000E00040200000402020004020400040206000402080004020A0004020C0004020E000404000004040200040404000404060004040800040
310
40A0004040C0004040E00040600000406020004060400040606000406080004060A0004060C0004060E00040800000408020004080400040806000408080004080A0004080C0004080E00040A0000040A0200040A0400040A0600040A0800040A0A00040A0C00040A0E00040C0000040C0200040C0400040C0600040C08000
310
40C0A00040C0C00040C0E00040E0000040E0200040E0400040E0600040E0800040E0A00040E0C00040E0E00080000000800020008000400080006000800080008000A0008000C0008000E00080200000802020008020400080206000802080008020A0008020C0008020E00080400000804020008040400080406000804080
310
008040A0008040C0008040E00080600000806020008060400080606000806080008060A0008060C0008060E00080800000808020008080400080806000808080008080A0008080C0008080E00080A0000080A0200080A0400080A0600080A0800080A0A00080A0C00080A0E00080C0000080C0200080C0400080C0600080C0
310
800080C0A00080C0C00080C0E00080E0000080E0200080E0400080E0600080E0800080E0A00080E0C00080E0E000C0000000C0002000C0004000C0006000C0008000C000A000C000C000C000E000C0200000C0202000C0204000C0206000C0208000C020A000C020C000C020E000C0400000C0402000C0404000C0406000C0
310
408000C040A000C040C000C040E000C0600000C0602000C0604000C0606000C0608000C060A000C060C000C060E000C0800000C0802000C0804000C0806000C0808000C080A000C080C000C080E000C0A00000C0A02000C0A04000C0A06000C0A08000C0A0A000C0A0C000C0A0E000C0C00000C0C02000C0C04000C0C06000
310
C0C08000C0C0A000F0FBFF00A4A0A000808080000000FF0000FF000000FFFF00FF000000FF00FF00FFFF0000FFFFFF000000000000000000000000000000000000000000000000000000000000000000000000000000000000FBFBFBFEFBFEFBFBFEFBFEFBFBFB0000000000000000000000000000000000FBFBFBFBFEFBFE
310
FBFBFEFBFEFBFBFBFB00000000000000000000000000000000FB000000FE00FE0000FE00FE000000FB00000000000000000000000000000000FB000000FE00FE0000FE00FE000000FB00000000000000000000000000000000FB000000FE00FE0000FE00FE000000FB00000000000000000000000000000000FB000000FEFE
310
FEFEFEFEFEFE000000FB00000000000000000000000000000000FB00000000FEFE0000FEFE00000000FB00000000000000000000000000000000FB000000000000FEFE000000000000FB00000000000000000000000000000000FBFBFBFEFBFBFBFBFBFBFBFBFEFBFBFB00000000000000000000000000000000000000FBFE
310
00000000000000FE00000000000000000000000000000000000000000000FBFEFBFBFBFBFBFBFBFB00000000000000000000000000000000000000000000FBFE000000000000FEFB00000000000000000000000000000000000000000000FBFE000000000000FEFB00000000000000000000000000000000000000000000FB
310
FE000000000000FEFB00000000000000000000000000000000000000000000FBFE000000000000FEFB00000000000000000000000000000000000000000000FBFE000000000000FEFB00000000000000000000000000000000000000000000FBFE000000000000FEFB00000000000000000000000000000000000000000000
310
FBFE000000000000FEFB00000000000000000000000000000000000000000000FBFE000000000000FEFB00000000000000000000000000000000000000000000FBFE000000000000FEFB00000000000000000000000000000000000000000000FBFE000000000000FEFB000000000000000000000000000000000000000000
310
00FBFE000000000000FEFB00000000000000000000000000000000000000000000FBFE000000000000FEFB00000000000000000000000000000000000000000000FBFE000000000000FEFB00000000000000000000000000000000000000000000FBFE000000000000FEFB0000000000000000000000000000000000000000
310
0000FBFE000000000000FEFB00000000000000000000000000000000000000000000FBFE000000000000FEFB00000000000000000000000000000000000000000000FBFEFBFBFBFBFBFBFEFB0000000000000000000000000000000000000000000000FE000000000000FE0000000000000000000000000000000000000000
310
0000000000FBFBFBFBFBFB000000000000000000000000000000000000000000000000000000000000000000000000000000000000000000
 70
     0
280
     1
281
     1
  0
BLOCK_RECORD
  5
A6C7
330
1
100
AcDbSymbolTableRecord
100
AcDbBlockTableRecord
  2
*D5
340
0
 70
     0
280
     1
281
     0
  0
BLOCK_RECORD
  5
A714
330
1
100
AcDbSymbolTableRecord
100
AcDbBlockTableRecord
  2
*D6
340
0
 70
     0
280
     1
281
     0
  0
BLOCK_RECORD
  5
A721
330
1
100
AcDbSymbolTableRecord
100
AcDbBlockTableRecord
  2
*D7
340
0
 70
     0
280
     1
281
     0
  0
BLOCK_RECORD
  5
A72E
330
1
100
AcDbSymbolTableRecord
100
AcDbBlockTableRecord
  2
*D8
340
0
 70
     0
280
     1
281
     0
  0
BLOCK_RECORD
  5
A73B
330
1
100
AcDbSymbolTableRecord
100
AcDbBlockTableRecord
  2
*D9
340
0
 70
     0
280
     1
281
     0
  0
BLOCK_RECORD
  5
A772
330
1
100
AcDbSymbolTableRecord
100
AcDbBlockTableRecord
  2
*D10
340
0
 70
     0
280
     1
281
     0
  0
BLOCK_RECORD
  5
A783
330
1
100
AcDbSymbolTableRecord
100
AcDbBlockTableRecord
  2
*D11
340
0
 70
     0
280
     1
281
     0
  0
BLOCK_RECORD
  5
A844
330
1
100
AcDbSymbolTableRecord
100
AcDbBlockTableRecord
  2
*D12
340
0
 70
     0
280
     1
281
     0
  0
BLOCK_RECORD
  5
ABD7
330
1
100
AcDbSymbolTableRecord
100
AcDbBlockTableRecord
  2
GENAXEH
340
0
 70
     0
280
     1
281
     0
  0
BLOCK_RECORD
  5
AE14
330
1
100
AcDbSymbolTableRecord
100
AcDbBlockTableRecord
  2
*U29
340
0
102
{BLKREFS
331
AE23
331
AE24
331
AE25
102
}
 70
     0
280
     1
281
     0
  0
BLOCK_RECORD
  5
AE20
102
{ACAD_XDICTIONARY
360
AE21
102
}
330
1
100
AcDbSymbolTableRecord
100
AcDbBlockTableRecord
  2
*U30
340
0
 70
     0
280
     1
281
     1
  0
BLOCK_RECORD
  5
AF1F
330
1
100
AcDbSymbolTableRecord
100
AcDbBlockTableRecord
  2
*D31
340
0
 70
     0
280
     1
281
     0
  0
BLOCK_RECORD
  5
AF2B
330
1
100
AcDbSymbolTableRecord
100
AcDbBlockTableRecord
  2
*D32
340
0
 70
     0
280
     1
281
     0
  0
BLOCK_RECORD
  5
AF37
330
1
100
AcDbSymbolTableRecord
100
AcDbBlockTableRecord
  2
*D33
340
0
 70
     0
280
     1
281
     0
  0
BLOCK_RECORD
  5
AF44
330
1
100
AcDbSymbolTableRecord
100
AcDbBlockTableRecord
  2
*D34
340
0
 70
     0
280
     1
281
     0
  0
BLOCK_RECORD
  5
AF50
330
1
100
AcDbSymbolTableRecord
100
AcDbBlockTableRecord
  2
*D35
340
0
 70
     0
280
     1
281
     0
  0
BLOCK_RECORD
  5
AF8E
330
1
100
AcDbSymbolTableRecord
100
AcDbBlockTableRecord
  2
*D36
340
0
 70
     0
280
     1
281
     0
  0
BLOCK_RECORD
  5
AF9C
330
1
100
AcDbSymbolTableRecord
100
AcDbBlockTableRecord
  2
*D37
340
0
 70
     0
280
     1
281
     0
  0
BLOCK_RECORD
  5
AFE2
330
1
100
AcDbSymbolTableRecord
100
AcDbBlockTableRecord
  2
*D38
340
0
 70
     0
280
     1
281
     0
  0
BLOCK_RECORD
  5
B1AE
330
1
100
AcDbSymbolTableRecord
100
AcDbBlockTableRecord
  2
*D40
340
0
 70
     0
280
     1
281
     0
  0
BLOCK_RECORD
  5
B1BB
330
1
100
AcDbSymbolTableRecord
100
AcDbBlockTableRecord
  2
*D41
340
0
 70
     0
280
     1
281
     0
  0
BLOCK_RECORD
  5
B2AC
330
1
100
AcDbSymbolTableRecord
100
AcDbBlockTableRecord
  2
*D42
340
0
 70
     0
280
     1
281
     0
  0
BLOCK_RECORD
  5
B328
330
1
100
AcDbSymbolTableRecord
100
AcDbBlockTableRecord
  2
*D43
340
0
 70
     0
280
     1
281
     0
  0
BLOCK_RECORD
  5
B343
330
1
100
AcDbSymbolTableRecord
100
AcDbBlockTableRecord
  2
*D44
340
0
 70
     0
280
     1
281
     0
  0
BLOCK_RECORD
  5
B3CA
330
1
100
AcDbSymbolTableRecord
100
AcDbBlockTableRecord
  2
*D45
340
0
 70
     0
280
     1
281
     0
  0
BLOCK_RECORD
  5
B3D7
330
1
100
AcDbSymbolTableRecord
100
AcDbBlockTableRecord
  2
*D46
340
0
 70
     0
280
     1
281
     0
  0
BLOCK_RECORD
  5
B40C
330
1
100
AcDbSymbolTableRecord
100
AcDbBlockTableRecord
  2
*D47
340
0
 70
     0
280
     1
281
     0
  0
BLOCK_RECORD
  5
B41C
330
1
100
AcDbSymbolTableRecord
100
AcDbBlockTableRecord
  2
*D48
340
0
 70
     0
280
     1
281
     0
  0
ENDTAB
  0
ENDSEC
  0
SECTION
  2
BLOCKS
  0
BLOCK
  5
19
330
18
100
AcDbEntity
  8
0
100
AcDbBlockBegin
  2
*MODEL_SPACE
 70
     0
 10
0.0
 20
0.0
 30
0.0
  3
*MODEL_SPACE
  1

  0
ENDBLK
  5
1A
330
18
100
AcDbEntity
  8
0
100
AcDbBlockEnd
  0
BLOCK
  5
16
330
15
100
AcDbEntity
 67
     1
  8
0
100
AcDbBlockBegin
  2
*PAPER_SPACE
 70
     0
 10
0.0
 20
0.0
 30
0.0
  3
*PAPER_SPACE
  1

  0
ENDBLK
  5
17
330
15
100
AcDbEntity
 67
     1
  8
0
100
AcDbBlockEnd
  0
BLOCK
  5
63A1
330
639D
100
AcDbEntity
  8
0
100
AcDbBlockBegin
  2
A$C255C26A2
 70
     0
 10
0.0
 20
0.0
 30
0.0
  3
A$C255C26A2
  1

  0
LWPOLYLINE
  5
639E
330
639D
100
AcDbEntity
  8
0
100
AcDbPolyline
 90
        3
 70
     1
 43
0.0
 10
7.014806023851633
 20
0.0000006939811783
 10
5.611844869720698
 20
2.430000693981241
 10
8.417767177982568
 20
2.430000693981241
  0
LWPOLYLINE
  5
639F
330
639D
100
AcDbEntity
  8
0
100
AcDbPolyline
 90
        3
 70
     1
 43
0.0
 10
4.20888371558999
 20
0.0000006939811783
 10
2.805922561459283
 20
2.430000693981241
 10
5.611844869720698
 20
2.430000693981241
  0
LWPOLYLINE
  5
63A0
330
639D
100
AcDbEntity
  8
0
100
AcDbPolyline
 90
        3
 70
     1
 43
0.0
 10
1.402961407328348
 20
0.0000006939811783
 10
0.0000002531974133
 20
2.430000693981241
 10
2.805922561459283
 20
2.430000693981241
  0
ENDBLK
  5
63A2
330
639D
100
AcDbEntity
  8
0
100
AcDbBlockEnd
  0
BLOCK
  5
7C05
330
7C04
100
AcDbEntity
  8
0
100
AcDbBlockBegin
  2
_Open30
 70
     0
 10
0.0
 20
0.0
 30
0.0
  3
_Open30
  1

  0
LINE
  5
7C06
330
7C04
100
AcDbEntity
  8
0
  6
ByBlock
 62
     0
370
    -2
100
AcDbLine
 10
-1.0
 20
0.26794919
 30
0.0
 11
0.0
 21
0.0
 31
0.0
  0
LINE
  5
7C07
330
7C04
100
AcDbEntity
  8
0
  6
ByBlock
 62
     0
370
    -2
100
AcDbLine
 10
0.0
 20
0.0
 30
0.0
 11
-1.0
 21
-0.26794919
 31
0.0
  0
LINE
  5
7C08
330
7C04
100
AcDbEntity
  8
0
  6
ByBlock
 62
     0
370
    -2
100
AcDbLine
 10
0.0
 20
0.0
 30
0.0
 11
-1.0
 21
0.0
 31
0.0
  0
ENDBLK
  5
7C09
330
7C04
100
AcDbEntity
  8
0
100
AcDbBlockEnd
  0
BLOCK
  5
7C0E
330
7C0A
100
AcDbEntity
  8
0
100
AcDbBlockBegin
  2
A
 70
     0
 10
0.0
 20
0.0
 30
0.0
  3
A
  1

  0
MTEXT
  5
7C0F
330
7C0A
100
AcDbEntity
  8
mark
 62
     3
100
AcDbMText
 10
10.65641897020822
 20
-5.596245361730467
 30
0.0
 40
2.5
 41
0.0
 46
0.0
 71
     5
 72
     1
  1
A
 73
     1
 44
1.0
  0
LWPOLYLINE
  5
7C10
330
7C0A
100
AcDbEntity
  8
mark
100
AcDbPolyline
 90
        4
 70
     1
 43
0.0
 10
9.07926800414657
 20
-7.141145101782569
 10
12.07926800414657
 20
-7.141145101782569
 10
12.07926800414657
 20
-4.141145101782569
 10
9.07926800414657
 20
-4.141145101782569
  0
HATCH
  5
7C11
330
7C0A
100
AcDbEntity
  8
mark
100
AcDbHatch
 10
0.0
 20
0.0
 30
0.0
210
0.0
220
0.0
230
1.0
  2
SOLID
 70
     1
 71
     0
 91
        1
 92
        7
 72
     0
 73
     1
 93
        3
 10
5.32926800414657
 20
-5.641145101782569
 10
4.07926800414657
 20
-4.391145101782541
 10
4.07926800414657
 20
-6.891145101782541
 97
        0
 75
     0
 76
     1
 47
0.0398277943677868
 98
        1
 10
4.589689734415287
 20
-5.732163331855076
450
        0
451
        0
460
0.0
461
0.0
452
        0
462
0.0
453
        0
470

1001
ACAD
1010
0.0
1020
0.0
1030
0.0
  0
LINE
  5
7C12
330
7C0A
100
AcDbEntity
  8
mark
100
AcDbLine
 10
5.32926800414657
 20
-5.641145101782569
 30
0.0
 11
9.07926800414657
 21
-5.641145101782569
 31
0.0
  0
LINE
  5
7C13
330
7C0A
100
AcDbEntity
  8
mark
100
AcDbLine
 10
5.32926800414657
 20
-5.641145101782569
 30
0.0
 11
4.07926800414657
 21
-4.391145101782569
 31
0.0
  0
LINE
  5
7C14
330
7C0A
100
AcDbEntity
  8
mark
100
AcDbLine
 10
5.32926800414657
 20
-5.641145101782569
 30
0.0
 11
4.07926800414657
 21
-6.891145101782569
 31
0.0
  0
ENDBLK
  5
7C15
330
7C0A
100
AcDbEntity
  8
0
100
AcDbBlockEnd
  0
BLOCK
  5
8E76
330
8E72
100
AcDbEntity
  8
0
100
AcDbBlockBegin
  2
LS
 70
     0
 10
0.0
 20
0.0
 30
0.0
  3
LS
  1

  0
LINE
  5
8E78
330
8E72
100
AcDbEntity
  8
contour
100
AcDbLine
 10
310.7457309951603
 20
181.0160360664828
 30
0.0
 11
310.7457309951603
 21
184.7160360664827
 31
0.0
  0
LINE
  5
8E79
330
8E72
100
AcDbEntity
  8
contour
100
AcDbLine
 10
310.7457309951603
 20
184.7160360664827
 30
0.0
 11
303.7457309951603
 21
184.7160360664827
 31
0.0
  0
LINE
  5
8E7A
330
8E72
100
AcDbEntity
  8
contour
100
AcDbLine
 10
308.4457309951603
 20
196.7160360664827
 30
0.0
 11
306.0457309951603
 21
196.7160360664826
 31
0.0
  0
LINE
  5
8E7B
330
8E72
100
AcDbEntity
  8
contour
100
AcDbLine
 10
309.2457309951603
 20
195.9160360664826
 30
0.0
 11
308.4457309951603
 21
196.7160360664826
 31
0.0
  0
LINE
  5
8E7C
330
8E72
100
AcDbEntity
  8
contour
100
AcDbLine
 10
303.7457309951603
 20
184.7160360664827
 30
0.0
 11
303.7457309951603
 21
181.0160360664827
 31
0.0
  0
LINE
  5
8E7D
330
8E72
100
AcDbEntity
  8
contour
100
AcDbLine
 10
304.0457309951603
 20
180.7160360664827
 30
0.0
 11
310.4457309951603
 21
180.7160360664828
 31
0.0
  0
LINE
  5
8E7E
330
8E72
100
AcDbEntity
  8
contour
100
AcDbLine
 10
310.7457309951603
 20
181.0160360664828
 30
0.0
 11
310.4457309951603
 21
180.7160360664828
 31
0.0
  0
LINE
  5
8E7F
330
8E72
100
AcDbEntity
  8
contour
100
AcDbLine
 10
303.7457309951603
 20
181.0160360664827
 30
0.0
 11
304.0457309951603
 21
180.7160360664827
 31
0.0
  0
LINE
  5
8E80
330
8E72
100
AcDbEntity
  8
contour
100
AcDbLine
 10
309.2457309951603
 20
184.7160360664826
 30
0.0
 11
309.2457309951603
 21
195.9160360664827
 31
0.0
  0
LINE
  5
8E81
330
8E72
100
AcDbEntity
  8
contour
100
AcDbLine
 10
305.2457309951603
 20
184.7160360664826
 30
0.0
 11
305.2457309951603
 21
195.9160360664827
 31
0.0
  0
LINE
  5
8E82
330
8E72
100
AcDbEntity
  8
contour
100
AcDbLine
 10
306.0457309951603
 20
196.7160360664826
 30
0.0
 11
305.2457309951603
 21
195.9160360664826
 31
0.0
  0
LINE
  5
8E83
330
8E72
100
AcDbEntity
  8
contour
100
AcDbLine
 10
309.2457309951603
 20
195.9160360664827
 30
0.0
 11
305.2457309951603
 21
195.9160360664827
 31
0.0
  0
LINE
  5
8E84
330
8E72
100
AcDbEntity
  8
contour
 62
     4
100
AcDbLine
 10
308.8667309951603
 20
185.3724833225513
 30
0.0
 11
308.8667309951603
 21
196.2950360664826
 31
0.0
  0
LINE
  5
8E85
330
8E72
100
AcDbEntity
  8
contour
 62
     4
100
AcDbLine
 10
305.6247309951603
 20
185.3724833225513
 30
0.0
 11
305.6247309951603
 21
196.2950360664826
 31
0.0
  0
LINE
  5
8E86
330
8E72
100
AcDbEntity
  8
contour
100
AcDbLine
 10
310.7457309951603
 20
181.0160360664828
 30
0.0
 11
303.7457309951603
 21
181.0160360664828
 31
0.0
  0
LINE
  5
8E87
330
8E72
100
AcDbEntity
  8
bowle
 48
0.1
100
AcDbLine
 10
308.1117563989447
 20
180.7160360664827
 30
0.0
 11
308.1117563989447
 21
182.9160360664827
 31
0.0
  0
LINE
  5
8E88
330
8E72
100
AcDbEntity
  8
bowle
 48
0.1
100
AcDbLine
 10
308.9777818027293
 20
180.7160360664827
 30
0.0
 11
308.9777818027293
 21
182.9160360664827
 31
0.0
  0
LINE
  5
8E89
330
8E72
100
AcDbEntity
  8
bowle
 48
0.1
100
AcDbLine
 10
306.3797055913759
 20
180.7160360664827
 30
0.0
 11
306.3797055913759
 21
182.9160360664826
 31
0.0
  0
LINE
  5
8E8A
330
8E72
100
AcDbEntity
  8
bowle
 48
0.1
100
AcDbLine
 10
305.5136801875914
 20
180.7160360664827
 30
0.0
 11
305.5136801875914
 21
182.9160360664826
 31
0.0
  0
LINE
  5
8E8B
330
8E72
100
AcDbEntity
  8
bowle
 48
0.1
100
AcDbLine
 10
308.9777818027292
 20
182.9160360664827
 30
0.0
 11
305.5136801875914
 21
182.9160360664827
 31
0.0
  0
LINE
  5
8E8C
330
8E72
100
AcDbEntity
  8
bowle
 48
0.1
100
AcDbLine
 10
305.5136801875914
 20
182.9160360664826
 30
0.0
 11
307.2457309951603
 21
183.9160360664826
 31
0.0
  0
LINE
  5
8E8D
330
8E72
100
AcDbEntity
  8
bowle
 48
0.1
100
AcDbLine
 10
308.9777818027292
 20
182.9160360664826
 30
0.0
 11
307.2457309951603
 21
183.9160360664826
 31
0.0
  0
LINE
  5
8E8E
330
8E72
100
AcDbEntity
  8
contour
 62
     4
100
AcDbLine
 10
305.6247309951603
 20
185.3724833225513
 30
0.0
 11
305.2457309951603
 21
184.7160360664826
 31
0.0
  0
LINE
  5
8E8F
330
8E72
100
AcDbEntity
  8
contour
100
AcDbLine
 10
305.2457309951603
 20
185.3724833225513
 30
0.0
 11
309.2457309951603
 21
185.3724833225513
 31
0.0
  0
LINE
  5
8E90
330
8E72
100
AcDbEntity
  8
contour
 62
     4
100
AcDbLine
 10
309.2457309951603
 20
184.7160360664827
 30
0.0
 11
308.8667309951603
 21
185.3724833225513
 31
0.0
  0
ENDBLK
  5
8E77
330
8E72
100
AcDbEntity
  8
0
100
AcDbBlockEnd
  0
BLOCK
  5
9B2D
330
9B29
100
AcDbEntity
  8
0
100
AcDbBlockBegin
  2
lss
 70
     0
 10
0.0
 20
0.0
 30
0.0
  3
lss
  1

  0
LINE
  5
9B2F
330
9B29
100
AcDbEntity
  8
contour
100
AcDbLine
 10
123.114219209448
 20
44.71793401399771
 30
0.0
 11
123.114219209448
 21
48.41793401399764
 31
0.0
  0
LINE
  5
9B30
330
9B29
100
AcDbEntity
  8
contour
100
AcDbLine
 10
123.114219209448
 20
48.41793401399764
 30
0.0
 11
130.114219209448
 21
48.41793401399764
 31
0.0
  0
LINE
  5
9B31
330
9B29
100
AcDbEntity
  8
contour
100
AcDbLine
 10
125.4142192094481
 20
58.41793401399764
 30
0.0
 11
127.814219209448
 21
58.41793401399758
 31
0.0
  0
LINE
  5
9B32
330
9B29
100
AcDbEntity
  8
contour
100
AcDbLine
 10
124.614219209448
 20
57.61793401399756
 30
0.0
 11
125.414219209448
 21
58.41793401399758
 31
0.0
  0
LINE
  5
9B33
330
9B29
100
AcDbEntity
  8
contour
100
AcDbLine
 10
130.114219209448
 20
48.41793401399764
 30
0.0
 11
130.114219209448
 21
44.71793401399759
 31
0.0
  0
LINE
  5
9B34
330
9B29
100
AcDbEntity
  8
contour
100
AcDbLine
 10
129.814219209448
 20
44.41793401399758
 30
0.0
 11
123.414219209448
 21
44.41793401399769
 31
0.0
  0
LINE
  5
9B35
330
9B29
100
AcDbEntity
  8
contour
100
AcDbLine
 10
123.114219209448
 20
44.71793401399771
 30
0.0
 11
123.414219209448
 21
44.41793401399769
 31
0.0
  0
LINE
  5
9B36
330
9B29
100
AcDbEntity
  8
contour
100
AcDbLine
 10
130.114219209448
 20
44.71793401399759
 30
0.0
 11
129.814219209448
 21
44.41793401399758
 31
0.0
  0
LINE
  5
9B37
330
9B29
100
AcDbEntity
  8
contour
100
AcDbLine
 10
124.614219209448
 20
48.41793401399758
 30
0.0
 11
124.614219209448
 21
57.61793401399756
 31
0.0
  0
LINE
  5
9B38
330
9B29
100
AcDbEntity
  8
contour
100
AcDbLine
 10
128.614219209448
 20
48.41793401399758
 30
0.0
 11
128.614219209448
 21
57.6179340139976
 31
0.0
  0
LINE
  5
9B39
330
9B29
100
AcDbEntity
  8
contour
100
AcDbLine
 10
127.814219209448
 20
58.41793401399758
 30
0.0
 11
128.614219209448
 21
57.61793401399756
 31
0.0
  0
LINE
  5
9B3A
330
9B29
100
AcDbEntity
  8
contour
100
AcDbLine
 10
124.614219209448
 20
57.61793401399763
 30
0.0
 11
128.614219209448
 21
57.61793401399763
 31
0.0
  0
LINE
  5
9B3B
330
9B29
100
AcDbEntity
  8
contour
 62
     4
100
AcDbLine
 10
124.993219209448
 20
49.07438127006617
 30
0.0
 11
124.9932192094479
 21
57.99693401399752
 31
0.0
  0
LINE
  5
9B3C
330
9B29
100
AcDbEntity
  8
contour
 62
     4
100
AcDbLine
 10
128.235219209448
 20
49.07438127006617
 30
0.0
 11
128.235219209448
 21
57.9969340139976
 31
0.0
  0
LINE
  5
9B3D
330
9B29
100
AcDbEntity
  8
contour
100
AcDbLine
 10
123.114219209448
 20
44.71793401399771
 30
0.0
 11
130.114219209448
 21
44.71793401399776
 31
0.0
  0
LINE
  5
9B3E
330
9B29
100
AcDbEntity
  8
bowle
 48
0.1
100
AcDbLine
 10
125.7481938056636
 20
44.41793401399763
 30
0.0
 11
125.7481938056636
 21
46.61793401399762
 31
0.0
  0
LINE
  5
9B3F
330
9B29
100
AcDbEntity
  8
bowle
 48
0.1
100
AcDbLine
 10
124.8821684018791
 20
44.41793401399758
 30
0.0
 11
124.8821684018791
 21
46.61793401399762
 31
0.0
  0
LINE
  5
9B40
330
9B29
100
AcDbEntity
  8
bowle
 48
0.1
100
AcDbLine
 10
127.4802446132324
 20
44.41793401399763
 30
0.0
 11
127.4802446132324
 21
46.61793401399757
 31
0.0
  0
LINE
  5
9B41
330
9B29
100
AcDbEntity
  8
bowle
 48
0.1
100
AcDbLine
 10
128.3462700170169
 20
44.41793401399758
 30
0.0
 11
128.346270017017
 21
46.61793401399757
 31
0.0
  0
LINE
  5
9B42
330
9B29
100
AcDbEntity
  8
bowle
 48
0.1
100
AcDbLine
 10
124.8821684018791
 20
46.61793401399762
 30
0.0
 11
128.346270017017
 21
46.61793401399762
 31
0.0
  0
LINE
  5
9B43
330
9B29
100
AcDbEntity
  8
bowle
 48
0.1
100
AcDbLine
 10
128.346270017017
 20
46.61793401399757
 30
0.0
 11
126.6142192094481
 21
47.61793401399756
 31
0.0
  0
LINE
  5
9B44
330
9B29
100
AcDbEntity
  8
bowle
 48
0.1
100
AcDbLine
 10
124.8821684018791
 20
46.61793401399757
 30
0.0
 11
126.6142192094481
 21
47.61793401399756
 31
0.0
  0
LINE
  5
9B45
330
9B29
100
AcDbEntity
  8
contour
 62
     4
100
AcDbLine
 10
128.235219209448
 20
49.07438127006622
 30
0.0
 11
128.614219209448
 21
48.41793401399758
 31
0.0
  0
LINE
  5
9B46
330
9B29
100
AcDbEntity
  8
contour
100
AcDbLine
 10
128.614219209448
 20
49.07438127006617
 30
0.0
 11
124.614219209448
 21
49.07438127006617
 31
0.0
  0
LINE
  5
9B47
330
9B29
100
AcDbEntity
  8
contour
 62
     4
100
AcDbLine
 10
124.614219209448
 20
48.41793401399764
 30
0.0
 11
124.993219209448
 21
49.07438127006617
 31
0.0
  0
ENDBLK
  5
9B2E
330
9B29
100
AcDbEntity
  8
0
100
AcDbBlockEnd
  0
BLOCK
  5
A6D1
330
A6C7
100
AcDbEntity
  8
0
100
AcDbBlockBegin
  2
*D5
 70
     1
 10
0.0
 20
0.0
 30
0.0
  3
*D5
  1

  0
LINE
  5
B467
330
A6C7
100
AcDbEntity
  8
mark
440
 16777216
370
    -2
100
AcDbLine
 10
-51.66041252928263
 20
61.49105166197358
 30
0.0
 11
-51.66041252928263
 21
64.27892191923152
 31
0.0
  0
LINE
  5
B468
330
A6C7
100
AcDbEntity
  8
mark
440
 16777216
370
    -2
100
AcDbLine
 10
-38.66041252928264
 20
61.49105166197356
 30
0.0
 11
-38.66041252928264
 21
64.27892191923152
 31
0.0
  0
LINE
  5
B469
330
A6C7
100
AcDbEntity
  8
mark
440
 16777216
370
    -2
100
AcDbLine
 10
-50.41041252928263
 20
63.87892191923151
 30
0.0
 11
-39.91041252928264
 21
63.87892191923151
 31
0.0
  0
INSERT
  5
B46A
330
A6C7
100
AcDbEntity
  8
mark
440
 16777216
370
    -2
100
AcDbBlockReference
  2
_Open30
 10
-51.66041252928263
 20
63.87892191923151
 30
0.0
 41
1.25
 42
1.25
 43
1.25
 50
180.0
  0
INSERT
  5
B46B
330
A6C7
100
AcDbEntity
  8
mark
440
 16777216
370
    -2
100
AcDbBlockReference
  2
_Open30
 10
-38.66041252928264
 20
63.87892191923151
 30
0.0
 41
1.25
 42
1.25
 43
1.25
  0
MTEXT
  5
B46C
330
A6C7
100
AcDbEntity
  8
mark
 62
     3
440
 16777216
100
AcDbMText
 10
-45.16041252928263
 20
64.90392191923152
 30
0.0
 40
1.25
 41
0.0
 46
0.0
 71
     5
 72
     1
  1
\A1;%%c13%%P0.5
 73
     1
 44
1.0
  0
POINT
  5
B46D
330
A6C7
100
AcDbEntity
  8
DEFPOINTS
 62
     0
440
 16777216
100
AcDbPoint
 10
-51.66041252928263
 20
61.09105166197358
 30
0.0
  0
POINT
  5
B46E
330
A6C7
100
AcDbEntity
  8
DEFPOINTS
 62
     0
440
 16777216
100
AcDbPoint
 10
-38.66041252928264
 20
61.09105166197356
 30
0.0
  0
POINT
  5
B46F
330
A6C7
100
AcDbEntity
  8
DEFPOINTS
 62
     0
440
 16777216
100
AcDbPoint
 10
-38.66041252928264
 20
63.87892191923151
 30
0.0
  0
ENDBLK
  5
A6D2
330
A6C7
100
AcDbEntity
  8
0
100
AcDbBlockEnd
  0
BLOCK
  5
A71E
330
A714
100
AcDbEntity
  8
0
100
AcDbBlockBegin
  2
*D6
 70
     1
 10
0.0
 20
0.0
 30
0.0
  3
*D6
  1

  0
LINE
  5
B470
330
A714
100
AcDbEntity
  8
mark
440
 16777216
370
    -2
100
AcDbLine
 10
-54.16041252928261
 20
59.99105166197356
 30
0.0
 11
-54.16041252928261
 21
67.36159119888688
 31
0.0
  0
LINE
  5
B471
330
A714
100
AcDbEntity
  8
mark
440
 16777216
370
    -2
100
AcDbLine
 10
-36.16041252928273
 20
59.9910516619736
 30
0.0
 11
-36.16041252928273
 21
67.36159119888688
 31
0.0
  0
LINE
  5
B472
330
A714
100
AcDbEntity
  8
mark
440
 16777216
370
    -2
100
AcDbLine
 10
-52.91041252928261
 20
66.96159119888688
 30
0.0
 11
-37.41041252928273
 21
66.96159119888688
 31
0.0
  0
INSERT
  5
B473
330
A714
100
AcDbEntity
  8
mark
440
 16777216
370
    -2
100
AcDbBlockReference
  2
_Open30
 10
-54.16041252928261
 20
66.96159119888688
 30
0.0
 41
1.25
 42
1.25
 43
1.25
 50
180.0
  0
INSERT
  5
B474
330
A714
100
AcDbEntity
  8
mark
440
 16777216
370
    -2
100
AcDbBlockReference
  2
_Open30
 10
-36.16041252928273
 20
66.96159119888688
 30
0.0
 41
1.25
 42
1.25
 43
1.25
  0
MTEXT
  5
B475
330
A714
100
AcDbEntity
  8
mark
 62
     3
440
 16777216
100
AcDbMText
 10
-45.16041252928267
 20
67.98659119888688
 30
0.0
 40
1.25
 41
0.0
 46
0.0
 71
     5
 72
     1
  1
\A1;%%c18
 73
     1
 44
1.0
  0
POINT
  5
B476
330
A714
100
AcDbEntity
  8
DEFPOINTS
 62
     0
440
 16777216
100
AcDbPoint
 10
-54.16041252928261
 20
59.59105166197357
 30
0.0
  0
POINT
  5
B477
330
A714
100
AcDbEntity
  8
DEFPOINTS
 62
     0
440
 16777216
100
AcDbPoint
 10
-36.16041252928273
 20
59.5910516619736
 30
0.0
  0
POINT
  5
B478
330
A714
100
AcDbEntity
  8
DEFPOINTS
 62
     0
440
 16777216
100
AcDbPoint
 10
-36.16041252928273
 20
66.96159119888688
 30
0.0
  0
ENDBLK
  5
A71F
330
A714
100
AcDbEntity
  8
0
100
AcDbBlockEnd
  0
BLOCK
  5
A72B
330
A721
100
AcDbEntity
  8
0
100
AcDbBlockBegin
  2
*D7
 70
     1
 10
0.0
 20
0.0
 30
0.0
  3
*D7
  1

  0
LINE
  5
B479
330
A721
100
AcDbEntity
  8
mark
440
 16777216
370
    -2
100
AcDbLine
 10
-37.26041252928264
 20
61.09105166197356
 30
0.0
 11
-31.04052931127041
 21
61.09105166197356
 31
0.0
  0
LINE
  5
B47A
330
A721
100
AcDbEntity
  8
mark
440
 16777216
370
    -2
100
AcDbLine
 10
-34.76041252928276
 20
57.09105166197353
 30
0.0
 11
-31.04052931127041
 21
57.09105166197353
 31
0.0
  0
LINE
  5
B47B
330
A721
100
AcDbEntity
  8
mark
440
 16777216
370
    -2
100
AcDbLine
 10
-31.44052931127041
 20
59.84105166197356
 30
0.0
 11
-31.44052931127041
 21
58.34105166197353
 31
0.0
  0
INSERT
  5
B47C
330
A721
100
AcDbEntity
  8
mark
440
 16777216
370
    -2
100
AcDbBlockReference
  2
_Open30
 10
-31.44052931127041
 20
61.09105166197356
 30
0.0
 41
1.25
 42
1.25
 43
1.25
 50
90.0
  0
INSERT
  5
B47D
330
A721
100
AcDbEntity
  8
mark
440
 16777216
370
    -2
100
AcDbBlockReference
  2
_Open30
 10
-31.44052931127041
 20
57.09105166197353
 30
0.0
 41
1.25
 42
1.25
 43
1.25
 50
270.0
  0
MTEXT
  5
B47E
330
A721
100
AcDbEntity
  8
mark
 62
     3
440
 16777216
100
AcDbMText
 10
-32.46552931127042
 20
59.09105166197354
 30
0.0
 40
1.25
 41
0.0
 46
0.0
 71
     5
 72
     1
  1
\A1;4
 11
0.0000000000000001
 21
1.0
 31
0.0
 73
     1
 44
1.0
  0
POINT
  5
B47F
330
A721
100
AcDbEntity
  8
DEFPOINTS
 62
     0
440
 16777216
100
AcDbPoint
 10
-37.66041252928264
 20
61.09105166197356
 30
0.0
  0
POINT
  5
B480
330
A721
100
AcDbEntity
  8
DEFPOINTS
 62
     0
440
 16777216
100
AcDbPoint
 10
-35.16041252928275
 20
57.09105166197353
 30
0.0
  0
POINT
  5
B481
330
A721
100
AcDbEntity
  8
DEFPOINTS
 62
     0
440
 16777216
100
AcDbPoint
 10
-31.44052931127041
 20
57.09105166197353
 30
0.0
  0
ENDBLK
  5
A72C
330
A721
100
AcDbEntity
  8
0
100
AcDbBlockEnd
  0
BLOCK
  5
A738
330
A72E
100
AcDbEntity
  8
0
100
AcDbBlockBegin
  2
*D8
 70
     1
 10
0.0
 20
0.0
 30
0.0
  3
*D8
  1

  0
LINE
  5
B482
330
A72E
100
AcDbEntity
  8
mark
440
 16777216
370
    -2
100
AcDbLine
 10
-38.26041252928264
 20
61.09105166197355
 30
0.0
 11
-27.3058231744663
 21
61.09105166197355
 31
0.0
  0
LINE
  5
B483
330
A72E
100
AcDbEntity
  8
mark
440
 16777216
370
    -2
100
AcDbLine
 10
-36.7604125292827
 20
53.09105166197356
 30
0.0
 11
-27.3058231744663
 21
53.09105166197356
 31
0.0
  0
LINE
  5
B484
330
A72E
100
AcDbEntity
  8
mark
440
 16777216
370
    -2
100
AcDbLine
 10
-27.7058231744663
 20
59.84105166197355
 30
0.0
 11
-27.7058231744663
 21
54.34105166197356
 31
0.0
  0
INSERT
  5
B485
330
A72E
100
AcDbEntity
  8
mark
440
 16777216
370
    -2
100
AcDbBlockReference
  2
_Open30
 10
-27.7058231744663
 20
61.09105166197355
 30
0.0
 41
1.25
 42
1.25
 43
1.25
 50
90.0
  0
INSERT
  5
B486
330
A72E
100
AcDbEntity
  8
mark
440
 16777216
370
    -2
100
AcDbBlockReference
  2
_Open30
 10
-27.7058231744663
 20
53.09105166197356
 30
0.0
 41
1.25
 42
1.25
 43
1.25
 50
270.0
  0
MTEXT
  5
B487
330
A72E
100
AcDbEntity
  8
mark
 62
     3
440
 16777216
100
AcDbMText
 10
-28.73082317446631
 20
57.09105166197355
 30
0.0
 40
1.25
 41
0.0
 46
0.0
 71
     5
 72
     1
  1
\A1;8%%p0.2
 11
0.0000000000000001
 21
1.0
 31
0.0
 73
     1
 44
1.0
  0
POINT
  5
B488
330
A72E
100
AcDbEntity
  8
DEFPOINTS
 62
     0
440
 16777216
100
AcDbPoint
 10
-38.66041252928264
 20
61.09105166197355
 30
0.0
  0
POINT
  5
B489
330
A72E
100
AcDbEntity
  8
DEFPOINTS
 62
     0
440
 16777216
100
AcDbPoint
 10
-37.1604125292827
 20
53.09105166197356
 30
0.0
  0
POINT
  5
B48A
330
A72E
100
AcDbEntity
  8
DEFPOINTS
 62
     0
440
 16777216
100
AcDbPoint
 10
-27.7058231744663
 20
53.09105166197356
 30
0.0
  0
ENDBLK
  5
A739
330
A72E
100
AcDbEntity
  8
0
100
AcDbBlockEnd
  0
BLOCK
  5
A745
330
A73B
100
AcDbEntity
  8
0
100
AcDbBlockBegin
  2
*D9
 70
     1
 10
0.0
 20
0.0
 30
0.0
  3
*D9
  1

  0
LINE
  5
B48B
330
A73B
100
AcDbEntity
  8
mark
440
 16777216
370
    -2
100
AcDbLine
 10
-50.16041252928264
 20
53.03505166197358
 30
0.0
 11
-50.16041252928264
 21
44.53695335765151
 31
0.0
  0
LINE
  5
B48C
330
A73B
100
AcDbEntity
  8
mark
440
 16777216
370
    -2
100
AcDbLine
 10
-40.16041252928263
 20
53.03505166197353
 30
0.0
 11
-40.16041252928263
 21
44.53695335765151
 31
0.0
  0
LINE
  5
B48D
330
A73B
100
AcDbEntity
  8
mark
440
 16777216
370
    -2
100
AcDbLine
 10
-48.91041252928264
 20
44.93695335765151
 30
0.0
 11
-41.41041252928263
 21
44.93695335765151
 31
0.0
  0
INSERT
  5
B48E
330
A73B
100
AcDbEntity
  8
mark
440
 16777216
370
    -2
100
AcDbBlockReference
  2
_Open30
 10
-50.16041252928264
 20
44.93695335765151
 30
0.0
 41
1.25
 42
1.25
 43
1.25
 50
180.0
  0
INSERT
  5
B48F
330
A73B
100
AcDbEntity
  8
mark
440
 16777216
370
    -2
100
AcDbBlockReference
  2
_Open30
 10
-40.16041252928263
 20
44.93695335765151
 30
0.0
 41
1.25
 42
1.25
 43
1.25
  0
MTEXT
  5
B490
330
A73B
100
AcDbEntity
  8
mark
 62
     3
440
 16777216
100
AcDbMText
 10
-45.16041252928263
 20
45.96195335765151
 30
0.0
 40
1.25
 41
0.0
 46
0.0
 71
     5
 72
     1
  1
\A1;M10X0.75P
 73
     1
 44
1.0
  0
POINT
  5
B491
330
A73B
100
AcDbEntity
  8
DEFPOINTS
 62
     0
440
 16777216
100
AcDbPoint
 10
-50.16041252928264
 20
53.43505166197358
 30
0.0
  0
POINT
  5
B492
330
A73B
100
AcDbEntity
  8
DEFPOINTS
 62
     0
440
 16777216
100
AcDbPoint
 10
-40.16041252928263
 20
53.43505166197353
 30
0.0
  0
POINT
  5
B493
330
A73B
100
AcDbEntity
  8
DEFPOINTS
 62
     0
440
 16777216
100
AcDbPoint
 10
-40.16041252928263
 20
44.93695335765151
 30
0.0
  0
ENDBLK
  5
A746
330
A73B
100
AcDbEntity
  8
0
100
AcDbBlockEnd
  0
BLOCK
  5
A779
330
A772
100
AcDbEntity
  8
0
100
AcDbBlockBegin
  2
*D10
 70
     1
 10
0.0
 20
0.0
 30
0.0
  3
*D10
  1

  0
LINE
  5
B494
330
A772
100
AcDbEntity
  8
mark
440
 16777216
370
    -2
100
AcDbLine
 10
-57.37948299036254
 20
49.87198120089399
 30
0.0
 11
-54.7514027869524
 21
52.50006140430386
 31
0.0
  0
MTEXT
  5
B495
330
A772
100
AcDbEntity
  8
mark
 62
     3
440
 16777216
100
AcDbMText
 10
-57.23216907761528
 20
51.46886401507361
 30
0.0
 40
1.25
 41
0.0
 46
0.0
 71
     5
 72
     1
  1
\A1;R1
 11
0.707106781186586
 21
0.707106781186509
 31
0.0
 73
     1
 44
1.0
  0
LINE
  5
B496
330
A772
100
AcDbEntity
  8
mark
440
 16777216
370
    -2
100
AcDbLine
 10
-53.16041252928251
 20
54.09105166197358
 30
0.0
 11
-53.86751931046917
 21
53.38394488078699
 31
0.0
  0
INSERT
  5
B497
330
A772
100
AcDbEntity
  8
mark
440
 16777216
370
    -2
100
AcDbBlockReference
  2
_Open30
 10
-53.86751931046917
 20
53.38394488078699
 30
0.0
 41
1.25
 42
1.25
 43
1.25
 50
44.99999999999688
  0
POINT
  5
B498
330
A772
100
AcDbEntity
  8
DEFPOINTS
 62
     0
440
 16777216
100
AcDbPoint
 10
-53.86751931046917
 20
53.38394488078699
 30
0.0
  0
POINT
  5
B499
330
A772
100
AcDbEntity
  8
DEFPOINTS
 62
     0
440
 16777216
100
AcDbPoint
 10
-53.16041252928251
 20
54.09105166197358
 30
0.0
  0
ENDBLK
  5
A77A
330
A772
100
AcDbEntity
  8
0
100
AcDbBlockEnd
  0
BLOCK
  5
A78F
330
A783
100
AcDbEntity
  8
0
100
AcDbBlockBegin
  2
*D11
 70
     1
 10
0.0
 20
0.0
 30
0.0
  3
*D11
  1

  0
LINE
  5
B49A
330
A783
100
AcDbEntity
  8
mark
440
 16777216
370
    -2
100
AcDbLine
 10
-53.5604125292826
 20
60.59105166197356
 30
0.0
 11
-57.77948299036246
 21
60.59105166197356
 31
0.0
  0
LINE
  5
B49B
330
A783
100
AcDbEntity
  8
mark
440
 16777216
370
    -2
100
AcDbLine
 10
-52.06041252928264
 20
61.09105166197355
 30
0.0
 11
-57.77948299036246
 21
61.09105166197355
 31
0.0
  0
LINE
  5
B49C
330
A783
100
AcDbEntity
  8
mark
440
 16777216
370
    -2
100
AcDbLine
 10
-57.37948299036247
 20
59.34105166197356
 30
0.0
 11
-57.37948299036247
 21
58.09105166197356
 31
0.0
  0
LINE
  5
B49D
330
A783
100
AcDbEntity
  8
mark
440
 16777216
370
    -2
100
AcDbLine
 10
-57.37948299036247
 20
62.34105166197355
 30
0.0
 11
-57.37948299036247
 21
63.59105166197355
 31
0.0
  0
LINE
  5
B49E
330
A783
100
AcDbEntity
  8
mark
440
 16777216
370
    -2
100
AcDbLine
 10
-57.37948299036247
 20
60.59105166197356
 30
0.0
 11
-57.37948299036247
 21
61.09105166197355
 31
0.0
  0
INSERT
  5
B49F
330
A783
100
AcDbEntity
  8
mark
440
 16777216
370
    -2
100
AcDbBlockReference
  2
_Open30
 10
-57.37948299036247
 20
60.59105166197356
 30
0.0
 41
1.25
 42
1.25
 43
1.25
 50
90.0
  0
INSERT
  5
B4A0
330
A783
100
AcDbEntity
  8
mark
440
 16777216
370
    -2
100
AcDbBlockReference
  2
_Open30
 10
-57.37948299036247
 20
61.09105166197355
 30
0.0
 41
1.25
 42
1.25
 43
1.25
 50
270.0
  0
MTEXT
  5
B4A1
330
A783
100
AcDbEntity
  8
mark
 62
     3
440
 16777216
100
AcDbMText
 10
-58.40448299036247
 20
60.84105166197355
 30
0.0
 40
1.25
 41
0.0
 46
0.0
 71
     5
 72
     1
  1
\A1;0.5
 11
0.0000000000000001
 21
1.0
 31
0.0
 73
     1
 44
1.0
  0
POINT
  5
B4A2
330
A783
100
AcDbEntity
  8
DEFPOINTS
 62
     0
440
 16777216
100
AcDbPoint
 10
-53.16041252928261
 20
60.59105166197356
 30
0.0
  0
POINT
  5
B4A3
330
A783
100
AcDbEntity
  8
DEFPOINTS
 62
     0
440
 16777216
100
AcDbPoint
 10
-51.66041252928263
 20
61.09105166197355
 30
0.0
  0
POINT
  5
B4A4
330
A783
100
AcDbEntity
  8
DEFPOINTS
 62
     0
440
 16777216
100
AcDbPoint
 10
-57.37948299036247
 20
61.09105166197355
 30
0.0
  0
ENDBLK
  5
A790
330
A783
100
AcDbEntity
  8
0
100
AcDbBlockEnd
  0
BLOCK
  5
A850
330
A844
100
AcDbEntity
  8
0
100
AcDbBlockBegin
  2
*D12
 70
     1
 10
0.0
 20
0.0
 30
0.0
  3
*D12
  1

  0
LINE
  5
B4A5
330
A844
100
AcDbEntity
  8
mark
440
 16777216
370
    -2
100
AcDbLine
 10
-54.03453220393206
 20
96.77851522390339
 30
0.0
 11
-54.03453220393206
 21
84.25171903308919
 31
0.0
  0
LINE
  5
B4A6
330
A844
100
AcDbEntity
  8
mark
440
 16777216
370
    -2
100
AcDbLine
 10
-52.03453220393206
 20
96.77851522390341
 30
0.0
 11
-52.03453220393206
 21
84.25171903308919
 31
0.0
  0
LINE
  5
B4A7
330
A844
100
AcDbEntity
  8
mark
440
 16777216
370
    -2
100
AcDbLine
 10
-55.28453220393206
 20
84.65171903308918
 30
0.0
 11
-56.53453220393206
 21
84.65171903308918
 31
0.0
  0
LINE
  5
B4A8
330
A844
100
AcDbEntity
  8
mark
440
 16777216
370
    -2
100
AcDbLine
 10
-50.78453220393206
 20
84.65171903308918
 30
0.0
 11
-46.7553655372654
 21
84.65171903308918
 31
0.0
  0
LINE
  5
B4A9
330
A844
100
AcDbEntity
  8
mark
440
 16777216
370
    -2
100
AcDbLine
 10
-54.03453220393206
 20
84.65171903308918
 30
0.0
 11
-52.03453220393206
 21
84.65171903308918
 31
0.0
  0
INSERT
  5
B4AA
330
A844
100
AcDbEntity
  8
mark
440
 16777216
370
    -2
100
AcDbBlockReference
  2
_Open30
 10
-54.03453220393206
 20
84.65171903308918
 30
0.0
 41
1.25
 42
1.25
 43
1.25
  0
INSERT
  5
B4AB
330
A844
100
AcDbEntity
  8
mark
440
 16777216
370
    -2
100
AcDbBlockReference
  2
_Open30
 10
-52.03453220393206
 20
84.65171903308918
 30
0.0
 41
1.25
 42
1.25
 43
1.25
 50
180.0
  0
MTEXT
  5
B4AC
330
A844
100
AcDbEntity
  8
mark
 62
     3
440
 16777216
100
AcDbMText
 10
-47.57203220393206
 20
85.67671903308919
 30
0.0
 40
1.25
 41
0.0
 46
0.0
 71
     5
 72
     1
  1
\A1;2
 73
     1
 44
1.0
  0
POINT
  5
B4AD
330
A844
100
AcDbEntity
  8
DEFPOINTS
 62
     0
440
 16777216
100
AcDbPoint
 10
-54.03453220393206
 20
97.1785152239034
 30
0.0
  0
POINT
  5
B4AE
330
A844
100
AcDbEntity
  8
DEFPOINTS
 62
     0
440
 16777216
100
AcDbPoint
 10
-52.03453220393206
 20
97.17851522390342
 30
0.0
  0
POINT
  5
B4AF
330
A844
100
AcDbEntity
  8
DEFPOINTS
 62
     0
440
 16777216
100
AcDbPoint
 10
-52.03453220393206
 20
84.65171903308918
 30
0.0
  0
ENDBLK
  5
A851
330
A844
100
AcDbEntity
  8
0
100
AcDbBlockEnd
  0
BLOCK
  5
ABD9
330
ABD7
100
AcDbEntity
  8
0
100
AcDbBlockBegin
  2
GENAXEH
 70
     0
 10
0.0
 20
0.0
 30
0.0
  3
GENAXEH
  1

  0
LINE
  5
ABD8
330
ABD7
100
AcDbEntity
  8
0
100
AcDbLine
 10
-1.0
 20
0.0
 30
0.0
 11
1.0
 21
0.0
 31
0.0
  0
ENDBLK
  5
ABDA
330
ABD7
100
AcDbEntity
  8
0
100
AcDbBlockEnd
  0
BLOCK
  5
AE15
330
AE14
100
AcDbEntity
  8
0
 62
     2
370
     9
100
AcDbBlockBegin
  2
*U29
 70
     1
 10
0.0
 20
0.0
 30
0.0
  3
*U29
  1

  0
HATCH
  5
AE16
330
AE14
100
AcDbEntity
  8
0
  6
Continuous
370
     9
100
AcDbHatch
 10
0.0
 20
0.0
 30
-0.149999995
210
0.0
220
0.0
230
1.0
  2
SOLID
 70
     1
 71
     1
 91
        4
 92
        7
 72
     1
 73
     1
 93
        4
 10
0.0
 20
-0.1145831118402114
 42
0.0
 10
-1.649999999999863
 20
-0.1145831118402114
 42
0.0
 10
-1.649999999999863
 20
-2.027918245030029
 42
-0.1233473977336376
 10
0.0
 20
-1.614583111840232
 42
0.0
 97
        2
330
AE1C
330
AE19
 92
        7
 72
     1
 73
     1
 93
        4
 10
1.65000000000009
 20
-0.1145831118402114
 42
0.0
 10
0.0
 20
-0.1145831118402114
 42
0.0
 10
0.0
 20
-1.614583111840232
 42
-0.1233473977336563
 10
1.65000000000009
 20
-2.02791824503015
 42
0.0
 97
        2
330
AE1C
330
AE18
 92
        7
 72
     1
 73
     1
 93
        4
 10
0.0
 20
-1.614583111840232
 42
0.1233473977336376
 10
-1.649999999999863
 20
-2.027918245030029
 42
0.0
 10
-1.649999999999863
 20
-2.460694455547262
 42
-0.1399643233105595
 10
0.0
 20
-1.989583111840218
 42
0.0
 97
        1
330
AE19
 92
        7
 72
     1
 73
     1
 93
        4
 10
0.0
 20
-1.614583111840232
 42
0.0
 10
0.0
 20
-1.989583111840218
 42
-0.1399643233105813
 10
1.65000000000009
 20
-2.460694455547397
 42
0.0
 10
1.65000000000009
 20
-2.02791824503015
 42
0.1233473977336563
 97
        1
330
AE18
 75
     1
 76
     1
 47
0.0300673403788008
 98
        4
 10
-0.6871088161038302
 20
-1.19721372816646
 10
0.7578237677639095
 20
-1.046877035198306
 10
-0.7473144091858899
 20
-1.828627838632669
 10
0.5170013954356705
 20
-1.828627838632669
450
        0
451
        0
460
0.0
461
0.0
452
        0
462
0.0
453
        0
470

1001
GRADIENTCOLOR1ACI
1070
     5
1001
GRADIENTCOLOR2ACI
1070
     2
1001
ACAD
1010
0.0
1020
0.0
1030
0.0
  0
LINE
  5
AE17
330
AE14
100
AcDbEntity
  8
0
  6
HIDDEN
 62
     3
 48
0.07
370
    13
390
AE2F
100
AcDbLine
 10
2.0
 20
2.631383580574876
 30
-0.149999995
 11
2.0
 21
-2.7134115228029
 31
-0.149999995
  0
LINE
  5
AE18
102
{ACAD_REACTORS
330
AE16
102
}
330
AE14
100
AcDbEntity
  8
0
  6
HIDDEN
 62
     3
 48
0.06
370
    13
390
AE2F
100
AcDbLine
 10
1.65000000000009
 20
2.7134115228029
 30
-0.149999995
 11
1.65000000000009
 21
-2.460694455547397
 31
-0.149999995
  0
LINE
  5
AE19
102
{ACAD_REACTORS
330
AE16
102
}
330
AE14
100
AcDbEntity
  8
0
  6
HIDDEN
 62
     3
 48
0.06
370
    13
390
AE2F
100
AcDbLine
 10
-1.649999999999863
 20
2.7134115228029
 30
-0.149999995
 11
-1.649999999999863
 21
-2.460694455547262
 31
-0.149999995
  0
LINE
  5
AE1A
330
AE14
100
AcDbEntity
  8
0
  6
HIDDEN
 62
     3
 48
0.06
370
    13
390
AE2F
100
AcDbLine
 39
0.3
 10
-2.0
 20
2.631383580574876
 30
-0.149999995
 11
-2.0
 21
-2.7134115228029
 31
-0.149999995
  0
LINE
  5
AE1B
330
AE14
100
AcDbEntity
  8
0
  6
HIDDEN
 62
     3
 48
0.06
370
     9
100
AcDbLine
 10
2.000000000000007
 20
0.2354168881599179
 30
-0.149999995
 11
-1.999999999999992
 21
0.2354168881599179
 31
-0.149999995
  0
LINE
  5
AE1C
102
{ACAD_REACTORS
330
AE16
102
}
330
AE14
100
AcDbEntity
  8
0
  6
HIDDEN
 62
     3
 48
0.06
370
     9
100
AcDbLine
 10
1.650000000000083
 20
-0.1145831118402114
 30
-0.149999995
 11
-1.64999999999987
 21
-0.1145831118402114
 31
-0.149999995
  0
LINE
  5
AE1D
330
AE14
100
AcDbEntity
  8
0
  6
HIDDEN
 62
     3
 48
0.06
370
     9
100
AcDbLine
 10
-2.0
 20
0.2354168881599179
 30
-0.149999995
 11
-1.649999999999863
 21
-0.1145831118402185
 31
-0.149999995
  0
LINE
  5
AE1E
330
AE14
100
AcDbEntity
  8
0
  6
HIDDEN
 62
     3
 48
0.06
370
     9
100
AcDbLine
 10
1.650000000000083
 20
-0.1145831118402185
 30
-0.149999995
 11
2.000000000000007
 21
0.2354168881599179
 31
-0.149999995
  0
ENDBLK
  5
AE1F
330
AE14
100
AcDbEntity
  8
0
 62
     2
370
     9
100
AcDbBlockEnd
  0
BLOCK
  5
AE22
330
AE20
100
AcDbEntity
  8
0
 62
     2
370
     9
100
AcDbBlockBegin
  2
*U30
 70
     1
 10
0.0
 20
0.0
 30
0.0
  3
*U30
  1

  0
INSERT
  5
AE23
330
AE20
100
AcDbEntity
  8
0
  6
ByBlock
347
AB12
 62
     0
370
    -2
380
     1
100
AcDbBlockReference
  2
*U29
 10
44.48311162634036
 20
61.82651100844357
 30
0.149999995
  0
INSERT
  5
AE24
330
AE20
100
AcDbEntity
  8
0
  6
ByBlock
347
AB12
 62
     0
370
    -2
380
     1
100
AcDbBlockReference
  2
*U29
 10
40.05375272171986
 20
54.15463634068324
 30
0.149999995
 41
0.9999999999999998
 42
0.9999999999999998
 43
0.9999999999999998
 50
120.0
  0
INSERT
  5
AE25
330
AE20
100
AcDbEntity
  8
0
  6
ByBlock
347
AB12
 62
     0
370
    -2
380
     1
100
AcDbBlockReference
  2
*U29
 10
48.91247053096085
 20
54.15463634068324
 30
0.149999995
 50
240.0
  0
ENDBLK
  5
AE26
330
AE20
100
AcDbEntity
  8
0
 62
     2
370
     9
100
AcDbBlockEnd
  0
BLOCK
  5
AF20
330
AF1F
100
AcDbEntity
  8
0
100
AcDbBlockBegin
  2
*D31
 70
     1
 10
0.0
 20
0.0
 30
0.0
  3
*D31
  1

  0
LINE
  5
AF5E
330
AF1F
100
AcDbEntity
  8
0
 62
     0
440
 16777216
370
    -2
100
AcDbLine
 10
251.8118402098709
 20
122.5032677063843
 30
0.0
 11
247.4211184692937
 21
122.5032677063843
 31
0.0
  0
LINE
  5
AF5F
330
AF1F
100
AcDbEntity
  8
0
 62
     0
440
 16777216
370
    -2
100
AcDbLine
 10
251.8118402098709
 20
111.5032677063843
 30
0.0
 11
247.4211184692937
 21
111.5032677063843
 31
0.0
  0
LINE
  5
AF60
330
AF1F
100
AcDbEntity
  8
0
 62
     0
440
 16777216
370
    -2
100
AcDbLine
 10
248.4211184692937
 20
120.5032677063843
 30
0.0
 11
248.4211184692937
 21
113.5032677063843
 31
0.0
  0
SOLID
  5
AF61
330
AF1F
100
AcDbEntity
  8
0
 62
     0
440
 16777216
100
AcDbTrace
 10
248.0877851359603
 20
120.5032677063843
 30
0.0
 11
248.754451802627
 21
120.5032677063843
 31
0.0
 12
248.4211184692937
 22
122.5032677063843
 32
0.0
 13
248.4211184692937
 23
122.5032677063843
 33
0.0
  0
SOLID
  5
AF62
330
AF1F
100
AcDbEntity
  8
0
 62
     0
440
 16777216
100
AcDbTrace
 10
248.0877851359603
 20
113.5032677063843
 30
0.0
 11
248.754451802627
 21
113.5032677063843
 31
0.0
 12
248.4211184692937
 22
111.5032677063843
 32
0.0
 13
248.4211184692937
 23
111.5032677063843
 33
0.0
  0
MTEXT
  5
AF63
330
AF1F
100
AcDbEntity
  8
0
 62
     0
440
 16777216
370
     9
100
AcDbMText
 10
247.0461184692936
 20
117.0032677063843
 30
0.0
 40
1.5
 41
0.0
 46
0.0
 71
     5
 72
     1
  1
%%c11%%p0.5
 11
0.0000000000000001
 21
1.0
 31
0.0
 73
     1
 44
1.0
  0
POINT
  5
AF64
330
AF1F
100
AcDbEntity
  8
DEFPOINTS
 62
     0
440
 16777216
100
AcDbPoint
 10
252.4368402098708
 20
122.5032677063843
 30
0.0
  0
POINT
  5
AF65
330
AF1F
100
AcDbEntity
  8
DEFPOINTS
 62
     0
440
 16777216
100
AcDbPoint
 10
252.4368402098708
 20
111.5032677063843
 30
0.0
  0
POINT
  5
AF66
330
AF1F
100
AcDbEntity
  8
DEFPOINTS
 62
     0
440
 16777216
100
AcDbPoint
 10
248.4211184692937
 20
111.5032677063843
 30
0.0
  0
ENDBLK
  5
AF21
330
AF1F
100
AcDbEntity
  8
0
100
AcDbBlockEnd
  0
BLOCK
  5
AF2C
330
AF2B
100
AcDbEntity
  8
0
100
AcDbBlockBegin
  2
*D32
 70
     1
 10
0.0
 20
0.0
 30
0.0
  3
*D32
  1

  0
LINE
  5
AF67
330
AF2B
100
AcDbEntity
  8
0
 62
     0
440
 16777216
370
    -2
100
AcDbLine
 10
253.0270968145822
 20
125.0032677063843
 30
0.0
 11
241.1454813810095
 21
125.0032677063843
 31
0.0
  0
LINE
  5
AF68
330
AF2B
100
AcDbEntity
  8
0
 62
     0
440
 16777216
370
    -2
100
AcDbLine
 10
252.9422151840962
 20
109.0032677063845
 30
0.0
 11
241.1454813810095
 21
109.0032677063845
 31
0.0
  0
LINE
  5
AF69
330
AF2B
100
AcDbEntity
  8
0
 62
     0
440
 16777216
370
    -2
100
AcDbLine
 10
242.1454813810095
 20
123.0032677063843
 30
0.0
 11
242.1454813810095
 21
111.0032677063845
 31
0.0
  0
SOLID
  5
AF6A
330
AF2B
100
AcDbEntity
  8
0
 62
     0
440
 16777216
100
AcDbTrace
 10
241.8121480476762
 20
123.0032677063843
 30
0.0
 11
242.4788147143428
 21
123.0032677063843
 31
0.0
 12
242.1454813810095
 22
125.0032677063843
 32
0.0
 13
242.1454813810095
 23
125.0032677063843
 33
0.0
  0
SOLID
  5
AF6B
330
AF2B
100
AcDbEntity
  8
0
 62
     0
440
 16777216
100
AcDbTrace
 10
241.8121480476762
 20
111.0032677063845
 30
0.0
 11
242.4788147143428
 21
111.0032677063845
 31
0.0
 12
242.1454813810095
 22
109.0032677063845
 32
0.0
 13
242.1454813810095
 23
109.0032677063845
 33
0.0
  0
MTEXT
  5
AF6C
330
AF2B
100
AcDbEntity
  8
0
 62
     0
440
 16777216
370
     9
100
AcDbMText
 10
240.7704813810095
 20
117.0032677063844
 30
0.0
 40
1.5
 41
0.0
 46
0.0
 71
     5
 72
     1
  1
%%c16
 11
0.0000000000000001
 21
1.0
 31
0.0
 73
     1
 44
1.0
  0
POINT
  5
AF6D
330
AF2B
100
AcDbEntity
  8
DEFPOINTS
 62
     0
440
 16777216
100
AcDbPoint
 10
253.6520968145822
 20
125.0032677063843
 30
0.0
  0
POINT
  5
AF6E
330
AF2B
100
AcDbEntity
  8
DEFPOINTS
 62
     0
440
 16777216
100
AcDbPoint
 10
253.5672151840962
 20
109.0032677063845
 30
0.0
  0
POINT
  5
AF6F
330
AF2B
100
AcDbEntity
  8
DEFPOINTS
 62
     0
440
 16777216
100
AcDbPoint
 10
242.1454813810095
 20
109.0032677063845
 30
0.0
  0
ENDBLK
  5
AF2D
330
AF2B
100
AcDbEntity
  8
0
100
AcDbBlockEnd
  0
BLOCK
  5
AF38
330
AF37
100
AcDbEntity
  8
0
100
AcDbBlockBegin
  2
*D33
 70
     1
 10
0.0
 20
0.0
 30
0.0
  3
*D33
  1

  0
LINE
  5
AF70
330
AF37
100
AcDbEntity
  8
0
 62
     0
440
 16777216
370
    -2
100
AcDbLine
 10
261.0618402098709
 20
120.5032677063843
 30
0.0
 11
267.1845659562929
 21
120.5032677063843
 31
0.0
  0
LINE
  5
AF71
330
AF37
100
AcDbEntity
  8
0
 62
     0
440
 16777216
370
    -2
100
AcDbLine
 10
261.0618402098709
 20
113.5032677063843
 30
0.0
 11
267.1845659562929
 21
113.5032677063843
 31
0.0
  0
LINE
  5
AF72
330
AF37
100
AcDbEntity
  8
0
 62
     0
440
 16777216
370
    -2
100
AcDbLine
 10
266.1845659562929
 20
118.5032677063843
 30
0.0
 11
266.1845659562929
 21
115.5032677063843
 31
0.0
  0
LINE
  5
AF73
330
AF37
100
AcDbEntity
  8
0
 62
     0
440
 16777216
370
    -2
100
AcDbLine
 10
266.1845659562929
 20
113.5032677063843
 30
0.0
 11
266.1845659562929
 21
100.0032677063843
 31
0.0
  0
SOLID
  5
AF74
330
AF37
100
AcDbEntity
  8
0
 62
     0
440
 16777216
100
AcDbTrace
 10
265.8512326229596
 20
118.5032677063843
 30
0.0
 11
266.5178992896262
 21
118.5032677063843
 31
0.0
 12
266.1845659562929
 22
120.5032677063843
 32
0.0
 13
266.1845659562929
 23
120.5032677063843
 33
0.0
  0
SOLID
  5
AF75
330
AF37
100
AcDbEntity
  8
0
 62
     0
440
 16777216
100
AcDbTrace
 10
265.8512326229596
 20
115.5032677063843
 30
0.0
 11
266.5178992896262
 21
115.5032677063843
 31
0.0
 12
266.1845659562929
 22
113.5032677063843
 32
0.0
 13
266.1845659562929
 23
113.5032677063843
 33
0.0
  0
MTEXT
  5
AF76
330
AF37
100
AcDbEntity
  8
0
 62
     0
440
 16777216
370
    15
100
AcDbMText
 10
264.8095659562929
 20
105.7532677063843
 30
0.0
 40
1.5
 41
0.0
 46
0.0
 71
     5
 72
     1
  1
M8X0.75P
 11
0.0000000000000001
 21
1.0
 31
0.0
 73
     1
 44
1.0
  0
POINT
  5
AF77
330
AF37
100
AcDbEntity
  8
DEFPOINTS
 62
     0
440
 16777216
100
AcDbPoint
 10
260.4368402098709
 20
120.5032677063843
 30
0.0
  0
POINT
  5
AF78
330
AF37
100
AcDbEntity
  8
DEFPOINTS
 62
     0
440
 16777216
100
AcDbPoint
 10
260.4368402098709
 20
113.5032677063843
 30
0.0
  0
POINT
  5
AF79
330
AF37
100
AcDbEntity
  8
DEFPOINTS
 62
     0
440
 16777216
100
AcDbPoint
 10
266.1845659562929
 20
113.5032677063843
 30
0.0
  0
ENDBLK
  5
AF39
330
AF37
100
AcDbEntity
  8
0
100
AcDbBlockEnd
  0
BLOCK
  5
AF45
330
AF44
100
AcDbEntity
  8
0
100
AcDbBlockBegin
  2
*D34
 70
     1
 10
0.0
 20
0.0
 30
0.0
  3
*D34
  1

  0
LINE
  5
AF7A
330
AF44
100
AcDbEntity
  8
0
 62
     0
440
 16777216
370
    -2
100
AcDbLine
 10
260.4368402098709
 20
124.8282677063845
 30
0.0
 11
260.4368402098709
 21
131.400929196606
 31
0.0
  0
LINE
  5
AF7B
330
AF44
100
AcDbEntity
  8
0
 62
     0
440
 16777216
370
    -2
100
AcDbLine
 10
252.4368402098708
 20
123.1282677063843
 30
0.0
 11
252.4368402098708
 21
131.400929196606
 31
0.0
  0
LINE
  5
AF7C
330
AF44
100
AcDbEntity
  8
0
 62
     0
440
 16777216
370
    -2
100
AcDbLine
 10
258.4368402098708
 20
130.400929196606
 30
0.0
 11
254.4368402098708
 21
130.400929196606
 31
0.0
  0
SOLID
  5
AF7D
330
AF44
100
AcDbEntity
  8
0
 62
     0
440
 16777216
100
AcDbTrace
 10
258.4368402098708
 20
130.7342625299394
 30
0.0
 11
258.4368402098708
 21
130.0675958632727
 31
0.0
 12
260.4368402098709
 22
130.400929196606
 32
0.0
 13
260.4368402098709
 23
130.400929196606
 33
0.0
  0
SOLID
  5
AF7E
330
AF44
100
AcDbEntity
  8
0
 62
     0
440
 16777216
100
AcDbTrace
 10
254.4368402098708
 20
130.7342625299394
 30
0.0
 11
254.4368402098708
 21
130.0675958632727
 31
0.0
 12
252.4368402098708
 22
130.400929196606
 32
0.0
 13
252.4368402098708
 23
130.400929196606
 33
0.0
  0
MTEXT
  5
AF7F
330
AF44
100
AcDbEntity
  8
0
 62
     0
440
 16777216
370
     9
100
AcDbMText
 10
256.4368402098708
 20
131.775929196606
 30
0.0
 40
1.5
 41
0.0
 46
0.0
 71
     5
 72
     1
  1
8%%P0.2
 73
     1
 44
1.0
  0
POINT
  5
AF80
330
AF44
100
AcDbEntity
  8
DEFPOINTS
 62
     0
440
 16777216
100
AcDbPoint
 10
260.4368402098709
 20
124.2032677063845
 30
0.0
  0
POINT
  5
AF81
330
AF44
100
AcDbEntity
  8
DEFPOINTS
 62
     0
440
 16777216
100
AcDbPoint
 10
252.4368402098708
 20
122.5032677063843
 30
0.0
  0
POINT
  5
AF82
330
AF44
100
AcDbEntity
  8
DEFPOINTS
 62
     0
440
 16777216
100
AcDbPoint
 10
252.4368402098708
 20
130.400929196606
 30
0.0
  0
ENDBLK
  5
AF46
330
AF44
100
AcDbEntity
  8
0
100
AcDbBlockEnd
  0
BLOCK
  5
AF51
330
AF50
100
AcDbEntity
  8
0
100
AcDbBlockBegin
  2
*D35
 70
     1
 10
0.0
 20
0.0
 30
0.0
  3
*D35
  1

  0
LINE
  5
AF83
330
AF50
100
AcDbEntity
  8
0
 62
     0
440
 16777216
370
    -2
100
AcDbLine
 10
252.9368402098709
 20
109.1782677063845
 30
0.0
 11
252.9368402098709
 21
103.3863497581907
 31
0.0
  0
LINE
  5
AF84
330
AF50
100
AcDbEntity
  8
0
 62
     0
440
 16777216
370
    -2
100
AcDbLine
 10
252.4368402098708
 20
110.8782677063843
 30
0.0
 11
252.4368402098708
 21
103.3863497581907
 31
0.0
  0
LINE
  5
AF85
330
AF50
100
AcDbEntity
  8
0
 62
     0
440
 16777216
370
    -2
100
AcDbLine
 10
254.9368402098709
 20
104.3863497581907
 30
0.0
 11
256.9368402098709
 21
104.3863497581907
 31
0.0
  0
LINE
  5
AF86
330
AF50
100
AcDbEntity
  8
0
 62
     0
440
 16777216
370
    -2
100
AcDbLine
 10
250.4368402098709
 20
104.3863497581907
 30
0.0
 11
244.4368402098709
 21
104.3863497581907
 31
0.0
  0
LINE
  5
AF87
330
AF50
100
AcDbEntity
  8
0
 62
     0
440
 16777216
370
    -2
100
AcDbLine
 10
252.9368402098709
 20
104.3863497581907
 30
0.0
 11
252.4368402098708
 21
104.3863497581907
 31
0.0
  0
SOLID
  5
AF88
330
AF50
100
AcDbEntity
  8
0
 62
     0
440
 16777216
100
AcDbTrace
 10
254.9368402098709
 20
104.7196830915241
 30
0.0
 11
254.9368402098709
 21
104.0530164248574
 31
0.0
 12
252.9368402098709
 22
104.3863497581907
 32
0.0
 13
252.9368402098709
 23
104.3863497581907
 33
0.0
  0
SOLID
  5
AF89
330
AF50
100
AcDbEntity
  8
0
 62
     0
440
 16777216
100
AcDbTrace
 10
250.4368402098709
 20
104.7196830915241
 30
0.0
 11
250.4368402098709
 21
104.0530164248574
 31
0.0
 12
252.4368402098708
 22
104.3863497581907
 32
0.0
 13
252.4368402098708
 23
104.3863497581907
 33
0.0
  0
MTEXT
  5
AF8A
330
AF50
100
AcDbEntity
  8
0
 62
     0
440
 16777216
370
     9
100
AcDbMText
 10
246.4368402098709
 20
105.7613497581907
 30
0.0
 40
1.5
 41
0.0
 46
0.0
 71
     5
 72
     1
  1
0.5
 73
     1
 44
1.0
  0
POINT
  5
AF8B
330
AF50
100
AcDbEntity
  8
DEFPOINTS
 62
     0
440
 16777216
100
AcDbPoint
 10
252.9368402098709
 20
109.8032677063844
 30
0.0
  0
POINT
  5
AF8C
330
AF50
100
AcDbEntity
  8
DEFPOINTS
 62
     0
440
 16777216
100
AcDbPoint
 10
252.4368402098708
 20
111.5032677063843
 30
0.0
  0
POINT
  5
AF8D
330
AF50
100
AcDbEntity
  8
DEFPOINTS
 62
     0
440
 16777216
100
AcDbPoint
 10
252.4368402098708
 20
104.3863497581907
 30
0.0
  0
ENDBLK
  5
AF52
330
AF50
100
AcDbEntity
  8
0
100
AcDbBlockEnd
  0
BLOCK
  5
AF8F
330
AF8E
100
AcDbEntity
  8
0
100
AcDbBlockBegin
  2
*D36
 70
     1
 10
0.0
 20
0.0
 30
0.0
  3
*D36
  1

  0
LINE
  5
AFAA
330
AF8E
100
AcDbEntity
  8
0
  6
Continuous
 62
     0
440
 16777216
370
    -2
100
AcDbLine
 10
205.1037858210005
 20
108.5201508836334
 30
0.0
 11
205.1037858210005
 21
103.0311818631507
 31
0.0
  0
LINE
  5
AFAB
330
AF8E
100
AcDbEntity
  8
0
  6
Continuous
 62
     0
440
 16777216
370
    -2
100
AcDbLine
 10
202.1037858210007
 20
108.5201508836334
 30
0.0
 11
202.1037858210007
 21
103.0311818631507
 31
0.0
  0
LINE
  5
AFAC
330
AF8E
100
AcDbEntity
  8
0
  6
Continuous
 62
     0
440
 16777216
370
    -2
100
AcDbLine
 10
207.1037858210005
 20
104.0311818631507
 30
0.0
 11
209.1037858210005
 21
104.0311818631507
 31
0.0
  0
LINE
  5
AFAD
330
AF8E
100
AcDbEntity
  8
0
  6
Continuous
 62
     0
440
 16777216
370
    -2
100
AcDbLine
 10
200.1037858210007
 20
104.0311818631507
 30
0.0
 11
193.4446882969947
 21
104.0311818631507
 31
0.0
  0
LINE
  5
AFAE
330
AF8E
100
AcDbEntity
  8
0
  6
Continuous
 62
     0
440
 16777216
370
    -2
100
AcDbLine
 10
205.1037858210005
 20
104.0311818631507
 30
0.0
 11
202.1037858210007
 21
104.0311818631507
 31
0.0
  0
SOLID
  5
AFAF
330
AF8E
100
AcDbEntity
  8
0
  6
Continuous
 62
     0
440
 16777216
100
AcDbTrace
 10
207.1037858210005
 20
104.364515196484
 30
0.0
 11
207.1037858210005
 21
103.6978485298173
 31
0.0
 12
205.1037858210005
 22
104.0311818631507
 32
0.0
 13
205.1037858210005
 23
104.0311818631507
 33
0.0
  0
SOLID
  5
AFB0
330
AF8E
100
AcDbEntity
  8
0
  6
Continuous
 62
     0
440
 16777216
100
AcDbTrace
 10
200.1037858210007
 20
104.364515196484
 30
0.0
 11
200.1037858210007
 21
103.6978485298173
 31
0.0
 12
202.1037858210007
 22
104.0311818631507
 32
0.0
 13
202.1037858210007
 23
104.0311818631507
 33
0.0
  0
MTEXT
  5
AFB1
330
AF8E
100
AcDbEntity
  8
0
  6
Continuous
 62
     0
440
 16777216
370
     9
100
AcDbMText
 10
194.5696882969947
 20
105.4061818631506
 30
0.0
 40
1.5
 41
0.0
 46
0.0
 71
     5
 72
     1
  1
3
 73
     1
 44
1.0
  0
POINT
  5
AFB2
330
AF8E
100
AcDbEntity
  8
DEFPOINTS
  6
Continuous
 62
     0
440
 16777216
100
AcDbPoint
 10
205.1037858210005
 20
109.1451508836334
 30
0.0
  0
POINT
  5
AFB3
330
AF8E
100
AcDbEntity
  8
DEFPOINTS
  6
Continuous
 62
     0
440
 16777216
100
AcDbPoint
 10
202.1037858210007
 20
109.1451508836334
 30
0.0
  0
POINT
  5
AFB4
330
AF8E
100
AcDbEntity
  8
DEFPOINTS
  6
Continuous
 62
     0
440
 16777216
100
AcDbPoint
 10
202.1037858210007
 20
104.0311818631507
 30
0.0
  0
ENDBLK
  5
AF90
330
AF8E
100
AcDbEntity
  8
0
100
AcDbBlockEnd
  0
BLOCK
  5
AF9D
330
AF9C
100
AcDbEntity
  8
0
100
AcDbBlockBegin
  2
*D37
 70
     1
 10
0.0
 20
0.0
 30
0.0
  3
*D37
  1

  0
LINE
  5
AF9F
330
AF9C
100
AcDbEntity
  8
0
  6
Continuous
 62
     0
440
 16777216
370
    -2
100
AcDbLine
 10
205.7287858210005
 20
111.1451508836337
 30
0.0
 11
216.4280733052596
 21
111.1451508836337
 31
0.0
  0
LINE
  5
AFA0
330
AF9C
100
AcDbEntity
  8
0
  6
Continuous
 62
     0
440
 16777216
370
    -2
100
AcDbLine
 10
205.7287858210005
 20
109.1451508836337
 30
0.0
 11
216.4280733052596
 21
109.1451508836337
 31
0.0
  0
LINE
  5
AFA1
330
AF9C
100
AcDbEntity
  8
0
  6
Continuous
 62
     0
440
 16777216
370
    -2
100
AcDbLine
 10
215.4280733052596
 20
113.1451508836337
 30
0.0
 11
215.4280733052596
 21
115.1451508836337
 31
0.0
  0
LINE
  5
AFA2
330
AF9C
100
AcDbEntity
  8
0
  6
Continuous
 62
     0
440
 16777216
370
    -2
100
AcDbLine
 10
215.4280733052596
 20
107.1451508836336
 30
0.0
 11
215.4280733052596
 21
100.8934948069401
 31
0.0
  0
LINE
  5
AFA3
330
AF9C
100
AcDbEntity
  8
0
  6
Continuous
 62
     0
440
 16777216
370
    -2
100
AcDbLine
 10
215.4280733052596
 20
111.1451508836337
 30
0.0
 11
215.4280733052596
 21
109.1451508836337
 31
0.0
  0
SOLID
  5
AFA4
330
AF9C
100
AcDbEntity
  8
0
  6
Continuous
 62
     0
440
 16777216
100
AcDbTrace
 10
215.0947399719262
 20
113.1451508836337
 30
0.0
 11
215.7614066385929
 21
113.1451508836337
 31
0.0
 12
215.4280733052596
 22
111.1451508836337
 32
0.0
 13
215.4280733052596
 23
111.1451508836337
 33
0.0
  0
SOLID
  5
AFA5
330
AF9C
100
AcDbEntity
  8
0
  6
Continuous
 62
     0
440
 16777216
100
AcDbTrace
 10
215.0947399719262
 20
107.1451508836336
 30
0.0
 11
215.7614066385929
 21
107.1451508836336
 31
0.0
 12
215.4280733052596
 22
109.1451508836337
 32
0.0
 13
215.4280733052596
 23
109.1451508836337
 33
0.0
  0
MTEXT
  5
AFA6
330
AF9C
100
AcDbEntity
  8
0
  6
Continuous
 62
     0
440
 16777216
370
     9
100
AcDbMText
 10
214.0530733052596
 20
102.0184948069402
 30
0.0
 40
1.5
 41
0.0
 46
0.0
 71
     5
 72
     1
  1
2
 11
0.0000000000000001
 21
1.0
 31
0.0
 73
     1
 44
1.0
  0
POINT
  5
AFA7
330
AF9C
100
AcDbEntity
  8
DEFPOINTS
  6
Continuous
 62
     0
440
 16777216
100
AcDbPoint
 10
205.1037858210005
 20
111.1451508836337
 30
0.0
  0
POINT
  5
AFA8
330
AF9C
100
AcDbEntity
  8
DEFPOINTS
  6
Continuous
 62
     0
440
 16777216
100
AcDbPoint
 10
205.1037858210005
 20
109.1451508836337
 30
0.0
  0
POINT
  5
AFA9
330
AF9C
100
AcDbEntity
  8
DEFPOINTS
  6
Continuous
 62
     0
440
 16777216
100
AcDbPoint
 10
215.4280733052596
 20
109.1451508836337
 30
0.0
  0
ENDBLK
  5
AF9E
330
AF9C
100
AcDbEntity
  8
0
100
AcDbBlockEnd
  0
BLOCK
  5
AFE3
330
AFE2
100
AcDbEntity
  8
0
100
AcDbBlockBegin
  2
*D38
 70
     1
 10
0.0
 20
0.0
 30
0.0
  3
*D38
  1

  0
LINE
  5
B535
330
AFE2
100
AcDbEntity
  8
mark
440
 16777216
370
    -2
100
AcDbLine
 10
39.64188317724917
 20
96.77851522390337
 30
0.0
 11
39.64188317724917
 21
84.25171903308918
 31
0.0
  0
LINE
  5
B536
330
AFE2
100
AcDbEntity
  8
mark
440
 16777216
370
    -2
100
AcDbLine
 10
41.64188317724916
 20
96.77851522390341
 30
0.0
 11
41.64188317724916
 21
84.25171903308918
 31
0.0
  0
LINE
  5
B537
330
AFE2
100
AcDbEntity
  8
mark
440
 16777216
370
    -2
100
AcDbLine
 10
38.39188317724917
 20
84.65171903308918
 30
0.0
 11
37.14188317724917
 21
84.65171903308918
 31
0.0
  0
LINE
  5
B538
330
AFE2
100
AcDbEntity
  8
mark
440
 16777216
370
    -2
100
AcDbLine
 10
42.89188317724916
 20
84.65171903308918
 30
0.0
 11
46.50438317724917
 21
84.65171903308918
 31
0.0
  0
LINE
  5
B539
330
AFE2
100
AcDbEntity
  8
mark
440
 16777216
370
    -2
100
AcDbLine
 10
39.64188317724917
 20
84.65171903308918
 30
0.0
 11
41.64188317724916
 21
84.65171903308918
 31
0.0
  0
INSERT
  5
B53A
330
AFE2
100
AcDbEntity
  8
mark
440
 16777216
370
    -2
100
AcDbBlockReference
  2
_Open30
 10
39.64188317724917
 20
84.65171903308918
 30
0.0
 41
1.25
 42
1.25
 43
1.25
  0
INSERT
  5
B53B
330
AFE2
100
AcDbEntity
  8
mark
440
 16777216
370
    -2
100
AcDbBlockReference
  2
_Open30
 10
41.64188317724916
 20
84.65171903308918
 30
0.0
 41
1.25
 42
1.25
 43
1.25
 50
180.0
  0
POINT
  5
B53C
330
AFE2
100
AcDbEntity
  8
DEFPOINTS
 62
     0
440
 16777216
100
AcDbPoint
 10
39.64188317724917
 20
97.17851522390338
 30
0.0
  0
POINT
  5
B53D
330
AFE2
100
AcDbEntity
  8
DEFPOINTS
 62
     0
440
 16777216
100
AcDbPoint
 10
41.64188317724916
 20
97.1785152239034
 30
0.0
  0
POINT
  5
B53E
330
AFE2
100
AcDbEntity
  8
DEFPOINTS
 62
     0
440
 16777216
100
AcDbPoint
 10
41.64188317724916
 20
84.65171903308918
 30
0.0
  0
ENDBLK
  5
AFE4
330
AFE2
100
AcDbEntity
  8
0
100
AcDbBlockEnd
  0
BLOCK
  5
B1AF
330
B1AE
100
AcDbEntity
  8
0
100
AcDbBlockBegin
  2
*D40
 70
     1
 10
0.0
 20
0.0
 30
0.0
  3
*D40
  1

  0
LINE
  5
B53F
330
B1AE
100
AcDbEntity
  8
mark
  6
ByBlock
440
 16777216
370
    -2
100
AcDbLine
 10
42.00000000000001
 20
61.49105166197358
 30
0.0
 11
42.00000000000001
 21
64.80131300277517
 31
0.0
  0
LINE
  5
B540
330
B1AE
100
AcDbEntity
  8
mark
  6
ByBlock
440
 16777216
370
    -2
100
AcDbLine
 10
53.00000000000001
 20
61.49105166197358
 30
0.0
 11
53.00000000000001
 21
64.80131300277517
 31
0.0
  0
LINE
  5
B541
330
B1AE
100
AcDbEntity
  8
mark
  6
ByBlock
440
 16777216
370
    -2
100
AcDbLine
 10
43.25000000000001
 20
64.40131300277517
 30
0.0
 11
51.75000000000001
 21
64.40131300277517
 31
0.0
  0
INSERT
  5
B542
330
B1AE
100
AcDbEntity
  8
mark
440
 16777216
370
    -2
100
AcDbBlockReference
  2
_Open30
 10
42.00000000000001
 20
64.40131300277517
 30
0.0
 41
1.25
 42
1.25
 43
1.25
 50
180.0
  0
INSERT
  5
B543
330
B1AE
100
AcDbEntity
  8
mark
440
 16777216
370
    -2
100
AcDbBlockReference
  2
_Open30
 10
53.00000000000001
 20
64.40131300277517
 30
0.0
 41
1.25
 42
1.25
 43
1.25
  0
MTEXT
  5
B544
330
B1AE
100
AcDbEntity
  8
mark
 62
     3
440
 16777216
100
AcDbMText
 10
47.50000000000001
 20
65.42631300277517
 30
0.0
 40
1.25
 41
0.0
 46
0.0
 71
     5
 72
     1
  1
\A1;%%C11%%p0.5
 73
     1
 44
1.0
  0
POINT
  5
B545
330
B1AE
100
AcDbEntity
  8
DEFPOINTS
 62
     0
440
 16777216
100
AcDbPoint
 10
42.00000000000001
 20
61.09105166197358
 30
0.0
  0
POINT
  5
B546
330
B1AE
100
AcDbEntity
  8
DEFPOINTS
 62
     0
440
 16777216
100
AcDbPoint
 10
53.00000000000001
 20
61.09105166197358
 30
0.0
  0
POINT
  5
B547
330
B1AE
100
AcDbEntity
  8
DEFPOINTS
 62
     0
440
 16777216
100
AcDbPoint
 10
53.00000000000001
 20
64.40131300277517
 30
0.0
  0
ENDBLK
  5
B1B0
330
B1AE
100
AcDbEntity
  8
0
100
AcDbBlockEnd
  0
BLOCK
  5
B1BC
330
B1BB
100
AcDbEntity
  8
0
100
AcDbBlockBegin
  2
*D41
 70
     1
 10
0.0
 20
0.0
 30
0.0
  3
*D41
  1

  0
LINE
  5
B548
330
B1BB
100
AcDbEntity
  8
mark
  6
ByBlock
440
 16777216
370
    -2
100
AcDbLine
 10
55.49999999999993
 20
59.99105166197353
 30
0.0
 11
55.49999999999993
 21
68.55211432898463
 31
0.0
  0
LINE
  5
B549
330
B1BB
100
AcDbEntity
  8
mark
  6
ByBlock
440
 16777216
370
    -2
100
AcDbLine
 10
39.50000000000004
 20
59.99105166197353
 30
0.0
 11
39.50000000000004
 21
68.55211432898463
 31
0.0
  0
LINE
  5
B54A
330
B1BB
100
AcDbEntity
  8
mark
  6
ByBlock
440
 16777216
370
    -2
100
AcDbLine
 10
54.24999999999993
 20
68.15211432898462
 30
0.0
 11
40.75000000000004
 21
68.15211432898462
 31
0.0
  0
INSERT
  5
B54B
330
B1BB
100
AcDbEntity
  8
mark
440
 16777216
370
    -2
100
AcDbBlockReference
  2
_Open30
 10
55.49999999999993
 20
68.15211432898462
 30
0.0
 41
1.25
 42
1.25
 43
1.25
  0
INSERT
  5
B54C
330
B1BB
100
AcDbEntity
  8
mark
440
 16777216
370
    -2
100
AcDbBlockReference
  2
_Open30
 10
39.50000000000004
 20
68.15211432898462
 30
0.0
 41
1.25
 42
1.25
 43
1.25
 50
180.0
  0
POINT
  5
B54D
330
B1BB
100
AcDbEntity
  8
DEFPOINTS
 62
     0
440
 16777216
100
AcDbPoint
 10
55.49999999999993
 20
59.59105166197353
 30
0.0
  0
POINT
  5
B54E
330
B1BB
100
AcDbEntity
  8
DEFPOINTS
 62
     0
440
 16777216
100
AcDbPoint
 10
39.50000000000004
 20
59.59105166197353
 30
0.0
  0
POINT
  5
B54F
330
B1BB
100
AcDbEntity
  8
DEFPOINTS
 62
     0
440
 16777216
100
AcDbPoint
 10
39.50000000000004
 20
68.15211432898462
 30
0.0
  0
ENDBLK
  5
B1BD
330
B1BB
100
AcDbEntity
  8
0
100
AcDbBlockEnd
  0
BLOCK
  5
B2AD
330
B2AC
100
AcDbEntity
  8
0
100
AcDbBlockBegin
  2
*D42
 70
     1
 10
0.0
 20
0.0
 30
0.0
  3
*D42
  1

  0
LINE
  5
B2B8
330
B2AC
100
AcDbEntity
  8
mark
  6
ByBlock
440
 16777216
370
    -2
100
AcDbLine
 10
181.8574629369197
 20
59.99105166197353
 30
0.0
 11
181.8574629369197
 21
68.55211432898463
 31
0.0
  0
LINE
  5
B2B9
330
B2AC
100
AcDbEntity
  8
mark
  6
ByBlock
440
 16777216
370
    -2
100
AcDbLine
 10
165.8574629369198
 20
59.99105166197353
 30
0.0
 11
165.8574629369198
 21
68.55211432898463
 31
0.0
  0
LINE
  5
B2BA
330
B2AC
100
AcDbEntity
  8
mark
  6
ByBlock
440
 16777216
370
    -2
100
AcDbLine
 10
180.6074629369197
 20
68.15211432898462
 30
0.0
 11
167.1074629369198
 21
68.15211432898462
 31
0.0
  0
INSERT
  5
B2BB
330
B2AC
100
AcDbEntity
  8
mark
440
 16777216
370
    -2
100
AcDbBlockReference
  2
_Open30
 10
181.8574629369197
 20
68.15211432898462
 30
0.0
 41
1.25
 42
1.25
 43
1.25
  0
INSERT
  5
B2BC
330
B2AC
100
AcDbEntity
  8
mark
440
 16777216
370
    -2
100
AcDbBlockReference
  2
_Open30
 10
165.8574629369198
 20
68.15211432898462
 30
0.0
 41
1.25
 42
1.25
 43
1.25
 50
180.0
  0
MTEXT
  5
B2BD
330
B2AC
100
AcDbEntity
  8
mark
 62
     3
440
 16777216
100
AcDbMText
 10
173.8574629369197
 20
69.17711432898463
 30
0.0
 40
1.25
 41
0.0
 46
0.0
 71
     5
 72
     1
  1
\A1;%%C16
 73
     1
 44
1.0
  0
POINT
  5
B2BE
330
B2AC
100
AcDbEntity
  8
DEFPOINTS
 62
     0
440
 16777216
100
AcDbPoint
 10
181.8574629369197
 20
59.59105166197353
 30
0.0
  0
POINT
  5
B2BF
330
B2AC
100
AcDbEntity
  8
DEFPOINTS
 62
     0
440
 16777216
100
AcDbPoint
 10
165.8574629369198
 20
59.59105166197353
 30
0.0
  0
POINT
  5
B2C0
330
B2AC
100
AcDbEntity
  8
DEFPOINTS
 62
     0
440
 16777216
100
AcDbPoint
 10
165.8574629369198
 20
68.15211432898462
 30
0.0
  0
ENDBLK
  5
B2AE
330
B2AC
100
AcDbEntity
  8
0
100
AcDbBlockEnd
  0
BLOCK
  5
B329
330
B328
100
AcDbEntity
  8
0
100
AcDbBlockBegin
  2
*D43
 70
     1
 10
0.0
 20
0.0
 30
0.0
  3
*D43
  1

  0
LINE
  5
B550
330
B328
100
AcDbEntity
  8
mark
  6
ByBlock
440
 16777216
370
    -2
100
AcDbLine
 10
40.10000000000004
 20
60.59105166197356
 30
0.0
 11
36.29083198616509
 21
60.59105166197356
 31
0.0
  0
LINE
  5
B551
330
B328
100
AcDbEntity
  8
mark
  6
ByBlock
440
 16777216
370
    -2
100
AcDbLine
 10
41.60000000000001
 20
61.09105166197358
 30
0.0
 11
36.29083198616509
 21
61.09105166197358
 31
0.0
  0
LINE
  5
B552
330
B328
100
AcDbEntity
  8
mark
  6
ByBlock
440
 16777216
370
    -2
100
AcDbLine
 10
36.69083198616509
 20
59.34105166197356
 30
0.0
 11
36.69083198616509
 21
58.09105166197356
 31
0.0
  0
LINE
  5
B553
330
B328
100
AcDbEntity
  8
mark
  6
ByBlock
440
 16777216
370
    -2
100
AcDbLine
 10
36.69083198616509
 20
62.34105166197358
 30
0.0
 11
36.69083198616509
 21
66.68271832864023
 31
0.0
  0
LINE
  5
B554
330
B328
100
AcDbEntity
  8
mark
  6
ByBlock
440
 16777216
370
    -2
100
AcDbLine
 10
36.69083198616509
 20
60.59105166197356
 30
0.0
 11
36.69083198616509
 21
61.09105166197358
 31
0.0
  0
INSERT
  5
B555
330
B328
100
AcDbEntity
  8
mark
440
 16777216
370
    -2
100
AcDbBlockReference
  2
_Open30
 10
36.69083198616509
 20
60.59105166197356
 30
0.0
 41
1.25
 42
1.25
 43
1.25
 50
90.0
  0
INSERT
  5
B556
330
B328
100
AcDbEntity
  8
mark
440
 16777216
370
    -2
100
AcDbBlockReference
  2
_Open30
 10
36.69083198616509
 20
61.09105166197358
 30
0.0
 41
1.25
 42
1.25
 43
1.25
 50
270.0
  0
MTEXT
  5
B557
330
B328
100
AcDbEntity
  8
mark
 62
     3
440
 16777216
100
AcDbMText
 10
35.66583198616509
 20
65.13688499530691
 30
0.0
 40
1.25
 41
0.0
 46
0.0
 71
     5
 72
     1
  1
\A1;0.5
 11
0.0000000000000001
 21
1.0
 31
0.0
 73
     1
 44
1.0
  0
POINT
  5
B558
330
B328
100
AcDbEntity
  8
DEFPOINTS
 62
     0
440
 16777216
100
AcDbPoint
 10
40.50000000000004
 20
60.59105166197356
 30
0.0
  0
POINT
  5
B559
330
B328
100
AcDbEntity
  8
DEFPOINTS
 62
     0
440
 16777216
100
AcDbPoint
 10
42.00000000000001
 20
61.09105166197358
 30
0.0
  0
POINT
  5
B55A
330
B328
100
AcDbEntity
  8
DEFPOINTS
 62
     0
440
 16777216
100
AcDbPoint
 10
36.69083198616509
 20
61.09105166197358
 30
0.0
  0
ENDBLK
  5
B32A
330
B328
100
AcDbEntity
  8
0
100
AcDbBlockEnd
  0
BLOCK
  5
B344
330
B343
100
AcDbEntity
  8
0
100
AcDbBlockBegin
  2
*D44
 70
     1
 10
0.0
 20
0.0
 30
0.0
  3
*D44
  1

  0
LINE
  5
B55B
330
B343
100
AcDbEntity
  8
mark
  6
ByBlock
440
 16777216
370
    -2
100
AcDbLine
 10
39.24188317724917
 20
100.1785152239034
 30
0.0
 11
36.29083198616513
 21
100.1785152239034
 31
0.0
  0
LINE
  5
B55C
330
B343
100
AcDbEntity
  8
mark
  6
ByBlock
440
 16777216
370
    -2
100
AcDbLine
 10
39.24188317724917
 20
97.1785152239034
 30
0.0
 11
36.29083198616513
 21
97.1785152239034
 31
0.0
  0
LINE
  5
B55D
330
B343
100
AcDbEntity
  8
mark
  6
ByBlock
440
 16777216
370
    -2
100
AcDbLine
 10
36.69083198616512
 20
101.4285152239034
 30
0.0
 11
36.69083198616512
 21
102.6785152239034
 31
0.0
  0
LINE
  5
B55E
330
B343
100
AcDbEntity
  8
mark
  6
ByBlock
440
 16777216
370
    -2
100
AcDbLine
 10
36.69083198616512
 20
95.92851522390338
 30
0.0
 11
36.69083198616512
 21
94.67851522390338
 31
0.0
  0
LINE
  5
B55F
330
B343
100
AcDbEntity
  8
mark
  6
ByBlock
440
 16777216
370
    -2
100
AcDbLine
 10
36.69083198616512
 20
100.1785152239034
 30
0.0
 11
36.69083198616512
 21
97.1785152239034
 31
0.0
  0
INSERT
  5
B560
330
B343
100
AcDbEntity
  8
mark
440
 16777216
370
    -2
100
AcDbBlockReference
  2
_Open30
 10
36.69083198616512
 20
100.1785152239034
 30
0.0
 41
1.25
 42
1.25
 43
1.25
 50
270.0
  0
INSERT
  5
B561
330
B343
100
AcDbEntity
  8
mark
440
 16777216
370
    -2
100
AcDbBlockReference
  2
_Open30
 10
36.69083198616512
 20
97.1785152239034
 30
0.0
 41
1.25
 42
1.25
 43
1.25
 50
90.0
  0
POINT
  5
B562
330
B343
100
AcDbEntity
  8
DEFPOINTS
 62
     0
440
 16777216
100
AcDbPoint
 10
39.64188317724917
 20
100.1785152239034
 30
0.0
  0
POINT
  5
B563
330
B343
100
AcDbEntity
  8
DEFPOINTS
 62
     0
440
 16777216
100
AcDbPoint
 10
39.64188317724917
 20
97.1785152239034
 30
0.0
  0
POINT
  5
B564
330
B343
100
AcDbEntity
  8
DEFPOINTS
 62
     0
440
 16777216
100
AcDbPoint
 10
36.69083198616512
 20
97.1785152239034
 30
0.0
  0
ENDBLK
  5
B345
330
B343
100
AcDbEntity
  8
0
100
AcDbBlockEnd
  0
BLOCK
  5
B3CB
330
B3CA
100
AcDbEntity
  8
0
100
AcDbBlockBegin
  2
*D45
 70
     1
 10
0.0
 20
0.0
 30
0.0
  3
*D45
  1

  0
LINE
  5
B565
330
B3CA
100
AcDbEntity
  8
mark
  6
ByBlock
440
 16777216
370
    -2
100
AcDbLine
 10
53.40000000000001
 20
61.09105166197355
 30
0.0
 11
60.41103451540733
 21
61.09105166197355
 31
0.0
  0
LINE
  5
B566
330
B3CA
100
AcDbEntity
  8
mark
  6
ByBlock
440
 16777216
370
    -2
100
AcDbLine
 10
56.8999999999999
 20
57.09105166197353
 30
0.0
 11
60.41103451540733
 21
57.09105166197353
 31
0.0
  0
LINE
  5
B567
330
B3CA
100
AcDbEntity
  8
mark
  6
ByBlock
440
 16777216
370
    -2
100
AcDbLine
 10
60.01103451540733
 20
59.84105166197355
 30
0.0
 11
60.01103451540733
 21
58.34105166197353
 31
0.0
  0
INSERT
  5
B568
330
B3CA
100
AcDbEntity
  8
mark
440
 16777216
370
    -2
100
AcDbBlockReference
  2
_Open30
 10
60.01103451540733
 20
61.09105166197355
 30
0.0
 41
1.25
 42
1.25
 43
1.25
 50
90.0
  0
INSERT
  5
B569
330
B3CA
100
AcDbEntity
  8
mark
440
 16777216
370
    -2
100
AcDbBlockReference
  2
_Open30
 10
60.01103451540733
 20
57.09105166197353
 30
0.0
 41
1.25
 42
1.25
 43
1.25
 50
270.0
  0
MTEXT
  5
B56A
330
B3CA
100
AcDbEntity
  8
mark
 62
     3
440
 16777216
100
AcDbMText
 10
58.98603451540733
 20
59.09105166197356
 30
0.0
 40
1.25
 41
0.0
 46
0.0
 71
     5
 72
     1
  1
\A1;4
 11
0.0000000000000001
 21
1.0
 31
0.0
 73
     1
 44
1.0
  0
POINT
  5
B56B
330
B3CA
100
AcDbEntity
  8
DEFPOINTS
 62
     0
440
 16777216
100
AcDbPoint
 10
53.00000000000001
 20
61.09105166197355
 30
0.0
  0
POINT
  5
B56C
330
B3CA
100
AcDbEntity
  8
DEFPOINTS
 62
     0
440
 16777216
100
AcDbPoint
 10
56.4999999999999
 20
57.09105166197353
 30
0.0
  0
POINT
  5
B56D
330
B3CA
100
AcDbEntity
  8
DEFPOINTS
 62
     0
440
 16777216
100
AcDbPoint
 10
60.01103451540733
 20
57.09105166197353
 30
0.0
  0
ENDBLK
  5
B3CC
330
B3CA
100
AcDbEntity
  8
0
100
AcDbBlockEnd
  0
BLOCK
  5
B3D8
330
B3D7
100
AcDbEntity
  8
0
100
AcDbBlockBegin
  2
*D46
 70
     1
 10
0.0
 20
0.0
 30
0.0
  3
*D46
  1

  0
LINE
  5
B56E
330
B3D7
100
AcDbEntity
  8
mark
  6
ByBlock
440
 16777216
370
    -2
100
AcDbLine
 10
53.40000000000001
 20
61.09105166197355
 30
0.0
 11
65.01345839208467
 21
61.09105166197355
 31
0.0
  0
LINE
  5
B56F
330
B3D7
100
AcDbEntity
  8
mark
  6
ByBlock
440
 16777216
370
    -2
100
AcDbLine
 10
54.89999999999995
 20
53.09105166197356
 30
0.0
 11
65.01345839208467
 21
53.09105166197356
 31
0.0
  0
LINE
  5
B570
330
B3D7
100
AcDbEntity
  8
mark
  6
ByBlock
440
 16777216
370
    -2
100
AcDbLine
 10
64.61345839208466
 20
59.84105166197355
 30
0.0
 11
64.61345839208466
 21
54.34105166197356
 31
0.0
  0
INSERT
  5
B571
330
B3D7
100
AcDbEntity
  8
mark
440
 16777216
370
    -2
100
AcDbBlockReference
  2
_Open30
 10
64.61345839208466
 20
61.09105166197355
 30
0.0
 41
1.25
 42
1.25
 43
1.25
 50
90.0
  0
INSERT
  5
B572
330
B3D7
100
AcDbEntity
  8
mark
440
 16777216
370
    -2
100
AcDbBlockReference
  2
_Open30
 10
64.61345839208466
 20
53.09105166197356
 30
0.0
 41
1.25
 42
1.25
 43
1.25
 50
270.0
  0
MTEXT
  5
B573
330
B3D7
100
AcDbEntity
  8
mark
 62
     3
440
 16777216
100
AcDbMText
 10
63.58845839208465
 20
57.09105166197357
 30
0.0
 40
1.25
 41
0.0
 46
0.0
 71
     5
 72
     1
  1
\A1;8%%p0.2
 11
0.0000000000000001
 21
1.0
 31
0.0
 73
     1
 44
1.0
  0
POINT
  5
B574
330
B3D7
100
AcDbEntity
  8
DEFPOINTS
 62
     0
440
 16777216
100
AcDbPoint
 10
53.00000000000001
 20
61.09105166197355
 30
0.0
  0
POINT
  5
B575
330
B3D7
100
AcDbEntity
  8
DEFPOINTS
 62
     0
440
 16777216
100
AcDbPoint
 10
54.49999999999995
 20
53.09105166197356
 30
0.0
  0
POINT
  5
B576
330
B3D7
100
AcDbEntity
  8
DEFPOINTS
 62
     0
440
 16777216
100
AcDbPoint
 10
64.61345839208466
 20
53.09105166197356
 30
0.0
  0
ENDBLK
  5
B3D9
330
B3D7
100
AcDbEntity
  8
0
100
AcDbBlockEnd
  0
BLOCK
  5
B40D
330
B40C
100
AcDbEntity
  8
0
100
AcDbBlockBegin
  2
*D47
 70
     1
 10
0.0
 20
0.0
 30
0.0
  3
*D47
  1

  0
LINE
  5
B577
330
B40C
100
AcDbEntity
  8
mark
  6
ByBlock
440
 16777216
370
    -2
100
AcDbLine
 10
36.28092953892048
 20
49.87198120089368
 30
0.0
 11
38.90900974233037
 21
52.50006140430379
 31
0.0
  0
MTEXT
  5
B578
330
B40C
100
AcDbEntity
  8
mark
 62
     3
440
 16777216
100
AcDbMText
 10
36.42824345166761
 20
51.4688640150733
 30
0.0
 40
1.25
 41
0.0
 46
0.0
 71
     5
 72
     1
  1
\A1;R1
 11
0.707106781186519
 21
0.7071067811865762
 31
0.0
 73
     1
 44
1.0
  0
LINE
  5
B579
330
B40C
100
AcDbEntity
  8
mark
  6
ByBlock
440
 16777216
370
    -2
100
AcDbLine
 10
40.50000000000003
 20
54.09105166197357
 30
0.0
 11
39.79289321881353
 21
53.38394488078701
 31
0.0
  0
INSERT
  5
B57A
330
B40C
100
AcDbEntity
  8
mark
440
 16777216
370
    -2
100
AcDbBlockReference
  2
_Open30
 10
39.79289321881353
 20
53.38394488078701
 30
0.0
 41
1.25
 42
1.25
 43
1.25
 50
45.00000000000231
  0
POINT
  5
B57B
330
B40C
100
AcDbEntity
  8
DEFPOINTS
 62
     0
440
 16777216
100
AcDbPoint
 10
39.79289321881353
 20
53.38394488078701
 30
0.0
  0
POINT
  5
B57C
330
B40C
100
AcDbEntity
  8
DEFPOINTS
 62
     0
440
 16777216
100
AcDbPoint
 10
40.50000000000003
 20
54.09105166197357
 30
0.0
  0
ENDBLK
  5
B40E
330
B40C
100
AcDbEntity
  8
0
100
AcDbBlockEnd
  0
BLOCK
  5
B41D
330
B41C
100
AcDbEntity
  8
0
100
AcDbBlockBegin
  2
*D48
 70
     1
 10
0.0
 20
0.0
 30
0.0
  3
*D48
  1

  0
LINE
  5
B57D
330
B41C
100
AcDbEntity
  8
mark
  6
ByBlock
440
 16777216
370
    -2
100
AcDbLine
 10
43.50000000000001
 20
53.03505166197358
 30
0.0
 11
43.50000000000001
 21
46.60271924692731
 31
0.0
  0
LINE
  5
B57E
330
B41C
100
AcDbEntity
  8
mark
  6
ByBlock
440
 16777216
370
    -2
100
AcDbLine
 10
51.50000000000002
 20
53.03505166197358
 30
0.0
 11
51.50000000000002
 21
46.60271924692731
 31
0.0
  0
LINE
  5
B57F
330
B41C
100
AcDbEntity
  8
mark
  6
ByBlock
440
 16777216
370
    -2
100
AcDbLine
 10
50.25000000000002
 20
47.00271924692731
 30
0.0
 11
44.75000000000001
 21
47.00271924692731
 31
0.0
  0
LINE
  5
B580
330
B41C
100
AcDbEntity
  8
mark
  6
ByBlock
440
 16777216
370
    -2
100
AcDbLine
 10
43.50000000000001
 20
47.00271924692731
 30
0.0
 11
32.90833333333335
 21
47.00271924692731
 31
0.0
  0
INSERT
  5
B581
330
B41C
100
AcDbEntity
  8
mark
440
 16777216
370
    -2
100
AcDbBlockReference
  2
_Open30
 10
51.50000000000002
 20
47.00271924692731
 30
0.0
 41
1.25
 42
1.25
 43
1.25
  0
INSERT
  5
B582
330
B41C
100
AcDbEntity
  8
mark
440
 16777216
370
    -2
100
AcDbBlockReference
  2
_Open30
 10
43.50000000000001
 20
47.00271924692731
 30
0.0
 41
1.25
 42
1.25
 43
1.25
 50
180.0
  0
MTEXT
  5
B583
330
B41C
100
AcDbEntity
  8
mark
 62
     3
440
 16777216
100
AcDbMText
 10
37.57916666666668
 20
48.02771924692731
 30
0.0
 40
1.25
 41
0.0
 46
0.0
 71
     5
 72
     1
  1
\A1;M8x0.75P
 73
     1
 44
1.0
  0
POINT
  5
B584
330
B41C
100
AcDbEntity
  8
DEFPOINTS
 62
     0
440
 16777216
100
AcDbPoint
 10
43.50000000000001
 20
53.43505166197358
 30
0.0
  0
POINT
  5
B585
330
B41C
100
AcDbEntity
  8
DEFPOINTS
 62
     0
440
 16777216
100
AcDbPoint
 10
51.50000000000002
 20
53.43505166197358
 30
0.0
  0
POINT
  5
B586
330
B41C
100
AcDbEntity
  8
DEFPOINTS
 62
     0
440
 16777216
100
AcDbPoint
 10
51.50000000000002
 20
47.00271924692731
 30
0.0
  0
ENDBLK
  5
B41E
330
B41C
100
AcDbEntity
  8
0
100
AcDbBlockEnd
  0
ENDSEC
  0
SECTION
  2
ENTITIES
  0
MTEXT
  5
C0
330
18
100
AcDbEntity
  8
0
100
AcDbMText
 10
41.26970765600413
 20
233.6950877649332
 30
0.0
 40
2.5
 41
0.0
 46
0.0
 71
     1
 72
     5
  1

  7
ISOCP3
 73
     1
 44
1.0
  0
LWPOLYLINE
  5
7D6C
330
18
100
AcDbEntity
  8
frame
100
AcDbPolyline
 90
        4
 70
     1
 43
0.0
 10
95.0
 20
140.0
 10
0.0
 20
140.0
 10
0.0
 20
0.0
 10
95.0
 20
0.0
  0
MTEXT
  5
7D6D
330
18
100
AcDbEntity
  8
0
100
AcDbMText
 10
8.549751843445875
 20
9.53802950808307
 30
0.0
 40
2.25
 41
0.0
 46
0.0
 71
     1
 72
     5
  1
{\Ftxt,bigfont|c128;林彦旭}
  7
JL
 73
     1
 44
1.0
  0
MTEXT
  5
7D6E
330
18
100
AcDbEntity
  8
0
100
AcDbMText
 10
38.97647364614426
 20
14.46789489935338
 30
0.0
 40
2.25
 41
0.0
 46
0.0
 71
     1
 72
     5
  1
{\Ftxt,bigfont|c128;2 : 1}
  7
JL
 73
     1
 44
1.0
  0
MTEXT
  5
7D6F
330
18
100
AcDbEntity
  8
0
 48
2.0
370
    25
100
AcDbMText
 10
69.28925239221843
 20
2.746097525024651
 30
0.0
 40
2.25
 41
0.0
 46
0.0
 71
     5
 72
     1
  1
{\Ftxt,bigfont|c128;N L 4 0 \Ftxt,bigfont|c136;4 \Ftxt,bigfont|c128;1 9}
 73
     1
 44
1.0
  0
MTEXT
  5
7D70
330
18
100
AcDbEntity
  8
0
 48
2.0
100
AcDbMText
 10
84.19793853588107
 20
10.38960709342107
 30
0.0
 40
2.159090909090911
 41
0.0
 46
0.0
 71
     5
 72
     1
  1
\P{\Ftxt,bigfont|c128;\W0.9;MRS\Ftxt,bigfont|c136;8x\Ftxt,bigfont|c128;0.75P}
 73
     1
 44
1.0
  0
MTEXT
  5
7D71
330
18
100
AcDbEntity
  8
0
100
AcDbMText
 10
7.6880338568387
 20
14.18870179917354
 30
0.0
 40
2.25
 41
0.0
 46
0.0
 71
     1
 72
     5
  1
{\Ftxt,bigfont|c136;18\Ftxt,bigfont|c128;.\Ftxt,bigfont|c136;12\Ftxt,bigfont|c128;.\Ftxt,bigfont|c136;06}
  7
JL
 73
     1
 44
1.0
  0
LINE
  5
7D72
330
18
100
AcDbEntity
  8
0
 62
     7
 48
5.0
100
AcDbLine
 39
1.919191919191921
 10
23.96471206996267
 20
13.82856453508043
 30
0.0
 11
26.52290072143927
 21
14.46811169794961
 31
0.0
  0
MTEXT
  5
7D73
330
18
100
AcDbEntity
  8
0
100
AcDbMText
 10
7.456177741632075
 20
4.621097525024651
 30
0.0
 40
3.0
 41
0.0
 46
0.0
 71
     1
 72
     5
  1
\Ftxt.shx,bigfont.shx|c128;日機株式会社
  7
LKK
 73
     1
 44
1.0
  0
LINE
  5
7D74
330
18
100
AcDbEntity
  8
frame
100
AcDbLine
 10
0.0
 20
6.0
 30
0.0
 11
95.0
 21
6.000000000000028
 31
0.0
  0
LINE
  5
7D75
330
18
100
AcDbEntity
  8
frame
100
AcDbLine
 10
0.0
 20
11.0
 30
0.0
 11
46.06060606060611
 21
11.0
 31
0.0
  0
LINE
  5
7D76
330
18
100
AcDbEntity
  8
frame
100
AcDbLine
 10
0.0
 20
16.0
 30
0.0
 11
95.0
 21
16.0
 31
0.0
  0
LINE
  5
7D77
330
18
100
AcDbEntity
  8
frame
100
AcDbLine
 10
6.095386662468996
 20
16.0
 30
0.0
 11
6.095386662468996
 21
6.0
 31
0.0
  0
LINE
  5
7D78
330
18
100
AcDbEntity
  8
frame
100
AcDbLine
 10
15.35353535353533
 20
16.0
 30
0.0
 11
15.35353535353539
 21
6.0
 31
0.0
  0
MTEXT
  5
7D79
330
18
100
AcDbEntity
  8
0
100
AcDbMText
 10
1.415137392110977
 20
14.54095044791415
 30
0.0
 40
2.25
 41
0.0
 46
0.0
 71
     1
 72
     5
  1
\Ftxt.shx,bigfont.shx|c128;日 付
  7
JL
 73
     1
 44
1.0
  0
MTEXT
  5
7D7A
330
18
100
AcDbEntity
  8
0
100
AcDbMText
 10
1.485316538719445
 20
9.760819214633187
 30
0.0
 40
2.25
 41
0.0
 46
0.0
 71
     1
 72
     5
  1
\Ftxt.shx,bigfont.shx|c128;製 図
  7
JL
 73
     1
 44
1.0
  0
LINE
  5
7D7B
330
18
100
AcDbEntity
  8
0
 62
     7
370
    25
100
AcDbLine
 10
26.52290072143927
 20
11.90992304647298
 30
0.0
 11
26.52290072143927
 21
14.46811169794961
 31
0.0
  0
MTEXT
  5
7D7C
330
18
100
AcDbEntity
  8
0
100
AcDbMText
 10
32.00374426245418
 20
14.56121351896189
 30
0.0
 40
2.25
 41
0.0
 46
0.0
 71
     1
 72
     5
  1
\Ftxt.shx,bigfont.shx|c128;尺 度
  7
JL
 73
     1
 44
1.0
  0
LINE
  5
7D7D
330
18
100
AcDbEntity
  8
frame
100
AcDbLine
 10
30.70707070707073
 20
16.0
 30
0.0
 11
30.70707070707073
 21
6.0
 31
0.0
  0
LINE
  5
7D7E
330
18
100
AcDbEntity
  8
0
 62
     7
370
    25
100
AcDbLine
 10
19.8076555113131
 20
11.59444509166317
 30
0.0
 11
19.8076555113131
 21
14.68228996214836
 31
0.0
  0
CIRCLE
  5
7D7F
330
18
100
AcDbEntity
  8
0
 62
     7
100
AcDbCircle
 10
19.8076555113131
 20
13.18901737221125
 30
0.0
 40
1.279094325738339
  0
LINE
  5
7D80
330
18
100
AcDbEntity
  8
0
 62
     7
370
    25
100
AcDbLine
 10
23.59660993459988
 20
13.18901737221131
 30
0.0
 11
26.75256290812121
 21
13.18901737221131
 31
0.0
  0
LINE
  5
7D81
330
18
100
AcDbEntity
  8
0
 62
     7
100
AcDbLine
 10
23.96471206996267
 20
12.54947020934213
 30
0.0
 11
26.52290072143927
 21
11.90992304647298
 31
0.0
  0
LINE
  5
7D82
330
18
100
AcDbEntity
  8
frame
100
AcDbLine
 10
21.3711209799755
 20
11.0
 30
0.0
 11
21.3711209799755
 21
6.0
 31
0.0
  0
LINE
  5
7D83
330
18
100
AcDbEntity
  8
0
 62
     7
370
    25
100
AcDbLine
 10
18.20916114243306
 20
13.18901737221125
 30
0.0
 11
21.50162633809634
 21
13.18901737221131
 31
0.0
  0
CIRCLE
  5
7D84
330
18
100
AcDbEntity
  8
0
 62
     7
100
AcDbCircle
 10
19.8076555113131
 20
13.18901737221125
 30
0.0
 40
0.6395471628691697
  0
MTEXT
  5
7D85
330
18
100
AcDbEntity
  8
0
100
AcDbMText
 10
16.85092016231203
 20
9.705069078926328
 30
0.0
 40
2.25
 41
0.0
 46
0.0
 71
     1
 72
     5
  1
\Ftxt.shx,bigfont.shx|c128;検 図
  7
JL
 73
     1
 44
1.0
  0
LINE
  5
7D86
330
18
100
AcDbEntity
  8
0
 62
     7
370
    25
100
AcDbLine
 10
23.96471206996267
 20
12.54947020934213
 30
0.0
 11
23.96471206996267
 21
13.82856453508043
 31
0.0
  0
MTEXT
  5
7D87
330
18
100
AcDbEntity
  8
0
100
AcDbMText
 10
32.14410124959915
 20
9.660292673744407
 30
0.0
 40
2.25
 41
0.0
 46
0.0
 71
     1
 72
     5
  1
\Ftxt.shx,bigfont.shx|c128;承 認
  7
JL
 73
     1
 44
1.0
  0
MTEXT
  5
7D88
330
18
100
AcDbEntity
  8
0
100
AcDbMText
 10
46.85564357803349
 20
5.351341098095701
 30
0.0
 40
2.25
 41
0.0
 46
0.0
 71
     1
 72
     5
  1
\Ftxt.shx,bigfont.shx|c128;図  面  番  号
  7
JL
 73
     1
 44
1.0
  0
MTEXT
  5
7D89
330
18
100
AcDbEntity
  8
0
 48
2.0
100
AcDbMText
 10
57.8585826527611
 20
10.51081921463318
 30
0.0
 40
2.25
 41
0.0
 46
0.0
 71
     5
 72
     1
  1
\P\Ftxt.shx,bigfont.shx|c128;    精密ロックナット
 73
     1
 44
1.0
  0
MTEXT
  5
7D8A
330
18
100
AcDbEntity
  8
0
100
AcDbMText
 10
47.4041806515616
 20
14.51931228986637
 30
0.0
 40
2.25
 41
0.0
 46
0.0
 71
     1
 72
     5
  1
\Ftxt.shx,bigfont.shx|c128;品  名
  7
JL
 73
     1
 44
1.0
  0
LINE
  5
7D8B
330
18
100
AcDbEntity
  8
frame
100
AcDbLine
 10
46.06060606060611
 20
16.0
 30
0.0
 11
46.06060606060611
 21
0.0916613789792393
 31
0.0
  0
LINE
  5
7D8C
330
18
100
AcDbEntity
  8
frame
100
AcDbLine
 10
36.70707070707073
 20
16.0
 30
0.0
 11
36.70707070707073
 21
6.0
 31
0.0
  0
LINE
  5
7D8D
330
18
100
AcDbEntity
  8
frame
100
AcDbLine
 10
73.51635463703281
 20
16.0
 30
0.0
 11
73.51635463703286
 21
6.0
 31
0.0
  0
MTEXT
  5
7D8E
330
18
100
AcDbEntity
  8
0
100
AcDbMText
 10
75.44797972338654
 20
14.52258891415195
 30
0.0
 40
2.25
 41
0.0
 46
0.0
 71
     1
 72
     5
  1
\Ftxt.shx,bigfont.shx|c128;型  番
  7
JL
 73
     1
 44
1.0
  0
MTEXT
  5
7D8F
330
18
100
AcDbEntity
  8
0
100
AcDbMText
 10
82.90298074051628
 20
5.391490874857822
 30
0.0
 40
2.25
 41
0.0
 46
0.0
 71
     1
 72
     5
  1
\Ftxt.shx,bigfont.shx|c128;変更
  7
JL
 73
     1
 44
1.0
  0
LINE
  5
7D90
330
18
100
AcDbEntity
  8
frame
100
AcDbLine
 10
82.04545454545462
 20
6.000000000000028
 30
0.0
 11
82.04545454545467
 21
0.0
 31
0.0
  0
LINE
  5
7D91
330
18
100
AcDbEntity
  8
frame
100
AcDbLine
 10
62.30789503931965
 20
21.56745674462246
 30
0.0
 11
92.30789503931964
 21
21.56745674462241
 31
0.0
  0
LINE
  5
7D92
330
18
100
AcDbEntity
  8
frame
100
AcDbLine
 10
62.30789503931965
 20
25.16745674462248
 30
0.0
 11
92.30789503931964
 21
25.16745674462248
 31
0.0
  0
LINE
  5
7D93
330
18
100
AcDbEntity
  8
frame
100
AcDbLine
 10
62.30789503931965
 20
28.76745674462245
 30
0.0
 11
92.30789503931964
 21
28.7674567446224
 31
0.0
  0
LINE
  5
7D94
330
18
100
AcDbEntity
  8
frame
100
AcDbLine
 10
62.30789503931965
 20
32.36745674462247
 30
0.0
 11
92.30789503931964
 21
32.36745674462242
 31
0.0
  0
LINE
  5
7D95
330
18
100
AcDbEntity
  8
frame
100
AcDbLine
 10
62.30789503931965
 20
17.96745674462244
 30
0.0
 11
92.30789503931964
 21
17.96745674462244
 31
0.0
  0
MTEXT
  5
7D96
330
18
100
AcDbEntity
  8
0
 62
     7
 48
2.0
100
AcDbMText
 10
77.25059502225531
 20
32.76404094991455
 30
0.0
 40
2.4
 41
0.0
 46
0.0
 71
     5
 72
     1
  1
\P\Ftxt.shx,bigfont.shx|c128;諸　　　　元
 73
     1
 44
1.0
  0
LINE
  5
7D97
330
18
100
AcDbEntity
  8
frame
100
AcDbLine
 10
62.30789503931965
 20
32.36745674462242
 30
0.0
 11
62.30789503931965
 21
17.96745674462244
 31
0.0
  0
MTEXT
  5
7D98
330
18
100
AcDbEntity
  8
0
100
AcDbMText
 10
64.06911294615975
 20
28.00420216106204
 30
0.0
 40
2.2
 41
81.95814342112454
 46
0.0
 71
     1
 72
     5
  1
\Ftxt.shx,bigfont.shx|c128;熱　処　理
  7
JL
 73
     1
 44
1.0
  0
LINE
  5
7D99
330
18
100
AcDbEntity
  8
frame
100
AcDbLine
 10
74.30789503931965
 20
28.7674567446224
 30
0.0
 11
74.30789503931965
 21
17.96745674462244
 31
0.0
  0
MTEXT
  5
7D9A
330
18
100
AcDbEntity
  8
0
100
AcDbMText
 10
63.92897576247015
 20
24.50308793743199
 30
0.0
 40
2.2
 41
81.80293144248363
 46
0.0
 71
     1
 72
     5
  1
\Ftxt.shx,bigfont.shx|c128;表 面 処 理
  7
JL
 73
     1
 44
1.0
  0
MTEXT
  5
7D9B
330
18
100
AcDbEntity
  8
0
100
AcDbMText
 10
64.07400868668765
 20
20.85885151062803
 30
0.0
 40
2.2
 41
83.0859
 46
0.0
 71
     1
 72
     5
  1
\Ftxt.shx,bigfont.shx|c128;等     　級
  7
JL
 73
     1
 44
1.0
  0
LINE
  5
7D9C
330
18
100
AcDbEntity
  8
frame
100
AcDbLine
 10
92.30789503931964
 20
32.36745674462242
 30
0.0
 11
92.30789503931964
 21
17.96745674462249
 31
0.0
  0
MTEXT
  5
7D9E
330
18
100
AcDbEntity
  8
0
100
AcDbMText
 10
78.88565775505572
 20
20.8591567963536
 30
0.0
 40
2.2
 41
145.3916823984455
 46
0.0
 71
     1
 72
     5
  1
\Ftxt.shx,bigfont.shx|c128;ＩＳＯ - ４Ｈ
  7
JL
 73
     1
 44
1.0
  0
MTEXT
  5
7DA0
330
18
100
AcDbEntity
  8
0
100
AcDbMText
 10
28.81819530667213
 20
130.4500291639737
 30
0.0
 40
2.5
 41
0.0
 46
0.0
 71
     1
 72
     5
  1
{\Ftxt,bigfont|c128;M4\Ftxt,bigfont|c136;x\Ftxt,bigfont|c128;0.7P-3L}
  7
JL
 73
     1
 44
1.0
  0
LINE
  5
7DA2
330
18
100
AcDbEntity
  8
frame
100
AcDbLine
 10
0.0
 20
127.0
 30
0.0
 11
95.0
 21
127.0
 31
0.0
  0
LINE
  5
7DA3
330
18
100
AcDbEntity
  8
frame
100
AcDbLine
 10
0.0
 20
131.0
 30
0.0
 11
95.0
 21
131.0
 31
0.0
  0
LINE
  5
7DA4
330
18
100
AcDbEntity
  8
frame
 62
     9
100
AcDbLine
 10
0.0
 20
135.0
 30
0.0
 11
95.0
 21
135.0
 31
0.0
  0
MTEXT
  5
7DA5
330
18
100
AcDbEntity
  8
0
100
AcDbMText
 10
28.50782195301855
 20
138.712028002452
 30
0.0
 40
2.5
 41
0.0
 46
0.0
 71
     1
 72
     5
  1
\Ftxt.shx,bigfont.shx|c128;図    番 / 規　　格
  7
JL
 73
     1
 44
1.0
  0
LINE
  5
7DA6
330
18
100
AcDbEntity
  8
frame
100
AcDbLine
 10
0.0
 20
127.0
 30
0.0
 11
95.0
 21
127.0
 31
0.0
  0
MTEXT
  5
7DA8
330
18
100
AcDbEntity
  8
0
100
AcDbMText
 10
10.56244024461716
 20
138.7318990693371
 30
0.0
 40
2.5
 41
0.0
 46
0.0
 71
     1
 72
     5
  1
\Ftxt.shx,bigfont.shx|c128;品　          名
  7
JL
 73
     1
 44
1.0
  0
MTEXT
  5
7DA9
330
18
100
AcDbEntity
  8
0
100
AcDbMText
 10
9.051406935550659
 20
130.3953618644555
 30
0.0
 40
2.5
 41
0.0
 46
0.0
 71
     1
 72
     5
  1
\Ftxt.shx,bigfont.shx|c128;セットスクリュ-
  7
JL
 73
     1
 44
1.0
  0
MTEXT
  5
7DAA
330
18
100
AcDbEntity
  8
0
100
AcDbMText
 10
8.957547404315789
 20
134.4180615141482
 30
0.0
 40
2.5
 41
0.0
 46
0.0
 71
     1
 72
     5
  1
\Ftxt.shx,bigfont.shx|c128;ロックナット　  
  7
JL
 73
     1
 44
1.0
  0
LINE
  5
7DAC
330
18
100
AcDbEntity
  8
frame
 62
     9
100
AcDbLine
 10
7.196969696969688
 20
139.9999999999999
 30
0.0
 11
7.196969696969818
 21
127.0
 31
0.0
  0
LINE
  5
7DAD
330
18
100
AcDbEntity
  8
frame
 62
     9
100
AcDbLine
 10
7.196969696969688
 20
139.9999999999999
 30
0.0
 11
7.196969696969688
 21
123.0
 31
0.0
  0
MTEXT
  5
7DAE
330
18
100
AcDbEntity
  8
0
100
AcDbMText
 10
3.407504634006897
 20
134.364083721706
 30
0.0
 40
2.5
 41
0.0
 46
0.0
 71
     1
 72
     5
  1
\Ftxt.shx,bigfont.shx|c128;1
  7
JL
 73
     1
 44
1.0
  0
MTEXT
  5
7DAF
330
18
100
AcDbEntity
  8
0
100
AcDbMText
 10
1.059914036490113
 20
138.7367391319745
 30
0.0
 40
2.5
 41
0.0
 46
0.0
 71
     1
 72
     5
  1
\Ftxt.shx,bigfont.shx|c128;照   号
  7
JL
 73
     1
 44
1.0
  0
LINE
  5
7DB0
330
18
100
AcDbEntity
  8
frame
 62
     9
100
AcDbLine
 10
26.38888888888891
 20
139.9999999999999
 30
0.0
 11
26.38888888888893
 21
123.0
 31
0.0
  0
MTEXT
  5
7DB1
330
18
100
AcDbEntity
  8
0
100
AcDbMText
 10
72.78681871864256
 20
138.8390831947097
 30
0.0
 40
2.5
 41
0.0
 46
0.0
 71
     1
 72
     5
  1
\Ftxt.shx,bigfont.shx|c128;備           考
  7
JL
 73
     1
 44
1.0
  0
LINE
  5
7DB2
330
18
100
AcDbEntity
  8
frame
 62
     9
100
AcDbLine
 10
45.58080808080808
 20
140.0
 30
0.0
 11
45.58080808080809
 21
123.0
 31
0.0
  0
MTEXT
  5
7DB4
330
18
100
AcDbEntity
  8
0
100
AcDbMText
 10
46.43670544589684
 20
134.4180615141482
 30
0.0
 40
2.5
 41
0.0
 46
0.0
 71
     1
 72
     5
  1
{\Ftxt,bigfont|c128;SUS-304}
  7
JL
 73
     1
 44
1.0
  0
MTEXT
  5
7DB6
330
18
100
AcDbEntity
  8
0
100
AcDbMText
 10
47.88399431552096
 20
138.7822749741459
 30
0.0
 40
2.5
 41
0.0
 46
0.0
 71
     1
 72
     5
  1
\Ftxt.shx,bigfont.shx|c128;材　質
  7
JL
 73
     1
 44
1.0
  0
LINE
  5
7DB7
330
18
100
AcDbEntity
  8
frame
 62
     9
100
AcDbLine
 10
55.17676767676772
 20
140.0
 30
0.0
 11
55.17676767676775
 21
123.0
 31
0.0
  0
LINE
  5
7DB8
330
18
100
AcDbEntity
  8
frame
100
AcDbLine
 10
62.37373737373736
 20
140.0
 30
0.0
 11
62.37373737373744
 21
123.0
 31
0.0
  0
MTEXT
  5
7DBA
330
18
100
AcDbEntity
  8
0
100
AcDbMText
 10
58.58427231077456
 20
134.5206355839966
 30
0.0
 40
2.5
 41
0.0
 46
0.0
 71
     1
 72
     5
  1
\Ftxt.shx,bigfont.shx|c128;1
  7
JL
 73
     1
 44
1.0
  0
MTEXT
  5
7DBB
330
18
100
AcDbEntity
  8
0
100
AcDbMText
 10
58.29695351334419
 20
130.2546145075339
 30
0.0
 40
2.5
 41
0.0
 46
0.0
 71
     1
 72
     5
  1
{\Ftxt,bigfont|c128;3}
  7
JL
 73
     1
 44
1.0
  0
MTEXT
  5
7DBC
330
18
100
AcDbEntity
  8
0
100
AcDbMText
 10
56.21119479596313
 20
138.7822749741459
 30
0.0
 40
2.5
 41
0.0
 46
0.0
 71
     1
 72
     5
  1
\Ftxt.shx,bigfont.shx|c128;数   量
  7
JL
 73
     1
 44
1.0
  0
MTEXT
  5
7DBD
330
18
100
AcDbEntity
  8
0
100
AcDbMText
 10
3.202009849527996
 20
130.364083721706
 30
0.0
 40
2.5
 41
0.0
 46
0.0
 71
     1
 72
     5
  1
{\Ftxt,bigfont|c128;2}
  7
JL
 73
     1
 44
1.0
  0
LINE
  5
A410
330
18
100
AcDbEntity
  8
frame
100
AcDbLine
 10
0.0000000000000142
 20
123.0
 30
0.0
 11
95.00000000000001
 21
123.0
 31
0.0
  0
MTEXT
  5
A4F8
330
18
100
AcDbEntity
  8
0
100
AcDbMText
 10
3.202009849528036
 20
126.364083721706
 30
0.0
 40
2.5
 41
0.0
 46
0.0
 71
     1
 72
     5
  1
{\Ftxt,bigfont|c128;3}
  7
JL
 73
     1
 44
1.0
  0
MTEXT
  5
A4FB
330
18
100
AcDbEntity
  8
0
100
AcDbMText
 10
8.957547404315869
 20
126.4180615141482
 30
0.0
 40
2.5
 41
0.0
 46
0.0
 71
     1
 72
     5
  1
{\Ftxt,bigfont|c128;ロックピン}
  7
JL
 73
     1
 44
1.0
  0
MTEXT
  5
A4FC
330
18
100
AcDbEntity
  8
0
100
AcDbMText
 10
28.81819530667213
 20
126.4500291639736
 30
0.0
 40
2.5
 41
0.0
 46
0.0
 71
     1
 72
     5
  1
{\Ftxt,bigfont|c128;%%C3.5\Ftxt,bigfont|c136;x\Ftxt,bigfont|c128;1.4L}
  7
JL
 73
     1
 44
1.0
  0
MTEXT
  5
A4FD
330
18
100
AcDbEntity
  8
0
100
AcDbMText
 10
46.43670544589685
 20
126.382501006292
 30
0.0
 40
2.5
 41
0.0
 46
0.0
 71
     1
 72
     5
  1
{\Ftxt,bigfont|c128;SUS-303}
  7
JL
 73
     1
 44
1.0
  0
MTEXT
  5
A4FF
330
18
100
AcDbEntity
  8
0
100
AcDbMText
 10
58.29695351334422
 20
126.254614507534
 30
0.0
 40
2.5
 41
0.0
 46
0.0
 71
     1
 72
     5
  1
{\Ftxt,bigfont|c128;3}
  7
JL
 73
     1
 44
1.0
  0
LINE
  5
A525
330
18
100
AcDbEntity
  8
frame
100
AcDbLine
 10
79.30789503931965
 20
26.96745674462243
 30
0.0
 11
87.30789503931966
 21
26.96745674462244
 31
0.0
  0
LINE
  5
A526
330
18
100
AcDbEntity
  8
frame
100
AcDbLine
 10
79.30789503931965
 20
23.36745674462244
 30
0.0
 11
87.30789503931966
 21
23.36745674462244
 31
0.0
  0
LINE
  5
AC96
330
18
100
AcDbEntity
  8
contour
100
AcDbLine
 10
39.50000000000004
 20
59.59105166197357
 30
0.0
 11
39.50000000000004
 21
54.09105166197356
 31
0.0
  0
ARC
  5
AC97
330
18
100
AcDbEntity
  8
contour
100
AcDbCircle
 10
40.50000000000004
 20
59.59105166197357
 30
0.0
 40
1.0
100
AcDbArc
 50
90.0
 51
180.0
  0
LINE
  5
AC99
330
18
100
AcDbEntity
  8
contour
100
AcDbLine
 10
42.00000000000001
 20
61.09105166197358
 30
0.0
 11
53.00000000000001
 21
61.09105166197355
 31
0.0
  0
LINE
  5
AC9A
330
18
100
AcDbEntity
  8
contour
100
AcDbLine
 10
43.90600000000005
 20
60.34105166197356
 30
0.0
 11
43.15600000000005
 21
61.09105166197356
 31
0.0
  0
LINE
  5
AC9B
330
18
100
AcDbEntity
  8
contour
100
AcDbLine
 10
40.50000000000004
 20
60.59105166197356
 30
0.0
 11
42.00000000000001
 21
60.59105166197355
 31
0.0
  0
LINE
  5
AC9C
330
18
100
AcDbEntity
  8
contour
100
AcDbLine
 10
53.00000000000001
 20
60.59105166197355
 30
0.0
 11
54.49999999999993
 21
60.59105166197354
 31
0.0
  0
LINE
  5
AC9E
330
18
100
AcDbEntity
  8
contour
100
AcDbLine
 10
43.90599999999999
 20
53.84105166197355
 30
0.0
 11
43.15599999999998
 21
53.09105166197355
 31
0.0
  0
ARC
  5
AC9F
330
18
100
AcDbEntity
  8
contour
100
AcDbCircle
 10
54.49999999999995
 20
54.09105166197356
 30
0.0
 40
1.0
100
AcDbArc
 50
270.0
 51
0.0000000000002544
  0
LINE
  5
ACA1
330
18
100
AcDbEntity
  8
contour
100
AcDbLine
 10
55.49999999999993
 20
59.59105166197353
 30
0.0
 11
55.49999999999996
 21
54.09105166197356
 31
0.0
  0
ARC
  5
ACA2
330
18
100
AcDbEntity
  8
contour
100
AcDbCircle
 10
54.49999999999993
 20
59.59105166197353
 30
0.0
 40
1.0
100
AcDbArc
 50
359.9999999999999
 51
90.0
  0
LINE
  5
ACA3
330
18
100
AcDbEntity
  8
contour
100
AcDbLine
 10
42.00000000000001
 20
60.59105166197355
 30
0.0
 11
42.00000000000001
 21
61.09105166197355
 31
0.0
  0
LINE
  5
ACA4
330
18
100
AcDbEntity
  8
contour
100
AcDbLine
 10
53.00000000000001
 20
60.59105166197355
 30
0.0
 11
53.00000000000001
 21
61.09105166197355
 31
0.0
  0
LINE
  5
ACA5
330
18
100
AcDbEntity
  8
contour
 62
     4
100
AcDbLine
 10
43.50000000000001
 20
60.74705166197363
 30
0.0
 11
43.50000000000001
 21
53.43505166197358
 31
0.0
  0
LINE
  5
ACA6
330
18
100
AcDbEntity
  8
contour
 62
     4
100
AcDbLine
 10
51.50000000000002
 20
60.74705166197356
 30
0.0
 11
51.50000000000002
 21
59.09105166197358
 31
0.0
  0
LINE
  5
ACA7
330
18
100
AcDbEntity
  8
contour
 62
     4
100
AcDbLine
 10
51.50000000000002
 20
55.09105166197354
 30
0.0
 11
51.50000000000002
 21
53.43505166197353
 31
0.0
  0
LINE
  5
ACA8
330
18
100
AcDbEntity
  8
contour
100
AcDbLine
 10
43.90600000000005
 20
60.34105166197356
 30
0.0
 11
43.90599999999999
 21
53.84105166197355
 31
0.0
  0
HATCH
  5
ACA9
330
18
100
AcDbEntity
  8
section
100
AcDbHatch
 10
0.0
 20
0.0
 30
0.0
210
0.0
220
0.0
230
1.0
  2
AR-SAND
 70
     0
 71
     1
 91
        2
 92
        7
 72
     0
 73
     1
 93
        4
 10
52.49999999999992
 20
57.09105166197356
 10
52.49999999999992
 20
58.84105166197357
 10
51.09400000000003
 20
58.84105166197357
 10
51.09400000000002
 20
57.09105166197356
 97
        4
330
ACCC
330
ACAA
330
ACAF
330
ACCD
 92
        7
 72
     0
 73
     1
 93
        4
 10
52.49999999999992
 20
55.34105166197356
 10
52.49999999999992
 20
57.09105166197356
 10
51.09400000000002
 20
57.09105166197356
 10
51.09400000000001
 20
55.34105166197357
 97
        4
330
ACAF
330
ACAA
330
ACCE
330
ACCD
 75
     0
 76
     1
 52
0.0
 41
0.02
 77
     0
 78
     4
 53
37.5
 43
-97.07537931952586
 44
0.0
 45
-0.0320006259196809
 46
0.9788264746586847
 79
     6
 49
0.0
 49
-0.7721600000000001
 49
0.0
 49
-0.8636000000000001
 49
0.0
 49
-0.8255
 53
7.499999999999999
 43
-97.07537931952586
 44
0.0
 45
0.8990465662760053
 46
1.433650201136708
 79
     6
 49
0.0
 49
-0.4165600000000001
 49
0.0
 49
-0.69596
 49
0.0
 49
-0.2667000000000001
 53
327.5
 43
-97.70021931952586
 44
0.0
 45
1.581984740482915
 46
0.0028743693570915
 79
     6
 49
0.0
 49
-0.254
 49
0.0
 49
-0.9144
 49
0.0
 49
-1.193799999999999
 53
317.5
 43
-97.70021931952586
 44
0.0
 45
1.527112904944594
 46
0.4458586465144326
 79
     6
 49
0.0
 49
-0.127
 49
0.0
 49
-0.59944
 49
0.0
 49
-0.6858
 47
0.0314148729548501
 98
        2
 10
51.94331725557929
 20
57.55192874237144
 10
51.91189059429619
 20
55.88694055647306
1001
ACAD
1010
0.0
1020
0.0
1030
0.0
  0
LINE
  5
ACAA
102
{ACAD_REACTORS
330
ACA9
102
}
330
18
100
AcDbEntity
  8
contour
100
AcDbLine
 10
51.09400000000004
 20
60.34105166197358
 30
0.0
 11
51.094
 21
53.84105166197356
 31
0.0
  0
LINE
  5
ACAB
330
18
100
AcDbEntity
  8
contour
100
AcDbLine
 10
51.84400000000001
 20
53.09105166197356
 30
0.0
 11
51.094
 21
53.84105166197356
 31
0.0
  0
LINE
  5
ACAC
330
18
100
AcDbEntity
  8
contour
100
AcDbLine
 10
51.84400000000003
 20
61.09105166197358
 30
0.0
 11
51.09400000000004
 21
60.34105166197358
 31
0.0
  0
LINE
  5
ACAD
330
18
100
AcDbEntity
  8
contour
100
AcDbLine
 10
43.90600000000005
 20
60.34105166197359
 30
0.0
 11
51.094
 21
60.34105166197359
 31
0.0
  0
LINE
  5
ACAE
330
18
100
AcDbEntity
  8
contour
100
AcDbLine
 10
43.90599999999999
 20
53.84105166197356
 30
0.0
 11
51.094
 21
53.84105166197356
 31
0.0
  0
LINE
  5
ACAF
102
{ACAD_REACTORS
330
ACA9
102
}
330
18
100
AcDbEntity
  8
center
 48
0.1
100
AcDbLine
 10
50.09400000000001
 20
57.09105166197357
 30
0.0
 11
56.4999999999999
 21
57.09105166197353
 31
0.0
  0
LINE
  5
ACB3
330
18
100
AcDbEntity
  8
center
 48
0.1
100
AcDbLine
 10
47.50000000000001
 20
107.1785152239034
 30
0.0
 11
47.50000000000001
 21
88.67851522390338
 31
0.0
  0
LINE
  5
ACB4
330
18
100
AcDbEntity
  8
center
 48
0.1
100
AcDbLine
 10
39.00000000000002
 20
98.67851522390338
 30
0.0
 11
56.00000000000001
 21
98.67851522390338
 31
0.0
  0
LINE
  5
ACB7
330
18
100
AcDbEntity
  8
contour
100
AcDbLine
 10
52.49999999999992
 20
58.71205166197357
 30
0.0
 11
52.62099999999991
 21
58.71205166197356
 31
0.0
  0
LINE
  5
ACB8
330
18
100
AcDbEntity
  8
contour
100
AcDbLine
 10
52.49999999999992
 20
55.47005166197357
 30
0.0
 11
52.62099999999991
 21
55.47005166197357
 31
0.0
  0
LINE
  5
ACB9
330
18
100
AcDbEntity
  8
contour
100
AcDbLine
 10
52.49999999999992
 20
58.59105166197356
 30
0.0
 11
52.49999999999992
 21
55.59105166197356
 31
0.0
  0
LINE
  5
ACBA
330
18
100
AcDbEntity
  8
contour
100
AcDbLine
 10
52.99999999999993
 20
55.09105166197357
 30
0.0
 11
52.49999999999992
 21
55.59105166197356
 31
0.0
  0
LINE
  5
ACBB
330
18
100
AcDbEntity
  8
contour
100
AcDbLine
 10
52.99999999999993
 20
55.09105166197357
 30
0.0
 11
54.99999999999992
 21
55.09105166197357
 31
0.0
  0
LINE
  5
ACBC
330
18
100
AcDbEntity
  8
contour
100
AcDbLine
 10
55.49999999999993
 20
55.59105166197356
 30
0.0
 11
55.49999999999993
 21
58.59105166197356
 31
0.0
  0
LINE
  5
ACBD
330
18
100
AcDbEntity
  8
bowle
 48
0.1
100
AcDbLine
 10
54.49999999999993
 20
55.93635112359432
 30
0.0
 11
54.49999999999993
 21
58.24575220035281
 31
0.0
  0
LINE
  5
ACBE
330
18
100
AcDbEntity
  8
contour
100
AcDbLine
 10
54.99999999999992
 20
55.09105166197357
 30
0.0
 11
55.49999999999993
 21
55.59105166197356
 31
0.0
  0
LINE
  5
ACBF
330
18
100
AcDbEntity
  8
contour
100
AcDbLine
 10
54.99999999999992
 20
59.09105166197356
 30
0.0
 11
52.99999999999993
 21
59.09105166197356
 31
0.0
  0
LINE
  5
ACC0
330
18
100
AcDbEntity
  8
contour
100
AcDbLine
 10
55.49999999999993
 20
58.59105166197356
 30
0.0
 11
54.99999999999992
 21
59.09105166197356
 31
0.0
  0
LINE
  5
ACC1
330
18
100
AcDbEntity
  8
contour
100
AcDbLine
 10
52.49999999999992
 20
58.59105166197356
 30
0.0
 11
52.99999999999993
 21
59.09105166197356
 31
0.0
  0
LINE
  5
ACC2
330
18
100
AcDbEntity
  8
contour
 62
     4
100
AcDbLine
 10
52.62099999999991
 20
58.71205166197356
 30
0.0
 11
55.37899999999989
 21
58.71205166197357
 31
0.0
  0
LINE
  5
ACC3
330
18
100
AcDbEntity
  8
contour
 62
     4
100
AcDbLine
 10
52.62099999999991
 20
55.47005166197355
 30
0.0
 11
55.37899999999995
 21
55.47005166197355
 31
0.0
  0
LINE
  5
ACC4
330
18
100
AcDbEntity
  8
contour
100
AcDbLine
 10
52.99999999999993
 20
59.09105166197356
 30
0.0
 11
52.99999999999993
 21
55.09105166197357
 31
0.0
  0
LINE
  5
ACC5
330
18
100
AcDbEntity
  8
contour
100
AcDbLine
 10
54.99999999999992
 20
55.09105166197357
 30
0.0
 11
54.99999999999992
 21
59.09105166197356
 31
0.0
  0
LINE
  5
ACC6
330
18
100
AcDbEntity
  8
bowle
 48
0.1
100
AcDbLine
 10
55.49999999999993
 20
58.24575220035281
 30
0.0
 11
54.49999999999987
 21
58.24575220035281
 31
0.0
  0
LINE
  5
ACC7
330
18
100
AcDbEntity
  8
bowle
 48
0.1
100
AcDbLine
 10
55.49999999999993
 20
57.66840193116319
 30
0.0
 11
54.49999999999987
 21
57.66840193116319
 31
0.0
  0
LINE
  5
ACC8
330
18
100
AcDbEntity
  8
bowle
 48
0.1
100
AcDbLine
 10
55.49999999999993
 20
56.51370139278395
 30
0.0
 11
54.49999999999987
 21
56.51370139278395
 31
0.0
  0
LINE
  5
ACC9
330
18
100
AcDbEntity
  8
bowle
 48
0.1
100
AcDbLine
 10
55.49999999999993
 20
55.93635112359432
 30
0.0
 11
54.49999999999987
 21
55.93635112359432
 31
0.0
  0
LINE
  5
ACCA
330
18
100
AcDbEntity
  8
bowle
 48
0.1
100
AcDbLine
 10
54.49999999999993
 20
55.93635112359429
 30
0.0
 11
53.83333333333318
 21
57.09105166197358
 31
0.0
  0
LINE
  5
ACCB
330
18
100
AcDbEntity
  8
bowle
 48
0.1
100
AcDbLine
 10
54.49999999999993
 20
58.24575220035284
 30
0.0
 11
53.83333333333318
 21
57.09105166197352
 31
0.0
  0
LINE
  5
ACCC
102
{ACAD_REACTORS
330
ACA9
102
}
330
18
100
AcDbEntity
  8
contour
100
AcDbLine
 10
51.09400000000007
 20
58.84105166197357
 30
0.0
 11
52.49999999999992
 21
58.84105166197357
 31
0.0
  0
LINE
  5
ACCD
102
{ACAD_REACTORS
330
ACA9
102
}
330
18
100
AcDbEntity
  8
contour
100
AcDbLine
 10
52.49999999999992
 20
58.84105166197357
 30
0.0
 11
52.49999999999992
 21
55.34105166197356
 31
0.0
  0
LINE
  5
ACCE
102
{ACAD_REACTORS
330
ACA9
102
}
330
18
100
AcDbEntity
  8
contour
100
AcDbLine
 10
51.09400000000007
 20
55.34105166197357
 30
0.0
 11
52.49999999999992
 21
55.34105166197356
 31
0.0
  0
LINE
  5
ACCF
330
18
100
AcDbEntity
  8
contour
 62
     4
100
AcDbLine
 10
55.49999999999993
 20
59.09105166197358
 30
0.0
 11
51.094
 21
59.09105166197358
 31
0.0
  0
LINE
  5
ACD0
330
18
100
AcDbEntity
  8
contour
 62
     4
100
AcDbLine
 10
55.49999999999996
 20
55.09105166197354
 30
0.0
 11
51.094
 21
55.09105166197354
 31
0.0
  0
LINE
  5
ACD1
330
18
100
AcDbEntity
  8
center
 48
0.1
100
AcDbLine
 10
47.50000000000001
 20
62.09105166197358
 30
0.0
 11
47.50000000000001
 21
52.09105166197355
 31
0.0
  0
LINE
  5
ACDE
330
18
100
AcDbEntity
  8
center
 48
0.1
100
AcDbLine
 10
43.24999999999995
 20
106.0397311560711
 30
0.0
 11
45.70300000000002
 21
101.7910105251046
 31
0.0
  0
LINE
  5
ACDF
330
18
100
AcDbEntity
  8
center
 48
0.1
100
AcDbLine
 10
43.24999999999995
 20
91.3172992917357
 30
0.0
 11
45.70300000000002
 21
95.56601992270215
 31
0.0
  0
LINE
  5
ACE7
330
18
100
AcDbEntity
  8
contour
100
AcDbLine
 10
41.61314003335742
 20
60.59105166197355
 30
0.0
 11
41.61314003335742
 21
53.09105166197355
 31
0.0
  0
ARC
  5
AFB5
330
18
100
AcDbEntity
  8
contour
100
AcDbCircle
 10
47.50000000000001
 20
98.67851522390338
 30
0.0
 40
8.0
100
AcDbArc
 50
190.8069228748603
 51
289.1930771251395
  0
CIRCLE
  5
AFB6
330
18
100
AcDbEntity
  8
contour
100
AcDbCircle
 10
47.50000000000001
 20
98.67851522390338
 30
0.0
 40
4.0
  0
CIRCLE
  5
AFB7
330
18
100
AcDbEntity
  8
contour
100
AcDbCircle
 10
47.50000000000001
 20
98.67851522390338
 30
0.0
 40
3.625
  0
CIRCLE
  5
AFB8
330
18
100
AcDbEntity
  8
contour
100
AcDbCircle
 10
47.50000000000001
 20
98.67851522390338
 30
0.0
 40
5.5
  0
LINE
  5
AFBA
330
18
100
AcDbEntity
  8
contour
100
AcDbLine
 10
39.64188317724917
 20
100.1785152239034
 30
0.0
 11
41.64188317724916
 21
100.1785152239033
 31
0.0
  0
LINE
  5
AFBB
330
18
100
AcDbEntity
  8
contour
100
AcDbLine
 10
39.64188317724917
 20
97.1785152239034
 30
0.0
 11
41.64188317724916
 21
97.17851522390338
 31
0.0
  0
LINE
  5
AFBD
330
18
100
AcDbEntity
  8
contour
100
AcDbLine
 10
41.64188317724916
 20
100.1785152239033
 30
0.0
 11
41.64188317724916
 21
97.1785152239034
 31
0.0
  0
LINE
  5
AFBE
330
18
100
AcDbEntity
  8
contour
100
AcDbLine
 10
50.13002030569881
 20
91.1231864294953
 30
0.0
 11
49.13002030569884
 21
92.85523723706416
 31
0.0
  0
LINE
  5
AFBF
330
18
100
AcDbEntity
  8
contour
100
AcDbLine
 10
52.72809651705212
 20
92.62318642949528
 30
0.0
 11
51.72809651705215
 21
94.35523723706415
 31
0.0
  0
LINE
  5
AFC0
330
18
100
AcDbEntity
  8
contour
100
AcDbLine
 10
49.13002030569884
 20
92.85523723706416
 30
0.0
 11
51.72809651705212
 21
94.35523723706415
 31
0.0
  0
LINE
  5
AFC1
330
18
100
AcDbEntity
  8
contour
100
AcDbLine
 10
52.72809651705215
 20
104.7338440183115
 30
0.0
 11
51.72809651705212
 21
103.0017932107426
 31
0.0
  0
LINE
  5
AFC2
330
18
100
AcDbEntity
  8
contour
100
AcDbLine
 10
50.13002030569883
 20
106.2338440183115
 30
0.0
 11
49.13002030569881
 21
104.5017932107426
 31
0.0
  0
LINE
  5
AFC3
330
18
100
AcDbEntity
  8
contour
100
AcDbLine
 10
51.72809651705212
 20
103.0017932107426
 30
0.0
 11
49.13002030569884
 21
104.5017932107426
 31
0.0
  0
ARC
  5
AFC4
330
18
100
AcDbEntity
  8
contour
100
AcDbCircle
 10
47.50000000000001
 20
98.67851522390338
 30
0.0
 40
8.0
100
AcDbArc
 50
70.80692287485977
 51
169.1930771251396
  0
ARC
  5
AFC5
330
18
100
AcDbEntity
  8
contour
100
AcDbCircle
 10
47.50000000000001
 20
98.67851522390338
 30
0.0
 40
8.0
100
AcDbArc
 50
310.8069228748605
 51
49.19307712513935
  0
LINE
  5
AFC8
330
18
100
AcDbEntity
  8
bowle
 48
0.1
100
AcDbLine
 10
55.24596669241486
 20
100.6785152239034
 30
0.0
 11
50.52334665561197
 21
100.6785152239034
 31
0.0
  0
LINE
  5
AFC9
330
18
100
AcDbEntity
  8
bowle
 48
0.1
100
AcDbLine
 10
55.32799463464304
 20
100.3285152239034
 30
0.0
 11
50.72771203796127
 21
100.3285152239034
 31
0.0
  0
LINE
  5
AFCA
330
18
100
AcDbEntity
  8
bowle
 48
0.1
100
AcDbLine
 10
55.32799463464304
 20
97.02851522390337
 30
0.0
 11
50.72771203796127
 21
97.02851522390337
 31
0.0
  0
LINE
  5
AFCB
330
18
100
AcDbEntity
  8
bowle
 48
0.1
100
AcDbLine
 10
55.24596669241486
 20
96.67851522390339
 30
0.0
 11
50.52334665561197
 21
96.67851522390337
 31
0.0
  0
LINE
  5
AFCC
330
18
100
AcDbEntity
  8
bowle
 48
0.1
100
AcDbLine
 10
41.89496584622377
 20
104.3867191564027
 30
0.0
 11
44.2562758646252
 21
100.29681023211
 31
0.0
  0
LINE
  5
AFCD
330
18
100
AcDbEntity
  8
bowle
 48
0.1
100
AcDbLine
 10
42.15706076643421
 20
104.6327574381925
 30
0.0
 11
44.4572020647751
 21
100.6487958448786
 31
0.0
  0
LINE
  5
AFCE
330
18
100
AcDbEntity
  8
bowle
 48
0.1
100
AcDbLine
 10
45.01494459892287
 20
106.2827574381925
 30
0.0
 11
47.31508589726376
 21
102.2987958448787
 31
0.0
  0
LINE
  5
AFCF
330
18
100
AcDbEntity
  8
bowle
 48
0.1
100
AcDbLine
 10
45.3590674613615
 20
106.3867191564027
 30
0.0
 11
47.72037747976297
 21
102.29681023211
 31
0.0
  0
LINE
  5
AFD0
330
18
100
AcDbEntity
  8
bowle
 48
0.1
100
AcDbLine
 10
45.3590674613615
 20
90.97031129140402
 30
0.0
 11
47.72037747976291
 21
95.06022021569675
 31
0.0
  0
LINE
  5
AFD1
330
18
100
AcDbEntity
  8
bowle
 48
0.1
100
AcDbLine
 10
45.01494459892284
 20
91.07427300961424
 30
0.0
 11
47.31508589726376
 21
95.05823460292811
 31
0.0
  0
LINE
  5
AFD2
330
18
100
AcDbEntity
  8
bowle
 48
0.1
100
AcDbLine
 10
42.15706076643418
 20
92.72427300961425
 30
0.0
 11
44.45720206477507
 21
96.70823460292812
 31
0.0
  0
LINE
  5
AFD3
330
18
100
AcDbEntity
  8
bowle
 48
0.1
100
AcDbLine
 10
41.89496584622377
 20
92.97031129140401
 30
0.0
 11
44.25627586462518
 21
97.06022021569674
 31
0.0
  0
ARC
  5
AFD6
330
18
100
AcDbEntity
  8
contour
100
AcDbCircle
 10
40.50000000000006
 20
54.09105166197356
 30
0.0
 40
1.0
100
AcDbArc
 50
179.9999999999997
 51
270.0
  0
LINE
  5
AFD7
330
18
100
AcDbEntity
  8
contour
100
AcDbLine
 10
40.50000000000006
 20
53.09105166197356
 30
0.0
 11
54.49999999999995
 21
53.09105166197356
 31
0.0
  0
DIMENSION
  5
AFE1
330
18
100
AcDbEntity
  8
mark
100
AcDbDimension
280
     0
  2
*D38
 10
41.64188317724916
 20
84.65171903308918
 30
0.0
 11
46.10438317724917
 21
84.65171903308918
 31
0.0
 70
   160
  1
 
 71
     5
 42
2.0
 73
     0
 74
     0
 75
     0
  3
STANDARD
100
AcDbAlignedDimension
 13
39.64188317724917
 23
97.17851522390338
 33
0.0
 14
41.64188317724916
 24
97.1785152239034
 34
0.0
100
AcDbRotatedDimension
1001
ACAD_DSTYLE_DIMINSPECT
1070
   396
1000
100%
1070
   395
1000

1070
   394
1070
    33
1070
   393
1070
     0
  0
DIMENSION
  5
B1AD
330
18
100
AcDbEntity
  8
mark
100
AcDbDimension
280
     0
  2
*D40
 10
53.00000000000001
 20
64.40131300277517
 30
0.0
 11
47.50000000000001
 21
65.42631300277517
 31
0.0
 70
    32
  1
%%C<>%%p0.5
 71
     5
 42
11.0
 73
     0
 74
     0
 75
     0
  3
STANDARD
100
AcDbAlignedDimension
 13
42.00000000000001
 23
61.09105166197358
 33
0.0
 14
53.00000000000001
 24
61.09105166197358
 34
0.0
100
AcDbRotatedDimension
1001
ACAD
1000
DSTYLE
1002
{
1070
    90
1070
     1
1070
   345
1005
12
1070
   346
1005
12
1070
   347
1005
12
1002
}
  0
DIMENSION
  5
B1BA
330
18
100
AcDbEntity
  8
mark
100
AcDbDimension
280
     0
  2
*D41
 10
39.50000000000004
 20
68.15211432898462
 30
0.0
 11
47.49999999999999
 21
68.15211432898462
 31
0.0
 70
    32
  1
 
 71
     5
 42
15.99999999999988
 73
     0
 74
     0
 75
     0
  3
STANDARD
100
AcDbAlignedDimension
 13
55.49999999999993
 23
59.59105166197353
 33
0.0
 14
39.50000000000004
 24
59.59105166197353
 34
0.0
100
AcDbRotatedDimension
1001
ACAD
1000
DSTYLE
1002
{
1070
    90
1070
     1
1070
   345
1005
12
1070
   346
1005
12
1070
   347
1005
12
1002
}
1001
ACAD_DSTYLE_DIMINSPECT
1070
   396
1000
100%
1070
   395
1000

1070
   394
1070
    33
1070
   393
1070
     0
  0
MTEXT
  5
B2C6
330
18
100
AcDbEntity
  8
mark
 62
     3
100
AcDbMText
 10
44.90646651058249
 20
85.85635157836158
 30
0.0
 40
1.25
 41
0.0
 46
0.0
 71
     5
 72
     1
  1
\A1;2{\H0.56x;\S+0.15^ -0;}
 73
     1
 44
1.0
  0
MTEXT
  5
B326
330
18
100
AcDbEntity
  8
mark
 62
     3
100
AcDbMText
 10
47.7083333333333
 20
69.17711432898463
 30
0.0
 40
1.25
 41
0.0
 46
0.0
 71
     5
 72
     1
  1
\A1;%%C16{\H0.56x;\S+0^ -0.15;}
 73
     1
 44
1.0
  0
DIMENSION
  5
B327
330
18
100
AcDbEntity
  8
mark
100
AcDbDimension
280
     0
  2
*D43
 10
36.69083198616509
 20
61.09105166197358
 30
0.0
 11
35.66583198616509
 21
65.13688499530691
 31
0.0
 70
    32
 71
     5
 42
0.5000000000000142
 73
     0
 74
     0
 75
     0
  3
STANDARD
100
AcDbAlignedDimension
 13
40.50000000000004
 23
60.59105166197356
 33
0.0
 14
42.00000000000001
 24
61.09105166197358
 34
0.0
 50
90.0
100
AcDbRotatedDimension
1001
ACAD
1000
DSTYLE
1002
{
1070
    90
1070
     1
1070
   345
1005
12
1070
   346
1005
12
1070
   347
1005
12
1002
}
  0
DIMENSION
  5
B342
330
18
100
AcDbEntity
  8
mark
100
AcDbDimension
280
     0
  2
*D44
 10
36.69083198616512
 20
97.1785152239034
 30
0.0
 11
36.69083198616511
 21
98.6785152239034
 31
0.0
 70
    32
  1
 
 71
     5
 42
3.0
 73
     0
 74
     0
 75
     0
  3
STANDARD
100
AcDbAlignedDimension
 13
39.64188317724917
 23
100.1785152239034
 33
0.0
 14
39.64188317724917
 24
97.1785152239034
 34
0.0
 50
90.0
100
AcDbRotatedDimension
1001
ACAD
1000
DSTYLE
1002
{
1070
    90
1070
     1
1070
   345
1005
12
1070
   346
1005
12
1070
   347
1005
12
1002
}
1001
ACAD_DSTYLE_DIMINSPECT
1070
   396
1000
100%
1070
   395
1000

1070
   394
1070
    33
1070
   393
1070
     0
  0
MTEXT
  5
B366
102
{ACAD_XDICTIONARY
360
B723
102
}
330
18
100
AcDbEntity
  8
mark
 62
     3
100
AcDbMText
 10
35.01651255826117
 20
98.88684855723671
 30
0.0
 40
1.25
 41
0.0
 46
0.0
 71
     5
 72
     1
  1
\A1;3{\H0.56x;\S+0.15^ -0;}(3{\Ftxt,bigfont|c128;等分})
 11
0.0000000000000001
 21
1.0
 31
0.0
 73
     1
 44
1.0
  0
HATCH
  5
B3B3
330
18
100
AcDbEntity
  8
section
100
AcDbHatch
 10
0.0
 20
0.0
 30
0.0
210
0.0
220
0.0
230
1.0
  2
ANSI31
 70
     0
 71
     0
 91
       10
 92
        7
 72
     0
 73
     1
 93
        8
 10
43.50000000000001
 20
60.7470516619736
 10
43.15600000000005
 20
61.09105166197358
 10
42.00000000000001
 20
61.09105166197358
 10
42.00000000000001
 20
60.59105166197355
 10
41.61314003335742
 20
60.59105166197355
 10
41.61314003335742
 20
53.09105166197356
 10
43.15599999999998
 20
53.09105166197356
 10
43.50000000000001
 20
53.43505166197357
 97
        0
 92
        7
 72
     0
 73
     1
 93
        4
 10
43.90600000000005
 20
60.34105166197356
 10
43.50000000000001
 20
60.7470516619736
 10
43.50000000000001
 20
53.43505166197357
 10
43.90599999999999
 20
53.84105166197355
 97
        0
 92
        7
 72
     1
 73
     1
 93
        8
 10
54.49999999999993
 20
60.59105166197354
 42
0.0
 10
53.00000000000001
 20
60.59105166197355
 42
0.0
 10
53.00000000000001
 20
61.09105166197355
 42
0.0
 10
51.84400000000001
 20
61.09105166197355
 42
0.0
 10
51.50000000000002
 20
60.74705166197356
 42
0.0
 10
51.50000000000002
 20
59.09105166197358
 42
0.0
 10
55.49999999999993
 20
59.09105166197358
 42
0.0
 10
55.49999999999993
 20
59.59105166197354
 42
0.4142135623730916
 97
        0
 92
        7
 72
     0
 73
     1
 93
        4
 10
51.50000000000002
 20
60.74705166197356
 10
51.09400000000004
 20
60.34105166197358
 10
51.09400000000004
 20
59.09105166197358
 10
51.50000000000002
 20
59.09105166197358
 97
        0
 92
        7
 72
     0
 73
     1
 93
        4
 10
51.50000000000002
 20
55.09105166197354
 10
51.094
 20
55.09105166197354
 10
51.094
 20
53.84105166197356
 10
51.50000000000002
 20
53.43505166197355
 97
        0
 92
        7
 72
     1
 73
     1
 93
        6
 10
55.49999999999996
 20
55.09105166197354
 42
0.0
 10
51.50000000000002
 20
55.09105166197354
 42
0.0
 10
51.50000000000002
 20
53.43505166197355
 42
0.0
 10
51.84400000000001
 20
53.09105166197356
 42
0.0
 10
54.49999999999995
 20
53.09105166197356
 42
0.4142135623730973
 10
55.49999999999996
 20
54.09105166197356
 42
0.0
 97
        0
 92
        7
 72
     0
 73
     1
 93
        3
 10
55.49999999999993
 20
59.09105166197358
 10
54.99999999999992
 20
59.09105166197358
 10
55.49999999999993
 20
58.59105166197356
 97
        0
 92
        7
 72
     0
 73
     1
 93
        7
 10
52.99999999999993
 20
59.09105166197358
 10
51.50000000000002
 20
59.09105166197358
 10
51.09400000000004
 20
59.09105166197358
 10
51.09400000000004
 20
58.84105166197357
 10
52.49999999999992
 20
58.84105166197357
 10
52.49999999999992
 20
58.71205166197357
 10
52.62099999999991
 20
58.71205166197356
 97
        0
 92
        7
 72
     0
 73
     1
 93
        7
 10
52.62099999999991
 20
55.47005166197357
 10
52.49999999999992
 20
55.47005166197357
 10
52.49999999999992
 20
55.34105166197356
 10
51.094
 20
55.34105166197357
 10
51.094
 20
55.09105166197354
 10
51.50000000000002
 20
55.09105166197354
 10
52.99999999999996
 20
55.09105166197354
 97
        0
 92
        7
 72
     0
 73
     1
 93
        3
 10
55.49999999999996
 20
55.59105166197358
 10
54.9999999999999
 20
55.09105166197354
 10
55.49999999999996
 20
55.09105166197354
 97
        0
 75
     1
 76
     1
 52
0.0
 41
0.3
 77
     0
 78
     1
 53
45.0
 43
-97.07537931952586
 44
0.0
 45
-0.6735192090801864
 46
0.6735192090801866
 79
     0
 47
0.0088882503148849
 98
       10
 10
43.23713369084315
 20
56.37957686494627
 10
43.71621272576486
 20
56.71042690513974
 10
53.20063805209439
 20
59.80732461894013
 10
51.34688566306123
 20
59.67429142037747
 10
51.31044964714361
 20
54.51945058506703
 10
53.06702206351336
 20
54.75750709568257
 10
55.26705514374895
 20
59.00902230162268
 10
52.05373996965919
 20
58.99389067993189
 10
52.28699210240391
 20
55.19498752443411
 10
55.39059202476754
 20
55.22165236974922
1001
GRADIENTCOLOR1ACI
1070
     5
1001
GRADIENTCOLOR2ACI
1070
     2
1001
ACAD
1010
0.0
1020
0.0
1030
0.0
  0
DIMENSION
  5
B3C9
330
18
100
AcDbEntity
  8
mark
100
AcDbDimension
280
     0
  2
*D45
 10
60.01103451540733
 20
57.09105166197353
 30
0.0
 11
58.98603451540733
 21
59.09105166197356
 31
0.0
 70
    32
 71
     5
 42
4.000000000000021
 73
     0
 74
     0
 75
     0
  3
STANDARD
100
AcDbAlignedDimension
 13
53.00000000000001
 23
61.09105166197355
 33
0.0
 14
56.4999999999999
 24
57.09105166197353
 34
0.0
 50
90.0
100
AcDbRotatedDimension
1001
ACAD
1000
DSTYLE
1002
{
1070
    90
1070
     1
1070
   345
1005
12
1070
   346
1005
12
1070
   347
1005
12
1002
}
  0
DIMENSION
  5
B3D6
330
18
100
AcDbEntity
  8
mark
100
AcDbDimension
280
     0
  2
*D46
 10
64.61345839208466
 20
53.09105166197356
 30
0.0
 11
63.58845839208465
 21
57.09105166197357
 31
0.0
 70
    32
  1
<>%%p0.2
 71
     5
 42
8.0
 73
     0
 74
     0
 75
     0
  3
STANDARD
100
AcDbAlignedDimension
 13
53.00000000000001
 23
61.09105166197355
 33
0.0
 14
54.49999999999995
 24
53.09105166197356
 34
0.0
 50
90.0
100
AcDbRotatedDimension
1001
ACAD
1000
DSTYLE
1002
{
1070
    90
1070
     1
1070
   345
1005
12
1070
   346
1005
12
1070
   347
1005
12
1002
}
1001
ACAD_DSTYLE_DIMINSPECT
1070
   396
1000
100%
1070
   395
1000

1070
   394
1070
    33
1070
   393
1070
     0
  0
TOLERANCE
  5
B3E3
330
18
100
AcDbEntity
  8
mark
100
AcDbFcf
  3
STANDARD
 10
67.44411242435448
 20
63.42170569424336
 30
0.0
  1
{\Fgdt;h}%%v0.007%%v%%vA%%v%%v
  0
LINE
  5
B3E4
330
18
100
AcDbEntity
  8
mark
100
AcDbLine
 10
64.61345839208466
 20
60.59105166197354
 30
0.0
 11
64.61345839208466
 21
63.42170569424336
 31
0.0
  0
LINE
  5
B3E5
330
18
100
AcDbEntity
  8
mark
100
AcDbLine
 10
64.61345839208466
 20
63.42170569424336
 30
0.0
 11
67.44411242435448
 21
63.42170569424336
 31
0.0
  0
DIMENSION
  5
B40B
330
18
100
AcDbEntity
  8
mark
100
AcDbDimension
280
     0
  2
*D47
 10
40.50000000000003
 20
54.09105166197357
 30
0.0
 11
36.42824345166761
 21
51.4688640150733
 31
0.0
 70
    36
 71
     5
 42
0.9999999999999857
 73
     0
 74
     0
 75
     0
  3
STANDARD
100
AcDbRadialDimension
 15
39.79289321881353
 25
53.38394488078701
 35
0.0
 40
0.0
1001
ACAD
1000
DSTYLE
1002
{
1070
    90
1070
     1
1070
   288
1070
     1
1070
   345
1005
12
1070
   346
1005
12
1070
   347
1005
12
1002
}
1001
ACAD_DSTYLE_DIMRADIAL_EXTENSION
1070
   387
1070
     1
1070
   388
1040
3.141592653589788
1070
   390
1040
4.712388980384689
  0
DIMENSION
  5
B41B
330
18
100
AcDbEntity
  8
mark
100
AcDbDimension
280
     0
  2
*D48
 10
51.50000000000002
 20
47.00271924692731
 30
0.0
 11
37.57916666666668
 21
47.00271924692731
 31
0.0
 70
   160
  1
M8x0.75P
 71
     5
 42
8.0
 73
     0
 74
     0
 75
     0
  3
STANDARD
100
AcDbAlignedDimension
 13
43.50000000000001
 23
53.43505166197358
 33
0.0
 14
51.50000000000002
 24
53.43505166197358
 34
0.0
100
AcDbRotatedDimension
1001
ACAD
1000
DSTYLE
1002
{
1070
    90
1070
     1
1070
   345
1005
12
1070
   346
1005
12
1070
   347
1005
12
1002
}
1001
ACAD_DSTYLE_DIMINSPECT
1070
   396
1000
100%
1070
   395
1000

1070
   394
1070
    33
1070
   393
1070
     0
  0
HATCH
  5
B458
330
18
100
AcDbEntity
  8
mark
100
AcDbHatch
 10
0.0
 20
0.0
 30
0.0
210
0.0
220
0.0
230
1.0
  2
SOLID
 70
     1
 71
     0
 91
        1
 92
        7
 72
     0
 73
     1
 93
        3
 10
43.50000000000001
 20
41.51938591359397
 10
43.50000000000001
 20
43.60271924692731
 10
44.54166666666667
 20
42.56105258026064
 97
        0
 75
     0
 76
     1
 47
0.0340840503434746
 98
        1
 10
43.99421191841047
 20
42.46475349459111
450
        0
451
        0
460
0.0
461
0.0
452
        0
462
0.0
453
        0
470

1001
ACAD
1010
0.0
1020
0.0
1030
0.0
  0
TOLERANCE
  5
B459
330
18
100
AcDbEntity
  8
mark
100
AcDbFcf
  3
STANDARD
 10
47.50000000000004
 20
42.56105258026064
 30
0.0
  1
%%v%%v%%vA%%v%%v
  0
LINE
  5
B45A
330
18
100
AcDbEntity
  8
mark
100
AcDbLine
 10
47.50000000000004
 20
42.56105258026064
 30
0.0
 11
44.54166666666667
 21
42.56105258026064
 31
0.0
  0
LINE
  5
B45B
330
18
100
AcDbEntity
  8
mark
100
AcDbLine
 10
43.50000000000001
 20
41.51938591359397
 30
0.0
 11
44.54166666666667
 21
42.56105258026064
 31
0.0
  0
LINE
  5
B45C
330
18
100
AcDbEntity
  8
mark
100
AcDbLine
 10
44.54166666666667
 20
42.56105258026064
 30
0.0
 11
43.50000000000001
 21
43.60271924692731
 31
0.0
  0
LINE
  5
B45D
330
18
100
AcDbEntity
  8
mark
100
AcDbLine
 10
43.50000000000001
 20
46.60271924692731
 30
0.0
 11
43.50000000000001
 21
41.51938591359397
 31
0.0
  0
MTEXT
  5
B502
330
18
100
AcDbEntity
  8
mark
 62
     3
100
AcDbMText
 10
61.85187232236717
 20
113.377970323006
 30
0.0
 40
2.5
 41
0.0
 46
0.0
 71
     5
 72
     1
  1
1
 73
     1
 44
1.0
  0
LEADER
  5
B503
330
18
100
AcDbEntity
  8
mark
100
AcDbLeader
  3
STANDARD
 76
     2
 10
53.15685424949239
 20
104.3353694733957
 30
0.0
 10
60.60856699205044
 20
111.7870822159538
 30
0.0
211
0.7071067811865476
221
0.7071067811865475
231
0.0
1001
ACAD
1000
DSTYLE
1002
{
1070
   147
1040
0.4
1070
    77
1070
     0
1070
    90
1070
     1
1070
   345
1005
12
1070
   346
1005
12
1070
   347
1005
12
1002
}
  0
LEADER
  5
B518
330
18
100
AcDbEntity
  8
mark
100
AcDbLeader
  3
STANDARD
 76
     2
 10
55.49999999999994
 20
57.09105166197354
 30
0.0
 10
60.60856699205044
 20
68.15211432898462
 30
0.0
211
0.8660254037844389
221
-0.5
231
0.0
1001
ACAD
1000
DSTYLE
1002
{
1070
   147
1040
0.4
1070
    77
1070
     0
1070
    90
1070
     1
1070
   345
1005
12
1070
   346
1005
12
1070
   347
1005
12
1002
}
  0
LEADER
  5
B51D
330
18
100
AcDbEntity
  8
mark
100
AcDbLeader
  3
STANDARD
 76
     2
 10
51.797
 20
55.34105166197356
 30
0.0
 10
60.60856699205045
 20
44.21586658965327
 30
0.0
1001
ACAD
1000
DSTYLE
1002
{
1070
   147
1040
0.4
1070
    77
1070
     0
1070
    90
1070
     1
1070
   345
1005
12
1070
   346
1005
12
1070
   347
1005
12
1002
}
  0
MTEXT
  5
B51F
330
18
100
AcDbEntity
  8
mark
 62
     3
100
AcDbMText
 10
61.85187232236717
 20
69.74300243603682
 30
0.0
 40
2.5
 41
0.0
 46
0.0
 71
     5
 72
     1
  1
2
 73
     1
 44
1.0
  0
MTEXT
  5
B520
330
18
100
AcDbEntity
  8
mark
 62
     3
100
AcDbMText
 10
61.85187232236718
 20
45.80675469670547
 30
0.0
 40
2.5
 41
0.0
 46
0.0
 71
     5
 72
     1
  1
3
 73
     1
 44
1.0
  0
MTEXT
  5
B532
330
18
100
AcDbEntity
  8
0
100
AcDbMText
 10
23.82548616095238
 20
9.53802950808307
 30
0.0
 40
2.25
 41
0.0
 46
0.0
 71
     1
 72
     5
  1
{\Ftxt,bigfont|c128;江武崇}
  7
JL
 73
     1
 44
1.0
  0
ENDSEC
  0
SECTION
  2
OBJECTS
  0
DICTIONARY
  5
C
330
0
100
AcDbDictionary
281
     1
  3
ACAD_COLOR
350
7873
  3
ACAD_GROUP
350
D
  3
ACAD_LAYOUT
350
5CF3
  3
ACAD_MATERIAL
350
7872
  3
ACAD_MLEADERSTYLE
350
AB4D
  3
ACAD_MLINESTYLE
350
1B
  3
ACAD_PLOTSETTINGS
350
5CF4
  3
ACAD_PLOTSTYLENAME
350
5CF1
  3
ACAD_SCALELIST
350
AB3B
  3
ACAD_TABLESTYLE
350
7874
  3
ACAD_VISUALSTYLE
350
AB22
  3
AcadDim
350
A748
  3
ACDB_RECOMPOSE_DATA
350
B725
  3
ACDBVARIABLEDICTIONARY
350
45D
  3
AcmDictionary
350
ABA8
  3
AMG
350
AB5B
  3
AMGSNAPSETTINGS
350
AC85
  0
DICTIONARY
  5
B0B2
330
8
100
AcDbDictionary
280
     1
281
     1
  0
DICTIONARY
  5
7BFE
330
2
100
AcDbDictionary
280
     1
281
     1
  3
ACAD_LAYERFILTERS
360
7C00
  3
ACAD_LAYERSTATES
360
ADB0
  3
ACLYDICTIONARY
360
7BFF
  0
DICTIONARY
  5
B09B
330
E
100
AcDbDictionary
280
     1
281
     1
  3
ADSK_XREC_LAYER_RECONCILED
360
B09C
  0
DICTIONARY
  5
B09D
330
B9
100
AcDbDictionary
280
     1
281
     1
  3
ADSK_XREC_LAYER_RECONCILED
360
B09E
  0
DICTIONARY
  5
B09F
330
5F8B
100
AcDbDictionary
280
     1
281
     1
  3
ADSK_XREC_LAYER_RECONCILED
360
B0A0
  0
DICTIONARY
  5
B0A1
330
644E
100
AcDbDictionary
280
     1
281
     1
  3
ADSK_XREC_LAYER_RECONCILED
360
B0A2
  0
DICTIONARY
  5
B0A3
330
650D
100
AcDbDictionary
280
     1
281
     1
  3
ADSK_XREC_LAYER_RECONCILED
360
B0A4
  0
DICTIONARY
  5
B0A5
330
650E
100
AcDbDictionary
280
     1
281
     1
  3
ADSK_XREC_LAYER_RECONCILED
360
B0A6
  0
DICTIONARY
  5
B0A7
330
650F
100
AcDbDictionary
280
     1
281
     1
  3
ADSK_XREC_LAYER_RECONCILED
360
B0A8
  0
DICTIONARY
  5
B0A9
330
6510
100
AcDbDictionary
280
     1
281
     1
  3
ADSK_XREC_LAYER_RECONCILED
360
B0AA
  0
DICTIONARY
  5
45F
330
18
100
AcDbDictionary
280
     1
281
     1
  3
ACAD_LAYOUTSELFREF
360
5D8B
  3
ACAD_SORTENTS
360
460
  0
DICTIONARY
  5
5D89
330
15
100
AcDbDictionary
280
     1
281
     1
  3
ACAD_LAYOUTSELFREF
360
5D8A
  0
DICTIONARY
  5
7C0B
330
7C0A
100
AcDbDictionary
280
     1
281
     1
  0
DICTIONARY
  5
8E73
330
8E72
100
AcDbDictionary
280
     1
281
     1
  0
DICTIONARY
  5
9B2A
330
9B29
100
AcDbDictionary
280
     1
281
     1
  0
DICTIONARY
  5
AE21
330
AE20
100
AcDbDictionary
280
     1
281
     1
  0
DICTIONARY
  5
B723
330
B366
100
AcDbDictionary
280
     1
281
     1
  3
ACAD_MTEXT_2008_RT
360
B724
  0
DICTIONARY
  5
7873
102
{ACAD_REACTORS
330
C
102
}
330
C
100
AcDbDictionary
281
     1
  0
DICTIONARY
  5
D
102
{ACAD_REACTORS
330
C
102
}
330
C
100
AcDbDictionary
281
     1
  0
DICTIONARY
  5
5CF3
102
{ACAD_REACTORS
330
C
102
}
330
C
100
AcDbDictionary
281
     1
  3
Model
350
5CF5
  3
配置1
350
5CF6
1001
ACADSTRINGINFO
1000
MIFCodePage
1070
     1
  0
DICTIONARY
  5
7872
102
{ACAD_REACTORS
330
C
102
}
330
C
100
AcDbDictionary
281
     1
  3
ByBlock
350
AB12
  3
ByLayer
350
AB0A
  3
Global
350
AB1A
  0
DICTIONARY
  5
AB4D
102
{ACAD_REACTORS
330
C
102
}
330
C
100
AcDbDictionary
281
     1
  3
Standard
350
AB4E
  0
DICTIONARY
  5
1B
102
{ACAD_REACTORS
330
C
102
}
330
C
100
AcDbDictionary
281
     1
  3
STANDARD
350
1C
  0
DICTIONARY
  5
5CF4
102
{ACAD_REACTORS
330
C
102
}
330
C
100
AcDbDictionary
281
     1
  0
ACDBDICTIONARYWDFLT
  5
5CF1
102
{ACAD_REACTORS
330
C
102
}
330
C
100
AcDbDictionary
281
     1
  3
Normal
350
5CF2
  3
黑
350
AE2F
100
AcDbDictionaryWithDefault
340
5CF2
  0
DICTIONARY
  5
AB3B
102
{ACAD_REACTORS
330
C
102
}
330
C
100
AcDbDictionary
281
     1
  3
A0
350
AB3C
  3
A1
350
AB3D
  3
A2
350
AB3E
  3
A3
350
AB3F
  3
A4
350
AB40
  3
A5
350
AB41
  3
A6
350
AB42
  3
A7
350
AB43
  3
A8
350
AB44
  3
A9
350
AB45
  3
B0
350
AB46
  3
B1
350
AB47
  3
B2
350
AB48
  3
B3
350
AB49
  3
B4
350
AB4A
  3
B5
350
AB4B
  3
B6
350
AB4C
  0
DICTIONARY
  5
7874
102
{ACAD_REACTORS
330
C
102
}
330
C
100
AcDbDictionary
281
     1
  3
Standard
350
7875
  0
DICTIONARY
  5
AB22
102
{ACAD_REACTORS
330
C
102
}
330
C
100
AcDbDictionary
281
     1
  3
2dWireframe
350
AB28
  3
Basic
350
AB27
  3
Brighten
350
AB2E
  3
ColorChange
350
AB32
  3
Conceptual
350
AB2B
  3
Dim
350
AB2D
  3
EdgeColorOff
350
AB3A
  3
Facepattern
350
AB31
  3
Flat
350
AB23
  3
FlatWithEdges
350
AB24
  3
Gouraud
350
AB25
  3
GouraudWithEdges
350
AB26
  3
Hidden
350
AB2A
  3
JitterOff
350
AB38
  3
Linepattern
350
AB30
  3
OverhangOff
350
AB39
  3
Realistic
350
AB2C
  3
Shaded
350
AB37
  3
Shaded with edges
350
AB36
  3
Shades of Gray
350
AB33
  3
Sketchy
350
AB34
  3
Thicken
350
AB2F
  3
Wireframe
350
AB29
  3
X-Ray
350
AB35
  0
XRECORD
  5
A748
102
{ACAD_REACTORS
330
C
102
}
330
C
100
AcDbXrecord
280
     1
 90
   990106
  3

 60
     0
 61
     0
 62
     1
 63
     3
 64
     0
 65
     0
 66
     0
 67
     3
 68
     1
 69
     0
 70
     0
 71
     0
 72
     0
 40
0.0
170
     0
  0
XRECORD
  5
B725
102
{ACAD_REACTORS
330
C
102
}
330
C
100
AcDbXrecord
280
     1
 90
        1
330
7875
330
B366
  0
DICTIONARY
  5
45D
102
{ACAD_REACTORS
330
C
102
}
330
C
100
AcDbDictionary
281
     1
  3
CANNOSCALE
350
B130
  3
CMLEADERSTYLE
350
B12F
  3
CTABLESTYLE
350
7880
  3
DIMASSOC
350
B133
  3
INDEXCTL
350
B131
  3
LAYEREVAL
350
B720
  3
LAYERNOTIFY
350
B721
  3
LIGHTINGUNITS
350
B71F
  3
MSLTSCALE
350
B71E
  3
SORTENTS
350
45E
  0
DICTIONARY
  5
ABA8
102
{ACAD_REACTORS
330
C
102
}
330
C
100
AcDbDictionary
281
     1
  3
AcmStdDictionary
350
ABB3
  0
DICTIONARY
  5
AB5B
102
{ACAD_REACTORS
330
C
102
}
330
C
100
AcDbDictionary
281
     1
  0
DICTIONARY
  5
AC85
102
{ACAD_REACTORS
330
C
102
}
330
C
100
AcDbDictionary
281
     1
  0
DICTIONARY
  5
7C00
102
{ACAD_REACTORS
330
7BFE
102
}
330
7BFE
100
AcDbDictionary
281
     1
  0
DICTIONARY
  5
ADB0
102
{ACAD_REACTORS
330
7BFE
102
}
330
7BFE
100
AcDbDictionary
281
     1
  0
DICTIONARY
  5
7BFF
102
{ACAD_REACTORS
330
7BFE
102
}
330
7BFE
100
AcDbDictionary
281
     1
1001
ACAD
1000
<All
  0
XRECORD
  5
B09C
102
{ACAD_REACTORS
330
B09B
102
}
330
B09B
100
AcDbXrecord
280
     1
290
     1
  0
XRECORD
  5
B09E
102
{ACAD_REACTORS
330
B09D
102
}
330
B09D
100
AcDbXrecord
280
     1
290
     1
  0
XRECORD
  5
B0A0
102
{ACAD_REACTORS
330
B09F
102
}
330
B09F
100
AcDbXrecord
280
     1
290
     1
  0
XRECORD
  5
B0A2
102
{ACAD_REACTORS
330
B0A1
102
}
330
B0A1
100
AcDbXrecord
280
     1
290
     1
  0
XRECORD
  5
B0A4
102
{ACAD_REACTORS
330
B0A3
102
}
330
B0A3
100
AcDbXrecord
280
     1
290
     1
  0
XRECORD
  5
B0A6
102
{ACAD_REACTORS
330
B0A5
102
}
330
B0A5
100
AcDbXrecord
280
     1
290
     1
  0
XRECORD
  5
B0A8
102
{ACAD_REACTORS
330
B0A7
102
}
330
B0A7
100
AcDbXrecord
280
     1
290
     1
  0
XRECORD
  5
B0AA
102
{ACAD_REACTORS
330
B0A9
102
}
330
B0A9
100
AcDbXrecord
280
     1
290
     1
  0
XRECORD
  5
5D8B
102
{ACAD_REACTORS
330
45F
102
}
330
45F
100
AcDbXrecord
280
     1
340
18
  0
SORTENTSTABLE
  5
460
102
{ACAD_REACTORS
330
45F
102
}
330
45F
100
AcDbSortentsTable
330
18
331
7D76
  5
7D76
331
ACCF
  5
AEB1
331
7DB1
  5
7DB4
331
ACCB
  5
AEAD
331
7DAD
  5
7DAF
331
7D72
  5
7D72
331
ACC7
  5
ACDE
331
7DA9
  5
7DAC
331
ACC3
  5
ACCE
331
B366
  5
B3BD
331
B327
  5
B372
331
AFBD
  5
AFCD
331
AFB5
  5
AFC3
331
7D6E
  5
7D6E
331
7DA5
  5
7DA8
331
ACBF
  5
ACCA
331
ACBB
  5
ACC6
331
ACB7
  5
ACC2
331
7D99
  5
7D99
331
ACB3
  5
ACC0
331
7D95
  5
7D95
331
ACAF
  5
ACBF
331
7D91
  5
7D91
331
ACAB
  5
ACBB
331
7D8D
  5
7D8D
331
ACA7
  5
ACB7
331
7D89
  5
7D89
331
ACA3
  5
ACAE
331
B342
  5
B3BC
331
AFD0
  5
B327
331
B3B3
  5
AC9F
331
7D85
  5
7D85
331
ACDE
  5
AEB4
331
AC9F
  5
ACA8
331
7D81
  5
7D81
331
7DBC
  5
A13E
331
AC9B
  5
ACA3
331
7D7D
  5
7D7D
331
7DB8
  5
7DBB
331
7D79
  5
7D79
331
A4FF
  5
A51E
331
AC97
  5
AC97
331
A4FB
  5
A4FF
331
AFCC
  5
B1AD
331
AFC8
  5
AFD5
331
AFC4
  5
AFC5
331
AFC0
  5
AFD0
331
C0
  5
CB
331
7DB4
  5
7DB6
331
7D75
  5
7D75
331
ACCE
  5
AEB0
331
7DB0
  5
7DB2
331
ACCA
  5
AEAC
331
7DAC
  5
7DAE
331
7D71
  5
7D71
331
ACC6
  5
ACD1
331
7DA8
  5
7DAA
331
ACC2
  5
ACCD
331
B326
  5
B371
331
AFB8
  5
AFCA
331
7D6D
  5
7D6D
331
7DA4
  5
7DA6
331
ACBE
  5
ACC9
331
7DA0
  5
7DA3
331
ACBA
  5
ACC5
331
7D9C
  5
7D9E
331
7D98
  5
7D98
331
7D94
  5
7D94
331
ACAE
  5
ACBE
331
7D90
  5
7D90
331
ACAA
  5
ACBA
331
7D8C
  5
7D8C
331
ACA6
  5
ACB4
331
A526
  5
A57E
331
7D88
  5
7D88
331
ACA2
  5
ACAD
331
AFD7
  5
B36C
331
AFD3
  5
B368
331
7D84
  5
7D84
331
AC9E
  5
ACA7
331
7D80
  5
7D80
331
7DBB
  5
7DBD
331
AC9A
  5
ACA2
331
7D7C
  5
7D7C
331
AC96
  5
AC96
331
7D78
  5
7D78
331
ACD1
  5
AEB3
331
AFCF
  5
B326
331
AFCB
  5
AFE1
331
AFC3
  5
AFD3
331
7DB7
  5
7DBA
331
ACCD
  5
AEAF
331
7DAF
  5
7DB1
331
7D74
  5
7D74
331
ACC9
  5
ACE7
331
7D70
  5
7D70
331
ACC5
  5
ACD0
331
ACC1
  5
ACCC
331
AFBF
  5
AFCF
331
AFBB
  5
AFCC
331
AFB7
  5
AFC9
331
B1BA
  5
B36F
331
7D6C
  5
7D6C
331
7DA3
  5
7DA5
331
ACBD
  5
ACC8
331
ACB9
  5
ACC4
331
7D9B
  5
7D9C
331
7D97
  5
7D97
331
7D93
  5
7D93
331
ACAD
  5
ACBD
331
7D8F
  5
7D8F
331
ACA9
  5
ACB9
331
7D8B
  5
7D8B
331
ACA5
  5
ACB3
331
A525
  5
A529
331
ACA1
  5
ACAA
331
AFD6
  5
B369
331
AFD2
  5
B366
331
7D87
  5
7D87
331
7D83
  5
7D83
331
7D7F
  5
7D7F
331
7DBA
  5
7DBC
331
AC99
  5
ACA1
331
7D7B
  5
7D7B
331
A4FD
  5
A51D
331
ACD0
  5
AEB2
331
B2C6
  5
B370
331
AFCE
  5
B2C6
331
AFCA
  5
AFD7
331
AFC2
  5
AFD2
331
7DB6
  5
7DB8
331
7D77
  5
7D77
331
7DB2
  5
7DB5
331
ACCC
  5
AEAE
331
7DAE
  5
7DB0
331
7D73
  5
7D73
331
ACC8
  5
ACDF
331
7DAA
  5
7DAD
331
ACC4
  5
ACCF
331
ACC0
  5
ACCB
331
AFBE
  5
AFCE
331
AFBA
  5
AFCB
331
AFB6
  5
AFC8
331
7D6F
  5
7D6F
331
7DA6
  5
7DA9
331
7DA2
  5
7DA4
331
ACBC
  5
ACC7
331
7D9E
  5
7DA2
331
ACB8
  5
ACC3
331
7D9A
  5
7D9B
331
ACB4
  5
ACC1
331
B1AD
  5
B36E
331
AFE1
  5
B36D
331
7D96
  5
7D96
331
7D92
  5
7D92
331
ACAC
  5
ACBC
331
7D8E
  5
7D8E
331
ACE7
  5
AEB6
331
ACA8
  5
ACB8
331
7D8A
  5
7D8A
331
ACA4
  5
ACAF
331
AFD1
  5
B342
331
7D86
  5
7D86
331
ACDF
  5
AEB5
331
7D82
  5
7D82
331
7DBD
  5
A13F
331
AC9C
  5
ACA6
331
7D7E
  5
7D7E
331
7D7A
  5
7D7A
331
A4FC
  5
A501
331
A4F8
  5
A4FD
331
A410
  5
A4FC
331
AFCD
  5
B1BA
331
AFC9
  5
AFD6
331
AFC5
  5
AFC4
331
AFC1
  5
AFD1
  0
XRECORD
  5
5D8A
102
{ACAD_REACTORS
330
5D89
102
}
330
5D89
100
AcDbXrecord
280
     1
340
15
  0
XRECORD
  5
B724
102
{ACAD_REACTORS
330
B723
102
}
330
B723
100
AcDbXrecord
280
     1
 40
2701418.0
  1
\A1;\pxqc;3{\H0.56x;\S+0.15^ -0;}(3{\Ftxt,bigfont|c128;等分})
  0
LAYOUT
  5
5CF5
102
{ACAD_REACTORS
330
5CF3
102
}
330
5CF3
100
AcDbPlotSettings
  1

  2
DWG To PDF.pc3
  4
ISO_full_bleed_A4_(210.00_x_297.00_MM)
  6

 40
0.7937499880790711
 41
0.7937499880790711
 42
0.7937469482421875
 43
0.79376220703125
 44
210.0
 45
297.0
 46
9.20625153183937
 47
7.706243902444839
 48
0.0
 49
0.0
140
95.0
141
140.0
142
1.0
143
0.5
 70
 11956
 72
     1
 73
     0
 74
     4
  7
LIN.ctb
 75
    27
147
2.0
 76
     0
 77
     4
 78
   300
148
0.0
149
0.0
100
AcDbLayout
  1
Model
 70
     1
 71
     0
 10
0.0
 20
0.0
 11
12.0
 21
9.0
 12
0.0
 22
0.0
 32
0.0
 14
0.0
 24
0.0
 34
0.0
 15
0.0
 25
0.0
 35
0.0
146
0.0
 13
0.0
 23
0.0
 33
0.0
 16
1.0
 26
0.0
 36
0.0
 17
0.0
 27
1.0
 37
0.0
 76
     0
330
18
331
AB08
1001
ACAD_PSEXT
1000
DWG To PDF.pc3
1000
DWG To PDF
1000
檔案
1000

1070
     0
  0
LAYOUT
  5
5CF6
102
{ACAD_REACTORS
330
5CF3
102
}
330
5CF3
100
AcDbPlotSettings
  1

  2
EPSON STYLUS COLOR 440
  4

  6

 40
0.0
 41
0.0
 42
0.0
 43
0.0
 44
0.0
 45
0.0
 46
0.0
 47
0.0
 48
0.0
 49
0.0
140
0.0
141
0.0
142
1.0
143
1.0
 70
   688
 72
     0
 73
     0
 74
     5
  7
LIN.ctb
 75
    16
147
1.0
 76
     0
 77
     2
 78
   300
148
0.0
149
0.0
100
AcDbLayout
  1
ｰtｸm1
 70
     1
 71
     1
 10
0.0
 20
0.0
 11
420.0
 21
297.0
 12
0.0
 22
0.0
 32
0.0
 14
1.000000000000000E+20
 24
1.000000000000000E+20
 34
1.000000000000000E+20
 15
-1.000000000000000E+20
 25
-1.000000000000000E+20
 35
-1.000000000000000E+20
146
0.0
 13
0.0
 23
0.0
 33
0.0
 16
1.0
 26
0.0
 36
0.0
 17
0.0
 27
1.0
 37
0.0
 76
     0
330
15
1001
ACADSTRINGINFO
1000
MIFCodePage
1070
     1
  0
MATERIAL
  5
AB12
102
{ACAD_XDICTIONARY
360
AB13
102
}
102
{ACAD_REACTORS
330
7872
102
}
330
7872
100
AcDbMaterial
  1
ByBlock
 72
     0
 43
0.0208333333333333
 43
0.0
 43
0.0
 43
0.0
 43
0.0
 43
0.0208333333333333
 43
0.0
 43
0.0
 43
0.0
 43
0.0
 43
1.0
 43
0.0
 43
0.0
 43
0.0
 43
0.0
 43
1.0
 77
     0
 47
0.0208333333333333
 47
0.0
 47
0.0
 47
0.0
 47
0.0
 47
0.0208333333333333
 47
0.0
 47
0.0
 47
0.0
 47
0.0
 47
1.0
 47
0.0
 47
0.0
 47
0.0
 47
0.0
 47
1.0
171
     0
 49
0.0208333333333333
 49
0.0
 49
0.0
 49
0.0
 49
0.0
 49
0.0208333333333333
 49
0.0
 49
0.0
 49
0.0
 49
0.0
 49
1.0
 49
0.0
 49
0.0
 49
0.0
 49
0.0
 49
1.0
175
     0
142
0.0208333333333333
142
0.0
142
0.0
142
0.0
142
0.0
142
0.0208333333333333
142
0.0
142
0.0
142
0.0
142
0.0
142
1.0
142
0.0
142
0.0
142
0.0
142
0.0
142
1.0
179
     0
144
0.0208333333333333
144
0.0
144
0.0
144
0.0
144
0.0
144
0.0208333333333333
144
0.0
144
0.0
144
0.0
144
0.0
144
1.0
144
0.0
144
0.0
144
0.0
144
0.0
144
1.0
147
0.0208333333333333
147
0.0
147
0.0
147
0.0
147
0.0
147
0.0208333333333333
147
0.0
147
0.0
147
0.0
147
0.0
147
1.0
147
0.0
147
0.0
147
0.0
147
0.0
147
1.0
  0
MATERIAL
  5
AB0A
102
{ACAD_XDICTIONARY
360
AB0B
102
}
102
{ACAD_REACTORS
330
7872
102
}
330
7872
100
AcDbMaterial
  1
ByLayer
 72
     0
 43
0.0208333333333333
 43
0.0
 43
0.0
 43
0.0
 43
0.0
 43
0.0208333333333333
 43
0.0
 43
0.0
 43
0.0
 43
0.0
 43
1.0
 43
0.0
 43
0.0
 43
0.0
 43
0.0
 43
1.0
 77
     0
 47
0.0208333333333333
 47
0.0
 47
0.0
 47
0.0
 47
0.0
 47
0.0208333333333333
 47
0.0
 47
0.0
 47
0.0
 47
0.0
 47
1.0
 47
0.0
 47
0.0
 47
0.0
 47
0.0
 47
1.0
171
     0
 49
0.0208333333333333
 49
0.0
 49
0.0
 49
0.0
 49
0.0
 49
0.0208333333333333
 49
0.0
 49
0.0
 49
0.0
 49
0.0
 49
1.0
 49
0.0
 49
0.0
 49
0.0
 49
0.0
 49
1.0
175
     0
142
0.0208333333333333
142
0.0
142
0.0
142
0.0
142
0.0
142
0.0208333333333333
142
0.0
142
0.0
142
0.0
142
0.0
142
1.0
142
0.0
142
0.0
142
0.0
142
0.0
142
1.0
179
     0
144
0.0208333333333333
144
0.0
144
0.0
144
0.0
144
0.0
144
0.0208333333333333
144
0.0
144
0.0
144
0.0
144
0.0
144
1.0
144
0.0
144
0.0
144
0.0
144
0.0
144
1.0
147
0.0208333333333333
147
0.0
147
0.0
147
0.0
147
0.0
147
0.0208333333333333
147
0.0
147
0.0
147
0.0
147
0.0
147
1.0
147
0.0
147
0.0
147
0.0
147
0.0
147
1.0
  0
MATERIAL
  5
AB1A
102
{ACAD_XDICTIONARY
360
AB1B
102
}
102
{ACAD_REACTORS
330
7872
102
}
330
7872
100
AcDbMaterial
  1
Global
 72
     0
 43
0.0208333333333333
 43
0.0
 43
0.0
 43
0.0
 43
0.0
 43
0.0208333333333333
 43
0.0
 43
0.0
 43
0.0
 43
0.0
 43
1.0
 43
0.0
 43
0.0
 43
0.0
 43
0.0
 43
1.0
 77
     0
 47
0.0208333333333333
 47
0.0
 47
0.0
 47
0.0
 47
0.0
 47
0.0208333333333333
 47
0.0
 47
0.0
 47
0.0
 47
0.0
 47
1.0
 47
0.0
 47
0.0
 47
0.0
 47
0.0
 47
1.0
171
     0
 49
0.0208333333333333
 49
0.0
 49
0.0
 49
0.0
 49
0.0
 49
0.0208333333333333
 49
0.0
 49
0.0
 49
0.0
 49
0.0
 49
1.0
 49
0.0
 49
0.0
 49
0.0
 49
0.0
 49
1.0
175
     0
142
0.0208333333333333
142
0.0
142
0.0
142
0.0
142
0.0
142
0.0208333333333333
142
0.0
142
0.0
142
0.0
142
0.0
142
1.0
142
0.0
142
0.0
142
0.0
142
0.0
142
1.0
179
     0
144
0.0208333333333333
144
0.0
144
0.0
144
0.0
144
0.0
144
0.0208333333333333
144
0.0
144
0.0
144
0.0
144
0.0
144
1.0
144
0.0
144
0.0
144
0.0
144
0.0
144
1.0
147
0.0208333333333333
147
0.0
147
0.0
147
0.0
147
0.0
147
0.0208333333333333
147
0.0
147
0.0
147
0.0
147
0.0
147
1.0
147
0.0
147
0.0
147
0.0
147
0.0
147
1.0
  0
MLEADERSTYLE
  5
AB4E
102
{ACAD_REACTORS
330
AB4D
102
}
330
AB4D
100
AcDbMLeaderStyle
179
     2
170
     2
171
     1
172
     0
 90
        2
 40
0.0
 41
0.0
173
     1
 91
-1056964608
340
12
 92
       -2
290
     1
 42
2.0
291
     1
 43
0.36
  3
Standard
 44
4.0
300

342
F
174
     1
178
     6
175
     1
176
     0
 93
-1056964608
 45
4.0
292
     0
297
     0
 46
4.0
 94
-1056964608
 47
1.0
 49
1.0
140
1.0
293
     1
141
0.0
294
     1
177
     0
142
1.0
295
     0
296
     0
143
0.125
271
     0
272
     9
273
     9
  0
MLINESTYLE
  5
1C
102
{ACAD_REACTORS
330
1B
102
}
330
1B
100
AcDbMlineStyle
  2
STANDARD
 70
     0
  3

 62
   256
 51
90.0
 52
90.0
 71
     2
 49
0.5
 62
   256
  6
BYLAYER
 49
-0.5
 62
   256
  6
BYLAYER
  0
ACDBPLACEHOLDER
  5
5CF2
102
{ACAD_REACTORS
330
5CF1
102
}
330
5CF1
  0
ACDBPLACEHOLDER
  5
AE2F
102
{ACAD_REACTORS
330
5CF1
102
}
330
5CF1
  0
SCALE
  5
AB3C
102
{ACAD_REACTORS
330
AB3B
102
}
330
AB3B
100
AcDbScale
 70
     0
300
1:1
140
1.0
141
1.0
290
     1
  0
SCALE
  5
AB3D
102
{ACAD_REACTORS
330
AB3B
102
}
330
AB3B
100
AcDbScale
 70
     0
300
1:2
140
1.0
141
2.0
290
     0
  0
SCALE
  5
AB3E
102
{ACAD_REACTORS
330
AB3B
102
}
330
AB3B
100
AcDbScale
 70
     0
300
1:4
140
1.0
141
4.0
290
     0
  0
SCALE
  5
AB3F
102
{ACAD_REACTORS
330
AB3B
102
}
330
AB3B
100
AcDbScale
 70
     0
300
1:5
140
1.0
141
5.0
290
     0
  0
SCALE
  5
AB40
102
{ACAD_REACTORS
330
AB3B
102
}
330
AB3B
100
AcDbScale
 70
     0
300
1:8
140
1.0
141
8.0
290
     0
  0
SCALE
  5
AB41
102
{ACAD_REACTORS
330
AB3B
102
}
330
AB3B
100
AcDbScale
 70
     0
300
1:10
140
1.0
141
10.0
290
     0
  0
SCALE
  5
AB42
102
{ACAD_REACTORS
330
AB3B
102
}
330
AB3B
100
AcDbScale
 70
     0
300
1:16
140
1.0
141
16.0
290
     0
  0
SCALE
  5
AB43
102
{ACAD_REACTORS
330
AB3B
102
}
330
AB3B
100
AcDbScale
 70
     0
300
1:20
140
1.0
141
20.0
290
     0
  0
SCALE
  5
AB44
102
{ACAD_REACTORS
330
AB3B
102
}
330
AB3B
100
AcDbScale
 70
     0
300
1:30
140
1.0
141
30.0
290
     0
  0
SCALE
  5
AB45
102
{ACAD_REACTORS
330
AB3B
102
}
330
AB3B
100
AcDbScale
 70
     0
300
1:40
140
1.0
141
40.0
290
     0
  0
SCALE
  5
AB46
102
{ACAD_REACTORS
330
AB3B
102
}
330
AB3B
100
AcDbScale
 70
     0
300
1:50
140
1.0
141
50.0
290
     0
  0
SCALE
  5
AB47
102
{ACAD_REACTORS
330
AB3B
102
}
330
AB3B
100
AcDbScale
 70
     0
300
1:100
140
1.0
141
100.0
290
     0
  0
SCALE
  5
AB48
102
{ACAD_REACTORS
330
AB3B
102
}
330
AB3B
100
AcDbScale
 70
     0
300
2:1
140
2.0
141
1.0
290
     0
  0
SCALE
  5
AB49
102
{ACAD_REACTORS
330
AB3B
102
}
330
AB3B
100
AcDbScale
 70
     0
300
4:1
140
4.0
141
1.0
290
     0
  0
SCALE
  5
AB4A
102
{ACAD_REACTORS
330
AB3B
102
}
330
AB3B
100
AcDbScale
 70
     0
300
8:1
140
8.0
141
1.0
290
     0
  0
SCALE
  5
AB4B
102
{ACAD_REACTORS
330
AB3B
102
}
330
AB3B
100
AcDbScale
 70
     0
300
10:1
140
10.0
141
1.0
290
     0
  0
SCALE
  5
AB4C
102
{ACAD_REACTORS
330
AB3B
102
}
330
AB3B
100
AcDbScale
 70
     0
300
100:1
140
100.0
141
1.0
290
     0
  0
TABLESTYLE
  5
7875
102
{ACAD_XDICTIONARY
360
B0AB
102
}
102
{ACAD_REACTORS
330
7874
102
}
330
7874
100
AcDbTableStyle
280
     0
  3
Standard
 70
     0
 71
     0
 40
1.5
 41
1.5
280
     0
281
     0
  7
STANDARD
140
4.5
170
     2
 62
     0
 63
     7
283
     0
 90
        4
 91
        0
  1

274
    -2
284
     1
 64
     0
275
    -2
285
     1
 65
     0
276
    -2
286
     1
 66
     0
277
    -2
287
     1
 67
     0
278
    -2
288
     1
 68
     0
279
    -2
289
     1
 69
     0
  7
STANDARD
140
6.0
170
     5
 62
     0
 63
     7
283
     0
 90
        4
 91
        0
  1

274
    -2
284
     1
 64
     0
275
    -2
285
     1
 65
     0
276
    -2
286
     1
 66
     0
277
    -2
287
     1
 67
     0
278
    -2
288
     1
 68
     0
279
    -2
289
     1
 69
     0
  7
STANDARD
140
4.5
170
     5
 62
     0
 63
     7
283
     0
 90
        4
 91
        0
  1

274
    -2
284
     1
 64
     0
275
    -2
285
     1
 65
     0
276
    -2
286
     1
 66
     0
277
    -2
287
     1
 67
     0
278
    -2
288
     1
 68
     0
279
    -2
289
     1
 69
     0
  0
VISUALSTYLE
  5
AB28
102
{ACAD_REACTORS
330
AB22
102
}
330
AB22
100
AcDbVisualStyle
  2
2dWireframe
 70
     4
177
     2
291
     0
 71
     0
176
     1
 72
     2
176
     1
 73
     0
176
     1
 90
        0
176
     1
 40
0.6
176
     1
 41
30.0
176
     1
 63
     7
176
     1
 74
     1
176
     1
 91
        4
176
     1
 64
     7
176
     1
 65
   257
176
     1
 75
     1
176
     1
175
     1
176
     1
 42
1.0
176
     1
 92
        0
176
     1
 66
   257
176
     1
 43
1.0
176
     1
 76
     1
176
     1
 77
     6
176
     1
 78
     2
176
     1
 67
     7
176
     1
 79
     5
176
     1
170
     0
176
     1
171
     0
176
     1
290
     0
176
     1
 93
        1
176
     1
 44
0.0
176
     1
173
     0
176
     1
  0
VISUALSTYLE
  5
AB27
102
{ACAD_REACTORS
330
AB22
102
}
330
AB22
100
AcDbVisualStyle
  2
Basic
 70
     7
177
     2
291
     1
 71
     1
176
     1
 72
     0
176
     1
 73
     1
176
     1
 90
        0
176
     1
 40
0.6
176
     1
 41
30.0
176
     1
 63
     7
176
     1
 74
     0
176
     1
 91
        4
176
     1
 64
     7
176
     1
 65
   257
176
     1
 75
     1
176
     1
175
     1
176
     1
 42
1.0
176
     1
 92
        8
176
     1
 66
     7
176
     1
 43
1.0
176
     1
 76
     1
176
     1
 77
     6
176
     1
 78
     2
176
     1
 67
     7
176
     1
 79
     5
176
     1
170
     0
176
     1
171
     0
176
     1
290
     0
176
     1
 93
        1
176
     1
 44
0.0
176
     1
173
     0
176
     1
  0
VISUALSTYLE
  5
AB2E
102
{ACAD_REACTORS
330
AB22
102
}
330
AB22
100
AcDbVisualStyle
  2
Brighten
 70
    12
177
     2
291
     1
 71
     2
176
     1
 72
     2
176
     1
 73
     0
176
     1
 90
        0
176
     1
 40
0.6
176
     1
 41
30.0
176
     1
 63
     7
176
     1
 74
     1
176
     1
 91
        4
176
     1
 64
     7
176
     1
 65
   257
176
     1
 75
     1
176
     1
175
     1
176
     1
 42
1.0
176
     1
 92
        8
176
     1
 66
     7
176
     1
 43
1.0
176
     1
 76
     1
176
     1
 77
     6
176
     1
 78
     2
176
     1
 67
     7
176
     1
 79
     5
176
     1
170
     0
176
     1
171
     0
176
     1
290
     0
176
     1
 93
        1
176
     1
 44
50.0
176
     1
173
     0
176
     1
  0
VISUALSTYLE
  5
AB32
102
{ACAD_REACTORS
330
AB22
102
}
330
AB22
100
AcDbVisualStyle
  2
ColorChange
 70
    16
177
     2
291
     1
 71
     2
176
     1
 72
     2
176
     1
 73
     3
176
     1
 90
        0
176
     1
 40
0.6
176
     1
 41
30.0
176
     1
 63
     8
176
     1
 74
     1
176
     1
 91
        4
176
     1
 64
     7
176
     1
 65
   257
176
     1
 75
     1
176
     1
175
     1
176
     1
 42
1.0
176
     1
 92
        8
176
     1
 66
     8
176
     1
 43
1.0
176
     1
 76
     1
176
     1
 77
     6
176
     1
 78
     2
176
     1
 67
     7
176
     1
 79
     5
176
     1
170
     0
176
     1
171
     0
176
     1
290
     0
176
     1
 93
        1
176
     1
 44
0.0
176
     1
173
     0
176
     1
  0
VISUALSTYLE
  5
AB2B
102
{ACAD_REACTORS
330
AB22
102
}
330
AB22
100
AcDbVisualStyle
  2
Conceptual
 70
     9
177
     2
291
     0
 71
     3
176
     1
 72
     2
176
     1
 73
     0
176
     1
 90
        0
176
     1
 40
0.6
176
     1
 41
30.0
176
     1
 63
     7
176
     1
 74
     2
176
     1
 91
        2
176
     1
 64
     7
176
     1
 65
   257
176
     1
 75
     1
176
     1
175
     1
176
     1
 42
179.0
176
     1
 92
        8
176
     1
 66
     7
176
     1
 43
1.0
176
     1
 76
     1
176
     1
 77
     6
176
     1
 78
     2
176
     1
 67
     7
176
     1
 79
     3
176
     1
170
     0
176
     1
171
     0
176
     1
290
     0
176
     1
 93
        1
176
     1
 44
0.0
176
     1
173
     0
176
     1
  0
VISUALSTYLE
  5
AB2D
102
{ACAD_REACTORS
330
AB22
102
}
330
AB22
100
AcDbVisualStyle
  2
Dim
 70
    11
177
     2
291
     1
 71
     2
176
     1
 72
     2
176
     1
 73
     0
176
     1
 90
        0
176
     1
 40
0.6
176
     1
 41
30.0
176
     1
 63
     7
176
     1
 74
     1
176
     1
 91
        4
176
     1
 64
     7
176
     1
 65
   257
176
     1
 75
     1
176
     1
175
     1
176
     1
 42
1.0
176
     1
 92
        8
176
     1
 66
     7
176
     1
 43
1.0
176
     1
 76
     1
176
     1
 77
     6
176
     1
 78
     2
176
     1
 67
     7
176
     1
 79
     5
176
     1
170
     0
176
     1
171
     0
176
     1
290
     0
176
     1
 93
        1
176
     1
 44
-50.0
176
     1
173
     0
176
     1
  0
VISUALSTYLE
  5
AB3A
102
{ACAD_REACTORS
330
AB22
102
}
330
AB22
100
AcDbVisualStyle
  2
EdgeColorOff
 70
    22
177
     2
291
     1
 71
     2
176
     0
 72
     2
176
     0
 73
     0
176
     0
 90
        0
176
     0
 40
0.6
176
     0
 41
30.0
176
     0
 63
     7
176
     0
 74
     1
176
     0
 91
        4
176
     0
 64
     7
176
     0
 65
   257
176
     0
 75
     1
176
     0
175
     1
176
     0
 42
1.0
176
     0
 92
        8
176
     2
 66
     7
176
     0
 43
1.0
176
     0
 76
     1
176
     0
 77
     6
176
     0
 78
     2
176
     0
 67
     7
176
     0
 79
     5
176
     0
170
     0
176
     0
171
     0
176
     0
290
     0
176
     0
 93
        1
176
     0
 44
0.0
176
     0
173
     0
176
     0
  0
VISUALSTYLE
  5
AB31
102
{ACAD_REACTORS
330
AB22
102
}
330
AB22
100
AcDbVisualStyle
  2
Facepattern
 70
    15
177
     2
291
     1
 71
     2
176
     1
 72
     2
176
     1
 73
     0
176
     1
 90
        0
176
     1
 40
0.6
176
     1
 41
30.0
176
     1
 63
     7
176
     1
 74
     1
176
     1
 91
        4
176
     1
 64
     7
176
     1
 65
   257
176
     1
 75
     1
176
     1
175
     1
176
     1
 42
1.0
176
     1
 92
        8
176
     1
 66
     7
176
     1
 43
1.0
176
     1
 76
     1
176
     1
 77
     6
176
     1
 78
     2
176
     1
 67
     7
176
     1
 79
     5
176
     1
170
     0
176
     1
171
     0
176
     1
290
     0
176
     1
 93
        1
176
     1
 44
0.0
176
     1
173
     0
176
     1
  0
VISUALSTYLE
  5
AB23
102
{ACAD_REACTORS
330
AB22
102
}
330
AB22
100
AcDbVisualStyle
  2
Flat
 70
     0
177
     2
291
     1
 71
     2
176
     1
 72
     1
176
     1
 73
     1
176
     1
 90
        2
176
     1
 40
0.6
176
     1
 41
30.0
176
     1
 63
     7
176
     1
 74
     0
176
     1
 91
        0
176
     1
 64
     7
176
     1
 65
   257
176
     1
 75
     1
176
     1
175
     1
176
     1
 42
1.0
176
     1
 92
        8
176
     1
 66
     7
176
     1
 43
1.0
176
     1
 76
     1
176
     1
 77
     6
176
     1
 78
     2
176
     1
 67
     7
176
     1
 79
     5
176
     1
170
     0
176
     1
171
     0
176
     1
290
     0
176
     1
 93
       13
176
     1
 44
0.0
176
     1
173
     0
176
     1
  0
VISUALSTYLE
  5
AB24
102
{ACAD_REACTORS
330
AB22
102
}
330
AB22
100
AcDbVisualStyle
  2
FlatWithEdges
 70
     1
177
     2
291
     1
 71
     2
176
     1
 72
     1
176
     1
 73
     1
176
     1
 90
        2
176
     1
 40
0.6
176
     1
 41
30.0
176
     1
 63
     7
176
     1
 74
     1
176
     1
 91
        0
176
     1
 64
     7
176
     1
 65
   257
176
     1
 75
     1
176
     1
175
     1
176
     1
 42
1.0
176
     1
 92
        0
176
     1
 66
   257
176
     1
 43
1.0
176
     1
 76
     1
176
     1
 77
     6
176
     1
 78
     2
176
     1
 67
     7
176
     1
 79
     5
176
     1
170
     0
176
     1
171
     0
176
     1
290
     0
176
     1
 93
       13
176
     1
 44
0.0
176
     1
173
     0
176
     1
  0
VISUALSTYLE
  5
AB25
102
{ACAD_REACTORS
330
AB22
102
}
330
AB22
100
AcDbVisualStyle
  2
Gouraud
 70
     2
177
     2
291
     1
 71
     2
176
     1
 72
     2
176
     1
 73
     1
176
     1
 90
        2
176
     1
 40
0.6
176
     1
 41
30.0
176
     1
 63
     7
176
     1
 74
     0
176
     1
 91
        0
176
     1
 64
     7
176
     1
 65
   257
176
     1
 75
     1
176
     1
175
     1
176
     1
 42
1.0
176
     1
 92
        0
176
     1
 66
     7
176
     1
 43
1.0
176
     1
 76
     1
176
     1
 77
     6
176
     1
 78
     2
176
     1
 67
     7
176
     1
 79
     5
176
     1
170
     0
176
     1
171
     0
176
     1
290
     0
176
     1
 93
       13
176
     1
 44
0.0
176
     1
173
     0
176
     1
  0
VISUALSTYLE
  5
AB26
102
{ACAD_REACTORS
330
AB22
102
}
330
AB22
100
AcDbVisualStyle
  2
GouraudWithEdges
 70
     3
177
     2
291
     1
 71
     2
176
     1
 72
     2
176
     1
 73
     1
176
     1
 90
        2
176
     1
 40
0.6
176
     1
 41
30.0
176
     1
 63
     7
176
     1
 74
     1
176
     1
 91
        0
176
     1
 64
     7
176
     1
 65
   257
176
     1
 75
     1
176
     1
175
     1
176
     1
 42
1.0
176
     1
 92
        0
176
     1
 66
   257
176
     1
 43
1.0
176
     1
 76
     1
176
     1
 77
     6
176
     1
 78
     2
176
     1
 67
     7
176
     1
 79
     5
176
     1
170
     0
176
     1
171
     0
176
     1
290
     0
176
     1
 93
       13
176
     1
 44
0.0
176
     1
173
     0
176
     1
  0
VISUALSTYLE
  5
AB2A
102
{ACAD_REACTORS
330
AB22
102
}
330
AB22
100
AcDbVisualStyle
  2
Hidden
 70
     6
177
     2
291
     0
 71
     1
176
     1
 72
     2
176
     1
 73
     2
176
     1
 90
        0
176
     1
 40
0.6
176
     1
 41
30.0
176
     1
 63
     7
176
     1
 74
     2
176
     1
 91
        2
176
     1
 64
     7
176
     1
 65
   257
176
     1
 75
     2
176
     1
175
     1
176
     1
 42
40.0
176
     1
 92
        0
176
     1
 66
   257
176
     1
 43
1.0
176
     1
 76
     1
176
     1
 77
     6
176
     1
 78
     2
176
     1
 67
     7
176
     1
 79
     3
176
     1
170
     0
176
     1
171
     0
176
     1
290
     0
176
     1
 93
        1
176
     1
 44
0.0
176
     1
173
     0
176
     1
  0
VISUALSTYLE
  5
AB38
102
{ACAD_REACTORS
330
AB22
102
}
330
AB22
100
AcDbVisualStyle
  2
JitterOff
 70
    20
177
     2
291
     1
 71
     2
176
     0
 72
     2
176
     0
 73
     0
176
     0
 90
        0
176
     0
 40
0.6
176
     0
 41
30.0
176
     0
 63
     7
176
     0
 74
     1
176
     0
 91
        4
176
     0
 64
     7
176
     0
 65
   257
176
     0
 75
     1
176
     0
175
     1
176
     0
 42
1.0
176
     0
 92
       10
176
     2
 66
     7
176
     0
 43
1.0
176
     0
 76
     1
176
     0
 77
     6
176
     0
 78
     2
176
     0
 67
     7
176
     0
 79
     5
176
     0
170
     0
176
     0
171
     0
176
     0
290
     0
176
     0
 93
        1
176
     0
 44
0.0
176
     0
173
     0
176
     0
  0
VISUALSTYLE
  5
AB30
102
{ACAD_REACTORS
330
AB22
102
}
330
AB22
100
AcDbVisualStyle
  2
Linepattern
 70
    14
177
     2
291
     1
 71
     2
176
     1
 72
     2
176
     1
 73
     0
176
     1
 90
        0
176
     1
 40
0.6
176
     1
 41
30.0
176
     1
 63
     7
176
     1
 74
     1
176
     1
 91
        4
176
     1
 64
     7
176
     1
 65
   257
176
     1
 75
     7
176
     1
175
     7
176
     1
 42
1.0
176
     1
 92
        8
176
     1
 66
     7
176
     1
 43
1.0
176
     1
 76
     1
176
     1
 77
     6
176
     1
 78
     2
176
     1
 67
     7
176
     1
 79
     5
176
     1
170
     0
176
     1
171
     0
176
     1
290
     0
176
     1
 93
        1
176
     1
 44
0.0
176
     1
173
     0
176
     1
  0
VISUALSTYLE
  5
AB39
102
{ACAD_REACTORS
330
AB22
102
}
330
AB22
100
AcDbVisualStyle
  2
OverhangOff
 70
    21
177
     2
291
     1
 71
     2
176
     0
 72
     2
176
     0
 73
     0
176
     0
 90
        0
176
     0
 40
0.6
176
     0
 41
30.0
176
     0
 63
     7
176
     0
 74
     1
176
     0
 91
        4
176
     0
 64
     7
176
     0
 65
   257
176
     0
 75
     1
176
     0
175
     1
176
     0
 42
1.0
176
     0
 92
        9
176
     2
 66
     7
176
     0
 43
1.0
176
     0
 76
     1
176
     0
 77
     6
176
     0
 78
     2
176
     0
 67
     7
176
     0
 79
     5
176
     0
170
     0
176
     0
171
     0
176
     0
290
     0
176
     0
 93
        1
176
     0
 44
0.0
176
     0
173
     0
176
     0
  0
VISUALSTYLE
  5
AB2C
102
{ACAD_REACTORS
330
AB22
102
}
330
AB22
100
AcDbVisualStyle
  2
Realistic
 70
     8
177
     2
291
     0
 71
     2
176
     1
 72
     2
176
     1
 73
     0
176
     1
 90
        2
176
     1
 40
0.6
176
     1
 41
30.0
176
     1
 63
     7
176
     1
 74
     0
176
     1
 91
        0
176
     1
 64
     7
176
     1
 65
   257
176
     1
 75
     1
176
     1
175
     1
176
     1
 42
1.0
176
     1
 92
        8
176
     1
 66
   257
176
     1
 43
1.0
176
     1
 76
     1
176
     1
 77
     6
176
     1
 78
     2
176
     1
 67
     7
176
     1
 79
     3
176
     1
170
     0
176
     1
171
     0
176
     1
290
     0
176
     1
 93
       13
176
     1
 44
0.0
176
     1
173
     0
176
     1
  0
VISUALSTYLE
  5
AB37
102
{ACAD_REACTORS
330
AB22
102
}
330
AB22
100
AcDbVisualStyle
  2
Shaded
 70
    27
177
     2
291
     0
 71
     2
176
     1
 72
     2
176
     1
 73
     1
176
     1
 90
        2
176
     1
 40
0.6
176
     1
 41
30.0
176
     1
 63
     7
176
     1
 74
     0
176
     1
 91
        4
176
     1
 64
     7
176
     1
 65
   257
176
     1
 75
     1
176
     1
175
     1
176
     1
 42
1.0
176
     1
 92
        8
176
     1
 66
   257
176
     1
 43
1.0
176
     1
 76
     1
176
     1
 77
     6
176
     1
 78
     2
176
     1
 67
     8
176
     1
 79
     3
176
     1
170
     0
176
     1
171
     0
176
     1
290
     0
176
     1
 93
        5
176
     1
 44
0.0
176
     1
173
     0
176
     1
  0
VISUALSTYLE
  5
AB36
102
{ACAD_REACTORS
330
AB22
102
}
330
AB22
100
AcDbVisualStyle
  2
Shaded with edges
 70
    26
177
     2
291
     0
 71
     2
176
     1
 72
     2
176
     1
 73
     1
176
     1
 90
        2
176
     1
 40
0.6
176
     1
 41
30.0
176
     1
 63
     7
176
     1
 74
     1
176
     1
 91
       10
176
     1
 64
     7
176
     1
 65
   257
176
     1
 75
     2
176
     1
175
     1
176
     1
 42
1.0
176
     1
 92
        8
176
     1
 66
   257
176
     1
 43
1.0
176
     1
 76
     1
176
     1
 77
     6
176
     1
 78
     2
176
     1
 67
     7
176
     1
 79
     3
176
     1
170
     0
176
     1
171
     0
176
     1
290
     0
176
     1
 93
        5
176
     1
 44
0.0
176
     1
173
     0
176
     1
  0
VISUALSTYLE
  5
AB33
102
{ACAD_REACTORS
330
AB22
102
}
330
AB22
100
AcDbVisualStyle
  2
Shades of Gray
 70
    23
177
     2
291
     0
 71
     2
176
     1
 72
     2
176
     1
 73
     3
176
     1
 90
        0
176
     1
 40
0.6
176
     1
 41
30.0
176
     1
 63
     7
176
     1
 74
     2
176
     1
 91
        2
176
     1
 64
     7
176
     1
 65
     7
176
     1
 75
     1
176
     1
175
     1
176
     1
 42
40.0
176
     1
 92
        8
176
     1
 66
     7
176
     1
 43
1.0
176
     1
 76
     1
176
     1
 77
     6
176
     1
 78
     2
176
     1
 67
     7
176
     1
 79
     3
176
     1
170
     0
176
     1
171
     0
176
     1
290
     0
176
     1
 93
        1
176
     1
 44
0.0
176
     1
173
     0
176
     1
  0
VISUALSTYLE
  5
AB34
102
{ACAD_REACTORS
330
AB22
102
}
330
AB22
100
AcDbVisualStyle
  2
Sketchy
 70
    24
177
     2
291
     0
 71
     1
176
     1
 72
     2
176
     1
 73
     2
176
     1
 90
        0
176
     1
 40
0.6
176
     1
 41
30.0
176
     1
 63
     7
176
     1
 74
     2
176
     1
 91
        2
176
     1
 64
     7
176
     1
 65
     7
176
     1
 75
     1
176
     1
175
     1
176
     1
 42
40.0
176
     1
 92
       11
176
     1
 66
     7
176
     1
 43
1.0
176
     1
 76
     1
176
     1
 77
     6
176
     1
 78
     2
176
     1
 67
     7
176
     1
 79
     6
176
     1
170
     0
176
     1
171
     0
176
     1
290
     0
176
     1
 93
        1
176
     1
 44
0.0
176
     1
173
     0
176
     1
  0
VISUALSTYLE
  5
AB2F
102
{ACAD_REACTORS
330
AB22
102
}
330
AB22
100
AcDbVisualStyle
  2
Thicken
 70
    13
177
     2
291
     1
 71
     2
176
     1
 72
     2
176
     1
 73
     0
176
     1
 90
        0
176
     1
 40
0.6
176
     1
 41
30.0
176
     1
 63
     7
176
     1
 74
     1
176
     1
 91
        4
176
     1
 64
     7
176
     1
 65
   257
176
     1
 75
     1
176
     1
175
     1
176
     1
 42
1.0
176
     1
 92
       12
176
     1
 66
     7
176
     1
 43
1.0
176
     1
 76
     1
176
     1
 77
     6
176
     1
 78
     2
176
     1
 67
     7
176
     1
 79
     5
176
     1
170
     0
176
     1
171
     0
176
     1
290
     0
176
     1
 93
        1
176
     1
 44
0.0
176
     1
173
     0
176
     1
  0
VISUALSTYLE
  5
AB29
102
{ACAD_REACTORS
330
AB22
102
}
330
AB22
100
AcDbVisualStyle
  2
Wireframe
 70
     5
177
     2
291
     0
 71
     0
176
     1
 72
     2
176
     1
 73
     0
176
     1
 90
        0
176
     1
 40
0.6
176
     1
 41
30.0
176
     1
 63
     7
176
     1
 74
     1
176
     1
 91
        4
176
     1
 64
     7
176
     1
 65
   257
176
     1
 75
     1
176
     1
175
     1
176
     1
 42
1.0
176
     1
 92
        0
176
     1
 66
   257
176
     1
 43
1.0
176
     1
 76
     1
176
     1
 77
     6
176
     1
 78
     2
176
     1
 67
     7
176
     1
 79
     3
176
     1
170
     0
176
     1
171
     0
176
     1
290
     0
176
     1
 93
        1
176
     1
 44
0.0
176
     1
173
     0
176
     1
  0
VISUALSTYLE
  5
AB35
102
{ACAD_REACTORS
330
AB22
102
}
330
AB22
100
AcDbVisualStyle
  2
X-Ray
 70
    25
177
     2
291
     0
 71
     2
176
     1
 72
     2
176
     1
 73
     1
176
     1
 90
        1
176
     1
 40
0.5
176
     1
 41
30.0
176
     1
 63
     7
176
     1
 74
     1
176
     1
 91
        0
176
     1
 64
     7
176
     1
 65
   257
176
     1
 75
     1
176
     1
175
     1
176
     1
 42
1.0
176
     1
 92
        8
176
     1
 66
     7
176
     1
 43
1.0
176
     1
 76
     1
176
     1
 77
     6
176
     1
 78
     2
176
     1
 67
     7
176
     1
 79
     3
176
     1
170
     0
176
     1
171
     0
176
     1
290
     0
176
     1
 93
       13
176
     1
 44
0.0
176
     1
173
     0
176
     1
  0
DICTIONARYVAR
  5
B130
102
{ACAD_REACTORS
330
45D
102
}
330
45D
100
DictionaryVariables
280
     0
  1
1:1
  0
DICTIONARYVAR
  5
B12F
102
{ACAD_REACTORS
330
45D
102
}
330
45D
100
DictionaryVariables
280
     0
  1
STANDARD
  0
DICTIONARYVAR
  5
7880
102
{ACAD_REACTORS
330
45D
102
}
330
45D
100
DictionaryVariables
280
     0
  1
STANDARD
  0
DICTIONARYVAR
  5
B133
102
{ACAD_REACTORS
330
45D
102
}
330
45D
100
DictionaryVariables
280
     0
  1
1
  0
DICTIONARYVAR
  5
B131
102
{ACAD_REACTORS
330
45D
102
}
330
45D
100
DictionaryVariables
280
     0
  1
0
  0
DICTIONARYVAR
  5
B720
102
{ACAD_REACTORS
330
45D
102
}
330
45D
100
DictionaryVariables
280
     0
  1
1
  0
DICTIONARYVAR
  5
B721
102
{ACAD_REACTORS
330
45D
102
}
330
45D
100
DictionaryVariables
280
     0
  1
15
  0
DICTIONARYVAR
  5
B71F
102
{ACAD_REACTORS
330
45D
102
}
330
45D
100
DictionaryVariables
280
     0
  1
0
  0
DICTIONARYVAR
  5
B71E
102
{ACAD_REACTORS
330
45D
102
}
330
45D
100
DictionaryVariables
280
     0
  1
0
  0
DICTIONARYVAR
  5
45E
102
{ACAD_REACTORS
330
45D
102
}
330
45D
100
DictionaryVariables
280
     0
  1
127
  0
DICTIONARY
  5
ABB3
102
{ACAD_REACTORS
330
ABA8
102
}
330
ABA8
100
AcDbDictionary
281
     1
  0
DICTIONARY
  5
AB13
330
AB12
100
AcDbDictionary
280
     1
281
     1
  3
BUMPTILE
360
AB15
  3
DIFFUSETILE
360
AB14
  3
OPACITYTILE
360
AB18
  3
REFLECTIONTILE
360
AB17
  3
REFRACTIONTILE
360
AB19
  3
SPECULARTILE
360
AB16
  0
DICTIONARY
  5
AB0B
330
AB0A
100
AcDbDictionary
280
     1
281
     1
  3
BUMPTILE
360
AB0D
  3
DIFFUSETILE
360
AB0C
  3
OPACITYTILE
360
AB10
  3
REFLECTIONTILE
360
AB0F
  3
REFRACTIONTILE
360
AB11
  3
SPECULARTILE
360
AB0E
  0
DICTIONARY
  5
AB1B
330
AB1A
100
AcDbDictionary
280
     1
281
     1
  3
BUMPTILE
360
AB1D
  3
DIFFUSETILE
360
AB1C
  3
OPACITYTILE
360
AB20
  3
REFLECTIONTILE
360
AB1F
  3
REFRACTIONTILE
360
AB21
  3
SPECULARTILE
360
AB1E
  0
DICTIONARY
  5
B0AB
330
7875
100
AcDbDictionary
280
     1
281
     1
  3
ACAD_ROUNDTRIP_2008_TABLESTYLE_CELLSTYLEMAP
360
B722
  0
XRECORD
  5
AB15
102
{ACAD_REACTORS
330
AB13
102
}
330
AB13
100
AcDbXrecord
280
     1
270
     1
271
     1
  0
XRECORD
  5
AB14
102
{ACAD_REACTORS
330
AB13
102
}
330
AB13
100
AcDbXrecord
280
     1
270
     1
271
     1
  0
XRECORD
  5
AB18
102
{ACAD_REACTORS
330
AB13
102
}
330
AB13
100
AcDbXrecord
280
     1
270
     1
271
     1
  0
XRECORD
  5
AB17
102
{ACAD_REACTORS
330
AB13
102
}
330
AB13
100
AcDbXrecord
280
     1
270
     1
271
     1
  0
XRECORD
  5
AB19
102
{ACAD_REACTORS
330
AB13
102
}
330
AB13
100
AcDbXrecord
280
     1
270
     1
271
     1
  0
XRECORD
  5
AB16
102
{ACAD_REACTORS
330
AB13
102
}
330
AB13
100
AcDbXrecord
280
     1
270
     1
271
     1
  0
XRECORD
  5
AB0D
102
{ACAD_REACTORS
330
AB0B
102
}
330
AB0B
100
AcDbXrecord
280
     1
270
     1
271
     1
  0
XRECORD
  5
AB0C
102
{ACAD_REACTORS
330
AB0B
102
}
330
AB0B
100
AcDbXrecord
280
     1
270
     1
271
     1
  0
XRECORD
  5
AB10
102
{ACAD_REACTORS
330
AB0B
102
}
330
AB0B
100
AcDbXrecord
280
     1
270
     1
271
     1
  0
XRECORD
  5
AB0F
102
{ACAD_REACTORS
330
AB0B
102
}
330
AB0B
100
AcDbXrecord
280
     1
270
     1
271
     1
  0
XRECORD
  5
AB11
102
{ACAD_REACTORS
330
AB0B
102
}
330
AB0B
100
AcDbXrecord
280
     1
270
     1
271
     1
  0
XRECORD
  5
AB0E
102
{ACAD_REACTORS
330
AB0B
102
}
330
AB0B
100
AcDbXrecord
280
     1
270
     1
271
     1
  0
XRECORD
  5
AB1D
102
{ACAD_REACTORS
330
AB1B
102
}
330
AB1B
100
AcDbXrecord
280
     1
270
     1
271
     1
  0
XRECORD
  5
AB1C
102
{ACAD_REACTORS
330
AB1B
102
}
330
AB1B
100
AcDbXrecord
280
     1
270
     1
271
     1
  0
XRECORD
  5
AB20
102
{ACAD_REACTORS
330
AB1B
102
}
330
AB1B
100
AcDbXrecord
280
     1
270
     1
271
     1
  0
XRECORD
  5
AB1F
102
{ACAD_REACTORS
330
AB1B
102
}
330
AB1B
100
AcDbXrecord
280
     1
270
     1
271
     1
  0
XRECORD
  5
AB21
102
{ACAD_REACTORS
330
AB1B
102
}
330
AB1B
100
AcDbXrecord
280
     1
270
     1
271
     1
  0
XRECORD
  5
AB1E
102
{ACAD_REACTORS
330
AB1B
102
}
330
AB1B
100
AcDbXrecord
280
     1
270
     1
271
     1
  0
CELLSTYLEMAP
  5
B722
102
{ACAD_REACTORS
330
B0AB
102
}
330
B0AB
100
AcDbCellStyleMap
 90
        3
300
CELLSTYLE
  1
TABLEFORMAT_BEGIN
 90
        5
170
     1
 91
        0
 92
    32768
 62
   257
 93
        1
300
CONTENTFORMAT
  1
CONTENTFORMAT_BEGIN
 90
        0
 91
        0
 92
        4
 93
        0
300

 40
0.0
140
1.0
 94
        5
 62
     0
340
F
144
6.0
309
CONTENTFORMAT_END
171
     1
301
MARGIN
  1
CELLMARGIN_BEGIN
 40
1.5
 40
1.5
 40
1.5
 40
1.5
 40
0.18
 40
0.18
309
CELLMARGIN_END
 94
        6
 95
        1
302
GRIDFORMAT
  1
GRIDFORMAT_BEGIN
 90
        0
 91
        1
 62
     0
 92
       -2
340
0
 93
        0
 40
0.045
309
GRIDFORMAT_END
 95
        2
302
GRIDFORMAT
  1
GRIDFORMAT_BEGIN
 90
        0
 91
        1
 62
     0
 92
       -2
340
0
 93
        0
 40
0.045
309
GRIDFORMAT_END
 95
        4
302
GRIDFORMAT
  1
GRIDFORMAT_BEGIN
 90
        0
 91
        1
 62
     0
 92
       -2
340
0
 93
        0
 40
0.045
309
GRIDFORMAT_END
 95
        8
302
GRIDFORMAT
  1
GRIDFORMAT_BEGIN
 90
        0
 91
        1
 62
     0
 92
       -2
340
0
 93
        0
 40
0.045
309
GRIDFORMAT_END
 95
       16
302
GRIDFORMAT
  1
GRIDFORMAT_BEGIN
 90
        0
 91
        1
 62
     0
 92
       -2
340
0
 93
        0
 40
0.045
309
GRIDFORMAT_END
 95
       32
302
GRIDFORMAT
  1
GRIDFORMAT_BEGIN
 90
        0
 91
        1
 62
     0
 92
       -2
340
0
 93
        0
 40
0.045
309
GRIDFORMAT_END
309
TABLEFORMAT_END
  1
CELLSTYLE_BEGIN
 90
        1
 91
        1
300
_TITLE
309
CELLSTYLE_END
300
CELLSTYLE
  1
TABLEFORMAT_BEGIN
 90
        5
170
     1
 91
        0
 92
        0
 62
   257
 93
        1
300
CONTENTFORMAT
  1
CONTENTFORMAT_BEGIN
 90
        0
 91
        0
 92
        4
 93
        0
300

 40
0.0
140
1.0
 94
        5
 62
     0
340
F
144
4.5
309
CONTENTFORMAT_END
171
     1
301
MARGIN
  1
CELLMARGIN_BEGIN
 40
1.5
 40
1.5
 40
1.5
 40
1.5
 40
0.18
 40
0.18
309
CELLMARGIN_END
 94
        6
 95
        1
302
GRIDFORMAT
  1
GRIDFORMAT_BEGIN
 90
        0
 91
        1
 62
     0
 92
       -2
340
0
 93
        0
 40
0.045
309
GRIDFORMAT_END
 95
        2
302
GRIDFORMAT
  1
GRIDFORMAT_BEGIN
 90
        0
 91
        1
 62
     0
 92
       -2
340
0
 93
        0
 40
0.045
309
GRIDFORMAT_END
 95
        4
302
GRIDFORMAT
  1
GRIDFORMAT_BEGIN
 90
        0
 91
        1
 62
     0
 92
       -2
340
0
 93
        0
 40
0.045
309
GRIDFORMAT_END
 95
        8
302
GRIDFORMAT
  1
GRIDFORMAT_BEGIN
 90
        0
 91
        1
 62
     0
 92
       -2
340
0
 93
        0
 40
0.045
309
GRIDFORMAT_END
 95
       16
302
GRIDFORMAT
  1
GRIDFORMAT_BEGIN
 90
        0
 91
        1
 62
     0
 92
       -2
340
0
 93
        0
 40
0.045
309
GRIDFORMAT_END
 95
       32
302
GRIDFORMAT
  1
GRIDFORMAT_BEGIN
 90
        0
 91
        1
 62
     0
 92
       -2
340
0
 93
        0
 40
0.045
309
GRIDFORMAT_END
309
TABLEFORMAT_END
  1
CELLSTYLE_BEGIN
 90
        2
 91
        1
300
_HEADER
309
CELLSTYLE_END
300
CELLSTYLE
  1
TABLEFORMAT_BEGIN
 90
        5
170
     1
 91
        0
 92
        0
 62
   257
 93
        1
300
CONTENTFORMAT
  1
CONTENTFORMAT_BEGIN
 90
        0
 91
        0
 92
        4
 93
        0
300

 40
0.0
140
1.0
 94
        2
 62
     0
340
F
144
4.5
309
CONTENTFORMAT_END
171
     1
301
MARGIN
  1
CELLMARGIN_BEGIN
 40
1.5
 40
1.5
 40
1.5
 40
1.5
 40
0.18
 40
0.18
309
CELLMARGIN_END
 94
        6
 95
        1
302
GRIDFORMAT
  1
GRIDFORMAT_BEGIN
 90
        0
 91
        1
 62
     0
 92
       -2
340
0
 93
        0
 40
0.045
309
GRIDFORMAT_END
 95
        2
302
GRIDFORMAT
  1
GRIDFORMAT_BEGIN
 90
        0
 91
        1
 62
     0
 92
       -2
340
0
 93
        0
 40
0.045
309
GRIDFORMAT_END
 95
        4
302
GRIDFORMAT
  1
GRIDFORMAT_BEGIN
 90
        0
 91
        1
 62
     0
 92
       -2
340
0
 93
        0
 40
0.045
309
GRIDFORMAT_END
 95
        8
302
GRIDFORMAT
  1
GRIDFORMAT_BEGIN
 90
        0
 91
        1
 62
     0
 92
       -2
340
0
 93
        0
 40
0.045
309
GRIDFORMAT_END
 95
       16
302
GRIDFORMAT
  1
GRIDFORMAT_BEGIN
 90
        0
 91
        1
 62
     0
 92
       -2
340
0
 93
        0
 40
0.045
309
GRIDFORMAT_END
 95
       32
302
GRIDFORMAT
  1
GRIDFORMAT_BEGIN
 90
        0
 91
        1
 62
     0
 92
       -2
340
0
 93
        0
 40
0.045
309
GRIDFORMAT_END
309
TABLEFORMAT_END
  1
CELLSTYLE_BEGIN
 90
        3
 91
        2
300
_DATA
309
CELLSTYLE_END
  0
ENDSEC
  0
EOF
