  0
SECTION
  2
HEADER
  9
$ACADVER
  1
AC1015
  9
$ACADMAINTVER
 70
    20
  9
$DWGCODEPAGE
  3
ANSI_932
  9
$INSBASE
 10
0.0
 20
0.0
 30
0.0
  9
$EXTMIN
 10
0.0
 20
0.0
 30
0.0
  9
$EXTMAX
 10
380.0
 20
560.0000000000001
 30
7.676767676767685
  9
$LIMMIN
 10
0.0
 20
0.0
  9
$LIMMAX
 10
420.0
 20
297.0
  9
$ORTHOMODE
 70
     1
  9
$REGENMODE
 70
     1
  9
$FILLMODE
 70
     1
  9
$QTEXTMODE
 70
     0
  9
$MIRRTEXT
 70
     1
  9
$LTSCALE
 40
1.0
  9
$ATTMODE
 70
     1
  9
$TEXTSIZE
 40
2.5
  9
$TRACEWID
 40
1.0
  9
$TEXTSTYLE
  7
TXT
  9
$CLAYER
  8
mark
  9
$CELTYPE
  6
BYLAYER
  9
$CECOLOR
 62
   256
  9
$CELTSCALE
 40
1.0
  9
$DISPSILH
 70
     0
  9
$DIMSCALE
 40
1.0
  9
$DIMASZ
 40
5.0
  9
$DIMEXO
 40
1.7
  9
$DIMDLI
 40
0.38
  9
$DIMRND
 40
0.0
  9
$DIMDLE
 40
0.0
  9
$DIMEXE
 40
1.7
  9
$DIMTP
 40
0.0
  9
$DIMTM
 40
0.0
  9
$DIMTXT
 40
5.0
  9
$DIMCEN
 40
0.09
  9
$DIMTSZ
 40
0.0
  9
$DIMTOL
 70
     0
  9
$DIMLIM
 70
     0
  9
$DIMTIH
 70
     0
  9
$DIMTOH
 70
     0
  9
$DIMSE1
 70
     0
  9
$DIMSE2
 70
     0
  9
$DIMTAD
 70
     3
  9
$DIMZIN
 70
     8
  9
$DIMBLK
  1
Open30
  9
$DIMASO
 70
     1
  9
$DIMSHO
 70
     1
  9
$DIMPOST
  1

  9
$DIMAPOST
  1

  9
$DIMALT
 70
     0
  9
$DIMALTD
 70
     2
  9
$DIMALTF
 40
25.4
  9
$DIMLFAC
 40
1.0
  9
$DIMTOFL
 70
     1
  9
$DIMTVP
 40
0.0
  9
$DIMTIX
 70
     0
  9
$DIMSOXD
 70
     0
  9
$DIMSAH
 70
     0
  9
$DIMBLK1
  1

  9
$DIMBLK2
  1

  9
$DIMSTYLE
  2
STANDARD
  9
$DIMCLRD
 70
   256
  9
$DIMCLRE
 70
   256
  9
$DIMCLRT
 70
     3
  9
$DIMTFAC
 40
1.0
  9
$DIMGAP
 40
1.7
  9
$DIMJUST
 70
     0
  9
$DIMSD1
 70
     0
  9
$DIMSD2
 70
     0
  9
$DIMTOLJ
 70
     1
  9
$DIMTZIN
 70
     0
  9
$DIMALTZ
 70
     0
  9
$DIMALTTZ
 70
     0
  9
$DIMUPT
 70
     0
  9
$DIMDEC
 70
     2
  9
$DIMTDEC
 70
     2
  9
$DIMALTU
 70
     2
  9
$DIMALTTD
 70
     2
  9
$DIMTXSTY
  7
STANDARD
  9
$DIMAUNIT
 70
     0
  9
$DIMADEC
 70
     2
  9
$DIMALTRND
 40
0.0
  9
$DIMAZIN
 70
     2
  9
$DIMDSEP
 70
    46
  9
$DIMATFIT
 70
     3
  9
$DIMFRAC
 70
     0
  9
$DIMLDRBLK
  1
Open30
  9
$DIMLUNIT
 70
     2
  9
$DIMLWD
 70
    -2
  9
$DIMLWE
 70
    -2
  9
$DIMTMOVE
 70
     0
  9
$LUNITS
 70
     2
  9
$LUPREC
 70
     2
  9
$SKETCHINC
 40
1.0
  9
$FILLETRAD
 40
2.0
  9
$AUNITS
 70
     0
  9
$AUPREC
 70
     2
  9
$MENU
  1
.
  9
$ELEVATION
 40
0.0
  9
$PELEVATION
 40
0.0
  9
$THICKNESS
 40
0.0
  9
$LIMCHECK
 70
     0
  9
$CHAMFERA
 40
2.0
  9
$CHAMFERB
 40
2.0
  9
$CHAMFERC
 40
1.75
  9
$CHAMFERD
 40
0.0174532925199433
  9
$SKPOLY
 70
     0
  9
$TDCREATE
 40
2451555.620234838
  9
$TDUCREATE
 40
2451555.245234838
  9
$TDUPDATE
 40
2457828.490739097
  9
$TDUUPDATE
 40
2457828.115739097
  9
$TDINDWG
 40
2.5219797569
  9
$TDUSRTIMER
 40
2.5219797569
  9
$USRTIMER
 70
     1
  9
$ANGBASE
 50
0.0
  9
$ANGDIR
 70
     0
  9
$PDMODE
 70
     0
  9
$PDSIZE
 40
0.0
  9
$PLINEWID
 40
0.0
  9
$SPLFRAME
 70
     0
  9
$SPLINETYPE
 70
     6
  9
$SPLINESEGS
 70
     8
  9
$HANDSEED
  5
A901
  9
$SURFTAB1
 70
     6
  9
$SURFTAB2
 70
     6
  9
$SURFTYPE
 70
     6
  9
$SURFU
 70
     6
  9
$SURFV
 70
     6
  9
$UCSBASE
  2

  9
$UCSNAME
  2

  9
$UCSORG
 10
0.0
 20
0.0
 30
0.0
  9
$UCSXDIR
 10
1.0
 20
0.0
 30
0.0
  9
$UCSYDIR
 10
0.0
 20
1.0
 30
0.0
  9
$UCSORTHOREF
  2

  9
$UCSORTHOVIEW
 70
     0
  9
$UCSORGTOP
 10
0.0
 20
0.0
 30
0.0
  9
$UCSORGBOTTOM
 10
0.0
 20
0.0
 30
0.0
  9
$UCSORGLEFT
 10
0.0
 20
0.0
 30
0.0
  9
$UCSORGRIGHT
 10
0.0
 20
0.0
 30
0.0
  9
$UCSORGFRONT
 10
0.0
 20
0.0
 30
0.0
  9
$UCSORGBACK
 10
0.0
 20
0.0
 30
0.0
  9
$PUCSBASE
  2

  9
$PUCSNAME
  2

  9
$PUCSORG
 10
0.0
 20
0.0
 30
0.0
  9
$PUCSXDIR
 10
1.0
 20
0.0
 30
0.0
  9
$PUCSYDIR
 10
0.0
 20
1.0
 30
0.0
  9
$PUCSORTHOREF
  2

  9
$PUCSORTHOVIEW
 70
     0
  9
$PUCSORGTOP
 10
0.0
 20
0.0
 30
0.0
  9
$PUCSORGBOTTOM
 10
0.0
 20
0.0
 30
0.0
  9
$PUCSORGLEFT
 10
0.0
 20
0.0
 30
0.0
  9
$PUCSORGRIGHT
 10
0.0
 20
0.0
 30
0.0
  9
$PUCSORGFRONT
 10
0.0
 20
0.0
 30
0.0
  9
$PUCSORGBACK
 10
0.0
 20
0.0
 30
0.0
  9
$USERI1
 70
     0
  9
$USERI2
 70
     0
  9
$USERI3
 70
     0
  9
$USERI4
 70
     0
  9
$USERI5
 70
     0
  9
$USERR1
 40
0.0
  9
$USERR2
 40
0.0
  9
$USERR3
 40
0.0
  9
$USERR4
 40
0.0
  9
$USERR5
 40
0.0
  9
$WORLDVIEW
 70
     1
  9
$SHADEDGE
 70
     3
  9
$SHADEDIF
 70
    70
  9
$TILEMODE
 70
     1
  9
$MAXACTVP
 70
    48
  9
$PINSBASE
 10
0.0
 20
0.0
 30
0.0
  9
$PLIMCHECK
 70
     0
  9
$PEXTMIN
 10
1.000000000000000E+20
 20
1.000000000000000E+20
 30
1.000000000000000E+20
  9
$PEXTMAX
 10
-1.000000000000000E+20
 20
-1.000000000000000E+20
 30
-1.000000000000000E+20
  9
$PLIMMIN
 10
0.0
 20
0.0
  9
$PLIMMAX
 10
420.0
 20
297.0
  9
$UNITMODE
 70
     0
  9
$VISRETAIN
 70
     1
  9
$PLINEGEN
 70
     0
  9
$PSLTSCALE
 70
     1
  9
$TREEDEPTH
 70
  3020
  9
$CMLSTYLE
  2
STANDARD
  9
$CMLJUST
 70
     0
  9
$CMLSCALE
 40
20.0
  9
$PROXYGRAPHICS
 70
     1
  9
$MEASUREMENT
 70
     1
  9
$CELWEIGHT
370
    -1
  9
$ENDCAPS
280
     0
  9
$JOINSTYLE
280
     0
  9
$LWDISPLAY
290
     0
  9
$INSUNITS
 70
     0
  9
$HYPERLINKBASE
  1

  9
$STYLESHEET
  1
monochrome.ctb
  9
$XEDIT
290
     1
  9
$CEPSNTYPE
380
     0
  9
$PSTYLEMODE
290
     1
  9
$FINGERPRINTGUID
  2
{1CF51E8A-A506-11D4-A7D9-AF69F5C20846}
  9
$VERSIONGUID
  2
{A333B925-B2F9-431E-8640-0F07CBD7944D}
  9
$EXTNAMES
290
     1
  9
$PSVPSCALE
 40
0.0
  9
$OLESTARTUP
290
     0
  0
ENDSEC
  0
SECTION
  2
CLASSES
  0
CLASS
  1
DICTIONARYVAR
  2
AcDbDictionaryVar
  3
ObjectDBX Classes
 90
        0
280
     0
281
     0
  0
CLASS
  1
SORTENTSTABLE
  2
AcDbSortentsTable
  3
ObjectDBX Classes
 90
        0
280
     0
281
     0
  0
CLASS
  1
ACDBDICTIONARYWDFLT
  2
AcDbDictionaryWithDefault
  3
ObjectDBX Classes
 90
        0
280
     0
281
     0
  0
CLASS
  1
ACDBPLACEHOLDER
  2
AcDbPlaceHolder
  3
ObjectDBX Classes
 90
        0
280
     0
281
     0
  0
CLASS
  1
LAYOUT
  2
AcDbLayout
  3
ObjectDBX Classes
 90
        0
280
     0
281
     0
  0
CLASS
  1
TABLESTYLE
  2
AcDbTableStyle
  3
ObjectDBX Classes
 90
     2047
280
     0
281
     0
  0
ENDSEC
  0
SECTION
  2
TABLES
  0
TABLE
  2
VPORT
  5
8
330
0
100
AcDbSymbolTable
 70
     2
  0
VPORT
  5
A8FB
330
8
100
AcDbSymbolTableRecord
100
AcDbViewportTableRecord
  2
*Active
 70
     0
 10
0.0
 20
0.0
 11
1.0
 21
1.0
 12
541.8675387825389
 22
280.0000074976144
 13
0.0
 23
0.0
 14
10.0
 24
10.0
 15
10.0
 25
10.0
 16
0.0
 26
0.0
 36
1.0
 17
0.0
 27
0.0
 37
0.0
 40
566.8362096393932
 41
2.647181628392484
 42
50.0
 43
0.0
 44
0.0
 50
0.0
 51
0.0
 71
     0
 72
 20000
 73
     1
 74
     1
 75
     0
 76
     0
 77
     0
 78
     0
281
     0
 65
     1
110
0.0
120
0.0
130
0.0
111
1.0
121
0.0
131
0.0
112
0.0
122
1.0
132
0.0
 79
     0
146
0.0
  0
ENDTAB
  0
TABLE
  2
LTYPE
  5
5
330
0
100
AcDbSymbolTable
 70
     8
  0
LTYPE
  5
12
330
5
100
AcDbSymbolTableRecord
100
AcDbLinetypeTableRecord
  2
BYBLOCK
 70
     0
  3

 72
    65
 73
     0
 40
0.0
  0
LTYPE
  5
13
330
5
100
AcDbSymbolTableRecord
100
AcDbLinetypeTableRecord
  2
BYLAYER
 70
     0
  3

 72
    65
 73
     0
 40
0.0
  0
LTYPE
  5
14
330
5
100
AcDbSymbolTableRecord
100
AcDbLinetypeTableRecord
  2
CONTINUOUS
 70
     0
  3
Solid line
 72
    65
 73
     0
 40
0.0
  0
LTYPE
  5
9D
330
5
100
AcDbSymbolTableRecord
100
AcDbLinetypeTableRecord
  2
CENTERX2
 70
     0
  3
Center (2x) ________  __  ________  __  _____
 72
    65
 73
     4
 40
101.6
 49
63.5
 74
     0
 49
-12.7
 74
     0
 49
12.7
 74
     0
 49
-12.7
 74
     0
  0
LTYPE
  5
A1
330
5
100
AcDbSymbolTableRecord
100
AcDbLinetypeTableRecord
  2
DASHED
 70
     0
  3
Dashed __ __ __ __ __ __ __ __ __ __ __ __ __ _
 72
    65
 73
     2
 40
19.05
 49
12.7
 74
     0
 49
-6.349999999999999
 74
     0
  0
LTYPE
  5
A2
330
5
100
AcDbSymbolTableRecord
100
AcDbLinetypeTableRecord
  2
DASHED2
 70
     0
  3
Dashed (.5x) _ _ _ _ _ _ _ _ _ _ _ _ _ _ _ _ _
 72
    65
 73
     2
 40
9.524999999999998
 49
6.349999999999999
 74
     0
 49
-3.174999999999999
 74
     0
  0
LTYPE
  5
A5
330
5
100
AcDbSymbolTableRecord
100
AcDbLinetypeTableRecord
  2
DIVIDE2
 70
     0
  3
Divide (.5x) __..__..__..__..__..__..__..__.._
 72
    65
 73
     6
 40
15.875
 49
6.349999999999999
 74
     0
 49
-3.174999999999999
 74
     0
 49
0.0
 74
     0
 49
-3.174999999999999
 74
     0
 49
0.0
 74
     0
 49
-3.174999999999999
 74
     0
  0
LTYPE
  5
650B
330
5
100
AcDbSymbolTableRecord
100
AcDbLinetypeTableRecord
  2
CENTER
 70
     0
  3
Center ____ _ ____ _ ____ _ ____ _ ____ _ ____
 72
    65
 73
     4
 40
50.8
 49
31.75
 74
     0
 49
-6.349999999999999
 74
     0
 49
6.349999999999999
 74
     0
 49
-6.349999999999999
 74
     0
  0
LTYPE
  5
650C
330
5
100
AcDbSymbolTableRecord
100
AcDbLinetypeTableRecord
  2
HIDDEN
 70
     0
  3
Hidden __ __ __ __ __ __ __ __ __ __ __ __ __ _
 72
    65
 73
     2
 40
9.524999999999998
 49
6.349999999999999
 74
     0
 49
-3.174999999999999
 74
     0
  0
LTYPE
  5
8303
330
5
100
AcDbSymbolTableRecord
100
AcDbLinetypeTableRecord
  2
ACAD_ISO03W100
 70
     0
  3
ISO dash space __    __    __    __    __    __
 72
    65
 73
     2
 40
30.0
 49
12.0
 74
     0
 49
-18.0
 74
     0
  0
ENDTAB
  0
TABLE
  2
LAYER
  5
2
102
{ACAD_XDICTIONARY
360
9023
102
}
330
0
100
AcDbSymbolTable
 70
     9
  0
LAYER
  5
E
330
2
100
AcDbSymbolTableRecord
100
AcDbLayerTableRecord
  2
0
 70
     0
 62
     7
  6
CONTINUOUS
370
    -3
390
5CF2
  0
LAYER
  5
B9
330
2
100
AcDbSymbolTableRecord
100
AcDbLayerTableRecord
  2
dim
 70
     0
 62
     3
  6
CONTINUOUS
370
    -3
390
5CF2
  0
LAYER
  5
F2
330
2
100
AcDbSymbolTableRecord
100
AcDbLayerTableRecord
  2
DEFPOINTS
 70
     0
 62
     7
  6
CONTINUOUS
290
     0
370
    -3
390
5CF2
  0
LAYER
  5
5F8B
330
2
100
AcDbSymbolTableRecord
100
AcDbLayerTableRecord
  2
mark
 70
     0
 62
     6
  6
CONTINUOUS
370
    -3
390
5CF2
  0
LAYER
  5
644E
330
2
100
AcDbSymbolTableRecord
100
AcDbLayerTableRecord
  2
frame
 70
     0
 62
     9
  6
CONTINUOUS
370
    -3
390
5CF2
  0
LAYER
  5
650D
330
2
100
AcDbSymbolTableRecord
100
AcDbLayerTableRecord
  2
center
 70
     0
 62
     1
  6
CENTER
370
    -3
390
5CF2
  0
LAYER
  5
650E
330
2
100
AcDbSymbolTableRecord
100
AcDbLayerTableRecord
  2
bowle
 70
     0
 62
     4
  6
HIDDEN
370
    -3
390
5CF2
  0
LAYER
  5
650F
330
2
100
AcDbSymbolTableRecord
100
AcDbLayerTableRecord
  2
contour
 70
     0
 62
     2
  6
CONTINUOUS
370
    -3
390
5CF2
  0
LAYER
  5
6510
330
2
100
AcDbSymbolTableRecord
100
AcDbLayerTableRecord
  2
section
 70
     0
 62
     5
  6
CONTINUOUS
370
    -3
390
5CF2
  0
ENDTAB
  0
TABLE
  2
STYLE
  5
3
330
0
100
AcDbSymbolTable
 70
     5
  0
STYLE
  5
F
330
3
100
AcDbSymbolTableRecord
100
AcDbTextStyleTableRecord
  2
STANDARD
 70
     0
 40
0.0
 41
1.0
 50
0.0
 71
     0
 42
2.5
  3
txt
  4

  0
STYLE
  5
BE
330
3
100
AcDbSymbolTableRecord
100
AcDbTextStyleTableRecord
  2
ISOCP3
 70
     0
 40
0.0
 41
1.0
 50
0.0
 71
     0
 42
2.5
  3
isocp3.shx
  4

  0
STYLE
  5
2A37
330
3
100
AcDbSymbolTableRecord
100
AcDbTextStyleTableRecord
  2
TXT
 70
     0
 40
0.0
 41
1.0
 50
0.0
 71
     0
 42
2.5
  3
txt.shx
  4
bigfont.shx
  0
STYLE
  5
5DCB
330
3
100
AcDbSymbolTableRecord
100
AcDbTextStyleTableRecord
  2
LKK
 70
     0
 40
50.0
 41
1.5
 50
0.0
 71
     0
 42
50.0
  3
MS PGothic.ttf
  4

1001
ACAD
1000
MS PGothic
1071
    32818
  0
STYLE
  5
5DCC
330
3
100
AcDbSymbolTableRecord
100
AcDbTextStyleTableRecord
  2
JL
 70
     0
 40
10.0
 41
0.5
 50
0.0
 71
     0
 42
5.0
  3
MS Mincho.ttf
  4

1001
ACAD
1000
MS Mincho
1071
    32785
  0
ENDTAB
  0
TABLE
  2
VIEW
  5
6
330
0
100
AcDbSymbolTable
 70
     0
  0
ENDTAB
  0
TABLE
  2
UCS
  5
7
330
0
100
AcDbSymbolTable
 70
     0
  0
ENDTAB
  0
TABLE
  2
APPID
  5
9
330
0
100
AcDbSymbolTable
 70
    11
  0
APPID
  5
10
330
9
100
AcDbSymbolTableRecord
100
AcDbRegAppTableRecord
  2
ACAD
 70
     0
  0
APPID
  5
90C1
330
9
100
AcDbSymbolTableRecord
100
AcDbRegAppTableRecord
  2
ACAD_DSTYLE_DIMEXT_LENGTH
 70
     0
  0
APPID
  5
90C2
330
9
100
AcDbSymbolTableRecord
100
AcDbRegAppTableRecord
  2
ACAD_DSTYLE_DIMEXT_ENABLED
 70
     0
  0
APPID
  5
90C3
330
9
100
AcDbSymbolTableRecord
100
AcDbRegAppTableRecord
  2
ACAD_DSTYLE_DIMJOGGED_JOGANGLE_SYMBOL
 70
     0
  0
APPID
  5
90C4
330
9
100
AcDbSymbolTableRecord
100
AcDbRegAppTableRecord
  2
ACAD_DSTYLE_DIMARC_LENGTH_SYMBOL
 70
     0
  0
APPID
  5
90C5
330
9
100
AcDbSymbolTableRecord
100
AcDbRegAppTableRecord
  2
ACAD_PSEXT
 70
     0
  0
APPID
  5
93E0
330
9
100
AcDbSymbolTableRecord
100
AcDbRegAppTableRecord
  2
ACAD_EXEMPT_FROM_CAD_STANDARDS
 70
     0
  0
APPID
  5
942C
330
9
100
AcDbSymbolTableRecord
100
AcDbRegAppTableRecord
  2
ACAD_DSTYLE_DIMTEXT_FILL
 70
     0
  0
APPID
  5
942F
330
9
100
AcDbSymbolTableRecord
100
AcDbRegAppTableRecord
  2
ACAD_DSTYLE_DIM_LINETYPE
 70
     0
  0
APPID
  5
9430
330
9
100
AcDbSymbolTableRecord
100
AcDbRegAppTableRecord
  2
ACAD_DSTYLE_DIM_EXT1_LINETYPE
 70
     0
  0
APPID
  5
9431
330
9
100
AcDbSymbolTableRecord
100
AcDbRegAppTableRecord
  2
ACAD_DSTYLE_DIM_EXT2_LINETYPE
 70
     0
  0
ENDTAB
  0
TABLE
  2
DIMSTYLE
  5
A
330
0
100
AcDbSymbolTable
 70
     2
100
AcDbDimStyleTable
 71
     2
340
1D
340
1A4
  0
DIMSTYLE
105
1D
102
{ACAD_REACTORS
330
9DA0
330
9DAD
330
9DBA
330
9DCA
330
9DD7
330
9E15
330
9E24
330
9E3B
330
9E51
330
9E63
330
9E75
102
}
330
A
100
AcDbSymbolTableRecord
100
AcDbDimStyleTableRecord
  2
STANDARD
 70
     0
 41
5.0
 42
1.7
 44
1.7
 73
     0
 74
     0
 77
     3
 78
     8
 79
     2
140
5.0
147
1.7
172
     1
176
   256
177
   256
178
     3
179
     2
271
     2
272
     2
340
F
341
9026
342
9026
1001
ACAD_DSTYLE_DIMEXT_LENGTH
1070
   378
1040
0.18
1001
ACAD_DSTYLE_DIMEXT_ENABLED
1070
   383
1070
     0
1001
ACAD_DSTYLE_DIMARC_LENGTH_SYMBOL
1070
   379
1070
     0
1001
ACAD_DSTYLE_DIMJOGGED_JOGANGLE_SYMBOL
1070
   384
1040
1.570796326794896
  0
DIMSTYLE
105
1A4
330
A
100
AcDbSymbolTableRecord
100
AcDbDimStyleTableRecord
  2
A
 70
     0
 41
2.5
 42
1.0
 43
6.0
 44
1.0
 73
     0
 74
     0
 77
     3
 78
     8
140
3.0
141
0.0
147
1.0
176
     6
177
     6
178
     3
271
     1
272
     1
279
     1
340
2A37
  0
ENDTAB
  0
TABLE
  2
BLOCK_RECORD
  5
1
330
0
100
AcDbSymbolTable
 70
    15
  0
BLOCK_RECORD
  5
18
102
{ACAD_XDICTIONARY
360
45F
102
}
330
1
100
AcDbSymbolTableRecord
100
AcDbBlockTableRecord
  2
*MODEL_SPACE
340
5CF5
  0
BLOCK_RECORD
  5
15
102
{ACAD_XDICTIONARY
360
5D89
102
}
330
1
100
AcDbSymbolTableRecord
100
AcDbBlockTableRecord
  2
*PAPER_SPACE
340
5CF6
  0
BLOCK_RECORD
  5
639D
330
1
100
AcDbSymbolTableRecord
100
AcDbBlockTableRecord
  2
A$C255C26A2
340
0
  0
BLOCK_RECORD
  5
8FE2
330
1
100
AcDbSymbolTableRecord
100
AcDbBlockTableRecord
  2
_DOTSMALL
340
0
  0
BLOCK_RECORD
  5
9026
330
1
100
AcDbSymbolTableRecord
100
AcDbBlockTableRecord
  2
_Open30
340
0
102
{BLKREFS
331
A207
331
A208
331
A210
331
A211
331
A219
331
A21A
331
A222
331
A223
331
A22D
331
A22E
331
A238
331
A239
331
A241
331
A242
331
A24A
331
A252
331
A253
331
A25D
331
A25E
331
A266
331
A267
102
}
  0
BLOCK_RECORD
  5
902C
102
{ACAD_XDICTIONARY
360
902D
102
}
330
1
100
AcDbSymbolTableRecord
100
AcDbBlockTableRecord
  2
A
340
0
310
2800000020000000200000000100080000000000000400000000000000000000000000000000000000000000000080000080000000808000800000008000800080800000C0C0C000C0DCC000F0CAA6000020400000206000002080000020A0000020C0000020E00000400000004020000040400000406000004080000040A0
310
000040C0000040E00000600000006020000060400000606000006080000060A0000060C0000060E00000800000008020000080400000806000008080000080A0000080C0000080E00000A0000000A0200000A0400000A0600000A0800000A0A00000A0C00000A0E00000C0000000C0200000C0400000C0600000C0800000C0
310
A00000C0C00000C0E00000E0000000E0200000E0400000E0600000E0800000E0A00000E0C00000E0E00040000000400020004000400040006000400080004000A0004000C0004000E00040200000402020004020400040206000402080004020A0004020C0004020E000404000004040200040404000404060004040800040
310
40A0004040C0004040E00040600000406020004060400040606000406080004060A0004060C0004060E00040800000408020004080400040806000408080004080A0004080C0004080E00040A0000040A0200040A0400040A0600040A0800040A0A00040A0C00040A0E00040C0000040C0200040C0400040C0600040C08000
310
40C0A00040C0C00040C0E00040E0000040E0200040E0400040E0600040E0800040E0A00040E0C00040E0E00080000000800020008000400080006000800080008000A0008000C0008000E00080200000802020008020400080206000802080008020A0008020C0008020E00080400000804020008040400080406000804080
310
008040A0008040C0008040E00080600000806020008060400080606000806080008060A0008060C0008060E00080800000808020008080400080806000808080008080A0008080C0008080E00080A0000080A0200080A0400080A0600080A0800080A0A00080A0C00080A0E00080C0000080C0200080C0400080C0600080C0
310
800080C0A00080C0C00080C0E00080E0000080E0200080E0400080E0600080E0800080E0A00080E0C00080E0E000C0000000C0002000C0004000C0006000C0008000C000A000C000C000C000E000C0200000C0202000C0204000C0206000C0208000C020A000C020C000C020E000C0400000C0402000C0404000C0406000C0
310
408000C040A000C040C000C040E000C0600000C0602000C0604000C0606000C0608000C060A000C060C000C060E000C0800000C0802000C0804000C0806000C0808000C080A000C080C000C080E000C0A00000C0A02000C0A04000C0A06000C0A08000C0A0A000C0A0C000C0A0E000C0C00000C0C02000C0C04000C0C06000
310
C0C08000C0C0A000F0FBFF00A4A0A000808080000000FF0000FF000000FFFF00FF000000FF00FF00FFFF0000FFFFFF0000000000000000000000000000000000000000000000000000000000000000000000000000000000000000000000000000000000000000000000000000000000000000000000000000000000000000
310
00000000000000000000000000000000000000000000000000000000000000000000000000000000000000000000000000000000000000000000000000000000000000000000000000000000000000000000000000000000000000000000000000000000000000000000000000000000000000000000000000000000000000
310
00000000000000000000000000000000000000000000000000000000000000000000000000000000000000000000000000000000000000000000000000000000000000000000000000000000000000000000000000000000000000000000000000000000000000000000000000000000000000000000000000000000000000
310
000000000000FDFDFDFDFDFDFDFDFDFDFDFD0000FD0000000000000000000000000000000000FD0000FA0000000000FA00FD0000FDFD00000000000000000000000000000000FD0000FA0000000000FA00FD0000FDFDFD000000000000000000000000000000FD0000FA0000000000FA00FD0000FDFDFDFD00000000000000
310
00000000000000FD0000FAFAFAFAFAFAFA00FD0000FDFDFDFDFD00000000000000000000000000FD000000FA00000000FA00FD0000FDFDFDFDFDFDFDFDFDFDFDFDFDFDFDFDFDFDFD000000FA000000FA0000FD0000FDFDFDFDFD00000000000000000000000000FD00000000FA0000FA0000FD0000FDFDFDFD000000000000
310
0000000000000000FD00000000FA00FA000000FD0000FDFD00000000000000000000000000000000FD0000000000FAFA000000FD0000FD0000000000000000000000000000000000FD0000000000FA00000000FD0000000000000000000000000000000000000000FDFDFDFDFDFDFDFDFDFDFDFD0000000000000000000000
310
00000000000000000000000000000000000000000000000000000000000000000000000000000000000000000000000000000000000000000000000000000000000000000000000000000000000000000000000000000000000000000000000000000000000000000000000000000000000000000000000000000000000000
310
00000000000000000000000000000000000000000000000000000000000000000000000000000000000000000000000000000000000000000000000000000000000000000000000000000000000000000000000000000000000000000000000000000000000000000000000000000000000000000000000000000000000000
310
0000000000000000000000000000000000000000000000000000000000000000000000000000000000000000000000000000000000000000
102
{BLKREFS
331
9E4C
102
}
  0
BLOCK_RECORD
  5
9DA1
330
1
100
AcDbSymbolTableRecord
100
AcDbBlockTableRecord
  2
*D4
340
0
  0
BLOCK_RECORD
  5
9DAE
330
1
100
AcDbSymbolTableRecord
100
AcDbBlockTableRecord
  2
*D5
340
0
  0
BLOCK_RECORD
  5
9DBB
330
1
100
AcDbSymbolTableRecord
100
AcDbBlockTableRecord
  2
*D6
340
0
  0
BLOCK_RECORD
  5
9DCB
330
1
100
AcDbSymbolTableRecord
100
AcDbBlockTableRecord
  2
*D7
340
0
  0
BLOCK_RECORD
  5
9DD8
330
1
100
AcDbSymbolTableRecord
100
AcDbBlockTableRecord
  2
*D8
340
0
  0
BLOCK_RECORD
  5
9E16
330
1
100
AcDbSymbolTableRecord
100
AcDbBlockTableRecord
  2
*D9
340
0
  0
BLOCK_RECORD
  5
9E25
330
1
100
AcDbSymbolTableRecord
100
AcDbBlockTableRecord
  2
*D10
340
0
  0
BLOCK_RECORD
  5
9E3C
330
1
100
AcDbSymbolTableRecord
100
AcDbBlockTableRecord
  2
*D11
340
0
  0
BLOCK_RECORD
  5
9E52
330
1
100
AcDbSymbolTableRecord
100
AcDbBlockTableRecord
  2
*D12
340
0
  0
BLOCK_RECORD
  5
9E64
330
1
100
AcDbSymbolTableRecord
100
AcDbBlockTableRecord
  2
*D13
340
0
  0
BLOCK_RECORD
  5
9E76
330
1
100
AcDbSymbolTableRecord
100
AcDbBlockTableRecord
  2
*D14
340
0
  0
ENDTAB
  0
ENDSEC
  0
SECTION
  2
BLOCKS
  0
BLOCK
  5
19
330
18
100
AcDbEntity
  8
0
100
AcDbBlockBegin
  2
*MODEL_SPACE
 70
     0
 10
0.0
 20
0.0
 30
0.0
  3
*MODEL_SPACE
  1

  0
ENDBLK
  5
1A
330
18
100
AcDbEntity
  8
0
100
AcDbBlockEnd
  0
BLOCK
  5
16
330
15
100
AcDbEntity
 67
     1
  8
0
100
AcDbBlockBegin
  2
*PAPER_SPACE
 70
     0
 10
0.0
 20
0.0
 30
0.0
  3
*PAPER_SPACE
  1

  0
ENDBLK
  5
17
330
15
100
AcDbEntity
 67
     1
  8
0
100
AcDbBlockEnd
  0
BLOCK
  5
63A1
330
639D
100
AcDbEntity
  8
0
100
AcDbBlockBegin
  2
A$C255C26A2
 70
     0
 10
0.0
 20
0.0
 30
0.0
  3
A$C255C26A2
  1

  0
LWPOLYLINE
  5
639E
330
639D
100
AcDbEntity
  8
0
100
AcDbPolyline
 90
        3
 70
     1
 43
0.0
 10
7.014806023851633
 20
0.0000006939811783
 10
5.611844869720698
 20
2.430000693981241
 10
8.417767177982568
 20
2.430000693981241
  0
LWPOLYLINE
  5
639F
330
639D
100
AcDbEntity
  8
0
100
AcDbPolyline
 90
        3
 70
     1
 43
0.0
 10
4.20888371558999
 20
0.0000006939811783
 10
2.805922561459283
 20
2.430000693981241
 10
5.611844869720698
 20
2.430000693981241
  0
LWPOLYLINE
  5
63A0
330
639D
100
AcDbEntity
  8
0
100
AcDbPolyline
 90
        3
 70
     1
 43
0.0
 10
1.402961407328348
 20
0.0000006939811783
 10
0.0000002531974133
 20
2.430000693981241
 10
2.805922561459283
 20
2.430000693981241
  0
ENDBLK
  5
63A2
330
639D
100
AcDbEntity
  8
0
100
AcDbBlockEnd
  0
BLOCK
  5
8FE3
330
8FE2
100
AcDbEntity
  8
0
100
AcDbBlockBegin
  2
_DOTSMALL
 70
     0
 10
0.0
 20
0.0
 30
0.0
  3
_DOTSMALL
  1

  0
LWPOLYLINE
  5
8FE4
330
8FE2
100
AcDbEntity
  8
0
  6
ByBlock
 62
     0
100
AcDbPolyline
 90
        2
 70
     1
 43
0.5
 10
-0.0625
 20
0.0
 42
1.0
 10
0.0625
 20
0.0
 42
1.0
  0
ENDBLK
  5
8FE8
330
8FE2
100
AcDbEntity
  8
0
100
AcDbBlockEnd
  0
BLOCK
  5
9027
330
9026
100
AcDbEntity
  8
0
100
AcDbBlockBegin
  2
_Open30
 70
     0
 10
0.0
 20
0.0
 30
0.0
  3
_Open30
  1

  0
LINE
  5
9028
330
9026
100
AcDbEntity
  8
0
  6
ByBlock
 62
     0
370
    -2
100
AcDbLine
 10
-1.0
 20
0.26794919
 30
0.0
 11
0.0
 21
0.0
 31
0.0
  0
LINE
  5
9029
330
9026
100
AcDbEntity
  8
0
  6
ByBlock
 62
     0
370
    -2
100
AcDbLine
 10
0.0
 20
0.0
 30
0.0
 11
-1.0
 21
-0.26794919
 31
0.0
  0
LINE
  5
902A
330
9026
100
AcDbEntity
  8
0
  6
ByBlock
 62
     0
370
    -2
100
AcDbLine
 10
0.0
 20
0.0
 30
0.0
 11
-1.0
 21
0.0
 31
0.0
  0
ENDBLK
  5
902B
330
9026
100
AcDbEntity
  8
0
100
AcDbBlockEnd
  0
BLOCK
  5
9030
330
902C
100
AcDbEntity
  8
0
100
AcDbBlockBegin
  2
A
 70
     0
 10
0.0
 20
0.0
 30
0.0
  3
A
  1

  0
MTEXT
  5
9031
330
902C
100
AcDbEntity
  8
mark
 62
     3
100
AcDbMText
 10
10.65641897020822
 20
-5.596245361730467
 30
0.0
 40
2.5
 41
0.0
 71
     5
 72
     1
  1
A
 73
     1
 44
1.0
1001
ACAD
1000
ACAD_MTEXT_DEFINED_HEIGHT_BEGIN
1070
    46
1040
0.0
1000
ACAD_MTEXT_DEFINED_HEIGHT_END
1000
MTEXTBEGIN
1070
    73
1070
     1
1070
    44
1040
1.0
1070
    74
1070
     0
1000
MTEXTEND
  0
LWPOLYLINE
  5
9032
330
902C
100
AcDbEntity
  8
mark
100
AcDbPolyline
 90
        4
 70
     1
 43
0.0
 10
9.07926800414657
 20
-7.141145101782569
 10
12.07926800414657
 20
-7.141145101782569
 10
12.07926800414657
 20
-4.141145101782569
 10
9.07926800414657
 20
-4.141145101782569
  0
HATCH
  5
9033
330
902C
100
AcDbEntity
  8
mark
100
AcDbHatch
 10
0.0
 20
0.0
 30
0.0
210
0.0
220
0.0
230
1.0
  2
SOLID
 70
     1
 71
     0
 91
        1
 92
        7
 72
     0
 73
     1
 93
        3
 10
5.32926800414657
 20
-5.641145101782569
 10
4.07926800414657
 20
-4.391145101782541
 10
4.07926800414657
 20
-6.891145101782541
 97
        0
 75
     0
 76
     1
 47
0.0398277943677868
 98
        1
 10
4.589689734415287
 20
-5.732163331855076
1001
ACAD
1010
0.0
1020
0.0
1030
0.0
  0
LINE
  5
9034
330
902C
100
AcDbEntity
  8
mark
100
AcDbLine
 10
5.32926800414657
 20
-5.641145101782569
 30
0.0
 11
9.07926800414657
 21
-5.641145101782569
 31
0.0
  0
LINE
  5
9035
330
902C
100
AcDbEntity
  8
mark
100
AcDbLine
 10
5.32926800414657
 20
-5.641145101782569
 30
0.0
 11
4.07926800414657
 21
-4.391145101782569
 31
0.0
  0
LINE
  5
9036
330
902C
100
AcDbEntity
  8
mark
100
AcDbLine
 10
5.32926800414657
 20
-5.641145101782569
 30
0.0
 11
4.07926800414657
 21
-6.891145101782569
 31
0.0
  0
ENDBLK
  5
9037
330
902C
100
AcDbEntity
  8
0
100
AcDbBlockEnd
  0
BLOCK
  5
9DAB
330
9DA1
100
AcDbEntity
  8
0
100
AcDbBlockBegin
  2
*D4
 70
     1
 10
0.0
 20
0.0
 30
0.0
  3
*D4
  1

  0
LINE
  5
A204
330
9DA1
100
AcDbEntity
  8
mark
370
    -2
100
AcDbLine
 10
139.5
 20
204.9889749187034
 30
0.0
 11
139.5
 21
220.84542322738
 31
0.0
  0
LINE
  5
A205
330
9DA1
100
AcDbEntity
  8
mark
370
    -2
100
AcDbLine
 10
240.5
 20
204.9889749187034
 30
0.0
 11
240.5
 21
220.84542322738
 31
0.0
  0
LINE
  5
A206
330
9DA1
100
AcDbEntity
  8
mark
370
    -2
100
AcDbLine
 10
144.5
 20
219.14542322738
 30
0.0
 11
235.5
 21
219.14542322738
 31
0.0
  0
INSERT
  5
A207
330
9DA1
100
AcDbEntity
  8
mark
370
    -2
100
AcDbBlockReference
  2
_Open30
 10
139.5
 20
219.14542322738
 30
0.0
 41
5.0
 42
5.0
 43
5.0
 50
180.0
  0
INSERT
  5
A208
330
9DA1
100
AcDbEntity
  8
mark
370
    -2
100
AcDbBlockReference
  2
_Open30
 10
240.5
 20
219.14542322738
 30
0.0
 41
5.0
 42
5.0
 43
5.0
  0
MTEXT
  5
A209
330
9DA1
100
AcDbEntity
  8
mark
 62
     3
100
AcDbMText
 10
190.0
 20
223.34542322738
 30
0.0
 40
5.0
 41
0.0
 71
     5
 72
     1
  1
\A1;%%c101
 73
     1
 44
1.0
1001
ACAD
1000
MTEXTBEGIN
1070
    73
1070
     1
1070
    44
1040
1.0
1070
    74
1070
     0
1000
MTEXTEND
  0
POINT
  5
A20A
330
9DA1
100
AcDbEntity
  8
DEFPOINTS
 62
     0
100
AcDbPoint
 10
139.5
 20
203.2889749187034
 30
0.0
  0
POINT
  5
A20B
330
9DA1
100
AcDbEntity
  8
DEFPOINTS
 62
     0
100
AcDbPoint
 10
240.5
 20
203.2889749187034
 30
0.0
  0
POINT
  5
A20C
330
9DA1
100
AcDbEntity
  8
DEFPOINTS
 62
     0
100
AcDbPoint
 10
240.5
 20
219.14542322738
 30
0.0
  0
ENDBLK
  5
9DAC
330
9DA1
100
AcDbEntity
  8
0
100
AcDbBlockEnd
  0
BLOCK
  5
9DB8
330
9DAE
100
AcDbEntity
  8
0
100
AcDbBlockBegin
  2
*D5
 70
     1
 10
0.0
 20
0.0
 30
0.0
  3
*D5
  1

  0
LINE
  5
A20D
330
9DAE
100
AcDbEntity
  8
mark
370
    -2
100
AcDbLine
 10
131.0
 20
204.9889749187034
 30
0.0
 11
131.0
 21
232.883732304391
 31
0.0
  0
LINE
  5
A20E
330
9DAE
100
AcDbEntity
  8
mark
370
    -2
100
AcDbLine
 10
249.0
 20
204.9889749187034
 30
0.0
 11
249.0
 21
232.883732304391
 31
0.0
  0
LINE
  5
A20F
330
9DAE
100
AcDbEntity
  8
mark
370
    -2
100
AcDbLine
 10
136.0
 20
231.183732304391
 30
0.0
 11
244.0
 21
231.183732304391
 31
0.0
  0
INSERT
  5
A210
330
9DAE
100
AcDbEntity
  8
mark
370
    -2
100
AcDbBlockReference
  2
_Open30
 10
131.0
 20
231.183732304391
 30
0.0
 41
5.0
 42
5.0
 43
5.0
 50
180.0
  0
INSERT
  5
A211
330
9DAE
100
AcDbEntity
  8
mark
370
    -2
100
AcDbBlockReference
  2
_Open30
 10
249.0
 20
231.183732304391
 30
0.0
 41
5.0
 42
5.0
 43
5.0
  0
MTEXT
  5
A212
330
9DAE
100
AcDbEntity
  8
mark
 62
     3
100
AcDbMText
 10
190.0
 20
235.383732304391
 30
0.0
 40
5.0
 41
0.0
 71
     5
 72
     1
  1
\A1;%%c118%%p0.5
 73
     1
 44
1.0
1001
ACAD
1000
MTEXTBEGIN
1070
    73
1070
     1
1070
    44
1040
1.0
1070
    74
1070
     0
1000
MTEXTEND
  0
POINT
  5
A213
330
9DAE
100
AcDbEntity
  8
DEFPOINTS
 62
     0
100
AcDbPoint
 10
131.0
 20
203.2889749187034
 30
0.0
  0
POINT
  5
A214
330
9DAE
100
AcDbEntity
  8
DEFPOINTS
 62
     0
100
AcDbPoint
 10
249.0
 20
203.2889749187034
 30
0.0
  0
POINT
  5
A215
330
9DAE
100
AcDbEntity
  8
DEFPOINTS
 62
     0
100
AcDbPoint
 10
249.0
 20
231.183732304391
 30
0.0
  0
ENDBLK
  5
9DB9
330
9DAE
100
AcDbEntity
  8
0
100
AcDbBlockEnd
  0
BLOCK
  5
9DC5
330
9DBB
100
AcDbEntity
  8
0
100
AcDbBlockBegin
  2
*D6
 70
     1
 10
0.0
 20
0.0
 30
0.0
  3
*D6
  1

  0
LINE
  5
A216
330
9DBB
100
AcDbEntity
  8
mark
370
    -2
100
AcDbLine
 10
126.0
 20
202.4889749187034
 30
0.0
 11
126.0
 21
244.6659084263485
 31
0.0
  0
LINE
  5
A217
330
9DBB
100
AcDbEntity
  8
mark
370
    -2
100
AcDbLine
 10
254.0
 20
202.4889749187034
 30
0.0
 11
254.0
 21
244.6659084263485
 31
0.0
  0
LINE
  5
A218
330
9DBB
100
AcDbEntity
  8
mark
370
    -2
100
AcDbLine
 10
131.0
 20
242.9659084263485
 30
0.0
 11
249.0
 21
242.9659084263485
 31
0.0
  0
INSERT
  5
A219
330
9DBB
100
AcDbEntity
  8
mark
370
    -2
100
AcDbBlockReference
  2
_Open30
 10
126.0
 20
242.9659084263485
 30
0.0
 41
5.0
 42
5.0
 43
5.0
 50
180.0
  0
INSERT
  5
A21A
330
9DBB
100
AcDbEntity
  8
mark
370
    -2
100
AcDbBlockReference
  2
_Open30
 10
254.0
 20
242.9659084263485
 30
0.0
 41
5.0
 42
5.0
 43
5.0
  0
MTEXT
  5
A21B
330
9DBB
100
AcDbEntity
  8
mark
 62
     3
100
AcDbMText
 10
190.0
 20
247.1659084263485
 30
0.0
 40
5.0
 41
0.0
 71
     5
 72
     1
  1
\A1;%%c128
 73
     1
 44
1.0
1001
ACAD
1000
MTEXTBEGIN
1070
    73
1070
     1
1070
    44
1040
1.0
1070
    74
1070
     0
1000
MTEXTEND
  0
POINT
  5
A21C
330
9DBB
100
AcDbEntity
  8
DEFPOINTS
 62
     0
100
AcDbPoint
 10
126.0
 20
200.7889749187034
 30
0.0
  0
POINT
  5
A21D
330
9DBB
100
AcDbEntity
  8
DEFPOINTS
 62
     0
100
AcDbPoint
 10
254.0
 20
200.7889749187034
 30
0.0
  0
POINT
  5
A21E
330
9DBB
100
AcDbEntity
  8
DEFPOINTS
 62
     0
100
AcDbPoint
 10
254.0
 20
242.9659084263485
 30
0.0
  0
ENDBLK
  5
9DC6
330
9DBB
100
AcDbEntity
  8
0
100
AcDbBlockEnd
  0
BLOCK
  5
9DD5
330
9DCB
100
AcDbEntity
  8
0
100
AcDbBlockBegin
  2
*D7
 70
     1
 10
0.0
 20
0.0
 30
0.0
  3
*D7
  1

  0
LINE
  5
A21F
330
9DCB
100
AcDbEntity
  8
mark
370
    -2
100
AcDbLine
 10
140.0
 20
182.5064749187034
 30
0.0
 11
140.0
 21
161.0389864291936
 31
0.0
  0
LINE
  5
A220
330
9DCB
100
AcDbEntity
  8
mark
370
    -2
100
AcDbLine
 10
240.0
 20
182.5064749187044
 30
0.0
 11
240.0
 21
161.0389864291936
 31
0.0
  0
LINE
  5
A221
330
9DCB
100
AcDbEntity
  8
mark
370
    -2
100
AcDbLine
 10
145.0
 20
162.7389864291935
 30
0.0
 11
235.0
 21
162.7389864291935
 31
0.0
  0
INSERT
  5
A222
330
9DCB
100
AcDbEntity
  8
mark
370
    -2
100
AcDbBlockReference
  2
_Open30
 10
140.0
 20
162.7389864291935
 30
0.0
 41
5.0
 42
5.0
 43
5.0
 50
180.0
  0
INSERT
  5
A223
330
9DCB
100
AcDbEntity
  8
mark
370
    -2
100
AcDbBlockReference
  2
_Open30
 10
240.0
 20
162.7389864291935
 30
0.0
 41
5.0
 42
5.0
 43
5.0
  0
MTEXT
  5
A224
330
9DCB
100
AcDbEntity
  8
mark
 62
     3
100
AcDbMText
 10
190.0
 20
166.9389864291935
 30
0.0
 40
5.0
 41
0.0
 71
     5
 72
     1
  1
\A1;M100X2.0P
 73
     1
 44
1.0
1001
ACAD
1000
MTEXTBEGIN
1070
    73
1070
     1
1070
    44
1040
1.0
1070
    74
1070
     0
1000
MTEXTEND
  0
POINT
  5
A225
330
9DCB
100
AcDbEntity
  8
DEFPOINTS
 62
     0
100
AcDbPoint
 10
140.0
 20
184.2064749187034
 30
0.0
  0
POINT
  5
A226
330
9DCB
100
AcDbEntity
  8
DEFPOINTS
 62
     0
100
AcDbPoint
 10
240.0
 20
184.2064749187044
 30
0.0
  0
POINT
  5
A227
330
9DCB
100
AcDbEntity
  8
DEFPOINTS
 62
     0
100
AcDbPoint
 10
240.0
 20
162.7389864291935
 30
0.0
  0
ENDBLK
  5
9DD6
330
9DCB
100
AcDbEntity
  8
0
100
AcDbBlockEnd
  0
BLOCK
  5
9DE4
330
9DD8
100
AcDbEntity
  8
0
100
AcDbBlockBegin
  2
*D8
 70
     1
 10
0.0
 20
0.0
 30
0.0
  3
*D8
  1

  0
LINE
  5
A228
330
9DD8
100
AcDbEntity
  8
mark
370
    -2
100
AcDbLine
 10
126.3
 20
202.7889749187034
 30
0.0
 11
109.9520411695555
 21
202.7889749187034
 31
0.0
  0
LINE
  5
A229
330
9DD8
100
AcDbEntity
  8
mark
370
    -2
100
AcDbLine
 10
129.3
 20
203.2889749187034
 30
0.0
 11
109.9520411695555
 21
203.2889749187034
 31
0.0
  0
LINE
  5
A22A
330
9DD8
100
AcDbEntity
  8
mark
370
    -2
100
AcDbLine
 10
111.6520411695555
 20
197.7889749187034
 30
0.0
 11
111.6520411695555
 21
192.7889749187034
 31
0.0
  0
LINE
  5
A22B
330
9DD8
100
AcDbEntity
  8
mark
370
    -2
100
AcDbLine
 10
111.6520411695555
 20
208.2889749187034
 30
0.0
 11
111.6520411695556
 21
225.85564158537
 31
0.0
  0
LINE
  5
A22C
330
9DD8
100
AcDbEntity
  8
mark
370
    -2
100
AcDbLine
 10
111.6520411695555
 20
202.7889749187034
 30
0.0
 11
111.6520411695555
 21
203.2889749187034
 31
0.0
  0
INSERT
  5
A22D
330
9DD8
100
AcDbEntity
  8
mark
370
    -2
100
AcDbBlockReference
  2
_Open30
 10
111.6520411695555
 20
202.7889749187034
 30
0.0
 41
5.0
 42
5.0
 43
5.0
 50
90.0
  0
INSERT
  5
A22E
330
9DD8
100
AcDbEntity
  8
mark
370
    -2
100
AcDbBlockReference
  2
_Open30
 10
111.6520411695555
 20
203.2889749187034
 30
0.0
 41
5.0
 42
5.0
 43
5.0
 50
270.0
  0
MTEXT
  5
A22F
330
9DD8
100
AcDbEntity
  8
mark
 62
     3
100
AcDbMText
 10
107.4520411695555
 20
219.5723082520367
 30
0.0
 40
5.0
 41
0.0
 71
     5
 72
     1
  1
\A1;0.5
 11
0.0000000000000001
 21
1.0
 31
0.0
 73
     1
 44
1.0
1001
ACAD
1000
MTEXTBEGIN
1070
    73
1070
     1
1070
    44
1040
1.0
1070
    74
1070
     0
1000
MTEXTEND
  0
POINT
  5
A230
330
9DD8
100
AcDbEntity
  8
DEFPOINTS
 62
     0
100
AcDbPoint
 10
128.0
 20
202.7889749187034
 30
0.0
  0
POINT
  5
A231
330
9DD8
100
AcDbEntity
  8
DEFPOINTS
 62
     0
100
AcDbPoint
 10
131.0
 20
203.2889749187034
 30
0.0
  0
POINT
  5
A232
330
9DD8
100
AcDbEntity
  8
DEFPOINTS
 62
     0
100
AcDbPoint
 10
111.6520411695555
 20
203.2889749187034
 30
0.0
  0
ENDBLK
  5
9DE5
330
9DD8
100
AcDbEntity
  8
0
100
AcDbBlockEnd
  0
BLOCK
  5
9E22
330
9E16
100
AcDbEntity
  8
0
100
AcDbBlockBegin
  2
*D9
 70
     1
 10
0.0
 20
0.0
 30
0.0
  3
*D9
  1

  0
LINE
  5
A233
330
9E16
100
AcDbEntity
  8
mark
370
    -2
100
AcDbLine
 10
250.7
 20
203.2889749187034
 30
0.0
 11
270.2538712025695
 21
203.2889749187034
 31
0.0
  0
LINE
  5
A234
330
9E16
100
AcDbEntity
  8
mark
370
    -2
100
AcDbLine
 10
257.7
 20
193.2889749187033
 30
0.0
 11
270.2538712025695
 21
193.2889749187033
 31
0.0
  0
LINE
  5
A235
330
9E16
100
AcDbEntity
  8
mark
370
    -2
100
AcDbLine
 10
268.5538712025695
 20
208.2889749187034
 30
0.0
 11
268.5538712025695
 21
213.2889749187034
 31
0.0
  0
LINE
  5
A236
330
9E16
100
AcDbEntity
  8
mark
370
    -2
100
AcDbLine
 10
268.5538712025695
 20
188.2889749187034
 30
0.0
 11
268.5538712025695
 21
183.2889749187034
 31
0.0
  0
LINE
  5
A237
330
9E16
100
AcDbEntity
  8
mark
370
    -2
100
AcDbLine
 10
268.5538712025695
 20
203.2889749187034
 30
0.0
 11
268.5538712025695
 21
193.2889749187033
 31
0.0
  0
INSERT
  5
A238
330
9E16
100
AcDbEntity
  8
mark
370
    -2
100
AcDbBlockReference
  2
_Open30
 10
268.5538712025695
 20
203.2889749187034
 30
0.0
 41
5.0
 42
5.0
 43
5.0
 50
270.0
  0
INSERT
  5
A239
330
9E16
100
AcDbEntity
  8
mark
370
    -2
100
AcDbBlockReference
  2
_Open30
 10
268.5538712025695
 20
193.2889749187033
 30
0.0
 41
5.0
 42
5.0
 43
5.0
 50
90.0
  0
MTEXT
  5
A23A
330
9E16
100
AcDbEntity
  8
mark
 62
     3
100
AcDbMText
 10
264.3538712025695
 20
198.2889749187034
 30
0.0
 40
5.0
 41
0.0
 71
     5
 72
     1
  1
\A1;10
 11
0.0000000000000001
 21
1.0
 31
0.0
 73
     1
 44
1.0
1001
ACAD
1000
MTEXTBEGIN
1070
    73
1070
     1
1070
    44
1040
1.0
1070
    74
1070
     0
1000
MTEXTEND
  0
POINT
  5
A23B
330
9E16
100
AcDbEntity
  8
DEFPOINTS
 62
     0
100
AcDbPoint
 10
249.0
 20
203.2889749187034
 30
0.0
  0
POINT
  5
A23C
330
9E16
100
AcDbEntity
  8
DEFPOINTS
 62
     0
100
AcDbPoint
 10
256.0
 20
193.2889749187033
 30
0.0
  0
POINT
  5
A23D
330
9E16
100
AcDbEntity
  8
DEFPOINTS
 62
     0
100
AcDbPoint
 10
268.5538712025695
 20
193.2889749187033
 30
0.0
  0
ENDBLK
  5
9E23
330
9E16
100
AcDbEntity
  8
0
100
AcDbBlockEnd
  0
BLOCK
  5
9E30
330
9E25
100
AcDbEntity
  8
0
100
AcDbBlockBegin
  2
*D10
 70
     1
 10
0.0
 20
0.0
 30
0.0
  3
*D10
  1

  0
LINE
  5
A23E
330
9E25
100
AcDbEntity
  8
mark
370
    -2
100
AcDbLine
 10
250.7
 20
203.2889749187034
 30
0.0
 11
288.7805900267874
 21
203.2889749187034
 31
0.0
  0
LINE
  5
A23F
330
9E25
100
AcDbEntity
  8
mark
370
    -2
100
AcDbLine
 10
253.7
 20
183.2889749187034
 30
0.0
 11
288.7805900267874
 21
183.2889749187034
 31
0.0
  0
LINE
  5
A240
330
9E25
100
AcDbEntity
  8
mark
370
    -2
100
AcDbLine
 10
287.0805900267874
 20
198.2889749187034
 30
0.0
 11
287.0805900267874
 21
188.2889749187034
 31
0.0
  0
INSERT
  5
A241
330
9E25
100
AcDbEntity
  8
mark
370
    -2
100
AcDbBlockReference
  2
_Open30
 10
287.0805900267874
 20
203.2889749187034
 30
0.0
 41
5.0
 42
5.0
 43
5.0
 50
90.0
  0
INSERT
  5
A242
330
9E25
100
AcDbEntity
  8
mark
370
    -2
100
AcDbBlockReference
  2
_Open30
 10
287.0805900267874
 20
183.2889749187034
 30
0.0
 41
5.0
 42
5.0
 43
5.0
 50
270.0
  0
MTEXT
  5
A243
330
9E25
100
AcDbEntity
  8
mark
 62
     3
100
AcDbMText
 10
282.8805900267874
 20
193.2889749187034
 30
0.0
 40
5.0
 41
0.0
 71
     5
 72
     1
  1
\A1;20%%P0.2
 11
0.0000000000000001
 21
1.0
 31
0.0
 73
     1
 44
1.0
1001
ACAD
1000
MTEXTBEGIN
1070
    73
1070
     1
1070
    44
1040
1.0
1070
    74
1070
     0
1000
MTEXTEND
  0
POINT
  5
A244
330
9E25
100
AcDbEntity
  8
DEFPOINTS
 62
     0
100
AcDbPoint
 10
249.0
 20
203.2889749187034
 30
0.0
  0
POINT
  5
A245
330
9E25
100
AcDbEntity
  8
DEFPOINTS
 62
     0
100
AcDbPoint
 10
252.0
 20
183.2889749187034
 30
0.0
  0
POINT
  5
A246
330
9E25
100
AcDbEntity
  8
DEFPOINTS
 62
     0
100
AcDbPoint
 10
287.0805900267874
 20
183.2889749187034
 30
0.0
  0
ENDBLK
  5
9E31
330
9E25
100
AcDbEntity
  8
0
100
AcDbBlockEnd
  0
BLOCK
  5
9E43
330
9E3C
100
AcDbEntity
  8
0
100
AcDbBlockBegin
  2
*D11
 70
     1
 10
0.0
 20
0.0
 30
0.0
  3
*D11
  1

  0
LINE
  5
A247
330
9E3C
100
AcDbEntity
  8
mark
370
    -2
100
AcDbLine
 10
104.146931247972
 20
161.4359061666791
 30
0.0
 11
123.050252531694
 21
180.3392274503979
 31
0.0
  0
MTEXT
  5
A248
330
9E3C
100
AcDbEntity
  8
mark
 62
     3
100
AcDbMText
 10
108.8609764558832
 20
172.089648336556
 30
0.0
 40
5.0
 41
0.0
 71
     5
 72
     1
  1
\A1;2-R2
 11
0.7071067811866048
 21
0.7071067811864903
 31
0.0
 73
     1
 44
1.0
1001
ACAD
1000
MTEXTBEGIN
1070
    73
1070
     1
1070
    44
1040
1.0
1070
    74
1070
     0
1000
MTEXTEND
  0
LINE
  5
A249
330
9E3C
100
AcDbEntity
  8
mark
370
    -2
100
AcDbLine
 10
128.0000000000002
 20
185.2889749187033
 30
0.0
 11
126.585786437627
 21
183.8747613563303
 31
0.0
  0
INSERT
  5
A24A
330
9E3C
100
AcDbEntity
  8
mark
370
    -2
100
AcDbBlockReference
  2
_Open30
 10
126.585786437627
 20
183.8747613563303
 30
0.0
 41
5.0
 42
5.0
 43
5.0
 50
44.99999999999536
  0
POINT
  5
A24B
330
9E3C
100
AcDbEntity
  8
DEFPOINTS
 62
     0
100
AcDbPoint
 10
126.585786437627
 20
183.8747613563303
 30
0.0
  0
POINT
  5
A24C
330
9E3C
100
AcDbEntity
  8
DEFPOINTS
 62
     0
100
AcDbPoint
 10
128.0000000000002
 20
185.2889749187033
 30
0.0
  0
ENDBLK
  5
9E44
330
9E3C
100
AcDbEntity
  8
0
100
AcDbBlockEnd
  0
BLOCK
  5
9E5E
330
9E52
100
AcDbEntity
  8
0
100
AcDbBlockBegin
  2
*D12
 70
     1
 10
0.0
 20
0.0
 30
0.0
  3
*D12
  1

  0
LINE
  5
A24D
330
9E52
100
AcDbEntity
  8
mark
370
    -2
100
AcDbLine
 10
124.4956114362029
 20
348.8933909875332
 30
0.0
 11
109.9520411695555
 21
348.8933909875332
 31
0.0
  0
LINE
  5
A24E
330
9E52
100
AcDbEntity
  8
mark
370
    -2
100
AcDbLine
 10
124.4956114362029
 20
338.8933909875332
 30
0.0
 11
109.9520411695555
 21
338.8933909875332
 31
0.0
  0
LINE
  5
A24F
330
9E52
100
AcDbEntity
  8
mark
370
    -2
100
AcDbLine
 10
111.6520411695556
 20
353.8933909875332
 30
0.0
 11
111.6520411695556
 21
358.8933909875332
 31
0.0
  0
LINE
  5
A250
330
9E52
100
AcDbEntity
  8
mark
370
    -2
100
AcDbLine
 10
111.6520411695555
 20
333.8933909875332
 30
0.0
 11
111.6520411695555
 21
328.8933909875332
 31
0.0
  0
LINE
  5
A251
330
9E52
100
AcDbEntity
  8
mark
370
    -2
100
AcDbLine
 10
111.6520411695555
 20
348.8933909875332
 30
0.0
 11
111.6520411695555
 21
338.8933909875332
 31
0.0
  0
INSERT
  5
A252
330
9E52
100
AcDbEntity
  8
mark
370
    -2
100
AcDbBlockReference
  2
_Open30
 10
111.6520411695555
 20
348.8933909875332
 30
0.0
 41
5.0
 42
5.0
 43
5.0
 50
270.0
  0
INSERT
  5
A253
330
9E52
100
AcDbEntity
  8
mark
370
    -2
100
AcDbBlockReference
  2
_Open30
 10
111.6520411695555
 20
338.8933909875332
 30
0.0
 41
5.0
 42
5.0
 43
5.0
 50
90.0
  0
MTEXT
  5
A254
330
9E52
100
AcDbEntity
  8
mark
 62
     3
100
AcDbMText
 10
107.4520411695555
 20
343.8933909875331
 30
0.0
 40
5.0
 41
0.0
 71
     5
 72
     1
  1
\A1;10
 11
0.0000000000000001
 21
1.0
 31
0.0
 73
     1
 44
1.0
1001
ACAD
1000
MTEXTBEGIN
1070
    73
1070
     1
1070
    44
1040
1.0
1070
    74
1070
     0
1000
MTEXTEND
  0
POINT
  5
A255
330
9E52
100
AcDbEntity
  8
DEFPOINTS
 62
     0
100
AcDbPoint
 10
126.1956114362029
 20
348.8933909875332
 30
0.0
  0
POINT
  5
A256
330
9E52
100
AcDbEntity
  8
DEFPOINTS
 62
     0
100
AcDbPoint
 10
126.1956114362029
 20
338.8933909875332
 30
0.0
  0
POINT
  5
A257
330
9E52
100
AcDbEntity
  8
DEFPOINTS
 62
     0
100
AcDbPoint
 10
111.6520411695555
 20
338.8933909875332
 30
0.0
  0
ENDBLK
  5
9E5F
330
9E52
100
AcDbEntity
  8
0
100
AcDbBlockEnd
  0
BLOCK
  5
9E70
330
9E64
100
AcDbEntity
  8
0
100
AcDbBlockBegin
  2
*D13
 70
     1
 10
0.0
 20
0.0
 30
0.0
  3
*D13
  1

  0
LINE
  5
A258
330
9E64
100
AcDbEntity
  8
mark
370
    -2
100
AcDbLine
 10
130.1956114362028
 20
337.1933909875332
 30
0.0
 11
130.1956114362028
 21
270.7483972112726
 31
0.0
  0
LINE
  5
A259
330
9E64
100
AcDbEntity
  8
mark
370
    -2
100
AcDbLine
 10
126.1956114362029
 20
337.1933909875332
 30
0.0
 11
126.1956114362029
 21
270.7483972112726
 31
0.0
  0
LINE
  5
A25A
330
9E64
100
AcDbEntity
  8
mark
370
    -2
100
AcDbLine
 10
135.1956114362028
 20
272.4483972112726
 30
0.0
 11
140.1956114362028
 21
272.4483972112726
 31
0.0
  0
LINE
  5
A25B
330
9E64
100
AcDbEntity
  8
mark
370
    -2
100
AcDbLine
 10
121.1956114362029
 20
272.4483972112726
 30
0.0
 11
109.4622781028695
 21
272.4483972112726
 31
0.0
  0
LINE
  5
A25C
330
9E64
100
AcDbEntity
  8
mark
370
    -2
100
AcDbLine
 10
130.1956114362028
 20
272.4483972112726
 30
0.0
 11
126.1956114362029
 21
272.4483972112726
 31
0.0
  0
INSERT
  5
A25D
330
9E64
100
AcDbEntity
  8
mark
370
    -2
100
AcDbBlockReference
  2
_Open30
 10
130.1956114362028
 20
272.4483972112726
 30
0.0
 41
5.0
 42
5.0
 43
5.0
 50
180.0
  0
INSERT
  5
A25E
330
9E64
100
AcDbEntity
  8
mark
370
    -2
100
AcDbBlockReference
  2
_Open30
 10
126.1956114362029
 20
272.4483972112726
 30
0.0
 41
5.0
 42
5.0
 43
5.0
  0
MTEXT
  5
A25F
330
9E64
100
AcDbEntity
  8
mark
 62
     3
100
AcDbMText
 10
112.8289447695362
 20
276.6483972112725
 30
0.0
 40
5.0
 41
0.0
 71
     5
 72
     1
  1
\A1;4
 73
     1
 44
1.0
1001
ACAD
1000
MTEXTBEGIN
1070
    73
1070
     1
1070
    44
1040
1.0
1070
    74
1070
     0
1000
MTEXTEND
  0
POINT
  5
A260
330
9E64
100
AcDbEntity
  8
DEFPOINTS
 62
     0
100
AcDbPoint
 10
130.1956114362028
 20
338.8933909875332
 30
0.0
  0
POINT
  5
A261
330
9E64
100
AcDbEntity
  8
DEFPOINTS
 62
     0
100
AcDbPoint
 10
126.1956114362029
 20
338.8933909875332
 30
0.0
  0
POINT
  5
A262
330
9E64
100
AcDbEntity
  8
DEFPOINTS
 62
     0
100
AcDbPoint
 10
126.1956114362029
 20
272.4483972112726
 30
0.0
  0
ENDBLK
  5
9E71
330
9E64
100
AcDbEntity
  8
0
100
AcDbBlockEnd
  0
BLOCK
  5
9E80
330
9E76
100
AcDbEntity
  8
0
100
AcDbBlockBegin
  2
*D14
 70
     1
 10
0.0
 20
0.0
 30
0.0
  3
*D14
  1

  0
LINE
  5
A263
330
9E76
100
AcDbEntity
  8
mark
370
    -2
100
AcDbLine
 10
165.4712934609458
 20
208.2889749187034
 30
0.0
 11
165.4712934609458
 21
213.2889749187034
 31
0.0
  0
LINE
  5
A264
330
9E76
100
AcDbEntity
  8
mark
370
    -2
100
AcDbLine
 10
165.4712934609458
 20
196.2889749187034
 30
0.0
 11
165.4712934609458
 21
184.5556415853701
 31
0.0
  0
LINE
  5
A265
330
9E76
100
AcDbEntity
  8
mark
370
    -2
100
AcDbLine
 10
165.4712934609458
 20
203.2889749187034
 30
0.0
 11
165.4712934609458
 21
201.2889749187034
 31
0.0
  0
INSERT
  5
A266
330
9E76
100
AcDbEntity
  8
mark
370
    -2
100
AcDbBlockReference
  2
_Open30
 10
165.4712934609458
 20
203.2889749187034
 30
0.0
 41
5.0
 42
5.0
 43
5.0
 50
270.0
  0
INSERT
  5
A267
330
9E76
100
AcDbEntity
  8
mark
370
    -2
100
AcDbBlockReference
  2
_Open30
 10
165.4712934609458
 20
201.2889749187034
 30
0.0
 41
5.0
 42
5.0
 43
5.0
 50
90.0
  0
MTEXT
  5
A268
330
9E76
100
AcDbEntity
  8
mark
 62
     3
100
AcDbMText
 10
161.2712934609458
 20
187.9223082520367
 30
0.0
 40
5.0
 41
0.0
 71
     5
 72
     1
  1
\A1;2
 11
0.0000000000000001
 21
1.0
 31
0.0
 73
     1
 44
1.0
1001
ACAD
1000
MTEXTBEGIN
1070
    73
1070
     1
1070
    44
1040
1.0
1070
    74
1070
     0
1000
MTEXTEND
  0
POINT
  5
A269
330
9E76
100
AcDbEntity
  8
DEFPOINTS
 62
     0
100
AcDbPoint
 10
165.4712934609458
 20
203.2889749187034
 30
0.0
  0
POINT
  5
A26A
330
9E76
100
AcDbEntity
  8
DEFPOINTS
 62
     0
100
AcDbPoint
 10
165.4712934609458
 20
201.2889749187034
 30
0.0
  0
POINT
  5
A26B
330
9E76
100
AcDbEntity
  8
DEFPOINTS
 62
     0
100
AcDbPoint
 10
165.4712934609458
 20
201.2889749187034
 30
0.0
  0
ENDBLK
  5
9E81
330
9E76
100
AcDbEntity
  8
0
100
AcDbBlockEnd
  0
ENDSEC
  0
SECTION
  2
ENTITIES
  0
MTEXT
  5
C0
330
18
100
AcDbEntity
  8
0
100
AcDbMText
 10
41.26970765600413
 20
233.6950877649332
 30
0.0
 40
2.5
 41
0.0
 71
     1
 72
     5
  1

  7
ISOCP3
 73
     1
 44
1.0
1001
ACAD
1000
MTEXTBEGIN
1070
    73
1070
     1
1070
    44
1040
1.0
1070
    74
1070
     0
1000
MTEXTEND
  0
LWPOLYLINE
  5
918D
330
18
100
AcDbEntity
  8
frame
100
AcDbPolyline
 90
        4
 70
     1
 43
0.0
 10
380.0
 20
560.0000000000001
 10
0.0
 20
560.0000000000001
 10
0.0
 20
0.0
 10
380.0
 20
0.0
  0
MTEXT
  5
918E
330
18
100
AcDbEntity
  8
0
100
AcDbMText
 10
34.1990073737835
 20
38.15211803233228
 30
0.0
 40
9.0
 41
0.0
 71
     1
 72
     5
  1
{\Ftxt,bigfont|c128;林彦旭}
  7
JL
 73
     1
 44
1.0
1001
ACAD
1000
ACAD_MTEXT_DEFINED_HEIGHT_BEGIN
1070
    46
1040
0.0
1000
ACAD_MTEXT_DEFINED_HEIGHT_END
1000
MTEXTBEGIN
1070
    73
1070
     1
1070
    44
1040
1.0
1070
    74
1070
     0
1000
MTEXTEND
  0
MTEXT
  5
918F
330
18
100
AcDbEntity
  8
0
100
AcDbMText
 10
155.9058945845771
 20
57.87157959741364
 30
0.0
 40
9.0
 41
0.0
 71
     1
 72
     5
  1
{\Ftxt,bigfont|c128;1 : 2}
  7
JL
 73
     1
 44
1.0
1001
ACAD
1000
ACAD_MTEXT_DEFINED_HEIGHT_BEGIN
1070
    46
1040
0.0
1000
ACAD_MTEXT_DEFINED_HEIGHT_END
1000
MTEXTBEGIN
1070
    73
1070
     1
1070
    44
1040
1.0
1070
    74
1070
     0
1000
MTEXTEND
  0
MTEXT
  5
9190
330
18
100
AcDbEntity
  8
0
 48
2.0
370
    25
100
AcDbMText
 10
280.4389000931312
 20
6.980043309267784
 30
0.0
 40
9.0
 41
0.0
 71
     5
 72
     1
  1
{\Ftxt,bigfont|c128;N L 4 0 3 2 4}
 73
     1
 44
1.0
1001
ACAD
1000
ACAD_MTEXT_DEFINED_HEIGHT_BEGIN
1070
    46
1040
0.0
1000
ACAD_MTEXT_DEFINED_HEIGHT_END
1000
MTEXTBEGIN
1070
    73
1070
     1
1070
    44
1040
1.0
1070
    74
1070
     0
1000
MTEXTEND
  0
MTEXT
  5
9191
330
18
100
AcDbEntity
  8
0
 48
2.0
100
AcDbMText
 10
338.8650467263651
 20
43.52874255647384
 30
0.0
 40
8.636363636363645
 41
0.0
 71
     5
 72
     1
  1
\P{\Ftxt,bigfont|c128;MRZ100X2.0P}
 73
     1
 44
1.0
1001
ACAD
1000
ACAD_MTEXT_DEFINED_HEIGHT_BEGIN
1070
    46
1040
0.0
1000
ACAD_MTEXT_DEFINED_HEIGHT_END
1000
MTEXTBEGIN
1070
    73
1070
     1
1070
    44
1040
1.0
1070
    74
1070
     0
1000
MTEXTEND
  0
MTEXT
  5
9192
330
18
100
AcDbEntity
  8
0
100
AcDbMText
 10
30.7521354273548
 20
56.75480719669417
 30
0.0
 40
9.0
 41
0.0
 71
     1
 72
     5
  1
{\Ftxt,bigfont|c128;07.07.10}
  7
JL
 73
     1
 44
1.0
1001
ACAD
1000
ACAD_MTEXT_DEFINED_HEIGHT_BEGIN
1070
    46
1040
0.0
1000
ACAD_MTEXT_DEFINED_HEIGHT_END
1000
MTEXTBEGIN
1070
    73
1070
     1
1070
    44
1040
1.0
1070
    74
1070
     0
1000
MTEXTEND
  0
LINE
  5
9193
330
18
100
AcDbEntity
  8
0
 62
     7
 48
5.0
100
AcDbLine
 39
7.676767676767685
 10
95.85884827985069
 20
55.31425814032172
 30
0.0
 11
106.091602885757
 21
57.87244679179844
 31
0.0
  0
MTEXT
  5
9194
330
18
100
AcDbEntity
  8
0
100
AcDbMText
 10
29.8247109665283
 20
18.48439010009861
 30
0.0
 40
12.0
 41
0.0
 71
     1
 72
     5
  1
\Ftxt.shx,bigfont.shx|c128;日機株式会社
  7
LKK
 73
     1
 44
1.0
1001
ACAD
1000
MTEXTBEGIN
1070
    73
1070
     1
1070
    44
1040
1.0
1070
    74
1070
     0
1000
MTEXTEND
  0
LINE
  5
9195
330
18
100
AcDbEntity
  8
frame
100
AcDbLine
 10
0.0
 20
24.0
 30
0.0
 11
380.0
 21
24.00000000000011
 31
0.0
  0
LINE
  5
9196
330
18
100
AcDbEntity
  8
frame
100
AcDbLine
 10
0.0
 20
44.0
 30
0.0
 11
184.2424242424245
 21
44.0
 31
0.0
  0
LINE
  5
9197
330
18
100
AcDbEntity
  8
frame
100
AcDbLine
 10
0.0
 20
64.0
 30
0.0
 11
380.0
 21
64.0
 31
0.0
  0
LINE
  5
9198
330
18
100
AcDbEntity
  8
frame
100
AcDbLine
 10
24.38154664987599
 20
64.0
 30
0.0
 11
24.38154664987599
 21
24.0
 31
0.0
  0
LINE
  5
9199
330
18
100
AcDbEntity
  8
frame
100
AcDbLine
 10
61.41414141414134
 20
64.0
 30
0.0
 11
61.41414141414156
 21
24.0
 31
0.0
  0
MTEXT
  5
919A
330
18
100
AcDbEntity
  8
0
100
AcDbMText
 10
5.660549568443911
 20
58.16380179165662
 30
0.0
 40
9.0
 41
0.0
 71
     1
 72
     5
  1
\Ftxt.shx,bigfont.shx|c128;日 付
  7
JL
 73
     1
 44
1.0
1001
ACAD
1000
MTEXTBEGIN
1070
    73
1070
     1
1070
    44
1040
1.0
1070
    74
1070
     0
1000
MTEXTEND
  0
MTEXT
  5
919B
330
18
100
AcDbEntity
  8
0
100
AcDbMText
 10
5.94126615487778
 20
39.04327685853275
 30
0.0
 40
9.0
 41
0.0
 71
     1
 72
     5
  1
\Ftxt.shx,bigfont.shx|c128;製 図
  7
JL
 73
     1
 44
1.0
1001
ACAD
1000
MTEXTBEGIN
1070
    73
1070
     1
1070
    44
1040
1.0
1070
    74
1070
     0
1000
MTEXTEND
  0
LINE
  5
919C
330
18
100
AcDbEntity
  8
0
 62
     7
370
    25
100
AcDbLine
 10
106.091602885757
 20
47.63969218589193
 30
0.0
 11
106.091602885757
 21
57.87244679179844
 31
0.0
  0
MTEXT
  5
919D
330
18
100
AcDbEntity
  8
0
100
AcDbMText
 10
128.0149770498167
 20
58.24485407584768
 30
0.0
 40
9.0
 41
0.0
 71
     1
 72
     5
  1
\Ftxt.shx,bigfont.shx|c128;尺 度
  7
JL
 73
     1
 44
1.0
1001
ACAD
1000
MTEXTBEGIN
1070
    73
1070
     1
1070
    44
1040
1.0
1070
    74
1070
     0
1000
MTEXTEND
  0
LINE
  5
919E
330
18
100
AcDbEntity
  8
frame
100
AcDbLine
 10
122.8282828282829
 20
64.0
 30
0.0
 11
122.8282828282829
 21
24.0
 31
0.0
  0
LINE
  5
919F
330
18
100
AcDbEntity
  8
0
 62
     7
370
    25
100
AcDbLine
 10
79.23062204525241
 20
46.37778036665269
 30
0.0
 11
79.23062204525241
 21
58.72915984859344
 31
0.0
  0
CIRCLE
  5
91A0
330
18
100
AcDbEntity
  8
0
 62
     7
100
AcDbCircle
 10
79.23062204525241
 20
52.75606948884501
 30
0.0
 40
5.116377302953357
  0
LINE
  5
91A1
330
18
100
AcDbEntity
  8
0
 62
     7
370
    25
100
AcDbLine
 10
94.38643973839953
 20
52.75606948884524
 30
0.0
 11
107.0102516324848
 21
52.75606948884524
 31
0.0
  0
LINE
  5
91A2
330
18
100
AcDbEntity
  8
0
 62
     7
100
AcDbLine
 10
95.85884827985069
 20
50.19788083736853
 30
0.0
 11
106.091602885757
 21
47.63969218589193
 31
0.0
  0
LINE
  5
91A3
330
18
100
AcDbEntity
  8
frame
100
AcDbLine
 10
85.484483919902
 20
44.0
 30
0.0
 11
85.484483919902
 21
24.0
 31
0.0
  0
LINE
  5
91A4
330
18
100
AcDbEntity
  8
0
 62
     7
370
    25
100
AcDbLine
 10
72.83664456973224
 20
52.75606948884501
 30
0.0
 11
86.00650535238537
 21
52.75606948884524
 31
0.0
  0
CIRCLE
  5
91A5
330
18
100
AcDbEntity
  8
0
 62
     7
100
AcDbCircle
 10
79.23062204525241
 20
52.75606948884501
 30
0.0
 40
2.558188651476678
  0
MTEXT
  5
91A6
330
18
100
AcDbEntity
  8
0
100
AcDbMText
 10
67.40368064924814
 20
38.82027631570543
 30
0.0
 40
9.0
 41
0.0
 71
     1
 72
     5
  1
\Ftxt.shx,bigfont.shx|c128;検 図
  7
JL
 73
     1
 44
1.0
1001
ACAD
1000
MTEXTBEGIN
1070
    73
1070
     1
1070
    44
1040
1.0
1070
    74
1070
     0
1000
MTEXTEND
  0
LINE
  5
91A7
330
18
100
AcDbEntity
  8
0
 62
     7
370
    25
100
AcDbLine
 10
95.85884827985069
 20
50.19788083736853
 30
0.0
 11
95.85884827985069
 21
55.31425814032172
 31
0.0
  0
MTEXT
  5
91A8
330
18
100
AcDbEntity
  8
0
100
AcDbMText
 10
128.5764049983965
 20
38.64117069497763
 30
0.0
 40
9.0
 41
0.0
 71
     1
 72
     5
  1
\Ftxt.shx,bigfont.shx|c128;承 認
  7
JL
 73
     1
 44
1.0
1001
ACAD
1000
MTEXTBEGIN
1070
    73
1070
     1
1070
    44
1040
1.0
1070
    74
1070
     0
1000
MTEXTEND
  0
MTEXT
  5
91A9
330
18
100
AcDbEntity
  8
0
100
AcDbMText
 10
187.4225743121339
 20
21.40536439238292
 30
0.0
 40
9.0
 41
0.0
 71
     1
 72
     5
  1
\Ftxt.shx,bigfont.shx|c128;図  面  番  号
  7
JL
 73
     1
 44
1.0
1001
ACAD
1000
MTEXTBEGIN
1070
    73
1070
     1
1070
    44
1040
1.0
1070
    74
1070
     0
1000
MTEXTEND
  0
MTEXT
  5
91AA
330
18
100
AcDbEntity
  8
0
 48
2.0
100
AcDbMText
 10
233.8076380042769
 20
43.75149462991692
 30
0.0
 40
9.0
 41
0.0
 71
     5
 72
     1
  1
\P\Ftxt.shx,bigfont.shx|c128;    精密ロックナット
 73
     1
 44
1.0
1001
ACAD
1000
MTEXTBEGIN
1070
    73
1070
     1
1070
    44
1040
1.0
1070
    74
1070
     0
1000
MTEXTEND
  0
MTEXT
  5
91AB
330
18
100
AcDbEntity
  8
0
100
AcDbMText
 10
189.6167226062464
 20
58.07724915946562
 30
0.0
 40
9.0
 41
0.0
 71
     1
 72
     5
  1
\Ftxt.shx,bigfont.shx|c128;品  名
  7
JL
 73
     1
 44
1.0
1001
ACAD
1000
MTEXTBEGIN
1070
    73
1070
     1
1070
    44
1040
1.0
1070
    74
1070
     0
1000
MTEXTEND
  0
LINE
  5
91AC
330
18
100
AcDbEntity
  8
frame
100
AcDbLine
 10
184.2424242424245
 20
64.0
 30
0.0
 11
184.2424242424245
 21
0.3666455159169573
 31
0.0
  0
LINE
  5
91AD
330
18
100
AcDbEntity
  8
frame
100
AcDbLine
 10
146.8282828282829
 20
64.0
 30
0.0
 11
146.8282828282829
 21
24.0
 31
0.0
  0
LINE
  5
91AE
330
18
100
AcDbEntity
  8
frame
100
AcDbLine
 10
294.0654185481312
 20
64.0
 30
0.0
 11
294.0654185481315
 21
24.0
 31
0.0
  0
MTEXT
  5
91AF
330
18
100
AcDbEntity
  8
0
100
AcDbMText
 10
301.7919188935461
 20
58.09035565660781
 30
0.0
 40
9.0
 41
0.0
 71
     1
 72
     5
  1
\Ftxt.shx,bigfont.shx|c128;型  番
  7
JL
 73
     1
 44
1.0
1001
ACAD
1000
MTEXTBEGIN
1070
    73
1070
     1
1070
    44
1040
1.0
1070
    74
1070
     0
1000
MTEXTEND
  0
MTEXT
  5
91B0
330
18
100
AcDbEntity
  8
0
100
AcDbMText
 10
331.6119229620651
 20
21.56596349943129
 30
0.0
 40
9.0
 41
0.0
 71
     1
 72
     5
  1
\Ftxt.shx,bigfont.shx|c128;変更
  7
JL
 73
     1
 44
1.0
1001
ACAD
1000
MTEXTBEGIN
1070
    73
1070
     1
1070
    44
1040
1.0
1070
    74
1070
     0
1000
MTEXTEND
  0
LINE
  5
91B1
330
18
100
AcDbEntity
  8
frame
100
AcDbLine
 10
328.1818181818185
 20
24.00000000000011
 30
0.0
 11
328.1818181818187
 21
0.0
 31
0.0
  0
MTEXT
  5
91C1
330
18
100
AcDbEntity
  8
0
100
AcDbMText
 10
115.2727812266885
 20
521.8001166558948
 30
0.0
 40
10.0
 41
0.0
 71
     1
 72
     5
  1
{\Ftxt,bigfont|c128;M8X1.25P-10L}
  7
JL
 73
     1
 44
1.0
1001
ACAD
1000
ACAD_MTEXT_DEFINED_HEIGHT_BEGIN
1070
    46
1040
0.0
1000
ACAD_MTEXT_DEFINED_HEIGHT_END
1000
MTEXTBEGIN
1070
    73
1070
     1
1070
    44
1040
1.0
1070
    74
1070
     0
1000
MTEXTEND
  0
MTEXT
  5
91C2
330
18
100
AcDbEntity
  8
0
100
AcDbMText
 10
115.2727812266885
 20
505.1320701725432
 30
0.0
 40
10.0
 41
0.0
 71
     1
 72
     5
  1
{\Ftxt,bigfont|c128;%%C7X6L}
  7
JL
 73
     1
 44
1.0
1001
ACAD
1000
ACAD_MTEXT_DEFINED_HEIGHT_BEGIN
1070
    46
1040
0.0
1000
ACAD_MTEXT_DEFINED_HEIGHT_END
1000
MTEXTBEGIN
1070
    73
1070
     1
1070
    44
1040
1.0
1070
    74
1070
     0
1000
MTEXTEND
  0
LINE
  5
91C3
330
18
100
AcDbEntity
  8
frame
100
AcDbLine
 10
0.0
 20
508.0
 30
0.0
 11
380.0
 21
508.0
 31
0.0
  0
LINE
  5
91C4
330
18
100
AcDbEntity
  8
frame
100
AcDbLine
 10
0.0
 20
524.0000000000001
 30
0.0
 11
380.0
 21
524.0000000000001
 31
0.0
  0
LINE
  5
91C5
330
18
100
AcDbEntity
  8
frame
 62
     9
100
AcDbLine
 10
0.0
 20
540.0000000000001
 30
0.0
 11
380.0
 21
540.0000000000001
 31
0.0
  0
MTEXT
  5
91C6
330
18
100
AcDbEntity
  8
0
100
AcDbMText
 10
114.0312878120742
 20
554.8481120098082
 30
0.0
 40
10.0
 41
0.0
 71
     1
 72
     5
  1
\Ftxt.shx,bigfont.shx|c128;図    番 / 規　　格
  7
JL
 73
     1
 44
1.0
1001
ACAD
1000
MTEXTBEGIN
1070
    73
1070
     1
1070
    44
1040
1.0
1070
    74
1070
     0
1000
MTEXTEND
  0
LINE
  5
91C7
330
18
100
AcDbEntity
  8
frame
100
AcDbLine
 10
0.0
 20
508.0
 30
0.0
 11
380.0
 21
508.0
 31
0.0
  0
LINE
  5
91C8
330
18
100
AcDbEntity
  8
frame
100
AcDbLine
 10
0.0
 20
491.7867819750663
 30
0.0
 11
380.0
 21
491.7867819750663
 31
0.0
  0
MTEXT
  5
91C9
330
18
100
AcDbEntity
  8
0
100
AcDbMText
 10
42.24976097846865
 20
554.9275962773487
 30
0.0
 40
10.0
 41
0.0
 71
     1
 72
     5
  1
\Ftxt.shx,bigfont.shx|c128;品　          名
  7
JL
 73
     1
 44
1.0
1001
ACAD
1000
MTEXTBEGIN
1070
    73
1070
     1
1070
    44
1040
1.0
1070
    74
1070
     0
1000
MTEXTEND
  0
MTEXT
  5
91CA
330
18
100
AcDbEntity
  8
0
100
AcDbMText
 10
36.20562774220264
 20
521.581447457822
 30
0.0
 40
10.0
 41
0.0
 71
     1
 72
     5
  1
\Ftxt.shx,bigfont.shx|c128;セットスクリュ-
  7
JL
 73
     1
 44
1.0
1001
ACAD
1000
MTEXTBEGIN
1070
    73
1070
     1
1070
    44
1040
1.0
1070
    74
1070
     0
1000
MTEXTEND
  0
MTEXT
  5
91CB
330
18
100
AcDbEntity
  8
0
100
AcDbMText
 10
35.83018961726316
 20
537.6722460565925
 30
0.0
 40
10.0
 41
0.0
 71
     1
 72
     5
  1
\Ftxt.shx,bigfont.shx|c128;ロックナット　  
  7
JL
 73
     1
 44
1.0
1001
ACAD
1000
MTEXTBEGIN
1070
    73
1070
     1
1070
    44
1040
1.0
1070
    74
1070
     0
1000
MTEXTEND
  0
MTEXT
  5
91CC
330
18
100
AcDbEntity
  8
0
100
AcDbMText
 10
36.20562774220264
 20
505.702109002807
 30
0.0
 40
10.0
 41
0.0
 71
     1
 72
     5
  1
\Ftxt.shx,bigfont.shx|c128;ロックピン 
  7
JL
 73
     1
 44
1.0
1001
ACAD
1000
MTEXTBEGIN
1070
    73
1070
     1
1070
    44
1040
1.0
1070
    74
1070
     0
1000
MTEXTEND
  0
LINE
  5
91CD
330
18
100
AcDbEntity
  8
frame
 62
     9
100
AcDbLine
 10
28.78787878787875
 20
559.9999999999996
 30
0.0
 11
28.78787878787944
 21
491.7867819750663
 31
0.0
  0
LINE
  5
91CE
330
18
100
AcDbEntity
  8
frame
 62
     9
100
AcDbLine
 10
28.78787878787875
 20
559.9999999999996
 30
0.0
 11
28.78787878787875
 21
510.1010101010102
 31
0.0
  0
MTEXT
  5
91CF
330
18
100
AcDbEntity
  8
0
100
AcDbMText
 10
13.63001853602759
 20
537.4563348868242
 30
0.0
 40
10.0
 41
0.0
 71
     1
 72
     5
  1
\Ftxt.shx,bigfont.shx|c128;1
  7
JL
 73
     1
 44
1.0
1001
ACAD
1000
MTEXTBEGIN
1070
    73
1070
     1
1070
    44
1040
1.0
1070
    74
1070
     0
1000
MTEXTEND
  0
MTEXT
  5
91D0
330
18
100
AcDbEntity
  8
0
100
AcDbMText
 10
4.239656145960452
 20
554.9469565278983
 30
0.0
 40
10.0
 41
0.0
 71
     1
 72
     5
  1
\Ftxt.shx,bigfont.shx|c128;照   号
  7
JL
 73
     1
 44
1.0
1001
ACAD
1000
MTEXTBEGIN
1070
    73
1070
     1
1070
    44
1040
1.0
1070
    74
1070
     0
1000
MTEXTEND
  0
LINE
  5
91D1
330
18
100
AcDbEntity
  8
frame
 62
     9
100
AcDbLine
 10
105.5555555555556
 20
559.9999999999996
 30
0.0
 11
105.5555555555556
 21
491.7867819750663
 31
0.0
  0
MTEXT
  5
91D2
330
18
100
AcDbEntity
  8
0
100
AcDbMText
 10
291.1472748745703
 20
555.3563327788388
 30
0.0
 40
10.0
 41
0.0
 71
     1
 72
     5
  1
\Ftxt.shx,bigfont.shx|c128;備           考
  7
JL
 73
     1
 44
1.0
1001
ACAD
1000
MTEXTBEGIN
1070
    73
1070
     1
1070
    44
1040
1.0
1070
    74
1070
     0
1000
MTEXTEND
  0
LINE
  5
91D3
330
18
100
AcDbEntity
  8
frame
 62
     9
100
AcDbLine
 10
182.3232323232323
 20
560.0000000000001
 30
0.0
 11
182.3232323232323
 21
491.7867819750663
 31
0.0
  0
MTEXT
  5
91D4
330
18
100
AcDbEntity
  8
0
100
AcDbMText
 10
185.7468217835874
 20
504.8619588922634
 30
0.0
 40
10.0
 41
0.0
 71
     1
 72
     5
  1
\Ftxt.shx,bigfont.shx|c128;C3604
  7
JL
 73
     1
 44
1.0
1001
ACAD
1000
MTEXTBEGIN
1070
    73
1070
     1
1070
    44
1040
1.0
1070
    74
1070
     0
1000
MTEXTEND
  0
MTEXT
  5
91D5
330
18
100
AcDbEntity
  8
0
100
AcDbMText
 10
185.7468217835874
 20
537.6722460565925
 30
0.0
 40
10.0
 41
0.0
 71
     1
 72
     5
  1
\Ftxt.shx,bigfont.shx|c128;SCM-440
  7
JL
 73
     1
 44
1.0
1001
ACAD
1000
MTEXTBEGIN
1070
    73
1070
     1
1070
    44
1040
1.0
1070
    74
1070
     0
1000
MTEXTEND
  0
MTEXT
  5
91D6
330
18
100
AcDbEntity
  8
0
100
AcDbMText
 10
185.7468217835874
 20
521.5300040251678
 30
0.0
 40
10.0
 41
0.0
 71
     1
 72
     5
  1
\Ftxt.shx,bigfont.shx|c128;SCM435
  7
JL
 73
     1
 44
1.0
1001
ACAD
1000
MTEXTBEGIN
1070
    73
1070
     1
1070
    44
1040
1.0
1070
    74
1070
     0
1000
MTEXTEND
  0
MTEXT
  5
91D7
330
18
100
AcDbEntity
  8
0
100
AcDbMText
 10
191.5359772620838
 20
555.1290998965836
 30
0.0
 40
10.0
 41
0.0
 71
     1
 72
     5
  1
\Ftxt.shx,bigfont.shx|c128;材　質
  7
JL
 73
     1
 44
1.0
1001
ACAD
1000
MTEXTBEGIN
1070
    73
1070
     1
1070
    44
1040
1.0
1070
    74
1070
     0
1000
MTEXTEND
  0
LINE
  5
91D8
330
18
100
AcDbEntity
  8
frame
 62
     9
100
AcDbLine
 10
220.7070707070709
 20
560.0000000000001
 30
0.0
 11
220.7070707070709
 21
491.7867819750663
 31
0.0
  0
LINE
  5
91D9
330
18
100
AcDbEntity
  8
frame
100
AcDbLine
 10
249.4949494949494
 20
560.0000000000001
 30
0.0
 11
249.4949494949497
 21
491.7867819750663
 31
0.0
  0
MTEXT
  5
91DA
330
18
100
AcDbEntity
  8
0
100
AcDbMText
 10
233.1878140533768
 20
504.9285971179984
 30
0.0
 40
10.0
 41
0.0
 71
     1
 72
     5
  1
\Ftxt.shx,bigfont.shx|c128;3
  7
JL
 73
     1
 44
1.0
1001
ACAD
1000
MTEXTBEGIN
1070
    73
1070
     1
1070
    44
1040
1.0
1070
    74
1070
     0
1000
MTEXTEND
  0
MTEXT
  5
91DB
330
18
100
AcDbEntity
  8
0
100
AcDbMText
 10
234.3370892430983
 20
538.0825423359862
 30
0.0
 40
10.0
 41
0.0
 71
     1
 72
     5
  1
\Ftxt.shx,bigfont.shx|c128;1
  7
JL
 73
     1
 44
1.0
1001
ACAD
1000
MTEXTBEGIN
1070
    73
1070
     1
1070
    44
1040
1.0
1070
    74
1070
     0
1000
MTEXTEND
  0
MTEXT
  5
91DC
330
18
100
AcDbEntity
  8
0
100
AcDbMText
 10
233.1878140533768
 20
521.0184580301358
 30
0.0
 40
10.0
 41
0.0
 71
     1
 72
     5
  1
\Ftxt.shx,bigfont.shx|c128;3
  7
JL
 73
     1
 44
1.0
1001
ACAD
1000
MTEXTBEGIN
1070
    73
1070
     1
1070
    44
1040
1.0
1070
    74
1070
     0
1000
MTEXTEND
  0
MTEXT
  5
91DD
330
18
100
AcDbEntity
  8
0
100
AcDbMText
 10
224.8447791838525
 20
555.1290998965836
 30
0.0
 40
10.0
 41
0.0
 71
     1
 72
     5
  1
\Ftxt.shx,bigfont.shx|c128;数   量
  7
JL
 73
     1
 44
1.0
1001
ACAD
1000
MTEXTBEGIN
1070
    73
1070
     1
1070
    44
1040
1.0
1070
    74
1070
     0
1000
MTEXTEND
  0
MTEXT
  5
91DE
330
18
100
AcDbEntity
  8
0
100
AcDbMText
 10
12.80803939811199
 20
521.4563348868242
 30
0.0
 40
10.0
 41
0.0
 71
     1
 72
     5
  1
{\Ftxt,bigfont|c128;2}
  7
JL
 73
     1
 44
1.0
1001
ACAD
1000
ACAD_MTEXT_DEFINED_HEIGHT_BEGIN
1070
    46
1040
0.0
1000
ACAD_MTEXT_DEFINED_HEIGHT_END
1000
MTEXTBEGIN
1070
    73
1070
     1
1070
    44
1040
1.0
1070
    74
1070
     0
1000
MTEXTEND
  0
MTEXT
  5
91DF
330
18
100
AcDbEntity
  8
0
100
AcDbMText
 10
12.80803939811199
 20
505.2431168618905
 30
0.0
 40
10.0
 41
0.0
 71
     1
 72
     5
  1
{\Ftxt,bigfont|c128;3}
  7
JL
 73
     1
 44
1.0
1001
ACAD
1000
ACAD_MTEXT_DEFINED_HEIGHT_BEGIN
1070
    46
1040
0.0
1000
ACAD_MTEXT_DEFINED_HEIGHT_END
1000
MTEXTBEGIN
1070
    73
1070
     1
1070
    44
1040
1.0
1070
    74
1070
     0
1000
MTEXTEND
  0
ARC
  5
93AA
330
18
100
AcDbEntity
  8
contour
100
AcDbCircle
 10
190.0
 20
343.8933909875331
 30
0.0
 40
64.0
100
AcDbArc
 50
184.4807987859822
 51
295.519201214016
  0
CIRCLE
  5
93AC
330
18
100
AcDbEntity
  8
contour
100
AcDbCircle
 10
190.0
 20
343.8933909875331
 30
0.0
 40
59.0
  0
ARC
  5
93AD
330
18
100
AcDbEntity
  8
contour
 62
     4
100
AcDbCircle
 10
190.0
 20
343.8933909875331
 30
0.0
 40
50.0
100
AcDbArc
 50
171.9521537526885
 51
98.0478462473115
  0
CIRCLE
  5
93AE
330
18
100
AcDbEntity
  8
contour
100
AcDbCircle
 10
190.0
 20
343.8933909875331
 30
0.0
 40
48.9175
  0
CIRCLE
  5
93AF
330
18
100
AcDbEntity
  8
contour
100
AcDbCircle
 10
190.0
 20
343.8933909875331
 30
0.0
 40
50.5
  0
LINE
  5
93B0
330
18
100
AcDbEntity
  8
center
 48
0.5
100
AcDbLine
 10
124.0
 20
343.8933909875331
 30
0.0
 11
256.0
 21
343.8933909875331
 31
0.0
  0
LINE
  5
93B1
330
18
100
AcDbEntity
  8
center
 48
0.5
100
AcDbLine
 10
190.0
 20
277.8933909875332
 30
0.0
 11
190.0
 21
409.8933909875332
 31
0.0
  0
LINE
  5
93B2
330
18
100
AcDbEntity
  8
contour
100
AcDbLine
 10
126.1956114362029
 20
348.8933909875332
 30
0.0
 11
130.1956114362028
 21
348.8933909875332
 31
0.0
  0
LINE
  5
93B3
330
18
100
AcDbEntity
  8
contour
100
AcDbLine
 10
126.1956114362029
 20
338.8933909875332
 30
0.0
 11
130.1956114362028
 21
338.8933909875332
 31
0.0
  0
LINE
  5
93B4
330
18
100
AcDbEntity
  8
contour
100
AcDbLine
 10
130.1956114362029
 20
348.8933909875332
 30
0.0
 11
130.1956114362029
 21
338.8933909875332
 31
0.0
  0
LINE
  5
93B5
330
18
100
AcDbEntity
  8
contour
100
AcDbLine
 10
226.2323213008208
 20
291.1371696183516
 30
0.0
 11
224.2323213008208
 21
294.6012712334892
 31
0.0
  0
LINE
  5
93B6
330
18
100
AcDbEntity
  8
contour
100
AcDbLine
 10
217.5720672629763
 20
286.1371696183515
 30
0.0
 11
215.5720672629763
 21
289.6012712334892
 31
0.0
  0
LINE
  5
93B7
330
18
100
AcDbEntity
  8
contour
100
AcDbLine
 10
215.5720672629763
 20
289.6012712334893
 30
0.0
 11
224.2323213008208
 21
294.6012712334893
 31
0.0
  0
LINE
  5
93B8
330
18
100
AcDbEntity
  8
contour
100
AcDbLine
 10
217.5720672629765
 20
401.6496123567147
 30
0.0
 11
215.5720672629765
 21
398.1855107415771
 31
0.0
  0
LINE
  5
93B9
330
18
100
AcDbEntity
  8
contour
100
AcDbLine
 10
226.2323213008208
 20
396.6496123567148
 30
0.0
 11
224.2323213008208
 21
393.1855107415771
 31
0.0
  0
LINE
  5
93BA
330
18
100
AcDbEntity
  8
contour
100
AcDbLine
 10
224.2323213008208
 20
393.1855107415771
 30
0.0
 11
215.5720672629765
 21
398.1855107415771
 31
0.0
  0
LINE
  5
93BB
330
18
100
AcDbEntity
  8
bowle
  6
HIDDEN
 48
0.2
100
AcDbLine
 10
253.8748776906851
 20
347.8933909875349
 30
0.0
 11
238.7536850530294
 21
347.8933909875349
 31
0.0
  0
LINE
  5
93BC
330
18
100
AcDbEntity
  8
bowle
  6
HIDDEN
 48
0.2
100
AcDbLine
 10
253.8748776906853
 20
339.8933909875349
 30
0.0
 11
238.7536850530297
 21
339.8933909875349
 31
0.0
  0
LINE
  5
93BD
330
18
100
AcDbEntity
  8
bowle
  6
HIDDEN
 48
0.2
100
AcDbLine
 10
253.9136475860203
 20
347.2168909875347
 30
0.0
 11
238.8044685863906
 21
347.216890987535
 31
0.0
  0
LINE
  5
93BE
330
18
100
AcDbEntity
  8
bowle
  6
HIDDEN
 48
0.2
100
AcDbLine
 10
253.9136475860204
 20
340.5698909875348
 30
0.0
 11
238.8044685863909
 21
340.5698909875349
 31
0.0
  0
LINE
  5
93BF
330
18
100
AcDbEntity
  8
bowle
  6
HIDDEN
 48
0.2
100
AcDbLine
 10
154.5984595395182
 20
397.2106577312895
 30
0.0
 11
162.1590558583461
 21
384.1153207715614
 31
0.0
  0
LINE
  5
93C0
330
18
100
AcDbEntity
  8
bowle
  6
HIDDEN
 48
0.2
100
AcDbLine
 10
161.5266627697937
 20
401.2106577312896
 30
0.0
 11
169.0872590886215
 21
388.1153207715616
 31
0.0
  0
LINE
  5
93C1
330
18
100
AcDbEntity
  8
bowle
  6
HIDDEN
 48
0.2
100
AcDbLine
 10
155.164940777511
 20
397.582483445552
 30
0.0
 11
162.7195302773257
 21
384.4975506015461
 31
0.0
  0
LINE
  5
93C2
330
18
100
AcDbEntity
  8
bowle
  6
HIDDEN
 48
0.2
100
AcDbLine
 10
160.921411636466
 20
400.9059834455518
 30
0.0
 11
168.4760011362807
 21
387.8210506015463
 31
0.0
  0
LINE
  5
93C3
330
18
100
AcDbEntity
  8
bowle
  6
HIDDEN
 48
0.2
100
AcDbLine
 10
161.5266627697966
 20
286.5761242437751
 30
0.0
 11
169.0872590886246
 21
299.6714612035033
 31
0.0
  0
LINE
  5
93C4
330
18
100
AcDbEntity
  8
bowle
  6
HIDDEN
 48
0.2
100
AcDbLine
 10
154.598459539521
 20
290.576124243775
 30
0.0
 11
162.1590558583489
 21
303.671461203503
 31
0.0
  0
LINE
  5
93C5
330
18
100
AcDbEntity
  8
bowle
  6
HIDDEN
 48
0.2
100
AcDbLine
 10
160.9214116364687
 20
286.880798529513
 30
0.0
 11
168.4760011362839
 21
299.9657313735184
 31
0.0
  0
LINE
  5
93C6
330
18
100
AcDbEntity
  8
bowle
  6
HIDDEN
 48
0.2
100
AcDbLine
 10
155.1649407775137
 20
290.2042985295128
 30
0.0
 11
162.7195302773285
 21
303.2892313735183
 31
0.0
  0
LINE
  5
93C9
330
18
100
AcDbEntity
  8
center
 48
0.3
100
AcDbLine
 10
156.9999999999986
 20
401.0510676373053
 30
0.0
 11
166.5412499999986
 21
384.5251378695888
 31
0.0
  0
LINE
  5
93CC
330
18
100
AcDbEntity
  8
center
 48
0.3
100
AcDbLine
 10
156.9999999999986
 20
286.735714337761
 30
0.0
 11
166.5412499999986
 21
303.2616441054776
 31
0.0
  0
ARC
  5
93CF
330
18
100
AcDbEntity
  8
contour
100
AcDbCircle
 10
190.0
 20
343.8933909875331
 30
0.0
 40
64.0
100
AcDbArc
 50
64.48079878598121
 51
175.5192012140177
  0
ARC
  5
93D0
330
18
100
AcDbEntity
  8
contour
100
AcDbCircle
 10
190.0
 20
343.8933909875331
 30
0.0
 40
64.0
100
AcDbArc
 50
304.48079878598
 51
55.51920121402001
  0
LINE
  5
93D2
330
18
100
AcDbEntity
  8
contour
100
AcDbLine
 10
249.0
 20
203.2889749187034
 30
0.0
 11
131.0
 21
203.2889749187034
 31
0.0
  0
LINE
  5
93D3
330
18
100
AcDbEntity
  8
contour
100
AcDbLine
 10
126.0
 20
200.7889749187034
 30
0.0
 11
126.0
 21
185.2889749187034
 31
0.0
  0
LINE
  5
93D4
330
18
100
AcDbEntity
  8
contour
100
AcDbLine
 10
128.0
 20
183.2889749187034
 30
0.0
 11
252.0
 21
183.2889749187034
 31
0.0
  0
LINE
  5
93D5
330
18
100
AcDbEntity
  8
contour
100
AcDbLine
 10
254.0
 20
185.2889749187034
 30
0.0
 11
254.0
 21
200.7889749187034
 31
0.0
  0
LINE
  5
93D7
330
18
100
AcDbEntity
  8
contour
100
AcDbLine
 10
131.0
 20
203.2889749187034
 30
0.0
 11
131.0
 21
202.7889749187034
 31
0.0
  0
LINE
  5
93D8
330
18
100
AcDbEntity
  8
contour
100
AcDbLine
 10
131.0
 20
202.7889749187034
 30
0.0
 11
128.0
 21
202.7889749187034
 31
0.0
  0
LINE
  5
93D9
330
18
100
AcDbEntity
  8
contour
100
AcDbLine
 10
249.0
 20
203.2889749187034
 30
0.0
 11
249.0
 21
202.7889749187034
 31
0.0
  0
LINE
  5
93DA
330
18
100
AcDbEntity
  8
contour
100
AcDbLine
 10
249.0
 20
202.7889749187034
 30
0.0
 11
252.0
 21
202.7889749187034
 31
0.0
  0
ARC
  5
93DB
330
18
100
AcDbEntity
  8
contour
100
AcDbCircle
 10
128.0
 20
185.2889749187034
 30
0.0
 40
2.0
100
AcDbArc
 50
180.0
 51
270.0
  0
ARC
  5
93DC
330
18
100
AcDbEntity
  8
contour
100
AcDbCircle
 10
128.0
 20
200.7889749187034
 30
0.0
 40
2.0
100
AcDbArc
 50
90.0
 51
180.0
  0
ARC
  5
93DD
330
18
100
AcDbEntity
  8
contour
100
AcDbCircle
 10
252.0
 20
185.2889749187034
 30
0.0
 40
2.0
100
AcDbArc
 50
270.0
 51
0.0
  0
ARC
  5
93DE
330
18
100
AcDbEntity
  8
contour
100
AcDbCircle
 10
252.0
 20
200.7889749187034
 30
0.0
 40
2.0
100
AcDbArc
 50
0.0
 51
90.0
  0
LINE
  5
93E7
330
18
100
AcDbEntity
  8
contour
100
AcDbLine
 10
139.5
 20
203.2889749187034
 30
0.0
 11
139.5
 21
201.2889749187034
 31
0.0
  0
LINE
  5
93E8
330
18
100
AcDbEntity
  8
contour
 62
     4
100
AcDbLine
 10
140.0
 20
200.7889749187034
 30
0.0
 11
140.0
 21
184.2064749187034
 31
0.0
  0
LINE
  5
93E9
330
18
100
AcDbEntity
  8
contour
100
AcDbLine
 10
141.0825000000001
 20
199.7064749187033
 30
0.0
 11
141.0825
 21
185.2889749187034
 31
0.0
  0
LINE
  5
93EA
330
18
100
AcDbEntity
  8
contour
100
AcDbLine
 10
139.0825
 20
183.2889749187034
 30
0.0
 11
141.0825
 21
185.2889749187034
 31
0.0
  0
LINE
  5
93EB
330
18
100
AcDbEntity
  8
contour
100
AcDbLine
 10
139.5
 20
201.2889749187034
 30
0.0
 11
141.0825000000001
 21
199.7064749187033
 31
0.0
  0
LINE
  5
93EC
330
18
100
AcDbEntity
  8
contour
100
AcDbLine
 10
240.5
 20
203.2889749187034
 30
0.0
 11
240.5
 21
201.2889749187034
 31
0.0
  0
LINE
  5
93ED
330
18
100
AcDbEntity
  8
contour
 62
     4
100
AcDbLine
 10
240.0
 20
200.7889749187034
 30
0.0
 11
240.0
 21
197.2889749187034
 31
0.0
  0
LINE
  5
93EE
330
18
100
AcDbEntity
  8
contour
100
AcDbLine
 10
238.9175
 20
199.7064749187033
 30
0.0
 11
238.9175
 21
185.2889749187034
 31
0.0
  0
LINE
  5
93EF
330
18
100
AcDbEntity
  8
contour
100
AcDbLine
 10
240.9175
 20
183.2889749187034
 30
0.0
 11
238.9175
 21
185.2889749187034
 31
0.0
  0
LINE
  5
93F0
330
18
100
AcDbEntity
  8
contour
100
AcDbLine
 10
240.5
 20
201.2889749187034
 30
0.0
 11
238.9175
 21
199.7064749187033
 31
0.0
  0
LINE
  5
93F1
330
18
100
AcDbEntity
  8
contour
100
AcDbLine
 10
139.5
 20
201.2889749187034
 30
0.0
 11
240.5
 21
201.2889749187034
 31
0.0
  0
LINE
  5
93F2
330
18
100
AcDbEntity
  8
contour
100
AcDbLine
 10
238.9175
 20
199.7064749187033
 30
0.0
 11
141.0825000000001
 21
199.7064749187033
 31
0.0
  0
LINE
  5
93F3
330
18
100
AcDbEntity
  8
contour
100
AcDbLine
 10
141.0825
 20
185.2889749187034
 30
0.0
 11
238.9175
 21
185.2889749187034
 31
0.0
  0
LINE
  5
93F4
330
18
100
AcDbEntity
  8
contour
100
AcDbLine
 10
130.1956114362028
 20
202.7889749187034
 30
0.0
 11
130.1956114362028
 21
183.2889749187034
 31
0.0
  0
LINE
  5
9404
330
18
100
AcDbEntity
  8
contour
 62
     4
100
AcDbLine
 10
254.0000000000001
 20
197.2889749187034
 30
0.0
 11
238.9175
 21
197.2889749187034
 31
0.0
  0
LINE
  5
9405
330
18
100
AcDbEntity
  8
contour
 62
     4
100
AcDbLine
 10
254.0000000000002
 20
189.2889749187034
 30
0.0
 11
238.9175
 21
189.2889749187034
 31
0.0
  0
LWPOLYLINE
  5
9406
330
18
100
AcDbEntity
  8
contour
100
AcDbPolyline
 90
        6
 70
     0
 43
0.0
 10
245.5
 20
197.2889749187034
 10
245.5
 20
197.2889749187034
 10
244.0
 20
195.7889749187034
 10
244.0
 20
190.7889749187034
 10
245.5
 20
189.2889749187034
 10
245.5
 20
189.2889749187034
  0
LWPOLYLINE
  5
9407
330
18
100
AcDbEntity
  8
contour
100
AcDbPolyline
 90
        2
 70
     0
 43
0.0
 10
254.0
 20
189.9654749187034
 10
254.0
 20
196.6124749187033
  0
LINE
  5
9408
330
18
100
AcDbEntity
  8
contour
100
AcDbLine
 10
245.5
 20
197.2889749187034
 30
0.0
 11
245.5
 21
189.2889749187034
 31
0.0
  0
LINE
  5
9409
330
18
100
AcDbEntity
  8
contour
100
AcDbLine
 10
251.5
 20
195.7889749187034
 30
0.0
 11
254.0
 21
195.7889749187034
 31
0.0
  0
LINE
  5
940A
330
18
100
AcDbEntity
  8
contour
100
AcDbLine
 10
251.5
 20
190.7889749187034
 30
0.0
 11
254.0
 21
190.7889749187034
 31
0.0
  0
LINE
  5
940B
330
18
100
AcDbEntity
  8
contour
100
AcDbLine
 10
251.5
 20
195.7889749187034
 30
0.0
 11
251.5
 21
190.7889749187034
 31
0.0
  0
LINE
  5
940C
330
18
100
AcDbEntity
  8
contour
100
AcDbLine
 10
251.0
 20
193.2889749187033
 30
0.0
 11
251.5
 21
195.7889749187034
 31
0.0
  0
LINE
  5
940D
330
18
100
AcDbEntity
  8
contour
100
AcDbLine
 10
251.0
 20
193.2889749187033
 30
0.0
 11
251.5
 21
190.7889749187034
 31
0.0
  0
LINE
  5
940E
330
18
100
AcDbEntity
  8
contour
 62
     4
100
AcDbLine
 10
254.0
 20
196.6124749187033
 30
0.0
 11
244.8235
 21
196.6124749187033
 31
0.0
  0
LINE
  5
940F
330
18
100
AcDbEntity
  8
contour
 62
     4
100
AcDbLine
 10
254.0
 20
189.9654749187033
 30
0.0
 11
244.8235000000001
 21
189.9654749187033
 31
0.0
  0
LINE
  5
9410
330
18
100
AcDbEntity
  8
contour
100
AcDbLine
 10
254.0
 20
196.6124749187033
 30
0.0
 11
252.8282676286797
 21
197.2889749187034
 31
0.0
  0
LINE
  5
9411
330
18
100
AcDbEntity
  8
contour
100
AcDbLine
 10
252.8282676286797
 20
197.2889749187034
 30
0.0
 11
252.8282676286797
 21
189.2889749187034
 31
0.0
  0
LINE
  5
9412
330
18
100
AcDbEntity
  8
contour
100
AcDbLine
 10
254.0
 20
189.9654749187034
 30
0.0
 11
252.8282676286797
 21
189.2889749187034
 31
0.0
  0
HATCH
  5
9413
330
18
100
AcDbEntity
  8
section
100
AcDbHatch
 10
0.0
 20
0.0
 30
0.0
210
0.0
220
0.0
230
1.0
  2
AR-SAND
 70
     0
 71
     1
 91
        1
 92
        7
 72
     0
 73
     1
 93
        4
 10
238.9175
 20
196.7889749187032
 10
238.9175000000001
 20
189.7889749187034
 10
244.0
 20
189.7889749187034
 10
244.0
 20
196.7889749187033
 97
        1
330
9414
 75
     0
 76
     1
 52
0.0
 41
0.02
 77
     0
 78
     4
 53
37.5
 43
-87.92329178102363
 44
223.3589781479898
 45
-0.0320006259196809
 46
0.9788264746586847
 79
     6
 49
0.0
 49
-0.7721600000000001
 49
0.0
 49
-0.8636000000000001
 49
0.0
 49
-0.8255
 53
7.499999999999999
 43
-87.92329178102363
 44
223.3589781479898
 45
0.8990465662760053
 46
1.433650201136708
 79
     6
 49
0.0
 49
-0.4165600000000001
 49
0.0
 49
-0.69596
 49
0.0
 49
-0.2667000000000001
 53
327.5
 43
-88.54813178102364
 44
223.3589781479898
 45
1.581984740482915
 46
0.0028743693570914
 79
     6
 49
0.0
 49
-0.254
 49
0.0
 49
-0.9144
 49
0.0
 49
-1.193799999999999
 53
317.5
 43
-88.54813178102364
 44
223.3589781479898
 45
1.527112904944594
 46
0.4458586465144325
 79
     6
 49
0.0
 49
-0.127
 49
0.0
 49
-0.59944
 49
0.0
 49
-0.6858
 47
0.0366952879874147
 98
        1
 10
241.8037812770787
 20
194.6140931298182
1001
ACAD
1010
0.0
1020
0.0
1030
0.0
  0
LWPOLYLINE
  5
9414
102
{ACAD_REACTORS
330
9413
102
}
330
18
100
AcDbEntity
  8
contour
100
AcDbPolyline
 90
        4
 70
     1
 43
0.0
 10
238.9175
 20
196.7889749187033
 10
238.9175
 20
189.7889749187034
 10
244.0
 20
189.7889749187034
 10
244.0
 20
196.7889749187034
  0
LINE
  5
9415
330
18
100
AcDbEntity
  8
contour
100
AcDbLine
 10
244.8235
 20
196.6124749187033
 30
0.0
 11
244.0
 21
196.6124749187033
 31
0.0
  0
LINE
  5
9416
330
18
100
AcDbEntity
  8
contour
100
AcDbLine
 10
244.8235000000001
 20
189.9654749187033
 30
0.0
 11
244.0
 21
189.9654749187033
 31
0.0
  0
LINE
  5
9417
330
18
100
AcDbEntity
  8
center
 48
0.2
100
AcDbLine
 10
236.9175
 20
193.2889749187033
 30
0.0
 11
256.0
 21
193.2889749187033
 31
0.0
  0
LINE
  5
9418
330
18
100
AcDbEntity
  8
contour
 62
     4
100
AcDbLine
 10
240.0
 20
189.2889749187034
 30
0.0
 11
240.0
 21
184.2064749187034
 31
0.0
  0
LINE
  5
9419
330
18
100
AcDbEntity
  8
center
 48
0.3
100
AcDbLine
 10
190.0
 20
205.2889749187034
 30
0.0
 11
190.0
 21
181.2889749187034
 31
0.0
  0
LWPOLYLINE
  5
941A
330
18
100
AcDbEntity
  8
mark
100
AcDbPolyline
 90
        7
 70
     1
 43
0.0
 10
201.767826887741
 20
208.2889749187034
 10
219.0883349634291
 20
208.2889749187034
 10
216.201583617481
 20
203.2889749187034
 10
213.3148322715331
 20
208.2889749187034
 10
210.428080925585
 20
203.2889749187034
 10
207.541329579637
 20
208.2889749187034
 10
204.6545782336889
 20
203.2889749187034
  0
DIMENSION
  5
9DA0
330
18
100
AcDbEntity
  8
mark
100
AcDbDimension
  2
*D4
 10
240.5
 20
219.14542322738
 30
0.0
 11
190.0
 21
223.34542322738
 31
0.0
 70
    32
  1
%%c101
 71
     5
 42
101.0
  3
STANDARD
100
AcDbAlignedDimension
 13
139.5
 23
203.2889749187034
 33
0.0
 14
240.5
 24
203.2889749187034
 34
0.0
100
AcDbRotatedDimension
  0
DIMENSION
  5
9DAD
330
18
100
AcDbEntity
  8
mark
100
AcDbDimension
  2
*D5
 10
249.0
 20
231.183732304391
 30
0.0
 11
190.0
 21
235.383732304391
 31
0.0
 70
    32
  1
%%c118%%p0.5
 71
     5
 42
118.0
  3
STANDARD
100
AcDbAlignedDimension
 13
131.0
 23
203.2889749187034
 33
0.0
 14
249.0
 24
203.2889749187034
 34
0.0
100
AcDbRotatedDimension
  0
DIMENSION
  5
9DBA
330
18
100
AcDbEntity
  8
mark
100
AcDbDimension
  2
*D6
 10
254.0
 20
242.9659084263485
 30
0.0
 11
190.0
 21
247.1659084263485
 31
0.0
 70
    32
  1
%%c128
 71
     5
 42
128.0
  3
STANDARD
100
AcDbAlignedDimension
 13
126.0
 23
200.7889749187034
 33
0.0
 14
254.0
 24
200.7889749187034
 34
0.0
100
AcDbRotatedDimension
  0
MTEXT
  5
9DC7
330
18
100
AcDbEntity
  8
mark
 62
     3
100
AcDbMText
 10
199.5961024355317
 20
250.4562613566748
 30
0.0
 40
2.5
 41
0.0
 71
     1
 72
     1
  1
+0\P-0.2
 73
     1
 44
1.0
1001
ACAD
1000
ACAD_MTEXT_DEFINED_HEIGHT_BEGIN
1070
    46
1040
0.0
1000
ACAD_MTEXT_DEFINED_HEIGHT_END
1000
MTEXTBEGIN
1070
    73
1070
     1
1070
    44
1040
1.0
1070
    74
1070
     0
1000
MTEXTEND
  0
LEADER
  5
9DC8
330
18
100
AcDbEntity
  8
mark
100
AcDbLeader
  3
STANDARD
 76
     2
 10
239.9175
 20
184.2889749187034
 30
0.0
 10
227.304841794677
 20
171.6763167133804
 30
0.0
211
0.7071067811865476
221
0.7071067811865475
231
0.0
1001
ACAD
1000
DSTYLE
1002
{
1070
   147
1040
1.7
1070
    77
1070
     0
1002
}
  0
MTEXT
  5
9DC9
330
18
100
AcDbEntity
  8
mark
 62
     3
100
AcDbMText
 10
227.4722565120732
 20
177.7834283927436
 30
0.0
 40
5.0
 41
0.0
 71
     5
 72
     1
  1
C2
 11
0.7071067811865476
 21
0.7071067811865475
 31
0.0
 73
     1
 44
1.0
1001
ACAD
1000
ACAD_MTEXT_DEFINED_HEIGHT_BEGIN
1070
    46
1040
0.0
1000
ACAD_MTEXT_DEFINED_HEIGHT_END
1000
MTEXTBEGIN
1070
    73
1070
     1
1070
    44
1040
1.0
1070
    74
1070
     0
1000
MTEXTEND
  0
DIMENSION
  5
9DCA
330
18
100
AcDbEntity
  8
mark
100
AcDbDimension
  2
*D7
 10
240.0
 20
162.7389864291935
 30
0.0
 11
190.0
 21
166.9389864291935
 31
0.0
 70
    32
  1
M100X2.0P
 71
     5
 42
100.0
  3
STANDARD
100
AcDbAlignedDimension
 13
140.0
 23
184.2064749187034
 33
0.0
 14
240.0
 24
184.2064749187044
 34
0.0
100
AcDbRotatedDimension
  0
DIMENSION
  5
9DD7
330
18
100
AcDbEntity
  8
mark
100
AcDbDimension
  2
*D8
 10
111.6520411695555
 20
203.2889749187034
 30
0.0
 11
107.4520411695555
 21
219.5723082520367
 31
0.0
 70
    32
 71
     5
 42
0.5
  3
STANDARD
100
AcDbAlignedDimension
 13
128.0
 23
202.7889749187034
 33
0.0
 14
131.0
 24
203.2889749187034
 34
0.0
 50
90.0
100
AcDbRotatedDimension
  0
DIMENSION
  5
9E15
330
18
100
AcDbEntity
  8
mark
100
AcDbDimension
  2
*D9
 10
268.5538712025695
 20
193.2889749187033
 30
0.0
 11
264.3538712025695
 21
198.2889749187034
 31
0.0
 70
    32
 71
     5
 42
10.0
  3
STANDARD
100
AcDbAlignedDimension
 13
249.0
 23
203.2889749187034
 33
0.0
 14
256.0
 24
193.2889749187033
 34
0.0
 50
90.0
100
AcDbRotatedDimension
  0
DIMENSION
  5
9E24
330
18
100
AcDbEntity
  8
mark
100
AcDbDimension
  2
*D10
 10
287.0805900267874
 20
183.2889749187034
 30
0.0
 11
287.0805900267874
 21
193.2889749187034
 31
0.0
 70
   160
  1
20%%P0.2
 71
     5
 42
20.0
  3
STANDARD
100
AcDbAlignedDimension
 13
249.0
 23
203.2889749187034
 33
0.0
 14
252.0
 24
183.2889749187034
 34
0.0
 50
90.0
100
AcDbRotatedDimension
  0
DIMENSION
  5
9E3B
330
18
100
AcDbEntity
  8
mark
100
AcDbDimension
  2
*D11
 10
128.0000000000002
 20
185.2889749187033
 30
0.0
 11
108.8609764558832
 21
172.089648336556
 31
0.0
 70
    36
  1
2-R2
 71
     5
 42
2.0
  3
STANDARD
100
AcDbRadialDimension
 15
126.585786437627
 25
183.8747613563303
 35
0.0
 40
0.0
1001
ACAD
1000
DSTYLE
1002
{
1070
   288
1070
     1
1002
}
  0
LINE
  5
9E4B
330
18
100
AcDbEntity
  8
mark
100
AcDbLine
 10
140.0
 20
161.9389864291936
 30
0.0
 11
140.0
 21
144.4389864291943
 31
0.0
  0
INSERT
  5
9E4C
330
18
100
AcDbEntity
  8
mark
100
AcDbBlockReference
  2
A
 10
131.8414639917073
 20
153.2212766327591
 30
0.0
 41
1.999999999999886
 42
1.999999999999886
 43
1.999999999999909
  0
TOLERANCE
  5
9E4E
330
18
100
AcDbEntity
  8
mark
100
AcDbFcf
  3
STANDARD
 10
297.0805900267874
 20
213.2889749187034
 30
0.0
  1
{\Fgdt;h}%%v0.005%%v%%vA%%v%%v
1001
ACAD
1000
DSTYLE
1002
{
1070
    41
1040
2.5
1070
    42
1040
0.8
1070
    43
1040
6.0
1070
    44
1040
0.8
1070
    73
1070
     0
1070
    74
1070
     0
1070
    78
1070
     8
1070
    79
1070
     2
1070
   140
1040
5.0
1070
   141
1040
0.0
1070
   144
1040
1.0
1070
   147
1040
1.6
1070
   176
1070
   256
1070
   177
1070
   256
1070
   178
1070
     3
1070
   179
1070
     2
1070
   271
1070
     1
1070
   272
1070
     1
1070
   341
1005
9026
1070
   342
1005
9026
1002
}
  0
LWPOLYLINE
  5
9E4F
330
18
100
AcDbEntity
  8
mark
100
AcDbPolyline
 90
        3
 70
     0
 43
0.0
 10
287.0805900267874
 20
203.2889749187034
 10
287.0805900267874
 20
213.2889749187034
 10
297.0805900267874
 20
213.2889749187034
  0
DIMENSION
  5
9E51
330
18
100
AcDbEntity
  8
mark
100
AcDbDimension
  2
*D12
 10
111.6520411695555
 20
338.8933909875332
 30
0.0
 11
107.4520411695555
 21
343.8933909875331
 31
0.0
 70
    32
 71
     5
 42
10.0
  3
STANDARD
100
AcDbAlignedDimension
 13
126.1956114362029
 23
348.8933909875332
 33
0.0
 14
126.1956114362029
 24
338.8933909875332
 34
0.0
 50
90.0
100
AcDbRotatedDimension
  0
MTEXT
  5
9E60
330
18
100
AcDbEntity
  8
mark
 62
     3
100
AcDbMText
 10
104.2141831109378
 20
348.4432185980188
 30
0.0
 40
2.5
 41
0.0
 71
     1
 72
     1
  1
+0.15\P-0
 11
0.0000000000000001
 21
1.0
 31
0.0
 73
     1
 44
1.0
1001
ACAD
1000
ACAD_MTEXT_DEFINED_HEIGHT_BEGIN
1070
    46
1040
0.0
1000
ACAD_MTEXT_DEFINED_HEIGHT_END
1000
MTEXTBEGIN
1070
    73
1070
     1
1070
    44
1040
1.0
1070
    74
1070
     0
1000
MTEXTEND
  0
MTEXT
  5
9E61
330
18
100
AcDbEntity
  8
mark
 62
     3
100
AcDbMText
 10
105.2716410826574
 20
358.6194742481646
 30
0.0
 40
5.0
 41
0.0
 71
     1
 72
     1
  1
(3{\Ftxt,bigfont|c128;等分\Ftxt,bigfont|c136;)}
 11
0.0000000000000001
 21
1.0
 31
0.0
 73
     1
 44
1.0
1001
ACAD
1000
ACAD_MTEXT_DEFINED_HEIGHT_BEGIN
1070
    46
1040
0.0
1000
ACAD_MTEXT_DEFINED_HEIGHT_END
1000
MTEXTBEGIN
1070
    73
1070
     1
1070
    44
1040
1.0
1070
    74
1070
     0
1000
MTEXTEND
  0
DIMENSION
  5
9E63
330
18
100
AcDbEntity
  8
mark
100
AcDbDimension
  2
*D13
 10
126.1956114362029
 20
272.4483972112726
 30
0.0
 11
112.8289447695362
 21
276.6483972112725
 31
0.0
 70
    32
 71
     5
 42
3.999999999999943
  3
STANDARD
100
AcDbAlignedDimension
 13
130.1956114362028
 23
338.8933909875332
 33
0.0
 14
126.1956114362029
 24
338.8933909875332
 34
0.0
100
AcDbRotatedDimension
  0
MTEXT
  5
9E72
330
18
100
AcDbEntity
  8
mark
 62
     3
100
AcDbMText
 10
115.5983541917147
 20
279.9387501415988
 30
0.0
 40
2.5
 41
0.0
 71
     1
 72
     1
  1
+0.15\P-0
 73
     1
 44
1.0
1001
ACAD
1000
ACAD_MTEXT_DEFINED_HEIGHT_BEGIN
1070
    46
1040
0.0
1000
ACAD_MTEXT_DEFINED_HEIGHT_END
1000
MTEXTBEGIN
1070
    73
1070
     1
1070
    44
1040
1.0
1070
    74
1070
     0
1000
MTEXTEND
  0
DIMENSION
  5
9E75
330
18
100
AcDbEntity
  8
mark
100
AcDbDimension
  2
*D14
 10
165.4712934609458
 20
201.2889749187034
 30
0.0
 11
161.2712934609458
 21
187.9223082520367
 31
0.0
 70
    32
 71
     5
 42
2.0
  3
STANDARD
100
AcDbAlignedDimension
 13
165.4712934609458
 23
203.2889749187034
 33
0.0
 14
165.4712934609458
 24
201.2889749187034
 34
0.0
 50
90.0
100
AcDbRotatedDimension
  0
HATCH
  5
9ED4
330
18
100
AcDbEntity
  8
section
100
AcDbHatch
 10
0.0
 20
0.0
 30
0.0
210
0.0
220
0.0
230
1.0
  2
ANSI31
 70
     0
 71
     0
 91
       10
 92
        7
 72
     0
 73
     1
 93
        9
 10
140.0
 20
200.7889749187035
 10
139.5
 20
201.2889749187033
 10
139.5
 20
203.2889749187034
 10
131.0
 20
203.2889749187034
 10
131.0
 20
202.7889749187034
 10
130.1956114362029
 20
202.7889749187034
 10
130.1956114362028
 20
183.2889749187034
 10
139.0825
 20
183.2889749187034
 10
140.0
 20
184.2064749187033
 97
        0
 92
        7
 72
     0
 73
     1
 93
        4
 10
141.0825000000001
 20
199.7064749187033
 10
139.9999999999999
 20
200.7889749187035
 10
139.9999999999999
 20
184.2064749187033
 10
141.0825000000001
 20
185.2889749187034
 97
        0
 92
        7
 72
     1
 73
     1
 93
        9
 10
254.0
 20
200.7889749187034
 42
0.4142135623730951
 10
252.0
 20
202.7889749187034
 42
0.0
 10
249.0
 20
202.7889749187034
 42
0.0
 10
249.0
 20
203.2889749187034
 42
0.0
 10
240.5
 20
203.2889749187034
 42
0.0
 10
240.5
 20
201.2889749187034
 42
0.0
 10
240.0
 20
200.7889749187034
 42
0.0
 10
240.0000000000001
 20
197.2889749187034
 42
0.0
 10
254.0
 20
197.2889749187034
 42
0.0
 97
        0
 92
        7
 72
     0
 73
     1
 93
        4
 10
240.0
 20
200.7889749187034
 10
238.9175
 20
199.7064749187034
 10
238.9175
 20
197.2889749187034
 10
240.0
 20
197.2889749187034
 97
        0
 92
        7
 72
     0
 73
     1
 93
        4
 10
240.0
 20
189.2889749187034
 10
238.9175
 20
189.2889749187034
 10
238.9175
 20
185.2889749187034
 10
240.0
 20
184.2064749187034
 97
        0
 92
        7
 72
     1
 73
     1
 93
        6
 10
254.0
 20
189.2889749187034
 42
0.0
 10
240.0
 20
189.2889749187034
 42
0.0
 10
240.0000000000001
 20
184.2064749187034
 42
0.0
 10
240.9175
 20
183.2889749187034
 42
0.0
 10
252.0
 20
183.2889749187034
 42
0.4142135623730951
 10
254.0
 20
185.2889749187034
 42
0.0
 97
        0
 92
        7
 72
     0
 73
     1
 93
        6
 10
244.8235
 20
189.9654749187033
 10
244.0
 20
189.9654749187033
 10
244.0
 20
189.7889749187034
 10
238.9175
 20
189.7889749187034
 10
238.9175
 20
189.2889749187034
 10
245.4999999999999
 20
189.2889749187034
 97
        0
 92
        7
 72
     0
 73
     1
 93
        6
 10
245.5
 20
197.2889749187034
 10
238.9175
 20
197.2889749187034
 10
238.9175
 20
196.7889749187033
 10
244.0
 20
196.7889749187034
 10
243.9999999999999
 20
196.6124749187033
 10
244.8235
 20
196.6124749187033
 97
        0
 92
        7
 72
     0
 73
     1
 93
        3
 10
254.0000000000001
 20
197.2889749187034
 10
252.8282676286797
 20
197.2889749187034
 10
254.0
 20
196.6124749187033
 97
        0
 92
        7
 72
     0
 73
     1
 93
        3
 10
254.0000000000001
 20
189.9654749187035
 10
252.8282676286798
 20
189.2889749187034
 10
254.0
 20
189.2889749187034
 97
        0
 75
     0
 76
     1
 52
0.0
 41
1.0
 77
     0
 78
     1
 53
45.0
 43
-198.4929270282241
 44
216.9362239530633
 45
-2.245064030267287
 46
2.245064030267288
 79
     0
 47
0.09687938230731
 98
       10
 10
135.9561181879348
 20
197.5168714126703
 10
140.4973178700461
 20
196.5603904784866
 10
245.5275306204471
 20
199.7213208632856
 10
239.8114790775167
 20
198.7174540951887
 10
239.3480190946989
 20
186.5938197536261
 10
245.0640706376284
 20
185.8216122324184
 10
244.4143713125582
 20
189.5612008590128
 10
244.6415918238131
 20
196.9057743892226
 10
253.7682744024983
 20
197.0950669354074
 10
253.9197547433355
 20
189.4476266688457
1001
ACAD
1010
0.0
1020
0.0
1030
0.0
  0
LEADER
  5
A195
330
18
100
AcDbEntity
  8
mark
100
AcDbLeader
  3
STANDARD
 76
     2
 10
254.0
 20
193.2889749187033
 30
0.0
 10
263.0039590486313
 20
218.027149090512
 30
0.0
211
0.9396926207859085
221
-0.3420201433256686
231
0.0
1001
ACAD
1000
DSTYLE
1002
{
1070
   147
1040
1.7
1070
    77
1070
     0
1002
}
  0
MTEXT
  5
A196
330
18
100
AcDbEntity
  8
mark
 62
     3
100
AcDbMText
 10
267.1852113135205
 20
220.0770463749206
 30
0.0
 40
7.0
 41
0.0
 71
     5
 72
     1
  1
2
 73
     1
 44
1.0
1001
ACAD
1000
ACAD_MTEXT_DEFINED_HEIGHT_BEGIN
1070
    46
1040
0.0
1000
ACAD_MTEXT_DEFINED_HEIGHT_END
1000
MTEXTBEGIN
1070
    73
1070
     1
1070
    44
1040
1.0
1070
    74
1070
     0
1000
MTEXTEND
  0
LEADER
  5
A197
330
18
100
AcDbEntity
  8
mark
100
AcDbLeader
  3
STANDARD
 76
     2
 10
241.45875
 20
189.7889749187034
 30
0.0
 10
263.0039590486313
 20
168.243765870072
 30
0.0
211
-0.7071067811865474
221
-0.7071067811865478
231
0.0
1001
ACAD
1000
DSTYLE
1002
{
1070
   147
1040
1.7
1070
    77
1070
     0
1002
}
  0
MTEXT
  5
A198
330
18
100
AcDbEntity
  8
mark
 62
     3
100
AcDbMText
 10
267.1852113135205
 20
170.2936631544806
 30
0.0
 40
7.0
 41
0.0
 71
     5
 72
     1
  1
3
 73
     1
 44
1.0
1001
ACAD
1000
ACAD_MTEXT_DEFINED_HEIGHT_BEGIN
1070
    46
1040
0.0
1000
ACAD_MTEXT_DEFINED_HEIGHT_END
1000
MTEXTBEGIN
1070
    73
1070
     1
1070
    44
1040
1.0
1070
    74
1070
     0
1000
MTEXTEND
  0
LEADER
  5
A199
330
18
100
AcDbEntity
  8
mark
100
AcDbLeader
  3
STANDARD
 76
     2
 10
235.9870670429728
 20
388.4025685909372
 30
0.0
 10
263.0039590486313
 20
415.4194605965959
 30
0.0
211
0.7071067811865476
221
0.7071067811865475
231
0.0
1001
ACAD
1000
DSTYLE
1002
{
1070
   147
1040
1.7
1070
    77
1070
     0
1002
}
  0
MTEXT
  5
A19A
330
18
100
AcDbEntity
  8
mark
 62
     3
100
AcDbMText
 10
267.1852113135205
 20
417.4693578810044
 30
0.0
 40
7.0
 41
0.0
 71
     5
 72
     1
  1
1
 73
     1
 44
1.0
1001
ACAD
1000
ACAD_MTEXT_DEFINED_HEIGHT_BEGIN
1070
    46
1040
0.0
1000
ACAD_MTEXT_DEFINED_HEIGHT_END
1000
MTEXTBEGIN
1070
    73
1070
     1
1070
    44
1040
1.0
1070
    74
1070
     0
1000
MTEXTEND
  0
MTEXT
  5
A2ED
330
18
100
AcDbEntity
  8
0
100
AcDbMText
 10
95.30194464380953
 20
38.15211803233228
 30
0.0
 40
9.0
 41
0.0
 71
     1
 72
     5
  1
{\Ftxt,bigfont|c128;小\~柳}
  7
JL
 73
     1
 44
1.0
1001
ACAD
1000
ACAD_MTEXT_DEFINED_HEIGHT_BEGIN
1070
    46
1040
0.0
1000
ACAD_MTEXT_DEFINED_HEIGHT_END
1000
MTEXTBEGIN
1070
    73
1070
     1
1070
    44
1040
1.0
1070
    74
1070
     0
1000
MTEXTEND
  0
LINE
  5
A8BB
330
18
100
AcDbEntity
  8
frame
100
AcDbLine
 10
249.2315801572786
 20
86.26982697848985
 30
0.0
 11
369.2315801572786
 21
86.26982697848962
 31
0.0
  0
LINE
  5
A8BC
330
18
100
AcDbEntity
  8
frame
100
AcDbLine
 10
249.2315801572786
 20
100.6698269784899
 30
0.0
 11
369.2315801572786
 21
100.6698269784899
 31
0.0
  0
LINE
  5
A8BD
330
18
100
AcDbEntity
  8
frame
100
AcDbLine
 10
249.2315801572786
 20
115.0698269784898
 30
0.0
 11
369.2315801572786
 21
115.0698269784895
 31
0.0
  0
LINE
  5
A8BE
330
18
100
AcDbEntity
  8
frame
100
AcDbLine
 10
249.2315801572786
 20
129.4698269784899
 30
0.0
 11
369.2315801572786
 21
129.4698269784896
 31
0.0
  0
LINE
  5
A8BF
330
18
100
AcDbEntity
  8
frame
100
AcDbLine
 10
249.2315801572786
 20
71.86982697848975
 30
0.0
 11
369.2315801572786
 21
71.86982697848975
 31
0.0
  0
MTEXT
  5
A8C0
330
18
100
AcDbEntity
  8
0
 62
     7
 48
2.0
100
AcDbMText
 10
309.0023800890213
 20
131.0561637996582
 30
0.0
 40
9.600000000000001
 41
0.0
 71
     5
 72
     1
  1
\P\Ftxt.shx,bigfont.shx|c128;諸　　　　元
 73
     1
 44
1.0
1001
ACAD
1000
MTEXTBEGIN
1070
    73
1070
     1
1070
    44
1040
1.0
1070
    74
1070
     0
1000
MTEXTEND
  0
LINE
  5
A8C1
330
18
100
AcDbEntity
  8
frame
100
AcDbLine
 10
249.2315801572786
 20
129.4698269784896
 30
0.0
 11
249.2315801572786
 21
71.86982697848975
 31
0.0
  0
MTEXT
  5
A8C2
330
18
100
AcDbEntity
  8
0
100
AcDbMText
 10
256.2764517846391
 20
112.0168086442481
 30
0.0
 40
8.8
 41
327.8325736844981
 71
     1
 72
     5
  1
\Ftxt.shx,bigfont.shx|c128;熱　処　理
  7
JL
 73
     1
 44
1.0
1001
ACAD
1000
MTEXTBEGIN
1070
    73
1070
     1
1070
    44
1040
1.0
1070
    74
1070
     0
1000
MTEXTEND
  0
LINE
  5
A8C3
330
18
100
AcDbEntity
  8
frame
100
AcDbLine
 10
297.2315801572786
 20
115.0698269784895
 30
0.0
 11
297.2315801572786
 21
71.86982697848975
 31
0.0
  0
MTEXT
  5
A8C4
330
18
100
AcDbEntity
  8
0
100
AcDbMText
 10
255.7159030498806
 20
98.01235174972795
 30
0.0
 40
8.8
 41
327.2117257699345
 71
     1
 72
     5
  1
\Ftxt.shx,bigfont.shx|c128;表 面 処 理
  7
JL
 73
     1
 44
1.0
1001
ACAD
1000
MTEXTBEGIN
1070
    73
1070
     1
1070
    44
1040
1.0
1070
    74
1070
     0
1000
MTEXTEND
  0
MTEXT
  5
A8C5
330
18
100
AcDbEntity
  8
0
100
AcDbMText
 10
256.2960347467507
 20
83.43540604251211
 30
0.0
 40
8.8
 41
332.3436
 71
     1
 72
     5
  1
\Ftxt.shx,bigfont.shx|c128;等     　級
  7
JL
 73
     1
 44
1.0
1001
ACAD
1000
MTEXTBEGIN
1070
    73
1070
     1
1070
    44
1040
1.0
1070
    74
1070
     0
1000
MTEXTEND
  0
LINE
  5
A8C6
330
18
100
AcDbEntity
  8
frame
100
AcDbLine
 10
369.2315801572786
 20
129.4698269784896
 30
0.0
 11
369.2315801572786
 21
71.86982697848998
 31
0.0
  0
MTEXT
  5
A8C7
330
18
100
AcDbEntity
  8
0
100
AcDbMText
 10
306.7255867761638
 20
111.6668928294289
 30
0.0
 40
8.8
 41
583.7920113715775
 71
     1
 72
     5
  1
\Ftxt.shx,bigfont.shx|c128;調質　HRC30%%d%%p２%%d
  7
JL
 73
     1
 44
1.0
1001
ACAD
1000
MTEXTBEGIN
1070
    73
1070
     1
1070
    44
1040
1.0
1070
    74
1070
     0
1000
MTEXTEND
  0
MTEXT
  5
A8C8
330
18
100
AcDbEntity
  8
0
100
AcDbMText
 10
307.2468647790366
 20
83.43662718541441
 30
0.0
 40
8.8
 41
581.5667295937819
 71
     1
 72
     5
  1
\Ftxt.shx,bigfont.shx|c128;ＩＳＯ - ４Ｈ
  7
JL
 73
     1
 44
1.0
1001
ACAD
1000
MTEXTBEGIN
1070
    73
1070
     1
1070
    44
1040
1.0
1070
    74
1070
     0
1000
MTEXTEND
  0
MTEXT
  5
A8C9
330
18
100
AcDbEntity
  8
0
100
AcDbMText
 10
307.5957871752972
 20
97.30656587581826
 30
0.0
 40
8.8
 41
582.9095999999999
 71
     1
 72
     5
  1
\Ftxt.shx,bigfont.shx|c128;黒  　    染
  7
JL
 73
     1
 44
1.0
1001
ACAD
1000
MTEXTBEGIN
1070
    73
1070
     1
1070
    44
1040
1.0
1070
    74
1070
     0
1000
MTEXTEND
  0
LWPOLYLINE
  5
A8E3
330
18
100
AcDbEntity
  8
mark
100
AcDbPolyline
 90
        3
 70
     1
 43
0.0
 10
17.13786043919845
 20
71.13724132114575
 10
11.36435774730222
 20
81.13724132114574
 10
5.59085505540594
 20
71.13724132114575
  0
MTEXT
  5
A8E4
330
18
100
AcDbEntity
  8
dim
100
AcDbMText
 10
10.46096197074115
 20
77.89237388240789
 30
0.0
 40
5.0
 41
18.3262282937585
 71
     1
 72
     5
  1
1
 73
     1
 44
1.0
1001
ACAD
1000
ACAD_MTEXT_DEFINED_HEIGHT_BEGIN
1070
    46
1040
0.0
1000
ACAD_MTEXT_DEFINED_HEIGHT_END
1000
MTEXTBEGIN
1070
    73
1070
     1
1070
    44
1040
1.0
1070
    74
1070
     0
1000
MTEXTEND
  0
MTEXT
  5
A8E5
330
18
100
AcDbEntity
  8
dim
100
AcDbMText
 10
20.66425746214178
 20
80.05835728604635
 30
0.0
 40
9.0
 41
0.0
 71
     1
 72
     5
  1
{\Ftxt,bigfont|c128;08.08.08 振れ精度の変更  林}
  7
JL
 73
     1
 44
1.0
1001
ACAD
1000
ACAD_MTEXT_DEFINED_HEIGHT_BEGIN
1070
    46
1040
0.0
1000
ACAD_MTEXT_DEFINED_HEIGHT_END
1000
MTEXTBEGIN
1070
    73
1070
     1
1070
    44
1040
1.0
1070
    74
1070
     0
1000
MTEXTEND
  0
CIRCLE
  5
A8E6
330
18
100
AcDbEntity
  8
dim
100
AcDbCircle
 10
96.21286405019326
 20
75.43872004611277
 30
0.0
 40
5.524819416217724
  0
LWPOLYLINE
  5
A8E7
330
18
100
AcDbEntity
  8
mark
100
AcDbPolyline
 90
        3
 70
     1
 43
0.0
 10
363.4097893870854
 20
5.46335149863944
 10
357.6362866951892
 20
15.46335149863944
 10
351.8627840032928
 20
5.46335149863944
  0
MTEXT
  5
A8E8
330
18
100
AcDbEntity
  8
dim
100
AcDbMText
 10
356.7328909186281
 20
12.21848405990158
 30
0.0
 40
5.0
 41
18.3262282937585
 71
     1
 72
     5
  1
1
 73
     1
 44
1.0
1001
ACAD
1000
ACAD_MTEXT_DEFINED_HEIGHT_BEGIN
1070
    46
1040
0.0
1000
ACAD_MTEXT_DEFINED_HEIGHT_END
1000
MTEXTBEGIN
1070
    73
1070
     1
1070
    44
1040
1.0
1070
    74
1070
     0
1000
MTEXTEND
  0
LWPOLYLINE
  5
A8E9
330
18
100
AcDbEntity
  8
mark
100
AcDbPolyline
 90
        3
 70
     1
 43
0.0
 10
309.1948464045846
 20
221.6416886821849
 10
303.4213437126883
 20
231.6416886821849
 10
297.6478410207921
 20
221.6416886821849
  0
MTEXT
  5
A8EA
330
18
100
AcDbEntity
  8
dim
100
AcDbMText
 10
302.5179479361272
 20
228.396821243447
 30
0.0
 40
5.0
 41
18.3262282937585
 71
     1
 72
     5
  1
1
 73
     1
 44
1.0
1001
ACAD
1000
ACAD_MTEXT_DEFINED_HEIGHT_BEGIN
1070
    46
1040
0.0
1000
ACAD_MTEXT_DEFINED_HEIGHT_END
1000
MTEXTBEGIN
1070
    73
1070
     1
1070
    44
1040
1.0
1070
    74
1070
     0
1000
MTEXTEND
  0
MTEXT
  5
A8EB
330
18
100
AcDbEntity
  8
dim
100
AcDbMText
 10
312.0626481957174
 20
228.396821243447
 30
0.0
 40
5.0
 41
18.3262282937585
 71
     1
 72
     5
  1
0.007
 73
     1
 44
1.0
1001
ACAD
1000
ACAD_MTEXT_DEFINED_HEIGHT_BEGIN
1070
    46
1040
0.0
1000
ACAD_MTEXT_DEFINED_HEIGHT_END
1000
MTEXTBEGIN
1070
    73
1070
     1
1070
    44
1040
1.0
1070
    74
1070
     0
1000
MTEXTEND
  0
LINE
  5
A8EC
330
18
100
AcDbEntity
  8
mark
 62
     1
100
AcDbLine
 10
310.4503178572922
 20
214.0843428496505
 30
0.0
 11
331.0538083796759
 21
214.0843428496505
 31
0.0
  0
LINE
  5
A8ED
330
18
100
AcDbEntity
  8
mark
 62
     1
100
AcDbLine
 10
310.4503178572922
 20
212.4380418510482
 30
0.0
 11
331.0538083796759
 21
212.4380418510482
 31
0.0
  0
ENDSEC
  0
SECTION
  2
OBJECTS
  0
DICTIONARY
  5
C
330
0
100
AcDbDictionary
281
     1
  3
ACAD_COLOR
350
9017
  3
ACAD_GROUP
350
D
  3
ACAD_LAYOUT
350
5CF3
  3
ACAD_MATERIAL
350
9016
  3
ACAD_MLINESTYLE
350
1B
  3
ACAD_PLOTSETTINGS
350
5CF4
  3
ACAD_PLOTSTYLENAME
350
5CF1
  3
ACAD_TABLESTYLE
350
9018
  3
ACDBHEADERROUNDTRIPXREC
350
A8FC
  3
ACDBVARIABLEDICTIONARY
350
45D
  0
DICTIONARY
  5
9023
330
2
100
AcDbDictionary
280
     1
281
     1
  3
ACAD_LAYERFILTERS
360
9025
  3
ACAD_LAYERSTATES
360
A8A5
  3
ACLYDICTIONARY
360
9024
  0
DICTIONARY
  5
45F
330
18
100
AcDbDictionary
280
     1
281
     1
  3
ACAD_LAYOUTSELFREF
360
5D8B
  3
ACAD_SORTENTS
360
460
  0
DICTIONARY
  5
5D89
330
15
100
AcDbDictionary
280
     1
281
     1
  3
ACAD_LAYOUTSELFREF
360
5D8A
  0
DICTIONARY
  5
902D
330
902C
100
AcDbDictionary
280
     1
281
     1
  3
AcDbBlockTableRecordData
360
902E
  0
DICTIONARY
  5
9017
102
{ACAD_REACTORS
330
C
102
}
330
C
100
AcDbDictionary
281
     1
  0
DICTIONARY
  5
D
102
{ACAD_REACTORS
330
C
102
}
330
C
100
AcDbDictionary
281
     1
  0
DICTIONARY
  5
5CF3
102
{ACAD_REACTORS
330
C
102
}
330
C
100
AcDbDictionary
281
     1
  3
Model
350
5CF5
  3
配置1
350
5CF6
  0
DICTIONARY
  5
9016
102
{ACAD_REACTORS
330
C
102
}
330
C
100
AcDbDictionary
281
     1
  0
DICTIONARY
  5
1B
102
{ACAD_REACTORS
330
C
102
}
330
C
100
AcDbDictionary
281
     1
  3
STANDARD
350
1C
  0
DICTIONARY
  5
5CF4
102
{ACAD_REACTORS
330
C
102
}
330
C
100
AcDbDictionary
281
     1
  0
ACDBDICTIONARYWDFLT
  5
5CF1
102
{ACAD_REACTORS
330
C
102
}
330
C
100
AcDbDictionary
281
     1
  3
Normal
350
5CF2
100
AcDbDictionaryWithDefault
340
5CF2
  0
DICTIONARY
  5
9018
102
{ACAD_REACTORS
330
C
102
}
330
C
100
AcDbDictionary
281
     1
  3
Standard
350
9019
  0
DICTIONARY
  5
A8FC
102
{ACAD_REACTORS
330
C
102
}
330
C
100
AcDbDictionary
281
     1
  0
DICTIONARY
  5
45D
102
{ACAD_REACTORS
330
C
102
}
330
C
100
AcDbDictionary
281
     1
  3
CTABLESTYLE
350
93CE
  3
DIMASSOC
350
A8F9
  3
PROJECTNAME
350
A8FA
  3
SORTENTS
350
45E
  0
DICTIONARY
  5
9025
102
{ACAD_REACTORS
330
9023
102
}
330
9023
100
AcDbDictionary
281
     1
  0
DICTIONARY
  5
A8A5
102
{ACAD_REACTORS
330
9023
102
}
330
9023
100
AcDbDictionary
281
     1
  0
DICTIONARY
  5
9024
102
{ACAD_REACTORS
330
9023
102
}
330
9023
100
AcDbDictionary
281
     1
1001
ACAD
1000
<All
  0
XRECORD
  5
5D8B
102
{ACAD_REACTORS
330
45F
102
}
330
45F
100
AcDbXrecord
280
     1
340
18
  0
SORTENTSTABLE
  5
460
102
{ACAD_REACTORS
330
45F
102
}
330
45F
100
AcDbSortentsTable
330
18
331
93B3
  5
93B6
331
93EA
  5
93ED
331
91A4
  5
91A4
331
93BB
  5
93C1
331
93F2
  5
9405
331
91AC
  5
91AC
331
C0
  5
CB
331
93C3
  5
93CB
331
940A
  5
940E
331
91C4
  5
91C4
331
9412
  5
9416
331
91CC
  5
91CC
331
941A
  5
9DAD
331
93D3
  5
93D6
331
91D4
  5
91D4
331
9DC9
  5
9E15
331
918D
  5
918D
331
93DB
  5
93D9
331
91DC
  5
91DC
331
9195
  5
9195
331
A197
  5
A199
331
93AC
  5
93AF
331
919D
  5
919D
331
93B4
  5
93BA
331
93EB
  5
93EE
331
91A5
  5
91A5
331
93BC
  5
93C2
331
93F3
  5
9406
331
9E60
  5
9E72
331
91AD
  5
91AD
331
9DBA
  5
9DC9
331
93C4
  5
93CC
331
940B
  5
940F
331
91C5
  5
91C5
331
9413
  5
9417
331
93CC
  5
93D3
331
91CD
  5
91CD
331
93D4
  5
93D7
331
91D5
  5
91D5
331
9DCA
  5
9E24
331
918E
  5
918E
331
93DC
  5
93DE
331
91DD
  5
91DD
331
9196
  5
9196
331
A198
  5
A19A
331
93AD
  5
93B1
331
9E51
  5
9E63
331
919E
  5
919E
331
93B5
  5
93BB
331
93EC
  5
93EF
331
91A6
  5
91A6
331
93BD
  5
93C3
331
93F4
  5
9407
331
9E61
  5
9E74
331
91AE
  5
91AE
331
93C5
  5
93CF
331
9404
  5
9408
331
940C
  5
9410
331
91C6
  5
91C6
331
9414
  5
9418
331
91CE
  5
91CE
331
93D5
  5
93DA
331
91D6
  5
91D6
331
918F
  5
918F
331
93DD
  5
93DB
331
91DE
  5
91DE
331
9197
  5
9197
331
A199
  5
A281
331
93AE
  5
93B2
331
919F
  5
919F
331
93B6
  5
93BC
331
93ED
  5
93F0
331
91A7
  5
91A7
331
93BE
  5
93C4
331
91AF
  5
91AF
331
9E72
  5
A195
331
93C6
  5
93D0
331
9405
  5
9409
331
940D
  5
9411
331
91C7
  5
91C7
331
9415
  5
9419
331
91CF
  5
91CF
331
9E3B
  5
9E4E
331
91D7
  5
91D7
331
9190
  5
9190
331
93DE
  5
93E9
331
91DF
  5
91DF
331
9E4B
  5
9E4F
331
9198
  5
9198
331
A19A
  5
A282
331
93AF
  5
93B3
331
91A0
  5
91A0
331
93B7
  5
93BD
331
93EE
  5
93F2
331
91A8
  5
91A8
331
9E63
  5
9E98
331
93BF
  5
93C5
331
9DAD
  5
9DC8
331
91B0
  5
91B0
331
9406
  5
940A
331
9E24
  5
9E4C
331
940E
  5
9412
331
91C8
  5
91C8
331
93CF
  5
93AE
331
91D0
  5
91D0
331
9416
  5
941A
331
91D8
  5
91D8
331
93D7
  5
93DC
331
9191
  5
9191
331
9E4C
  5
9E51
331
9199
  5
9199
331
93E7
  5
93EA
331
93B0
  5
93B4
331
91A1
  5
91A1
331
93B8
  5
93BE
331
93EF
  5
93F3
331
91A9
  5
91A9
331
93C0
  5
93C6
331
9E15
  5
9E4B
331
91B1
  5
91B1
331
91C1
  5
91C1
331
9407
  5
940B
331
940F
  5
9413
331
91C9
  5
91C9
331
9417
  5
941B
331
91D1
  5
91D1
331
93D0
  5
93AD
331
9ED4
  5
93D4
331
91D9
  5
91D9
331
93D8
  5
93DD
331
9192
  5
9192
331
919A
  5
919A
331
93B1
  5
93B8
331
93E8
  5
93EB
331
91A2
  5
91A2
331
93B9
  5
93BF
331
93F0
  5
93F4
331
91AA
  5
91AA
331
93C1
  5
93C9
331
9408
  5
940C
331
91C2
  5
91C2
331
9E75
  5
A196
331
9410
  5
9414
331
91CA
  5
91CA
331
93C9
  5
93D2
331
9DC7
  5
9DCA
331
91D2
  5
91D2
331
9418
  5
93F1
331
93D9
  5
93E7
331
91DA
  5
91DA
331
9193
  5
9193
331
93AA
  5
93AA
331
9DD7
  5
9E3B
331
9E4E
  5
9E60
331
919B
  5
919B
331
A195
  5
A197
331
9DA0
  5
9DC7
331
93B2
  5
93B7
331
93E9
  5
93EC
331
91A3
  5
91A3
331
93BA
  5
93C0
331
93F1
  5
9404
331
91AB
  5
91AB
331
93C2
  5
93CA
331
9409
  5
940D
331
91C3
  5
91C3
331
9411
  5
9415
331
91CB
  5
91CB
331
9419
  5
9DA0
331
93D2
  5
93D5
331
91D3
  5
91D3
331
9DC8
  5
9DD7
331
93DA
  5
93E8
331
91DB
  5
91DB
331
9194
  5
9194
331
9E4F
  5
9E61
331
919C
  5
919C
331
A196
  5
A198
  0
XRECORD
  5
5D8A
102
{ACAD_REACTORS
330
5D89
102
}
330
5D89
100
AcDbXrecord
280
     1
340
15
  0
DICTIONARY
  5
902E
102
{ACAD_REACTORS
330
902D
102
}
330
902D
100
AcDbDictionary
280
     1
281
     1
  3
Edit
360
902F
  0
LAYOUT
  5
5CF5
102
{ACAD_XDICTIONARY
360
A8FD
102
}
102
{ACAD_REACTORS
330
5CF3
102
}
330
5CF3
100
AcDbPlotSettings
  1

  2
hp LaserJet 1300 PCL 6
  4
A4
  6

 40
5.027083396911621
 41
5.069413185119628
 42
5.027084350585937
 43
5.027069091796875
 44
209.9733276367187
 45
296.9683227539062
 46
4.947830639786843
 47
3.418829873184336
 48
0.0
 49
0.0
140
0.0
141
0.0
142
1.0
143
2.0
 70
 11956
 72
     1
 73
     0
 74
     1
  7
LIN.ctb
 75
    17
147
0.5
148
0.025633200973175
149
0.0341781228380569
100
AcDbLayout
  1
Model
 70
     1
 71
     0
 10
0.0
 20
0.0
 11
12.0
 21
9.0
 12
0.0
 22
0.0
 32
0.0
 14
0.0
 24
0.0
 34
0.0
 15
0.0
 25
0.0
 35
0.0
146
0.0
 13
0.0
 23
0.0
 33
0.0
 16
1.0
 26
0.0
 36
0.0
 17
0.0
 27
1.0
 37
0.0
 76
     0
330
18
1001
ACAD_PSEXT
1000
hp LaserJet 1300 PCL 6
1000
hp LaserJet 1300 PCL 6
1000
HP 1300
1000

1070
     0
  0
LAYOUT
  5
5CF6
102
{ACAD_XDICTIONARY
360
A8FF
102
}
102
{ACAD_REACTORS
330
5CF3
102
}
330
5CF3
100
AcDbPlotSettings
  1

  2
EPSON STYLUS COLOR 440
  4

  6

 40
0.0
 41
0.0
 42
0.0
 43
0.0
 44
0.0
 45
0.0
 46
0.0
 47
0.0
 48
0.0
 49
0.0
140
0.0
141
0.0
142
1.0
143
1.0
 70
   688
 72
     0
 73
     0
 74
     5
  7
LIN.ctb
 75
    16
147
1.0
148
0.0
149
0.0
100
AcDbLayout
  1
ｰtｸm1
 70
     1
 71
     1
 10
0.0
 20
0.0
 11
420.0
 21
297.0
 12
0.0
 22
0.0
 32
0.0
 14
1.000000000000000E+20
 24
1.000000000000000E+20
 34
1.000000000000000E+20
 15
-1.000000000000000E+20
 25
-1.000000000000000E+20
 35
-1.000000000000000E+20
146
0.0
 13
0.0
 23
0.0
 33
0.0
 16
1.0
 26
0.0
 36
0.0
 17
0.0
 27
1.0
 37
0.0
 76
     0
330
15
  0
MLINESTYLE
  5
1C
102
{ACAD_REACTORS
330
1B
102
}
330
1B
100
AcDbMlineStyle
  2
STANDARD
 70
     0
  3

 62
   256
 51
90.0
 52
90.0
 71
     2
 49
0.5
 62
   256
  6
BYLAYER
 49
-0.5
 62
   256
  6
BYLAYER
  0
ACDBPLACEHOLDER
  5
5CF2
102
{ACAD_REACTORS
330
5CF1
102
}
330
5CF1
  0
TABLESTYLE
  5
9019
102
{ACAD_REACTORS
330
9018
102
}
330
9018
100
AcDbTableStyle
  3
Standard
 70
     0
 71
     0
 40
1.5
 41
1.5
280
     0
281
     0
  7
STANDARD
140
4.5
170
     2
 62
     0
 63
     7
283
     0
274
    -2
284
     1
 64
     0
275
    -2
285
     1
 65
     0
276
    -2
286
     1
 66
     0
277
    -2
287
     1
 67
     0
278
    -2
288
     1
 68
     0
279
    -2
289
     1
 69
     0
  7
STANDARD
140
6.0
170
     5
 62
     0
 63
     7
283
     0
274
    -2
284
     1
 64
     0
275
    -2
285
     1
 65
     0
276
    -2
286
     1
 66
     0
277
    -2
287
     1
 67
     0
278
    -2
288
     1
 68
     0
279
    -2
289
     1
 69
     0
  7
STANDARD
140
4.5
170
     5
 62
     0
 63
     7
283
     0
274
    -2
284
     1
 64
     0
275
    -2
285
     1
 65
     0
276
    -2
286
     1
 66
     0
277
    -2
287
     1
 67
     0
278
    -2
288
     1
 68
     0
279
    -2
289
     1
 69
     0
  0
DICTIONARYVAR
  5
93CE
102
{ACAD_REACTORS
330
45D
102
}
330
45D
100
DictionaryVariables
280
     0
  1
STANDARD
  0
DICTIONARYVAR
  5
A8F9
102
{ACAD_REACTORS
330
45D
102
}
330
45D
100
DictionaryVariables
280
     0
  1
1
  0
DICTIONARYVAR
  5
A8FA
102
{ACAD_REACTORS
330
45D
102
}
330
45D
100
DictionaryVariables
280
     0
  1

  0
DICTIONARYVAR
  5
45E
102
{ACAD_REACTORS
330
45D
102
}
330
45D
100
DictionaryVariables
280
     0
  1
127
  0
XRECORD
  5
902F
102
{ACAD_REACTORS
330
902E
102
}
330
902E
100
AcDbXrecord
280
     1
1070
     0
1070
     1
1070
     1
  0
DICTIONARY
  5
A8FD
330
5CF5
100
AcDbDictionary
280
     1
281
     1
  3
ACAD_XREC_ROUNDTRIP
360
A8FE
  0
DICTIONARY
  5
A8FF
330
5CF6
100
AcDbDictionary
280
     1
281
     1
  3
ACAD_XREC_ROUNDTRIP
360
A900
  0
XRECORD
  5
A8FE
102
{ACAD_REACTORS
330
A8FD
102
}
330
A8FD
100
AcDbXrecord
280
     1
102
SHADEPLOT
 70
     0
102
SHADEPLOTRESLEVEL
 70
     2
102
SHADEPLOTCUSTOMDPI
 70
   300
  0
XRECORD
  5
A900
102
{ACAD_REACTORS
330
A8FF
102
}
330
A8FF
100
AcDbXrecord
280
     1
102
SHADEPLOT
 70
     0
102
SHADEPLOTRESLEVEL
 70
     2
102
SHADEPLOTCUSTOMDPI
 70
   300
  0
ENDSEC
  0
EOF
