  0
SECTION
  2
HEADER
  9
$ACADVER
  1
AC1015
  9
$ACADMAINTVER
 70
    20
  9
$DWGCODEPAGE
  3
ANSI_932
  9
$INSBASE
 10
0.0
 20
0.0
 30
0.0
  9
$EXTMIN
 10
-0.0000000000002274
 20
-0.0000000000000568
 30
0.0
  9
$EXTMAX
 10
197.9999999999997
 20
290.0
 30
4.0
  9
$LIMMIN
 10
0.0
 20
0.0
  9
$LIMMAX
 10
420.0
 20
297.0
  9
$ORTHOMODE
 70
     0
  9
$REGENMODE
 70
     1
  9
$FILLMODE
 70
     1
  9
$QTEXTMODE
 70
     0
  9
$MIRRTEXT
 70
     1
  9
$LTSCALE
 40
1.0
  9
$ATTMODE
 70
     1
  9
$TEXTSIZE
 40
2.5
  9
$TRACEWID
 40
1.0
  9
$TEXTSTYLE
  7
TXT
  9
$CLAYER
  8
DIM
  9
$CELTYPE
  6
BYLAYER
  9
$CECOLOR
 62
   256
  9
$CELTSCALE
 40
1.0
  9
$DISPSILH
 70
     0
  9
$DIMSCALE
 40
1.0
  9
$DIMASZ
 40
2.5
  9
$DIMEXO
 40
1.0
  9
$DIMDLI
 40
6.0
  9
$DIMRND
 40
0.0
  9
$DIMDLE
 40
0.0
  9
$DIMEXE
 40
1.0
  9
$DIMTP
 40
0.0
  9
$DIMTM
 40
0.0
  9
$DIMTXT
 40
3.0
  9
$DIMCEN
 40
0.0
  9
$DIMTSZ
 40
0.0
  9
$DIMTOL
 70
     0
  9
$DIMLIM
 70
     0
  9
$DIMTIH
 70
     0
  9
$DIMTOH
 70
     0
  9
$DIMSE1
 70
     0
  9
$DIMSE2
 70
     0
  9
$DIMTAD
 70
     3
  9
$DIMZIN
 70
     8
  9
$DIMBLK
  1

  9
$DIMASO
 70
     1
  9
$DIMSHO
 70
     1
  9
$DIMPOST
  1

  9
$DIMAPOST
  1

  9
$DIMALT
 70
     0
  9
$DIMALTD
 70
     2
  9
$DIMALTF
 40
25.4
  9
$DIMLFAC
 40
1.0
  9
$DIMTOFL
 70
     0
  9
$DIMTVP
 40
0.0
  9
$DIMTIX
 70
     0
  9
$DIMSOXD
 70
     0
  9
$DIMSAH
 70
     1
  9
$DIMBLK1
  1
DOTSMALL
  9
$DIMBLK2
  1
DOTSMALL
  9
$DIMSTYLE
  2
A
  9
$DIMCLRD
 70
     6
  9
$DIMCLRE
 70
     6
  9
$DIMCLRT
 70
     3
  9
$DIMTFAC
 40
1.0
  9
$DIMGAP
 40
1.0
  9
$DIMJUST
 70
     0
  9
$DIMSD1
 70
     0
  9
$DIMSD2
 70
     0
  9
$DIMTOLJ
 70
     1
  9
$DIMTZIN
 70
     0
  9
$DIMALTZ
 70
     0
  9
$DIMALTTZ
 70
     0
  9
$DIMUPT
 70
     0
  9
$DIMDEC
 70
     1
  9
$DIMTDEC
 70
     1
  9
$DIMALTU
 70
     2
  9
$DIMALTTD
 70
     2
  9
$DIMTXSTY
  7
TXT
  9
$DIMAUNIT
 70
     0
  9
$DIMADEC
 70
     0
  9
$DIMALTRND
 40
0.0
  9
$DIMAZIN
 70
     0
  9
$DIMDSEP
 70
    46
  9
$DIMATFIT
 70
     3
  9
$DIMFRAC
 70
     0
  9
$DIMLDRBLK
  1

  9
$DIMLUNIT
 70
     2
  9
$DIMLWD
 70
    -2
  9
$DIMLWE
 70
    -2
  9
$DIMTMOVE
 70
     1
  9
$LUNITS
 70
     2
  9
$LUPREC
 70
     2
  9
$SKETCHINC
 40
1.0
  9
$FILLETRAD
 40
1.5
  9
$AUNITS
 70
     0
  9
$AUPREC
 70
     2
  9
$MENU
  1
.
  9
$ELEVATION
 40
0.0
  9
$PELEVATION
 40
0.0
  9
$THICKNESS
 40
0.0
  9
$LIMCHECK
 70
     0
  9
$CHAMFERA
 40
0.0
  9
$CHAMFERB
 40
0.0
  9
$CHAMFERC
 40
1.75
  9
$CHAMFERD
 40
0.0174532925199433
  9
$SKPOLY
 70
     0
  9
$TDCREATE
 40
2451555.620234838
  9
$TDUCREATE
 40
2451555.245234838
  9
$TDUPDATE
 40
2457828.484486366
  9
$TDUUPDATE
 40
2457828.109486366
  9
$TDINDWG
 40
2.4449291204
  9
$TDUSRTIMER
 40
2.4449291204
  9
$USRTIMER
 70
     1
  9
$ANGBASE
 50
0.0
  9
$ANGDIR
 70
     0
  9
$PDMODE
 70
     0
  9
$PDSIZE
 40
0.0
  9
$PLINEWID
 40
0.0
  9
$SPLFRAME
 70
     0
  9
$SPLINETYPE
 70
     6
  9
$SPLINESEGS
 70
     8
  9
$HANDSEED
  5
7CF8
  9
$SURFTAB1
 70
     6
  9
$SURFTAB2
 70
     6
  9
$SURFTYPE
 70
     6
  9
$SURFU
 70
     6
  9
$SURFV
 70
     6
  9
$UCSBASE
  2

  9
$UCSNAME
  2

  9
$UCSORG
 10
0.0
 20
0.0
 30
0.0
  9
$UCSXDIR
 10
1.0
 20
0.0
 30
0.0
  9
$UCSYDIR
 10
0.0
 20
1.0
 30
0.0
  9
$UCSORTHOREF
  2

  9
$UCSORTHOVIEW
 70
     0
  9
$UCSORGTOP
 10
0.0
 20
0.0
 30
0.0
  9
$UCSORGBOTTOM
 10
0.0
 20
0.0
 30
0.0
  9
$UCSORGLEFT
 10
0.0
 20
0.0
 30
0.0
  9
$UCSORGRIGHT
 10
0.0
 20
0.0
 30
0.0
  9
$UCSORGFRONT
 10
0.0
 20
0.0
 30
0.0
  9
$UCSORGBACK
 10
0.0
 20
0.0
 30
0.0
  9
$PUCSBASE
  2

  9
$PUCSNAME
  2

  9
$PUCSORG
 10
0.0
 20
0.0
 30
0.0
  9
$PUCSXDIR
 10
1.0
 20
0.0
 30
0.0
  9
$PUCSYDIR
 10
0.0
 20
1.0
 30
0.0
  9
$PUCSORTHOREF
  2

  9
$PUCSORTHOVIEW
 70
     0
  9
$PUCSORGTOP
 10
0.0
 20
0.0
 30
0.0
  9
$PUCSORGBOTTOM
 10
0.0
 20
0.0
 30
0.0
  9
$PUCSORGLEFT
 10
0.0
 20
0.0
 30
0.0
  9
$PUCSORGRIGHT
 10
0.0
 20
0.0
 30
0.0
  9
$PUCSORGFRONT
 10
0.0
 20
0.0
 30
0.0
  9
$PUCSORGBACK
 10
0.0
 20
0.0
 30
0.0
  9
$USERI1
 70
     0
  9
$USERI2
 70
     0
  9
$USERI3
 70
     0
  9
$USERI4
 70
     0
  9
$USERI5
 70
     0
  9
$USERR1
 40
0.0
  9
$USERR2
 40
0.0
  9
$USERR3
 40
0.0
  9
$USERR4
 40
0.0
  9
$USERR5
 40
0.0
  9
$WORLDVIEW
 70
     1
  9
$SHADEDGE
 70
     3
  9
$SHADEDIF
 70
    70
  9
$TILEMODE
 70
     1
  9
$MAXACTVP
 70
    48
  9
$PINSBASE
 10
0.0
 20
0.0
 30
0.0
  9
$PLIMCHECK
 70
     0
  9
$PEXTMIN
 10
1.000000000000000E+20
 20
1.000000000000000E+20
 30
1.000000000000000E+20
  9
$PEXTMAX
 10
-1.000000000000000E+20
 20
-1.000000000000000E+20
 30
-1.000000000000000E+20
  9
$PLIMMIN
 10
0.0
 20
0.0
  9
$PLIMMAX
 10
420.0
 20
297.0
  9
$UNITMODE
 70
     0
  9
$VISRETAIN
 70
     1
  9
$PLINEGEN
 70
     0
  9
$PSLTSCALE
 70
     1
  9
$TREEDEPTH
 70
  3020
  9
$CMLSTYLE
  2
STANDARD
  9
$CMLJUST
 70
     0
  9
$CMLSCALE
 40
20.0
  9
$PROXYGRAPHICS
 70
     1
  9
$MEASUREMENT
 70
     1
  9
$CELWEIGHT
370
    -1
  9
$ENDCAPS
280
     0
  9
$JOINSTYLE
280
     0
  9
$LWDISPLAY
290
     0
  9
$INSUNITS
 70
     0
  9
$HYPERLINKBASE
  1

  9
$STYLESHEET
  1
LIN.ctb
  9
$XEDIT
290
     1
  9
$CEPSNTYPE
380
     0
  9
$PSTYLEMODE
290
     1
  9
$FINGERPRINTGUID
  2
{1CF51E8A-A506-11D4-A7D9-AF69F5C20846}
  9
$VERSIONGUID
  2
{737E49B2-B003-46D0-AA88-15D973C45A6C}
  9
$EXTNAMES
290
     1
  9
$PSVPSCALE
 40
0.0
  9
$OLESTARTUP
290
     0
  0
ENDSEC
  0
SECTION
  2
CLASSES
  0
CLASS
  1
DICTIONARYVAR
  2
AcDbDictionaryVar
  3
ObjectDBX Classes
 90
        0
280
     0
281
     0
  0
CLASS
  1
SORTENTSTABLE
  2
AcDbSortentsTable
  3
ObjectDBX Classes
 90
        0
280
     0
281
     0
  0
CLASS
  1
ACDBDICTIONARYWDFLT
  2
AcDbDictionaryWithDefault
  3
ObjectDBX Classes
 90
        0
280
     0
281
     0
  0
CLASS
  1
ACDBPLACEHOLDER
  2
AcDbPlaceHolder
  3
ObjectDBX Classes
 90
        0
280
     0
281
     0
  0
CLASS
  1
LAYOUT
  2
AcDbLayout
  3
ObjectDBX Classes
 90
        0
280
     0
281
     0
  0
CLASS
  1
TABLESTYLE
  2
AcDbTableStyle
  3
ObjectDBX Classes
 90
     2047
280
     0
281
     0
  0
ENDSEC
  0
SECTION
  2
TABLES
  0
TABLE
  2
VPORT
  5
8
330
0
100
AcDbSymbolTable
 70
     2
  0
VPORT
  5
7CF2
330
8
100
AcDbSymbolTableRecord
100
AcDbViewportTableRecord
  2
*Active
 70
     0
 10
0.0
 20
0.0
 11
1.0
 21
1.0
 12
281.2035179769546
 22
145.0011920781365
 13
0.0
 23
0.0
 14
10.0
 24
10.0
 15
10.0
 25
10.0
 16
0.0
 26
0.0
 36
1.0
 17
0.0
 27
0.0
 37
0.0
 40
293.5338488071522
 41
2.647181628392484
 42
50.0
 43
0.0
 44
0.0
 50
0.0
 51
0.0
 71
     0
 72
   100
 73
     1
 74
     1
 75
     0
 76
     0
 77
     0
 78
     0
281
     0
 65
     1
110
0.0
120
0.0
130
0.0
111
1.0
121
0.0
131
0.0
112
0.0
122
1.0
132
0.0
 79
     0
146
0.0
  0
ENDTAB
  0
TABLE
  2
LTYPE
  5
5
330
0
100
AcDbSymbolTable
 70
     7
  0
LTYPE
  5
12
330
5
100
AcDbSymbolTableRecord
100
AcDbLinetypeTableRecord
  2
BYBLOCK
 70
     0
  3

 72
    65
 73
     0
 40
0.0
  0
LTYPE
  5
13
330
5
100
AcDbSymbolTableRecord
100
AcDbLinetypeTableRecord
  2
BYLAYER
 70
     0
  3

 72
    65
 73
     0
 40
0.0
  0
LTYPE
  5
14
330
5
100
AcDbSymbolTableRecord
100
AcDbLinetypeTableRecord
  2
CONTINUOUS
 70
     0
  3
Solid line
 72
    65
 73
     0
 40
0.0
  0
LTYPE
  5
9D
330
5
100
AcDbSymbolTableRecord
100
AcDbLinetypeTableRecord
  2
CENTERX2
 70
     0
  3
Center (2x) ________  __  ________  __  _____
 72
    65
 73
     4
 40
101.6
 49
63.5
 74
     0
 49
-12.7
 74
     0
 49
12.7
 74
     0
 49
-12.7
 74
     0
  0
LTYPE
  5
A1
330
5
100
AcDbSymbolTableRecord
100
AcDbLinetypeTableRecord
  2
DASHED
 70
     0
  3
Dashed __ __ __ __ __ __ __ __ __ __ __ __ __ _
 72
    65
 73
     2
 40
19.05
 49
12.7
 74
     0
 49
-6.349999999999999
 74
     0
  0
LTYPE
  5
A2
330
5
100
AcDbSymbolTableRecord
100
AcDbLinetypeTableRecord
  2
DASHED2
 70
     0
  3
Dashed (.5x) _ _ _ _ _ _ _ _ _ _ _ _ _ _ _ _ _
 72
    65
 73
     2
 40
9.524999999999998
 49
6.349999999999999
 74
     0
 49
-3.174999999999999
 74
     0
  0
LTYPE
  5
A5
330
5
100
AcDbSymbolTableRecord
100
AcDbLinetypeTableRecord
  2
DIVIDE2
 70
     0
  3
Divide (.5x) __..__..__..__..__..__..__..__.._
 72
    65
 73
     6
 40
15.875
 49
6.349999999999999
 74
     0
 49
-3.174999999999999
 74
     0
 49
0.0
 74
     0
 49
-3.174999999999999
 74
     0
 49
0.0
 74
     0
 49
-3.174999999999999
 74
     0
  0
LTYPE
  5
650B
330
5
100
AcDbSymbolTableRecord
100
AcDbLinetypeTableRecord
  2
CENTER
 70
     0
  3
Center ____ _ ____ _ ____ _ ____ _ ____ _ ____
 72
    65
 73
     4
 40
50.8
 49
31.75
 74
     0
 49
-6.349999999999999
 74
     0
 49
6.349999999999999
 74
     0
 49
-6.349999999999999
 74
     0
  0
LTYPE
  5
650C
330
5
100
AcDbSymbolTableRecord
100
AcDbLinetypeTableRecord
  2
HIDDEN
 70
     0
  3
Hidden __ __ __ __ __ __ __ __ __ __ __ __ __ _
 72
    65
 73
     2
 40
9.524999999999998
 49
6.349999999999999
 74
     0
 49
-3.174999999999999
 74
     0
  0
ENDTAB
  0
TABLE
  2
LAYER
  5
2
330
0
100
AcDbSymbolTable
 70
    10
  0
LAYER
  5
E
330
2
100
AcDbSymbolTableRecord
100
AcDbLayerTableRecord
  2
0
 70
     0
 62
     7
  6
CONTINUOUS
370
    -3
390
5CF2
  0
LAYER
  5
B9
330
2
100
AcDbSymbolTableRecord
100
AcDbLayerTableRecord
  2
DIM
 70
     0
 62
     3
  6
CONTINUOUS
370
    -3
390
5CF2
  0
LAYER
  5
F2
330
2
100
AcDbSymbolTableRecord
100
AcDbLayerTableRecord
  2
DEFPOINTS
 70
     0
 62
     4
  6
CONTINUOUS
290
     0
370
    -3
390
5CF2
  0
LAYER
  5
5F8B
330
2
100
AcDbSymbolTableRecord
100
AcDbLayerTableRecord
  2
公差
 70
     0
 62
     6
  6
CONTINUOUS
370
    -3
390
5CF2
  0
LAYER
  5
644E
330
2
100
AcDbSymbolTableRecord
100
AcDbLayerTableRecord
  2
図框線
 70
     0
 62
     9
  6
CONTINUOUS
370
    -3
390
5CF2
  0
LAYER
  5
650D
330
2
100
AcDbSymbolTableRecord
100
AcDbLayerTableRecord
  2
中心線
 70
     0
 62
     1
  6
CENTER
370
    -3
390
5CF2
  0
LAYER
  5
650E
330
2
100
AcDbSymbolTableRecord
100
AcDbLayerTableRecord
  2
本体内線
 70
     0
 62
     4
  6
HIDDEN
370
    -3
390
5CF2
  0
LAYER
  5
650F
330
2
100
AcDbSymbolTableRecord
100
AcDbLayerTableRecord
  2
本体外線
 70
     0
 62
     2
  6
CONTINUOUS
370
    -3
390
5CF2
  0
LAYER
  5
6510
330
2
100
AcDbSymbolTableRecord
100
AcDbLayerTableRecord
  2
剖面線
 70
     0
 62
     5
  6
CONTINUOUS
370
    -3
390
5CF2
  0
LAYER
  5
7CCA
330
2
100
AcDbSymbolTableRecord
100
AcDbLayerTableRecord
  2
mark
 70
     0
 62
     6
  6
CONTINUOUS
370
    -3
390
5CF2
  0
ENDTAB
  0
TABLE
  2
STYLE
  5
3
330
0
100
AcDbSymbolTable
 70
     5
  0
STYLE
  5
F
330
3
100
AcDbSymbolTableRecord
100
AcDbTextStyleTableRecord
  2
STANDARD
 70
     0
 40
0.0
 41
1.0
 50
0.0
 71
     0
 42
2.5
  3
txt
  4

  0
STYLE
  5
BE
330
3
100
AcDbSymbolTableRecord
100
AcDbTextStyleTableRecord
  2
ISOCP3
 70
     0
 40
0.0
 41
1.0
 50
0.0
 71
     0
 42
2.5
  3
isocp3.shx
  4

  0
STYLE
  5
2A37
330
3
100
AcDbSymbolTableRecord
100
AcDbTextStyleTableRecord
  2
TXT
 70
     0
 40
0.0
 41
1.0
 50
0.0
 71
     0
 42
2.5
  3
txt.shx
  4
bigfont.shx
  0
STYLE
  5
5DCB
330
3
100
AcDbSymbolTableRecord
100
AcDbTextStyleTableRecord
  2
LKK
 70
     0
 40
50.0
 41
1.5
 50
0.0
 71
     0
 42
50.0
  3
MS PGothic.ttf
  4

1001
ACAD
1000
MS PGothic
1071
    32818
  0
STYLE
  5
5DCC
330
3
100
AcDbSymbolTableRecord
100
AcDbTextStyleTableRecord
  2
JL
 70
     0
 40
10.0
 41
0.5
 50
0.0
 71
     0
 42
5.0
  3
MS Mincho.ttf
  4

1001
ACAD
1000
MS Mincho
1071
    32785
  0
ENDTAB
  0
TABLE
  2
VIEW
  5
6
330
0
100
AcDbSymbolTable
 70
     0
  0
ENDTAB
  0
TABLE
  2
UCS
  5
7
330
0
100
AcDbSymbolTable
 70
     0
  0
ENDTAB
  0
TABLE
  2
APPID
  5
9
330
0
100
AcDbSymbolTable
 70
     6
  0
APPID
  5
10
330
9
100
AcDbSymbolTableRecord
100
AcDbRegAppTableRecord
  2
ACAD
 70
     0
  0
APPID
  5
7CAE
330
9
100
AcDbSymbolTableRecord
100
AcDbRegAppTableRecord
  2
ACAD_PSEXT
 70
     0
  0
APPID
  5
7CCB
330
9
100
AcDbSymbolTableRecord
100
AcDbRegAppTableRecord
  2
ACAD_DSTYLE_DIMEXT_LENGTH
 70
     0
  0
APPID
  5
7CCC
330
9
100
AcDbSymbolTableRecord
100
AcDbRegAppTableRecord
  2
ACAD_DSTYLE_DIMEXT_ENABLED
 70
     0
  0
APPID
  5
7CCD
330
9
100
AcDbSymbolTableRecord
100
AcDbRegAppTableRecord
  2
ACAD_DSTYLE_DIMJOGGED_JOGANGLE_SYMBOL
 70
     0
  0
APPID
  5
7CCE
330
9
100
AcDbSymbolTableRecord
100
AcDbRegAppTableRecord
  2
ACAD_DSTYLE_DIMARC_LENGTH_SYMBOL
 70
     0
  0
ENDTAB
  0
TABLE
  2
DIMSTYLE
  5
A
330
0
100
AcDbSymbolTable
 70
     3
100
AcDbDimStyleTable
 71
     1
340
1A4
  0
DIMSTYLE
105
1D
330
A
100
AcDbSymbolTableRecord
100
AcDbDimStyleTableRecord
  2
STANDARD
 70
     0
 41
3.0
 42
0.06
 77
     3
140
4.0
144
0.3333333333333333
172
     1
340
F
  0
DIMSTYLE
105
1A4
102
{ACAD_REACTORS
330
6770
330
677F
330
6864
330
6C92
330
6CAA
330
74C6
330
7575
330
7BD1
102
}
330
A
100
AcDbSymbolTableRecord
100
AcDbDimStyleTableRecord
  2
A
 70
     0
 41
2.5
 42
1.0
 43
6.0
 44
1.0
 73
     0
 74
     0
 77
     3
 78
     8
140
3.0
141
0.0
147
1.0
176
     6
177
     6
178
     3
271
     1
272
     1
279
     1
340
2A37
  0
DIMSTYLE
105
6006
330
A
100
AcDbSymbolTableRecord
100
AcDbDimStyleTableRecord
  2
ISO-25
 70
     0
 40
0.0
 41
2.0
 42
0.3
 43
1.0
 44
0.3
 73
     0
 74
     0
 77
     1
 78
     8
140
3.0
147
1.0
172
     1
176
     6
177
     6
178
     3
271
     1
272
     2
284
     8
288
     1
289
     2
340
F
  0
ENDTAB
  0
TABLE
  2
BLOCK_RECORD
  5
1
330
0
100
AcDbSymbolTable
 70
    11
  0
BLOCK_RECORD
  5
18
102
{ACAD_XDICTIONARY
360
45F
102
}
330
1
100
AcDbSymbolTableRecord
100
AcDbBlockTableRecord
  2
*MODEL_SPACE
340
5CF5
  0
BLOCK_RECORD
  5
15
102
{ACAD_XDICTIONARY
360
5D89
102
}
330
1
100
AcDbSymbolTableRecord
100
AcDbBlockTableRecord
  2
*PAPER_SPACE
340
5CF6
  0
BLOCK_RECORD
  5
639D
330
1
100
AcDbSymbolTableRecord
100
AcDbBlockTableRecord
  2
A$C255C26A2
340
0
102
{BLKREFS
331
63A3
102
}
  0
BLOCK_RECORD
  5
67BC
330
1
100
AcDbSymbolTableRecord
100
AcDbBlockTableRecord
  2
*D1
340
0
  0
BLOCK_RECORD
  5
67D9
330
1
100
AcDbSymbolTableRecord
100
AcDbBlockTableRecord
  2
*D2
340
0
  0
BLOCK_RECORD
  5
6854
330
1
100
AcDbSymbolTableRecord
100
AcDbBlockTableRecord
  2
*D3
340
0
  0
BLOCK_RECORD
  5
6C86
330
1
100
AcDbSymbolTableRecord
100
AcDbBlockTableRecord
  2
*D4
340
0
  0
BLOCK_RECORD
  5
6C9E
330
1
100
AcDbSymbolTableRecord
100
AcDbBlockTableRecord
  2
*D5
340
0
  0
BLOCK_RECORD
  5
74B6
330
1
100
AcDbSymbolTableRecord
100
AcDbBlockTableRecord
  2
*D6
340
0
  0
BLOCK_RECORD
  5
7569
330
1
100
AcDbSymbolTableRecord
100
AcDbBlockTableRecord
  2
*D7
340
0
  0
BLOCK_RECORD
  5
7A5F
330
1
100
AcDbSymbolTableRecord
100
AcDbBlockTableRecord
  2
_DOTSMALL
340
0
  0
BLOCK_RECORD
  5
7BC9
330
1
100
AcDbSymbolTableRecord
100
AcDbBlockTableRecord
  2
*D9
340
0
  0
BLOCK_RECORD
  5
7CC4
330
1
100
AcDbSymbolTableRecord
100
AcDbBlockTableRecord
  2
_Open30
340
0
  0
ENDTAB
  0
ENDSEC
  0
SECTION
  2
BLOCKS
  0
BLOCK
  5
19
330
18
100
AcDbEntity
  8
0
100
AcDbBlockBegin
  2
*MODEL_SPACE
 70
     0
 10
0.0
 20
0.0
 30
0.0
  3
*MODEL_SPACE
  1

  0
ENDBLK
  5
1A
330
18
100
AcDbEntity
  8
0
100
AcDbBlockEnd
  0
BLOCK
  5
16
330
15
100
AcDbEntity
 67
     1
  8
0
100
AcDbBlockBegin
  2
*PAPER_SPACE
 70
     0
 10
0.0
 20
0.0
 30
0.0
  3
*PAPER_SPACE
  1

  0
ENDBLK
  5
17
330
15
100
AcDbEntity
 67
     1
  8
0
100
AcDbBlockEnd
  0
BLOCK
  5
63A1
330
639D
100
AcDbEntity
  8
0
100
AcDbBlockBegin
  2
A$C255C26A2
 70
     0
 10
0.0
 20
0.0
 30
0.0
  3
A$C255C26A2
  1

  0
LWPOLYLINE
  5
639E
330
639D
100
AcDbEntity
  8
0
100
AcDbPolyline
 90
        3
 70
     1
 43
0.0
 10
7.014806023851633
 20
0.0000006939811783
 10
5.611844869720698
 20
2.430000693981241
 10
8.417767177982568
 20
2.430000693981241
  0
LWPOLYLINE
  5
639F
330
639D
100
AcDbEntity
  8
0
100
AcDbPolyline
 90
        3
 70
     1
 43
0.0
 10
4.20888371558999
 20
0.0000006939811783
 10
2.805922561459283
 20
2.430000693981241
 10
5.611844869720698
 20
2.430000693981241
  0
LWPOLYLINE
  5
63A0
330
639D
100
AcDbEntity
  8
0
100
AcDbPolyline
 90
        3
 70
     1
 43
0.0
 10
1.402961407328348
 20
0.0000006939811783
 10
0.0000002531974133
 20
2.430000693981241
 10
2.805922561459283
 20
2.430000693981241
  0
ENDBLK
  5
63A2
330
639D
100
AcDbEntity
  8
0
100
AcDbBlockEnd
  0
BLOCK
  5
7C72
330
67BC
100
AcDbEntity
  8
0
100
AcDbBlockBegin
  2
*D1
 70
     1
 10
0.0
 20
0.0
 30
0.0
  3
*D1
  1

  0
LINE
  5
7C73
330
67BC
100
AcDbEntity
  8
0
  6
ByBlock
 62
     6
100
AcDbLine
 10
85.07447368988954
 20
105.861746300992
 30
0.0
 11
85.07447368988954
 21
95.28004867963899
 31
0.0
  0
LINE
  5
7C74
330
67BC
100
AcDbEntity
  8
0
  6
ByBlock
 62
     6
100
AcDbLine
 10
105.0744736898895
 20
105.8617463009922
 30
0.0
 11
105.0744736898895
 21
95.28004867963899
 31
0.0
  0
LINE
  5
7C75
330
67BC
100
AcDbEntity
  8
0
  6
ByBlock
 62
     6
100
AcDbLine
 10
87.57447368988954
 20
96.28004867963898
 30
0.0
 11
102.5744736898895
 21
96.28004867963898
 31
0.0
  0
MTEXT
  5
7C76
330
67BC
100
AcDbEntity
  8
0
  6
ByBlock
 62
     3
100
AcDbMText
 10
95.07447368988954
 20
98.78004867963898
 30
0.0
 40
3.0
 41
0.0
 71
     5
 72
     1
  1
\A1;M20X1.0P
  7
TXT
 73
     1
 44
1.0
1001
ACAD
1000
MTEXTBEGIN
1070
    73
1070
     1
1070
    44
1040
1.0
1070
    74
1070
     0
1000
MTEXTEND
  0
SOLID
  5
7C77
330
67BC
100
AcDbEntity
  8
0
  6
ByBlock
 62
     6
100
AcDbTrace
 10
87.57447368988954
 20
96.69671534630566
 30
0.0
 11
87.57447368988954
 21
95.8633820129723
 31
0.0
 12
85.07447368988954
 22
96.28004867963898
 32
0.0
 13
85.07447368988954
 23
96.28004867963898
 33
0.0
  0
SOLID
  5
7C78
330
67BC
100
AcDbEntity
  8
0
  6
ByBlock
 62
     6
100
AcDbTrace
 10
102.5744736898895
 20
96.69671534630566
 30
0.0
 11
102.5744736898895
 21
95.8633820129723
 31
0.0
 12
105.0744736898895
 22
96.28004867963898
 32
0.0
 13
105.0744736898895
 23
96.28004867963898
 33
0.0
  0
POINT
  5
7C79
330
67BC
100
AcDbEntity
  8
DEFPOINTS
  6
ByBlock
 62
     0
100
AcDbPoint
 10
85.07447368988954
 20
106.861746300992
 30
0.0
  0
POINT
  5
7C7A
330
67BC
100
AcDbEntity
  8
DEFPOINTS
  6
ByBlock
 62
     0
100
AcDbPoint
 10
105.0744736898895
 20
106.8617463009922
 30
0.0
  0
POINT
  5
7C7B
330
67BC
100
AcDbEntity
  8
DEFPOINTS
  6
ByBlock
 62
     0
100
AcDbPoint
 10
105.0744736898895
 20
96.28004867963898
 30
0.0
  0
ENDBLK
  5
7C7C
330
67BC
100
AcDbEntity
  8
0
100
AcDbBlockEnd
  0
BLOCK
  5
6C2B
330
67D9
100
AcDbEntity
  8
0
100
AcDbBlockBegin
  2
*D2
 70
     1
 10
0.0
 20
0.0
 30
0.0
  3
*D2
  1

  0
LINE
  5
6C2C
330
67D9
100
AcDbEntity
  8
0
  6
ByBlock
 62
     6
100
AcDbLine
 10
79.68718311844742
 20
199.7871061742178
 30
0.0
 11
79.68718311844742
 21
174.5091432966803
 31
0.0
  0
LINE
  5
6C2D
330
67D9
100
AcDbEntity
  8
0
  6
ByBlock
 62
     6
100
AcDbLine
 10
81.67252176916111
 20
199.7871061742177
 30
0.0
 11
81.67252176916111
 21
174.5091432966803
 31
0.0
  0
LINE
  5
6C2E
330
67D9
100
AcDbEntity
  8
0
  6
ByBlock
 62
     6
100
AcDbLine
 10
77.18718311844742
 20
175.5091432966803
 30
0.0
 11
74.68718311844742
 21
175.5091432966803
 31
0.0
  0
LINE
  5
6C2F
330
67D9
100
AcDbEntity
  8
0
  6
ByBlock
 62
     6
100
AcDbLine
 10
84.17252176916111
 20
175.5091432966803
 30
0.0
 11
86.67252176916111
 21
175.5091432966803
 31
0.0
  0
MTEXT
  5
6C30
330
67D9
100
AcDbEntity
  8
0
  6
ByBlock
 62
     3
100
AcDbMText
 10
86.67252176916111
 20
178.0091432966803
 30
0.0
 40
3.0
 41
0.0
 71
     5
 72
     1
  1
\A1;2
  7
TXT
 73
     1
 44
1.0
1001
ACAD
1000
MTEXTBEGIN
1070
    73
1070
     1
1070
    44
1040
1.0
1070
    74
1070
     0
1000
MTEXTEND
  0
LINE
  5
6C31
330
67D9
100
AcDbEntity
  8
0
  6
ByBlock
 62
     6
100
AcDbLine
 10
79.68718311844742
 20
175.5091432966803
 30
0.0
 11
81.67252176916111
 21
175.5091432966803
 31
0.0
  0
SOLID
  5
6C32
330
67D9
100
AcDbEntity
  8
0
  6
ByBlock
 62
     6
100
AcDbTrace
 10
77.18718311844742
 20
175.925809963347
 30
0.0
 11
77.18718311844742
 21
175.0924766300137
 31
0.0
 12
79.68718311844742
 22
175.5091432966803
 32
0.0
 13
79.68718311844742
 23
175.5091432966803
 33
0.0
  0
SOLID
  5
6C33
330
67D9
100
AcDbEntity
  8
0
  6
ByBlock
 62
     6
100
AcDbTrace
 10
84.17252176916111
 20
175.925809963347
 30
0.0
 11
84.17252176916111
 21
175.0924766300137
 31
0.0
 12
81.67252176916111
 22
175.5091432966803
 32
0.0
 13
81.67252176916111
 23
175.5091432966803
 33
0.0
  0
POINT
  5
6C34
330
67D9
100
AcDbEntity
  8
DEFPOINTS
  6
ByBlock
 62
     0
100
AcDbPoint
 10
79.68718311844742
 20
200.7871061742178
 30
0.0
  0
POINT
  5
6C35
330
67D9
100
AcDbEntity
  8
DEFPOINTS
  6
ByBlock
 62
     0
100
AcDbPoint
 10
81.67252176916111
 20
200.7871061742178
 30
0.0
  0
POINT
  5
6C36
330
67D9
100
AcDbEntity
  8
DEFPOINTS
  6
ByBlock
 62
     0
100
AcDbPoint
 10
81.67252176916111
 20
175.5091432966803
 30
0.0
  0
ENDBLK
  5
6C37
330
67D9
100
AcDbEntity
  8
0
100
AcDbBlockEnd
  0
BLOCK
  5
79E7
330
6854
100
AcDbEntity
  8
0
100
AcDbBlockBegin
  2
*D3
 70
     1
 10
0.0
 20
0.0
 30
0.0
  3
*D3
  1

  0
LINE
  5
79E8
330
6854
100
AcDbEntity
  8
0
  6
ByBlock
 62
     6
100
AcDbLine
 10
290.6064149450902
 20
189.4670777530051
 30
0.0
 11
278.6428571963152
 21
189.4670777530051
 31
0.0
  0
LINE
  5
79E9
330
6854
100
AcDbEntity
  8
0
  6
ByBlock
 62
     6
100
AcDbLine
 10
290.6064149450902
 20
193.4670777530051
 30
0.0
 11
278.6428571963152
 21
193.4670777530051
 31
0.0
  0
LINE
  5
79EA
330
6854
100
AcDbEntity
  8
0
  6
ByBlock
 62
     6
100
AcDbLine
 10
279.6428571963152
 20
186.9670777530051
 30
0.0
 11
279.6428571963152
 21
184.4670777530051
 31
0.0
  0
LINE
  5
79EB
330
6854
100
AcDbEntity
  8
0
  6
ByBlock
 62
     6
100
AcDbLine
 10
279.6428571963152
 20
195.9670777530051
 30
0.0
 11
279.6428571963152
 21
198.4670777530051
 31
0.0
  0
MTEXT
  5
79EC
330
6854
100
AcDbEntity
  8
0
  6
ByBlock
 62
     3
100
AcDbMText
 10
276.2684531554594
 20
204.1451693193956
 30
0.0
 40
3.0
 41
0.0
 71
     5
 72
     1
  1
\A1;4      (3等分)
  7
TXT
 11
0.0000000000000001
 21
1.0
 31
0.0
 73
     1
 44
1.0
1001
ACAD
1000
MTEXTBEGIN
1070
    73
1070
     1
1070
    44
1040
1.0
1070
    74
1070
     0
1000
MTEXTEND
  0
LINE
  5
79ED
330
6854
100
AcDbEntity
  8
0
  6
ByBlock
 62
     6
100
AcDbLine
 10
279.6428571963152
 20
189.4670777530051
 30
0.0
 11
279.6428571963152
 21
193.4670777530051
 31
0.0
  0
SOLID
  5
79EE
330
6854
100
AcDbEntity
  8
0
  6
ByBlock
 62
     6
100
AcDbTrace
 10
279.2261905296485
 20
186.9670777530051
 30
0.0
 11
280.0595238629819
 21
186.9670777530051
 31
0.0
 12
279.6428571963152
 22
189.4670777530051
 32
0.0
 13
279.6428571963152
 23
189.4670777530051
 33
0.0
  0
SOLID
  5
79EF
330
6854
100
AcDbEntity
  8
0
  6
ByBlock
 62
     6
100
AcDbTrace
 10
279.2261905296485
 20
195.9670777530051
 30
0.0
 11
280.0595238629819
 21
195.9670777530051
 31
0.0
 12
279.6428571963152
 22
193.4670777530051
 32
0.0
 13
279.6428571963152
 23
193.4670777530051
 33
0.0
  0
POINT
  5
79F0
330
6854
100
AcDbEntity
  8
DEFPOINTS
  6
ByBlock
 62
     0
100
AcDbPoint
 10
291.6064149450902
 20
189.4670777530051
 30
0.0
  0
POINT
  5
79F1
330
6854
100
AcDbEntity
  8
DEFPOINTS
  6
ByBlock
 62
     0
100
AcDbPoint
 10
291.6064149450903
 20
193.4670777530051
 30
0.0
  0
POINT
  5
79F2
330
6854
100
AcDbEntity
  8
DEFPOINTS
  6
ByBlock
 62
     0
100
AcDbPoint
 10
279.6428571963152
 20
193.4670777530051
 30
0.0
  0
ENDBLK
  5
79F3
330
6854
100
AcDbEntity
  8
0
100
AcDbBlockEnd
  0
BLOCK
  5
7C2D
330
6C86
100
AcDbEntity
  8
0
100
AcDbBlockBegin
  2
*D4
 70
     1
 10
0.0
 20
0.0
 30
0.0
  3
*D4
  1

  0
LINE
  5
7C2E
330
6C86
100
AcDbEntity
  8
0
  6
ByBlock
 62
     6
100
AcDbLine
 10
81.57447368988959
 20
117.361746300992
 30
0.0
 11
81.57447368988959
 21
134.9584352061948
 31
0.0
  0
LINE
  5
7C2F
330
6C86
100
AcDbEntity
  8
0
  6
ByBlock
 62
     6
100
AcDbLine
 10
108.5744736898896
 20
117.3617463009921
 30
0.0
 11
108.5744736898896
 21
134.9584352061948
 31
0.0
  0
LINE
  5
7C30
330
6C86
100
AcDbEntity
  8
0
  6
ByBlock
 62
     6
100
AcDbLine
 10
84.07447368988959
 20
133.9584352061948
 30
0.0
 11
106.0744736898896
 21
133.9584352061948
 31
0.0
  0
SOLID
  5
7C31
330
6C86
100
AcDbEntity
  8
0
  6
ByBlock
 62
     6
100
AcDbTrace
 10
84.07447368988959
 20
134.3751018728615
 30
0.0
 11
84.07447368988959
 21
133.5417685395282
 31
0.0
 12
81.57447368988959
 22
133.9584352061948
 32
0.0
 13
81.57447368988959
 23
133.9584352061948
 33
0.0
  0
SOLID
  5
7C32
330
6C86
100
AcDbEntity
  8
0
  6
ByBlock
 62
     6
100
AcDbTrace
 10
106.0744736898896
 20
134.3751018728615
 30
0.0
 11
106.0744736898896
 21
133.5417685395282
 31
0.0
 12
108.5744736898896
 22
133.9584352061948
 32
0.0
 13
108.5744736898896
 23
133.9584352061948
 33
0.0
  0
MTEXT
  5
7C33
330
6C86
100
AcDbEntity
  8
0
  6
ByBlock
 62
     3
100
AcDbMText
 10
95.07447368988961
 20
136.4584352061948
 30
0.0
 40
3.0
 41
0.0
 71
     5
 72
     1
  1
\A1;\U+220527±0.5
  7
TXT
 73
     1
 44
1.0
1001
ACAD
1000
MTEXTBEGIN
1070
    73
1070
     1
1070
    44
1040
1.0
1070
    74
1070
     0
1000
MTEXTEND
  0
POINT
  5
7C34
330
6C86
100
AcDbEntity
  8
DEFPOINTS
  6
ByBlock
 62
     0
100
AcDbPoint
 10
81.57447368988959
 20
116.361746300992
 30
0.0
  0
POINT
  5
7C35
330
6C86
100
AcDbEntity
  8
DEFPOINTS
  6
ByBlock
 62
     0
100
AcDbPoint
 10
108.5744736898896
 20
116.3617463009921
 30
0.0
  0
POINT
  5
7C36
330
6C86
100
AcDbEntity
  8
DEFPOINTS
  6
ByBlock
 62
     0
100
AcDbPoint
 10
108.5744736898896
 20
133.9584352061948
 30
0.0
  0
ENDBLK
  5
7C37
330
6C86
100
AcDbEntity
  8
0
100
AcDbBlockEnd
  0
BLOCK
  5
7C5B
330
6C9E
100
AcDbEntity
  8
0
100
AcDbBlockBegin
  2
*D5
 70
     1
 10
0.0
 20
0.0
 30
0.0
  3
*D5
  1

  0
LINE
  5
7C5C
330
6C9E
100
AcDbEntity
  8
0
  6
ByBlock
 62
     6
100
AcDbLine
 10
79.07859108179582
 20
115.9523985535638
 30
0.0
 11
79.07859108179582
 21
142.0381046300758
 31
0.0
  0
LINE
  5
7C5D
330
6C9E
100
AcDbEntity
  8
0
  6
ByBlock
 62
     6
100
AcDbLine
 10
111.0744736898896
 20
115.8617463009921
 30
0.0
 11
111.0744736898896
 21
142.0381046300758
 31
0.0
  0
LINE
  5
7C5E
330
6C9E
100
AcDbEntity
  8
0
  6
ByBlock
 62
     6
100
AcDbLine
 10
81.57859108179582
 20
141.0381046300758
 30
0.0
 11
108.5744736898896
 21
141.0381046300758
 31
0.0
  0
MTEXT
  5
7C5F
330
6C9E
100
AcDbEntity
  8
0
  6
ByBlock
 62
     3
100
AcDbMText
 10
89.54956032071299
 20
144.350525654164
 30
0.0
 40
3.0
 41
0.0
 71
     5
 72
     1
  1
\A1;\U+220532
  7
TXT
 73
     1
 44
1.0
1001
ACAD
1000
MTEXTBEGIN
1070
    73
1070
     1
1070
    44
1040
1.0
1070
    74
1070
     0
1000
MTEXTEND
  0
SOLID
  5
7C60
330
6C9E
100
AcDbEntity
  8
0
  6
ByBlock
 62
     6
100
AcDbTrace
 10
81.57859108179582
 20
141.4547712967425
 30
0.0
 11
81.57859108179582
 21
140.6214379634092
 31
0.0
 12
79.07859108179582
 22
141.0381046300758
 32
0.0
 13
79.07859108179582
 23
141.0381046300758
 33
0.0
  0
SOLID
  5
7C61
330
6C9E
100
AcDbEntity
  8
0
  6
ByBlock
 62
     6
100
AcDbTrace
 10
108.5744736898896
 20
141.4547712967425
 30
0.0
 11
108.5744736898896
 21
140.6214379634092
 31
0.0
 12
111.0744736898896
 22
141.0381046300758
 32
0.0
 13
111.0744736898896
 23
141.0381046300758
 33
0.0
  0
POINT
  5
7C62
330
6C9E
100
AcDbEntity
  8
DEFPOINTS
  6
ByBlock
 62
     0
100
AcDbPoint
 10
79.07859108179582
 20
114.9523985535638
 30
0.0
  0
POINT
  5
7C63
330
6C9E
100
AcDbEntity
  8
DEFPOINTS
  6
ByBlock
 62
     0
100
AcDbPoint
 10
111.0744736898896
 20
114.8617463009921
 30
0.0
  0
POINT
  5
7C64
330
6C9E
100
AcDbEntity
  8
DEFPOINTS
  6
ByBlock
 62
     0
100
AcDbPoint
 10
111.0744736898896
 20
141.0381046300758
 30
0.0
  0
ENDBLK
  5
7C65
330
6C9E
100
AcDbEntity
  8
0
100
AcDbBlockEnd
  0
BLOCK
  5
7B79
330
74B6
100
AcDbEntity
  8
0
100
AcDbBlockBegin
  2
*D6
 70
     1
 10
0.0
 20
0.0
 30
0.0
  3
*D6
  1

  0
LINE
  5
7B7A
330
74B6
100
AcDbEntity
  8
0
  6
ByBlock
 62
     6
100
AcDbLine
 10
292.9809228114777
 20
124.2343960193696
 30
0.0
 11
278.6428571963152
 21
124.2343960193696
 31
0.0
  0
LINE
  5
7B7B
330
74B6
100
AcDbEntity
  8
0
  6
ByBlock
 62
     6
100
AcDbLine
 10
291.4809228114777
 20
123.7343960193697
 30
0.0
 11
278.6428571963152
 21
123.7343960193697
 31
0.0
  0
LINE
  5
7B7C
330
74B6
100
AcDbEntity
  8
0
  6
ByBlock
 62
     6
100
AcDbLine
 10
279.6428571963152
 20
126.7343960193696
 30
0.0
 11
279.6428571963152
 21
129.2343960193696
 31
0.0
  0
LINE
  5
7B7D
330
74B6
100
AcDbEntity
  8
0
  6
ByBlock
 62
     6
100
AcDbLine
 10
279.6428571963152
 20
121.2343960193697
 30
0.0
 11
279.6428571963152
 21
118.7343960193697
 31
0.0
  0
LINE
  5
7B7E
330
74B6
100
AcDbEntity
  8
0
  6
ByBlock
 62
     6
100
AcDbLine
 10
279.6428571963152
 20
138.1443932805198
 30
0.0
 11
279.6428571963152
 21
124.2343960193696
 31
0.0
  0
MTEXT
  5
7B7F
330
74B6
100
AcDbEntity
  8
0
  6
ByBlock
 62
     3
100
AcDbMText
 10
277.1428571963152
 20
134.3943932805198
 30
0.0
 40
3.0
 41
0.0
 71
     5
 72
     1
  1
\A1;0.5
  7
TXT
 11
0.0000000000000001
 21
1.0
 31
0.0
 73
     1
 44
1.0
1001
ACAD
1000
MTEXTBEGIN
1070
    73
1070
     1
1070
    44
1040
1.0
1070
    74
1070
     0
1000
MTEXTEND
  0
LINE
  5
7B80
330
74B6
100
AcDbEntity
  8
0
  6
ByBlock
 62
     6
100
AcDbLine
 10
279.6428571963152
 20
124.2343960193696
 30
0.0
 11
279.6428571963152
 21
123.7343960193697
 31
0.0
  0
SOLID
  5
7B81
330
74B6
100
AcDbEntity
  8
0
  6
ByBlock
 62
     6
100
AcDbTrace
 10
279.2261905296485
 20
126.7343960193696
 30
0.0
 11
280.0595238629819
 21
126.7343960193696
 31
0.0
 12
279.6428571963152
 22
124.2343960193696
 32
0.0
 13
279.6428571963152
 23
124.2343960193696
 33
0.0
  0
SOLID
  5
7B82
330
74B6
100
AcDbEntity
  8
0
  6
ByBlock
 62
     6
100
AcDbTrace
 10
279.2261905296485
 20
121.2343960193697
 30
0.0
 11
280.0595238629819
 21
121.2343960193697
 31
0.0
 12
279.6428571963152
 22
123.7343960193697
 32
0.0
 13
279.6428571963152
 23
123.7343960193697
 33
0.0
  0
POINT
  5
7B83
330
74B6
100
AcDbEntity
  8
DEFPOINTS
  6
ByBlock
 62
     0
100
AcDbPoint
 10
293.9809228114778
 20
124.2343960193696
 30
0.0
  0
POINT
  5
7B84
330
74B6
100
AcDbEntity
  8
DEFPOINTS
  6
ByBlock
 62
     0
100
AcDbPoint
 10
292.4809228114778
 20
123.7343960193697
 30
0.0
  0
POINT
  5
7B85
330
74B6
100
AcDbEntity
  8
DEFPOINTS
  6
ByBlock
 62
     0
100
AcDbPoint
 10
279.6428571963152
 20
123.7343960193697
 30
0.0
  0
ENDBLK
  5
7B86
330
74B6
100
AcDbEntity
  8
0
100
AcDbBlockEnd
  0
BLOCK
  5
7C0A
330
7569
100
AcDbEntity
  8
0
100
AcDbBlockBegin
  2
*D7
 70
     1
 10
0.0
 20
0.0
 30
0.0
  3
*D7
  1

  0
LINE
  5
7C0B
330
7569
100
AcDbEntity
  8
0
  6
ByBlock
 62
     6
100
AcDbLine
 10
323.4809228114778
 20
114.2343960193697
 30
0.0
 11
349.7108196165061
 21
114.2343960193697
 31
0.0
  0
LINE
  5
7C0C
330
7569
100
AcDbEntity
  8
0
  6
ByBlock
 62
     6
100
AcDbLine
 10
321.4809228114777
 20
124.2343960193696
 30
0.0
 11
349.7108196165061
 21
124.2343960193696
 31
0.0
  0
LINE
  5
7C0D
330
7569
100
AcDbEntity
  8
0
  6
ByBlock
 62
     6
100
AcDbLine
 10
348.7108196165061
 20
116.7343960193697
 30
0.0
 11
348.7108196165061
 21
121.7343960193696
 31
0.0
  0
MTEXT
  5
7C0E
330
7569
100
AcDbEntity
  8
0
  6
ByBlock
 62
     3
100
AcDbMText
 10
346.2108196165061
 20
119.2343960193697
 30
0.0
 40
3.0
 41
0.0
 71
     5
 72
     1
  1
\A1;10
  7
TXT
 11
0.0000000000000001
 21
1.0
 31
0.0
 73
     1
 44
1.0
1001
ACAD
1000
MTEXTBEGIN
1070
    73
1070
     1
1070
    44
1040
1.0
1070
    74
1070
     0
1000
MTEXTEND
  0
SOLID
  5
7C0F
330
7569
100
AcDbEntity
  8
0
  6
ByBlock
 62
     6
100
AcDbTrace
 10
348.2941529498394
 20
116.7343960193697
 30
0.0
 11
349.1274862831728
 21
116.7343960193697
 31
0.0
 12
348.7108196165061
 22
114.2343960193697
 32
0.0
 13
348.7108196165061
 23
114.2343960193697
 33
0.0
  0
SOLID
  5
7C10
330
7569
100
AcDbEntity
  8
0
  6
ByBlock
 62
     6
100
AcDbTrace
 10
348.2941529498394
 20
121.7343960193696
 30
0.0
 11
349.1274862831728
 21
121.7343960193696
 31
0.0
 12
348.7108196165061
 22
124.2343960193696
 32
0.0
 13
348.7108196165061
 23
124.2343960193696
 33
0.0
  0
POINT
  5
7C11
330
7569
100
AcDbEntity
  8
DEFPOINTS
  6
ByBlock
 62
     0
100
AcDbPoint
 10
322.4809228114777
 20
114.2343960193697
 30
0.0
  0
POINT
  5
7C12
330
7569
100
AcDbEntity
  8
DEFPOINTS
  6
ByBlock
 62
     0
100
AcDbPoint
 10
320.4809228114777
 20
124.2343960193696
 30
0.0
  0
POINT
  5
7C13
330
7569
100
AcDbEntity
  8
DEFPOINTS
  6
ByBlock
 62
     0
100
AcDbPoint
 10
348.7108196165061
 20
124.2343960193696
 30
0.0
  0
ENDBLK
  5
7C14
330
7569
100
AcDbEntity
  8
0
100
AcDbBlockEnd
  0
BLOCK
  5
7A64
330
7A5F
100
AcDbEntity
  8
0
100
AcDbBlockBegin
  2
_DOTSMALL
 70
     0
 10
0.0
 20
0.0
 30
0.0
  3
_DOTSMALL
  1

  0
LWPOLYLINE
  5
7A60
330
7A5F
100
AcDbEntity
  8
0
  6
ByBlock
 62
     0
100
AcDbPolyline
 90
        2
 70
     1
 43
0.5
 10
-0.0625
 20
0.0
 42
1.0
 10
0.0625
 20
0.0
 42
1.0
  0
ENDBLK
  5
7A65
330
7A5F
100
AcDbEntity
  8
0
100
AcDbBlockEnd
  0
BLOCK
  5
7BD2
330
7BC9
100
AcDbEntity
  8
0
100
AcDbBlockBegin
  2
*D9
 70
     1
 10
0.0
 20
0.0
 30
0.0
  3
*D9
  1

  0
LINE
  5
7BD3
330
7BC9
100
AcDbEntity
  8
0
  6
ByBlock
 62
     6
100
AcDbLine
 10
279.9253805701653
 20
102.3363977627944
 30
0.0
 11
291.7833926869604
 21
114.517840560671
 31
0.0
  0
MTEXT
  5
7BD4
330
7BC9
100
AcDbEntity
  8
0
  6
ByBlock
 62
     3
100
AcDbMText
 10
282.3191726705228
 20
108.3795558262796
 30
0.0
 40
3.0
 41
0.0
 71
     5
 72
     1
  1
\A1;2-R1
  7
TXT
 11
0.6975301245173597
 21
0.7165554586986249
 31
0.0
 73
     1
 44
1.0
1001
ACAD
1000
MTEXTBEGIN
1070
    73
1070
     1
1070
    44
1040
1.0
1070
    74
1070
     0
1000
MTEXTEND
  0
SOLID
  5
7BD5
330
7BC9
100
AcDbEntity
  8
0
  6
ByBlock
 62
     6
100
AcDbTrace
 10
289.7410026012092
 20
113.0170894658067
 30
0.0
 11
290.3381321501247
 21
112.4358143620422
 31
0.0
 12
291.7833926869604
 22
114.517840560671
 32
0.0
 13
291.7833926869604
 23
114.517840560671
 33
0.0
  0
POINT
  5
7BD6
330
7BC9
100
AcDbEntity
  8
DEFPOINTS
  6
ByBlock
 62
     0
100
AcDbPoint
 10
291.7833926869604
 20
114.517840560671
 30
0.0
  0
POINT
  5
7BD7
330
7BC9
100
AcDbEntity
  8
DEFPOINTS
  6
ByBlock
 62
     0
100
AcDbPoint
 10
292.4809228114778
 20
115.2343960193696
 30
0.0
  0
ENDBLK
  5
7BD8
330
7BC9
100
AcDbEntity
  8
0
100
AcDbBlockEnd
  0
BLOCK
  5
7CC5
330
7CC4
100
AcDbEntity
  8
0
100
AcDbBlockBegin
  2
_Open30
 70
     0
 10
0.0
 20
0.0
 30
0.0
  3
_Open30
  1

  0
LINE
  5
7CC6
330
7CC4
100
AcDbEntity
  8
0
  6
ByBlock
 62
     0
370
    -2
100
AcDbLine
 10
-1.0
 20
0.26794919
 30
0.0
 11
0.0
 21
0.0
 31
0.0
  0
LINE
  5
7CC7
330
7CC4
100
AcDbEntity
  8
0
  6
ByBlock
 62
     0
370
    -2
100
AcDbLine
 10
0.0
 20
0.0
 30
0.0
 11
-1.0
 21
-0.26794919
 31
0.0
  0
LINE
  5
7CC8
330
7CC4
100
AcDbEntity
  8
0
  6
ByBlock
 62
     0
370
    -2
100
AcDbLine
 10
0.0
 20
0.0
 30
0.0
 11
-1.0
 21
0.0
 31
0.0
  0
ENDBLK
  5
7CC9
330
7CC4
100
AcDbEntity
  8
0
100
AcDbBlockEnd
  0
ENDSEC
  0
SECTION
  2
ENTITIES
  0
MTEXT
  5
C0
330
18
100
AcDbEntity
  8
0
100
AcDbMText
 10
41.26970765600413
 20
233.6950877649332
 30
0.0
 40
2.5
 41
0.0
 71
     1
 72
     5
  1

  7
ISOCP3
 73
     1
 44
1.0
1001
ACAD
1000
MTEXTBEGIN
1070
    73
1070
     1
1070
    44
1040
1.0
1070
    74
1070
     0
1000
MTEXTEND
  0
MTEXT
  5
4FE4
330
18
100
AcDbEntity
  8
公差
100
AcDbMText
 10
89.23115384698951
 20
170.1164741965247
 30
0.0
 40
2.0
 41
9.555074525974475
 71
     1
 72
     5
  1
+0.15\P+0
  7
TXT
 73
     1
 44
1.0
1001
ACAD
1000
MTEXTBEGIN
1070
    73
1070
     1
1070
    44
1040
1.0
1070
    74
1070
     0
1000
MTEXTEND
  0
MTEXT
  5
4FE5
330
18
100
AcDbEntity
  8
公差
100
AcDbMText
 10
60.38904576734217
 20
195.2658556425127
 30
0.0
 40
2.0
 41
8.84945634767439
 71
     1
 72
     5
  1
+0.15\P+0
  7
TXT
 11
0.0000000000000001
 21
1.0
 31
0.0
 73
     1
 44
1.0
1001
ACAD
1000
MTEXTBEGIN
1070
    73
1070
     1
1070
    44
1040
1.0
1070
    74
1070
     0
1000
MTEXTEND
  0
MTEXT
  5
503F
330
18
100
AcDbEntity
  8
公差
100
AcDbMText
 10
95.37609229449083
 20
147.3389135238819
 30
0.0
 40
2.0
 41
11.48459459716352
 71
     1
 72
     5
  1
+0\P-0.2
  7
TXT
 73
     1
 44
1.0
1001
ACAD
1000
MTEXTBEGIN
1070
    73
1070
     1
1070
    44
1040
1.0
1070
    74
1070
     0
1000
MTEXTEND
  0
LINE
  5
5AD6
330
18
100
AcDbEntity
  8
DIM
100
AcDbLine
 10
136.3043704949179
 20
116.361746300992
 30
0.0
 11
136.3043704949179
 21
132.8884727561159
 31
0.0
  0
LINE
  5
5AD7
330
18
100
AcDbEntity
  8
DIM
100
AcDbLine
 10
136.3043704949179
 20
132.8884727561159
 30
0.0
 11
148.4561106211654
 21
132.8884727561159
 31
0.0
  0
LINE
  5
5ADA
330
18
100
AcDbEntity
  8
DIM
100
AcDbLine
 10
85.07447368988954
 20
96.28004867963898
 30
0.0
 11
85.07447368988954
 21
89.95360624791208
 31
0.0
  0
TOLERANCE
  5
5E6E
330
18
100
AcDbEntity
  8
DIM
  6
ByBlock
100
AcDbFcf
  3
A
 10
148.4561106211654
 20
132.9394111922469
 30
0.0
  1
{\Fgdt;h}%%v0.005%%v%%vA%%v%%v
1001
ACAD
1000
DSTYLE
1002
{
1070
   140
1040
2.743999999999999
1070
   147
1040
0.6859999999999999
1002
}
  0
MTEXT
  5
608E
330
18
100
AcDbEntity
  8
0
100
AcDbMText
 10
17.81948278949767
 20
19.37399834316261
 30
0.0
 40
5.0
 41
0.0
 71
     1
 72
     5
  1
\Ftxt.shx,bigfont.shx|c128;呉銘宏
  7
JL
 73
     1
 44
1.0
1001
ACAD
1000
MTEXTBEGIN
1070
    73
1070
     1
1070
    44
1040
1.0
1070
    74
1070
     0
1000
MTEXTEND
  0
MTEXT
  5
6095
330
18
100
AcDbEntity
  8
0
100
AcDbMText
 10
81.23517665196368
 20
29.2278230533891
 30
0.0
 40
4.5
 41
0.0
 71
     1
 72
     5
  1
\Ftxt.shx,bigfont.shx|c128;1 : 1
  7
JL
 73
     1
 44
1.0
1001
ACAD
1000
MTEXTBEGIN
1070
    73
1070
     1
1070
    44
1040
1.0
1070
    74
1070
     0
1000
MTEXTEND
  0
MTEXT
  5
6098
330
18
100
AcDbEntity
  8
0
 48
2.0
370
    25
100
AcDbMText
 10
146.1234268906314
 20
3.636969934829039
 30
0.0
 40
4.5
 41
0.0
 71
     5
 72
     1
  1
\Ftxt.shx,bigfont.shx|c128;N L 4 0 2 1 7
 73
     1
 44
1.0
1001
ACAD
1000
MTEXTBEGIN
1070
    73
1070
     1
1070
    44
1040
1.0
1070
    74
1070
     0
1000
MTEXTEND
  0
MTEXT
  5
609C
330
18
100
AcDbEntity
  8
0
 48
2.0
100
AcDbMText
 10
178.1300746997774
 20
22.17550270047843
 30
0.0
 40
4.5
 41
0.0
 71
     5
 72
     1
  1
\P\Ftxt.shx,bigfont.shx|c128;    MRZ20X1.0P
 73
     1
 44
1.0
1001
ACAD
1000
MTEXTBEGIN
1070
    73
1070
     1
1070
    44
1040
1.0
1070
    74
1070
     0
1000
MTEXTEND
  0
MTEXT
  5
635A
330
18
100
AcDbEntity
  8
0
100
AcDbMText
 10
16.02348109109539
 20
28.64592585511957
 30
0.0
 40
4.5
 41
0.0
 71
     1
 72
     5
  1
\Ftxt.shx,bigfont.shx|c128;05.03.08
  7
JL
 73
     1
 44
1.0
1001
ACAD
1000
MTEXTBEGIN
1070
    73
1070
     1
1070
    44
1040
1.0
1070
    74
1070
     0
1000
MTEXTEND
  0
INSERT
  5
63A3
330
18
100
AcDbEntity
  8
0
100
AcDbBlockReference
  2
A$C255C26A2
 10
96.59038013340945
 20
116.3617456070109
 30
0.0
  0
LEADER
  5
63C9
330
18
100
AcDbEntity
  8
DIM
 62
     6
100
AcDbLeader
  3
A
 76
     2
 10
110.0256307119174
 20
197.1647003890408
 30
0.0
 10
122.6759348801697
 20
208.3828499752228
 30
0.0
  0
LEADER
  5
63CB
330
18
100
AcDbEntity
  8
DIM
 62
     6
100
AcDbLeader
  3
A
 76
     2
 10
111.0744736898896
 20
111.3534822289916
 30
0.0
 10
120.2611308121425
 20
95.82238564289344
 30
0.0
  0
MTEXT
  5
63CC
330
18
100
AcDbEntity
  8
DIM
100
AcDbMText
 10
120.3241819510436
 20
139.0155589061677
 30
0.0
 40
5.0
 41
1.0
 71
     1
 72
     5
  1
\Ftxt.shx,bigfont.shx|c128;3
 73
     1
 44
1.0
1001
ACAD
1000
MTEXTBEGIN
1070
    73
1070
     1
1070
    44
1040
1.0
1070
    74
1070
     0
1000
MTEXTEND
  0
MTEXT
  5
63CD
330
18
100
AcDbEntity
  8
DIM
100
AcDbMText
 10
124.8219634162805
 20
212.2383450111313
 30
0.0
 40
5.0
 41
1.0
 71
     1
 72
     5
  1
\Ftxt.shx,bigfont.shx|c128;1
 73
     1
 44
1.0
1001
ACAD
1000
MTEXTBEGIN
1070
    73
1070
     1
1070
    44
1040
1.0
1070
    74
1070
     0
1000
MTEXTEND
  0
MTEXT
  5
63CE
330
18
100
AcDbEntity
  8
DIM
100
AcDbMText
 10
119.7718538961751
 20
95.66867202681139
 30
0.0
 40
5.0
 41
1.0
 71
     1
 72
     5
  1
\Ftxt.shx,bigfont.shx|c128;2
 73
     1
 44
1.0
1001
ACAD
1000
MTEXTBEGIN
1070
    73
1070
     1
1070
    44
1040
1.0
1070
    74
1070
     0
1000
MTEXTEND
  0
LINE
  5
63CF
330
18
100
AcDbEntity
  8
DIM
100
AcDbLine
 10
85.07447368988954
 20
89.95360624791208
 30
0.0
 11
85.98693203811512
 21
88.97573215218701
 31
0.0
  0
HATCH
  5
63D0
330
18
100
AcDbEntity
  8
DIM
  6
Continuous
100
AcDbHatch
 10
0.0
 20
0.0
 30
0.0
210
0.0
220
0.0
230
1.0
  2
SOLID
 70
     1
 71
     0
 91
        1
 92
        7
 72
     0
 73
     1
 93
        3
 10
85.07334957543696
 20
87.96991785293156
 10
85.99208166403702
 20
88.95472564817529
 10
85.07334957543696
 20
89.93953344341901
 97
        0
 75
     0
 76
     1
 47
0.2359147607200769
 98
        1
 10
85.36116557166776
 20
89.16620165386682
  0
LINE
  5
63D1
330
18
100
AcDbEntity
  8
DIM
100
AcDbLine
 10
90.73402484481119
 20
87.1620783480275
 30
0.0
 11
90.73402484481119
 21
90.80837713804864
 31
0.0
  0
LINE
  5
63D2
330
18
100
AcDbEntity
  8
DIM
100
AcDbLine
 10
90.73402484481119
 20
90.80837713804864
 30
0.0
 11
94.54266009032187
 21
90.80837713804864
 31
0.0
  0
LINE
  5
63D3
330
18
100
AcDbEntity
  8
DIM
100
AcDbLine
 10
94.54266009032187
 20
87.1620783480275
 30
0.0
 11
94.54266009032187
 21
90.80837713804864
 31
0.0
  0
LINE
  5
63D4
330
18
100
AcDbEntity
  8
DIM
100
AcDbLine
 10
90.73402484481119
 20
87.1620783480275
 30
0.0
 11
94.54266009032187
 21
87.1620783480275
 31
0.0
  0
LINE
  5
63D5
330
18
100
AcDbEntity
  8
DIM
100
AcDbLine
 10
90.73402484481119
 20
88.98522774303806
 30
0.0
 11
85.97323100908813
 21
88.98522774303806
 31
0.0
  0
MTEXT
  5
63D6
330
18
100
AcDbEntity
  8
DIM
100
AcDbMText
 10
91.69126256725082
 20
90.47704542227512
 30
0.0
 40
3.0
 41
2.354875985554478
 71
     1
 72
     5
  1
A
  7
ISOCP3
 73
     1
 44
1.0
1001
ACAD
1000
MTEXTBEGIN
1070
    73
1070
     1
1070
    44
1040
1.0
1070
    74
1070
     0
1000
MTEXTEND
  0
LINE
  5
64AF
330
18
100
AcDbEntity
  8
図框線
100
AcDbLine
 10
197.9999999999997
 20
289.9999999999999
 30
0.0
 11
197.9999999999997
 21
-0.0000000000000568
 31
0.0
  0
LINE
  5
64B0
330
18
100
AcDbEntity
  8
図框線
370
    30
100
AcDbLine
 10
-0.0000000000002274
 20
0.0
 30
0.0
 11
-0.0000000000002274
 21
290.0
 31
0.0
  0
LINE
  5
64B1
330
18
100
AcDbEntity
  8
0
 62
     7
 48
5.0
100
AcDbLine
 39
4.0
 10
49.94750515634314
 20
27.8953239783782
 30
0.0
 11
55.27930887205229
 21
29.22827490730549
 31
0.0
  0
MTEXT
  5
64B2
330
18
100
AcDbEntity
  8
0
100
AcDbMText
 10
15.97866977158742
 20
9.63134010478825
 30
0.0
 40
6.0
 41
0.0
 71
     1
 72
     5
  1
\Ftxt.shx,bigfont.shx|c128;日機株式会社
  7
LKK
 73
     1
 44
1.0
1001
ACAD
1000
MTEXTBEGIN
1070
    73
1070
     1
1070
    44
1040
1.0
1070
    74
1070
     0
1000
MTEXTEND
  0
LINE
  5
64B3
330
18
100
AcDbEntity
  8
図框線
100
AcDbLine
 10
0.0
 20
0.0
 30
0.0
 11
197.9999999999997
 21
0.0
 31
0.0
  0
LINE
  5
64B7
330
18
100
AcDbEntity
  8
図框線
100
AcDbLine
 10
0.0
 20
12.0
 30
0.0
 11
197.9999999999997
 21
12.00000000000005
 31
0.0
  0
LINE
  5
64B8
330
18
100
AcDbEntity
  8
図框線
100
AcDbLine
 10
0.0
 20
22.0
 30
0.0
 11
96.0
 21
22.0
 31
0.0
  0
LINE
  5
64B9
330
18
100
AcDbEntity
  8
図框線
100
AcDbLine
 10
0.0
 20
32.0
 30
0.0
 11
197.9999999999997
 21
32.0
 31
0.0
  0
LINE
  5
64BA
330
18
100
AcDbEntity
  8
図框線
100
AcDbLine
 10
12.0
 20
32.0
 30
0.0
 11
12.0
 21
12.0
 31
0.0
  0
LINE
  5
64BB
330
18
100
AcDbEntity
  8
図框線
100
AcDbLine
 10
32.0
 20
32.0
 30
0.0
 11
32.0
 21
12.0
 31
0.0
  0
MTEXT
  5
64BC
330
18
100
AcDbEntity
  8
0
100
AcDbMText
 10
2.949444248820782
 20
29.04715033351227
 30
0.0
 40
4.5
 41
0.0
 71
     1
 72
     5
  1
\Ftxt.shx,bigfont.shx|c128;日 付
  7
JL
 73
     1
 44
1.0
1001
ACAD
1000
MTEXTBEGIN
1070
    73
1070
     1
1070
    44
1040
1.0
1070
    74
1070
     0
1000
MTEXTEND
  0
MTEXT
  5
64BD
330
18
100
AcDbEntity
  8
0
100
AcDbMText
 10
3.095712364910014
 20
19.83833899470915
 30
0.0
 40
4.5
 41
0.0
 71
     1
 72
     5
  1
\Ftxt.shx,bigfont.shx|c128;製 図
  7
JL
 73
     1
 44
1.0
1001
ACAD
1000
MTEXTBEGIN
1070
    73
1070
     1
1070
    44
1040
1.0
1070
    74
1070
     0
1000
MTEXTEND
  0
LINE
  5
64C0
330
18
100
AcDbEntity
  8
0
 62
     7
370
    25
100
AcDbLine
 10
55.27930887205229
 20
23.89647119159633
 30
0.0
 11
55.27930887205229
 21
29.22827490730549
 31
0.0
  0
MTEXT
  5
64C1
330
18
100
AcDbEntity
  8
0
100
AcDbMText
 10
66.70254067332553
 20
29.42231870267847
 30
0.0
 40
4.5
 41
0.0
 71
     1
 72
     5
  1
\Ftxt.shx,bigfont.shx|c128;尺 度
  7
JL
 73
     1
 44
1.0
1001
ACAD
1000
MTEXTBEGIN
1070
    73
1070
     1
1070
    44
1040
1.0
1070
    74
1070
     0
1000
MTEXTEND
  0
LINE
  5
64C2
330
18
100
AcDbEntity
  8
図框線
100
AcDbLine
 10
64.0
 20
32.0
 30
0.0
 11
64.0
 21
12.0
 31
0.0
  0
LINE
  5
64C3
330
18
100
AcDbEntity
  8
0
 62
     7
370
    25
100
AcDbLine
 10
41.2833241183157
 20
23.23894871736115
 30
0.0
 11
41.2833241183157
 21
29.67466750005656
 31
0.0
  0
CIRCLE
  5
64C4
330
18
100
AcDbEntity
  8
0
 62
     7
100
AcDbCircle
 10
41.2833241183157
 20
26.5623730494508
 30
0.0
 40
2.665901857854641
  0
LINE
  5
64C6
330
18
100
AcDbEntity
  8
0
 62
     7
370
    25
100
AcDbLine
 10
49.18030281106076
 20
26.56237304945091
 30
0.0
 11
55.75797321903156
 21
26.56237304945091
 31
0.0
  0
LINE
  5
64C7
330
18
100
AcDbEntity
  8
0
 62
     7
100
AcDbLine
 10
49.94750515634314
 20
25.22942212052362
 30
0.0
 11
55.27930887205229
 21
23.89647119159633
 31
0.0
  0
LINE
  5
64C8
330
18
100
AcDbEntity
  8
図框線
100
AcDbLine
 10
44.0
 20
21.99999999999989
 30
0.0
 11
44.0
 21
12.0
 31
0.0
  0
LINE
  5
64C9
330
18
100
AcDbEntity
  8
0
 62
     7
370
    25
100
AcDbLine
 10
37.95172532843935
 20
26.5623730494508
 30
0.0
 11
44.81391594676916
 21
26.56237304945091
 31
0.0
  0
CIRCLE
  5
64CA
330
18
100
AcDbEntity
  8
0
 62
     7
100
AcDbCircle
 10
41.2833241183157
 20
26.5623730494508
 30
0.0
 40
1.33295092892732
  0
MTEXT
  5
64CB
330
18
100
AcDbEntity
  8
0
100
AcDbMText
 10
35.12086518039769
 20
19.39982343168049
 30
0.0
 40
4.5
 41
0.0
 71
     1
 72
     5
  1
\Ftxt.shx,bigfont.shx|c128;検 図
  7
JL
 73
     1
 44
1.0
1001
ACAD
1000
MTEXTBEGIN
1070
    73
1070
     1
1070
    44
1040
1.0
1070
    74
1070
     0
1000
MTEXTEND
  0
LINE
  5
64CC
330
18
100
AcDbEntity
  8
0
 62
     7
370
    25
100
AcDbLine
 10
49.94750515634314
 20
25.22942212052362
 30
0.0
 11
49.94750515634314
 21
27.8953239783782
 31
0.0
  0
MTEXT
  5
64CD
330
18
100
AcDbEntity
  8
0
100
AcDbMText
 10
66.99507418337498
 20
19.62882052001464
 30
0.0
 40
4.5
 41
0.0
 71
     1
 72
     5
  1
\Ftxt.shx,bigfont.shx|c128;承 認
  7
JL
 73
     1
 44
1.0
1001
ACAD
1000
MTEXTBEGIN
1070
    73
1070
     1
1070
    44
1040
1.0
1070
    74
1070
     0
1000
MTEXTEND
  0
LINE
  5
64CE
330
18
100
AcDbEntity
  8
図框線
100
AcDbLine
 10
132.615790078639
 20
43.13491348924492
 30
0.0
 11
192.615790078639
 21
43.13491348924481
 31
0.0
  0
LINE
  5
64CF
330
18
100
AcDbEntity
  8
図框線
100
AcDbLine
 10
132.615790078639
 20
50.33491348924497
 30
0.0
 11
192.615790078639
 21
50.33491348924497
 31
0.0
  0
LINE
  5
64D0
330
18
100
AcDbEntity
  8
図框線
100
AcDbLine
 10
132.615790078639
 20
57.5349134892449
 30
0.0
 11
192.615790078639
 21
57.53491348924478
 31
0.0
  0
LINE
  5
64D1
330
18
100
AcDbEntity
  8
図框線
100
AcDbLine
 10
132.615790078639
 20
64.73491348924494
 30
0.0
 11
192.615790078639
 21
64.73491348924483
 31
0.0
  0
LINE
  5
64D2
330
18
100
AcDbEntity
  8
図框線
100
AcDbLine
 10
132.615790078639
 20
35.93491348924488
 30
0.0
 11
192.615790078639
 21
35.93491348924488
 31
0.0
  0
MTEXT
  5
64D3
330
18
100
AcDbEntity
  8
0
 62
     7
 48
2.0
100
AcDbMText
 10
162.5011900445104
 20
65.52808189982909
 30
0.0
 40
4.8
 41
0.0
 71
     5
 72
     1
  1
\P\Ftxt.shx,bigfont.shx|c128;諸　　　　元
 73
     1
 44
1.0
1001
ACAD
1000
MTEXTBEGIN
1070
    73
1070
     1
1070
    44
1040
1.0
1070
    74
1070
     0
1000
MTEXTEND
  0
LINE
  5
64D5
330
18
100
AcDbEntity
  8
図框線
100
AcDbLine
 10
132.615790078639
 20
64.73491348924483
 30
0.0
 11
132.615790078639
 21
35.93491348924488
 31
0.0
  0
MTEXT
  5
64D6
330
18
100
AcDbEntity
  8
0
100
AcDbMText
 10
136.1382258923192
 20
56.00840432212407
 30
0.0
 40
4.4
 41
163.916286842249
 71
     1
 72
     5
  1
\Ftxt.shx,bigfont.shx|c128;熱　処　理
  7
JL
 73
     1
 44
1.0
1001
ACAD
1000
MTEXTBEGIN
1070
    73
1070
     1
1070
    44
1040
1.0
1070
    74
1070
     0
1000
MTEXTEND
  0
LINE
  5
64D7
330
18
100
AcDbEntity
  8
図框線
100
AcDbLine
 10
156.615790078639
 20
57.53491348924478
 30
0.0
 11
156.615790078639
 21
35.93491348924488
 31
0.0
  0
MTEXT
  5
64D8
330
18
100
AcDbEntity
  8
0
100
AcDbMText
 10
97.65702556263818
 20
11.15332144655735
 30
0.0
 40
5.0
 41
0.0
 71
     1
 72
     5
  1
\Ftxt.shx,bigfont.shx|c128;図  面  番  号
  7
JL
 73
     1
 44
1.0
1001
ACAD
1000
MTEXTBEGIN
1070
    73
1070
     1
1070
    44
1040
1.0
1070
    74
1070
     0
1000
MTEXTEND
  0
MTEXT
  5
64D9
330
18
100
AcDbEntity
  8
0
 62
     7
 48
2.0
100
AcDbMText
 10
121.8260850653862
 20
22.29156825453561
 30
0.0
 40
4.5
 41
0.0
 71
     5
 72
     1
  1
\P\Ftxt.shx,bigfont.shx|c128;    精密ロックナット
 73
     1
 44
1.0
1001
ACAD
1000
MTEXTBEGIN
1070
    73
1070
     1
1070
    44
1040
1.0
1070
    74
1070
     0
1000
MTEXTEND
  0
MTEXT
  5
64DA
330
18
100
AcDbEntity
  8
0
370
    25
100
AcDbMText
 10
98.8002923053598
 20
29.80688815403971
 30
0.0
 40
5.0
 41
0.0
 71
     1
 72
     5
  1
\Ftxt.shx,bigfont.shx|c128;品  名
  7
JL
 73
     1
 44
1.0
1001
ACAD
1000
MTEXTBEGIN
1070
    73
1070
     1
1070
    44
1040
1.0
1070
    74
1070
     0
1000
MTEXTEND
  0
LINE
  5
64DB
330
18
100
AcDbEntity
  8
図框線
100
AcDbLine
 10
96.0
 20
32.0
 30
0.0
 11
96.0
 21
0.19104161092514
 31
0.0
  0
LINE
  5
64DC
330
18
100
AcDbEntity
  8
図框線
100
AcDbLine
 10
76.0
 20
32.0
 30
0.0
 11
76.0
 21
12.0
 31
0.0
  0
LINE
  5
64DE
330
18
100
AcDbEntity
  8
図框線
100
AcDbLine
 10
153.2235601908683
 20
32.0
 30
0.0
 11
153.2235601908683
 21
12.0
 31
0.0
  0
MTEXT
  5
64DF
330
18
100
AcDbEntity
  8
0
100
AcDbMText
 10
135.85795152494
 20
49.00617587486397
 30
0.0
 40
4.4
 41
163.6058628849672
 71
     1
 72
     5
  1
\Ftxt.shx,bigfont.shx|c128;表 面 処 理
  7
JL
 73
     1
 44
1.0
1001
ACAD
1000
MTEXTBEGIN
1070
    73
1070
     1
1070
    44
1040
1.0
1070
    74
1070
     0
1000
MTEXTEND
  0
MTEXT
  5
64E0
330
18
100
AcDbEntity
  8
0
100
AcDbMText
 10
136.148017373375
 20
41.71770302125605
 30
0.0
 40
4.4
 41
166.1718
 71
     1
 72
     5
  1
\Ftxt.shx,bigfont.shx|c128;等     　級
  7
JL
 73
     1
 44
1.0
1001
ACAD
1000
MTEXTBEGIN
1070
    73
1070
     1
1070
    44
1040
1.0
1070
    74
1070
     0
1000
MTEXTEND
  0
LINE
  5
64E1
330
18
100
AcDbEntity
  8
図框線
100
AcDbLine
 10
192.615790078639
 20
64.73491348924483
 30
0.0
 11
192.615790078639
 21
35.93491348924499
 31
0.0
  0
MTEXT
  5
64E2
330
18
100
AcDbEntity
  8
0
100
AcDbMText
 10
161.3627933880816
 20
55.83344641471445
 30
0.0
 40
4.4
 41
291.8960056857887
 71
     1
 72
     5
  1
\Ftxt.shx,bigfont.shx|c128;調質　HRC30%%d%%p２%%d
  7
JL
 73
     1
 44
1.0
1001
ACAD
1000
MTEXTBEGIN
1070
    73
1070
     1
1070
    44
1040
1.0
1070
    74
1070
     0
1000
MTEXTEND
  0
MTEXT
  5
64E4
330
18
100
AcDbEntity
  8
0
370
    25
100
AcDbMText
 10
157.2494735287423
 20
29.58569764093568
 30
0.0
 40
5.0
 41
0.0
 71
     1
 72
     5
  1
\Ftxt.shx,bigfont.shx|c128;型  番
  7
JL
 73
     1
 44
1.0
1001
ACAD
1000
MTEXTBEGIN
1070
    73
1070
     1
1070
    44
1040
1.0
1070
    74
1070
     0
1000
MTEXTEND
  0
MTEXT
  5
64E5
330
18
100
AcDbEntity
  8
0
100
AcDbMText
 10
172.787265122339
 20
11.23700203391422
 30
0.0
 40
5.0
 41
0.0
 71
     1
 72
     5
  1
\Ftxt.shx,bigfont.shx|c128;変更
  7
JL
 73
     1
 44
1.0
1001
ACAD
1000
MTEXTBEGIN
1070
    73
1070
     1
1070
    44
1040
1.0
1070
    74
1070
     0
1000
MTEXTEND
  0
LINE
  5
64E6
330
18
100
AcDbEntity
  8
図框線
100
AcDbLine
 10
171.0
 20
12.00907027842731
 30
0.0
 11
171.0
 21
0.0
 31
0.0
  0
MTEXT
  5
64E7
330
18
100
AcDbEntity
  8
0
100
AcDbMText
 10
161.623432389518
 20
41.7183135927072
 30
0.0
 40
4.4
 41
290.783364796891
 71
     1
 72
     5
  1
\Ftxt.shx,bigfont.shx|c128;ＩＳＯ - ４Ｈ
  7
JL
 73
     1
 44
1.0
1001
ACAD
1000
MTEXTBEGIN
1070
    73
1070
     1
1070
    44
1040
1.0
1070
    74
1070
     0
1000
MTEXTEND
  0
MTEXT
  5
64E8
330
18
100
AcDbEntity
  8
0
100
AcDbMText
 10
161.7978935876483
 20
48.65328293790913
 30
0.0
 40
4.4
 41
291.4548
 71
     1
 72
     5
  1
\Ftxt.shx,bigfont.shx|c128;黒  　    染
  7
JL
 73
     1
 44
1.0
1001
ACAD
1000
MTEXTBEGIN
1070
    73
1070
     1
1070
    44
1040
1.0
1070
    74
1070
     0
1000
MTEXTEND
  0
MTEXT
  5
64EA
330
18
100
AcDbEntity
  8
0
100
AcDbMText
 10
60.06318600759005
 20
270.095850257545
 30
0.0
 40
5.0
 41
0.0
 71
     1
 72
     5
  1
\Ftxt.shx,bigfont.shx|c128;M5X0.8P-4L
  7
JL
 73
     1
 44
1.0
1001
ACAD
1000
MTEXTBEGIN
1070
    73
1070
     1
1070
    44
1040
1.0
1070
    74
1070
     0
1000
MTEXTEND
  0
MTEXT
  5
64EB
330
18
100
AcDbEntity
  8
0
100
AcDbMText
 10
60.06318600759005
 20
262.095850257545
 30
0.0
 40
5.0
 41
0.0
 71
     1
 72
     5
  1
\Ftxt.shx,bigfont.shx|c128;%%c4.5X3L
  7
JL
 73
     1
 44
1.0
1001
ACAD
1000
MTEXTBEGIN
1070
    73
1070
     1
1070
    44
1040
1.0
1070
    74
1070
     0
1000
MTEXTEND
  0
LINE
  5
64EC
330
18
100
AcDbEntity
  8
図框線
100
AcDbLine
 10
-0.0000000000002274
 20
263.9999999999999
 30
0.0
 11
197.9999999999997
 21
263.9999999999999
 31
0.0
  0
LINE
  5
64ED
330
18
100
AcDbEntity
  8
図框線
100
AcDbLine
 10
-0.0000000000002274
 20
271.9999999999999
 30
0.0
 11
197.9999999999997
 21
271.9999999999999
 31
0.0
  0
LINE
  5
64EE
330
18
100
AcDbEntity
  8
図框線
 62
     9
100
AcDbLine
 10
-0.0000000000002274
 20
279.9999999999999
 30
0.0
 11
197.9999999999997
 21
279.9999999999999
 31
0.0
  0
LINE
  5
64EF
330
18
100
AcDbEntity
  8
図框線
100
AcDbLine
 10
-0.0000000000002274
 20
290.0
 30
0.0
 11
197.9999999999997
 21
290.0
 31
0.0
  0
MTEXT
  5
64F0
330
18
100
AcDbEntity
  8
0
100
AcDbMText
 10
59.41630259681733
 20
287.3155952051104
 30
0.0
 40
5.0
 41
0.0
 71
     1
 72
     5
  1
\Ftxt.shx,bigfont.shx|c128;図    番 / 規　　格
  7
JL
 73
     1
 44
1.0
1001
ACAD
1000
MTEXTBEGIN
1070
    73
1070
     1
1070
    44
1040
1.0
1070
    74
1070
     0
1000
MTEXTEND
  0
LINE
  5
64F1
330
18
100
AcDbEntity
  8
図框線
100
AcDbLine
 10
-0.0000000000002274
 20
263.9999999999999
 30
0.0
 11
197.9999999999997
 21
263.9999999999999
 31
0.0
  0
LINE
  5
64F2
330
18
100
AcDbEntity
  8
図框線
100
AcDbLine
 10
-0.0000000000002274
 20
255.9999999999999
 30
0.0
 11
197.9999999999997
 21
255.9999999999999
 31
0.0
  0
MTEXT
  5
64F3
330
18
100
AcDbEntity
  8
0
100
AcDbMText
 10
22.01434914141237
 20
286.7888025819827
 30
0.0
 40
5.0
 41
0.0
 71
     1
 72
     5
  1
\Ftxt.shx,bigfont.shx|c128;品　          名
  7
JL
 73
     1
 44
1.0
1001
ACAD
1000
MTEXTBEGIN
1070
    73
1070
     1
1070
    44
1040
1.0
1070
    74
1070
     0
1000
MTEXTEND
  0
MTEXT
  5
64F4
330
18
100
AcDbEntity
  8
0
100
AcDbMText
 10
18.8650376130422
 20
270.5298549795346
 30
0.0
 40
6.0
 41
0.0
 71
     1
 72
     5
  1
\Ftxt.shx,bigfont.shx|c128;セットスクリュ-
  7
JL
 73
     1
 44
1.0
1001
ACAD
1000
MTEXTBEGIN
1070
    73
1070
     1
1070
    44
1040
1.0
1070
    74
1070
     0
1000
MTEXTEND
  0
MTEXT
  5
64F5
330
18
100
AcDbEntity
  8
0
100
AcDbMText
 10
18.66941459004738
 20
278.3660650505403
 30
0.0
 40
6.0
 41
0.0
 71
     1
 72
     5
  1
\Ftxt.shx,bigfont.shx|c128;ロックナット　  
  7
JL
 73
     1
 44
1.0
1001
ACAD
1000
MTEXTBEGIN
1070
    73
1070
     1
1070
    44
1040
1.0
1070
    74
1070
     0
1000
MTEXTEND
  0
MTEXT
  5
64F6
330
18
100
AcDbEntity
  8
0
100
AcDbMText
 10
18.8650376130422
 20
262.5298549795346
 30
0.0
 40
6.0
 41
0.0
 71
     1
 72
     5
  1
\Ftxt.shx,bigfont.shx|c128;ロックピン 
  7
JL
 73
     1
 44
1.0
1001
ACAD
1000
MTEXTBEGIN
1070
    73
1070
     1
1070
    44
1040
1.0
1070
    74
1070
     0
1000
MTEXTEND
  0
LINE
  5
64F7
330
18
100
AcDbEntity
  8
図框線
100
AcDbLine
 10
14.99999999999977
 20
289.9999999999998
 30
0.0
 11
15.00000000000011
 21
255.9999999999999
 31
0.0
  0
MTEXT
  5
64F9
330
18
100
AcDbEntity
  8
0
100
AcDbMText
 10
6.215289087390488
 20
262.7436409356394
 30
0.0
 40
5.0
 41
0.0
 71
     1
 72
     5
  1
\Ftxt.shx,bigfont.shx|c128;3
  7
JL
 73
     1
 44
1.0
1001
ACAD
1000
MTEXTBEGIN
1070
    73
1070
     1
1070
    44
1040
1.0
1070
    74
1070
     0
1000
MTEXTEND
  0
MTEXT
  5
64FA
330
18
100
AcDbEntity
  8
0
100
AcDbMText
 10
7.101957026666809
 20
278.5798510066454
 30
0.0
 40
5.0
 41
0.0
 71
     1
 72
     5
  1
\Ftxt.shx,bigfont.shx|c128;1
  7
JL
 73
     1
 44
1.0
1001
ACAD
1000
MTEXTBEGIN
1070
    73
1070
     1
1070
    44
1040
1.0
1070
    74
1070
     0
1000
MTEXTEND
  0
MTEXT
  5
64FB
330
18
100
AcDbEntity
  8
0
100
AcDbMText
 10
6.215289087390488
 20
270.7436409356394
 30
0.0
 40
5.0
 41
0.0
 71
     1
 72
     5
  1
\Ftxt.shx,bigfont.shx|c128;2
  7
JL
 73
     1
 44
1.0
1001
ACAD
1000
MTEXTBEGIN
1070
    73
1070
     1
1070
    44
1040
1.0
1070
    74
1070
     0
1000
MTEXTEND
  0
MTEXT
  5
64FC
330
18
100
AcDbEntity
  8
0
100
AcDbMText
 10
2.209083991842362
 20
287.0885254164057
 30
0.0
 40
5.0
 41
0.0
 71
     1
 72
     5
  1
\Ftxt.shx,bigfont.shx|c128;照   号
  7
JL
 73
     1
 44
1.0
1001
ACAD
1000
MTEXTBEGIN
1070
    73
1070
     1
1070
    44
1040
1.0
1070
    74
1070
     0
1000
MTEXTEND
  0
LINE
  5
64FD
330
18
100
AcDbEntity
  8
図框線
 62
     9
100
AcDbLine
 10
54.99999999999977
 20
289.9999999999998
 30
0.0
 11
54.99999999999977
 21
256.0
 31
0.0
  0
MTEXT
  5
64FE
330
18
100
AcDbEntity
  8
0
100
AcDbMText
 10
146.3353765925378
 20
287.5804049742369
 30
0.0
 40
5.0
 41
0.0
 71
     1
 72
     5
  1
\Ftxt.shx,bigfont.shx|c128;備           考
  7
JL
 73
     1
 44
1.0
1001
ACAD
1000
MTEXTBEGIN
1070
    73
1070
     1
1070
    44
1040
1.0
1070
    74
1070
     0
1000
MTEXTEND
  0
LINE
  5
64FF
330
18
100
AcDbEntity
  8
図框線
 62
     9
100
AcDbLine
 10
94.99999999999976
 20
289.9999999999999
 30
0.0
 11
94.99999999999976
 21
255.9999999999999
 31
0.0
  0
MTEXT
  5
6500
330
18
100
AcDbEntity
  8
0
100
AcDbMText
 10
96.78387029776377
 20
262.3660650505403
 30
0.0
 40
5.0
 41
0.0
 71
     1
 72
     5
  1
\Ftxt.shx,bigfont.shx|c128;C3604
  7
JL
 73
     1
 44
1.0
1001
ACAD
1000
MTEXTBEGIN
1070
    73
1070
     1
1070
    44
1040
1.0
1070
    74
1070
     0
1000
MTEXTEND
  0
MTEXT
  5
6501
330
18
100
AcDbEntity
  8
0
100
AcDbMText
 10
96.78387029776377
 20
278.3660650505403
 30
0.0
 40
5.0
 41
0.0
 71
     1
 72
     5
  1
\Ftxt.shx,bigfont.shx|c128;SCM-440
  7
JL
 73
     1
 44
1.0
1001
ACAD
1000
MTEXTBEGIN
1070
    73
1070
     1
1070
    44
1040
1.0
1070
    74
1070
     0
1000
MTEXTEND
  0
MTEXT
  5
6502
330
18
100
AcDbEntity
  8
0
100
AcDbMText
 10
96.78387029776377
 20
270.3660650505403
 30
0.0
 40
5.0
 41
0.0
 71
     1
 72
     5
  1
\Ftxt.shx,bigfont.shx|c128;SCM435
  7
JL
 73
     1
 44
1.0
1001
ACAD
1000
MTEXTBEGIN
1070
    73
1070
     1
1070
    44
1040
1.0
1070
    74
1070
     0
1000
MTEXTEND
  0
MTEXT
  5
6503
330
18
100
AcDbEntity
  8
0
100
AcDbMText
 10
99.80032499445407
 20
287.5804049742369
 30
0.0
 40
5.0
 41
0.0
 71
     1
 72
     5
  1
\Ftxt.shx,bigfont.shx|c128;材　質
  7
JL
 73
     1
 44
1.0
1001
ACAD
1000
MTEXTBEGIN
1070
    73
1070
     1
1070
    44
1040
1.0
1070
    74
1070
     0
1000
MTEXTEND
  0
LINE
  5
6504
330
18
100
AcDbEntity
  8
図框線
 62
     9
100
AcDbLine
 10
114.9999999999997
 20
289.9999999999999
 30
0.0
 11
114.9999999999997
 21
255.9999999999999
 31
0.0
  0
LINE
  5
6505
330
18
100
AcDbEntity
  8
図框線
100
AcDbLine
 10
129.9999999999998
 20
289.9999999999999
 30
0.0
 11
129.9999999999998
 21
255.9999999999999
 31
0.0
  0
MTEXT
  5
6506
330
18
100
AcDbEntity
  8
0
100
AcDbMText
 10
121.2152890873904
 20
262.7436409356394
 30
0.0
 40
5.0
 41
0.0
 71
     1
 72
     5
  1
\Ftxt.shx,bigfont.shx|c128;3
  7
JL
 73
     1
 44
1.0
1001
ACAD
1000
MTEXTBEGIN
1070
    73
1070
     1
1070
    44
1040
1.0
1070
    74
1070
     0
1000
MTEXTEND
  0
MTEXT
  5
6507
330
18
100
AcDbEntity
  8
0
100
AcDbMText
 10
122.1019570266667
 20
278.5798510066454
 30
0.0
 40
5.0
 41
0.0
 71
     1
 72
     5
  1
\Ftxt.shx,bigfont.shx|c128;1
  7
JL
 73
     1
 44
1.0
1001
ACAD
1000
MTEXTBEGIN
1070
    73
1070
     1
1070
    44
1040
1.0
1070
    74
1070
     0
1000
MTEXTEND
  0
MTEXT
  5
6508
330
18
100
AcDbEntity
  8
0
100
AcDbMText
 10
121.2152890873904
 20
270.7436409356394
 30
0.0
 40
5.0
 41
0.0
 71
     1
 72
     5
  1
\Ftxt.shx,bigfont.shx|c128;3
  7
JL
 73
     1
 44
1.0
1001
ACAD
1000
MTEXTBEGIN
1070
    73
1070
     1
1070
    44
1040
1.0
1070
    74
1070
     0
1000
MTEXTEND
  0
MTEXT
  5
6509
330
18
100
AcDbEntity
  8
0
100
AcDbMText
 10
116.433740311917
 20
287.5804049742369
 30
0.0
 40
5.0
 41
0.0
 71
     1
 72
     5
  1
\Ftxt.shx,bigfont.shx|c128;数   量
  7
JL
 73
     1
 44
1.0
1001
ACAD
1000
MTEXTBEGIN
1070
    73
1070
     1
1070
    44
1040
1.0
1070
    74
1070
     0
1000
MTEXTEND
  0
DIMENSION
  5
6770
330
18
100
AcDbEntity
  8
0
100
AcDbDimension
  2
*D1
 10
105.0744736898895
 20
96.28004867963898
 30
0.0
 11
95.07447368988954
 21
96.28004867963898
 31
0.0
 70
   160
  1
M<>X1.0P
 71
     5
 42
-1.0
  3
A
100
AcDbAlignedDimension
 13
85.07447368988954
 23
106.861746300992
 33
0.0
 14
105.0744736898895
 24
106.8617463009922
 34
0.0
100
AcDbRotatedDimension
  0
DIMENSION
  5
677F
330
18
100
AcDbEntity
  8
0
100
AcDbDimension
  2
*D2
 10
81.18530447421575
 20
164.1891148754676
 30
0.0
 11
86.18530447421575
 21
164.1891148754676
 31
0.0
 12
-0.4872172949453671
 22
-11.3200284212127
 32
0.0
 70
   160
 71
     5
 42
-1.0
  3
A
100
AcDbAlignedDimension
 13
79.19996582350205
 23
189.4670777530051
 33
0.0
 14
81.18530447421575
 24
189.467077753005
 34
0.0
100
AcDbRotatedDimension
  0
DIMENSION
  5
6864
330
18
100
AcDbEntity
  8
DIM
100
AcDbDimension
  2
*D3
 10
67.23640807472702
 20
193.4670777530051
 30
0.0
 11
66.36200403387125
 21
204.1451693193956
 31
0.0
 12
-212.4064491215881
 22
0.0
 32
0.0
 70
   160
  1
<>      (3等分)
 71
     5
 42
-1.0
  3
A
100
AcDbAlignedDimension
 13
79.19996582350205
 23
189.4670777530051
 33
0.0
 14
79.19996582350211
 24
193.4670777530051
 34
0.0
 50
90.0
100
AcDbRotatedDimension
  0
LINE
  5
689B
330
18
100
AcDbEntity
  8
DIM
 62
     6
100
AcDbLine
 10
67.23640807472702
 20
198.4670777530051
 30
0.0
 11
67.23640807472702
 21
218.3833866153995
 31
0.0
  0
LINE
  5
6AF0
330
18
100
AcDbEntity
  8
DIM
 62
     6
100
AcDbLine
 10
86.18530447421575
 20
164.1891148754676
 30
0.0
 11
97.98852778504489
 21
164.1891148754676
 31
0.0
  0
LEADER
  5
6B85
330
18
100
AcDbEntity
  8
DIM
 62
     6
100
AcDbLeader
  3
A
 73
     0
 74
     0
 75
     1
 40
3.0
 41
10.0
 76
     3
 10
85.07447368988966
 20
115.861746300992
 30
0.0
 10
92.26778629209707
 20
125.9479729150536
 30
0.0
 10
94.76778629209707
 20
125.9479729150536
 30
0.0
340
6B86
  0
MTEXT
  5
6B86
102
{ACAD_REACTORS
330
6B85
102
}
330
18
100
AcDbEntity
  8
DIM
 62
     3
100
AcDbMText
 10
95.76778629209707
 20
128.4479729150536
 30
0.0
 40
3.0
 41
0.0
 71
     4
 72
     1
  1
\A1;2-C1
  7
TXT
 73
     1
 44
1.0
1001
ACAD
1000
MTEXTBEGIN
1070
    73
1070
     1
1070
    44
1040
1.0
1070
    74
1070
     0
1000
MTEXTEND
  0
DIMENSION
  5
6C92
330
18
100
AcDbEntity
  8
DIM
100
AcDbDimension
  2
*D4
 10
108.5744736898896
 20
133.9584352061948
 30
0.0
 11
95.07447368988961
 21
136.4584352061948
 31
0.0
 70
    32
  1
%%c<>%%p0.5
 71
     5
 42
-1.0
  3
A
100
AcDbAlignedDimension
 13
81.57447368988959
 23
116.361746300992
 33
0.0
 14
108.5744736898896
 24
116.3617463009921
 34
0.0
100
AcDbRotatedDimension
  0
DIMENSION
  5
6CAA
330
18
100
AcDbEntity
  8
DIM
100
AcDbDimension
  2
*D5
 10
111.0744736898896
 20
141.0381046300758
 30
0.0
 11
89.54956032071299
 21
141.850525654164
 31
0.0
 70
   160
  1
%%c<>
 71
     5
 42
-1.0
  3
A
100
AcDbAlignedDimension
 13
79.07859108179582
 23
114.9523985535638
 33
0.0
 14
111.0744736898896
 24
114.8617463009921
 34
0.0
100
AcDbRotatedDimension
  0
DIMENSION
  5
74C6
330
18
100
AcDbEntity
  8
0
100
AcDbDimension
  2
*D6
 10
67.23640807472702
 20
115.8617463009921
 30
0.0
 11
67.23640807472702
 21
126.5217435621422
 31
0.0
 12
-212.4064491215881
 22
-7.872649718377601
 32
0.0
 70
   160
 71
     5
 42
-1.0
  3
A
100
AcDbAlignedDimension
 13
81.57447368988959
 23
116.361746300992
 33
0.0
 14
80.07447368988961
 24
115.8617463009921
 34
0.0
 50
90.0
100
AcDbRotatedDimension
  0
DIMENSION
  5
7575
330
18
100
AcDbEntity
  8
DIM
100
AcDbDimension
  2
*D7
 10
136.3043704949179
 20
116.361746300992
 30
0.0
 11
136.3043704949179
 21
111.3617463009921
 31
0.0
 12
-212.4064491215881
 22
-7.872649718377601
 32
0.0
 70
   160
 71
     5
 42
-1.0
  3
A
100
AcDbAlignedDimension
 13
110.0744736898896
 23
106.3617463009921
 33
0.0
 14
108.0744736898895
 24
116.361746300992
 34
0.0
 50
90.0
100
AcDbRotatedDimension
  0
LINE
  5
78B2
102
{ACAD_REACTORS
330
791D
102
}
330
18
100
AcDbEntity
  8
中心線
  6
CENTER
 48
0.15
100
AcDbLine
 10
103.2136640843371
 20
111.3534822289916
 30
0.0
 11
112.413434147769
 21
111.3534822289916
 31
0.0
  0
LINE
  5
78B3
102
{ACAD_REACTORS
330
7BC7
102
}
330
18
100
AcDbEntity
  8
0
100
AcDbLine
 10
104.5744736898895
 20
113.8534822289916
 30
0.0
 11
111.0744736898896
 21
113.8534822289916
 31
0.0
  0
LINE
  5
78B4
102
{ACAD_REACTORS
330
7BC7
102
}
330
18
100
AcDbEntity
  8
0
100
AcDbLine
 10
104.5744736898896
 20
108.8534822289916
 30
0.0
 11
111.0744736898895
 21
108.8534822289916
 31
0.0
  0
LINE
  5
78B5
102
{ACAD_REACTORS
330
791D
102
}
330
18
100
AcDbEntity
  8
0
100
AcDbLine
 10
104.5744736898895
 20
113.6034822289916
 30
0.0
 11
107.0744736898896
 21
113.6034822289916
 31
0.0
  0
LINE
  5
78B6
102
{ACAD_REACTORS
330
791D
102
}
330
18
100
AcDbEntity
  8
0
100
AcDbLine
 10
104.5744736898896
 20
109.1034822289915
 30
0.0
 11
107.0744736898896
 21
109.1034822289915
 31
0.0
  0
LINE
  5
78B7
330
18
100
AcDbEntity
  8
0
 48
0.08
100
AcDbLine
 10
107.7684713563751
 20
113.3534822289916
 30
0.0
 11
111.0154479034903
 21
113.3534822289916
 31
0.0
  0
LINE
  5
78B8
330
18
100
AcDbEntity
  8
0
 48
0.1
100
AcDbLine
 10
107.7925862888677
 20
109.3534822289916
 30
0.0
 11
111.0154479034903
 21
109.3534822289916
 31
0.0
  0
LINE
  5
78B9
330
18
100
AcDbEntity
  8
0
 48
0.1
100
AcDbLine
 10
110.5154479034903
 20
113.8534822289916
 30
0.0
 11
110.5154479034903
 21
108.8534822289916
 31
0.0
  0
LINE
  5
78BA
330
18
100
AcDbEntity
  8
0
100
AcDbLine
 10
110.5154479034903
 20
113.8534822289916
 30
0.0
 11
111.0154479034902
 21
113.5648070943968
 31
0.0
  0
LINE
  5
78BB
330
18
100
AcDbEntity
  8
0
100
AcDbLine
 10
110.5154479034903
 20
108.8534822289916
 30
0.0
 11
111.0154479034902
 21
109.1421573635864
 31
0.0
  0
LINE
  5
78BC
330
18
100
AcDbEntity
  8
本体内線
  6
HIDDEN
 48
0.1
100
AcDbLine
 10
109.5154479034903
 20
112.6034822289915
 30
0.0
 11
109.0508799351962
 21
111.3525481541111
 31
0.0
  0
LINE
  5
78BD
330
18
100
AcDbEntity
  8
本体内線
  6
HIDDEN
 48
0.1
100
AcDbLine
 10
109.0508799351962
 20
111.3525481541111
 30
0.0
 11
109.5154479034903
 21
110.1034822289916
 31
0.0
  0
LINE
  5
78BE
330
18
100
AcDbEntity
  8
本体内線
  6
HIDDEN
 48
0.1
100
AcDbLine
 10
109.5154479034903
 20
112.6034822289917
 30
0.0
 11
111.0154479034903
 21
112.6034822289916
 31
0.0
  0
LINE
  5
78BF
330
18
100
AcDbEntity
  8
本体内線
  6
HIDDEN
 48
0.1
100
AcDbLine
 10
109.5154479034903
 20
110.1034822289917
 30
0.0
 11
111.0154479034903
 21
110.1034822289916
 31
0.0
  0
LINE
  5
78C0
330
18
100
AcDbEntity
  8
0
100
AcDbLine
 10
107.0744736898896
 20
113.1624989290677
 30
0.0
 11
107.7654569898135
 21
113.8534822289916
 31
0.0
  0
LINE
  5
78C1
330
18
100
AcDbEntity
  8
0
100
AcDbLine
 10
107.0744736898896
 20
109.5746091945312
 30
0.0
 11
107.7956006554292
 21
108.8534822289916
 31
0.0
  0
LINE
  5
78C2
330
18
100
AcDbEntity
  8
中心線
  6
CENTER
 48
0.15
100
AcDbLine
 10
95.07447368988961
 20
209.4670777530051
 30
0.0
 11
95.07447368988961
 21
173.4670777530051
 31
0.0
  0
LINE
  5
78C3
330
18
100
AcDbEntity
  8
中心線
  6
CENTER
 48
0.15
100
AcDbLine
 10
95.07447368988961
 20
104.9098752905523
 30
0.0
 11
95.07447368988961
 21
117.6603950428953
 31
0.0
  0
ARC
  5
78C4
330
18
100
AcDbEntity
  8
0
100
AcDbCircle
 10
95.07447368988961
 20
191.4670777530051
 30
0.0
 40
10.0
100
AcDbArc
 50
168.3726604902053
 51
99.00844928917132
  0
CIRCLE
  5
78C5
330
18
100
AcDbEntity
  8
本体外線
100
AcDbCircle
 10
95.07447368988961
 20
191.4670777530051
 30
0.0
 40
9.5
  0
LINE
  5
78C6
102
{ACAD_REACTORS
330
7BC7
102
}
330
18
100
AcDbEntity
  8
本体外線
100
AcDbLine
 10
111.0744736898896
 20
114.8617463009921
 30
0.0
 11
111.0744736898896
 21
107.3617463009921
 31
0.0
  0
LINE
  5
78C7
102
{ACAD_REACTORS
330
7BC7
102
}
330
18
100
AcDbEntity
  8
本体外線
100
AcDbLine
 10
80.07447368988961
 20
106.361746300992
 30
0.0
 11
110.0744736898896
 21
106.3617463009921
 31
0.0
  0
LINE
  5
78C8
102
{ACAD_REACTORS
330
7BC7
102
}
330
18
100
AcDbEntity
  8
本体外線
100
AcDbLine
 10
81.57447368988959
 20
116.361746300992
 30
0.0
 11
81.57447368988959
 21
115.8617463009921
 31
0.0
  0
LINE
  5
78C9
102
{ACAD_REACTORS
330
7BC7
102
}
330
18
100
AcDbEntity
  8
0
100
AcDbLine
 10
85.07447368988966
 20
115.8617463009921
 30
0.0
 11
85.07447368988954
 21
106.861746300992
 31
0.0
  0
LINE
  5
78CA
102
{ACAD_REACTORS
330
7BC7
102
}
330
18
100
AcDbEntity
  8
本体外線
100
AcDbLine
 10
85.5744736898896
 20
115.361746300992
 30
0.0
 11
85.57447368988954
 21
107.361746300992
 31
0.0
  0
LINE
  5
78CB
102
{ACAD_REACTORS
330
791D
330
7BC7
102
}
330
18
100
AcDbEntity
  8
本体外線
100
AcDbLine
 10
104.5744736898895
 20
115.3617463009921
 30
0.0
 11
104.5744736898896
 21
107.361746300992
 31
0.0
  0
LINE
  5
78CC
102
{ACAD_REACTORS
330
7BC7
102
}
330
18
100
AcDbEntity
  8
0
100
AcDbLine
 10
105.0744736898895
 20
115.8617463009921
 30
0.0
 11
105.0744736898895
 21
113.8534822289916
 31
0.0
  0
LINE
  5
78CD
330
18
100
AcDbEntity
  8
本体外線
100
AcDbLine
 10
108.5744736898896
 20
116.361746300992
 30
0.0
 11
108.5744736898896
 21
115.8617463009921
 31
0.0
  0
LINE
  5
78CE
330
18
100
AcDbEntity
  8
本体内線
  6
HIDDEN
 48
0.2
100
AcDbLine
 10
92.65696150439486
 20
182.2798238198114
 30
0.0
 11
89.3377968847111
 21
176.5308620598341
 31
0.0
  0
LINE
  5
78CF
330
18
100
AcDbEntity
  8
本体内線
  6
HIDDEN
 48
0.2
100
AcDbLine
 10
88.32683448547266
 20
184.7798238198114
 30
0.0
 11
85.0076698657889
 21
179.0308620598341
 31
0.0
  0
LINE
  5
78D0
330
18
100
AcDbEntity
  8
本体内線
  6
HIDDEN
 48
0.2
100
AcDbLine
 10
92.26063310907676
 20
182.3933629026381
 30
0.0
 11
88.96233262617801
 21
176.6805388876286
 31
0.0
  0
LINE
  5
78D1
330
18
100
AcDbEntity
  8
本体内線
  6
HIDDEN
 48
0.2
100
AcDbLine
 10
88.62332641318209
 20
184.4933629026381
 30
0.0
 11
85.32502593028334
 21
178.7805388876286
 31
0.0
  0
LINE
  5
78D2
330
18
100
AcDbEntity
  8
中心線
  6
CENTER
 48
0.15
100
AcDbLine
 10
77.0744736898896
 20
191.4670777530051
 30
0.0
 11
113.0744736898896
 21
191.467077753005
 31
0.0
  0
LINE
  5
78D3
330
18
100
AcDbEntity
  8
本体外線
100
AcDbLine
 10
81.18530447421575
 20
189.467077753005
 30
0.0
 11
79.19996582350205
 21
189.4670777530051
 31
0.0
  0
LINE
  5
78D4
330
18
100
AcDbEntity
  8
本体外線
100
AcDbLine
 10
81.18530447421585
 20
193.467077753005
 30
0.0
 11
79.19996582350205
 21
193.4670777530051
 31
0.0
  0
LINE
  5
78D5
330
18
100
AcDbEntity
  8
中心線
  6
CENTER
 48
0.15
100
AcDbLine
 10
86.0744736898896
 20
175.8786204848852
 30
0.0
 11
91.32447368988954
 21
184.9718872246219
 31
0.0
  0
LINE
  5
78D6
330
18
100
AcDbEntity
  8
本体内線
  6
HIDDEN
 48
0.2
100
AcDbLine
 10
104.2396250798013
 20
193.9670777530051
 30
0.0
 11
110.8779543191687
 21
193.9670777530051
 31
0.0
  0
LINE
  5
78D7
330
18
100
AcDbEntity
  8
本体内線
  6
HIDDEN
 48
0.2
100
AcDbLine
 10
104.2396250798013
 20
188.9670777530051
 30
0.0
 11
110.8779543191687
 21
188.9670777530051
 31
0.0
  0
LINE
  5
78D8
330
18
100
AcDbEntity
  8
本体内線
  6
HIDDEN
 48
0.2
100
AcDbLine
 10
104.33946154741
 20
193.5670777530051
 30
0.0
 11
110.9360625132074
 21
193.5670777530051
 31
0.0
  0
LINE
  5
78D9
330
18
100
AcDbEntity
  8
本体内線
  6
HIDDEN
 48
0.2
100
AcDbLine
 10
104.33946154741
 20
189.3670777530051
 30
0.0
 11
110.9360625132074
 21
189.3670777530051
 31
0.0
  0
LINE
  5
78DA
330
18
100
AcDbEntity
  8
本体内線
  6
HIDDEN
 48
0.2
100
AcDbLine
 10
88.32683448547271
 20
198.1543316861989
 30
0.0
 11
85.007669865789
 21
203.9032934461761
 31
0.0
  0
LINE
  5
78DB
330
18
100
AcDbEntity
  8
本体内線
  6
HIDDEN
 48
0.2
100
AcDbLine
 10
92.65696150439486
 20
200.6543316861989
 30
0.0
 11
89.33779688471117
 21
206.4032934461761
 31
0.0
  0
LINE
  5
78DC
330
18
100
AcDbEntity
  8
本体内線
  6
HIDDEN
 48
0.2
100
AcDbLine
 10
88.62332641318209
 20
198.4407926033721
 30
0.0
 11
85.3250259302834
 21
204.1536166183817
 31
0.0
  0
LINE
  5
78DD
330
18
100
AcDbEntity
  8
本体内線
  6
HIDDEN
 48
0.2
100
AcDbLine
 10
92.26063310907676
 20
200.5407926033721
 30
0.0
 11
88.96233262617807
 21
206.2536166183817
 31
0.0
  0
LINE
  5
78DE
330
18
100
AcDbEntity
  8
中心線
  6
CENTER
 48
0.15
100
AcDbLine
 10
91.32447368988964
 20
197.9622682813884
 30
0.0
 11
86.07447368988966
 21
207.055535021125
 31
0.0
  0
LINE
  5
78E1
102
{ACAD_REACTORS
330
7BC7
102
}
330
18
100
AcDbEntity
  8
本体外線
100
AcDbLine
 10
108.5744736898896
 20
115.8617463009921
 30
0.0
 11
110.0744736898896
 21
115.8617463009921
 31
0.0
  0
LINE
  5
78E2
102
{ACAD_REACTORS
330
7BC7
102
}
330
18
100
AcDbEntity
  8
0
100
AcDbLine
 10
105.0744736898896
 20
108.8534822289916
 30
0.0
 11
105.0744736898895
 21
106.861746300992
 31
0.0
  0
POINT
  5
78EA
330
18
100
AcDbEntity
  8
本体外線
100
AcDbPoint
 10
110.0744736898896
 20
106.3617463009921
 30
0.0
  0
POINT
  5
78F8
330
18
100
AcDbEntity
  8
本体外線
100
AcDbPoint
 10
110.1215180483141
 20
106.3617463009921
 30
0.0
  0
LINE
  5
7901
330
18
100
AcDbEntity
  8
本体外線
100
AcDbLine
 10
79.0744736898896
 20
107.361746300992
 30
0.0
 11
79.0744736898896
 21
114.8617463009921
 31
0.0
  0
LINE
  5
7902
102
{ACAD_REACTORS
330
7BC7
102
}
330
18
100
AcDbEntity
  8
本体外線
100
AcDbLine
 10
81.57447368988959
 20
116.361746300992
 30
0.0
 11
108.5744736898896
 21
116.3617463009921
 31
0.0
  0
LINE
  5
7903
102
{ACAD_REACTORS
330
7BC7
102
}
330
18
100
AcDbEntity
  8
本体外線
100
AcDbLine
 10
81.57447368988959
 20
115.8617463009921
 30
0.0
 11
80.07447368988961
 21
115.8617463009921
 31
0.0
  0
ARC
  5
7904
330
18
100
AcDbEntity
  8
本体外線
100
AcDbCircle
 10
80.07447368988961
 20
114.8617463009921
 30
0.0
 40
1.0
100
AcDbArc
 50
90.0
 51
179.9999999999999
  0
ARC
  5
7905
330
18
100
AcDbEntity
  8
本体外線
100
AcDbCircle
 10
80.07447368988961
 20
107.361746300992
 30
0.0
 40
1.0
100
AcDbArc
 50
180.0
 51
270.0
  0
ARC
  5
7906
102
{ACAD_REACTORS
330
7BC7
102
}
330
18
100
AcDbEntity
  8
本体外線
100
AcDbCircle
 10
110.0744736898896
 20
114.8617463009921
 30
0.0
 40
1.0
100
AcDbArc
 50
360.0
 51
89.99999999999891
  0
ARC
  5
7907
102
{ACAD_REACTORS
330
7BC7
102
}
330
18
100
AcDbEntity
  8
本体外線
100
AcDbCircle
 10
110.0744736898896
 20
107.3617463009921
 30
0.0
 40
1.0
100
AcDbArc
 50
270.0000000000001
 51
359.9999999999999
  0
ARC
  5
790A
330
18
100
AcDbEntity
  8
本体外線
100
AcDbCircle
 10
95.07447368988961
 20
191.4670777530051
 30
0.0
 40
16.0
100
AcDbArc
 50
187.1807557814583
 51
292.8192442185416
  0
CIRCLE
  5
790B
330
18
100
AcDbEntity
  8
本体外線
100
AcDbCircle
 10
95.07447368988961
 20
191.4670777530051
 30
0.0
 40
13.5
  0
LINE
  5
790C
330
18
100
AcDbEntity
  8
本体外線
100
AcDbLine
 10
81.18530447421575
 20
189.467077753005
 30
0.0
 11
81.18530447421585
 21
193.467077753005
 31
0.0
  0
LINE
  5
790E
330
18
100
AcDbEntity
  8
本体外線
100
AcDbLine
 10
103.7511091052953
 20
180.4387043747708
 30
0.0
 11
104.7437784306522
 21
178.7193506681376
 31
0.0
  0
LINE
  5
790F
330
18
100
AcDbEntity
  8
本体外線
100
AcDbLine
 10
100.2870074901576
 20
178.4387043747708
 30
0.0
 11
101.2796768155144
 21
176.7193506681375
 31
0.0
  0
LINE
  5
7910
330
18
100
AcDbEntity
  8
本体外線
100
AcDbLine
 10
103.7511091052953
 20
180.4387043747708
 30
0.0
 11
100.2870074901576
 21
178.4387043747708
 31
0.0
  0
LINE
  5
7911
330
18
100
AcDbEntity
  8
本体外線
100
AcDbLine
 10
100.2870074901576
 20
204.4954511312394
 30
0.0
 11
101.2796768155145
 21
206.2148048378726
 31
0.0
  0
LINE
  5
7912
330
18
100
AcDbEntity
  8
本体外線
100
AcDbLine
 10
103.7511091052953
 20
202.4954511312393
 30
0.0
 11
104.7437784306522
 21
204.2148048378725
 31
0.0
  0
LINE
  5
7913
330
18
100
AcDbEntity
  8
本体外線
100
AcDbLine
 10
100.2870074901576
 20
204.4954511312394
 30
0.0
 11
103.7511091052953
 21
202.4954511312393
 31
0.0
  0
ARC
  5
7914
330
18
100
AcDbEntity
  8
本体外線
100
AcDbCircle
 10
95.07447368988961
 20
191.4670777530051
 30
0.0
 40
16.0
100
AcDbArc
 50
67.18075578145814
 51
172.8192442185417
  0
ARC
  5
7915
330
18
100
AcDbEntity
  8
本体外線
100
AcDbCircle
 10
95.07447368988961
 20
191.4670777530051
 30
0.0
 40
16.0
100
AcDbArc
 50
307.1807557814582
 51
52.81924421854149
  0
LINE
  5
7916
102
{ACAD_REACTORS
330
7BC7
102
}
330
18
100
AcDbEntity
  8
本体外線
100
AcDbLine
 10
108.5744736898896
 20
115.8617463009921
 30
0.0
 11
108.5744736898896
 21
116.361746300992
 31
0.0
  0
LINE
  5
7918
102
{ACAD_REACTORS
330
7BC7
102
}
330
18
100
AcDbEntity
  8
本体外線
100
AcDbLine
 10
81.17447368988957
 20
106.361746300992
 30
0.0
 11
81.17447368988957
 21
115.8617463009921
 31
0.0
  0
LINE
  5
791A
102
{ACAD_REACTORS
330
791D
102
}
330
18
100
AcDbEntity
  8
0
100
AcDbLine
 10
107.0744736898896
 20
113.6034822289916
 30
0.0
 11
107.0744736898896
 21
109.1034822289915
 31
0.0
  0
LINE
  5
791B
330
18
100
AcDbEntity
  8
本体内線
  6
HIDDEN
 48
0.1
100
AcDbLine
 10
109.5154479034903
 20
112.6034822289916
 30
0.0
 11
109.5154479034903
 21
110.1034822289916
 31
0.0
  0
LINE
  5
791C
330
18
100
AcDbEntity
  8
0
 48
0.1
100
AcDbLine
 10
107.7955824829479
 20
108.8564965407751
 30
0.0
 11
107.7654388173322
 21
113.8564965407751
 31
0.0
  0
HATCH
  5
791D
330
18
100
AcDbEntity
  8
0
100
AcDbHatch
 10
0.0
 20
0.0
 30
0.0
210
0.0
220
0.0
230
1.0
  2
AR-SAND
 70
     0
 71
     1
 91
        2
 92
        7
 72
     0
 73
     1
 93
        4
 10
107.0744736898896
 20
113.6034822289916
 10
104.5744736898895
 20
113.6034822289916
 10
104.5744736898895
 20
111.3534822289916
 10
107.0744736898896
 20
111.3534822289916
 97
        4
330
78B5
330
78CB
330
78B2
330
791A
 92
        7
 72
     0
 73
     1
 93
        4
 10
107.0744736898896
 20
111.3534822289916
 10
104.5744736898895
 20
111.3534822289916
 10
104.5744736898895
 20
109.1034822289915
 10
107.0744736898896
 20
109.1034822289915
 97
        4
330
78B2
330
78CB
330
78B6
330
791A
 75
     0
 76
     1
 52
0.0
 41
0.03
 77
     0
 78
     4
 53
37.5
 43
-3.993243384983088
 44
-23.91747615022962
 45
-0.0480009388795214
 46
1.468239711988027
 79
     6
 49
0.0
 49
-1.15824
 49
0.0
 49
-1.295399999999999
 49
0.0
 49
-1.238249999999999
 53
7.499999999999999
 43
-3.993243384983088
 44
-23.91747615022962
 45
1.348569849414007
 46
2.150475301705062
 79
     6
 49
0.0
 49
-0.6248400000000001
 49
0.0
 49
-1.04394
 49
0.0
 49
-0.4000500000000001
 53
327.5
 43
-4.930503384983097
 44
-23.91747615022962
 45
2.372977110724373
 46
0.0043115540356371
 79
     6
 49
0.0
 49
-0.381
 49
0.0
 49
-1.371599999999999
 49
0.0
 49
-1.7907
 53
317.5
 43
-4.930503384983097
 44
-23.91747615022962
 45
2.290669357416891
 46
0.6687879697716487
 79
     6
 49
0.0
 49
-0.1905
 49
0.0
 49
-0.8991599999999998
 49
0.0
 49
-1.028699999999999
 47
0.0308734057166021
 98
        2
 10
106.5229115321608
 20
112.2222210915021
 10
106.0592898332838
 20
110.1537021903558
  0
LINE
  5
79F4
330
18
100
AcDbEntity
  8
本体外線
100
AcDbLine
 10
85.5744736898896
 20
115.361746300992
 30
0.0
 11
104.5744736898895
 21
115.3617463009921
 31
0.0
  0
LINE
  5
79F5
330
18
100
AcDbEntity
  8
本体外線
100
AcDbLine
 10
85.57447368988954
 20
107.361746300992
 30
0.0
 11
104.5744736898896
 21
107.361746300992
 31
0.0
  0
LINE
  5
79F8
102
{ACAD_REACTORS
330
7BC7
102
}
330
18
100
AcDbEntity
  8
本体外線
100
AcDbLine
 10
85.5744736898896
 20
115.361746300992
 30
0.0
 11
84.5744736898896
 21
116.361746300992
 31
0.0
  0
LINE
  5
79FA
102
{ACAD_REACTORS
330
7BC7
102
}
330
18
100
AcDbEntity
  8
本体外線
100
AcDbLine
 10
104.5744736898895
 20
115.3617463009921
 30
0.0
 11
105.5744736898895
 21
116.3617463009921
 31
0.0
  0
LINE
  5
79FB
102
{ACAD_REACTORS
330
7BC7
102
}
330
18
100
AcDbEntity
  8
本体外線
100
AcDbLine
 10
85.5744736898896
 20
107.361746300992
 30
0.0
 11
84.5744736898896
 21
106.3617463009921
 31
0.0
  0
LINE
  5
79FC
102
{ACAD_REACTORS
330
7BC7
102
}
330
18
100
AcDbEntity
  8
本体外線
100
AcDbLine
 10
104.5744736898895
 20
107.361746300992
 30
0.0
 11
105.5744736898895
 21
106.361746300992
 31
0.0
  0
HATCH
  5
7BC7
330
18
100
AcDbEntity
  8
剖面線
100
AcDbHatch
 10
0.0
 20
0.0
 30
0.0
210
0.0
220
0.0
230
1.0
  2
ANSI31
 70
     0
 71
     1
 91
        6
 92
        7
 72
     0
 73
     1
 93
        8
 10
85.07447368988964
 20
115.861746300992
 10
84.57447368988958
 20
116.361746300992
 10
81.57447368988959
 20
116.361746300992
 10
81.57447368988959
 20
115.8617463009921
 10
81.17447368988957
 20
115.8617463009921
 10
81.17447368988955
 20
106.361746300992
 10
84.57447368988958
 20
106.3617463009921
 10
85.07447368988954
 20
106.861746300992
 97
        8
330
79F8
330
7902
330
78C8
330
7903
330
7918
330
78C7
330
79FB
330
78C9
 92
        7
 72
     0
 73
     1
 93
        4
 10
85.5744736898896
 20
115.361746300992
 10
85.07447368988966
 20
115.861746300992
 10
85.07447368988954
 20
106.861746300992
 10
85.57447368988954
 20
107.361746300992
 97
        4
330
79F8
330
78C9
330
79FB
330
78CA
 92
        7
 72
     1
 73
     1
 93
        8
 10
105.5744736898895
 20
116.3617463009921
 42
0.0
 10
105.0744736898895
 20
115.8617463009921
 42
0.0
 10
105.0744736898895
 20
113.8534822289916
 42
0.0
 10
111.0744736898896
 20
113.8534822289916
 42
0.0
 10
111.0744736898896
 20
114.8617463009921
 42
0.4142135623730982
 10
110.0744736898896
 20
115.8617463009921
 42
0.0
 10
108.5744736898896
 20
115.8617463009921
 42
0.0
 10
108.5744736898896
 20
116.3617463009921
 42
0.0
 97
        8
330
78E1
330
7916
330
7902
330
79FA
330
78CC
330
78B3
330
78C6
330
7906
 92
        7
 72
     1
 73
     1
 93
        6
 10
105.0744736898896
 20
108.8534822289916
 42
0.0
 10
105.0744736898895
 20
106.861746300992
 42
0.0
 10
105.5744736898894
 20
106.361746300992
 42
0.0
 10
110.0744736898896
 20
106.3617463009921
 42
0.4142135623730942
 10
111.0744736898896
 20
107.3617463009921
 42
0.0
 10
111.0744736898896
 20
108.8534822289916
 42
0.0
 97
        6
330
78B4
330
78E2
330
79FC
330
78C7
330
7907
330
78C6
 92
        7
 72
     0
 73
     1
 93
        4
 10
105.0744736898896
 20
108.8534822289916
 10
104.5744736898895
 20
108.8534822289916
 10
104.5744736898896
 20
107.3617463009919
 10
105.0744736898895
 20
106.861746300992
 97
        4
330
78B4
330
78CB
330
79FC
330
78E2
 92
        7
 72
     0
 73
     1
 93
        4
 10
105.0744736898895
 20
115.8617463009921
 10
104.5744736898895
 20
115.3617463009921
 10
104.5744736898895
 20
113.8534822289916
 10
105.0744736898895
 20
113.8534822289916
 97
        4
330
79FA
330
78CB
330
78B3
330
78CC
 75
     0
 76
     1
 52
0.0
 41
0.5
 77
     0
 78
     1
 53
45.0
 43
-212.4064491215881
 44
-7.872649718377601
 45
-1.122532015133643
 46
1.122532015133644
 79
     0
 47
0.0409403803897849
 98
        6
 10
83.17742943709049
 20
113.0813463018451
 10
85.47997072075736
 20
110.6820370742464
 10
106.731609914314
 20
115.2091596895179
 10
107.446623429601
 20
107.9853742273807
 10
104.8796333264886
 20
108.1443202054214
 10
105.043526643082
 20
114.5719598710326
  0
DIMENSION
  5
7BD1
330
18
100
AcDbEntity
  8
DIM
100
AcDbDimension
  2
*D9
 10
80.07447368988961
 20
107.361746300992
 30
0.0
 11
71.70411219568126
 21
98.76308079660859
 31
0.0
 12
-212.4064491215881
 22
-7.872649718377601
 32
0.0
 70
   164
  1
2-<>
 71
     5
 42
-1.0
  3
A
100
AcDbRadialDimension
 15
79.37694356537225
 25
106.6451908422934
 35
0.0
 40
0.0
1001
ACAD
1000
DSTYLE
1002
{
1070
   288
1070
     1
1002
}
  0
LEADER
  5
7BE7
330
18
100
AcDbEntity
  8
DIM
 62
     6
100
AcDbLeader
  3
A
 76
     2
 10
105.8861611051205
 20
112.8702500815445
 30
0.0
 10
121.534284436336
 20
133.588282735391
 30
0.0
1001
ACAD
1000
DSTYLE
1002
{
1070
   341
1005
7A5F
1070
   173
1070
     1
1070
   343
1005
7A5F
1070
   344
1005
7A5F
1002
}
  0
MTEXT
  5
7BFE
330
18
100
AcDbEntity
  8
公差
100
AcDbMText
 10
132.7524068076565
 20
116.8060850342801
 30
0.0
 40
3.0
 41
11.48459459716352
 71
     1
 72
     5
  1
%%p0.2
  7
TXT
 11
0.0000000000000001
 21
1.0
 31
0.0
 73
     1
 44
1.0
1001
ACAD
1000
MTEXTBEGIN
1070
    73
1070
     1
1070
    44
1040
1.0
1070
    74
1070
     0
1000
MTEXTEND
  0
MTEXT
  5
7C9B
330
18
100
AcDbEntity
  8
0
100
AcDbMText
 10
49.81948278949767
 20
19.37399834316261
 30
0.0
 40
5.0
 41
0.0
 71
     1
 72
     5
  1
\Ftxt.shx,bigfont.shx|c128;小柳
  7
JL
 73
     1
 44
1.0
1001
ACAD
1000
MTEXTBEGIN
1070
    73
1070
     1
1070
    44
1040
1.0
1070
    74
1070
     0
1000
MTEXTEND
  0
LWPOLYLINE
  5
7CD9
330
18
100
AcDbEntity
  8
mark
100
AcDbPolyline
 90
        3
 70
     1
 43
0.0
 10
9.07047156741175
 20
35.08158584291218
 10
6.183720221463635
 20
40.08158584291217
 10
3.296968875515496
 20
35.08158584291218
  0
MTEXT
  5
7CDA
330
18
100
AcDbEntity
  8
DIM
100
AcDbMText
 10
5.737870983795152
 20
38.23456619130488
 30
0.0
 40
2.5
 41
9.163114146879252
 71
     1
 72
     5
  1
1
 73
     1
 44
1.0
1001
ACAD
1000
ACAD_MTEXT_DEFINED_HEIGHT_BEGIN
1070
    46
1040
0.0
1000
ACAD_MTEXT_DEFINED_HEIGHT_END
1000
MTEXTBEGIN
1070
    73
1070
     1
1070
    44
1040
1.0
1070
    74
1070
     0
1000
MTEXTEND
  0
MTEXT
  5
7CDB
330
18
100
AcDbEntity
  8
DIM
100
AcDbMText
 10
10.83367007888341
 20
39.54214382536247
 30
0.0
 40
4.5
 41
0.0
 71
     1
 72
     5
  1
{\Ftxt,bigfont|c128;08.08.08 振れ精度の変更  林}
  7
JL
 73
     1
 44
1.0
1001
ACAD
1000
ACAD_MTEXT_DEFINED_HEIGHT_BEGIN
1070
    46
1040
0.0
1000
ACAD_MTEXT_DEFINED_HEIGHT_END
1000
MTEXTBEGIN
1070
    73
1070
     1
1070
    44
1040
1.0
1070
    74
1070
     0
1000
MTEXTEND
  0
CIRCLE
  5
7CDC
330
18
100
AcDbEntity
  8
DIM
100
AcDbCircle
 10
48.60797337290915
 20
37.23232520539568
 30
0.0
 40
2.762409708108862
  0
LWPOLYLINE
  5
7CDD
330
18
100
AcDbEntity
  8
mark
100
AcDbPolyline
 90
        3
 70
     1
 43
0.0
 10
155.3216400241388
 20
137.3762709784114
 10
152.4348886781907
 20
142.3762709784114
 10
149.5481373322425
 20
137.3762709784114
  0
MTEXT
  5
7CDE
330
18
100
AcDbEntity
  8
DIM
100
AcDbMText
 10
151.9890394405222
 20
140.5292513268041
 30
0.0
 40
2.5
 41
9.163114146879252
 71
     1
 72
     5
  1
1
 73
     1
 44
1.0
1001
ACAD
1000
ACAD_MTEXT_DEFINED_HEIGHT_BEGIN
1070
    46
1040
0.0
1000
ACAD_MTEXT_DEFINED_HEIGHT_END
1000
MTEXTBEGIN
1070
    73
1070
     1
1070
    44
1040
1.0
1070
    74
1070
     0
1000
MTEXTEND
  0
MTEXT
  5
7CDF
330
18
100
AcDbEntity
  8
DIM
100
AcDbMText
 10
156.922240065157
 20
140.5292513268041
 30
0.0
 40
2.7
 41
9.163114146879252
 71
     1
 72
     5
  1
0.007
 73
     1
 44
1.0
1001
ACAD
1000
ACAD_MTEXT_DEFINED_HEIGHT_BEGIN
1070
    46
1040
0.0
1000
ACAD_MTEXT_DEFINED_HEIGHT_END
1000
MTEXTBEGIN
1070
    73
1070
     1
1070
    44
1040
1.0
1070
    74
1070
     0
1000
MTEXTEND
  0
LINE
  5
7CE0
330
18
100
AcDbEntity
  8
mark
 62
     1
100
AcDbLine
 10
156.0329575710946
 20
133.5048181889334
 30
0.0
 11
167.1275305962622
 21
133.5048181889334
 31
0.0
  0
LINE
  5
7CE1
330
18
100
AcDbEntity
  8
mark
 62
     1
100
AcDbLine
 10
156.0329575710946
 20
132.3789882021909
 30
0.0
 11
167.1275305962622
 21
132.3789882021909
 31
0.0
  0
LWPOLYLINE
  5
7CE2
330
18
100
AcDbEntity
  8
mark
100
AcDbPolyline
 90
        3
 70
     1
 43
0.0
 10
190.2771886525865
 20
3.619303037434406
 10
187.3904373066384
 20
8.619303037434406
 10
184.5036859606903
 20
3.619303037434406
  0
MTEXT
  5
7CE3
330
18
100
AcDbEntity
  8
DIM
100
AcDbMText
 10
186.9445880689699
 20
6.772283385827108
 30
0.0
 40
2.5
 41
9.163114146879252
 71
     1
 72
     5
  1
1
 73
     1
 44
1.0
1001
ACAD
1000
ACAD_MTEXT_DEFINED_HEIGHT_BEGIN
1070
    46
1040
0.0
1000
ACAD_MTEXT_DEFINED_HEIGHT_END
1000
MTEXTBEGIN
1070
    73
1070
     1
1070
    44
1040
1.0
1070
    74
1070
     0
1000
MTEXTEND
  0
ENDSEC
  0
SECTION
  2
OBJECTS
  0
DICTIONARY
  5
C
330
0
100
AcDbDictionary
281
     1
  3
ACAD_COLOR
350
7CA2
  3
ACAD_GROUP
350
D
  3
ACAD_LAYOUT
350
5CF3
  3
ACAD_MATERIAL
350
7CA1
  3
ACAD_MLINESTYLE
350
1B
  3
ACAD_PLOTSETTINGS
350
5CF4
  3
ACAD_PLOTSTYLENAME
350
5CF1
  3
ACAD_TABLESTYLE
350
7CA3
  3
ACDBHEADERROUNDTRIPXREC
350
7CF3
  3
ACDBVARIABLEDICTIONARY
350
45D
  0
DICTIONARY
  5
45F
330
18
100
AcDbDictionary
280
     1
281
     1
  3
ACAD_LAYOUTSELFREF
360
5D8B
  3
ACAD_SORTENTS
360
460
  0
DICTIONARY
  5
5D89
330
15
100
AcDbDictionary
280
     1
281
     1
  3
ACAD_LAYOUTSELFREF
360
5D8A
  0
DICTIONARY
  5
7CA2
102
{ACAD_REACTORS
330
C
102
}
330
C
100
AcDbDictionary
281
     1
  0
DICTIONARY
  5
D
102
{ACAD_REACTORS
330
C
102
}
330
C
100
AcDbDictionary
281
     1
  0
DICTIONARY
  5
5CF3
102
{ACAD_REACTORS
330
C
102
}
330
C
100
AcDbDictionary
281
     1
  3
Model
350
5CF5
  3
配置1
350
5CF6
  0
DICTIONARY
  5
7CA1
102
{ACAD_REACTORS
330
C
102
}
330
C
100
AcDbDictionary
281
     1
  0
DICTIONARY
  5
1B
102
{ACAD_REACTORS
330
C
102
}
330
C
100
AcDbDictionary
281
     1
  3
STANDARD
350
1C
  0
DICTIONARY
  5
5CF4
102
{ACAD_REACTORS
330
C
102
}
330
C
100
AcDbDictionary
281
     1
  0
ACDBDICTIONARYWDFLT
  5
5CF1
102
{ACAD_REACTORS
330
C
102
}
330
C
100
AcDbDictionary
281
     1
  3
Normal
350
5CF2
100
AcDbDictionaryWithDefault
340
5CF2
  0
DICTIONARY
  5
7CA3
102
{ACAD_REACTORS
330
C
102
}
330
C
100
AcDbDictionary
281
     1
  3
Standard
350
7CA4
  0
DICTIONARY
  5
7CF3
102
{ACAD_REACTORS
330
C
102
}
330
C
100
AcDbDictionary
281
     1
  0
DICTIONARY
  5
45D
102
{ACAD_REACTORS
330
C
102
}
330
C
100
AcDbDictionary
281
     1
  3
CTABLESTYLE
350
7CB8
  3
DIMASSOC
350
7CF0
  3
PROJECTNAME
350
7CF1
  3
SORTENTS
350
45E
  0
XRECORD
  5
5D8B
102
{ACAD_REACTORS
330
45F
102
}
330
45F
100
AcDbXrecord
280
     1
340
18
  0
SORTENTSTABLE
  5
460
102
{ACAD_REACTORS
330
45F
102
}
330
45F
100
AcDbSortentsTable
330
18
331
C0
  5
CB
  0
XRECORD
  5
5D8A
102
{ACAD_REACTORS
330
5D89
102
}
330
5D89
100
AcDbXrecord
280
     1
340
15
  0
LAYOUT
  5
5CF5
102
{ACAD_XDICTIONARY
360
7CF4
102
}
102
{ACAD_REACTORS
330
5CF3
102
}
330
5CF3
100
AcDbPlotSettings
  1

  2
hp LaserJet 1300 PCL 6
  4
A4
  6

 40
5.027083396911621
 41
5.069413185119628
 42
5.027084350585937
 43
5.027069091796875
 44
209.9733276367187
 45
296.9683227539062
 46
2.02746888522445
 47
0.0
 48
-0.0000000000002274
 49
0.0
140
197.9999999999997
141
290.0
142
1.0
143
1.010904379871544
 70
 11956
 72
     1
 73
     0
 74
     4
  7
LIN.ctb
 75
     0
147
0.9892132430241025
148
0.0000000000002274
149
0.0
100
AcDbLayout
  1
Model
 70
     1
 71
     0
 10
0.0
 20
0.0
 11
12.0
 21
9.0
 12
0.0
 22
0.0
 32
0.0
 14
0.0
 24
0.0
 34
0.0
 15
0.0
 25
0.0
 35
0.0
146
0.0
 13
0.0
 23
0.0
 33
0.0
 16
1.0
 26
0.0
 36
0.0
 17
0.0
 27
1.0
 37
0.0
 76
     0
330
18
1001
ACAD_PSEXT
1000
hp LaserJet 1300 PCL 6
1000
hp LaserJet 1300 PCL 6
1000
HP 1300
1000

1070
     0
  0
LAYOUT
  5
5CF6
102
{ACAD_XDICTIONARY
360
7CF6
102
}
102
{ACAD_REACTORS
330
5CF3
102
}
330
5CF3
100
AcDbPlotSettings
  1

  2
EPSON STYLUS COLOR 440
  4

  6

 40
0.0
 41
0.0
 42
0.0
 43
0.0
 44
0.0
 45
0.0
 46
0.0
 47
0.0
 48
0.0
 49
0.0
140
0.0
141
0.0
142
1.0
143
1.0
 70
   688
 72
     0
 73
     0
 74
     5
  7
LIN.ctb
 75
    16
147
1.0
148
0.0
149
0.0
100
AcDbLayout
  1
ｰtｸm1
 70
     1
 71
     1
 10
0.0
 20
0.0
 11
420.0
 21
297.0
 12
0.0
 22
0.0
 32
0.0
 14
1.000000000000000E+20
 24
1.000000000000000E+20
 34
1.000000000000000E+20
 15
-1.000000000000000E+20
 25
-1.000000000000000E+20
 35
-1.000000000000000E+20
146
0.0
 13
0.0
 23
0.0
 33
0.0
 16
1.0
 26
0.0
 36
0.0
 17
0.0
 27
1.0
 37
0.0
 76
     0
330
15
  0
MLINESTYLE
  5
1C
102
{ACAD_REACTORS
330
1B
102
}
330
1B
100
AcDbMlineStyle
  2
STANDARD
 70
     0
  3

 62
   256
 51
90.0
 52
90.0
 71
     2
 49
0.5
 62
   256
  6
BYLAYER
 49
-0.5
 62
   256
  6
BYLAYER
  0
ACDBPLACEHOLDER
  5
5CF2
102
{ACAD_REACTORS
330
5CF1
102
}
330
5CF1
  0
TABLESTYLE
  5
7CA4
102
{ACAD_REACTORS
330
7CA3
102
}
330
7CA3
100
AcDbTableStyle
  3
Standard
 70
     0
 71
     0
 40
1.5
 41
1.5
280
     0
281
     0
  7
STANDARD
140
4.5
170
     2
 62
     0
 63
     7
283
     0
274
    -2
284
     1
 64
     0
275
    -2
285
     1
 65
     0
276
    -2
286
     1
 66
     0
277
    -2
287
     1
 67
     0
278
    -2
288
     1
 68
     0
279
    -2
289
     1
 69
     0
  7
STANDARD
140
6.0
170
     5
 62
     0
 63
     7
283
     0
274
    -2
284
     1
 64
     0
275
    -2
285
     1
 65
     0
276
    -2
286
     1
 66
     0
277
    -2
287
     1
 67
     0
278
    -2
288
     1
 68
     0
279
    -2
289
     1
 69
     0
  7
STANDARD
140
4.5
170
     5
 62
     0
 63
     7
283
     0
274
    -2
284
     1
 64
     0
275
    -2
285
     1
 65
     0
276
    -2
286
     1
 66
     0
277
    -2
287
     1
 67
     0
278
    -2
288
     1
 68
     0
279
    -2
289
     1
 69
     0
  0
DICTIONARYVAR
  5
7CB8
102
{ACAD_REACTORS
330
45D
102
}
330
45D
100
DictionaryVariables
280
     0
  1
STANDARD
  0
DICTIONARYVAR
  5
7CF0
102
{ACAD_REACTORS
330
45D
102
}
330
45D
100
DictionaryVariables
280
     0
  1
1
  0
DICTIONARYVAR
  5
7CF1
102
{ACAD_REACTORS
330
45D
102
}
330
45D
100
DictionaryVariables
280
     0
  1

  0
DICTIONARYVAR
  5
45E
102
{ACAD_REACTORS
330
45D
102
}
330
45D
100
DictionaryVariables
280
     0
  1
127
  0
DICTIONARY
  5
7CF4
330
5CF5
100
AcDbDictionary
280
     1
281
     1
  3
ACAD_XREC_ROUNDTRIP
360
7CF5
  0
DICTIONARY
  5
7CF6
330
5CF6
100
AcDbDictionary
280
     1
281
     1
  3
ACAD_XREC_ROUNDTRIP
360
7CF7
  0
XRECORD
  5
7CF5
102
{ACAD_REACTORS
330
7CF4
102
}
330
7CF4
100
AcDbXrecord
280
     1
102
SHADEPLOT
 70
     0
102
SHADEPLOTRESLEVEL
 70
     2
102
SHADEPLOTCUSTOMDPI
 70
   300
  0
XRECORD
  5
7CF7
102
{ACAD_REACTORS
330
7CF6
102
}
330
7CF6
100
AcDbXrecord
280
     1
102
SHADEPLOT
 70
     0
102
SHADEPLOTRESLEVEL
 70
     2
102
SHADEPLOTCUSTOMDPI
 70
   300
  0
ENDSEC
  0
EOF
