  0
SECTION
  2
HEADER
  9
$ACADVER
  1
AC1015
  9
$ACADMAINTVER
 70
    20
  9
$DWGCODEPAGE
  3
ANSI_932
  9
$INSBASE
 10
0.0
 20
0.0
 30
0.0
  9
$EXTMIN
 10
-0.0000000000002274
 20
0.0
 30
0.0
  9
$EXTMAX
 10
190.0
 20
280.0000000000001
 30
3.838383838383842
  9
$LIMMIN
 10
0.0
 20
0.0
  9
$LIMMAX
 10
420.0
 20
297.0
  9
$ORTHOMODE
 70
     0
  9
$REGENMODE
 70
     1
  9
$FILLMODE
 70
     1
  9
$QTEXTMODE
 70
     0
  9
$MIRRTEXT
 70
     1
  9
$LTSCALE
 40
1.0
  9
$ATTMODE
 70
     1
  9
$TEXTSIZE
 40
2.5
  9
$TRACEWID
 40
1.0
  9
$TEXTSTYLE
  7
STANDARD
  9
$CLAYER
  8
0
  9
$CELTYPE
  6
BYLAYER
  9
$CECOLOR
 62
   256
  9
$CELTSCALE
 40
1.0
  9
$DISPSILH
 70
     0
  9
$DIMSCALE
 40
1.0
  9
$DIMASZ
 40
2.5
  9
$DIMEXO
 40
0.8
  9
$DIMDLI
 40
6.0
  9
$DIMRND
 40
0.0
  9
$DIMDLE
 40
0.0
  9
$DIMEXE
 40
0.8
  9
$DIMTP
 40
0.0
  9
$DIMTM
 40
0.0
  9
$DIMTXT
 40
2.5
  9
$DIMCEN
 40
0.0
  9
$DIMTSZ
 40
0.0
  9
$DIMTOL
 70
     0
  9
$DIMLIM
 70
     0
  9
$DIMTIH
 70
     0
  9
$DIMTOH
 70
     0
  9
$DIMSE1
 70
     0
  9
$DIMSE2
 70
     0
  9
$DIMTAD
 70
     3
  9
$DIMZIN
 70
     8
  9
$DIMBLK
  1
Open30
  9
$DIMASO
 70
     1
  9
$DIMSHO
 70
     1
  9
$DIMPOST
  1

  9
$DIMAPOST
  1

  9
$DIMALT
 70
     0
  9
$DIMALTD
 70
     2
  9
$DIMALTF
 40
25.4
  9
$DIMLFAC
 40
1.0
  9
$DIMTOFL
 70
     1
  9
$DIMTVP
 40
0.0
  9
$DIMTIX
 70
     0
  9
$DIMSOXD
 70
     0
  9
$DIMSAH
 70
     0
  9
$DIMBLK1
  1

  9
$DIMBLK2
  1

  9
$DIMSTYLE
  2
A
  9
$DIMCLRD
 70
   256
  9
$DIMCLRE
 70
   256
  9
$DIMCLRT
 70
     3
  9
$DIMTFAC
 40
1.0
  9
$DIMGAP
 40
0.8
  9
$DIMJUST
 70
     0
  9
$DIMSD1
 70
     0
  9
$DIMSD2
 70
     0
  9
$DIMTOLJ
 70
     1
  9
$DIMTZIN
 70
     0
  9
$DIMALTZ
 70
     0
  9
$DIMALTTZ
 70
     0
  9
$DIMUPT
 70
     0
  9
$DIMDEC
 70
     2
  9
$DIMTDEC
 70
     2
  9
$DIMALTU
 70
     2
  9
$DIMALTTD
 70
     2
  9
$DIMTXSTY
  7
STANDARD
  9
$DIMAUNIT
 70
     0
  9
$DIMADEC
 70
     2
  9
$DIMALTRND
 40
0.0
  9
$DIMAZIN
 70
     2
  9
$DIMDSEP
 70
    46
  9
$DIMATFIT
 70
     0
  9
$DIMFRAC
 70
     0
  9
$DIMLDRBLK
  1
Open30
  9
$DIMLUNIT
 70
     2
  9
$DIMLWD
 70
    -2
  9
$DIMLWE
 70
    -2
  9
$DIMTMOVE
 70
     0
  9
$LUNITS
 70
     2
  9
$LUPREC
 70
     2
  9
$SKETCHINC
 40
1.0
  9
$FILLETRAD
 40
1.5
  9
$AUNITS
 70
     0
  9
$AUPREC
 70
     2
  9
$MENU
  1
.
  9
$ELEVATION
 40
0.0
  9
$PELEVATION
 40
0.0
  9
$THICKNESS
 40
0.0
  9
$LIMCHECK
 70
     0
  9
$CHAMFERA
 40
1.5
  9
$CHAMFERB
 40
1.5
  9
$CHAMFERC
 40
1.75
  9
$CHAMFERD
 40
0.0174532925199433
  9
$SKPOLY
 70
     0
  9
$TDCREATE
 40
2451555.620234838
  9
$TDUCREATE
 40
2451555.245234838
  9
$TDUPDATE
 40
2457828.485541910
  9
$TDUUPDATE
 40
2457828.110541910
  9
$TDINDWG
 40
2.5498607060
  9
$TDUSRTIMER
 40
2.5498607060
  9
$USRTIMER
 70
     1
  9
$ANGBASE
 50
0.0
  9
$ANGDIR
 70
     0
  9
$PDMODE
 70
     0
  9
$PDSIZE
 40
0.0
  9
$PLINEWID
 40
0.0
  9
$SPLFRAME
 70
     0
  9
$SPLINETYPE
 70
     6
  9
$SPLINESEGS
 70
     8
  9
$HANDSEED
  5
96BE
  9
$SURFTAB1
 70
     6
  9
$SURFTAB2
 70
     6
  9
$SURFTYPE
 70
     6
  9
$SURFU
 70
     6
  9
$SURFV
 70
     6
  9
$UCSBASE
  2

  9
$UCSNAME
  2

  9
$UCSORG
 10
0.0
 20
0.0
 30
0.0
  9
$UCSXDIR
 10
1.0
 20
0.0
 30
0.0
  9
$UCSYDIR
 10
0.0
 20
1.0
 30
0.0
  9
$UCSORTHOREF
  2

  9
$UCSORTHOVIEW
 70
     0
  9
$UCSORGTOP
 10
0.0
 20
0.0
 30
0.0
  9
$UCSORGBOTTOM
 10
0.0
 20
0.0
 30
0.0
  9
$UCSORGLEFT
 10
0.0
 20
0.0
 30
0.0
  9
$UCSORGRIGHT
 10
0.0
 20
0.0
 30
0.0
  9
$UCSORGFRONT
 10
0.0
 20
0.0
 30
0.0
  9
$UCSORGBACK
 10
0.0
 20
0.0
 30
0.0
  9
$PUCSBASE
  2

  9
$PUCSNAME
  2

  9
$PUCSORG
 10
0.0
 20
0.0
 30
0.0
  9
$PUCSXDIR
 10
1.0
 20
0.0
 30
0.0
  9
$PUCSYDIR
 10
0.0
 20
1.0
 30
0.0
  9
$PUCSORTHOREF
  2

  9
$PUCSORTHOVIEW
 70
     0
  9
$PUCSORGTOP
 10
0.0
 20
0.0
 30
0.0
  9
$PUCSORGBOTTOM
 10
0.0
 20
0.0
 30
0.0
  9
$PUCSORGLEFT
 10
0.0
 20
0.0
 30
0.0
  9
$PUCSORGRIGHT
 10
0.0
 20
0.0
 30
0.0
  9
$PUCSORGFRONT
 10
0.0
 20
0.0
 30
0.0
  9
$PUCSORGBACK
 10
0.0
 20
0.0
 30
0.0
  9
$USERI1
 70
     0
  9
$USERI2
 70
     0
  9
$USERI3
 70
     0
  9
$USERI4
 70
     0
  9
$USERI5
 70
     0
  9
$USERR1
 40
0.0
  9
$USERR2
 40
0.0
  9
$USERR3
 40
0.0
  9
$USERR4
 40
0.0
  9
$USERR5
 40
0.0
  9
$WORLDVIEW
 70
     1
  9
$SHADEDGE
 70
     3
  9
$SHADEDIF
 70
    70
  9
$TILEMODE
 70
     1
  9
$MAXACTVP
 70
    48
  9
$PINSBASE
 10
0.0
 20
0.0
 30
0.0
  9
$PLIMCHECK
 70
     0
  9
$PEXTMIN
 10
1.000000000000000E+20
 20
1.000000000000000E+20
 30
1.000000000000000E+20
  9
$PEXTMAX
 10
-1.000000000000000E+20
 20
-1.000000000000000E+20
 30
-1.000000000000000E+20
  9
$PLIMMIN
 10
0.0
 20
0.0
  9
$PLIMMAX
 10
420.0
 20
297.0
  9
$UNITMODE
 70
     0
  9
$VISRETAIN
 70
     1
  9
$PLINEGEN
 70
     0
  9
$PSLTSCALE
 70
     1
  9
$TREEDEPTH
 70
  3020
  9
$CMLSTYLE
  2
STANDARD
  9
$CMLJUST
 70
     0
  9
$CMLSCALE
 40
20.0
  9
$PROXYGRAPHICS
 70
     1
  9
$MEASUREMENT
 70
     1
  9
$CELWEIGHT
370
    -1
  9
$ENDCAPS
280
     0
  9
$JOINSTYLE
280
     0
  9
$LWDISPLAY
290
     0
  9
$INSUNITS
 70
     0
  9
$HYPERLINKBASE
  1

  9
$STYLESHEET
  1
LIN.ctb
  9
$XEDIT
290
     1
  9
$CEPSNTYPE
380
     0
  9
$PSTYLEMODE
290
     1
  9
$FINGERPRINTGUID
  2
{1CF51E8A-A506-11D4-A7D9-AF69F5C20846}
  9
$VERSIONGUID
  2
{6043E5C7-A24A-4766-9D38-38D9C21EE4B2}
  9
$EXTNAMES
290
     1
  9
$PSVPSCALE
 40
0.0
  9
$OLESTARTUP
290
     0
  0
ENDSEC
  0
SECTION
  2
CLASSES
  0
CLASS
  1
DICTIONARYVAR
  2
AcDbDictionaryVar
  3
ObjectDBX Classes
 90
        0
280
     0
281
     0
  0
CLASS
  1
SORTENTSTABLE
  2
AcDbSortentsTable
  3
ObjectDBX Classes
 90
        0
280
     0
281
     0
  0
CLASS
  1
ACDBDICTIONARYWDFLT
  2
AcDbDictionaryWithDefault
  3
ObjectDBX Classes
 90
        0
280
     0
281
     0
  0
CLASS
  1
ACDBPLACEHOLDER
  2
AcDbPlaceHolder
  3
ObjectDBX Classes
 90
        0
280
     0
281
     0
  0
CLASS
  1
LAYOUT
  2
AcDbLayout
  3
ObjectDBX Classes
 90
        0
280
     0
281
     0
  0
CLASS
  1
TABLESTYLE
  2
AcDbTableStyle
  3
ObjectDBX Classes
 90
     2047
280
     0
281
     0
  0
ENDSEC
  0
SECTION
  2
TABLES
  0
TABLE
  2
VPORT
  5
8
330
0
100
AcDbSymbolTable
 70
     2
  0
VPORT
  5
96B8
330
8
100
AcDbSymbolTableRecord
100
AcDbViewportTableRecord
  2
*Active
 70
     0
 10
0.0
 20
0.0
 11
1.0
 21
1.0
 12
270.9409557812484
 22
140.0045110987434
 13
0.0
 23
0.0
 14
10.0
 24
10.0
 15
10.0
 25
10.0
 16
0.0
 26
0.0
 36
1.0
 17
0.0
 27
0.0
 37
0.0
 40
283.4191099824692
 41
2.647181628392484
 42
50.0
 43
0.0
 44
0.0
 50
0.0
 51
0.0
 71
     0
 72
 20000
 73
     1
 74
     1
 75
     0
 76
     0
 77
     0
 78
     0
281
     0
 65
     1
110
0.0
120
0.0
130
0.0
111
1.0
121
0.0
131
0.0
112
0.0
122
1.0
132
0.0
 79
     0
146
0.0
  0
ENDTAB
  0
TABLE
  2
LTYPE
  5
5
330
0
100
AcDbSymbolTable
 70
     7
  0
LTYPE
  5
12
330
5
100
AcDbSymbolTableRecord
100
AcDbLinetypeTableRecord
  2
BYBLOCK
 70
     0
  3

 72
    65
 73
     0
 40
0.0
  0
LTYPE
  5
13
330
5
100
AcDbSymbolTableRecord
100
AcDbLinetypeTableRecord
  2
BYLAYER
 70
     0
  3

 72
    65
 73
     0
 40
0.0
  0
LTYPE
  5
14
330
5
100
AcDbSymbolTableRecord
100
AcDbLinetypeTableRecord
  2
CONTINUOUS
 70
     0
  3
Solid line
 72
    65
 73
     0
 40
0.0
  0
LTYPE
  5
9D
330
5
100
AcDbSymbolTableRecord
100
AcDbLinetypeTableRecord
  2
CENTERX2
 70
     0
  3
Center (2x) ________  __  ________  __  _____
 72
    65
 73
     4
 40
101.6
 49
63.5
 74
     0
 49
-12.7
 74
     0
 49
12.7
 74
     0
 49
-12.7
 74
     0
  0
LTYPE
  5
A1
330
5
100
AcDbSymbolTableRecord
100
AcDbLinetypeTableRecord
  2
DASHED
 70
     0
  3
Dashed __ __ __ __ __ __ __ __ __ __ __ __ __ _
 72
    65
 73
     2
 40
19.05
 49
12.7
 74
     0
 49
-6.349999999999999
 74
     0
  0
LTYPE
  5
A2
330
5
100
AcDbSymbolTableRecord
100
AcDbLinetypeTableRecord
  2
DASHED2
 70
     0
  3
Dashed (.5x) _ _ _ _ _ _ _ _ _ _ _ _ _ _ _ _ _
 72
    65
 73
     2
 40
9.524999999999998
 49
6.349999999999999
 74
     0
 49
-3.174999999999999
 74
     0
  0
LTYPE
  5
A5
330
5
100
AcDbSymbolTableRecord
100
AcDbLinetypeTableRecord
  2
DIVIDE2
 70
     0
  3
Divide (.5x) __..__..__..__..__..__..__..__.._
 72
    65
 73
     6
 40
15.875
 49
6.349999999999999
 74
     0
 49
-3.174999999999999
 74
     0
 49
0.0
 74
     0
 49
-3.174999999999999
 74
     0
 49
0.0
 74
     0
 49
-3.174999999999999
 74
     0
  0
LTYPE
  5
650B
330
5
100
AcDbSymbolTableRecord
100
AcDbLinetypeTableRecord
  2
CENTER
 70
     0
  3
Center ____ _ ____ _ ____ _ ____ _ ____ _ ____
 72
    65
 73
     4
 40
50.8
 49
31.75
 74
     0
 49
-6.349999999999999
 74
     0
 49
6.349999999999999
 74
     0
 49
-6.349999999999999
 74
     0
  0
LTYPE
  5
650C
330
5
100
AcDbSymbolTableRecord
100
AcDbLinetypeTableRecord
  2
HIDDEN
 70
     0
  3
Hidden __ __ __ __ __ __ __ __ __ __ __ __ __ _
 72
    65
 73
     2
 40
9.524999999999998
 49
6.349999999999999
 74
     0
 49
-3.174999999999999
 74
     0
  0
ENDTAB
  0
TABLE
  2
LAYER
  5
2
102
{ACAD_XDICTIONARY
360
8659
102
}
330
0
100
AcDbSymbolTable
 70
     9
  0
LAYER
  5
E
330
2
100
AcDbSymbolTableRecord
100
AcDbLayerTableRecord
  2
0
 70
     0
 62
     7
  6
CONTINUOUS
370
    -3
390
5CF2
  0
LAYER
  5
B9
330
2
100
AcDbSymbolTableRecord
100
AcDbLayerTableRecord
  2
DIM
 70
     0
 62
     3
  6
CONTINUOUS
370
    -3
390
5CF2
  0
LAYER
  5
F2
330
2
100
AcDbSymbolTableRecord
100
AcDbLayerTableRecord
  2
DEFPOINTS
 70
     0
 62
     4
  6
CONTINUOUS
290
     0
370
    -3
390
5CF2
  0
LAYER
  5
5F8B
330
2
100
AcDbSymbolTableRecord
100
AcDbLayerTableRecord
  2
mark
 70
     0
 62
     6
  6
CONTINUOUS
370
    -3
390
5CF2
  0
LAYER
  5
644E
330
2
100
AcDbSymbolTableRecord
100
AcDbLayerTableRecord
  2
frame
 70
     0
 62
     9
  6
CONTINUOUS
370
    -3
390
5CF2
  0
LAYER
  5
650D
330
2
100
AcDbSymbolTableRecord
100
AcDbLayerTableRecord
  2
center
 70
     0
 62
     1
  6
CENTER
370
    -3
390
5CF2
  0
LAYER
  5
650E
330
2
100
AcDbSymbolTableRecord
100
AcDbLayerTableRecord
  2
bowle
 70
     0
 62
     4
  6
HIDDEN
370
    -3
390
5CF2
  0
LAYER
  5
650F
330
2
100
AcDbSymbolTableRecord
100
AcDbLayerTableRecord
  2
contour
 70
     0
 62
     2
  6
CONTINUOUS
370
    -3
390
5CF2
  0
LAYER
  5
6510
330
2
100
AcDbSymbolTableRecord
100
AcDbLayerTableRecord
  2
section
 70
     0
 62
     5
  6
CONTINUOUS
370
    -3
390
5CF2
  0
ENDTAB
  0
TABLE
  2
STYLE
  5
3
330
0
100
AcDbSymbolTable
 70
     5
  0
STYLE
  5
F
330
3
100
AcDbSymbolTableRecord
100
AcDbTextStyleTableRecord
  2
STANDARD
 70
     0
 40
0.0
 41
1.0
 50
0.0
 71
     0
 42
2.5
  3
txt
  4

  0
STYLE
  5
BE
330
3
100
AcDbSymbolTableRecord
100
AcDbTextStyleTableRecord
  2
ISOCP3
 70
     0
 40
0.0
 41
1.0
 50
0.0
 71
     0
 42
2.5
  3
isocp3.shx
  4

  0
STYLE
  5
2A37
330
3
100
AcDbSymbolTableRecord
100
AcDbTextStyleTableRecord
  2
TXT
 70
     0
 40
0.0
 41
1.0
 50
0.0
 71
     0
 42
2.5
  3
txt.shx
  4
bigfont.shx
  0
STYLE
  5
5DCB
330
3
100
AcDbSymbolTableRecord
100
AcDbTextStyleTableRecord
  2
LKK
 70
     0
 40
50.0
 41
1.5
 50
0.0
 71
     0
 42
50.0
  3
MS PGothic.ttf
  4

1001
ACAD
1000
MS PGothic
1071
    32818
  0
STYLE
  5
5DCC
330
3
100
AcDbSymbolTableRecord
100
AcDbTextStyleTableRecord
  2
JL
 70
     0
 40
10.0
 41
0.5
 50
0.0
 71
     0
 42
5.0
  3
MS Mincho.ttf
  4

1001
ACAD
1000
MS Mincho
1071
    32785
  0
ENDTAB
  0
TABLE
  2
VIEW
  5
6
330
0
100
AcDbSymbolTable
 70
     0
  0
ENDTAB
  0
TABLE
  2
UCS
  5
7
330
0
100
AcDbSymbolTable
 70
     0
  0
ENDTAB
  0
TABLE
  2
APPID
  5
9
330
0
100
AcDbSymbolTable
 70
    11
  0
APPID
  5
10
330
9
100
AcDbSymbolTableRecord
100
AcDbRegAppTableRecord
  2
ACAD
 70
     0
  0
APPID
  5
8643
330
9
100
AcDbSymbolTableRecord
100
AcDbRegAppTableRecord
  2
ACAD_PSEXT
 70
     0
  0
APPID
  5
865F
330
9
100
AcDbSymbolTableRecord
100
AcDbRegAppTableRecord
  2
ACAD_DSTYLE_DIMTEXT_FILL
 70
     0
  0
APPID
  5
8660
330
9
100
AcDbSymbolTableRecord
100
AcDbRegAppTableRecord
  2
ACAD_DSTYLE_DIMEXT_LENGTH
 70
     0
  0
APPID
  5
8661
330
9
100
AcDbSymbolTableRecord
100
AcDbRegAppTableRecord
  2
ACAD_DSTYLE_DIMEXT_ENABLED
 70
     0
  0
APPID
  5
8662
330
9
100
AcDbSymbolTableRecord
100
AcDbRegAppTableRecord
  2
ACAD_DSTYLE_DIM_LINETYPE
 70
     0
  0
APPID
  5
8663
330
9
100
AcDbSymbolTableRecord
100
AcDbRegAppTableRecord
  2
ACAD_DSTYLE_DIM_EXT1_LINETYPE
 70
     0
  0
APPID
  5
8664
330
9
100
AcDbSymbolTableRecord
100
AcDbRegAppTableRecord
  2
ACAD_DSTYLE_DIM_EXT2_LINETYPE
 70
     0
  0
APPID
  5
8720
330
9
100
AcDbSymbolTableRecord
100
AcDbRegAppTableRecord
  2
ACAD_DSTYLE_DIMJOGGED_JOGANGLE_SYMBOL
 70
     0
  0
APPID
  5
8C6A
330
9
100
AcDbSymbolTableRecord
100
AcDbRegAppTableRecord
  2
ACAD_DSTYLE_DIMARC_LENGTH_SYMBOL
 70
     0
  0
APPID
  5
8D28
330
9
100
AcDbSymbolTableRecord
100
AcDbRegAppTableRecord
  2
ACAD_EXEMPT_FROM_CAD_STANDARDS
 70
     0
  0
ENDTAB
  0
TABLE
  2
DIMSTYLE
  5
A
330
0
100
AcDbSymbolTable
 70
     3
100
AcDbDimStyleTable
 71
     3
340
1A4
340
6006
340
1D
  0
DIMSTYLE
105
1D
330
A
100
AcDbSymbolTableRecord
100
AcDbDimStyleTableRecord
  2
STANDARD
 70
     0
 41
3.0
 42
0.06
 77
     3
140
4.0
144
0.3333333333333333
172
     1
340
F
  0
DIMSTYLE
105
1A4
102
{ACAD_REACTORS
330
8F3F
330
8F4C
330
8F59
330
8F67
330
8F75
330
8F8D
330
8FA3
330
8FD7
330
8FB1
330
9305
330
931F
330
9345
102
}
330
A
100
AcDbSymbolTableRecord
100
AcDbDimStyleTableRecord
  2
A
 70
     0
 41
2.5
 42
0.8
 43
6.0
 44
0.8
 73
     0
 74
     0
 77
     3
 78
     8
 79
     2
140
2.5
141
0.0
147
0.8
172
     1
176
   256
177
   256
178
     3
179
     2
271
     2
272
     2
289
     0
340
F
341
88D1
342
88D1
1001
ACAD_DSTYLE_DIMEXT_LENGTH
1070
   378
1040
1.0
1001
ACAD_DSTYLE_DIMEXT_ENABLED
1070
   383
1070
     0
1001
ACAD_DSTYLE_DIMARC_LENGTH_SYMBOL
1070
   379
1070
     0
1001
ACAD_DSTYLE_DIMJOGGED_JOGANGLE_SYMBOL
1070
   384
1040
1.570796326794896
  0
DIMSTYLE
105
6006
330
A
100
AcDbSymbolTableRecord
100
AcDbDimStyleTableRecord
  2
ISO-25
 70
     0
 40
0.0
 41
2.0
 42
0.3
 43
1.0
 44
0.3
 73
     0
 74
     0
 77
     1
 78
     8
140
3.0
147
1.0
172
     1
176
     6
177
     6
178
     3
271
     1
272
     2
284
     8
288
     1
289
     2
340
F
  0
ENDTAB
  0
TABLE
  2
BLOCK_RECORD
  5
1
330
0
100
AcDbSymbolTable
 70
    15
  0
BLOCK_RECORD
  5
18
102
{ACAD_XDICTIONARY
360
45F
102
}
330
1
100
AcDbSymbolTableRecord
100
AcDbBlockTableRecord
  2
*MODEL_SPACE
340
5CF5
  0
BLOCK_RECORD
  5
15
102
{ACAD_XDICTIONARY
360
5D89
102
}
330
1
100
AcDbSymbolTableRecord
100
AcDbBlockTableRecord
  2
*PAPER_SPACE
340
5CF6
  0
BLOCK_RECORD
  5
639D
330
1
100
AcDbSymbolTableRecord
100
AcDbBlockTableRecord
  2
A$C255C26A2
340
0
  0
BLOCK_RECORD
  5
7A5F
330
1
100
AcDbSymbolTableRecord
100
AcDbBlockTableRecord
  2
_DOTSMALL
340
0
  0
BLOCK_RECORD
  5
88D1
330
1
100
AcDbSymbolTableRecord
100
AcDbBlockTableRecord
  2
_Open30
340
0
102
{BLKREFS
331
95D3
331
95D4
331
95DC
331
95DD
331
95E5
331
95E6
331
95F0
331
95F1
331
9602
331
9603
331
960A
331
9611
331
9612
331
961C
331
961D
331
9627
331
9628
331
9632
331
9633
331
964E
331
964F
102
}
  0
BLOCK_RECORD
  5
8D3D
102
{ACAD_XDICTIONARY
360
8D3E
102
}
330
1
100
AcDbSymbolTableRecord
100
AcDbBlockTableRecord
  2
A
340
0
310
2800000020000000200000000100080000000000000400000000000000000000000000000000000000000000000080000080000000808000800000008000800080800000C0C0C000C0DCC000F0CAA6000020400000206000002080000020A0000020C0000020E00000400000004020000040400000406000004080000040A0
310
000040C0000040E00000600000006020000060400000606000006080000060A0000060C0000060E00000800000008020000080400000806000008080000080A0000080C0000080E00000A0000000A0200000A0400000A0600000A0800000A0A00000A0C00000A0E00000C0000000C0200000C0400000C0600000C0800000C0
310
A00000C0C00000C0E00000E0000000E0200000E0400000E0600000E0800000E0A00000E0C00000E0E00040000000400020004000400040006000400080004000A0004000C0004000E00040200000402020004020400040206000402080004020A0004020C0004020E000404000004040200040404000404060004040800040
310
40A0004040C0004040E00040600000406020004060400040606000406080004060A0004060C0004060E00040800000408020004080400040806000408080004080A0004080C0004080E00040A0000040A0200040A0400040A0600040A0800040A0A00040A0C00040A0E00040C0000040C0200040C0400040C0600040C08000
310
40C0A00040C0C00040C0E00040E0000040E0200040E0400040E0600040E0800040E0A00040E0C00040E0E00080000000800020008000400080006000800080008000A0008000C0008000E00080200000802020008020400080206000802080008020A0008020C0008020E00080400000804020008040400080406000804080
310
008040A0008040C0008040E00080600000806020008060400080606000806080008060A0008060C0008060E00080800000808020008080400080806000808080008080A0008080C0008080E00080A0000080A0200080A0400080A0600080A0800080A0A00080A0C00080A0E00080C0000080C0200080C0400080C0600080C0
310
800080C0A00080C0C00080C0E00080E0000080E0200080E0400080E0600080E0800080E0A00080E0C00080E0E000C0000000C0002000C0004000C0006000C0008000C000A000C000C000C000E000C0200000C0202000C0204000C0206000C0208000C020A000C020C000C020E000C0400000C0402000C0404000C0406000C0
310
408000C040A000C040C000C040E000C0600000C0602000C0604000C0606000C0608000C060A000C060C000C060E000C0800000C0802000C0804000C0806000C0808000C080A000C080C000C080E000C0A00000C0A02000C0A04000C0A06000C0A08000C0A0A000C0A0C000C0A0E000C0C00000C0C02000C0C04000C0C06000
310
C0C08000C0C0A000F0FBFF00A4A0A000808080000000FF0000FF000000FFFF00FF000000FF00FF00FFFF0000FFFFFF0000000000000000000000000000000000000000000000000000000000000000000000000000000000000000000000000000000000000000000000000000000000000000000000000000000000000000
310
00000000000000000000000000000000000000000000000000000000000000000000000000000000000000000000000000000000000000000000000000000000000000000000000000000000000000000000000000000000000000000000000000000000000000000000000000000000000000000000000000000000000000
310
00000000000000000000000000000000000000000000000000000000000000000000000000000000000000000000000000000000000000000000000000000000000000000000000000000000000000000000000000000000000000000000000000000000000000000000000000000000000000000000000000000000000000
310
000000000000FDFDFDFDFDFDFDFDFDFDFDFD0000FD0000000000000000000000000000000000FD0000FA0000000000FA00FD0000FDFD00000000000000000000000000000000FD0000FA0000000000FA00FD0000FDFDFD000000000000000000000000000000FD0000FA0000000000FA00FD0000FDFDFDFD00000000000000
310
00000000000000FD0000FAFAFAFAFAFAFA00FD0000FDFDFDFDFD00000000000000000000000000FD000000FA00000000FA00FD0000FDFDFDFDFDFDFDFDFDFDFDFDFDFDFDFDFDFDFD000000FA000000FA0000FD0000FDFDFDFDFD00000000000000000000000000FD00000000FA0000FA0000FD0000FDFDFDFD000000000000
310
0000000000000000FD00000000FA00FA000000FD0000FDFD00000000000000000000000000000000FD0000000000FAFA000000FD0000FD0000000000000000000000000000000000FD0000000000FA00000000FD0000000000000000000000000000000000000000FDFDFDFDFDFDFDFDFDFDFDFD0000000000000000000000
310
00000000000000000000000000000000000000000000000000000000000000000000000000000000000000000000000000000000000000000000000000000000000000000000000000000000000000000000000000000000000000000000000000000000000000000000000000000000000000000000000000000000000000
310
00000000000000000000000000000000000000000000000000000000000000000000000000000000000000000000000000000000000000000000000000000000000000000000000000000000000000000000000000000000000000000000000000000000000000000000000000000000000000000000000000000000000000
310
0000000000000000000000000000000000000000000000000000000000000000000000000000000000000000000000000000000000000000
102
{BLKREFS
331
8E3C
102
}
  0
BLOCK_RECORD
  5
8F40
330
1
100
AcDbSymbolTableRecord
100
AcDbBlockTableRecord
  2
*D4
340
0
  0
BLOCK_RECORD
  5
8F4D
330
1
100
AcDbSymbolTableRecord
100
AcDbBlockTableRecord
  2
*D5
340
0
  0
BLOCK_RECORD
  5
8F5A
330
1
100
AcDbSymbolTableRecord
100
AcDbBlockTableRecord
  2
*D6
340
0
  0
BLOCK_RECORD
  5
8F68
330
1
100
AcDbSymbolTableRecord
100
AcDbBlockTableRecord
  2
*D7
340
0
  0
BLOCK_RECORD
  5
8F76
330
1
100
AcDbSymbolTableRecord
100
AcDbBlockTableRecord
  2
*D8
340
0
  0
BLOCK_RECORD
  5
8F8E
330
1
100
AcDbSymbolTableRecord
100
AcDbBlockTableRecord
  2
*D9
340
0
  0
BLOCK_RECORD
  5
8FA4
330
1
100
AcDbSymbolTableRecord
100
AcDbBlockTableRecord
  2
*D10
340
0
  0
BLOCK_RECORD
  5
8FD8
330
1
100
AcDbSymbolTableRecord
100
AcDbBlockTableRecord
  2
*D11
340
0
  0
BLOCK_RECORD
  5
9306
330
1
100
AcDbSymbolTableRecord
100
AcDbBlockTableRecord
  2
*D12
340
0
  0
BLOCK_RECORD
  5
9320
330
1
100
AcDbSymbolTableRecord
100
AcDbBlockTableRecord
  2
*D13
340
0
  0
BLOCK_RECORD
  5
9346
330
1
100
AcDbSymbolTableRecord
100
AcDbBlockTableRecord
  2
*D14
340
0
  0
ENDTAB
  0
ENDSEC
  0
SECTION
  2
BLOCKS
  0
BLOCK
  5
19
330
18
100
AcDbEntity
  8
0
100
AcDbBlockBegin
  2
*MODEL_SPACE
 70
     0
 10
0.0
 20
0.0
 30
0.0
  3
*MODEL_SPACE
  1

  0
ENDBLK
  5
1A
330
18
100
AcDbEntity
  8
0
100
AcDbBlockEnd
  0
BLOCK
  5
16
330
15
100
AcDbEntity
 67
     1
  8
0
100
AcDbBlockBegin
  2
*PAPER_SPACE
 70
     0
 10
0.0
 20
0.0
 30
0.0
  3
*PAPER_SPACE
  1

  0
ENDBLK
  5
17
330
15
100
AcDbEntity
 67
     1
  8
0
100
AcDbBlockEnd
  0
BLOCK
  5
63A1
330
639D
100
AcDbEntity
  8
0
100
AcDbBlockBegin
  2
A$C255C26A2
 70
     0
 10
0.0
 20
0.0
 30
0.0
  3
A$C255C26A2
  1

  0
LWPOLYLINE
  5
639E
330
639D
100
AcDbEntity
  8
0
100
AcDbPolyline
 90
        3
 70
     1
 43
0.0
 10
7.014806023851633
 20
0.0000006939811783
 10
5.611844869720698
 20
2.430000693981241
 10
8.417767177982568
 20
2.430000693981241
  0
LWPOLYLINE
  5
639F
330
639D
100
AcDbEntity
  8
0
100
AcDbPolyline
 90
        3
 70
     1
 43
0.0
 10
4.20888371558999
 20
0.0000006939811783
 10
2.805922561459283
 20
2.430000693981241
 10
5.611844869720698
 20
2.430000693981241
  0
LWPOLYLINE
  5
63A0
330
639D
100
AcDbEntity
  8
0
100
AcDbPolyline
 90
        3
 70
     1
 43
0.0
 10
1.402961407328348
 20
0.0000006939811783
 10
0.0000002531974133
 20
2.430000693981241
 10
2.805922561459283
 20
2.430000693981241
  0
ENDBLK
  5
63A2
330
639D
100
AcDbEntity
  8
0
100
AcDbBlockEnd
  0
BLOCK
  5
7A64
330
7A5F
100
AcDbEntity
  8
0
100
AcDbBlockBegin
  2
_DOTSMALL
 70
     0
 10
0.0
 20
0.0
 30
0.0
  3
_DOTSMALL
  1

  0
LWPOLYLINE
  5
7A60
330
7A5F
100
AcDbEntity
  8
0
  6
ByBlock
 62
     0
100
AcDbPolyline
 90
        2
 70
     1
 43
0.5
 10
-0.0625
 20
0.0
 42
1.0
 10
0.0625
 20
0.0
 42
1.0
  0
ENDBLK
  5
7A65
330
7A5F
100
AcDbEntity
  8
0
100
AcDbBlockEnd
  0
BLOCK
  5
88D5
330
88D1
100
AcDbEntity
  8
0
100
AcDbBlockBegin
  2
_Open30
 70
     0
 10
0.0
 20
0.0
 30
0.0
  3
_Open30
  1

  0
LINE
  5
88D2
330
88D1
100
AcDbEntity
  8
0
  6
ByBlock
 62
     0
370
    -2
100
AcDbLine
 10
-1.0
 20
0.26794919
 30
0.0
 11
0.0
 21
0.0
 31
0.0
  0
LINE
  5
88D3
330
88D1
100
AcDbEntity
  8
0
  6
ByBlock
 62
     0
370
    -2
100
AcDbLine
 10
0.0
 20
0.0
 30
0.0
 11
-1.0
 21
-0.26794919
 31
0.0
  0
LINE
  5
88D4
330
88D1
100
AcDbEntity
  8
0
  6
ByBlock
 62
     0
370
    -2
100
AcDbLine
 10
0.0
 20
0.0
 30
0.0
 11
-1.0
 21
0.0
 31
0.0
  0
ENDBLK
  5
88D6
330
88D1
100
AcDbEntity
  8
0
100
AcDbBlockEnd
  0
BLOCK
  5
8D41
330
8D3D
100
AcDbEntity
  8
0
100
AcDbBlockBegin
  2
A
 70
     0
 10
0.0
 20
0.0
 30
0.0
  3
A
  1

  0
MTEXT
  5
8D42
330
8D3D
100
AcDbEntity
  8
mark
 62
     3
100
AcDbMText
 10
10.65641897020822
 20
-5.596245361730467
 30
0.0
 40
2.5
 41
0.0
 71
     5
 72
     1
  1
A
 73
     1
 44
1.0
1001
ACAD
1000
ACAD_MTEXT_DEFINED_HEIGHT_BEGIN
1070
    46
1040
0.0
1000
ACAD_MTEXT_DEFINED_HEIGHT_END
1000
MTEXTBEGIN
1070
    73
1070
     1
1070
    44
1040
1.0
1070
    74
1070
     0
1000
MTEXTEND
  0
LWPOLYLINE
  5
8D43
330
8D3D
100
AcDbEntity
  8
mark
100
AcDbPolyline
 90
        4
 70
     1
 43
0.0
 10
9.07926800414657
 20
-7.141145101782569
 10
12.07926800414657
 20
-7.141145101782569
 10
12.07926800414657
 20
-4.141145101782569
 10
9.07926800414657
 20
-4.141145101782569
  0
HATCH
  5
8D44
330
8D3D
100
AcDbEntity
  8
mark
100
AcDbHatch
 10
0.0
 20
0.0
 30
0.0
210
0.0
220
0.0
230
1.0
  2
SOLID
 70
     1
 71
     0
 91
        1
 92
        7
 72
     0
 73
     1
 93
        3
 10
5.32926800414657
 20
-5.641145101782569
 10
4.07926800414657
 20
-4.391145101782541
 10
4.07926800414657
 20
-6.891145101782541
 97
        0
 75
     0
 76
     1
 47
0.0398277943677868
 98
        1
 10
4.589689734415287
 20
-5.732163331855076
1001
ACAD
1010
0.0
1020
0.0
1030
0.0
  0
LINE
  5
8D45
330
8D3D
100
AcDbEntity
  8
mark
100
AcDbLine
 10
5.32926800414657
 20
-5.641145101782569
 30
0.0
 11
9.07926800414657
 21
-5.641145101782569
 31
0.0
  0
LINE
  5
8D46
330
8D3D
100
AcDbEntity
  8
mark
100
AcDbLine
 10
5.32926800414657
 20
-5.641145101782569
 30
0.0
 11
4.07926800414657
 21
-4.391145101782569
 31
0.0
  0
LINE
  5
8D47
330
8D3D
100
AcDbEntity
  8
mark
100
AcDbLine
 10
5.32926800414657
 20
-5.641145101782569
 30
0.0
 11
4.07926800414657
 21
-6.891145101782569
 31
0.0
  0
ENDBLK
  5
8D48
330
8D3D
100
AcDbEntity
  8
0
100
AcDbBlockEnd
  0
BLOCK
  5
8F4A
330
8F40
100
AcDbEntity
  8
0
100
AcDbBlockBegin
  2
*D4
 70
     1
 10
0.0
 20
0.0
 30
0.0
  3
*D4
  1

  0
LINE
  5
95D0
330
8F40
100
AcDbEntity
  8
mark
370
    -2
100
AcDbLine
 10
75.0087212010904
 20
113.0134370810344
 30
0.0
 11
75.0087212010904
 21
121.07894561123
 31
0.0
  0
LINE
  5
95D1
330
8F40
100
AcDbEntity
  8
mark
370
    -2
100
AcDbLine
 10
111.0087212010903
 20
113.0134370810344
 30
0.0
 11
111.0087212010903
 21
121.07894561123
 31
0.0
  0
LINE
  5
95D2
330
8F40
100
AcDbEntity
  8
mark
370
    -2
100
AcDbLine
 10
77.5087212010904
 20
120.27894561123
 30
0.0
 11
108.5087212010903
 21
120.27894561123
 31
0.0
  0
INSERT
  5
95D3
330
8F40
100
AcDbEntity
  8
mark
370
    -2
100
AcDbBlockReference
  2
_Open30
 10
75.0087212010904
 20
120.27894561123
 30
0.0
 41
2.5
 42
2.5
 43
2.5
 50
180.0
  0
INSERT
  5
95D4
330
8F40
100
AcDbEntity
  8
mark
370
    -2
100
AcDbBlockReference
  2
_Open30
 10
111.0087212010903
 20
120.27894561123
 30
0.0
 41
2.5
 42
2.5
 43
2.5
  0
MTEXT
  5
95D5
330
8F40
100
AcDbEntity
  8
mark
 62
     3
100
AcDbMText
 10
93.00872120109039
 20
122.32894561123
 30
0.0
 40
2.5
 41
0.0
 71
     5
 72
     1
  1
\A1;%%c36
 73
     1
 44
1.0
1001
ACAD
1000
MTEXTBEGIN
1070
    73
1070
     1
1070
    44
1040
1.0
1070
    74
1070
     0
1000
MTEXTEND
  0
POINT
  5
95D6
330
8F40
100
AcDbEntity
  8
DEFPOINTS
 62
     0
100
AcDbPoint
 10
75.0087212010904
 20
112.2134370810344
 30
0.0
  0
POINT
  5
95D7
330
8F40
100
AcDbEntity
  8
DEFPOINTS
 62
     0
100
AcDbPoint
 10
111.0087212010903
 20
112.2134370810344
 30
0.0
  0
POINT
  5
95D8
330
8F40
100
AcDbEntity
  8
DEFPOINTS
 62
     0
100
AcDbPoint
 10
111.0087212010903
 20
120.27894561123
 30
0.0
  0
ENDBLK
  5
8F4B
330
8F40
100
AcDbEntity
  8
0
100
AcDbBlockEnd
  0
BLOCK
  5
8F57
330
8F4D
100
AcDbEntity
  8
0
100
AcDbBlockBegin
  2
*D5
 70
     1
 10
0.0
 20
0.0
 30
0.0
  3
*D5
  1

  0
LINE
  5
95D9
330
8F4D
100
AcDbEntity
  8
mark
370
    -2
100
AcDbLine
 10
69.50872120109039
 20
113.0134370810344
 30
0.0
 11
69.50872120109039
 21
127.2577046716749
 31
0.0
  0
LINE
  5
95DA
330
8F4D
100
AcDbEntity
  8
mark
370
    -2
100
AcDbLine
 10
116.5087212010903
 20
113.0134370810344
 30
0.0
 11
116.5087212010903
 21
127.2577046716749
 31
0.0
  0
LINE
  5
95DB
330
8F4D
100
AcDbEntity
  8
mark
370
    -2
100
AcDbLine
 10
72.00872120109039
 20
126.4577046716749
 30
0.0
 11
114.0087212010904
 21
126.4577046716749
 31
0.0
  0
INSERT
  5
95DC
330
8F4D
100
AcDbEntity
  8
mark
370
    -2
100
AcDbBlockReference
  2
_Open30
 10
69.50872120109039
 20
126.4577046716749
 30
0.0
 41
2.5
 42
2.5
 43
2.5
 50
180.0
  0
INSERT
  5
95DD
330
8F4D
100
AcDbEntity
  8
mark
370
    -2
100
AcDbBlockReference
  2
_Open30
 10
116.5087212010903
 20
126.4577046716749
 30
0.0
 41
2.5
 42
2.5
 43
2.5
  0
MTEXT
  5
95DE
330
8F4D
100
AcDbEntity
  8
mark
 62
     3
100
AcDbMText
 10
93.00872120109039
 20
128.5077046716749
 30
0.0
 40
2.5
 41
0.0
 71
     5
 72
     1
  1
\A1;%%c47%%p0.5
 73
     1
 44
1.0
1001
ACAD
1000
MTEXTBEGIN
1070
    73
1070
     1
1070
    44
1040
1.0
1070
    74
1070
     0
1000
MTEXTEND
  0
POINT
  5
95DF
330
8F4D
100
AcDbEntity
  8
DEFPOINTS
 62
     0
100
AcDbPoint
 10
69.50872120109039
 20
112.2134370810344
 30
0.0
  0
POINT
  5
95E0
330
8F4D
100
AcDbEntity
  8
DEFPOINTS
 62
     0
100
AcDbPoint
 10
116.5087212010903
 20
112.2134370810344
 30
0.0
  0
POINT
  5
95E1
330
8F4D
100
AcDbEntity
  8
DEFPOINTS
 62
     0
100
AcDbPoint
 10
116.5087212010903
 20
126.4577046716749
 30
0.0
  0
ENDBLK
  5
8F58
330
8F4D
100
AcDbEntity
  8
0
100
AcDbBlockEnd
  0
BLOCK
  5
8F64
330
8F5A
100
AcDbEntity
  8
0
100
AcDbBlockBegin
  2
*D6
 70
     1
 10
0.0
 20
0.0
 30
0.0
  3
*D6
  1

  0
LINE
  5
95E2
330
8F5A
100
AcDbEntity
  8
mark
370
    -2
100
AcDbLine
 10
67.00872120109036
 20
111.0134370810343
 30
0.0
 11
67.00872120109036
 21
133.3006332483987
 31
0.0
  0
LINE
  5
95E3
330
8F5A
100
AcDbEntity
  8
mark
370
    -2
100
AcDbLine
 10
119.0087212010904
 20
111.013437081034
 30
0.0
 11
119.0087212010904
 21
133.3006332483987
 31
0.0
  0
LINE
  5
95E4
330
8F5A
100
AcDbEntity
  8
mark
370
    -2
100
AcDbLine
 10
69.50872120109036
 20
132.5006332483987
 30
0.0
 11
116.5087212010905
 21
132.5006332483987
 31
0.0
  0
INSERT
  5
95E5
330
8F5A
100
AcDbEntity
  8
mark
370
    -2
100
AcDbBlockReference
  2
_Open30
 10
67.00872120109036
 20
132.5006332483987
 30
0.0
 41
2.5
 42
2.5
 43
2.5
 50
180.0
  0
INSERT
  5
95E6
330
8F5A
100
AcDbEntity
  8
mark
370
    -2
100
AcDbBlockReference
  2
_Open30
 10
119.0087212010904
 20
132.5006332483987
 30
0.0
 41
2.5
 42
2.5
 43
2.5
  0
MTEXT
  5
95E7
330
8F5A
100
AcDbEntity
  8
mark
 62
     3
100
AcDbMText
 10
93.00872120109042
 20
134.5506332483987
 30
0.0
 40
2.5
 41
0.0
 71
     5
 72
     1
  1
\A1;%%c52
 73
     1
 44
1.0
1001
ACAD
1000
MTEXTBEGIN
1070
    73
1070
     1
1070
    44
1040
1.0
1070
    74
1070
     0
1000
MTEXTEND
  0
POINT
  5
95E8
330
8F5A
100
AcDbEntity
  8
DEFPOINTS
 62
     0
100
AcDbPoint
 10
67.00872120109036
 20
110.2134370810343
 30
0.0
  0
POINT
  5
95E9
330
8F5A
100
AcDbEntity
  8
DEFPOINTS
 62
     0
100
AcDbPoint
 10
119.0087212010904
 20
110.213437081034
 30
0.0
  0
POINT
  5
95EA
330
8F5A
100
AcDbEntity
  8
DEFPOINTS
 62
     0
100
AcDbPoint
 10
119.0087212010904
 20
132.5006332483987
 30
0.0
  0
ENDBLK
  5
8F65
330
8F5A
100
AcDbEntity
  8
0
100
AcDbBlockEnd
  0
BLOCK
  5
8F73
330
8F68
100
AcDbEntity
  8
0
100
AcDbBlockBegin
  2
*D7
 70
     1
 10
0.0
 20
0.0
 30
0.0
  3
*D7
  1

  0
LINE
  5
95EB
330
8F68
100
AcDbEntity
  8
mark
370
    -2
100
AcDbLine
 10
117.3087212010903
 20
112.2134370810344
 30
0.0
 11
128.5255653421999
 21
112.2134370810344
 31
0.0
  0
LINE
  5
95EC
330
8F68
100
AcDbEntity
  8
mark
370
    -2
100
AcDbLine
 10
121.8087212010905
 20
106.2127064151878
 30
0.0
 11
128.5255653421999
 21
106.2127064151878
 31
0.0
  0
LINE
  5
95ED
330
8F68
100
AcDbEntity
  8
mark
370
    -2
100
AcDbLine
 10
127.7255653421999
 20
114.7134370810344
 30
0.0
 11
127.7255653421999
 21
117.2134370810343
 31
0.0
  0
LINE
  5
95EE
330
8F68
100
AcDbEntity
  8
mark
370
    -2
100
AcDbLine
 10
127.7255653421999
 20
103.7127064151878
 30
0.0
 11
127.7255653421999
 21
101.2127064151878
 31
0.0
  0
LINE
  5
95EF
330
8F68
100
AcDbEntity
  8
mark
370
    -2
100
AcDbLine
 10
127.7255653421999
 20
112.2134370810344
 30
0.0
 11
127.7255653421999
 21
106.2127064151878
 31
0.0
  0
INSERT
  5
95F0
330
8F68
100
AcDbEntity
  8
mark
370
    -2
100
AcDbBlockReference
  2
_Open30
 10
127.7255653421999
 20
112.2134370810344
 30
0.0
 41
2.5
 42
2.5
 43
2.5
 50
270.0
  0
INSERT
  5
95F1
330
8F68
100
AcDbEntity
  8
mark
370
    -2
100
AcDbBlockReference
  2
_Open30
 10
127.7255653421999
 20
106.2127064151878
 30
0.0
 41
2.5
 42
2.5
 43
2.5
 50
90.0
  0
MTEXT
  5
95F2
330
8F68
100
AcDbEntity
  8
mark
 62
     3
100
AcDbMText
 10
125.6755653421999
 20
109.2130717481111
 30
0.0
 40
2.5
 41
0.0
 71
     5
 72
     1
  1
\A1;6
 11
0.0000000000000001
 21
1.0
 31
0.0
 73
     1
 44
1.0
1001
ACAD
1000
MTEXTBEGIN
1070
    73
1070
     1
1070
    44
1040
1.0
1070
    74
1070
     0
1000
MTEXTEND
  0
POINT
  5
95F3
330
8F68
100
AcDbEntity
  8
DEFPOINTS
 62
     0
100
AcDbPoint
 10
116.5087212010903
 20
112.2134370810344
 30
0.0
  0
POINT
  5
95F4
330
8F68
100
AcDbEntity
  8
DEFPOINTS
 62
     0
100
AcDbPoint
 10
121.0087212010905
 20
106.2127064151878
 30
0.0
  0
POINT
  5
95F5
330
8F68
100
AcDbEntity
  8
DEFPOINTS
 62
     0
100
AcDbPoint
 10
127.7255653421999
 20
106.2127064151878
 30
0.0
  0
ENDBLK
  5
8F74
330
8F68
100
AcDbEntity
  8
0
100
AcDbBlockEnd
  0
BLOCK
  5
8F82
330
8F76
100
AcDbEntity
  8
0
100
AcDbBlockBegin
  2
*D8
 70
     1
 10
0.0
 20
0.0
 30
0.0
  3
*D8
  1

  0
LINE
  5
964B
330
8F76
100
AcDbEntity
  8
mark
370
    -2
100
AcDbLine
 10
118.3087212010903
 20
100.2134370810344
 30
0.0
 11
138.9252750812171
 21
100.2134370810344
 31
0.0
  0
LINE
  5
964C
330
8F76
100
AcDbEntity
  8
mark
370
    -2
100
AcDbLine
 10
117.3087212010903
 20
112.2134370810344
 30
0.0
 11
138.9252750812171
 21
112.2134370810344
 31
0.0
  0
LINE
  5
964D
330
8F76
100
AcDbEntity
  8
mark
370
    -2
100
AcDbLine
 10
138.1252750812171
 20
102.7134370810344
 30
0.0
 11
138.1252750812171
 21
109.7134370810344
 31
0.0
  0
INSERT
  5
964E
330
8F76
100
AcDbEntity
  8
mark
370
    -2
100
AcDbBlockReference
  2
_Open30
 10
138.1252750812171
 20
100.2134370810344
 30
0.0
 41
2.5
 42
2.5
 43
2.5
 50
270.0
  0
INSERT
  5
964F
330
8F76
100
AcDbEntity
  8
mark
370
    -2
100
AcDbBlockReference
  2
_Open30
 10
138.1252750812171
 20
112.2134370810344
 30
0.0
 41
2.5
 42
2.5
 43
2.5
 50
90.0
  0
MTEXT
  5
9650
330
8F76
100
AcDbEntity
  8
mark
 62
     3
100
AcDbMText
 10
136.0752750812171
 20
106.2134370810344
 30
0.0
 40
2.5
 41
0.0
 71
     5
 72
     1
  1
\A1;12%%p0.2
 11
0.0000000000000001
 21
1.0
 31
0.0
 73
     1
 44
1.0
1001
ACAD
1000
MTEXTBEGIN
1070
    73
1070
     1
1070
    44
1040
1.0
1070
    74
1070
     0
1000
MTEXTEND
  0
POINT
  5
9651
330
8F76
100
AcDbEntity
  8
DEFPOINTS
 62
     0
100
AcDbPoint
 10
117.5087212010903
 20
100.2134370810344
 30
0.0
  0
POINT
  5
9652
330
8F76
100
AcDbEntity
  8
DEFPOINTS
 62
     0
100
AcDbPoint
 10
116.5087212010903
 20
112.2134370810344
 30
0.0
  0
POINT
  5
9653
330
8F76
100
AcDbEntity
  8
DEFPOINTS
 62
     0
100
AcDbPoint
 10
138.1252750812171
 20
112.2134370810344
 30
0.0
  0
ENDBLK
  5
8F83
330
8F76
100
AcDbEntity
  8
0
100
AcDbBlockEnd
  0
BLOCK
  5
8F98
330
8F8E
100
AcDbEntity
  8
0
100
AcDbBlockBegin
  2
*D9
 70
     1
 10
0.0
 20
0.0
 30
0.0
  3
*D9
  1

  0
LINE
  5
95FF
330
8F8E
100
AcDbEntity
  8
mark
370
    -2
100
AcDbLine
 10
110.5087212010903
 20
100.1014370810344
 30
0.0
 11
110.5087212010903
 21
86.11867003473635
 31
0.0
  0
LINE
  5
9600
330
8F8E
100
AcDbEntity
  8
mark
370
    -2
100
AcDbLine
 10
75.50872120109037
 20
100.1014370810346
 30
0.0
 11
75.50872120109037
 21
86.11867003473635
 31
0.0
  0
LINE
  5
9601
330
8F8E
100
AcDbEntity
  8
mark
370
    -2
100
AcDbLine
 10
108.0087212010903
 20
86.91867003473635
 30
0.0
 11
78.00872120109037
 21
86.91867003473635
 31
0.0
  0
INSERT
  5
9602
330
8F8E
100
AcDbEntity
  8
mark
370
    -2
100
AcDbBlockReference
  2
_Open30
 10
110.5087212010903
 20
86.91867003473635
 30
0.0
 41
2.5
 42
2.5
 43
2.5
  0
INSERT
  5
9603
330
8F8E
100
AcDbEntity
  8
mark
370
    -2
100
AcDbBlockReference
  2
_Open30
 10
75.50872120109037
 20
86.91867003473635
 30
0.0
 41
2.5
 42
2.5
 43
2.5
 50
180.0
  0
MTEXT
  5
9604
330
8F8E
100
AcDbEntity
  8
mark
 62
     3
100
AcDbMText
 10
93.00872120109037
 20
88.96867003473635
 30
0.0
 40
2.5
 41
0.0
 71
     5
 72
     1
  1
\A1;M35x1.5P
 73
     1
 44
1.0
1001
ACAD
1000
MTEXTBEGIN
1070
    73
1070
     1
1070
    44
1040
1.0
1070
    74
1070
     0
1000
MTEXTEND
  0
POINT
  5
9605
330
8F8E
100
AcDbEntity
  8
DEFPOINTS
 62
     0
100
AcDbPoint
 10
110.5087212010903
 20
100.9014370810344
 30
0.0
  0
POINT
  5
9606
330
8F8E
100
AcDbEntity
  8
DEFPOINTS
 62
     0
100
AcDbPoint
 10
75.50872120109037
 20
100.9014370810346
 30
0.0
  0
POINT
  5
9607
330
8F8E
100
AcDbEntity
  8
DEFPOINTS
 62
     0
100
AcDbPoint
 10
75.50872120109037
 20
86.91867003473635
 30
0.0
  0
ENDBLK
  5
8F99
330
8F8E
100
AcDbEntity
  8
0
100
AcDbBlockEnd
  0
BLOCK
  5
8FAA
330
8FA4
100
AcDbEntity
  8
0
100
AcDbBlockBegin
  2
*D10
 70
     1
 10
0.0
 20
0.0
 30
0.0
  3
*D10
  1

  0
LINE
  5
9608
330
8FA4
100
AcDbEntity
  8
mark
370
    -2
100
AcDbLine
 10
65.68029407634416
 20
98.88500995628811
 30
0.0
 11
54.53157715963642
 21
87.73629303958006
 31
0.0
  0
LINE
  5
9609
330
8FA4
100
AcDbEntity
  8
mark
370
    -2
100
AcDbLine
 10
68.50872120109034
 20
101.7134370810343
 30
0.0
 11
67.4480610293105
 21
100.6527769092545
 31
0.0
  0
INSERT
  5
960A
330
8FA4
100
AcDbEntity
  8
mark
370
    -2
100
AcDbBlockReference
  2
_Open30
 10
67.4480610293105
 20
100.6527769092545
 30
0.0
 41
2.5
 42
2.5
 43
2.5
 50
45.0000000000008
  0
MTEXT
  5
960B
330
8FA4
100
AcDbEntity
  8
mark
 62
     3
100
AcDbMText
 10
57.77248324007468
 20
93.8763369228833
 30
0.0
 40
2.5
 41
0.0
 71
     5
 72
     1
  1
\A1;2-R1.5
 11
0.7071067811865377
 21
0.7071067811865574
 31
0.0
 73
     1
 44
1.0
1001
ACAD
1000
MTEXTBEGIN
1070
    73
1070
     1
1070
    44
1040
1.0
1070
    74
1070
     0
1000
MTEXTEND
  0
POINT
  5
960C
330
8FA4
100
AcDbEntity
  8
DEFPOINTS
 62
     0
100
AcDbPoint
 10
67.4480610293105
 20
100.6527769092545
 30
0.0
  0
POINT
  5
960D
330
8FA4
100
AcDbEntity
  8
DEFPOINTS
 62
     0
100
AcDbPoint
 10
68.50872120109034
 20
101.7134370810343
 30
0.0
  0
ENDBLK
  5
8FAB
330
8FA4
100
AcDbEntity
  8
0
100
AcDbBlockEnd
  0
BLOCK
  5
8FE4
330
8FD8
100
AcDbEntity
  8
0
100
AcDbBlockBegin
  2
*D11
 70
     1
 10
0.0
 20
0.0
 30
0.0
  3
*D11
  1

  0
LINE
  5
960E
330
8FD8
100
AcDbEntity
  8
mark
370
    -2
100
AcDbLine
 10
84.48490070723417
 20
114.7134370810344
 30
0.0
 11
84.48490070723417
 21
117.2134370810343
 31
0.0
  0
LINE
  5
960F
330
8FD8
100
AcDbEntity
  8
mark
370
    -2
100
AcDbLine
 10
84.48490070723417
 20
108.7134370810344
 30
0.0
 11
84.48490070723417
 21
103.7801037477011
 31
0.0
  0
LINE
  5
9610
330
8FD8
100
AcDbEntity
  8
mark
370
    -2
100
AcDbLine
 10
84.48490070723417
 20
112.2134370810344
 30
0.0
 11
84.48490070723417
 21
111.2134370810344
 31
0.0
  0
INSERT
  5
9611
330
8FD8
100
AcDbEntity
  8
mark
370
    -2
100
AcDbBlockReference
  2
_Open30
 10
84.48490070723417
 20
112.2134370810344
 30
0.0
 41
2.5
 42
2.5
 43
2.5
 50
270.0
  0
INSERT
  5
9612
330
8FD8
100
AcDbEntity
  8
mark
370
    -2
100
AcDbBlockReference
  2
_Open30
 10
84.48490070723417
 20
111.2134370810344
 30
0.0
 41
2.5
 42
2.5
 43
2.5
 50
90.0
  0
MTEXT
  5
9613
330
8FD8
100
AcDbEntity
  8
mark
 62
     3
100
AcDbMText
 10
82.43490070723415
 20
104.9967704143677
 30
0.0
 40
2.5
 41
0.0
 71
     5
 72
     1
  1
\A1;1
 11
0.0000000000000001
 21
1.0
 31
0.0
 73
     1
 44
1.0
1001
ACAD
1000
MTEXTBEGIN
1070
    73
1070
     1
1070
    44
1040
1.0
1070
    74
1070
     0
1000
MTEXTEND
  0
POINT
  5
9614
330
8FD8
100
AcDbEntity
  8
DEFPOINTS
 62
     0
100
AcDbPoint
 10
84.48490070723417
 20
112.2134370810344
 30
0.0
  0
POINT
  5
9615
330
8FD8
100
AcDbEntity
  8
DEFPOINTS
 62
     0
100
AcDbPoint
 10
84.48490070723417
 20
111.2134370810344
 30
0.0
  0
POINT
  5
9616
330
8FD8
100
AcDbEntity
  8
DEFPOINTS
 62
     0
100
AcDbPoint
 10
84.48490070723417
 20
111.2134370810344
 30
0.0
  0
ENDBLK
  5
8FE5
330
8FD8
100
AcDbEntity
  8
0
100
AcDbBlockEnd
  0
BLOCK
  5
9312
330
9306
100
AcDbEntity
  8
0
100
AcDbBlockBegin
  2
*D12
 70
     1
 10
0.0
 20
0.0
 30
0.0
  3
*D12
  1

  0
LINE
  5
9617
330
9306
100
AcDbEntity
  8
mark
370
    -2
100
AcDbLine
 10
67.70872120109037
 20
111.7134370810344
 30
0.0
 11
56.52485040232771
 21
111.7134370810344
 31
0.0
  0
LINE
  5
9618
330
9306
100
AcDbEntity
  8
mark
370
    -2
100
AcDbLine
 10
68.70872120109037
 20
112.2134370810343
 30
0.0
 11
56.52485040232772
 21
112.2134370810343
 31
0.0
  0
LINE
  5
9619
330
9306
100
AcDbEntity
  8
mark
370
    -2
100
AcDbLine
 10
57.3248504023277
 20
109.2134370810343
 30
0.0
 11
57.3248504023277
 21
106.7134370810344
 31
0.0
  0
LINE
  5
961A
330
9306
100
AcDbEntity
  8
mark
370
    -2
100
AcDbLine
 10
57.32485040232771
 20
114.7134370810343
 30
0.0
 11
57.32485040232771
 21
123.3967704143677
 31
0.0
  0
LINE
  5
961B
330
9306
100
AcDbEntity
  8
mark
370
    -2
100
AcDbLine
 10
57.3248504023277
 20
111.7134370810344
 30
0.0
 11
57.32485040232771
 21
112.2134370810343
 31
0.0
  0
INSERT
  5
961C
330
9306
100
AcDbEntity
  8
mark
370
    -2
100
AcDbBlockReference
  2
_Open30
 10
57.3248504023277
 20
111.7134370810344
 30
0.0
 41
2.5
 42
2.5
 43
2.5
 50
90.0
  0
INSERT
  5
961D
330
9306
100
AcDbEntity
  8
mark
370
    -2
100
AcDbBlockReference
  2
_Open30
 10
57.32485040232771
 20
112.2134370810343
 30
0.0
 41
2.5
 42
2.5
 43
2.5
 50
270.0
  0
MTEXT
  5
961E
330
9306
100
AcDbEntity
  8
mark
 62
     3
100
AcDbMText
 10
55.27485040232769
 20
120.305103747701
 30
0.0
 40
2.5
 41
0.0
 71
     5
 72
     1
  1
\A1;0.5
 11
0.0000000000000001
 21
1.0
 31
0.0
 73
     1
 44
1.0
1001
ACAD
1000
MTEXTBEGIN
1070
    73
1070
     1
1070
    44
1040
1.0
1070
    74
1070
     0
1000
MTEXTEND
  0
POINT
  5
961F
330
9306
100
AcDbEntity
  8
DEFPOINTS
 62
     0
100
AcDbPoint
 10
68.50872120109037
 20
111.7134370810344
 30
0.0
  0
POINT
  5
9620
330
9306
100
AcDbEntity
  8
DEFPOINTS
 62
     0
100
AcDbPoint
 10
69.50872120109036
 20
112.2134370810343
 30
0.0
  0
POINT
  5
9621
330
9306
100
AcDbEntity
  8
DEFPOINTS
 62
     0
100
AcDbPoint
 10
57.32485040232771
 20
112.2134370810343
 30
0.0
  0
ENDBLK
  5
9313
330
9306
100
AcDbEntity
  8
0
100
AcDbBlockEnd
  0
BLOCK
  5
932C
330
9320
100
AcDbEntity
  8
0
100
AcDbBlockBegin
  2
*D13
 70
     1
 10
0.0
 20
0.0
 30
0.0
  3
*D13
  1

  0
LINE
  5
9622
330
9320
100
AcDbEntity
  8
mark
370
    -2
100
AcDbLine
 10
66.32919261187531
 20
189.672639168094
 30
0.0
 11
56.52485040232768
 21
189.6726391680941
 31
0.0
  0
LINE
  5
9623
330
9320
100
AcDbEntity
  8
mark
370
    -2
100
AcDbLine
 10
66.32919261187531
 20
184.6726391680941
 30
0.0
 11
56.52485040232768
 21
184.6726391680941
 31
0.0
  0
LINE
  5
9624
330
9320
100
AcDbEntity
  8
mark
370
    -2
100
AcDbLine
 10
57.32485040232768
 20
192.1726391680941
 30
0.0
 11
57.32485040232768
 21
194.6726391680941
 31
0.0
  0
LINE
  5
9625
330
9320
100
AcDbEntity
  8
mark
370
    -2
100
AcDbLine
 10
57.32485040232768
 20
182.1726391680941
 30
0.0
 11
57.32485040232768
 21
179.6726391680941
 31
0.0
  0
LINE
  5
9626
330
9320
100
AcDbEntity
  8
mark
370
    -2
100
AcDbLine
 10
57.32485040232768
 20
189.6726391680941
 30
0.0
 11
57.32485040232768
 21
184.6726391680941
 31
0.0
  0
INSERT
  5
9627
330
9320
100
AcDbEntity
  8
mark
370
    -2
100
AcDbBlockReference
  2
_Open30
 10
57.32485040232768
 20
189.6726391680941
 30
0.0
 41
2.5
 42
2.5
 43
2.5
 50
270.0
  0
INSERT
  5
9628
330
9320
100
AcDbEntity
  8
mark
370
    -2
100
AcDbBlockReference
  2
_Open30
 10
57.32485040232768
 20
184.6726391680941
 30
0.0
 41
2.5
 42
2.5
 43
2.5
 50
90.0
  0
MTEXT
  5
9629
330
9320
100
AcDbEntity
  8
mark
 62
     3
100
AcDbMText
 10
55.27485040232765
 20
187.1726391680941
 30
0.0
 40
2.5
 41
0.0
 71
     5
 72
     1
  1
\A1;5
 11
0.0000000000000001
 21
1.0
 31
0.0
 73
     1
 44
1.0
1001
ACAD
1000
MTEXTBEGIN
1070
    73
1070
     1
1070
    44
1040
1.0
1070
    74
1070
     0
1000
MTEXTEND
  0
POINT
  5
962A
330
9320
100
AcDbEntity
  8
DEFPOINTS
 62
     0
100
AcDbPoint
 10
67.12919261187531
 20
189.672639168094
 30
0.0
  0
POINT
  5
962B
330
9320
100
AcDbEntity
  8
DEFPOINTS
 62
     0
100
AcDbPoint
 10
67.12919261187531
 20
184.6726391680941
 30
0.0
  0
POINT
  5
962C
330
9320
100
AcDbEntity
  8
DEFPOINTS
 62
     0
100
AcDbPoint
 10
57.32485040232768
 20
184.6726391680941
 30
0.0
  0
ENDBLK
  5
932D
330
9320
100
AcDbEntity
  8
0
100
AcDbBlockEnd
  0
BLOCK
  5
9352
330
9346
100
AcDbEntity
  8
0
100
AcDbBlockBegin
  2
*D14
 70
     1
 10
0.0
 20
0.0
 30
0.0
  3
*D14
  1

  0
LINE
  5
962D
330
9346
100
AcDbEntity
  8
mark
370
    -2
100
AcDbLine
 10
69.12919261187531
 20
183.872639168094
 30
0.0
 11
69.12919261187531
 21
160.372639168094
 31
0.0
  0
LINE
  5
962E
330
9346
100
AcDbEntity
  8
mark
370
    -2
100
AcDbLine
 10
67.12919261187531
 20
183.8726391680941
 30
0.0
 11
67.12919261187531
 21
160.372639168094
 31
0.0
  0
LINE
  5
962F
330
9346
100
AcDbEntity
  8
mark
370
    -2
100
AcDbLine
 10
71.62919261187531
 20
161.1726391680941
 30
0.0
 11
74.12919261187531
 21
161.1726391680941
 31
0.0
  0
LINE
  5
9630
330
9346
100
AcDbEntity
  8
mark
370
    -2
100
AcDbLine
 10
64.62919261187531
 20
161.1726391680941
 30
0.0
 11
58.86252594520865
 21
161.1726391680941
 31
0.0
  0
LINE
  5
9631
330
9346
100
AcDbEntity
  8
mark
370
    -2
100
AcDbLine
 10
69.12919261187531
 20
161.1726391680941
 30
0.0
 11
67.12919261187531
 21
161.1726391680941
 31
0.0
  0
INSERT
  5
9632
330
9346
100
AcDbEntity
  8
mark
370
    -2
100
AcDbBlockReference
  2
_Open30
 10
69.12919261187531
 20
161.1726391680941
 30
0.0
 41
2.5
 42
2.5
 43
2.5
 50
180.0
  0
INSERT
  5
9633
330
9346
100
AcDbEntity
  8
mark
370
    -2
100
AcDbBlockReference
  2
_Open30
 10
67.12919261187531
 20
161.1726391680941
 30
0.0
 41
2.5
 42
2.5
 43
2.5
  0
MTEXT
  5
9634
330
9346
100
AcDbEntity
  8
mark
 62
     3
100
AcDbMText
 10
60.49585927854198
 20
163.2226391680941
 30
0.0
 40
2.5
 41
0.0
 71
     5
 72
     1
  1
\A1;2
 73
     1
 44
1.0
1001
ACAD
1000
MTEXTBEGIN
1070
    73
1070
     1
1070
    44
1040
1.0
1070
    74
1070
     0
1000
MTEXTEND
  0
POINT
  5
9635
330
9346
100
AcDbEntity
  8
DEFPOINTS
 62
     0
100
AcDbPoint
 10
69.12919261187531
 20
184.672639168094
 30
0.0
  0
POINT
  5
9636
330
9346
100
AcDbEntity
  8
DEFPOINTS
 62
     0
100
AcDbPoint
 10
67.12919261187531
 20
184.6726391680941
 30
0.0
  0
POINT
  5
9637
330
9346
100
AcDbEntity
  8
DEFPOINTS
 62
     0
100
AcDbPoint
 10
67.12919261187531
 20
161.1726391680941
 30
0.0
  0
ENDBLK
  5
9353
330
9346
100
AcDbEntity
  8
0
100
AcDbBlockEnd
  0
ENDSEC
  0
SECTION
  2
ENTITIES
  0
MTEXT
  5
C0
330
18
100
AcDbEntity
  8
0
100
AcDbMText
 10
41.26970765600413
 20
233.6950877649332
 30
0.0
 40
2.5
 41
0.0
 71
     1
 72
     5
  1

  7
ISOCP3
 73
     1
 44
1.0
1001
ACAD
1000
MTEXTBEGIN
1070
    73
1070
     1
1070
    44
1040
1.0
1070
    74
1070
     0
1000
MTEXTEND
  0
MTEXT
  5
608E
330
18
100
AcDbEntity
  8
0
100
AcDbMText
 10
17.09950368689175
 20
18.59121053131768
 30
0.0
 40
4.797979797979802
 41
0.0
 71
     1
 72
     5
  1
{\Ftxt,bigfont|c128;林彦旭}
  7
JL
 73
     1
 44
1.0
1001
ACAD
1000
ACAD_MTEXT_DEFINED_HEIGHT_BEGIN
1070
    46
1040
0.0
1000
ACAD_MTEXT_DEFINED_HEIGHT_END
1000
MTEXTBEGIN
1070
    73
1070
     1
1070
    44
1040
1.0
1070
    74
1070
     0
1000
MTEXTEND
  0
MTEXT
  5
6095
330
18
100
AcDbEntity
  8
0
100
AcDbMText
 10
77.95294729228846
 20
28.04690090981786
 30
0.0
 40
4.318181818181822
 41
0.0
 71
     1
 72
     5
  1
\Ftxt.shx,bigfont.shx|c128;1 : 1
  7
JL
 73
     1
 44
1.0
1001
ACAD
1000
MTEXTBEGIN
1070
    73
1070
     1
1070
    44
1040
1.0
1070
    74
1070
     0
1000
MTEXTEND
  0
MTEXT
  5
6098
330
18
100
AcDbEntity
  8
0
 48
2.0
370
    25
100
AcDbMText
 10
140.2194500465656
 20
3.49002165463393
 30
0.0
 40
4.318181818181822
 41
0.0
 71
     5
 72
     1
  1
\Ftxt.shx,bigfont.shx|c128;N L 4 0 2 2 0
 73
     1
 44
1.0
1001
ACAD
1000
MTEXTBEGIN
1070
    73
1070
     1
1070
    44
1040
1.0
1070
    74
1070
     0
1000
MTEXTEND
  0
MTEXT
  5
609C
330
18
100
AcDbEntity
  8
0
 48
2.0
100
AcDbMText
 10
170.932899964433
 20
21.27952279338842
 30
0.0
 40
4.318181818181822
 41
0.0
 71
     5
 72
     1
  1
\P\Ftxt.shx,bigfont.shx|c128;    MRZ35X1.5P
 73
     1
 44
1.0
1001
ACAD
1000
MTEXTBEGIN
1070
    73
1070
     1
1070
    44
1040
1.0
1070
    74
1070
     0
1000
MTEXTEND
  0
MTEXT
  5
635A
330
18
100
AcDbEntity
  8
0
100
AcDbMText
 10
15.3760677136774
 20
27.48851470945821
 30
0.0
 40
4.318181818181822
 41
0.0
 71
     1
 72
     5
  1
{\Ftxt,bigfont|c128;06.06.28}
  7
JL
 73
     1
 44
1.0
1001
ACAD
1000
ACAD_MTEXT_DEFINED_HEIGHT_BEGIN
1070
    46
1040
0.0
1000
ACAD_MTEXT_DEFINED_HEIGHT_END
1000
MTEXTBEGIN
1070
    73
1070
     1
1070
    44
1040
1.0
1070
    74
1070
     0
1000
MTEXTEND
  0
LINE
  5
64B1
330
18
100
AcDbEntity
  8
0
 62
     7
 48
5.0
100
AcDbLine
 39
3.838383838383842
 10
47.92942413992529
 20
26.76824018127204
 30
0.0
 11
53.04580144287854
 21
28.04733450701035
 31
0.0
  0
MTEXT
  5
64B2
330
18
100
AcDbEntity
  8
0
100
AcDbMText
 10
15.33306695253338
 20
9.242195050049341
 30
0.0
 40
5.757575757575764
 41
0.0
 71
     1
 72
     5
  1
\Ftxt.shx,bigfont.shx|c128;日機株式会社
  7
LKK
 73
     1
 44
1.0
1001
ACAD
1000
MTEXTBEGIN
1070
    73
1070
     1
1070
    44
1040
1.0
1070
    74
1070
     0
1000
MTEXTEND
  0
LINE
  5
64B7
330
18
100
AcDbEntity
  8
frame
100
AcDbLine
 10
0.0
 20
11.51515151515153
 30
0.0
 11
190.0
 21
11.51515151515158
 31
0.0
  0
LINE
  5
64B8
330
18
100
AcDbEntity
  8
frame
100
AcDbLine
 10
0.0
 20
21.11111111111114
 30
0.0
 11
92.12121212121223
 21
21.11111111111114
 31
0.0
  0
LINE
  5
64B9
330
18
100
AcDbEntity
  8
frame
100
AcDbLine
 10
0.0
 20
30.70707070707074
 30
0.0
 11
190.0
 21
30.70707070707074
 31
0.0
  0
LINE
  5
64BA
330
18
100
AcDbEntity
  8
frame
100
AcDbLine
 10
11.51515151515156
 20
30.70707070707074
 30
0.0
 11
11.51515151515156
 21
11.51515151515153
 31
0.0
  0
LINE
  5
64BB
330
18
100
AcDbEntity
  8
frame
100
AcDbLine
 10
30.70707070707073
 20
30.70707070707074
 30
0.0
 11
30.70707070707073
 21
11.51515151515153
 31
0.0
  0
MTEXT
  5
64BC
330
18
100
AcDbEntity
  8
0
100
AcDbMText
 10
2.830274784221955
 20
27.87352809781483
 30
0.0
 40
4.318181818181822
 41
0.0
 71
     1
 72
     5
  1
\Ftxt.shx,bigfont.shx|c128;日 付
  7
JL
 73
     1
 44
1.0
1001
ACAD
1000
MTEXTBEGIN
1070
    73
1070
     1
1070
    44
1040
1.0
1070
    74
1070
     0
1000
MTEXTEND
  0
MTEXT
  5
64BD
330
18
100
AcDbEntity
  8
0
100
AcDbMText
 10
2.97063307743889
 20
19.03678994441789
 30
0.0
 40
4.318181818181822
 41
0.0
 71
     1
 72
     5
  1
\Ftxt.shx,bigfont.shx|c128;製 図
  7
JL
 73
     1
 44
1.0
1001
ACAD
1000
MTEXTBEGIN
1070
    73
1070
     1
1070
    44
1040
1.0
1070
    74
1070
     0
1000
MTEXTEND
  0
LINE
  5
64C0
330
18
100
AcDbEntity
  8
0
 62
     7
370
    25
100
AcDbLine
 10
53.04580144287854
 20
22.93095720405711
 30
0.0
 11
53.04580144287854
 21
28.04733450701035
 31
0.0
  0
MTEXT
  5
64C1
330
18
100
AcDbEntity
  8
0
100
AcDbMText
 10
64.00748852490841
 20
28.23353814903493
 30
0.0
 40
4.318181818181822
 41
0.0
 71
     1
 72
     5
  1
\Ftxt.shx,bigfont.shx|c128;尺 度
  7
JL
 73
     1
 44
1.0
1001
ACAD
1000
MTEXTBEGIN
1070
    73
1070
     1
1070
    44
1040
1.0
1070
    74
1070
     0
1000
MTEXTEND
  0
LINE
  5
64C2
330
18
100
AcDbEntity
  8
frame
100
AcDbLine
 10
61.41414141414148
 20
30.70707070707074
 30
0.0
 11
61.41414141414148
 21
11.51515151515153
 31
0.0
  0
LINE
  5
64C3
330
18
100
AcDbEntity
  8
0
 62
     7
370
    25
100
AcDbLine
 10
39.6153110226262
 20
22.3000012944375
 30
0.0
 11
39.6153110226262
 21
28.47569103540784
 31
0.0
  0
CIRCLE
  5
64C4
330
18
100
AcDbEntity
  8
0
 62
     7
100
AcDbCircle
 10
39.6153110226262
 20
25.48914585553362
 30
0.0
 40
2.558188651476678
  0
LINE
  5
64C6
330
18
100
AcDbEntity
  8
0
 62
     7
370
    25
100
AcDbLine
 10
47.19321986919976
 20
25.48914585553373
 30
0.0
 11
53.50512581624247
 21
25.48914585553373
 31
0.0
  0
LINE
  5
64C7
330
18
100
AcDbEntity
  8
0
 62
     7
100
AcDbLine
 10
47.92942413992529
 20
24.21005152979542
 30
0.0
 11
53.04580144287854
 21
22.93095720405711
 31
0.0
  0
LINE
  5
64C8
330
18
100
AcDbEntity
  8
frame
100
AcDbLine
 10
42.22222222222228
 20
21.11111111111103
 30
0.0
 11
42.22222222222228
 21
11.51515151515153
 31
0.0
  0
LINE
  5
64C9
330
18
100
AcDbEntity
  8
0
 62
     7
370
    25
100
AcDbLine
 10
36.41832228486612
 20
25.48914585553362
 30
0.0
 11
43.00325267619268
 21
25.48914585553373
 31
0.0
  0
CIRCLE
  5
64CA
330
18
100
AcDbEntity
  8
0
 62
     7
100
AcDbCircle
 10
39.6153110226262
 20
25.48914585553362
 30
0.0
 40
1.279094325738339
  0
MTEXT
  5
64CB
330
18
100
AcDbEntity
  8
0
100
AcDbMText
 10
33.70184032462407
 20
18.61599218191564
 30
0.0
 40
4.318181818181822
 41
0.0
 71
     1
 72
     5
  1
\Ftxt.shx,bigfont.shx|c128;検 図
  7
JL
 73
     1
 44
1.0
1001
ACAD
1000
MTEXTBEGIN
1070
    73
1070
     1
1070
    44
1040
1.0
1070
    74
1070
     0
1000
MTEXTEND
  0
LINE
  5
64CC
330
18
100
AcDbEntity
  8
0
 62
     7
370
    25
100
AcDbLine
 10
47.92942413992529
 20
24.21005152979542
 30
0.0
 11
47.92942413992529
 21
26.76824018127204
 31
0.0
  0
MTEXT
  5
64CD
330
18
100
AcDbEntity
  8
0
100
AcDbMText
 10
64.28820249919829
 20
18.83573686264033
 30
0.0
 40
4.318181818181822
 41
0.0
 71
     1
 72
     5
  1
\Ftxt.shx,bigfont.shx|c128;承 認
  7
JL
 73
     1
 44
1.0
1001
ACAD
1000
MTEXTBEGIN
1070
    73
1070
     1
1070
    44
1040
1.0
1070
    74
1070
     0
1000
MTEXTEND
  0
LINE
  5
64CE
330
18
100
AcDbEntity
  8
frame
100
AcDbLine
 10
127.2575763380881
 20
41.39208870180072
 30
0.0
 11
184.8333339138457
 21
41.39208870180062
 31
0.0
  0
LINE
  5
64CF
330
18
100
AcDbEntity
  8
frame
100
AcDbLine
 10
127.2575763380881
 20
48.30117961089168
 30
0.0
 11
184.8333339138457
 21
48.30117961089168
 31
0.0
  0
LINE
  5
64D0
330
18
100
AcDbEntity
  8
frame
100
AcDbLine
 10
127.2575763380881
 20
55.21027051998254
 30
0.0
 11
184.8333339138457
 21
55.21027051998243
 31
0.0
  0
LINE
  5
64D1
330
18
100
AcDbEntity
  8
frame
100
AcDbLine
 10
127.2575763380881
 20
62.1193614290735
 30
0.0
 11
184.8333339138457
 21
62.11936142907339
 31
0.0
  0
LINE
  5
64D2
330
18
100
AcDbEntity
  8
frame
100
AcDbLine
 10
127.2575763380881
 20
34.48299779270977
 30
0.0
 11
184.8333339138457
 21
34.48299779270977
 31
0.0
  0
MTEXT
  5
64D3
330
18
100
AcDbEntity
  8
0
 62
     7
 48
2.0
100
AcDbMText
 10
155.9354853962475
 20
62.88048263114919
 30
0.0
 40
4.606060606060611
 41
0.0
 71
     5
 72
     1
  1
\P\Ftxt.shx,bigfont.shx|c128;諸　　　　元
 73
     1
 44
1.0
1001
ACAD
1000
MTEXTBEGIN
1070
    73
1070
     1
1070
    44
1040
1.0
1070
    74
1070
     0
1000
MTEXTEND
  0
LINE
  5
64D5
330
18
100
AcDbEntity
  8
frame
100
AcDbLine
 10
127.2575763380881
 20
62.11936142907339
 30
0.0
 11
127.2575763380881
 21
34.48299779270977
 31
0.0
  0
MTEXT
  5
64D6
330
18
100
AcDbEntity
  8
0
100
AcDbMText
 10
130.6376915128317
 20
53.7454384909272
 30
0.0
 40
4.222222222222227
 41
157.2934065657947
 71
     1
 72
     5
  1
\Ftxt.shx,bigfont.shx|c128;熱　処　理
  7
JL
 73
     1
 44
1.0
1001
ACAD
1000
MTEXTBEGIN
1070
    73
1070
     1
1070
    44
1040
1.0
1070
    74
1070
     0
1000
MTEXTEND
  0
LINE
  5
64D7
330
18
100
AcDbEntity
  8
frame
100
AcDbLine
 10
150.2878793683912
 20
55.21027051998243
 30
0.0
 11
150.2878793683912
 21
34.48299779270977
 31
0.0
  0
MTEXT
  5
64D8
330
18
100
AcDbEntity
  8
0
100
AcDbMText
 10
93.71128715606705
 20
10.70268219619141
 30
0.0
 40
4.797979797979802
 41
0.0
 71
     1
 72
     5
  1
\Ftxt.shx,bigfont.shx|c128;図  面  番  号
  7
JL
 73
     1
 44
1.0
1001
ACAD
1000
MTEXTBEGIN
1070
    73
1070
     1
1070
    44
1040
1.0
1070
    74
1070
     0
1000
MTEXTEND
  0
MTEXT
  5
64D9
330
18
100
AcDbEntity
  8
0
 62
     7
 48
2.0
100
AcDbMText
 10
116.9038190021384
 20
21.39089883010995
 30
0.0
 40
4.318181818181822
 41
0.0
 71
     5
 72
     1
  1
\P\Ftxt.shx,bigfont.shx|c128;    精密ロックナット
 73
     1
 44
1.0
1001
ACAD
1000
MTEXTBEGIN
1070
    73
1070
     1
1070
    44
1040
1.0
1070
    74
1070
     0
1000
MTEXTEND
  0
MTEXT
  5
64DA
330
18
100
AcDbEntity
  8
0
370
    25
100
AcDbMText
 10
94.80836130312315
 20
28.60256944074521
 30
0.0
 40
4.797979797979802
 41
0.0
 71
     1
 72
     5
  1
\Ftxt.shx,bigfont.shx|c128;品  名
  7
JL
 73
     1
 44
1.0
1001
ACAD
1000
MTEXTBEGIN
1070
    73
1070
     1
1070
    44
1040
1.0
1070
    74
1070
     0
1000
MTEXTEND
  0
LINE
  5
64DB
330
18
100
AcDbEntity
  8
frame
100
AcDbLine
 10
92.12121212121223
 20
30.70707070707074
 30
0.0
 11
92.12121212121223
 21
0.1833227579584679
 31
0.0
  0
LINE
  5
64DC
330
18
100
AcDbEntity
  8
frame
100
AcDbLine
 10
72.92929292929301
 20
30.70707070707074
 30
0.0
 11
72.92929292929301
 21
11.51515151515153
 31
0.0
  0
LINE
  5
64DE
330
18
100
AcDbEntity
  8
frame
100
AcDbLine
 10
147.0327092740657
 20
30.70707070707074
 30
0.0
 11
147.0327092740657
 21
11.51515151515153
 31
0.0
  0
MTEXT
  5
64DF
330
18
100
AcDbEntity
  8
0
100
AcDbMText
 10
130.3687413623163
 20
47.02612836476851
 30
0.0
 40
4.222222222222227
 41
156.9955249906253
 71
     1
 72
     5
  1
\Ftxt.shx,bigfont.shx|c128;表 面 処 理
  7
JL
 73
     1
 44
1.0
1001
ACAD
1000
MTEXTBEGIN
1070
    73
1070
     1
1070
    44
1040
1.0
1070
    74
1070
     0
1000
MTEXTEND
  0
MTEXT
  5
64E0
330
18
100
AcDbEntity
  8
0
100
AcDbMText
 10
130.6470873784913
 20
40.03213926282152
 30
0.0
 40
4.222222222222227
 41
159.457787878788
 71
     1
 72
     5
  1
\Ftxt.shx,bigfont.shx|c128;等     　級
  7
JL
 73
     1
 44
1.0
1001
ACAD
1000
MTEXTBEGIN
1070
    73
1070
     1
1070
    44
1040
1.0
1070
    74
1070
     0
1000
MTEXTEND
  0
LINE
  5
64E1
330
18
100
AcDbEntity
  8
frame
100
AcDbLine
 10
184.8333339138457
 20
62.11936142907339
 30
0.0
 11
184.8333339138457
 21
34.48299779270988
 31
0.0
  0
MTEXT
  5
64E2
330
18
100
AcDbEntity
  8
0
100
AcDbMText
 10
154.8430845643209
 20
53.57754958987755
 30
0.0
 40
4.222222222222227
 41
280.1022276782824
 71
     1
 72
     5
  1
\Ftxt.shx,bigfont.shx|c128;調質　HRC30%%d%%p２%%d
  7
JL
 73
     1
 44
1.0
1001
ACAD
1000
MTEXTBEGIN
1070
    73
1070
     1
1070
    44
1040
1.0
1070
    74
1070
     0
1000
MTEXTEND
  0
MTEXT
  5
64E4
330
18
100
AcDbEntity
  8
0
370
    25
100
AcDbMText
 10
150.8959594467731
 20
28.39031591806962
 30
0.0
 40
4.797979797979802
 41
0.0
 71
     1
 72
     5
  1
\Ftxt.shx,bigfont.shx|c128;型  番
  7
JL
 73
     1
 44
1.0
1001
ACAD
1000
MTEXTBEGIN
1070
    73
1070
     1
1070
    44
1040
1.0
1070
    74
1070
     0
1000
MTEXTEND
  0
MTEXT
  5
64E5
330
18
100
AcDbEntity
  8
0
100
AcDbMText
 10
165.8059614810325
 20
10.78298174971568
 30
0.0
 40
4.797979797979802
 41
0.0
 71
     1
 72
     5
  1
\Ftxt.shx,bigfont.shx|c128;変更
  7
JL
 73
     1
 44
1.0
1001
ACAD
1000
MTEXTBEGIN
1070
    73
1070
     1
1070
    44
1040
1.0
1070
    74
1070
     0
1000
MTEXTEND
  0
LINE
  5
64E6
330
18
100
AcDbEntity
  8
frame
100
AcDbLine
 10
164.0909090909092
 20
11.52385531768279
 30
0.0
 11
164.0909090909092
 21
0.0
 31
0.0
  0
MTEXT
  5
64E7
330
18
100
AcDbEntity
  8
0
100
AcDbMText
 10
155.0931926970124
 20
40.03272516471908
 30
0.0
 40
4.222222222222227
 41
279.0345419768148
 71
     1
 72
     5
  1
\Ftxt.shx,bigfont.shx|c128;ＩＳＯ - ４Ｈ
  7
JL
 73
     1
 44
1.0
1001
ACAD
1000
MTEXTBEGIN
1070
    73
1070
     1
1070
    44
1040
1.0
1070
    74
1070
     0
1000
MTEXTEND
  0
MTEXT
  5
64E8
330
18
100
AcDbEntity
  8
0
100
AcDbMText
 10
155.2606049578445
 20
46.68749372829668
 30
0.0
 40
4.222222222222227
 41
279.6788484848488
 71
     1
 72
     5
  1
\Ftxt.shx,bigfont.shx|c128;黒  　    染
  7
JL
 73
     1
 44
1.0
1001
ACAD
1000
MTEXTBEGIN
1070
    73
1070
     1
1070
    44
1040
1.0
1070
    74
1070
     0
1000
MTEXTEND
  0
MTEXT
  5
64EA
330
18
100
AcDbEntity
  8
0
100
AcDbMText
 10
57.63639061334408
 20
260.9000583279473
 30
0.0
 40
4.797979797979802
 41
0.0
 71
     1
 72
     5
  1
\Ftxt.shx,bigfont.shx|c128;M6X1.0P-5L
  7
JL
 73
     1
 44
1.0
1001
ACAD
1000
MTEXTBEGIN
1070
    73
1070
     1
1070
    44
1040
1.0
1070
    74
1070
     0
1000
MTEXTEND
  0
MTEXT
  5
64EB
330
18
100
AcDbEntity
  8
0
100
AcDbMText
 10
57.63639061334408
 20
253.2232906511796
 30
0.0
 40
4.797979797979802
 41
0.0
 71
     1
 72
     5
  1
\Ftxt.shx,bigfont.shx|c128;%%c5.2X4L
  7
JL
 73
     1
 44
1.0
1001
ACAD
1000
MTEXTBEGIN
1070
    73
1070
     1
1070
    44
1040
1.0
1070
    74
1070
     0
1000
MTEXTEND
  0
LINE
  5
64EC
330
18
100
AcDbEntity
  8
frame
100
AcDbLine
 10
-0.0000000000001705
 20
255.0505050505051
 30
0.0
 11
190.0
 21
255.0505050505051
 31
0.0
  0
LINE
  5
64ED
330
18
100
AcDbEntity
  8
frame
100
AcDbLine
 10
-0.0000000000001705
 20
262.7272727272727
 30
0.0
 11
190.0
 21
262.7272727272727
 31
0.0
  0
LINE
  5
64EE
330
18
100
AcDbEntity
  8
frame
 62
     9
100
AcDbLine
 10
-0.0000000000001705
 20
270.4040404040404
 30
0.0
 11
190.0
 21
270.4040404040404
 31
0.0
  0
MTEXT
  5
64F0
330
18
100
AcDbEntity
  8
0
100
AcDbMText
 10
57.01564390603692
 20
277.4240560049041
 30
0.0
 40
4.797979797979802
 41
0.0
 71
     1
 72
     5
  1
\Ftxt.shx,bigfont.shx|c128;図    番 / 規　　格
  7
JL
 73
     1
 44
1.0
1001
ACAD
1000
MTEXTBEGIN
1070
    73
1070
     1
1070
    44
1040
1.0
1070
    74
1070
     0
1000
MTEXTEND
  0
LINE
  5
64F1
330
18
100
AcDbEntity
  8
frame
100
AcDbLine
 10
-0.0000000000001705
 20
255.0505050505051
 30
0.0
 11
190.0
 21
255.0505050505051
 31
0.0
  0
LINE
  5
64F2
330
18
100
AcDbEntity
  8
frame
100
AcDbLine
 10
-0.0000000000001705
 20
247.3737373737374
 30
0.0
 11
190.0
 21
247.3737373737374
 31
0.0
  0
MTEXT
  5
64F3
330
18
100
AcDbEntity
  8
0
100
AcDbMText
 10
21.12488048923416
 20
276.9185479322058
 30
0.0
 40
4.797979797979802
 41
0.0
 71
     1
 72
     5
  1
\Ftxt.shx,bigfont.shx|c128;品　          名
  7
JL
 73
     1
 44
1.0
1001
ACAD
1000
MTEXTBEGIN
1070
    73
1070
     1
1070
    44
1040
1.0
1070
    74
1070
     0
1000
MTEXTEND
  0
MTEXT
  5
64F4
330
18
100
AcDbEntity
  8
0
100
AcDbMText
 10
18.10281387110115
 20
261.3165275056141
 30
0.0
 40
5.757575757575764
 41
0.0
 71
     1
 72
     5
  1
\Ftxt.shx,bigfont.shx|c128;セットスクリュ-
  7
JL
 73
     1
 44
1.0
1001
ACAD
1000
MTEXTBEGIN
1070
    73
1070
     1
1070
    44
1040
1.0
1070
    74
1070
     0
1000
MTEXTEND
  0
MTEXT
  5
64F5
330
18
100
AcDbEntity
  8
0
100
AcDbMText
 10
17.91509480863135
 20
268.8361230282964
 30
0.0
 40
5.757575757575764
 41
0.0
 71
     1
 72
     5
  1
\Ftxt.shx,bigfont.shx|c128;ロックナット　  
  7
JL
 73
     1
 44
1.0
1001
ACAD
1000
MTEXTBEGIN
1070
    73
1070
     1
1070
    44
1040
1.0
1070
    74
1070
     0
1000
MTEXTEND
  0
MTEXT
  5
64F6
330
18
100
AcDbEntity
  8
0
100
AcDbMText
 10
18.10281387110115
 20
253.6397598288464
 30
0.0
 40
5.757575757575764
 41
0.0
 71
     1
 72
     5
  1
\Ftxt.shx,bigfont.shx|c128;ロックピン 
  7
JL
 73
     1
 44
1.0
1001
ACAD
1000
MTEXTBEGIN
1070
    73
1070
     1
1070
    44
1040
1.0
1070
    74
1070
     0
1000
MTEXTEND
  0
LINE
  5
64F7
330
18
100
AcDbEntity
  8
frame
100
AcDbLine
 10
14.3939393939392
 20
279.9999999999999
 30
0.0
 11
14.39393939393954
 21
247.3737373737374
 31
0.0
  0
MTEXT
  5
64F9
330
18
100
AcDbEntity
  8
0
100
AcDbMText
 10
5.964166295980817
 20
253.844907968543
 30
0.0
 40
4.797979797979802
 41
0.0
 71
     1
 72
     5
  1
\Ftxt.shx,bigfont.shx|c128;3
  7
JL
 73
     1
 44
1.0
1001
ACAD
1000
MTEXTBEGIN
1070
    73
1070
     1
1070
    44
1040
1.0
1070
    74
1070
     0
1000
MTEXTEND
  0
MTEXT
  5
64FA
330
18
100
AcDbEntity
  8
0
100
AcDbMText
 10
6.815009268013625
 20
269.0412711679932
 30
0.0
 40
4.797979797979802
 41
0.0
 71
     1
 72
     5
  1
\Ftxt.shx,bigfont.shx|c128;1
  7
JL
 73
     1
 44
1.0
1001
ACAD
1000
MTEXTBEGIN
1070
    73
1070
     1
1070
    44
1040
1.0
1070
    74
1070
     0
1000
MTEXTEND
  0
MTEXT
  5
64FB
330
18
100
AcDbEntity
  8
0
100
AcDbMText
 10
5.964166295980817
 20
261.5216756453107
 30
0.0
 40
4.797979797979802
 41
0.0
 71
     1
 72
     5
  1
\Ftxt.shx,bigfont.shx|c128;2
  7
JL
 73
     1
 44
1.0
1001
ACAD
1000
MTEXTBEGIN
1070
    73
1070
     1
1070
    44
1040
1.0
1070
    74
1070
     0
1000
MTEXTEND
  0
MTEXT
  5
64FC
330
18
100
AcDbEntity
  8
0
100
AcDbMText
 10
2.119828072980055
 20
277.2061607531167
 30
0.0
 40
4.797979797979802
 41
0.0
 71
     1
 72
     5
  1
\Ftxt.shx,bigfont.shx|c128;照   号
  7
JL
 73
     1
 44
1.0
1001
ACAD
1000
MTEXTBEGIN
1070
    73
1070
     1
1070
    44
1040
1.0
1070
    74
1070
     0
1000
MTEXTEND
  0
LINE
  5
64FD
330
18
100
AcDbEntity
  8
frame
 62
     9
100
AcDbLine
 10
52.77777777777766
 20
279.9999999999999
 30
0.0
 11
52.77777777777766
 21
247.3737373737375
 31
0.0
  0
MTEXT
  5
64FE
330
18
100
AcDbEntity
  8
0
100
AcDbMText
 10
140.4228361241526
 20
277.6781663894194
 30
0.0
 40
4.797979797979802
 41
0.0
 71
     1
 72
     5
  1
\Ftxt.shx,bigfont.shx|c128;備           考
  7
JL
 73
     1
 44
1.0
1001
ACAD
1000
MTEXTBEGIN
1070
    73
1070
     1
1070
    44
1040
1.0
1070
    74
1070
     0
1000
MTEXTEND
  0
LINE
  5
64FF
330
18
100
AcDbEntity
  8
frame
 62
     9
100
AcDbLine
 10
91.16161616161605
 20
280.0
 30
0.0
 11
91.16161616161605
 21
247.3737373737374
 31
0.0
  0
MTEXT
  5
6500
330
18
100
AcDbEntity
  8
0
100
AcDbMText
 10
92.87341089179363
 20
253.482587674761
 30
0.0
 40
4.797979797979802
 41
0.0
 71
     1
 72
     5
  1
\Ftxt.shx,bigfont.shx|c128;C3604
  7
JL
 73
     1
 44
1.0
1001
ACAD
1000
MTEXTBEGIN
1070
    73
1070
     1
1070
    44
1040
1.0
1070
    74
1070
     0
1000
MTEXTEND
  0
MTEXT
  5
6501
330
18
100
AcDbEntity
  8
0
100
AcDbMText
 10
92.87341089179363
 20
268.8361230282964
 30
0.0
 40
4.797979797979802
 41
0.0
 71
     1
 72
     5
  1
\Ftxt.shx,bigfont.shx|c128;SCM-440
  7
JL
 73
     1
 44
1.0
1001
ACAD
1000
MTEXTBEGIN
1070
    73
1070
     1
1070
    44
1040
1.0
1070
    74
1070
     0
1000
MTEXTEND
  0
MTEXT
  5
6502
330
18
100
AcDbEntity
  8
0
100
AcDbMText
 10
92.87341089179363
 20
261.1593553515287
 30
0.0
 40
4.797979797979802
 41
0.0
 71
     1
 72
     5
  1
\Ftxt.shx,bigfont.shx|c128;SCM435
  7
JL
 73
     1
 44
1.0
1001
ACAD
1000
MTEXTBEGIN
1070
    73
1070
     1
1070
    44
1040
1.0
1070
    74
1070
     0
1000
MTEXTEND
  0
MTEXT
  5
6503
330
18
100
AcDbEntity
  8
0
100
AcDbMText
 10
95.7679886310419
 20
277.6781663894194
 30
0.0
 40
4.797979797979802
 41
0.0
 71
     1
 72
     5
  1
\Ftxt.shx,bigfont.shx|c128;材　質
  7
JL
 73
     1
 44
1.0
1001
ACAD
1000
MTEXTBEGIN
1070
    73
1070
     1
1070
    44
1040
1.0
1070
    74
1070
     0
1000
MTEXTEND
  0
LINE
  5
6504
330
18
100
AcDbEntity
  8
frame
 62
     9
100
AcDbLine
 10
110.3535353535352
 20
280.0
 30
0.0
 11
110.3535353535352
 21
247.3737373737374
 31
0.0
  0
LINE
  5
6505
330
18
100
AcDbEntity
  8
frame
100
AcDbLine
 10
124.7474747474747
 20
280.0
 30
0.0
 11
124.7474747474747
 21
247.3737373737374
 31
0.0
  0
MTEXT
  5
6506
330
18
100
AcDbEntity
  8
0
100
AcDbMText
 10
116.3177016495162
 20
253.844907968543
 30
0.0
 40
4.797979797979802
 41
0.0
 71
     1
 72
     5
  1
\Ftxt.shx,bigfont.shx|c128;3
  7
JL
 73
     1
 44
1.0
1001
ACAD
1000
MTEXTBEGIN
1070
    73
1070
     1
1070
    44
1040
1.0
1070
    74
1070
     0
1000
MTEXTEND
  0
MTEXT
  5
6507
330
18
100
AcDbEntity
  8
0
100
AcDbMText
 10
117.168544621549
 20
269.0412711679932
 30
0.0
 40
4.797979797979802
 41
0.0
 71
     1
 72
     5
  1
\Ftxt.shx,bigfont.shx|c128;1
  7
JL
 73
     1
 44
1.0
1001
ACAD
1000
MTEXTBEGIN
1070
    73
1070
     1
1070
    44
1040
1.0
1070
    74
1070
     0
1000
MTEXTEND
  0
MTEXT
  5
6508
330
18
100
AcDbEntity
  8
0
100
AcDbMText
 10
116.3177016495162
 20
261.5216756453107
 30
0.0
 40
4.797979797979802
 41
0.0
 71
     1
 72
     5
  1
\Ftxt.shx,bigfont.shx|c128;3
  7
JL
 73
     1
 44
1.0
1001
ACAD
1000
MTEXTBEGIN
1070
    73
1070
     1
1070
    44
1040
1.0
1070
    74
1070
     0
1000
MTEXTEND
  0
MTEXT
  5
6509
330
18
100
AcDbEntity
  8
0
100
AcDbMText
 10
111.7293467639609
 20
277.6781663894194
 30
0.0
 40
4.797979797979802
 41
0.0
 71
     1
 72
     5
  1
\Ftxt.shx,bigfont.shx|c128;数   量
  7
JL
 73
     1
 44
1.0
1001
ACAD
1000
MTEXTBEGIN
1070
    73
1070
     1
1070
    44
1040
1.0
1070
    74
1070
     0
1000
MTEXTEND
  0
MTEXT
  5
8100
330
18
100
AcDbEntity
  8
0
 62
     3
100
AcDbMText
 10
271.8936002556579
 20
231.0795154942946
 30
0.0
 40
4.0
 41
0.0
 71
     6
 72
     1
  1
\A1;
  7
TXT
 73
     1
 44
1.0
1001
ACAD
1000
MTEXTBEGIN
1070
    73
1070
     1
1070
    44
1040
1.0
1070
    74
1070
     0
1000
MTEXTEND
  0
ARC
  5
8CE8
330
18
100
AcDbEntity
  8
contour
100
AcDbCircle
 10
93.00872120109037
 20
187.172639168094
 30
0.0
 40
26.0
100
AcDbArc
 50
185.5177343737802
 51
294.5708167377405
  0
LINE
  5
8CE9
330
18
100
AcDbEntity
  8
center
 48
0.2
100
AcDbLine
 10
93.00872120109037
 20
215.1726391680941
 30
0.0
 11
93.00872120109037
 21
159.172639168094
 31
0.0
  0
LINE
  5
8CEA
330
18
100
AcDbEntity
  8
center
 48
0.2
100
AcDbLine
 10
65.00872120109036
 20
187.172639168094
 30
0.0
 11
121.0087212010903
 21
187.172639168094
 31
0.0
  0
LINE
  5
8CEB
330
18
100
AcDbEntity
  8
contour
100
AcDbLine
 10
67.12919261187531
 20
189.672639168094
 30
0.0
 11
69.12919261187528
 21
189.672639168094
 31
0.0
  0
LINE
  5
8CEC
330
18
100
AcDbEntity
  8
contour
100
AcDbLine
 10
67.12919261187531
 20
184.672639168094
 30
0.0
 11
69.12919261187528
 21
184.672639168094
 31
0.0
  0
LINE
  5
8CED
330
18
100
AcDbEntity
  8
contour
100
AcDbLine
 10
69.12919261187531
 20
189.672639168094
 30
0.0
 11
69.12919261187531
 21
184.672639168094
 31
0.0
  0
LINE
  5
8CEE
330
18
100
AcDbEntity
  8
contour
100
AcDbLine
 10
108.113549005159
 20
166.0103099718681
 30
0.0
 11
107.113549005159
 21
167.742360779437
 31
0.0
  0
LINE
  5
8CEF
330
18
100
AcDbEntity
  8
contour
100
AcDbLine
 10
103.7834219862368
 20
163.5103099718681
 30
0.0
 11
102.7834219862368
 21
165.242360779437
 31
0.0
  0
LINE
  5
8CF0
330
18
100
AcDbEntity
  8
contour
100
AcDbLine
 10
102.7834219862368
 20
165.242360779437
 30
0.0
 11
107.113549005159
 21
167.742360779437
 31
0.0
  0
LINE
  5
8CF1
330
18
100
AcDbEntity
  8
contour
100
AcDbLine
 10
103.7834219862368
 20
210.8349683643199
 30
0.0
 11
102.7834219862368
 21
209.1029175567511
 31
0.0
  0
LINE
  5
8CF2
330
18
100
AcDbEntity
  8
contour
100
AcDbLine
 10
108.113549005159
 20
208.3349683643199
 30
0.0
 11
107.113549005159
 21
206.6029175567511
 31
0.0
  0
LINE
  5
8CF3
330
18
100
AcDbEntity
  8
contour
100
AcDbLine
 10
107.113549005159
 20
206.6029175567511
 30
0.0
 11
102.7834219862368
 21
209.1029175567511
 31
0.0
  0
LINE
  5
8CFE
330
18
100
AcDbEntity
  8
bowle
 48
0.2
100
AcDbLine
 10
109.4248518048593
 20
184.1726391680941
 30
0.0
 11
118.8350643413802
 21
184.1726391680941
 31
0.0
  0
LINE
  5
8CFF
330
18
100
AcDbEntity
  8
bowle
 48
0.2
100
AcDbLine
 10
109.4248518048593
 20
190.172639168094
 30
0.0
 11
118.8350643413802
 21
190.172639168094
 31
0.0
  0
LINE
  5
8D00
330
18
100
AcDbEntity
  8
bowle
 48
0.2
100
AcDbLine
 10
109.5144094327273
 20
189.6326391680942
 30
0.0
 11
118.8920826520302
 21
189.6326391680942
 31
0.0
  0
LINE
  5
8D01
330
18
100
AcDbEntity
  8
bowle
 48
0.2
100
AcDbLine
 10
109.5144094327273
 20
184.7126391680939
 30
0.0
 11
118.8920826520302
 21
184.7126391680939
 31
0.0
  0
CIRCLE
  5
8D03
330
18
100
AcDbEntity
  8
contour
100
AcDbCircle
 10
93.00872120109037
 20
187.172639168094
 30
0.0
 40
23.5
  0
ARC
  5
8D0D
330
18
100
AcDbEntity
  8
contour
 62
     4
100
AcDbCircle
 10
93.00872120109037
 20
187.172639168094
 30
0.0
 40
17.5
100
AcDbArc
 50
173.4375721313667
 51
96.5624278686333
  0
CIRCLE
  5
8D0E
330
18
100
AcDbEntity
  8
contour
100
AcDbCircle
 10
93.00872120109037
 20
187.172639168094
 30
0.0
 40
16.688
  0
CIRCLE
  5
8D0F
330
18
100
AcDbEntity
  8
contour
100
AcDbCircle
 10
93.00872120109037
 20
187.172639168094
 30
0.0
 40
18.0
  0
LINE
  5
8D10
330
18
100
AcDbEntity
  8
bowle
 48
0.2
100
AcDbLine
 10
87.39873211055922
 20
202.8894253028012
 30
0.0
 11
82.69362584229876
 21
211.0389084144391
 31
0.0
  0
LINE
  5
8D11
330
18
100
AcDbEntity
  8
bowle
 48
0.2
100
AcDbLine
 10
82.2025796878526
 20
199.8894253028011
 30
0.0
 11
77.49747341959213
 21
208.0389084144391
 31
0.0
  0
LINE
  5
8D12
330
18
100
AcDbEntity
  8
bowle
 48
0.2
100
AcDbLine
 10
82.62545459196203
 20
200.2369844836374
 30
0.0
 11
77.9366179823106
 21
208.3582877199427
 31
0.0
  0
LINE
  5
8D13
330
18
100
AcDbEntity
  8
bowle
 48
0.2
100
AcDbLine
 10
86.88629957858173
 20
202.6969844836375
 30
0.0
 11
82.19746296893029
 21
210.8182877199429
 31
0.0
  0
LINE
  5
8D14
330
18
100
AcDbEntity
  8
bowle
 48
0.2
100
AcDbLine
 10
82.2025796878526
 20
174.4558530333869
 30
0.0
 11
77.4974734195921
 21
166.306369921749
 31
0.0
  0
LINE
  5
8D15
330
18
100
AcDbEntity
  8
bowle
 48
0.2
100
AcDbLine
 10
87.3987321105592
 20
171.4558530333869
 30
0.0
 11
82.69362584229872
 21
163.306369921749
 31
0.0
  0
LINE
  5
8D16
330
18
100
AcDbEntity
  8
bowle
 48
0.2
100
AcDbLine
 10
86.88629957858177
 20
171.6482938525505
 30
0.0
 11
82.19746296893033
 21
163.5269906162452
 31
0.0
  0
LINE
  5
8D17
330
18
100
AcDbEntity
  8
bowle
 48
0.2
100
AcDbLine
 10
82.62545459196207
 20
174.1082938525506
 30
0.0
 11
77.9366179823106
 21
165.9869906162454
 31
0.0
  0
ARC
  5
8D18
330
18
100
AcDbEntity
  8
contour
100
AcDbCircle
 10
93.00872120109037
 20
187.172639168094
 30
0.0
 40
26.0
100
AcDbArc
 50
305.4291832622588
 51
54.57081673774118
  0
ARC
  5
8D19
330
18
100
AcDbEntity
  8
contour
100
AcDbCircle
 10
93.00872120109037
 20
187.172639168094
 30
0.0
 40
26.0
100
AcDbArc
 50
65.42918326225946
 51
174.4822656262195
  0
LINE
  5
8D1A
330
18
100
AcDbEntity
  8
contour
100
AcDbLine
 10
119.0087212010904
 20
110.2134370810343
 30
0.0
 11
119.0087212010903
 21
101.7134370810344
 31
0.0
  0
LINE
  5
8D1B
330
18
100
AcDbEntity
  8
contour
100
AcDbLine
 10
117.5087212010903
 20
100.2134370810344
 30
0.0
 11
68.50872120109034
 21
100.2134370810343
 31
0.0
  0
LINE
  5
8D1C
330
18
100
AcDbEntity
  8
contour
100
AcDbLine
 10
67.00872120109034
 20
101.7134370810343
 30
0.0
 11
67.00872120109036
 21
110.2134370810343
 31
0.0
  0
LINE
  5
8D1D
330
18
100
AcDbEntity
  8
contour
100
AcDbLine
 10
69.50872120109039
 20
112.2134370810344
 30
0.0
 11
116.5087212010903
 21
112.2134370810344
 31
0.0
  0
LINE
  5
8D1F
330
18
100
AcDbEntity
  8
contour
100
AcDbLine
 10
69.50872120109036
 20
112.2134370810343
 30
0.0
 11
69.50872120109036
 21
111.7134370810344
 31
0.0
  0
LINE
  5
8D20
330
18
100
AcDbEntity
  8
contour
100
AcDbLine
 10
69.50872120109036
 20
111.7134370810344
 30
0.0
 11
68.50872120109037
 21
111.7134370810344
 31
0.0
  0
LINE
  5
8D21
330
18
100
AcDbEntity
  8
contour
100
AcDbLine
 10
116.5087212010903
 20
112.2134370810343
 30
0.0
 11
116.5087212010903
 21
111.7134370810344
 31
0.0
  0
LINE
  5
8D22
330
18
100
AcDbEntity
  8
contour
100
AcDbLine
 10
116.5087212010903
 20
111.7134370810344
 30
0.0
 11
117.5087212010904
 21
111.7134370810344
 31
0.0
  0
ARC
  5
8D23
330
18
100
AcDbEntity
  8
contour
100
AcDbCircle
 10
68.50872120109037
 20
110.2134370810343
 30
0.0
 40
1.5
100
AcDbArc
 50
90.0
 51
180.0
  0
ARC
  5
8D24
330
18
100
AcDbEntity
  8
contour
100
AcDbCircle
 10
68.50872120109034
 20
101.7134370810343
 30
0.0
 40
1.5
100
AcDbArc
 50
180.0
 51
270.0
  0
ARC
  5
8D25
330
18
100
AcDbEntity
  8
contour
100
AcDbCircle
 10
117.5087212010903
 20
101.7134370810344
 30
0.0
 40
1.5
100
AcDbArc
 50
270.0
 51
359.9999999999996
  0
ARC
  5
8D26
330
18
100
AcDbEntity
  8
contour
100
AcDbCircle
 10
117.5087212010904
 20
110.2134370810343
 30
0.0
 40
1.5
100
AcDbArc
 50
359.9999999999996
 51
90.0
  0
LINE
  5
8D2E
330
18
100
AcDbEntity
  8
contour
100
AcDbLine
 10
76.32072120109035
 20
109.9014370810344
 30
0.0
 11
76.32072120109035
 21
101.7134370810343
 31
0.0
  0
LINE
  5
8D30
330
18
100
AcDbEntity
  8
contour
100
AcDbLine
 10
75.50872120109042
 20
110.7134370810344
 30
0.0
 11
75.50872120109037
 21
100.9014370810344
 31
0.0
  0
LINE
  5
8D32
330
18
100
AcDbEntity
  8
contour
100
AcDbLine
 10
74.82072120109035
 20
100.2134370810343
 30
0.0
 11
76.32072120109035
 21
101.7134370810343
 31
0.0
  0
LINE
  5
8D33
330
18
100
AcDbEntity
  8
contour
100
AcDbLine
 10
111.1967212010903
 20
100.2134370810344
 30
0.0
 11
109.6967212010903
 21
101.7134370810344
 31
0.0
  0
LINE
  5
8D34
330
18
100
AcDbEntity
  8
contour
100
AcDbLine
 10
76.32072120109035
 20
101.7134370810343
 30
0.0
 11
109.6967212010903
 21
101.7134370810344
 31
0.0
  0
LINE
  5
8D35
330
18
100
AcDbEntity
  8
contour
100
AcDbLine
 10
75.00872120109036
 20
111.2134370810344
 30
0.0
 11
111.0087212010903
 21
111.2134370810344
 31
0.0
  0
LINE
  5
8D36
330
18
100
AcDbEntity
  8
contour
100
AcDbLine
 10
75.0087212010904
 20
112.2134370810344
 30
0.0
 11
75.00872120109036
 21
111.2134370810344
 31
0.0
  0
LINE
  5
8D37
330
18
100
AcDbEntity
  8
contour
100
AcDbLine
 10
75.00872120109036
 20
111.2134370810344
 30
0.0
 11
76.32072120109035
 21
109.9014370810344
 31
0.0
  0
LINE
  5
8D38
330
18
100
AcDbEntity
  8
contour
100
AcDbLine
 10
109.6967212010903
 20
109.9014370810344
 30
0.0
 11
109.6967212010903
 21
101.7134370810343
 31
0.0
  0
LINE
  5
8D39
330
18
100
AcDbEntity
  8
contour
 62
     4
100
AcDbLine
 10
110.5087212010903
 20
110.7134370810344
 30
0.0
 11
110.5087212010903
 21
109.2127064151878
 31
0.0
  0
LINE
  5
8D3A
330
18
100
AcDbEntity
  8
contour
100
AcDbLine
 10
111.0087212010903
 20
112.2134370810344
 30
0.0
 11
111.0087212010903
 21
111.2134370810344
 31
0.0
  0
LINE
  5
8D3B
330
18
100
AcDbEntity
  8
contour
100
AcDbLine
 10
111.0087212010903
 20
111.2134370810344
 30
0.0
 11
109.6967212010903
 21
109.9014370810344
 31
0.0
  0
LINE
  5
8D3C
330
18
100
AcDbEntity
  8
contour
100
AcDbLine
 10
76.32072120109035
 20
109.9014370810344
 30
0.0
 11
109.6967212010903
 21
109.9014370810344
 31
0.0
  0
LINE
  5
8E3B
330
18
100
AcDbEntity
  8
mark
100
AcDbLine
 10
75.50872120109037
 20
86.11867003473635
 30
0.0
 11
75.50872120109037
 21
77.36867003473635
 31
0.0
  0
INSERT
  5
8E3C
330
18
100
AcDbEntity
  8
mark
100
AcDbBlockReference
  2
A
 10
71.4294531969438
 20
81.75981513651892
 30
0.0
  0
TOLERANCE
  5
8E3F
330
18
100
AcDbEntity
  8
mark
100
AcDbFcf
  3
STANDARD
 10
143.1252750812171
 20
122.213437081034
 30
0.0
  1
{\Fgdt;h}%%v0.005%%v%%vA%%v%%v
1001
ACAD
1000
DSTYLE
1002
{
1070
    41
1040
2.5
1070
    42
1040
0.8
1070
    43
1040
6.0
1070
    44
1040
0.8
1070
    73
1070
     0
1070
    74
1070
     0
1070
    78
1070
     8
1070
    79
1070
     2
1070
   140
1040
2.5
1070
   141
1040
0.0
1070
   144
1040
1.0
1070
   147
1040
0.8
1070
   176
1070
   256
1070
   177
1070
   256
1070
   178
1070
     3
1070
   271
1070
     1
1070
   272
1070
     1
1070
   341
1005
88D1
1070
   342
1005
88D1
1002
}
  0
LWPOLYLINE
  5
8E40
330
18
100
AcDbEntity
  8
mark
100
AcDbPolyline
 90
        3
 70
     0
 43
0.0
 10
138.1252750812171
 20
112.213437081034
 10
138.1252750812171
 20
122.213437081034
 10
143.1252750812171
 20
122.213437081034
  0
LWPOLYLINE
  5
8F14
330
18
100
AcDbEntity
  8
contour
100
AcDbPolyline
 90
        2
 70
     0
 43
0.0
 10
119.0087212010905
 20
103.7527064151876
 10
119.0087212010905
 20
108.6727064151879
  0
LWPOLYLINE
  5
8F15
330
18
100
AcDbEntity
  8
contour
100
AcDbPolyline
 90
        6
 70
     0
 43
0.0
 10
115.5087212010905
 20
109.2127064151878
 10
115.5087212010905
 20
109.2127064151878
 10
114.0087212010905
 20
107.7127064151877
 10
114.0087212010905
 20
104.7127064151877
 10
115.5087212010905
 20
103.2127064151878
 10
115.5087212010905
 20
103.2127064151878
  0
LINE
  5
8F16
330
18
100
AcDbEntity
  8
contour
 62
     4
100
AcDbLine
 10
109.6967212010903
 20
103.2127064151879
 30
0.0
 11
119.0087212010907
 21
103.2127064151878
 31
0.0
  0
LINE
  5
8F17
330
18
100
AcDbEntity
  8
contour
 62
     4
100
AcDbLine
 10
109.6967212010903
 20
109.2127064151878
 30
0.0
 11
119.0087212010906
 21
109.2127064151878
 31
0.0
  0
LINE
  5
8F18
330
18
100
AcDbEntity
  8
contour
100
AcDbLine
 10
114.0087212010905
 20
108.6727064151879
 30
0.0
 11
114.9687212010907
 21
108.6727064151879
 31
0.0
  0
LINE
  5
8F19
330
18
100
AcDbEntity
  8
contour
100
AcDbLine
 10
114.0087212010905
 20
103.7527064151876
 30
0.0
 11
114.9687212010907
 21
103.7527064151876
 31
0.0
  0
LINE
  5
8F1A
330
18
100
AcDbEntity
  8
contour
100
AcDbLine
 10
115.5087212010905
 20
109.2127064151878
 30
0.0
 11
115.5087212010905
 21
103.2127064151878
 31
0.0
  0
LINE
  5
8F1B
330
18
100
AcDbEntity
  8
contour
100
AcDbLine
 10
117.0087212010905
 20
107.7127064151878
 30
0.0
 11
119.0087212010904
 21
107.7127064151877
 31
0.0
  0
LINE
  5
8F1C
330
18
100
AcDbEntity
  8
contour
100
AcDbLine
 10
117.0087212010905
 20
104.7127064151877
 30
0.0
 11
119.0087212010904
 21
104.7127064151877
 31
0.0
  0
LINE
  5
8F1D
330
18
100
AcDbEntity
  8
contour
100
AcDbLine
 10
117.0087212010905
 20
107.7127064151878
 30
0.0
 11
117.0087212010905
 21
104.7127064151877
 31
0.0
  0
LINE
  5
8F1E
330
18
100
AcDbEntity
  8
contour
100
AcDbLine
 10
117.0087212010905
 20
107.7127064151877
 30
0.0
 11
116.5080490345784
 21
106.221337040168
 31
0.0
  0
LINE
  5
8F1F
330
18
100
AcDbEntity
  8
contour
100
AcDbLine
 10
116.5080490345784
 20
106.221337040168
 30
0.0
 11
117.0087212010905
 21
104.7127064151877
 31
0.0
  0
LINE
  5
8F20
330
18
100
AcDbEntity
  8
contour
 62
     4
100
AcDbLine
 10
114.9687212010907
 20
108.6727064151879
 30
0.0
 11
119.0087212010906
 21
108.6727064151879
 31
0.0
  0
LINE
  5
8F21
330
18
100
AcDbEntity
  8
contour
 62
     4
100
AcDbLine
 10
114.9687212010907
 20
103.7527064151876
 30
0.0
 11
119.0087212010906
 21
103.7527064151876
 31
0.0
  0
LINE
  5
8F22
330
18
100
AcDbEntity
  8
contour
100
AcDbLine
 10
118.0734137650036
 20
109.2127064151878
 30
0.0
 11
119.0087212010905
 21
108.6727064151879
 31
0.0
  0
LINE
  5
8F23
330
18
100
AcDbEntity
  8
contour
100
AcDbLine
 10
118.0734137650036
 20
103.2127064151878
 30
0.0
 11
119.0087212010905
 21
103.7527064151876
 31
0.0
  0
LINE
  5
8F24
330
18
100
AcDbEntity
  8
contour
100
AcDbLine
 10
118.0734137650036
 20
109.2127064151878
 30
0.0
 11
118.0734137650036
 21
103.2127064151878
 31
0.0
  0
LWPOLYLINE
  5
8F25
330
18
100
AcDbEntity
  8
contour
100
AcDbPolyline
 90
        4
 70
     1
 43
0.0
 10
109.6967212010903
 20
108.8127064151878
 10
109.6967212010903
 20
103.6127064151878
 10
114.0087212010905
 20
103.6127064151877
 10
114.0087212010905
 20
108.8127064151878
  0
LINE
  5
8F29
330
18
100
AcDbEntity
  8
contour
 62
     4
100
AcDbLine
 10
110.5087212010903
 20
103.2127064151878
 30
0.0
 11
110.5087212010903
 21
100.9014370810344
 31
0.0
  0
HATCH
  5
8F32
330
18
100
AcDbEntity
  8
section
100
AcDbHatch
 10
0.0
 20
0.0
 30
0.0
210
0.0
220
0.0
230
1.0
  2
AR-SAND
 70
     0
 71
     0
 91
        2
 92
        7
 72
     0
 73
     1
 93
        4
 10
109.6967212010903
 20
108.8127064151878
 10
109.6967212010903
 20
106.2202410413981
 10
114.0087212010905
 20
106.2170904102675
 10
114.0087212010905
 20
108.8127064151878
 97
        0
 92
        7
 72
     0
 73
     1
 93
        4
 10
109.6967212010902
 20
106.2202410413981
 10
109.6967212010903
 20
103.6127064151879
 10
114.0087212010906
 20
103.6127064151878
 10
114.0087212010906
 20
106.2170904102675
 97
        0
 75
     0
 76
     1
 52
0.0
 41
0.02
 77
     0
 78
     4
 53
37.5
 43
-164.6061508540806
 44
3.008284118020926
 45
-0.0320006259196809
 46
0.9788264746586847
 79
     6
 49
0.0
 49
-0.7721600000000001
 49
0.0
 49
-0.8636000000000001
 49
0.0
 49
-0.8255
 53
7.499999999999999
 43
-164.6061508540806
 44
3.008284118020926
 45
0.8990465662760053
 46
1.433650201136708
 79
     6
 49
0.0
 49
-0.4165600000000001
 49
0.0
 49
-0.69596
 49
0.0
 49
-0.2667000000000001
 53
327.5
 43
-165.2309908540805
 44
3.008284118020926
 45
1.581984740482915
 46
0.0028743693570914
 79
     6
 49
0.0
 49
-0.254
 49
0.0
 49
-0.9144
 49
0.0
 49
-1.193799999999999
 53
317.5
 43
-165.2309908540805
 44
3.008284118020926
 45
1.527112904944594
 46
0.4458586465144325
 79
     6
 49
0.0
 49
-0.127
 49
0.0
 49
-0.59944
 49
0.0
 49
-0.6858
 47
0.027285891034226
 98
        2
 10
111.8831807376523
 20
107.7568814256487
 10
111.5282420096869
 20
105.2738651806854
1001
ACAD
1010
0.0
1020
0.0
1030
0.0
  0
LINE
  5
8F33
330
18
100
AcDbEntity
  8
center
 48
0.2
100
AcDbLine
 10
121.0087212010905
 20
106.2127064151878
 30
0.0
 11
107.6967212010903
 21
106.2127064151878
 31
0.0
  0
LINE
  5
8F34
330
18
100
AcDbEntity
  8
contour
100
AcDbLine
 10
69.12919261187534
 20
111.7134370810344
 30
0.0
 11
69.12919261187531
 21
100.2134370810343
 31
0.0
  0
LINE
  5
8F39
330
18
100
AcDbEntity
  8
center
 48
0.2
100
AcDbLine
 10
79.00872120109037
 20
211.4213504740583
 30
0.0
 11
85.66472120109043
 21
199.8928202988799
 31
0.0
  0
LWPOLYLINE
  5
8F3D
330
18
100
AcDbEntity
  8
mark
100
AcDbPolyline
 90
        7
 70
     1
 43
0.0
 10
97.07645762049745
 20
114.7217484030452
 10
105.7367116583419
 20
114.7217484030452
 10
104.2933359853677
 20
112.2217484030451
 10
102.8499603123937
 20
114.7217484030452
 10
101.4065846394195
 20
112.2217484030451
 10
99.9632089664456
 20
114.7217484030452
 10
98.51983329347142
 20
112.2217484030451
  0
DIMENSION
  5
8F3F
330
18
100
AcDbEntity
  8
mark
100
AcDbDimension
  2
*D4
 10
111.0087212010903
 20
120.27894561123
 30
0.0
 11
93.00872120109039
 21
122.32894561123
 31
0.0
 70
    32
  1
%%c36
 71
     5
 42
35.99999999999997
  3
A
100
AcDbAlignedDimension
 13
75.0087212010904
 23
112.2134370810344
 33
0.0
 14
111.0087212010903
 24
112.2134370810344
 34
0.0
100
AcDbRotatedDimension
  0
DIMENSION
  5
8F4C
330
18
100
AcDbEntity
  8
mark
100
AcDbDimension
  2
*D5
 10
116.5087212010903
 20
126.4577046716749
 30
0.0
 11
93.00872120109039
 21
128.5077046716749
 31
0.0
 70
    32
  1
%%c47%%p0.5
 71
     5
 42
46.99999999999997
  3
A
100
AcDbAlignedDimension
 13
69.50872120109039
 23
112.2134370810344
 33
0.0
 14
116.5087212010903
 24
112.2134370810344
 34
0.0
100
AcDbRotatedDimension
  0
DIMENSION
  5
8F59
330
18
100
AcDbEntity
  8
mark
100
AcDbDimension
  2
*D6
 10
119.0087212010904
 20
132.5006332483987
 30
0.0
 11
93.00872120109042
 21
134.5506332483987
 31
0.0
 70
    32
  1
%%c52
 71
     5
 42
52.00000000000011
  3
A
100
AcDbAlignedDimension
 13
67.00872120109036
 23
110.2134370810343
 33
0.0
 14
119.0087212010904
 24
110.213437081034
 34
0.0
100
AcDbRotatedDimension
  0
MTEXT
  5
8F66
330
18
100
AcDbEntity
  8
mark
 62
     3
100
AcDbMText
 10
97.19178363860677
 20
136.1738636455191
 30
0.0
 40
1.25
 41
0.0
 71
     1
 72
     1
  1
+0\P-0.2
 73
     1
 44
1.0
1001
ACAD
1000
ACAD_MTEXT_DEFINED_HEIGHT_BEGIN
1070
    46
1040
0.0
1000
ACAD_MTEXT_DEFINED_HEIGHT_END
1000
MTEXTBEGIN
1070
    73
1070
     1
1070
    44
1040
1.0
1070
    74
1070
     0
1000
MTEXTEND
  0
DIMENSION
  5
8F67
330
18
100
AcDbEntity
  8
mark
100
AcDbDimension
  2
*D7
 10
127.7255653421999
 20
106.2127064151878
 30
0.0
 11
127.7255653421998
 21
109.2130717481111
 31
0.0
 70
   160
 71
     5
 42
6.000730665846603
  3
A
100
AcDbAlignedDimension
 13
116.5087212010903
 23
112.2134370810344
 33
0.0
 14
121.0087212010905
 24
106.2127064151878
 34
0.0
 50
90.0
100
AcDbRotatedDimension
  0
DIMENSION
  5
8F75
330
18
100
AcDbEntity
  8
mark
100
AcDbDimension
  2
*D8
 10
138.1252750812171
 20
112.2134370810344
 30
0.0
 11
138.1252750812171
 21
106.2134370810344
 31
0.0
 70
   160
  1
12%%p0.2
 71
     5
 42
11.99999999999998
  3
A
100
AcDbAlignedDimension
 13
117.5087212010903
 23
100.2134370810344
 33
0.0
 14
116.5087212010903
 24
112.2134370810344
 34
0.0
 50
90.0
100
AcDbRotatedDimension
  0
DIMENSION
  5
8F8D
330
18
100
AcDbEntity
  8
mark
100
AcDbDimension
  2
*D9
 10
75.50872120109037
 20
86.91867003473635
 30
0.0
 11
93.00872120109037
 21
88.96867003473635
 31
0.0
 70
    32
  1
M35x1.5P
 71
     5
 42
35.0
  3
A
100
AcDbAlignedDimension
 13
110.5087212010903
 23
100.9014370810344
 33
0.0
 14
75.50872120109037
 24
100.9014370810346
 34
0.0
100
AcDbRotatedDimension
  0
DIMENSION
  5
8FA3
330
18
100
AcDbEntity
  8
mark
100
AcDbDimension
  2
*D10
 10
68.50872120109034
 20
101.7134370810343
 30
0.0
 11
57.77248324007468
 21
93.8763369228833
 31
0.0
 70
    36
  1
2-R1.5
 71
     5
 42
1.500000000000028
  3
A
100
AcDbRadialDimension
 15
67.4480610293105
 25
100.6527769092545
 35
0.0
 40
0.0
1001
ACAD
1000
DSTYLE
1002
{
1070
   288
1070
     1
1002
}
  0
LEADER
  5
8FB1
330
18
100
AcDbEntity
  8
mark
100
AcDbLeader
  3
A
 76
     2
 10
110.4467212010903
 20
100.9634370810344
 30
0.0
 10
101.6036652202562
 20
92.12038110020026
 30
0.0
1001
ACAD
1000
DSTYLE
1002
{
1070
   147
1040
0.8
1070
    77
1070
     0
1002
}
  0
MTEXT
  5
8FCA
330
18
100
AcDbEntity
  8
mark
 62
     3
100
AcDbMText
 10
102.2779002639501
 20
96.07201916063397
 30
0.0
 40
2.5
 41
0.0
 71
     5
 72
     1
  1
C1.5
 11
0.7071067811865575
 21
0.7071067811865376
 31
0.0
 73
     1
 44
1.0
1001
ACAD
1000
ACAD_MTEXT_DEFINED_HEIGHT_BEGIN
1070
    46
1040
0.0
1000
ACAD_MTEXT_DEFINED_HEIGHT_END
1000
MTEXTBEGIN
1070
    73
1070
     1
1070
    44
1040
1.0
1070
    74
1070
     0
1000
MTEXTEND
  0
LINE
  5
8FD6
330
18
100
AcDbEntity
  8
center
 48
0.2
100
AcDbLine
 10
93.00872120109037
 20
114.2134370810344
 30
0.0
 11
93.00872120109037
 21
98.21343708103439
 31
0.0
  0
DIMENSION
  5
8FD7
330
18
100
AcDbEntity
  8
mark
100
AcDbDimension
  2
*D11
 10
84.48490070723417
 20
111.2134370810344
 30
0.0
 11
82.43490070723415
 21
104.9967704143677
 31
0.0
 70
    32
 71
     5
 42
0.9999999999999715
  3
A
100
AcDbAlignedDimension
 13
84.48490070723417
 23
112.2134370810344
 33
0.0
 14
84.48490070723417
 24
111.2134370810344
 34
0.0
 50
90.0
100
AcDbRotatedDimension
  0
DIMENSION
  5
9305
330
18
100
AcDbEntity
  8
mark
100
AcDbDimension
  2
*D12
 10
57.32485040232771
 20
112.2134370810343
 30
0.0
 11
55.27485040232769
 21
120.305103747701
 31
0.0
 70
    32
 71
     5
 42
0.5
  3
A
100
AcDbAlignedDimension
 13
68.50872120109037
 23
111.7134370810344
 33
0.0
 14
69.50872120109036
 24
112.2134370810343
 34
0.0
 50
90.0
100
AcDbRotatedDimension
  0
MTEXT
  5
931D
330
18
100
AcDbEntity
  8
mark
 62
     3
100
AcDbMText
 10
53.01016782553839
 20
189.6087245904123
 30
0.0
 40
1.25
 41
0.0
 71
     1
 72
     1
  1
+0.15\P+0
 11
0.0000000000000001
 21
1.0
 31
0.0
 73
     1
 44
1.0
1001
ACAD
1000
ACAD_MTEXT_DEFINED_HEIGHT_BEGIN
1070
    46
1040
0.0
1000
ACAD_MTEXT_DEFINED_HEIGHT_END
1000
MTEXTBEGIN
1070
    73
1070
     1
1070
    44
1040
1.0
1070
    74
1070
     0
1000
MTEXTEND
  0
MTEXT
  5
931E
330
18
100
AcDbEntity
  8
mark
 62
     3
100
AcDbMText
 10
53.84350115887165
 20
194.8691215874982
 30
0.0
 40
2.5
 41
0.0
 71
     1
 72
     1
  1
({\Ftxt,bigfont|c128;3等分\Ftxt,bigfont|c136;)}
 11
0.0000000000000001
 21
1.0
 31
0.0
 73
     1
 44
1.0
1001
ACAD
1000
ACAD_MTEXT_DEFINED_HEIGHT_BEGIN
1070
    46
1040
0.0
1000
ACAD_MTEXT_DEFINED_HEIGHT_END
1000
MTEXTBEGIN
1070
    73
1070
     1
1070
    44
1040
1.0
1070
    74
1070
     0
1000
MTEXTEND
  0
DIMENSION
  5
931F
330
18
100
AcDbEntity
  8
mark
100
AcDbDimension
  2
*D13
 10
57.32485040232768
 20
184.6726391680941
 30
0.0
 11
57.32485040232766
 21
187.1726391680941
 31
0.0
 70
   160
 71
     5
 42
4.999999999999971
  3
A
100
AcDbAlignedDimension
 13
67.12919261187531
 23
189.672639168094
 33
0.0
 14
67.12919261187531
 24
184.6726391680941
 34
0.0
 50
90.0
100
AcDbRotatedDimension
  0
DIMENSION
  5
9345
330
18
100
AcDbEntity
  8
mark
100
AcDbDimension
  2
*D14
 10
67.12919261187531
 20
161.1726391680941
 30
0.0
 11
60.49585927854198
 21
163.2226391680941
 31
0.0
 70
    32
 71
     5
 42
2.0
  3
A
100
AcDbAlignedDimension
 13
69.12919261187531
 23
184.672639168094
 33
0.0
 14
67.12919261187531
 24
184.6726391680941
 34
0.0
100
AcDbRotatedDimension
  0
MTEXT
  5
9354
330
18
100
AcDbEntity
  8
mark
 62
     3
100
AcDbMText
 10
61.85677877454918
 20
164.8586132859544
 30
0.0
 40
1.25
 41
0.0
 71
     1
 72
     1
  1
+0.15\P+0
 73
     1
 44
1.0
1001
ACAD
1000
ACAD_MTEXT_DEFINED_HEIGHT_BEGIN
1070
    46
1040
0.0
1000
ACAD_MTEXT_DEFINED_HEIGHT_END
1000
MTEXTBEGIN
1070
    73
1070
     1
1070
    44
1040
1.0
1070
    74
1070
     0
1000
MTEXTEND
  0
LEADER
  5
9356
330
18
100
AcDbEntity
  8
mark
100
AcDbLeader
  3
A
 76
     2
 10
118.7928476253291
 20
106.0880717481111
 30
0.0
 10
131.63201351464
 20
128.1110052507667
 30
0.0
211
0.5000000000000001
221
0.8660254037844385
231
0.0
1001
ACAD
1000
DSTYLE
1002
{
1070
   147
1040
0.8
1070
    77
1070
     0
1002
}
  0
MTEXT
  5
9373
330
18
100
AcDbEntity
  8
mark
 62
     3
100
AcDbMText
 10
133.9249001529304
 20
128.5077046716749
 30
0.0
 40
3.5
 41
0.0
 71
     5
 72
     1
  1
2
 73
     1
 44
1.0
1001
ACAD
1000
ACAD_MTEXT_DEFINED_HEIGHT_BEGIN
1070
    46
1040
0.0
1000
ACAD_MTEXT_DEFINED_HEIGHT_END
1000
MTEXTBEGIN
1070
    73
1070
     1
1070
    44
1040
1.0
1070
    74
1070
     0
1000
MTEXTEND
  0
MTEXT
  5
9374
330
18
100
AcDbEntity
  8
mark
 62
     3
100
AcDbMText
 10
133.9249001529304
 20
93.09867184233171
 30
0.0
 40
3.5
 41
0.0
 71
     5
 72
     1
  1
3
 73
     1
 44
1.0
1001
ACAD
1000
ACAD_MTEXT_DEFINED_HEIGHT_BEGIN
1070
    46
1040
0.0
1000
ACAD_MTEXT_DEFINED_HEIGHT_END
1000
MTEXTBEGIN
1070
    73
1070
     1
1070
    44
1040
1.0
1070
    74
1070
     0
1000
MTEXTEND
  0
LEADER
  5
9375
330
18
100
AcDbEntity
  8
mark
100
AcDbLeader
  3
A
 76
     2
 10
111.8527212010904
 20
103.6127064151878
 30
0.0
 10
132.663195890947
 20
92.86958424158411
 30
0.0
1001
ACAD
1000
DSTYLE
1002
{
1070
   147
1040
0.8
1070
    77
1070
     0
1002
}
  0
LEADER
  5
9376
330
18
100
AcDbEntity
  8
mark
100
AcDbLeader
  3
A
 76
     2
 10
115.5253816994858
 20
200.1726391680941
 30
0.0
 10
132.6845593010407
 20
210.0794949754245
 30
0.0
211
0.8660254037844387
221
0.5
231
0.0
1001
ACAD
1000
DSTYLE
1002
{
1070
   147
1040
0.8
1070
    77
1070
     0
1002
}
  0
MTEXT
  5
9377
330
18
100
AcDbEntity
  8
mark
 62
     3
100
AcDbMText
 10
133.9249001529304
 20
210.4252140265842
 30
0.0
 40
3.5
 41
0.0
 71
     5
 72
     1
  1
1
 73
     1
 44
1.0
1001
ACAD
1000
ACAD_MTEXT_DEFINED_HEIGHT_BEGIN
1070
    46
1040
0.0
1000
ACAD_MTEXT_DEFINED_HEIGHT_END
1000
MTEXTBEGIN
1070
    73
1070
     1
1070
    44
1040
1.0
1070
    74
1070
     0
1000
MTEXTEND
  0
HATCH
  5
93C2
330
18
100
AcDbEntity
  8
section
100
AcDbHatch
 10
0.0
 20
0.0
 30
0.0
210
0.0
220
0.0
230
1.0
  2
ANSI31
 70
     0
 71
     0
 91
       10
 92
        7
 72
     0
 73
     1
 93
        9
 10
75.50872120109042
 20
110.7134370810343
 10
75.00872120109036
 20
111.2134370810344
 10
75.00872120109042
 20
112.2134370810344
 10
69.50872120109036
 20
112.2134370810344
 10
69.50872120109036
 20
111.7134370810344
 10
69.12919261187536
 20
111.7134370810344
 10
69.12919261187528
 20
100.2134370810343
 10
74.82072120109037
 20
100.2134370810344
 10
75.5087212010904
 20
100.9014370810344
 97
        0
 92
        7
 72
     0
 73
     1
 93
        4
 10
76.32072120109032
 20
109.9014370810344
 10
75.50872120109045
 20
110.7134370810343
 10
75.50872120109037
 20
100.9014370810343
 10
76.32072120109035
 20
101.7134370810343
 97
        0
 92
        7
 72
     1
 73
     1
 93
        9
 10
119.0087212010904
 20
110.2134370810343
 42
0.4142135623730966
 10
117.5087212010904
 20
111.7134370810344
 42
0.0
 10
116.5087212010903
 20
111.7134370810344
 42
0.0
 10
116.5087212010903
 20
112.2134370810344
 42
0.0
 10
111.0087212010903
 20
112.2134370810344
 42
0.0
 10
111.0087212010903
 20
111.2134370810344
 42
0.0
 10
110.5087212010903
 20
110.7134370810343
 42
0.0
 10
110.5087212010902
 20
109.2127064151878
 42
0.0
 10
119.0087212010904
 20
109.2127064151878
 42
0.0
 97
        0
 92
        7
 72
     1
 73
     1
 93
        6
 10
119.0087212010903
 20
103.2127064151878
 42
0.0
 10
110.5087212010903
 20
103.2127064151879
 42
0.0
 10
110.5087212010903
 20
100.9014370810344
 42
0.0
 10
111.1967212010903
 20
100.2134370810344
 42
0.0
 10
117.5087212010903
 20
100.2134370810344
 42
0.414213562373096
 10
119.0087212010903
 20
101.7134370810344
 42
0.0
 97
        0
 92
        7
 72
     0
 73
     1
 93
        4
 10
110.5087212010902
 20
103.2127064151879
 10
109.6967212010904
 20
103.2127064151879
 10
109.6967212010903
 20
101.7134370810344
 10
110.5087212010903
 20
100.9014370810344
 97
        0
 92
        7
 72
     0
 73
     1
 93
        4
 10
110.5087212010903
 20
110.7134370810344
 10
109.6967212010904
 20
109.9014370810344
 10
109.6967212010904
 20
109.2127064151877
 10
110.5087212010903
 20
109.2127064151878
 97
        0
 92
        7
 72
     0
 73
     1
 93
        6
 10
115.5087212010905
 20
109.2127064151878
 10
109.6967212010903
 20
109.2127064151878
 10
109.6967212010903
 20
108.8127064151878
 10
114.0087212010906
 20
108.8127064151878
 10
114.0087212010906
 20
108.6727064151879
 10
114.9687212010906
 20
108.6727064151879
 97
        0
 92
        7
 72
     0
 73
     1
 93
        6
 10
114.9687212010907
 20
103.7527064151876
 10
114.0087212010905
 20
103.7527064151876
 10
114.0087212010905
 20
103.6127064151878
 10
109.6967212010904
 20
103.6127064151878
 10
109.6967212010904
 20
103.2127064151879
 10
115.5087212010905
 20
103.2127064151878
 97
        0
 92
        7
 72
     0
 73
     1
 93
        3
 10
119.0087212010904
 20
103.7527064151875
 10
118.0734137650036
 20
103.2127064151878
 10
119.0087212010904
 20
103.2127064151878
 97
        0
 92
        7
 72
     0
 73
     1
 93
        3
 10
119.0087212010904
 20
109.2127064151877
 10
118.0734137650036
 20
109.2127064151877
 10
119.0087212010903
 20
108.672706415188
 97
        0
 75
     0
 76
     1
 52
0.0
 41
0.5
 77
     0
 78
     1
 53
45.0
 43
-164.6061508540806
 44
11.88132280909542
 45
-1.122532015133643
 46
1.122532015133644
 79
     0
 47
0.0308919081352755
 98
       10
 10
72.33544765574587
 20
107.4008200508995
 10
75.88348233512014
 20
106.7189317317909
 10
115.2592092151672
 20
110.1462787648538
 10
117.1660920859681
 20
102.7241128305804
 10
109.9639112885598
 20
102.4641287289482
 10
109.9715696282058
 20
109.6209699442829
 10
113.866382666954
 20
109.0649156076958
 10
114.7318965571337
 20
103.5043714835379
 10
118.7194442547846
 20
103.4425877526157
 10
118.750354741873
 20
108.9722400113126
1001
ACAD
1010
0.0
1020
0.0
1030
0.0
  0
LWPOLYLINE
  5
94FF
330
18
100
AcDbEntity
  8
frame
100
AcDbPolyline
 90
        4
 70
     1
 43
0.0
 10
-0.0000000000002274
 20
280.0000000000001
 10
0.0
 20
0.0
 10
190.0
 20
0.0
 10
190.0
 20
280.0000000000001
  0
MTEXT
  5
965F
330
18
100
AcDbEntity
  8
0
100
AcDbMText
 10
47.80657439396247
 20
18.59121053131768
 30
0.0
 40
4.797979797979802
 41
0.0
 71
     1
 72
     5
  1
{\Ftxt,bigfont|c128;小\~柳}
  7
JL
 73
     1
 44
1.0
1001
ACAD
1000
ACAD_MTEXT_DEFINED_HEIGHT_BEGIN
1070
    46
1040
0.0
1000
ACAD_MTEXT_DEFINED_HEIGHT_END
1000
MTEXTBEGIN
1070
    73
1070
     1
1070
    44
1040
1.0
1070
    74
1070
     0
1000
MTEXTEND
  0
LWPOLYLINE
  5
96A0
330
18
100
AcDbEntity
  8
mark
100
AcDbPolyline
 90
        3
 70
     1
 43
0.0
 10
8.29768062530713
 20
34.26857220222266
 10
5.410929279359015
 20
39.26857220222266
 10
2.524177933410875
 20
34.26857220222266
  0
MTEXT
  5
96A1
330
18
100
AcDbEntity
  8
DIM
100
AcDbMText
 10
4.999473597702296
 20
37.58271514411942
 30
0.0
 40
2.5
 41
9.163114146879252
 71
     1
 72
     5
  1
1
 73
     1
 44
1.0
1001
ACAD
1000
ACAD_MTEXT_DEFINED_HEIGHT_BEGIN
1070
    46
1040
0.0
1000
ACAD_MTEXT_DEFINED_HEIGHT_END
1000
MTEXTBEGIN
1070
    73
1070
     1
1070
    44
1040
1.0
1070
    74
1070
     0
1000
MTEXTEND
  0
MTEXT
  5
96A2
330
18
100
AcDbEntity
  8
DIM
100
AcDbMText
 10
10.06087913677879
 20
38.72913018467296
 30
0.0
 40
4.5
 41
0.0
 71
     1
 72
     5
  1
{\Ftxt,bigfont|c128;08.08.08 振れ精度の変更  林}
  7
JL
 73
     1
 44
1.0
1001
ACAD
1000
ACAD_MTEXT_DEFINED_HEIGHT_BEGIN
1070
    46
1040
0.0
1000
ACAD_MTEXT_DEFINED_HEIGHT_END
1000
MTEXTBEGIN
1070
    73
1070
     1
1070
    44
1040
1.0
1070
    74
1070
     0
1000
MTEXTEND
  0
CIRCLE
  5
96A3
330
18
100
AcDbEntity
  8
DIM
100
AcDbCircle
 10
47.83518243080453
 20
36.41931156470616
 30
0.0
 40
2.762409708108862
  0
LWPOLYLINE
  5
96A4
330
18
100
AcDbEntity
  8
mark
100
AcDbPolyline
 90
        3
 70
     1
 43
0.0
 10
148.9375639068925
 20
126.5006127547314
 10
146.0508125609444
 20
131.5006127547313
 10
143.1640612149963
 20
126.5006127547314
  0
MTEXT
  5
96A5
330
18
100
AcDbEntity
  8
DIM
100
AcDbMText
 10
145.6393568792877
 20
129.8147556966281
 30
0.0
 40
2.5
 41
9.163114146879252
 71
     1
 72
     5
  1
1
 73
     1
 44
1.0
1001
ACAD
1000
ACAD_MTEXT_DEFINED_HEIGHT_BEGIN
1070
    46
1040
0.0
1000
ACAD_MTEXT_DEFINED_HEIGHT_END
1000
MTEXTBEGIN
1070
    73
1070
     1
1070
    44
1040
1.0
1070
    74
1070
     0
1000
MTEXTEND
  0
MTEXT
  5
96A6
330
18
100
AcDbEntity
  8
DIM
100
AcDbMText
 10
150.6682325742305
 20
129.8147556966281
 30
0.0
 40
2.5
 41
9.163114146879252
 71
     1
 72
     5
  1
0.007
 73
     1
 44
1.0
1001
ACAD
1000
ACAD_MTEXT_DEFINED_HEIGHT_BEGIN
1070
    46
1040
0.0
1000
ACAD_MTEXT_DEFINED_HEIGHT_END
1000
MTEXTBEGIN
1070
    73
1070
     1
1070
    44
1040
1.0
1070
    74
1070
     0
1000
MTEXTEND
  0
LINE
  5
96A7
330
18
100
AcDbEntity
  8
0
 62
     1
100
AcDbLine
 10
149.9500136697495
 20
122.5574658321695
 30
0.0
 11
160.1892187360299
 21
122.5574658321695
 31
0.0
  0
LINE
  5
96A8
330
18
100
AcDbEntity
  8
0
 62
     1
100
AcDbLine
 10
149.9500136697495
 20
121.7913419263758
 30
0.0
 11
160.1892187360299
 21
121.7913419263758
 31
0.0
  0
LWPOLYLINE
  5
96A9
330
18
100
AcDbEntity
  8
mark
100
AcDbPolyline
 90
        3
 70
     1
 43
0.0
 10
182.1352967474311
 20
2.880850836792433
 10
179.248545401483
 20
7.880850836792433
 10
176.3617940555348
 20
2.880850836792433
  0
MTEXT
  5
96AA
330
18
100
AcDbEntity
  8
DIM
100
AcDbMText
 10
178.8370897198262
 20
6.194993778689195
 30
0.0
 40
2.5
 41
9.163114146879252
 71
     1
 72
     5
  1
1
 73
     1
 44
1.0
1001
ACAD
1000
ACAD_MTEXT_DEFINED_HEIGHT_BEGIN
1070
    46
1040
0.0
1000
ACAD_MTEXT_DEFINED_HEIGHT_END
1000
MTEXTBEGIN
1070
    73
1070
     1
1070
    44
1040
1.0
1070
    74
1070
     0
1000
MTEXTEND
  0
ENDSEC
  0
SECTION
  2
OBJECTS
  0
DICTIONARY
  5
C
330
0
100
AcDbDictionary
281
     1
  3
ACAD_COLOR
350
85EB
  3
ACAD_GROUP
350
D
  3
ACAD_LAYOUT
350
5CF3
  3
ACAD_MATERIAL
350
85EA
  3
ACAD_MLINESTYLE
350
1B
  3
ACAD_PLOTSETTINGS
350
5CF4
  3
ACAD_PLOTSTYLENAME
350
5CF1
  3
ACAD_TABLESTYLE
350
85EC
  3
ACDBHEADERROUNDTRIPXREC
350
96B9
  3
ACDBVARIABLEDICTIONARY
350
45D
  0
DICTIONARY
  5
8659
330
2
100
AcDbDictionary
280
     1
281
     1
  3
ACAD_LAYERFILTERS
360
865B
  3
ACLYDICTIONARY
360
865A
  0
DICTIONARY
  5
45F
330
18
100
AcDbDictionary
280
     1
281
     1
  3
ACAD_LAYOUTSELFREF
360
5D8B
  3
ACAD_SORTENTS
360
460
  0
DICTIONARY
  5
5D89
330
15
100
AcDbDictionary
280
     1
281
     1
  3
ACAD_LAYOUTSELFREF
360
5D8A
  0
DICTIONARY
  5
8D3E
330
8D3D
100
AcDbDictionary
280
     1
281
     1
  3
AcDbBlockTableRecordData
360
8D3F
  0
DICTIONARY
  5
85EB
102
{ACAD_REACTORS
330
C
102
}
330
C
100
AcDbDictionary
281
     1
  0
DICTIONARY
  5
D
102
{ACAD_REACTORS
330
C
102
}
330
C
100
AcDbDictionary
281
     1
  0
DICTIONARY
  5
5CF3
102
{ACAD_REACTORS
330
C
102
}
330
C
100
AcDbDictionary
281
     1
  3
Model
350
5CF5
  3
配置1
350
5CF6
  0
DICTIONARY
  5
85EA
102
{ACAD_REACTORS
330
C
102
}
330
C
100
AcDbDictionary
281
     1
  0
DICTIONARY
  5
1B
102
{ACAD_REACTORS
330
C
102
}
330
C
100
AcDbDictionary
281
     1
  3
STANDARD
350
1C
  0
DICTIONARY
  5
5CF4
102
{ACAD_REACTORS
330
C
102
}
330
C
100
AcDbDictionary
281
     1
  0
ACDBDICTIONARYWDFLT
  5
5CF1
102
{ACAD_REACTORS
330
C
102
}
330
C
100
AcDbDictionary
281
     1
  3
Normal
350
5CF2
100
AcDbDictionaryWithDefault
340
5CF2
  0
DICTIONARY
  5
85EC
102
{ACAD_REACTORS
330
C
102
}
330
C
100
AcDbDictionary
281
     1
  3
Standard
350
85ED
  0
DICTIONARY
  5
96B9
102
{ACAD_REACTORS
330
C
102
}
330
C
100
AcDbDictionary
281
     1
  0
DICTIONARY
  5
45D
102
{ACAD_REACTORS
330
C
102
}
330
C
100
AcDbDictionary
281
     1
  3
CTABLESTYLE
350
85F8
  3
DIMASSOC
350
96B6
  3
PROJECTNAME
350
96B7
  3
SORTENTS
350
45E
  0
DICTIONARY
  5
865B
102
{ACAD_REACTORS
330
8659
102
}
330
8659
100
AcDbDictionary
281
     1
  0
DICTIONARY
  5
865A
102
{ACAD_REACTORS
330
8659
102
}
330
8659
100
AcDbDictionary
281
     1
1001
ACAD
1000
<All
  0
XRECORD
  5
5D8B
102
{ACAD_REACTORS
330
45F
102
}
330
45F
100
AcDbXrecord
280
     1
340
18
  0
SORTENTSTABLE
  5
460
102
{ACAD_REACTORS
330
45F
102
}
330
45F
100
AcDbSortentsTable
330
18
331
8CEA
  5
8CEE
331
64FC
  5
64FD
331
9374
  5
9376
331
9305
  5
931E
331
8CF2
  5
8D00
331
6504
  5
6505
331
C0
  5
CB
331
64CD
  5
64CE
331
8F18
  5
8F1D
331
8D39
  5
8E03
331
64D5
  5
64D6
331
8F20
  5
8F25
331
931D
  5
931F
331
8F67
  5
8F8D
331
8D12
  5
8D17
331
64E5
  5
64E6
331
8FD6
  5
9305
331
8D1A
  5
8D1E
331
64ED
  5
64EE
331
9345
  5
9356
331
8D22
  5
8D32
331
64F5
  5
64F6
331
8CEB
  5
8CF0
331
64FD
  5
64FE
331
64C6
  5
64C7
331
9375
  5
9377
331
8D32
  5
8D36
331
8CF3
  5
8D01
331
6505
  5
6506
331
64CE
  5
64CF
331
8F19
  5
8F1E
331
8D3A
  5
8E05
331
64D6
  5
64D7
331
8F21
  5
8F26
331
931E
  5
9345
331
8D03
  5
8D10
331
8F29
  5
8E04
331
64DE
  5
64DF
331
8D13
  5
8D18
331
64E6
  5
64E7
331
8F39
  5
8F3E
331
8FD7
  5
931D
331
8D1B
  5
8D20
331
64EE
  5
64EF
331
64B7
  5
64B8
331
8D23
  5
8D24
331
64F6
  5
64F7
331
9356
  5
9374
331
8CEC
  5
8CEF
331
64FE
  5
64FF
331
6098
  5
6098
331
64C7
  5
64C8
331
9376
  5
937F
331
8D33
  5
8D37
331
6506
  5
6507
331
64CF
  5
64D0
331
8F1A
  5
8F1F
331
8F59
  5
8F67
331
8D3B
  5
8E3E
331
64D7
  5
64D8
331
8F22
  5
8F29
331
931F
  5
9354
331
64DF
  5
64E0
331
8F32
  5
8F39
331
8D14
  5
8D19
331
64E7
  5
64E8
331
8E3B
  5
8E42
331
64B8
  5
64B9
331
8D1C
  5
8D22
331
64F7
  5
64F9
331
8D24
  5
8D23
331
64C0
  5
64C1
331
64FF
  5
6500
331
64C8
  5
64C9
331
8CED
  5
8CF1
331
9377
  5
9495
331
8F1B
  5
8F20
331
6507
  5
6508
331
64D0
  5
64D1
331
8D34
  5
8D39
331
8F23
  5
8F33
331
8D3C
  5
8E3F
331
94FF
  5
64B7
331
8FB1
  5
8FD6
331
64D8
  5
64D9
331
8F33
  5
8F3B
331
64E0
  5
64E1
331
8D0D
  5
8D11
331
64E8
  5
64EA
331
64B1
  5
64B1
331
8D15
  5
8D1A
331
8E3C
  5
8E43
331
64F0
  5
64F1
331
64B9
  5
64BA
331
8D1D
  5
8D25
331
8D25
  5
8D1F
331
64C1
  5
64C2
331
8F14
  5
8F19
331
6500
  5
6501
331
64C9
  5
64CA
331
8CEE
  5
8CF2
331
8F1C
  5
8F21
331
6508
  5
6509
331
635A
  5
635A
331
64D1
  5
64D2
331
8D35
  5
8D26
331
8F24
  5
8F34
331
8CFE
  5
8D03
331
64D9
  5
64DA
331
8F34
  5
8F3D
331
64E1
  5
64E2
331
8D0E
  5
8D13
331
8FCA
  5
8FD7
331
8D16
  5
8D1B
331
64B2
  5
64B2
331
8100
  5
8CE8
331
64F1
  5
64F2
331
64BA
  5
64BB
331
8F4C
  5
8F66
331
8D26
  5
8D33
331
64F9
  5
64FA
331
64C2
  5
64C3
331
8F15
  5
8F1A
331
8D2E
  5
8D35
331
6501
  5
6502
331
64CA
  5
64CB
331
8CEF
  5
8CF3
331
8F1D
  5
8F22
331
6509
  5
8100
331
64D2
  5
64D3
331
8D36
  5
8D3A
331
8FA3
  5
8FCA
331
8F25
  5
8F3A
331
8CFF
  5
8D0D
331
64DA
  5
64DB
331
64E2
  5
64E4
331
8D0F
  5
8D14
331
8F3D
  5
8F3F
331
64EA
  5
64EB
331
8D17
  5
8D1C
331
64F2
  5
64F3
331
64BB
  5
64BC
331
8D1F
  5
8D2E
331
8CE8
  5
8CE9
331
64FA
  5
64FB
331
64C3
  5
64C4
331
8F16
  5
8F1B
331
8CF0
  5
8CFE
331
6502
  5
6503
331
609C
  5
609C
331
64CB
  5
64CC
331
8F1E
  5
8F23
331
8D37
  5
8D3B
331
64D3
  5
64D5
331
93C2
  5
8D1D
331
8D00
  5
8D0E
331
64DB
  5
64DC
331
8D10
  5
8D15
331
8D18
  5
8CEA
331
64EB
  5
64EC
331
8F75
  5
8FA3
331
8E3F
  5
8F17
331
8D20
  5
8D2F
331
64F3
  5
64F4
331
64BC
  5
64BD
331
8F8D
  5
8FB1
331
8CE9
  5
8CED
331
64FB
  5
64FC
331
6095
  5
6095
331
64C4
  5
64C6
331
8D30
  5
8D38
331
8CF1
  5
8CFF
331
6503
  5
6504
331
64CC
  5
64CD
331
8F17
  5
8F1C
331
9373
  5
9375
331
8D38
  5
8D3C
331
8F1F
  5
8F24
331
8D01
  5
8D0F
331
8F66
  5
8F75
331
64DC
  5
64DE
331
8D11
  5
8D16
331
64E4
  5
64E5
331
8D19
  5
8CEC
331
64EC
  5
64ED
331
8F3F
  5
8F59
331
8E40
  5
8F18
331
8D21
  5
8D30
331
64F4
  5
64F5
331
608E
  5
608E
331
64BD
  5
64C0
331
9354
  5
9373
  0
XRECORD
  5
5D8A
102
{ACAD_REACTORS
330
5D89
102
}
330
5D89
100
AcDbXrecord
280
     1
340
15
  0
DICTIONARY
  5
8D3F
102
{ACAD_REACTORS
330
8D3E
102
}
330
8D3E
100
AcDbDictionary
280
     1
281
     1
  3
Edit
360
8D40
  0
LAYOUT
  5
5CF5
102
{ACAD_XDICTIONARY
360
96BA
102
}
102
{ACAD_REACTORS
330
5CF3
102
}
330
5CF3
100
AcDbPlotSettings
  1

  2
hp LaserJet 1300 PCL 6
  4
A4
  6

 40
5.027083396911621
 41
5.069413185119628
 42
5.027084350585937
 43
5.027069091796875
 44
209.9733276367187
 45
296.9683227539062
 46
2.628062639917686
 47
0.0
 48
0.0
 49
0.0
140
190.0
141
280.0000000000001
142
1.0
143
0.9760456081518366
 70
 11956
 72
     1
 73
     0
 74
     4
  7
LIN.ctb
 75
     0
147
1.02454228741782
148
0.0
149
0.0
100
AcDbLayout
  1
Model
 70
     1
 71
     0
 10
0.0
 20
0.0
 11
12.0
 21
9.0
 12
0.0
 22
0.0
 32
0.0
 14
0.0
 24
0.0
 34
0.0
 15
0.0
 25
0.0
 35
0.0
146
0.0
 13
0.0
 23
0.0
 33
0.0
 16
1.0
 26
0.0
 36
0.0
 17
0.0
 27
1.0
 37
0.0
 76
     0
330
18
1001
ACAD_PSEXT
1000
hp LaserJet 1300 PCL 6
1000
hp LaserJet 1300 PCL 6
1000
HP 1300
1000

1070
     0
  0
LAYOUT
  5
5CF6
102
{ACAD_XDICTIONARY
360
96BC
102
}
102
{ACAD_REACTORS
330
5CF3
102
}
330
5CF3
100
AcDbPlotSettings
  1

  2
EPSON STYLUS COLOR 440
  4

  6

 40
0.0
 41
0.0
 42
0.0
 43
0.0
 44
0.0
 45
0.0
 46
0.0
 47
0.0
 48
0.0
 49
0.0
140
0.0
141
0.0
142
1.0
143
1.0
 70
   688
 72
     0
 73
     0
 74
     5
  7
LIN.ctb
 75
    16
147
1.0
148
0.0
149
0.0
100
AcDbLayout
  1
ｰtｸm1
 70
     1
 71
     1
 10
0.0
 20
0.0
 11
420.0
 21
297.0
 12
0.0
 22
0.0
 32
0.0
 14
1.000000000000000E+20
 24
1.000000000000000E+20
 34
1.000000000000000E+20
 15
-1.000000000000000E+20
 25
-1.000000000000000E+20
 35
-1.000000000000000E+20
146
0.0
 13
0.0
 23
0.0
 33
0.0
 16
1.0
 26
0.0
 36
0.0
 17
0.0
 27
1.0
 37
0.0
 76
     0
330
15
  0
MLINESTYLE
  5
1C
102
{ACAD_REACTORS
330
1B
102
}
330
1B
100
AcDbMlineStyle
  2
STANDARD
 70
     0
  3

 62
   256
 51
90.0
 52
90.0
 71
     2
 49
0.5
 62
   256
  6
BYLAYER
 49
-0.5
 62
   256
  6
BYLAYER
  0
ACDBPLACEHOLDER
  5
5CF2
102
{ACAD_REACTORS
330
5CF1
102
}
330
5CF1
  0
TABLESTYLE
  5
85ED
102
{ACAD_REACTORS
330
85EC
102
}
330
85EC
100
AcDbTableStyle
  3
Standard
 70
     0
 71
     0
 40
1.5
 41
1.5
280
     0
281
     0
  7
STANDARD
140
4.5
170
     2
 62
     0
 63
     7
283
     0
274
    -2
284
     1
 64
     0
275
    -2
285
     1
 65
     0
276
    -2
286
     1
 66
     0
277
    -2
287
     1
 67
     0
278
    -2
288
     1
 68
     0
279
    -2
289
     1
 69
     0
  7
STANDARD
140
6.0
170
     5
 62
     0
 63
     7
283
     0
274
    -2
284
     1
 64
     0
275
    -2
285
     1
 65
     0
276
    -2
286
     1
 66
     0
277
    -2
287
     1
 67
     0
278
    -2
288
     1
 68
     0
279
    -2
289
     1
 69
     0
  7
STANDARD
140
4.5
170
     5
 62
     0
 63
     7
283
     0
274
    -2
284
     1
 64
     0
275
    -2
285
     1
 65
     0
276
    -2
286
     1
 66
     0
277
    -2
287
     1
 67
     0
278
    -2
288
     1
 68
     0
279
    -2
289
     1
 69
     0
  0
DICTIONARYVAR
  5
85F8
102
{ACAD_REACTORS
330
45D
102
}
330
45D
100
DictionaryVariables
280
     0
  1
STANDARD
  0
DICTIONARYVAR
  5
96B6
102
{ACAD_REACTORS
330
45D
102
}
330
45D
100
DictionaryVariables
280
     0
  1
1
  0
DICTIONARYVAR
  5
96B7
102
{ACAD_REACTORS
330
45D
102
}
330
45D
100
DictionaryVariables
280
     0
  1

  0
DICTIONARYVAR
  5
45E
102
{ACAD_REACTORS
330
45D
102
}
330
45D
100
DictionaryVariables
280
     0
  1
127
  0
XRECORD
  5
8D40
102
{ACAD_REACTORS
330
8D3F
102
}
330
8D3F
100
AcDbXrecord
280
     1
1070
     0
1070
     1
1070
     1
  0
DICTIONARY
  5
96BA
330
5CF5
100
AcDbDictionary
280
     1
281
     1
  3
ACAD_XREC_ROUNDTRIP
360
96BB
  0
DICTIONARY
  5
96BC
330
5CF6
100
AcDbDictionary
280
     1
281
     1
  3
ACAD_XREC_ROUNDTRIP
360
96BD
  0
XRECORD
  5
96BB
102
{ACAD_REACTORS
330
96BA
102
}
330
96BA
100
AcDbXrecord
280
     1
102
SHADEPLOT
 70
     0
102
SHADEPLOTRESLEVEL
 70
     2
102
SHADEPLOTCUSTOMDPI
 70
   300
  0
XRECORD
  5
96BD
102
{ACAD_REACTORS
330
96BC
102
}
330
96BC
100
AcDbXrecord
280
     1
102
SHADEPLOT
 70
     0
102
SHADEPLOTRESLEVEL
 70
     2
102
SHADEPLOTCUSTOMDPI
 70
   300
  0
ENDSEC
  0
EOF
