  0
SECTION
  2
HEADER
  9
$ACADVER
  1
AC1015
  9
$ACADMAINTVER
 70
    20
  9
$DWGCODEPAGE
  3
ANSI_932
  9
$INSBASE
 10
0.0
 20
0.0
 30
0.0
  9
$EXTMIN
 10
0.0
 20
0.0
 30
0.0
  9
$EXTMAX
 10
190.0
 20
280.0
 30
3.838383838383842
  9
$LIMMIN
 10
0.0
 20
0.0
  9
$LIMMAX
 10
420.0
 20
297.0
  9
$ORTHOMODE
 70
     0
  9
$REGENMODE
 70
     1
  9
$FILLMODE
 70
     1
  9
$QTEXTMODE
 70
     0
  9
$MIRRTEXT
 70
     1
  9
$LTSCALE
 40
1.0
  9
$ATTMODE
 70
     1
  9
$TEXTSIZE
 40
2.5
  9
$TRACEWID
 40
1.0
  9
$TEXTSTYLE
  7
TXT
  9
$CLAYER
  8
mark
  9
$CELTYPE
  6
BYLAYER
  9
$CECOLOR
 62
   256
  9
$CELTSCALE
 40
1.0
  9
$DISPSILH
 70
     0
  9
$DIMSCALE
 40
1.0
  9
$DIMASZ
 40
3.0
  9
$DIMEXO
 40
0.8
  9
$DIMDLI
 40
0.38
  9
$DIMRND
 40
0.0
  9
$DIMDLE
 40
0.0
  9
$DIMEXE
 40
0.8
  9
$DIMTP
 40
0.0
  9
$DIMTM
 40
0.0
  9
$DIMTXT
 40
2.5
  9
$DIMCEN
 40
0.09
  9
$DIMTSZ
 40
0.0
  9
$DIMTOL
 70
     0
  9
$DIMLIM
 70
     0
  9
$DIMTIH
 70
     0
  9
$DIMTOH
 70
     0
  9
$DIMSE1
 70
     0
  9
$DIMSE2
 70
     0
  9
$DIMTAD
 70
     3
  9
$DIMZIN
 70
     8
  9
$DIMBLK
  1
Open30
  9
$DIMASO
 70
     1
  9
$DIMSHO
 70
     1
  9
$DIMPOST
  1

  9
$DIMAPOST
  1

  9
$DIMALT
 70
     0
  9
$DIMALTD
 70
     2
  9
$DIMALTF
 40
25.4
  9
$DIMLFAC
 40
1.0
  9
$DIMTOFL
 70
     1
  9
$DIMTVP
 40
0.0
  9
$DIMTIX
 70
     0
  9
$DIMSOXD
 70
     0
  9
$DIMSAH
 70
     0
  9
$DIMBLK1
  1

  9
$DIMBLK2
  1

  9
$DIMSTYLE
  2
STANDARD
  9
$DIMCLRD
 70
   256
  9
$DIMCLRE
 70
   256
  9
$DIMCLRT
 70
     3
  9
$DIMTFAC
 40
1.0
  9
$DIMGAP
 40
0.8
  9
$DIMJUST
 70
     0
  9
$DIMSD1
 70
     0
  9
$DIMSD2
 70
     0
  9
$DIMTOLJ
 70
     1
  9
$DIMTZIN
 70
     0
  9
$DIMALTZ
 70
     0
  9
$DIMALTTZ
 70
     0
  9
$DIMUPT
 70
     0
  9
$DIMDEC
 70
     2
  9
$DIMTDEC
 70
     2
  9
$DIMALTU
 70
     2
  9
$DIMALTTD
 70
     2
  9
$DIMTXSTY
  7
STANDARD
  9
$DIMAUNIT
 70
     0
  9
$DIMADEC
 70
     2
  9
$DIMALTRND
 40
0.0
  9
$DIMAZIN
 70
     2
  9
$DIMDSEP
 70
    46
  9
$DIMATFIT
 70
     3
  9
$DIMFRAC
 70
     0
  9
$DIMLDRBLK
  1
Open30
  9
$DIMLUNIT
 70
     2
  9
$DIMLWD
 70
    -2
  9
$DIMLWE
 70
    -2
  9
$DIMTMOVE
 70
     0
  9
$LUNITS
 70
     2
  9
$LUPREC
 70
     2
  9
$SKETCHINC
 40
1.0
  9
$FILLETRAD
 40
2.0
  9
$AUNITS
 70
     0
  9
$AUPREC
 70
     2
  9
$MENU
  1
.
  9
$ELEVATION
 40
0.0
  9
$PELEVATION
 40
0.0
  9
$THICKNESS
 40
0.0
  9
$LIMCHECK
 70
     0
  9
$CHAMFERA
 40
2.0
  9
$CHAMFERB
 40
2.0
  9
$CHAMFERC
 40
1.75
  9
$CHAMFERD
 40
0.0174532925199433
  9
$SKPOLY
 70
     0
  9
$TDCREATE
 40
2451555.620234838
  9
$TDUCREATE
 40
2451555.245234838
  9
$TDUPDATE
 40
2457828.488728623
  9
$TDUUPDATE
 40
2457828.113728623
  9
$TDINDWG
 40
2.3749495023
  9
$TDUSRTIMER
 40
2.3749495023
  9
$USRTIMER
 70
     1
  9
$ANGBASE
 50
0.0
  9
$ANGDIR
 70
     0
  9
$PDMODE
 70
     0
  9
$PDSIZE
 40
0.0
  9
$PLINEWID
 40
0.0
  9
$SPLFRAME
 70
     0
  9
$SPLINETYPE
 70
     6
  9
$SPLINESEGS
 70
     8
  9
$HANDSEED
  5
A0A5
  9
$SURFTAB1
 70
     6
  9
$SURFTAB2
 70
     6
  9
$SURFTYPE
 70
     6
  9
$SURFU
 70
     6
  9
$SURFV
 70
     6
  9
$UCSBASE
  2

  9
$UCSNAME
  2

  9
$UCSORG
 10
0.0
 20
0.0
 30
0.0
  9
$UCSXDIR
 10
1.0
 20
0.0
 30
0.0
  9
$UCSYDIR
 10
0.0
 20
1.0
 30
0.0
  9
$UCSORTHOREF
  2

  9
$UCSORTHOVIEW
 70
     0
  9
$UCSORGTOP
 10
0.0
 20
0.0
 30
0.0
  9
$UCSORGBOTTOM
 10
0.0
 20
0.0
 30
0.0
  9
$UCSORGLEFT
 10
0.0
 20
0.0
 30
0.0
  9
$UCSORGRIGHT
 10
0.0
 20
0.0
 30
0.0
  9
$UCSORGFRONT
 10
0.0
 20
0.0
 30
0.0
  9
$UCSORGBACK
 10
0.0
 20
0.0
 30
0.0
  9
$PUCSBASE
  2

  9
$PUCSNAME
  2

  9
$PUCSORG
 10
0.0
 20
0.0
 30
0.0
  9
$PUCSXDIR
 10
1.0
 20
0.0
 30
0.0
  9
$PUCSYDIR
 10
0.0
 20
1.0
 30
0.0
  9
$PUCSORTHOREF
  2

  9
$PUCSORTHOVIEW
 70
     0
  9
$PUCSORGTOP
 10
0.0
 20
0.0
 30
0.0
  9
$PUCSORGBOTTOM
 10
0.0
 20
0.0
 30
0.0
  9
$PUCSORGLEFT
 10
0.0
 20
0.0
 30
0.0
  9
$PUCSORGRIGHT
 10
0.0
 20
0.0
 30
0.0
  9
$PUCSORGFRONT
 10
0.0
 20
0.0
 30
0.0
  9
$PUCSORGBACK
 10
0.0
 20
0.0
 30
0.0
  9
$USERI1
 70
     0
  9
$USERI2
 70
     0
  9
$USERI3
 70
     0
  9
$USERI4
 70
     0
  9
$USERI5
 70
     0
  9
$USERR1
 40
0.0
  9
$USERR2
 40
0.0
  9
$USERR3
 40
0.0
  9
$USERR4
 40
0.0
  9
$USERR5
 40
0.0
  9
$WORLDVIEW
 70
     1
  9
$SHADEDGE
 70
     3
  9
$SHADEDIF
 70
    70
  9
$TILEMODE
 70
     1
  9
$MAXACTVP
 70
    48
  9
$PINSBASE
 10
0.0
 20
0.0
 30
0.0
  9
$PLIMCHECK
 70
     0
  9
$PEXTMIN
 10
1.000000000000000E+20
 20
1.000000000000000E+20
 30
1.000000000000000E+20
  9
$PEXTMAX
 10
-1.000000000000000E+20
 20
-1.000000000000000E+20
 30
-1.000000000000000E+20
  9
$PLIMMIN
 10
0.0
 20
0.0
  9
$PLIMMAX
 10
420.0
 20
297.0
  9
$UNITMODE
 70
     0
  9
$VISRETAIN
 70
     1
  9
$PLINEGEN
 70
     0
  9
$PSLTSCALE
 70
     1
  9
$TREEDEPTH
 70
  3020
  9
$CMLSTYLE
  2
STANDARD
  9
$CMLJUST
 70
     0
  9
$CMLSCALE
 40
20.0
  9
$PROXYGRAPHICS
 70
     1
  9
$MEASUREMENT
 70
     1
  9
$CELWEIGHT
370
    -1
  9
$ENDCAPS
280
     0
  9
$JOINSTYLE
280
     0
  9
$LWDISPLAY
290
     0
  9
$INSUNITS
 70
     0
  9
$HYPERLINKBASE
  1

  9
$STYLESHEET
  1
monochrome.ctb
  9
$XEDIT
290
     1
  9
$CEPSNTYPE
380
     0
  9
$PSTYLEMODE
290
     1
  9
$FINGERPRINTGUID
  2
{1CF51E8A-A506-11D4-A7D9-AF69F5C20846}
  9
$VERSIONGUID
  2
{049AB8E5-59EE-4472-BF8F-ECA29176A173}
  9
$EXTNAMES
290
     1
  9
$PSVPSCALE
 40
0.0
  9
$OLESTARTUP
290
     0
  0
ENDSEC
  0
SECTION
  2
CLASSES
  0
CLASS
  1
DICTIONARYVAR
  2
AcDbDictionaryVar
  3
ObjectDBX Classes
 90
        0
280
     0
281
     0
  0
CLASS
  1
SORTENTSTABLE
  2
AcDbSortentsTable
  3
ObjectDBX Classes
 90
        0
280
     0
281
     0
  0
CLASS
  1
HATCH
  2
AcDbHatch
  3
ObjectDBX Classes
 90
        0
280
     0
281
     1
  0
CLASS
  1
LWPOLYLINE
  2
AcDbPolyline
  3
ObjectDBX Classes
 90
        0
280
     0
281
     1
  0
CLASS
  1
ACDBDICTIONARYWDFLT
  2
AcDbDictionaryWithDefault
  3
ObjectDBX Classes
 90
        0
280
     0
281
     0
  0
CLASS
  1
ACDBPLACEHOLDER
  2
AcDbPlaceHolder
  3
ObjectDBX Classes
 90
        0
280
     0
281
     0
  0
CLASS
  1
LAYOUT
  2
AcDbLayout
  3
ObjectDBX Classes
 90
        0
280
     0
281
     0
  0
CLASS
  1
LONG_TRANSACTION
  2
AcDbLongTransaction
  3
ObjectDBX Classes
 90
    32768
280
     0
281
     0
  0
CLASS
  1
LWPOLYLINE
  2
AcDbPolyline
  3
ObjectDBX Classes
 90
        0
280
     0
281
     1
  0
CLASS
  1
HATCH
  2
AcDbHatch
  3
ObjectDBX Classes
 90
        0
280
     0
281
     1
  0
CLASS
  1
XRECORD
  2
AcDbXrecord
  3
ObjectDBX Classes
 90
        0
280
     0
281
     0
  0
CLASS
  1
TABLESTYLE
  2
AcDbTableStyle
  3
ObjectDBX Classes
 90
     2047
280
     0
281
     0
  0
CLASS
  1
MATERIAL
  2
AcDbMaterial
  3
ObjectDBX Classes
 90
        0
280
     0
281
     0
  0
CLASS
  1
VISUALSTYLE
  2
AcDbVisualStyle
  3
ObjectDBX Classes
 90
     4095
280
     0
281
     0
  0
CLASS
  1
SCALE
  2
AcDbScale
  3
ObjectDBX Classes
 90
     1153
280
     0
281
     0
  0
CLASS
  1
MLEADERSTYLE
  2
AcDbMLeaderStyle
  3
ACDB_MLEADERSTYLE_CLASS
 90
     4095
280
     0
281
     0
  0
CLASS
  1
ACME_DOCUMENT
  2
AcMeDbDoc
  3
AcMeServices
 90
    33792
280
     0
281
     0
  0
CLASS
  1
ACMESCOPE
  2
AcMeScope
  3
AcMeServices
 90
    33792
280
     0
281
     0
  0
CLASS
  1
ACMECOMMANDHISTORY
  2
AcMeCommandHistory
  3
AcMeServices
 90
    33792
280
     0
281
     0
  0
CLASS
  1
ACIMSYSVARMAN
  2
AcImSysVarManager
  3
AcMeServices
 90
    33792
280
     0
281
     0
  0
CLASS
  1
ACIMINTSYSVAR
  2
AcImIntSysVar
  3
AcMeServices
 90
    33792
280
     0
281
     0
  0
CLASS
  1
ACMESTATEMGR
  2
AcMeStateMgr
  3
AcMeServices
 90
    33792
280
     0
281
     0
  0
CLASS
  1
ACDBENTITYCACHE
  2
AcMeEntityCache
  3
AcMeServices
 90
    33792
280
     0
281
     0
  0
CLASS
  1
ACGREFMASTER
  2
AcGrefMaster
  3
AcAttribServices
 90
    33792
280
     0
281
     0
  0
CLASS
  1
AM_DRAWING_MGR
  2
AcDmDwgMgr
  3
AcMechDwgViewMgmt
 90
    33792
280
     0
281
     0
  0
CLASS
  1
AM_DWG_DOCUMENT
  2
AcDmDwgDocument
  3
AcMechDwgViewMgmt
 90
    33792
280
     0
281
     0
  0
CLASS
  1
AM_DWG_SHEET
  2
AcDmSheet
  3
AcMechDwgViewMgmt
 90
    33792
280
     0
281
     0
  0
CLASS
  1
AM_VIEWDIMPARMAP
  2
AcDmViewDimParMap
  3
AcMechDwgViewMgmt
 90
    33792
280
     0
281
     0
  0
CLASS
  1
AMDTINTERNALREACTOR
  2
AmdtInternalReactor
  3
AcMeServices
 90
    33792
280
     0
281
     0
  0
CLASS
  1
ACIMREALSYSVAR
  2
AcImRealSysVar
  3
AcMeServices
 90
    33792
280
     0
281
     0
  0
CLASS
  1
AM_DWGMGR_NAME
  2
AcDmDwgMgrName
  3
AcMechDwgViewMgmt
 90
    33792
280
     0
281
     0
  0
CLASS
  1
ACME_DATABASE
  2
AcMeDbDatabase
  3
AcMeServices
 90
    33792
280
     0
281
     0
  0
CLASS
  1
ACRFINSADJUSTERMGR
  2
AcRfInsAdjusterMgr
  3
AcMeServices
 90
    33792
280
     0
281
     0
  0
CLASS
  1
ACGREFACADMASTER
  2
AcGrefacadMaster
  3
AcGrefServices
 90
    33792
280
     0
281
     0
  0
CLASS
  1
AMDTMENUSTATEMGR
  2
AmdtMenuStateMgr
  3
McadcomServices
 90
    33792
280
     0
281
     0
  0
CLASS
  1
AMDTMCOMMENUSTATE
  2
AmdtMcomMenuState
  3
McadcomServices
 90
    33792
280
     0
281
     0
  0
CLASS
  1
AMIMASTER
  2
AmiMaster
  3
AmiServices
 90
    33792
280
     0
281
     0
  0
CLASS
  1
AMGSETTINGSOBJ
  2
AmgSettingsObj
  3
"AcadM|Product Description: AutoCAD Mechanical|Company: Autodesk, Inc."
 90
    33792
280
     0
281
     0
  0
CLASS
  1
MAPIAMMOUDLE
  2
MApiAmModule
  3
MApiAmServices
 90
    33792
280
     0
281
     0
  0
CLASS
  1
ACIMSTRSYSVAR
  2
AcImStrSysVar
  3
AcMeServices
 90
    33792
280
     0
281
     0
  0
CLASS
  1
AMDTDMMENUSTATE
  2
AmdtDmMenuState
  3
AcMechDwgViewMgmt
 90
    33792
280
     0
281
     0
  0
CLASS
  1
AMDTAMMENUSTATE
  2
AmdtAmMenuState
  3
DesignerAssemblies
 90
    33792
280
     0
281
     0
  0
CLASS
  1
ACAMPROJECT
  2
AcAmProject
  3
DesignerAssemblies
 90
    33792
280
     0
281
     0
  0
CLASS
  1
ACAMGRCOMPDEF
  2
AcAmGrCompDef
  3
DesignerAssemblies
 90
    33792
280
     0
281
     0
  0
CLASS
  1
ACAMCOMPDEF
  2
AcAmCompDef
  3
DesignerAssemblies
 90
    33792
280
     0
281
     0
  0
CLASS
  1
ACAMCOMPDEFMGR
  2
AcAmCompDefMgr
  3
DesignerAssemblies
 90
    33792
280
     0
281
     0
  0
CLASS
  1
AMCONTEXTMGR
  2
AcAmContextMgr
  3
DesignerAssemblies
 90
    33792
280
     0
281
     0
  0
CLASS
  1
ACAMCONTEXTMODELER
  2
AcAmContextModeler
  3
DesignerAssemblies
 90
    33792
280
     0
281
     0
  0
CLASS
  1
ACMDATADICTIONARY
  2
AcmDataDictionary
  3
"AcmSymBB|Product Description: AutoCAD Mechanical|Company: Autodesk, Inc."
 90
    33792
280
     0
281
     0
  0
CLASS
  1
ACAMGRCOMPDEFSET
  2
AcAmGrCompDefSet
  3
DesignerAssemblies
 90
    33792
280
     0
281
     0
  0
CLASS
  1
AMDTBROWSERDBTAB
  2
AmdtBrowserDbTab
  3
McadcomServices
 90
    33792
280
     0
281
     0
  0
CLASS
  1
CBROWSERAPPOBJECT
  2
CBrowserAppObject
  3
McadcomServices
 90
    33792
280
     0
281
     0
  0
CLASS
  1
DM_PLACEHOLDER
  2
AcDmSelsetPlaceholder
  3
AcMechDwgViewMgmt
 90
    33792
280
     0
281
     0
  0
CLASS
  1
ACMSTANDARDISO
  2
AcmStandardISO
  3
"Amdt_StdImp|Product Description: AutoCAD Mechanical|Company: Autodesk, Inc."
 90
    33792
280
     0
281
     0
  0
CLASS
  1
AMDTEDGESTANDARDISO13715
  2
AmdtEdgeStdISO13715
  3
"Amdt_StdImp|Product Description: AutoCAD Mechanical|Company: Autodesk, Inc."
 90
    33792
280
     0
281
     0
  0
CLASS
  1
ACMSURFSTANDARDISO2002
  2
AcmSurfTextStdISO2002
  3
"Amdt_StdImp|Product Description: AutoCAD Mechanical|Company: Autodesk, Inc."
 90
    33792
280
     0
281
     0
  0
CLASS
  1
ACMFCFSTANDARDISO
  2
AcmFCFStdISO
  3
"Amdt_StdImp|Product Description: AutoCAD Mechanical|Company: Autodesk, Inc."
 90
    33792
280
     0
281
     0
  0
CLASS
  1
ACMWELDSTANDARDISO
  2
AcmWeldingStdISO
  3
"Amdt_StdImp|Product Description: AutoCAD Mechanical|Company: Autodesk, Inc."
 90
    33792
280
     0
281
     0
  0
CLASS
  1
ACMIDSTANDARDISO
  2
AcmIdStdISO
  3
"Amdt_StdImp|Product Description: AutoCAD Mechanical|Company: Autodesk, Inc."
 90
    33792
280
     0
281
     0
  0
CLASS
  1
ACMDATUMSTANDARDISO
  2
AcmDatumStdISO
  3
"Amdt_StdImp|Product Description: AutoCAD Mechanical|Company: Autodesk, Inc."
 90
    33792
280
     0
281
     0
  0
CLASS
  1
ACMBOMSTANDARDISO
  2
AcmBOMStdISO
  3
"Amdt_StdImp|Product Description: AutoCAD Mechanical|Company: Autodesk, Inc."
 90
    33792
280
     0
281
     0
  0
CLASS
  1
ACMDETAILSTANDARDISO
  2
AmdtDetailSymStdISO
  3
"Amdt_StdImp|Product Description: AutoCAD Mechanical|Company: Autodesk, Inc."
 90
    33792
280
     0
281
     0
  0
CLASS
  1
ACMSECTIONSTANDARDISO2001
  2
AmdtSectionSymStdISO2001
  3
"Amdt_StdImp|Product Description: AutoCAD Mechanical|Company: Autodesk, Inc."
 90
    33792
280
     0
281
     0
  0
CLASS
  1
ACMCENTERLINESTANDARDISO
  2
AmdtCenterLineStdISO
  3
"Amdt_StdImp|Product Description: AutoCAD Mechanical|Company: Autodesk, Inc."
 90
    33792
280
     0
281
     0
  0
CLASS
  1
ACMTHREADLINESTANDARDISO
  2
AmdtThreadLineStdISO
  3
"Amdt_StdImp|Product Description: AutoCAD Mechanical|Company: Autodesk, Inc."
 90
    33792
280
     0
281
     0
  0
CLASS
  1
ACMNOTESTANDARDISO
  2
AmdtNoteStdISO
  3
"Amdt_StdImp|Product Description: AutoCAD Mechanical|Company: Autodesk, Inc."
 90
    33792
280
     0
281
     0
  0
CLASS
  1
ACMTAPERSTANDARDISO
  2
AcmTaperStdISO
  3
"Amdt_StdImp|Product Description: AutoCAD Mechanical|Company: Autodesk, Inc."
 90
    33792
280
     0
281
     0
  0
CLASS
  1
ACMANOOTATIONVIEWSTANDARDISO
  2
AmdtAnViewStdISO
  3
"Amdt_StdImp|Product Description: AutoCAD Mechanical|Company: Autodesk, Inc."
 90
    33792
280
     0
281
     0
  0
CLASS
  1
ACAMGLAYSTD
  2
AcAmgLayStd
  3
"AmgLay|Product Description: AutoCAD Mechanical|Company: Autodesk, Inc."
 90
    33792
280
     0
281
     0
  0
CLASS
  1
ACAMGDIMSTD
  2
AcAmgDimStd
  3
"AmgDim|Product Description: AutoCAD Mechanical|Company: Autodesk, Inc."
 90
    33792
280
     0
281
     0
  0
CLASS
  1
AMGOBJPROPCFG
  2
AmgObjPropCfg
  3
"AmgLay|Product Description: AutoCAD Mechanical|Company: Autodesk, Inc."
 90
    33793
280
     0
281
     0
  0
CLASS
  1
ACAMGHOLECHARTSTDISO
  2
AcAmgHoleChartStdISO
  3
AmgDim|Product Description: AutoCAD Mechanical|Company: Autodesk, Inc.
 90
    33792
280
     0
281
     0
  0
CLASS
  1
ACAMGTITLESTD
  2
AcAmgTitleStd
  3
"AmgTitle|Product Description: AutoCAD Mechanical|Company: Autodesk, Inc."
 90
    36863
280
     0
281
     0
  0
CLASS
  1
AMDTNOTETEMPLATEDB
  2
AmdtNoteTemplateDB
  3
AcmSymBB|Product Description: AutoCAD Mechanical|Company: Autodesk, Inc.
 90
    33792
280
     0
281
     0
  0
CLASS
  1
EXACXREFPANELOBJECT
  2
ExAcXREFPanelObject
  3
EXAC_ESW
 90
    33793
280
     0
281
     0
  0
CLASS
  1
NPOCOLLECTION
  2
AcDbImpNonPersistentObjectsCollection
  3
ObjectDBX Classes
 90
    33921
280
     0
281
     0
  0
CLASS
  1
ACAMGFILTERDAT
  2
AcAmgFilterDat
  3
"AcadM|Product Description: AutoCAD Mechanical|Company: Autodesk, Inc."
 90
    33792
280
     0
281
     0
  0
CLASS
  1
CELLSTYLEMAP
  2
AcDbCellStyleMap
  3
ObjectDBX Classes
 90
     1152
280
     0
281
     0
  0
CLASS
  1
MULTILEADER
  2
AcDbMLeader
  3
ACDB_MLEADER_CLASS
 90
    33793
280
     0
281
     1
  0
CLASS
  1
DIMASSOC
  2
AcDbDimAssoc
  3
"AcDbDimAssoc|Product Desc:     AcDim ARX App For Dimension|Company:          Autodesk, Inc.|WEB Address:      www.autodesk.com"
 90
    32768
280
     0
281
     0
  0
CLASS
  1
CAMSSTRUCTBTNSTATE
  2
StructBtnState
  3
DesignerAssemblies
 90
    33792
280
     0
281
     0
  0
ENDSEC
  0
SECTION
  2
TABLES
  0
TABLE
  2
VPORT
  5
8
102
{ACAD_XDICTIONARY
360
9C5F
102
}
330
0
100
AcDbSymbolTable
 70
     2
  0
VPORT
  5
A09C
330
8
100
AcDbSymbolTableRecord
100
AcDbViewportTableRecord
  2
*Active
 70
     0
 10
0.0
 20
0.0
 11
1.0
 21
1.0
 12
291.4567584531391
 22
112.7447952114569
 13
0.0
 23
0.0
 14
10.0
 24
10.0
 15
10.0
 25
10.0
 16
0.0
 26
0.0
 36
1.0
 17
0.0
 27
0.0
 37
0.0
 40
313.4212697870347
 41
2.647181628392484
 42
50.0
 43
0.0
 44
0.0
 50
0.0
 51
0.0
 71
     0
 72
 20000
 73
     1
 74
     1
 75
     0
 76
     0
 77
     0
 78
     0
281
     0
 65
     0
110
0.0
120
0.0
130
0.0
111
1.0
121
0.0
131
0.0
112
0.0
122
1.0
132
0.0
 79
     0
146
0.0
  0
ENDTAB
  0
TABLE
  2
LTYPE
  5
5
330
0
100
AcDbSymbolTable
 70
    20
  0
LTYPE
  5
12
330
5
100
AcDbSymbolTableRecord
100
AcDbLinetypeTableRecord
  2
BYBLOCK
 70
     0
  3

 72
    65
 73
     0
 40
0.0
  0
LTYPE
  5
13
330
5
100
AcDbSymbolTableRecord
100
AcDbLinetypeTableRecord
  2
BYLAYER
 70
     0
  3

 72
    65
 73
     0
 40
0.0
  0
LTYPE
  5
14
330
5
100
AcDbSymbolTableRecord
100
AcDbLinetypeTableRecord
  2
CONTINUOUS
 70
     0
  3
Solid line
 72
    65
 73
     0
 40
0.0
  0
LTYPE
  5
9D
330
5
100
AcDbSymbolTableRecord
100
AcDbLinetypeTableRecord
  2
CENTERX2
 70
     0
  3
Center (2x) ________  __  ________  __  _____
 72
    65
 73
     4
 40
101.6
 49
63.5
 74
     0
 49
-12.7
 74
     0
 49
12.7
 74
     0
 49
-12.7
 74
     0
  0
LTYPE
  5
A1
330
5
100
AcDbSymbolTableRecord
100
AcDbLinetypeTableRecord
  2
DASHED
 70
     0
  3
Dashed __ __ __ __ __ __ __ __ __ __ __ __ __ _
 72
    65
 73
     2
 40
19.05
 49
12.7
 74
     0
 49
-6.349999999999999
 74
     0
  0
LTYPE
  5
A2
330
5
100
AcDbSymbolTableRecord
100
AcDbLinetypeTableRecord
  2
DASHED2
 70
     0
  3
Dashed (.5x) _ _ _ _ _ _ _ _ _ _ _ _ _ _ _ _ _
 72
    65
 73
     2
 40
9.524999999999998
 49
6.349999999999999
 74
     0
 49
-3.174999999999999
 74
     0
  0
LTYPE
  5
A5
330
5
100
AcDbSymbolTableRecord
100
AcDbLinetypeTableRecord
  2
DIVIDE2
 70
     0
  3
Divide (.5x) __..__..__..__..__..__..__..__.._
 72
    65
 73
     6
 40
15.875
 49
6.349999999999999
 74
     0
 49
-3.174999999999999
 74
     0
 49
0.0
 74
     0
 49
-3.174999999999999
 74
     0
 49
0.0
 74
     0
 49
-3.174999999999999
 74
     0
  0
LTYPE
  5
650B
330
5
100
AcDbSymbolTableRecord
100
AcDbLinetypeTableRecord
  2
CENTER
 70
     0
  3
Center ____ _ ____ _ ____ _ ____ _ ____ _ ____
 72
    65
 73
     4
 40
50.8
 49
31.75
 74
     0
 49
-6.349999999999999
 74
     0
 49
6.349999999999999
 74
     0
 49
-6.349999999999999
 74
     0
  0
LTYPE
  5
650C
330
5
100
AcDbSymbolTableRecord
100
AcDbLinetypeTableRecord
  2
HIDDEN
 70
     0
  3
Hidden __ __ __ __ __ __ __ __ __ __ __ __ __ _
 72
    65
 73
     2
 40
9.524999999999998
 49
6.349999999999999
 74
     0
 49
-3.174999999999999
 74
     0
  0
LTYPE
  5
92C7
330
5
100
AcDbSymbolTableRecord
100
AcDbLinetypeTableRecord
  2
PHANTOM2
 70
     0
  3
Phantom (.5x) ___ _ _ ___ _ _ ___ _ _ ___ _ _
 72
    65
 73
     6
 40
31.75
 49
15.875
 74
     0
 49
-3.174999999999999
 74
     0
 49
3.174999999999999
 74
     0
 49
-3.174999999999999
 74
     0
 49
3.174999999999999
 74
     0
 49
-3.174999999999999
 74
     0
  0
LTYPE
  5
9309
330
5
100
AcDbSymbolTableRecord
100
AcDbLinetypeTableRecord
  2
AM_ISO02W050
 70
     0
  3
__ __ __ __ __ __ __ __ __ __ __ __ __ __ __
 72
    65
 73
     2
 40
7.5
 49
6.0
 74
     0
 49
-1.5
 74
     0
  0
LTYPE
  5
930A
330
5
100
AcDbSymbolTableRecord
100
AcDbLinetypeTableRecord
  2
AM_ISO08W050
 70
     0
  3
____ . ____ . ____ . ____ . ____ . ____ . ____
 72
    65
 73
     4
 40
18.0
 49
12.0
 74
     0
 49
-1.5
 74
     0
 49
3.0
 74
     0
 49
-1.5
 74
     0
  0
LTYPE
  5
930B
330
5
100
AcDbSymbolTableRecord
100
AcDbLinetypeTableRecord
  2
AM_ISO09W050
 70
     0
  3
_____ . . _____ . . _____ . . ____ .. ____
 72
    65
 73
     6
 40
22.5
 49
12.0
 74
     0
 49
-1.5
 74
     0
 49
3.0
 74
     0
 49
-1.5
 74
     0
 49
3.0
 74
     0
 49
-1.5
 74
     0
  0
LTYPE
  5
930C
330
5
100
AcDbSymbolTableRecord
100
AcDbLinetypeTableRecord
  2
Amconstr
 70
     0
  3
_______________________
 72
    65
 73
     2
 40
9999.0
 49
9999.0
 74
     0
 49
0.0
 74
     0
  0
LTYPE
  5
930D
330
5
100
AcDbSymbolTableRecord
100
AcDbLinetypeTableRecord
  2
AM_ISO08W050x2
 70
     0
  3
__ . __ . __ . __ . __ . __
 72
    65
 73
     4
 40
9.0
 49
6.0
 74
     0
 49
-0.75
 74
     0
 49
1.5
 74
     0
 49
-0.75
 74
     0
  0
LTYPE
  5
930E
330
5
100
AcDbSymbolTableRecord
100
AcDbLinetypeTableRecord
  2
AM_ISO02W050x2
 70
     0
  3
 _ _ _ _ _ _ _ _ _ _ _ _
 72
    65
 73
     2
 40
3.75
 49
3.0
 74
     0
 49
-0.75
 74
     0
  0
LTYPE
  5
9311
330
5
100
AcDbSymbolTableRecord
100
AcDbLinetypeTableRecord
  2
Amzigzag
 70
     0
  3
/\/-/\/-/\/-/\/-/\/-/\/
 72
    65
 73
     2
 40
11.0001
 49
0.0001
 74
     4
 75
   136
340
9310
 46
0.04
 50
0.0
 44
0.0
 45
0.0
 49
-11.0
 74
     0
  0
LTYPE
  5
9320
330
5
100
AcDbSymbolTableRecord
100
AcDbLinetypeTableRecord
  2
ACISOWELD
 70
     0
  3
_ _ _ _ _
 72
    65
 73
     2
 40
2.0
 49
2.0
 74
     0
 49
-1.0
 74
     0
  0
LTYPE
  5
9321
330
5
100
AcDbSymbolTableRecord
100
AcDbLinetypeTableRecord
  2
ACISOTGB
 70
     0
  3
__ . . __ . .
 72
    65
 73
     6
 40
9.0
 49
4.0
 74
     0
 49
-1.0
 74
     0
 49
1.0
 74
     0
 49
-1.0
 74
     0
 49
1.0
 74
     0
 49
-1.0
 74
     0
  0
LTYPE
  5
9322
330
5
100
AcDbSymbolTableRecord
100
AcDbLinetypeTableRecord
  2
ACISOTGL
 70
     0
  3
_ _ _ _ _
 72
    65
 73
     2
 40
3.0
 49
2.0
 74
     0
 49
-1.0
 74
     0
  0
LTYPE
  5
96B7
330
5
100
AcDbSymbolTableRecord
100
AcDbLinetypeTableRecord
  2
ACAD_ISO02W100
 70
     0
  3
ISO dash __ __ __ __ __ __ __ __ __ __ __ __ __
 72
    65
 73
     2
 40
15.0
 49
12.0
 74
     0
 49
-3.0
 74
     0
  0
LTYPE
  5
96B8
330
5
100
AcDbSymbolTableRecord
100
AcDbLinetypeTableRecord
  2
ACAD_ISO04W100
 70
     0
  3
ISO long-dash dot ____ . ____ . ____ . ____ . _
 72
    65
 73
     4
 40
30.0
 49
24.0
 74
     0
 49
-3.0
 74
     0
 49
0.0
 74
     0
 49
-3.0
 74
     0
  0
ENDTAB
  0
TABLE
  2
LAYER
  5
2
102
{ACAD_XDICTIONARY
360
7FFF
102
}
330
0
100
AcDbSymbolTable
 70
    12
  0
LAYER
  5
E
102
{ACAD_XDICTIONARY
360
9211
102
}
330
2
100
AcDbSymbolTableRecord
100
AcDbLayerTableRecord
  2
0
 70
     0
 62
     7
  6
CONTINUOUS
370
    -3
390
5CF2
  0
LAYER
  5
B9
102
{ACAD_XDICTIONARY
360
9213
102
}
330
2
100
AcDbSymbolTableRecord
100
AcDbLayerTableRecord
  2
dim
 70
     0
 62
     3
  6
CONTINUOUS
370
    -3
390
5CF2
  0
LAYER
  5
F2
330
2
100
AcDbSymbolTableRecord
100
AcDbLayerTableRecord
  2
DEFPOINTS
 70
     0
 62
     7
  6
CONTINUOUS
290
     0
370
    -3
390
5CF2
  0
LAYER
  5
5F8B
102
{ACAD_XDICTIONARY
360
9215
102
}
330
2
100
AcDbSymbolTableRecord
100
AcDbLayerTableRecord
  2
mark
 70
     0
 62
     6
  6
CONTINUOUS
370
    -3
390
5CF2
  0
LAYER
  5
644E
102
{ACAD_XDICTIONARY
360
9217
102
}
330
2
100
AcDbSymbolTableRecord
100
AcDbLayerTableRecord
  2
frame
 70
     0
 62
     9
  6
CONTINUOUS
370
    -3
390
5CF2
  0
LAYER
  5
650D
102
{ACAD_XDICTIONARY
360
9219
102
}
330
2
100
AcDbSymbolTableRecord
100
AcDbLayerTableRecord
  2
center
 70
     0
 62
     1
  6
CENTER
370
    -3
390
5CF2
  0
LAYER
  5
650E
102
{ACAD_XDICTIONARY
360
921B
102
}
330
2
100
AcDbSymbolTableRecord
100
AcDbLayerTableRecord
  2
bowel
 70
     0
 62
     4
  6
HIDDEN
370
    -3
390
5CF2
  0
LAYER
  5
650F
102
{ACAD_XDICTIONARY
360
921D
102
}
330
2
100
AcDbSymbolTableRecord
100
AcDbLayerTableRecord
  2
contour
 70
     0
 62
     2
  6
CONTINUOUS
370
    -3
390
5CF2
  0
LAYER
  5
6510
102
{ACAD_XDICTIONARY
360
921F
102
}
330
2
100
AcDbSymbolTableRecord
100
AcDbLayerTableRecord
  2
section
 70
     0
 62
     5
  6
CONTINUOUS
370
    -3
390
5CF2
  0
LAYER
  5
7D87
102
{ACAD_XDICTIONARY
360
9221
102
}
330
2
100
AcDbSymbolTableRecord
100
AcDbLayerTableRecord
  2
TXT
 70
     0
 62
     3
  6
DASHED
370
    -3
390
5CF2
  0
LAYER
  5
96B9
102
{ACAD_XDICTIONARY
360
96BA
102
}
330
2
100
AcDbSymbolTableRecord
100
AcDbLayerTableRecord
  2
3
 70
     0
 62
     2
  6
CONTINUOUS
370
     9
390
5CF2
  0
LAYER
  5
96BB
102
{ACAD_XDICTIONARY
360
96BC
102
}
330
2
100
AcDbSymbolTableRecord
100
AcDbLayerTableRecord
  2
4
 70
     0
 62
     6
  6
CONTINUOUS
370
     9
390
5CF2
  0
ENDTAB
  0
TABLE
  2
STYLE
  5
3
330
0
100
AcDbSymbolTable
 70
     8
  0
STYLE
  5
F
330
3
100
AcDbSymbolTableRecord
100
AcDbTextStyleTableRecord
  2
STANDARD
 70
     0
 40
0.0
 41
1.0
 50
0.0
 71
     0
 42
2.5
  3
txt
  4

  0
STYLE
  5
BE
330
3
100
AcDbSymbolTableRecord
100
AcDbTextStyleTableRecord
  2
ISOCP3
 70
     0
 40
0.0
 41
1.0
 50
0.0
 71
     0
 42
2.5
  3
isocp3.shx
  4

  0
STYLE
  5
2A37
330
3
100
AcDbSymbolTableRecord
100
AcDbTextStyleTableRecord
  2
TXT
 70
     0
 40
0.0
 41
1.0
 50
0.0
 71
     0
 42
2.5
  3
txt.shx
  4
bigfont.shx
  0
STYLE
  5
5DCB
330
3
100
AcDbSymbolTableRecord
100
AcDbTextStyleTableRecord
  2
LKK
 70
     0
 40
50.0
 41
1.5
 50
0.0
 71
     0
 42
50.0
  3
MS PGothic.ttf
  4

1001
ACAD
1000
MS PGothic
1071
    32818
  0
STYLE
  5
5DCC
330
3
100
AcDbSymbolTableRecord
100
AcDbTextStyleTableRecord
  2
JL
 70
     0
 40
10.0
 41
0.5
 50
0.0
 71
     0
 42
5.0
  3
MS Mincho.ttf
  4

1001
ACAD
1000
MS Mincho
1071
    32785
  0
STYLE
  5
9310
330
3
100
AcDbSymbolTableRecord
100
AcDbTextStyleTableRecord
  2

 70
     1
 40
0.0
 41
1.0
 50
0.0
 71
     0
 42
2.5
  3
genltshp.shx
  4

  0
STYLE
  5
931E
330
3
100
AcDbSymbolTableRecord
100
AcDbTextStyleTableRecord
  2
ACISOTS
 70
     0
 40
1.0
 41
1.0
 50
0.0
 71
     0
 42
2.5
  3
isocp.shx
  4
chineset.shx
  0
STYLE
  5
931F
330
3
100
AcDbSymbolTableRecord
100
AcDbTextStyleTableRecord
  2
ACISOGDT
 70
     0
 40
0.0
 41
1.0
 50
0.0
 71
     0
 42
2.5
  3
amgdt.shx
  4

  0
ENDTAB
  0
TABLE
  2
VIEW
  5
6
330
0
100
AcDbSymbolTable
 70
     0
  0
ENDTAB
  0
TABLE
  2
UCS
  5
7
330
0
100
AcDbSymbolTable
 70
     0
  0
ENDTAB
  0
TABLE
  2
APPID
  5
9
330
0
100
AcDbSymbolTable
 70
    28
  0
APPID
  5
10
330
9
100
AcDbSymbolTableRecord
100
AcDbRegAppTableRecord
  2
ACAD
 70
     0
  0
APPID
  5
80AD
330
9
100
AcDbSymbolTableRecord
100
AcDbRegAppTableRecord
  2
ACAD_DSTYLE_DIMEXT_LENGTH
 70
     0
  0
APPID
  5
80AE
330
9
100
AcDbSymbolTableRecord
100
AcDbRegAppTableRecord
  2
ACAD_DSTYLE_DIMEXT_ENABLED
 70
     0
  0
APPID
  5
80AF
330
9
100
AcDbSymbolTableRecord
100
AcDbRegAppTableRecord
  2
ACAD_DSTYLE_DIMJOGGED_JOGANGLE_SYMBOL
 70
     0
  0
APPID
  5
80B0
330
9
100
AcDbSymbolTableRecord
100
AcDbRegAppTableRecord
  2
ACAD_DSTYLE_DIMARC_LENGTH_SYMBOL
 70
     0
  0
APPID
  5
84D9
330
9
100
AcDbSymbolTableRecord
100
AcDbRegAppTableRecord
  2
ACAD_EXEMPT_FROM_CAD_STANDARDS
 70
     0
  0
APPID
  5
84F6
330
9
100
AcDbSymbolTableRecord
100
AcDbRegAppTableRecord
  2
ACAD_DSTYLE_DIMTEXT_FILL
 70
     0
  0
APPID
  5
84F9
330
9
100
AcDbSymbolTableRecord
100
AcDbRegAppTableRecord
  2
ACAD_DSTYLE_DIM_LINETYPE
 70
     0
  0
APPID
  5
84FA
330
9
100
AcDbSymbolTableRecord
100
AcDbRegAppTableRecord
  2
ACAD_DSTYLE_DIM_EXT1_LINETYPE
 70
     0
  0
APPID
  5
84FB
330
9
100
AcDbSymbolTableRecord
100
AcDbRegAppTableRecord
  2
ACAD_DSTYLE_DIM_EXT2_LINETYPE
 70
     0
  0
APPID
  5
8F4D
330
9
100
AcDbSymbolTableRecord
100
AcDbRegAppTableRecord
  2
ACAD_PSEXT
 70
     0
  0
APPID
  5
9045
330
9
100
AcDbSymbolTableRecord
100
AcDbRegAppTableRecord
  2
ACADSTRINGINFO
 70
     0
  0
APPID
  5
929E
330
9
100
AcDbSymbolTableRecord
100
AcDbRegAppTableRecord
  2
MCAD_NO_VIS
 70
     0
  0
APPID
  5
929F
330
9
100
AcDbSymbolTableRecord
100
AcDbRegAppTableRecord
  2
ACAD_TEMP_GRAPHIC
 70
     0
  0
APPID
  5
92C9
330
9
100
AcDbSymbolTableRecord
100
AcDbRegAppTableRecord
  2
AD_DRAW
 70
     0
  0
APPID
  5
92CC
330
9
100
AcDbSymbolTableRecord
100
AcDbRegAppTableRecord
  2
ACATTRIBSERVICES
 70
     0
  0
APPID
  5
92E9
330
9
100
AcDbSymbolTableRecord
100
AcDbRegAppTableRecord
  2
DESIGNERASSEMBLIES
 70
     0
  0
APPID
  5
92EE
330
9
100
AcDbSymbolTableRecord
100
AcDbRegAppTableRecord
  2
ACADM_DIM_EDIT
 70
     0
  0
APPID
  5
92EF
330
9
100
AcDbSymbolTableRecord
100
AcDbRegAppTableRecord
  2
AMDT_DM_ADJ
 70
     0
  0
APPID
  5
9306
330
9
100
AcDbSymbolTableRecord
100
AcDbRegAppTableRecord
  2
ACAD_DSTYLE_DIMJAG
 70
     0
  0
APPID
  5
9307
330
9
100
AcDbSymbolTableRecord
100
AcDbRegAppTableRecord
  2
ACAD_DSTYLE_DIMBREAK
 70
     0
  0
APPID
  5
96BF
330
9
100
AcDbSymbolTableRecord
100
AcDbRegAppTableRecord
  2
AcadAnnotative
 70
     0
  0
APPID
  5
96C0
330
9
100
AcDbSymbolTableRecord
100
AcDbRegAppTableRecord
  2
ACAD_DSTYLE_DIMTALN
 70
     0
  0
APPID
  5
9A5F
330
9
100
AcDbSymbolTableRecord
100
AcDbRegAppTableRecord
  2
GRADIENTCOLOR1ACI
 70
     0
  0
APPID
  5
9A60
330
9
100
AcDbSymbolTableRecord
100
AcDbRegAppTableRecord
  2
GRADIENTCOLOR2ACI
 70
     0
  0
APPID
  5
9C43
330
9
100
AcDbSymbolTableRecord
100
AcDbRegAppTableRecord
  2
ACAD_DSTYLE_DIMINSPECT
 70
     0
  0
APPID
  5
9CDC
330
9
100
AcDbSymbolTableRecord
100
AcDbRegAppTableRecord
  2
ACAD_MLEADERVER
 70
     0
  0
APPID
  5
9DE3
330
9
100
AcDbSymbolTableRecord
100
AcDbRegAppTableRecord
  2
ACAD_DSTYLE_DIMRADIAL_EXTENSION
 70
     0
  0
ENDTAB
  0
TABLE
  2
DIMSTYLE
  5
A
330
0
100
AcDbSymbolTable
 70
    11
100
AcDbDimStyleTable
 71
     1
340
1D
  0
DIMSTYLE
105
1D
102
{ACAD_REACTORS
330
9A62
330
9A6F
330
9A85
330
9A92
330
9ACD
330
9C1C
330
9C29
330
9C36
330
9DE4
330
9DF4
330
9E03
102
}
330
A
100
AcDbSymbolTableRecord
100
AcDbDimStyleTableRecord
  2
STANDARD
 70
     0
 41
3.0
 42
0.8
 44
0.8
 73
     0
 74
     0
 77
     3
 78
     8
 79
     2
140
2.5
147
0.8
172
     1
176
   256
177
   256
178
     3
179
     2
271
     2
272
     2
340
F
341
8014
342
8014
1001
ACAD_DSTYLE_DIMEXT_LENGTH
1070
   378
1040
0.18
1001
ACAD_DSTYLE_DIMJOGGED_JOGANGLE_SYMBOL
1070
   384
1040
1.570796326794896
  0
DIMSTYLE
105
8FEC
330
A
100
AcDbSymbolTableRecord
100
AcDbDimStyleTableRecord
  2
A
 70
     0
 41
2.5
 42
1.0
 43
6.0
 44
1.0
 73
     0
 74
     0
 77
     3
 78
     8
140
3.0
141
0.0
147
1.0
176
     6
177
     6
178
     3
271
     1
272
     1
279
     1
340
2A37
  0
DIMSTYLE
105
9305
330
A
100
AcDbSymbolTableRecord
100
AcDbDimStyleTableRecord
  2
AM_ISO
 70
     0
  4
"
 41
3.5
 42
1.0
 43
10.0
 44
1.0
 47
0.1
 48
0.1
 73
     0
 74
     0
 77
     1
 78
     8
 79
     2
140
3.5
141
0.0
143
0.0393701
146
0.71
147
1.5
172
     1
176
   256
177
   256
178
     2
271
     2
272
     3
274
     4
283
     0
284
     8
340
F
371
    -1
372
    -1
1001
ACAD_DSTYLE_DIMJAG
1070
   388
1040
1.5
1001
ACAD_DSTYLE_DIMBREAK
1070
   391
1040
3.75
1001
ACAD_DSTYLE_DIMARC_LENGTH_SYMBOL
1070
   379
1070
     1
1001
ACAD_DSTYLE_DIM_LINETYPE
1070
   380
1005
12
1001
ACAD_DSTYLE_DIM_EXT1_LINETYPE
1070
   381
1005
12
1001
ACAD_DSTYLE_DIM_EXT2_LINETYPE
1070
   382
1005
12
  0
DIMSTYLE
105
9312
330
A
100
AcDbSymbolTableRecord
100
AcDbDimStyleTableRecord
  2
AM_ISO$3
 70
     0
  4
"
 41
3.5
 42
1.0
 43
10.0
 44
1.0
 47
0.1
 48
0.1
 73
     0
 77
     1
 78
     8
 79
     2
140
3.5
141
0.0
143
0.0393701
146
0.71
147
1.5
176
   256
177
   256
178
     2
271
     2
272
     3
274
     4
283
     0
284
     8
288
     1
289
     0
340
F
371
    -1
372
    -1
1001
ACAD_DSTYLE_DIMBREAK
1070
   391
1040
3.75
1001
ACAD_DSTYLE_DIMJAG
1070
   388
1040
1.5
1001
ACAD_DSTYLE_DIMARC_LENGTH_SYMBOL
1070
   379
1070
     1
1001
ACAD_DSTYLE_DIM_LINETYPE
1070
   380
1005
12
1001
ACAD_DSTYLE_DIM_EXT1_LINETYPE
1070
   381
1005
12
1001
ACAD_DSTYLE_DIM_EXT2_LINETYPE
1070
   382
1005
12
  0
DIMSTYLE
105
9313
330
A
100
AcDbSymbolTableRecord
100
AcDbDimStyleTableRecord
  2
AM_ISO$4
 70
     0
  4
"
 41
3.5
 42
1.0
 43
10.0
 44
1.0
 47
0.1
 48
0.1
 73
     0
 77
     1
 78
     8
 79
     2
140
3.5
141
0.0
143
0.0393701
146
0.71
147
1.5
176
   256
177
   256
178
     2
271
     2
272
     3
274
     4
283
     0
284
     8
288
     1
289
     0
340
F
371
    -1
372
    -1
1001
ACAD_DSTYLE_DIMBREAK
1070
   391
1040
3.75
1001
ACAD_DSTYLE_DIMJAG
1070
   388
1040
1.5
1001
ACAD_DSTYLE_DIMARC_LENGTH_SYMBOL
1070
   379
1070
     1
1001
ACAD_DSTYLE_DIM_LINETYPE
1070
   380
1005
12
1001
ACAD_DSTYLE_DIM_EXT1_LINETYPE
1070
   381
1005
12
1001
ACAD_DSTYLE_DIM_EXT2_LINETYPE
1070
   382
1005
12
  0
DIMSTYLE
105
9314
330
A
100
AcDbSymbolTableRecord
100
AcDbDimStyleTableRecord
  2
AM_ISO$6
 70
     0
  4
"
 41
3.5
 42
1.0
 43
10.0
 44
1.0
 47
0.1
 48
0.1
 73
     0
 74
     0
 78
     8
 79
     2
140
3.5
141
0.0
143
0.0393701
146
0.71
147
1.5
172
     1
176
   256
177
   256
178
     2
271
     2
272
     3
274
     4
283
     0
284
     8
340
F
371
    -1
372
    -1
1001
ACAD_DSTYLE_DIMBREAK
1070
   391
1040
3.75
1001
ACAD_DSTYLE_DIMJAG
1070
   388
1040
1.5
1001
ACAD_DSTYLE_DIMARC_LENGTH_SYMBOL
1070
   379
1070
     1
1001
ACAD_DSTYLE_DIM_LINETYPE
1070
   380
1005
12
1001
ACAD_DSTYLE_DIM_EXT1_LINETYPE
1070
   381
1005
12
1001
ACAD_DSTYLE_DIM_EXT2_LINETYPE
1070
   382
1005
12
  0
DIMSTYLE
105
9315
330
A
100
AcDbSymbolTableRecord
100
AcDbDimStyleTableRecord
  2
AM_ISO$7
 70
     0
  4
"
 41
3.5
 42
1.0
 43
10.0
 44
1.0
 47
0.1
 48
0.1
 73
     0
 74
     0
 77
     1
 78
     8
 79
     2
140
3.5
141
0.0
143
0.0393701
146
0.71
147
1.5
172
     1
176
   256
177
   256
178
     2
271
     2
272
     3
274
     4
283
     0
284
     8
340
F
371
    -1
372
    -1
1001
ACAD_DSTYLE_DIMBREAK
1070
   391
1040
3.75
1001
ACAD_DSTYLE_DIMJAG
1070
   388
1040
1.5
1001
ACAD_DSTYLE_DIMARC_LENGTH_SYMBOL
1070
   379
1070
     1
1001
ACAD_DSTYLE_DIM_LINETYPE
1070
   380
1005
12
1001
ACAD_DSTYLE_DIM_EXT1_LINETYPE
1070
   381
1005
12
1001
ACAD_DSTYLE_DIM_EXT2_LINETYPE
1070
   382
1005
12
  0
DIMSTYLE
105
9316
330
A
100
AcDbSymbolTableRecord
100
AcDbDimStyleTableRecord
  2
AM_ISO$SF
 70
     0
  4
"
 41
3.5
 42
1.0
 43
10.0
 44
1.0
 47
0.1
 48
0.1
 73
     0
 74
     0
 75
     1
 76
     1
 77
     1
 78
     8
 79
     2
140
3.5
141
0.0
143
0.0393701
146
0.71
147
1.5
172
     1
176
   256
177
   256
178
     2
271
     2
272
     3
274
     4
283
     0
284
     8
340
F
371
    -1
372
    -1
1001
ACAD_DSTYLE_DIMBREAK
1070
   391
1040
3.75
1001
ACAD_DSTYLE_DIMJAG
1070
   388
1040
1.5
1001
ACAD_DSTYLE_DIMARC_LENGTH_SYMBOL
1070
   379
1070
     1
1001
ACAD_DSTYLE_DIM_LINETYPE
1070
   380
1005
12
1001
ACAD_DSTYLE_DIM_EXT1_LINETYPE
1070
   381
1005
12
1001
ACAD_DSTYLE_DIM_EXT2_LINETYPE
1070
   382
1005
12
  0
DIMSTYLE
105
931B
330
A
100
AcDbSymbolTableRecord
100
AcDbDimStyleTableRecord
  2
AM_ISO$SH
 70
     0
  4
"
 41
3.5
 42
1.0
 43
10.0
 44
1.0
 47
0.1
 48
0.1
 73
     0
 74
     0
 75
     1
 76
     1
 77
     1
 78
     8
 79
     2
140
3.5
141
0.0
143
0.0393701
144
2.0
146
0.71
147
1.5
172
     1
173
     1
176
   256
177
   256
178
     2
271
     2
272
     3
274
     4
283
     0
284
     8
340
F
343
9317
371
    -1
372
    -1
1001
ACAD_DSTYLE_DIMBREAK
1070
   391
1040
3.75
1001
ACAD_DSTYLE_DIMJAG
1070
   388
1040
1.5
1001
ACAD_DSTYLE_DIMARC_LENGTH_SYMBOL
1070
   379
1070
     1
1001
ACAD_DSTYLE_DIM_LINETYPE
1070
   380
1005
12
1001
ACAD_DSTYLE_DIM_EXT1_LINETYPE
1070
   381
1005
12
1001
ACAD_DSTYLE_DIM_EXT2_LINETYPE
1070
   382
1005
12
  0
DIMSTYLE
105
96BD
330
A
100
AcDbSymbolTableRecord
100
AcDbDimStyleTableRecord
  2
ISO-25
 70
     0
 41
3.5
 42
0.625
 43
3.75
 44
1.25
 73
     0
 74
     0
 77
     1
 78
     8
140
3.0
141
2.5
143
0.03937007874016
147
1.5
171
     3
172
     1
271
     2
272
     2
274
     3
278
    44
283
     0
284
     8
340
F
1001
ACAD_DSTYLE_DIMJAG
1070
   388
1040
1.5
1001
ACAD_DSTYLE_DIMTALN
1070
   392
1070
     0
  0
DIMSTYLE
105
96BE
330
A
100
AcDbSymbolTableRecord
100
AcDbDimStyleTableRecord
  2
Annotative
 70
     0
 40
0.0
 41
2.5
 42
0.625
 43
3.75
 44
1.25
 73
     0
 74
     0
 77
     1
 78
     8
140
2.5
141
2.5
143
0.03937007874016
147
0.625
171
     3
172
     1
271
     2
272
     2
274
     3
278
    44
283
     0
284
     8
340
F
1001
AcadAnnotative
1000
AnnotativeData
1002
{
1070
     1
1070
     1
1002
}
1001
ACAD_DSTYLE_DIMJAG
1070
   388
1040
1.5
1001
ACAD_DSTYLE_DIMTALN
1070
   392
1070
     0
  0
ENDTAB
  0
TABLE
  2
BLOCK_RECORD
  5
1
330
0
100
AcDbSymbolTable
 70
    18
  0
BLOCK_RECORD
  5
18
102
{ACAD_XDICTIONARY
360
45F
102
}
330
1
100
AcDbSymbolTableRecord
100
AcDbBlockTableRecord
  2
*MODEL_SPACE
340
5CF5
  0
BLOCK_RECORD
  5
15
102
{ACAD_XDICTIONARY
360
5D89
102
}
330
1
100
AcDbSymbolTableRecord
100
AcDbBlockTableRecord
  2
*PAPER_SPACE
340
5CF6
  0
BLOCK_RECORD
  5
639D
330
1
100
AcDbSymbolTableRecord
100
AcDbBlockTableRecord
  2
A$C255C26A2
340
0
  0
BLOCK_RECORD
  5
7D25
330
1
100
AcDbSymbolTableRecord
100
AcDbBlockTableRecord
  2
A$C77B462EC
340
0
  0
BLOCK_RECORD
  5
8014
330
1
100
AcDbSymbolTableRecord
100
AcDbBlockTableRecord
  2
_Open30
340
0
102
{BLKREFS
331
9EEC
331
9EED
331
9EF5
331
9EF6
331
9EFE
331
9EFF
331
9F07
331
9F08
331
9F12
331
9F13
331
9F1B
331
9F1C
331
9F24
331
9F25
331
9F2D
331
9F2E
331
9F36
331
9F3E
331
9F3F
331
9F49
331
9F4A
102
}
  0
BLOCK_RECORD
  5
801A
102
{ACAD_XDICTIONARY
360
801B
102
}
330
1
100
AcDbSymbolTableRecord
100
AcDbBlockTableRecord
  2
A
340
0
310
2800000020000000200000000100080000000000000400000000000000000000000000000000000000000000000080000080000000808000800000008000800080800000C0C0C000C0DCC000F0CAA6000020400000206000002080000020A0000020C0000020E00000400000004020000040400000406000004080000040A0
310
000040C0000040E00000600000006020000060400000606000006080000060A0000060C0000060E00000800000008020000080400000806000008080000080A0000080C0000080E00000A0000000A0200000A0400000A0600000A0800000A0A00000A0C00000A0E00000C0000000C0200000C0400000C0600000C0800000C0
310
A00000C0C00000C0E00000E0000000E0200000E0400000E0600000E0800000E0A00000E0C00000E0E00040000000400020004000400040006000400080004000A0004000C0004000E00040200000402020004020400040206000402080004020A0004020C0004020E000404000004040200040404000404060004040800040
310
40A0004040C0004040E00040600000406020004060400040606000406080004060A0004060C0004060E00040800000408020004080400040806000408080004080A0004080C0004080E00040A0000040A0200040A0400040A0600040A0800040A0A00040A0C00040A0E00040C0000040C0200040C0400040C0600040C08000
310
40C0A00040C0C00040C0E00040E0000040E0200040E0400040E0600040E0800040E0A00040E0C00040E0E00080000000800020008000400080006000800080008000A0008000C0008000E00080200000802020008020400080206000802080008020A0008020C0008020E00080400000804020008040400080406000804080
310
008040A0008040C0008040E00080600000806020008060400080606000806080008060A0008060C0008060E00080800000808020008080400080806000808080008080A0008080C0008080E00080A0000080A0200080A0400080A0600080A0800080A0A00080A0C00080A0E00080C0000080C0200080C0400080C0600080C0
310
800080C0A00080C0C00080C0E00080E0000080E0200080E0400080E0600080E0800080E0A00080E0C00080E0E000C0000000C0002000C0004000C0006000C0008000C000A000C000C000C000E000C0200000C0202000C0204000C0206000C0208000C020A000C020C000C020E000C0400000C0402000C0404000C0406000C0
310
408000C040A000C040C000C040E000C0600000C0602000C0604000C0606000C0608000C060A000C060C000C060E000C0800000C0802000C0804000C0806000C0808000C080A000C080C000C080E000C0A00000C0A02000C0A04000C0A06000C0A08000C0A0A000C0A0C000C0A0E000C0C00000C0C02000C0C04000C0C06000
310
C0C08000C0C0A000F0FBFF00A4A0A000808080000000FF0000FF000000FFFF00FF000000FF00FF00FFFF0000FFFFFF0000000000000000000000000000000000000000000000000000000000000000000000000000000000000000000000000000000000000000000000000000000000000000000000000000000000000000
310
00000000000000000000000000000000000000000000000000000000000000000000000000000000000000000000000000000000000000000000000000000000000000000000000000000000000000000000000000000000000000000000000000000000000000000000000000000000000000000000000000000000000000
310
00000000000000000000000000000000000000000000000000000000000000000000000000000000000000000000000000000000000000000000000000000000000000000000000000000000000000000000000000000000000000000000000000000000000000000000000000000000000000000000000000000000000000
310
000000000000FDFDFDFDFDFDFDFDFDFDFDFD0000FD0000000000000000000000000000000000FD0000FA0000000000FA00FD0000FDFD00000000000000000000000000000000FD0000FA0000000000FA00FD0000FDFDFD000000000000000000000000000000FD0000FA0000000000FA00FD0000FDFDFDFD00000000000000
310
00000000000000FD0000FAFAFAFAFAFAFA00FD0000FDFDFDFDFD00000000000000000000000000FD000000FA00000000FA00FD0000FDFDFDFDFDFDFDFDFDFDFDFDFDFDFDFDFDFDFD000000FA000000FA0000FD0000FDFDFDFDFD00000000000000000000000000FD00000000FA0000FA0000FD0000FDFDFDFD000000000000
310
0000000000000000FD00000000FA00FA000000FD0000FDFD00000000000000000000000000000000FD0000000000FAFA000000FD0000FD0000000000000000000000000000000000FD0000000000FA00000000FD0000000000000000000000000000000000000000FDFDFDFDFDFDFDFDFDFDFDFD0000000000000000000000
310
00000000000000000000000000000000000000000000000000000000000000000000000000000000000000000000000000000000000000000000000000000000000000000000000000000000000000000000000000000000000000000000000000000000000000000000000000000000000000000000000000000000000000
310
00000000000000000000000000000000000000000000000000000000000000000000000000000000000000000000000000000000000000000000000000000000000000000000000000000000000000000000000000000000000000000000000000000000000000000000000000000000000000000000000000000000000000
310
0000000000000000000000000000000000000000000000000000000000000000000000000000000000000000000000000000000000000000
  0
BLOCK_RECORD
  5
8FA4
102
{ACAD_XDICTIONARY
360
8FB4
102
}
330
1
100
AcDbSymbolTableRecord
100
AcDbBlockTableRecord
  2
A$C2EC74796
340
0
  0
BLOCK_RECORD
  5
9317
330
1
100
AcDbSymbolTableRecord
100
AcDbBlockTableRecord
  2
GENAXEH
340
0
  0
BLOCK_RECORD
  5
95D9
102
{ACAD_XDICTIONARY
360
95DA
102
}
330
1
100
AcDbSymbolTableRecord
100
AcDbBlockTableRecord
  2
A4-1
340
0
1001
ACAD
1000
DesignCenter Data
1002
{
1070
     1
1070
     4
1002
}
  0
BLOCK_RECORD
  5
9A63
330
1
100
AcDbSymbolTableRecord
100
AcDbBlockTableRecord
  2
*D7
340
0
  0
BLOCK_RECORD
  5
9A70
330
1
100
AcDbSymbolTableRecord
100
AcDbBlockTableRecord
  2
*D8
340
0
  0
BLOCK_RECORD
  5
9A86
330
1
100
AcDbSymbolTableRecord
100
AcDbBlockTableRecord
  2
*D9
340
0
  0
BLOCK_RECORD
  5
9A93
330
1
100
AcDbSymbolTableRecord
100
AcDbBlockTableRecord
  2
*D10
340
0
  0
BLOCK_RECORD
  5
9ACE
330
1
100
AcDbSymbolTableRecord
100
AcDbBlockTableRecord
  2
*D11
340
0
  0
BLOCK_RECORD
  5
9C1D
330
1
100
AcDbSymbolTableRecord
100
AcDbBlockTableRecord
  2
*D12
340
0
  0
BLOCK_RECORD
  5
9C2A
330
1
100
AcDbSymbolTableRecord
100
AcDbBlockTableRecord
  2
*D13
340
0
  0
BLOCK_RECORD
  5
9C37
330
1
100
AcDbSymbolTableRecord
100
AcDbBlockTableRecord
  2
*D14
340
0
  0
BLOCK_RECORD
  5
9DE5
330
1
100
AcDbSymbolTableRecord
100
AcDbBlockTableRecord
  2
*D15
340
0
  0
BLOCK_RECORD
  5
9DF5
330
1
100
AcDbSymbolTableRecord
100
AcDbBlockTableRecord
  2
*D16
340
0
  0
BLOCK_RECORD
  5
9E04
330
1
100
AcDbSymbolTableRecord
100
AcDbBlockTableRecord
  2
*D17
340
0
  0
ENDTAB
  0
ENDSEC
  0
SECTION
  2
BLOCKS
  0
BLOCK
  5
19
330
18
100
AcDbEntity
  8
0
100
AcDbBlockBegin
  2
*MODEL_SPACE
 70
     0
 10
0.0
 20
0.0
 30
0.0
  3
*MODEL_SPACE
  1

  0
ENDBLK
  5
1A
330
18
100
AcDbEntity
  8
0
100
AcDbBlockEnd
  0
BLOCK
  5
16
330
15
100
AcDbEntity
 67
     1
  8
0
100
AcDbBlockBegin
  2
*PAPER_SPACE
 70
     0
 10
0.0
 20
0.0
 30
0.0
  3
*PAPER_SPACE
  1

  0
ENDBLK
  5
17
330
15
100
AcDbEntity
 67
     1
  8
0
100
AcDbBlockEnd
  0
BLOCK
  5
63A1
330
639D
100
AcDbEntity
  8
0
100
AcDbBlockBegin
  2
A$C255C26A2
 70
     0
 10
0.0
 20
0.0
 30
0.0
  3
A$C255C26A2
  1

  0
LWPOLYLINE
  5
639E
330
639D
100
AcDbEntity
  8
0
100
AcDbPolyline
 90
        3
 70
     1
 43
0.0
 10
7.014806023851633
 20
0.0000006939811783
 10
5.611844869720698
 20
2.430000693981241
 10
8.417767177982568
 20
2.430000693981241
  0
LWPOLYLINE
  5
639F
330
639D
100
AcDbEntity
  8
0
100
AcDbPolyline
 90
        3
 70
     1
 43
0.0
 10
4.20888371558999
 20
0.0000006939811783
 10
2.805922561459283
 20
2.430000693981241
 10
5.611844869720698
 20
2.430000693981241
  0
LWPOLYLINE
  5
63A0
330
639D
100
AcDbEntity
  8
0
100
AcDbPolyline
 90
        3
 70
     1
 43
0.0
 10
1.402961407328348
 20
0.0000006939811783
 10
0.0000002531974133
 20
2.430000693981241
 10
2.805922561459283
 20
2.430000693981241
  0
ENDBLK
  5
63A2
330
639D
100
AcDbEntity
  8
0
100
AcDbBlockEnd
  0
BLOCK
  5
7D2F
330
7D25
100
AcDbEntity
  8
0
100
AcDbBlockBegin
  2
A$C77B462EC
 70
     0
 10
0.0
 20
0.0
 30
0.0
  3
A$C77B462EC
  1

  0
LINE
  5
7D26
330
7D25
100
AcDbEntity
  8
dim
100
AcDbLine
 10
0.0000009317494971
 20
0.1345090743570836
 30
0.0
 11
3.417903047077061
 21
3.798228550710234
 31
0.0
  0
LINE
  5
7D27
330
7D25
100
AcDbEntity
  8
dim
100
AcDbLine
 10
0.0000009317494971
 20
7.461948027063385
 30
0.0
 11
3.417903047077061
 21
3.798228550710234
 31
0.0
  0
HATCH
  5
7D28
330
7D25
100
AcDbEntity
  8
dim
  6
Continuous
100
AcDbHatch
 10
0.0
 20
0.0
 30
0.0
210
0.0
220
0.0
230
1.0
  2
SOLID
 70
     1
 71
     0
 91
        1
 92
        7
 72
     0
 73
     1
 93
        3
 10
0.0000009317494687
 20
0.1345090743570836
 10
3.417903047077061
 20
3.798228550710234
 10
0.0000009317494687
 20
7.461948027063385
 97
        0
 75
     0
 76
     1
 47
0.2359147607200769
 98
        1
 10
1.070744965346307
 20
4.58496964331266
  0
LINE
  5
7D29
330
7D25
100
AcDbEntity
  8
dim
100
AcDbLine
 10
13.33622353816685
 20
0.0000006444382166
 30
0.0
 11
13.33622353816685
 21
7.596456456982252
 31
0.0
  0
LINE
  5
7D2A
330
7D25
100
AcDbEntity
  8
dim
100
AcDbLine
 10
13.33622353816685
 20
7.596456456982252
 30
0.0
 11
21.27088029964744
 21
7.596456456982252
 31
0.0
  0
LINE
  5
7D2B
330
7D25
100
AcDbEntity
  8
dim
100
AcDbLine
 10
21.27088029964744
 20
0.0000006444382166
 30
0.0
 11
21.27088029964744
 21
7.596456456982252
 31
0.0
  0
LINE
  5
7D2C
330
7D25
100
AcDbEntity
  8
dim
100
AcDbLine
 10
13.33622353816685
 20
0.0000006444382166
 30
0.0
 11
21.27088029964744
 21
0.0000006444382166
 31
0.0
  0
MTEXT
  5
7D2D
330
7D25
100
AcDbEntity
  8
TXT
  6
ByBlock
100
AcDbMText
 10
17.43648996954911
 20
3.691087562803886
 30
0.0
 40
5.599999999999999
 41
0.0
 71
     5
 72
     5
  1
A
  7
TXT
 11
-0.0000000000000002
 21
-1.0
 31
0.0
 73
     1
 44
1.0
1001
ACAD
1000
MTEXTBEGIN
1070
    73
1070
     1
1070
    44
1040
1.0
1070
    74
1070
     0
1000
MTEXTEND
  0
LINE
  5
7D2E
330
7D25
100
AcDbEntity
  8
dim
100
AcDbLine
 10
13.33622353816685
 20
3.798228550710234
 30
0.0
 11
3.417903047077061
 21
3.798228550710234
 31
0.0
  0
ENDBLK
  5
7D30
330
7D25
100
AcDbEntity
  8
0
100
AcDbBlockEnd
  0
BLOCK
  5
8015
330
8014
100
AcDbEntity
  8
0
100
AcDbBlockBegin
  2
_Open30
 70
     0
 10
0.0
 20
0.0
 30
0.0
  3
_Open30
  1

  0
LINE
  5
8016
330
8014
100
AcDbEntity
  8
0
  6
ByBlock
 62
     0
370
    -2
100
AcDbLine
 10
-1.0
 20
0.26794919
 30
0.0
 11
0.0
 21
0.0
 31
0.0
  0
LINE
  5
8017
330
8014
100
AcDbEntity
  8
0
  6
ByBlock
 62
     0
370
    -2
100
AcDbLine
 10
0.0
 20
0.0
 30
0.0
 11
-1.0
 21
-0.26794919
 31
0.0
  0
LINE
  5
8018
330
8014
100
AcDbEntity
  8
0
  6
ByBlock
 62
     0
370
    -2
100
AcDbLine
 10
0.0
 20
0.0
 30
0.0
 11
-1.0
 21
0.0
 31
0.0
  0
ENDBLK
  5
8019
330
8014
100
AcDbEntity
  8
0
100
AcDbBlockEnd
  0
BLOCK
  5
801E
330
801A
100
AcDbEntity
  8
0
100
AcDbBlockBegin
  2
A
 70
     0
 10
0.0
 20
0.0
 30
0.0
  3
A
  1

  0
MTEXT
  5
801F
330
801A
100
AcDbEntity
  8
mark
 62
     3
100
AcDbMText
 10
10.65641897020822
 20
-5.596245361730467
 30
0.0
 40
2.5
 41
0.0
 71
     5
 72
     1
  1
A
 73
     1
 44
1.0
1001
ACAD
1000
MTEXTBEGIN
1070
    73
1070
     1
1070
    44
1040
1.0
1070
    74
1070
     0
1000
MTEXTEND
  0
LWPOLYLINE
  5
8020
330
801A
100
AcDbEntity
  8
mark
100
AcDbPolyline
 90
        4
 70
     1
 43
0.0
 10
9.07926800414657
 20
-7.141145101782569
 10
12.07926800414657
 20
-7.141145101782569
 10
12.07926800414657
 20
-4.141145101782569
 10
9.07926800414657
 20
-4.141145101782569
  0
HATCH
  5
8021
330
801A
100
AcDbEntity
  8
mark
100
AcDbHatch
 10
0.0
 20
0.0
 30
0.0
210
0.0
220
0.0
230
1.0
  2
SOLID
 70
     1
 71
     0
 91
        1
 92
        7
 72
     0
 73
     1
 93
        3
 10
5.32926800414657
 20
-5.641145101782569
 10
4.07926800414657
 20
-4.391145101782541
 10
4.07926800414657
 20
-6.891145101782541
 97
        0
 75
     0
 76
     1
 47
0.0398277943677868
 98
        1
 10
4.589689734415287
 20
-5.732163331855076
1001
ACAD
1010
0.0
1020
0.0
1030
0.0
  0
LINE
  5
8022
330
801A
100
AcDbEntity
  8
mark
100
AcDbLine
 10
5.32926800414657
 20
-5.641145101782569
 30
0.0
 11
9.07926800414657
 21
-5.641145101782569
 31
0.0
  0
LINE
  5
8023
330
801A
100
AcDbEntity
  8
mark
100
AcDbLine
 10
5.32926800414657
 20
-5.641145101782569
 30
0.0
 11
4.07926800414657
 21
-4.391145101782569
 31
0.0
  0
LINE
  5
8024
330
801A
100
AcDbEntity
  8
mark
100
AcDbLine
 10
5.32926800414657
 20
-5.641145101782569
 30
0.0
 11
4.07926800414657
 21
-6.891145101782569
 31
0.0
  0
ENDBLK
  5
8025
330
801A
100
AcDbEntity
  8
0
100
AcDbBlockEnd
  0
BLOCK
  5
8FB6
330
8FA4
100
AcDbEntity
  8
0
100
AcDbBlockBegin
  2
A$C2EC74796
 70
     0
 10
0.0
 20
0.0
 30
0.0
  3
A$C2EC74796
  1

  0
LINE
  5
8FA5
330
8FA4
100
AcDbEntity
  8
frame
100
AcDbLine
 10
-0.0000002182619028
 20
3.599999969514669
 30
0.0
 11
29.9999997817381
 21
3.599999969514612
 31
0.0
  0
LINE
  5
8FA6
330
8FA4
100
AcDbEntity
  8
frame
100
AcDbLine
 10
-0.0000002182619028
 20
7.199999969514692
 30
0.0
 11
29.9999997817381
 21
7.199999969514692
 31
0.0
  0
LINE
  5
8FA7
330
8FA4
100
AcDbEntity
  8
frame
100
AcDbLine
 10
-0.0000002182619028
 20
10.79999996951466
 30
0.0
 11
29.9999997817381
 21
10.7999999695146
 31
0.0
  0
LINE
  5
8FA8
330
8FA4
100
AcDbEntity
  8
frame
100
AcDbLine
 10
-0.0000002182619028
 20
14.39999996951468
 30
0.0
 11
29.9999997817381
 21
14.39999996951462
 31
0.0
  0
MTEXT
  5
8FA9
330
8FA4
100
AcDbEntity
  8
0
 62
     7
 48
2.0
100
AcDbMText
 10
14.94269976467376
 20
14.79658417480675
 30
0.0
 40
2.4
 41
0.0
 71
     5
 72
     1
  1
\P\Ftxt.shx,bigfont.shx|c128;諸　　　　元
 73
     1
 44
1.0
1001
ACAD
1000
MTEXTBEGIN
1070
    73
1070
     1
1070
    44
1040
1.0
1070
    74
1070
     0
1000
MTEXTEND
  0
LINE
  5
8FAA
330
8FA4
100
AcDbEntity
  8
frame
100
AcDbLine
 10
-0.0000002182619028
 20
14.39999996951462
 30
0.0
 11
-0.0000002182618957
 21
-0.0000000304854133
 31
0.0
  0
LINE
  5
8FAB
330
8FA4
100
AcDbEntity
  8
frame
100
AcDbLine
 10
11.99999978173809
 20
10.7999999695146
 30
0.0
 11
11.99999978173807
 21
-0.0000000304854311
 31
0.0
  0
MTEXT
  5
8FAC
330
8FA4
100
AcDbEntity
  8
0
100
AcDbMText
 10
1.621080504888595
 20
6.535631162324055
 30
0.0
 40
2.2
 41
81.80293144248363
 71
     1
 72
     5
  1
\Ftxt.shx,bigfont.shx|c128;表 面 処 理
  7
JL
 73
     1
 44
1.0
1001
ACAD
1000
MTEXTBEGIN
1070
    73
1070
     1
1070
    44
1040
1.0
1070
    74
1070
     0
1000
MTEXTEND
  0
MTEXT
  5
8FAD
330
8FA4
100
AcDbEntity
  8
0
100
AcDbMText
 10
1.766113429106098
 20
2.891394735520098
 30
0.0
 40
2.2
 41
83.0859
 71
     1
 72
     5
  1
\Ftxt.shx,bigfont.shx|c128;等     　級
  7
JL
 73
     1
 44
1.0
1001
ACAD
1000
MTEXTBEGIN
1070
    73
1070
     1
1070
    44
1040
1.0
1070
    74
1070
     0
1000
MTEXTEND
  0
LINE
  5
8FAE
330
8FA4
100
AcDbEntity
  8
frame
100
AcDbLine
 10
29.9999997817381
 20
14.39999996951462
 30
0.0
 11
29.99999978173809
 21
-0.0000000304854666
 31
0.0
  0
MTEXT
  5
8FAF
330
8FA4
100
AcDbEntity
  8
0
100
AcDbMText
 10
14.59105153624273
 20
6.359184693846632
 30
0.0
 40
2.2
 41
145.7274
 71
     1
 72
     5
  1
\Ftxt.shx,bigfont.shx|c128;黒  　    染
  7
JL
 73
     1
 44
1.0
1001
ACAD
1000
MTEXTBEGIN
1070
    73
1070
     1
1070
    44
1040
1.0
1070
    74
1070
     0
1000
MTEXTEND
  0
LINE
  5
8FB0
330
8FA4
100
AcDbEntity
  8
frame
100
AcDbLine
 10
-0.000000218261917
 20
-0.0000000304854098
 30
0.0
 11
29.99999978173809
 21
-0.0000000304854666
 31
0.0
  0
MTEXT
  5
8FB1
330
8FA4
100
AcDbEntity
  8
0
100
AcDbMText
 10
1.657650262807123
 20
9.919738071872018
 30
0.0
 40
2.2
 41
81.80293144248363
 71
     1
 72
     5
  1
\Ftxt.shx,bigfont.shx|c128;熱　処　理
  7
JL
 73
     1
 44
1.0
1001
ACAD
1000
MTEXTBEGIN
1070
    73
1070
     1
1070
    44
1040
1.0
1070
    74
1070
     0
1000
MTEXTEND
  0
MTEXT
  5
8FB2
330
8FA4
100
AcDbEntity
  8
0
100
AcDbMText
 10
14.47869911279304
 20
9.8322591181672
 30
0.0
 40
2.2
 41
145.9480028428943
 71
     1
 72
     5
  1
\Ftxt.shx,bigfont.shx|c128;調質　HRC30%%d%%p２%%d
  7
JL
 73
     1
 44
1.0
1001
ACAD
1000
MTEXTBEGIN
1070
    73
1070
     1
1070
    44
1040
1.0
1070
    74
1070
     0
1000
MTEXTEND
  0
MTEXT
  5
8FB3
330
8FA4
100
AcDbEntity
  8
0
100
AcDbMText
 10
14.19148840930177
 20
2.77469270716358
 30
0.0
 40
2.2
 41
145.3916823984455
 71
     1
 72
     5
  1
\Ftxt.shx,bigfont.shx|c128;ＩＳＯ - ４Ｈ
  7
JL
 73
     1
 44
1.0
1001
ACAD
1000
MTEXTBEGIN
1070
    73
1070
     1
1070
    44
1040
1.0
1070
    74
1070
     0
1000
MTEXTEND
  0
ENDBLK
  5
8FB7
330
8FA4
100
AcDbEntity
  8
0
100
AcDbBlockEnd
  0
BLOCK
  5
9319
330
9317
100
AcDbEntity
  8
0
100
AcDbBlockBegin
  2
GENAXEH
 70
     0
 10
0.0
 20
0.0
 30
0.0
  3
GENAXEH
  1

  0
LINE
  5
9318
330
9317
100
AcDbEntity
  8
0
100
AcDbLine
 10
-1.0
 20
0.0
 30
0.0
 11
1.0
 21
0.0
 31
0.0
  0
ENDBLK
  5
931A
330
9317
100
AcDbEntity
  8
0
100
AcDbBlockEnd
  0
BLOCK
  5
95DC
330
95D9
100
AcDbEntity
  8
0
100
AcDbBlockBegin
  2
A4-1
 70
     0
 10
0.0
 20
0.0
 30
0.0
  3
A4-1
  1

  0
LINE
  5
95DD
330
95D9
100
AcDbEntity
  8
0
 62
     5
100
AcDbLine
 10
230.217408334927
 20
14.46716126965782
 30
0.0
 11
174.5069028989907
 21
14.46716126965782
 31
0.0
  0
LINE
  5
95DE
330
95D9
100
AcDbEntity
  8
0
 62
     5
100
AcDbLine
 10
230.2174083349271
 20
23.16767837502226
 30
0.0
 11
174.5069028989907
 21
23.16767837502226
 31
0.0
  0
LINE
  5
95DF
330
95D9
100
AcDbEntity
  8
0
 62
     5
100
AcDbLine
 10
276.7436087962579
 20
36.31443325309096
 30
0.0
 11
81.77838202908549
 21
36.31443325309096
 31
0.0
  0
LINE
  5
95E0
330
95D9
100
AcDbEntity
  8
0
 62
     4
100
AcDbLine
 39
0.7
 10
276.7436087962579
 20
36.31443325309096
 30
0.0
 11
81.77838202908549
 21
36.31443325309096
 31
0.0
  0
LINE
  5
95E1
330
95D9
100
AcDbEntity
  8
0
 62
     5
100
AcDbLine
 10
230.2174083349271
 20
36.31443325309096
 30
0.0
 11
230.2174083349271
 21
9.423490755382147
 31
0.0
  0
LINE
  5
95E2
330
95D9
100
AcDbEntity
  8
0
 62
     4
100
AcDbLine
 39
0.7
 10
81.77838202908549
 20
36.31443325309096
 30
0.0
 11
81.77838202908549
 21
9.423490755382147
 31
0.0
  0
LINE
  5
95E3
330
95D9
100
AcDbEntity
  8
0
 62
     5
100
AcDbLine
 10
142.9038561259967
 20
36.31443325309096
 30
0.0
 11
142.9038561259967
 21
9.423490755382147
 31
0.0
  0
LINE
  5
95E4
330
95D9
100
AcDbEntity
  8
0
 62
     5
100
AcDbLine
 10
213.9504533856369
 20
36.31443325309096
 30
0.0
 11
213.9504533856369
 21
9.423490755382147
 31
0.0
  0
LINE
  5
95E5
330
95D9
100
AcDbEntity
  8
0
 62
     5
100
AcDbLine
 10
142.9038561259967
 20
36.31443325309096
 30
0.0
 11
142.9038561259967
 21
9.423490755382147
 31
0.0
  0
MTEXT
  5
95E6
330
95D9
100
AcDbEntity
  8
0
100
AcDbMText
 10
52.09857641970632
 20
7.201179977531694
 30
0.0
 40
0.8838383838383839
 41
6.0
 71
     1
 72
     5
  1

 73
     1
 44
1.0
1001
ACAD
1000
MTEXTBEGIN
1070
    73
1070
     1
1070
    44
1040
1.0
1070
    74
1070
     0
1000
MTEXTEND
  0
MTEXT
  5
95E7
330
95D9
100
AcDbEntity
  8
0
 62
     5
100
AcDbMText
 10
98.82288556374431
 20
11.66235501480243
 30
0.0
 40
1.131313131313131
 41
0.0
 71
     1
 72
     5
  1
{\f\U+65b0\U+7d30\U+660e\U+9ad4|b0|i0|c136|p2;EXPLAIN}
 73
     1
 44
1.0
1001
ACAD
1000
MTEXTBEGIN
1070
    73
1070
     1
1070
    44
1040
1.0
1070
    74
1070
     0
1000
MTEXTEND
  0
LINE
  5
95E8
330
95D9
100
AcDbEntity
  8
0
 62
     5
100
AcDbLine
 10
158.4606425129406
 20
30.04946847927119
 30
0.0
 11
158.4606425129406
 21
22.5975840943081
 31
0.0
  0
MTEXT
  5
95E9
330
95D9
100
AcDbEntity
  8
0
 62
     5
100
AcDbMText
 10
231.0283193090395
 20
27.10671808364345
 30
0.0
 40
1.32322909090909
 41
0.0
 71
     1
 72
     5
  1
{\fPMingLiU|b0|i0|c136|p2;TYPE NO.}
 73
     1
 44
1.0
1001
ACAD
1000
MTEXTBEGIN
1070
    73
1070
     1
1070
    44
1040
1.0
1070
    74
1070
     0
1000
MTEXTEND
  0
MTEXT
  5
95EA
330
95D9
100
AcDbEntity
  8
0
 62
     4
100
AcDbMText
 10
232.6206820190832
 20
13.91245630584558
 30
0.0
 40
2.315834181818182
 41
0.0
 71
     1
 72
     5
  1
{\f\U+65b0\U+7d30\U+660e\U+9ad4|b0|i0|c136|p2;HSIANG KAI  FU  CO.,  LTD.}
 73
     1
 44
1.0
1001
ACAD
1000
MTEXTBEGIN
1070
    73
1070
     1
1070
    44
1040
1.0
1070
    74
1070
     0
1000
MTEXTEND
  0
LWPOLYLINE
  5
95EB
330
95D9
100
AcDbEntity
  8
0
 62
     4
100
AcDbPolyline
 90
        4
 70
     1
 43
0.0
 39
0.7
 10
7.628621603919329
 20
9.423490755382147
 10
7.628621603919327
 20
200.0937165081384
 10
276.7436087962579
 20
200.0937165081384
 10
276.7436087962579
 20
9.423490755382147
  0
MTEXT
  5
95EC
330
95D9
100
AcDbEntity
  8
0
 62
     7
100
AcDbMText
 10
239.2991063025177
 20
33.32791765364395
 30
0.0
 40
1.979345454545454
 41
0.0
 71
     1
 72
     5
  1
{\f\U+65b0\U+7d30\U+660e\U+9ad4|b0|i0|c136|p2;PRECISION   LOCKNUTS}
 73
     1
 44
1.0
1001
ACAD
1000
MTEXTBEGIN
1070
    73
1070
     1
1070
    44
1040
1.0
1070
    74
1070
     0
1000
MTEXTEND
  0
MTEXT
  5
95ED
330
95D9
100
AcDbEntity
  8
0
100
AcDbMText
 10
217.8754786300925
 20
21.74009260787899
 30
0.0
 40
1.590909090909091
 41
0.0
 71
     1
 72
     5
  1
{\fRomantic|b0|i0|c2|p2;SCM440}
 73
     1
 44
1.0
1001
ACAD
1000
MTEXTBEGIN
1070
    73
1070
     1
1070
    44
1040
1.0
1070
    74
1070
     0
1000
MTEXTEND
  0
MTEXT
  5
95EE
330
95D9
100
AcDbEntity
  8
0
100
AcDbMText
 10
217.1226873827973
 20
17.33404973155046
 30
0.0
 40
1.590909090909091
 41
0.0
 71
     1
 72
     5
  1
{\fRomantic|b0|i0|c2|p2;HRC28-32}
 73
     1
 44
1.0
1001
ACAD
1000
MTEXTBEGIN
1070
    73
1070
     1
1070
    44
1040
1.0
1070
    74
1070
     0
1000
MTEXTEND
  0
MTEXT
  5
95EF
330
95D9
100
AcDbEntity
  8
0
100
AcDbMText
 10
219.9781127101417
 20
26.96593793243194
 30
0.0
 40
2.061818181818181
 41
0.0
 71
     1
 72
     5
  1
{\fRomantic|b0|i0|c2|p2;mm}
 73
     1
 44
1.0
1001
ACAD
1000
MTEXTBEGIN
1070
    73
1070
     1
1070
    44
1040
1.0
1070
    74
1070
     0
1000
MTEXTEND
  0
MTEXT
  5
95F0
330
95D9
100
AcDbEntity
  8
0
 62
     4
100
AcDbMText
 10
232.6950689920786
 20
19.03984294867123
 30
0.0
 40
3.859723636363636
 41
0.0
 71
     1
 72
     5
  1
{\fArial Black|b0|i0|c0|p34;NIKKI}
 73
     1
 44
1.0
1001
ACAD
1000
MTEXTBEGIN
1070
    73
1070
     1
1070
    44
1040
1.0
1070
    74
1070
     0
1000
MTEXTEND
  0
MTEXT
  5
95F1
330
95D9
100
AcDbEntity
  8
0
 62
     5
100
AcDbMText
 10
231.0283193090395
 20
35.15005777303538
 30
0.0
 40
1.32322909090909
 41
0.0
 71
     1
 72
     5
  1
{\fPMingLiU|b0|i0|c136|p2;TITLE:}
 73
     1
 44
1.0
1001
ACAD
1000
MTEXTBEGIN
1070
    73
1070
     1
1070
    44
1040
1.0
1070
    74
1070
     0
1000
MTEXTEND
  0
MTEXT
  5
95F2
330
95D9
100
AcDbEntity
  8
0
 62
     5
100
AcDbMText
 10
202.8459165109901
 20
21.83575446704606
 30
0.0
 40
1.429087418181818
 41
0.0
 71
     1
 72
     5
  1
{\fPMingLiU|b0|i0|c136|p2;MATERIAL}
 73
     1
 44
1.0
1001
ACAD
1000
MTEXTBEGIN
1070
    73
1070
     1
1070
    44
1040
1.0
1070
    74
1070
     0
1000
MTEXTEND
  0
MTEXT
  5
95F3
330
95D9
100
AcDbEntity
  8
0
 62
     5
100
AcDbMText
 10
205.3001914547634
 20
26.1190441050549
 30
0.0
 40
1.429087418181818
 41
0.0
 71
     1
 72
     5
  1
{\fPMingLiU|b0|i0|c136|p2;UNIT}
 73
     1
 44
1.0
1001
ACAD
1000
MTEXTBEGIN
1070
    73
1070
     1
1070
    44
1040
1.0
1070
    74
1070
     0
1000
MTEXTEND
  0
MTEXT
  5
95F4
330
95D9
100
AcDbEntity
  8
0
 62
     5
100
AcDbMText
 10
205.1168872554573
 20
17.55932396695345
 30
0.0
 40
1.429087418181818
 41
0.0
 71
     1
 72
     5
  1
{\fPMingLiU|b0|i0|c136|p2;HEAT}
 73
     1
 44
1.0
1001
ACAD
1000
MTEXTBEGIN
1070
    73
1070
     1
1070
    44
1040
1.0
1070
    74
1070
     0
1000
MTEXTEND
  0
MTEXT
  5
95F5
330
95D9
100
AcDbEntity
  8
0
 62
     5
100
AcDbMText
 10
203.3121893518798
 20
13.95253280778329
 30
0.0
 40
1.3440567168
 41
0.0
 71
     1
 72
     5
  1
{\fPMingLiU|b0|i0|c136|p2;SURFACE}
 73
     1
 44
1.0
1001
ACAD
1000
MTEXTBEGIN
1070
    73
1070
     1
1070
    44
1040
1.0
1070
    74
1070
     0
1000
MTEXTEND
  0
LINE
  5
95F6
330
95D9
100
AcDbEntity
  8
0
 62
     5
100
AcDbLine
 10
276.7436087962579
 20
28.21637358106507
 30
0.0
 11
230.2174083349271
 21
28.21637358106507
 31
0.0
  0
LINE
  5
95F7
330
95D9
100
AcDbEntity
  8
0
 62
     5
100
AcDbLine
 10
276.6599075500765
 20
20.55124455954945
 30
0.0
 11
230.1337070887457
 21
20.55124455954945
 31
0.0
  0
LINE
  5
95F8
330
95D9
100
AcDbEntity
  8
0
 62
     5
100
AcDbLine
 10
230.2174083349271
 20
18.67390896566837
 30
0.0
 11
174.5069028989907
 21
18.67390896566837
 31
0.0
  0
MTEXT
  5
95F9
330
95D9
100
AcDbEntity
  8
0
 62
     5
100
AcDbMText
 10
202.5835212177642
 20
11.61683171438094
 30
0.0
 40
1.3099968
 41
0.0
 71
     1
 72
     5
  1
{\fPMingLiU|b0|i0|c136|p2;TREATMENT}
 73
     1
 44
1.0
1001
ACAD
1000
MTEXTBEGIN
1070
    73
1070
     1
1070
    44
1040
1.0
1070
    74
1070
     0
1000
MTEXTEND
  0
MTEXT
  5
95FA
330
95D9
100
AcDbEntity
  8
0
 62
     5
100
AcDbMText
 10
204.5442386789007
 20
34.95758712521644
 30
0.0
 40
1.429087418181818
 41
0.0
 71
     1
 72
     5
  1
{\fPMingLiU|b0|i0|c136|p2;SCALE}
 73
     1
 44
1.0
1001
ACAD
1000
MTEXTBEGIN
1070
    73
1070
     1
1070
    44
1040
1.0
1070
    74
1070
     0
1000
MTEXTEND
  0
LINE
  5
95FB
330
95D9
100
AcDbEntity
  8
0
 62
     5
100
AcDbLine
 10
201.8318558768918
 20
36.31443325309096
 30
0.0
 11
201.8318558768918
 21
9.423490755382147
 31
0.0
  0
LINE
  5
95FC
330
95D9
100
AcDbEntity
  8
0
 62
     5
100
AcDbLine
 10
230.2174083349271
 20
31.93106038898454
 30
0.0
 11
201.8318558768918
 21
31.93106038898453
 31
0.0
  0
MTEXT
  5
95FD
330
95D9
100
AcDbEntity
  8
0
 62
     5
100
AcDbMText
 10
202.8320338497069
 20
30.67527156368976
 30
0.0
 40
1.429087418181818
 41
0.0
 71
     1
 72
     5
  1
{\fPMingLiU|b0|i0|c136|p2;QUANTITY}
 73
     1
 44
1.0
1001
ACAD
1000
MTEXTBEGIN
1070
    73
1070
     1
1070
    44
1040
1.0
1070
    74
1070
     0
1000
MTEXTEND
  0
LINE
  5
95FE
330
95D9
100
AcDbEntity
  8
0
 62
     5
100
AcDbLine
 10
186.3361645349974
 20
36.31443325309096
 30
0.0
 11
186.3361645349974
 21
9.423490755382147
 31
0.0
  0
LINE
  5
95FF
330
95D9
100
AcDbEntity
  8
0
 62
     5
100
AcDbLine
 10
174.5069028989907
 20
36.31443325309096
 30
0.0
 11
174.5069028989907
 21
9.423490755382147
 31
0.0
  0
LINE
  5
9600
330
95D9
100
AcDbEntity
  8
0
 62
     5
100
AcDbLine
 10
169.0890530427488
 20
30.04946847927119
 30
0.0
 11
169.0890530427488
 21
22.5975840943081
 31
0.0
  0
MTEXT
  5
9601
330
95D9
100
AcDbEntity
  8
0
 62
     5
100
AcDbMText
 10
176.008196929491
 20
21.67264136890537
 30
0.0
 40
1.429087418181818
 41
0.0
 71
     1
 72
     5
  1
{\fPMingLiU|b0|i0|c136|p2;DRAWER}
 73
     1
 44
1.0
1001
ACAD
1000
MTEXTBEGIN
1070
    73
1070
     1
1070
    44
1040
1.0
1070
    74
1070
     0
1000
MTEXTEND
  0
MTEXT
  5
9602
330
95D9
100
AcDbEntity
  8
0
 62
     5
100
AcDbMText
 10
175.006037505883
 20
12.83915587928981
 30
0.0
 40
1.429087418181818
 41
0.0
 71
     1
 72
     5
  1
{\fPMingLiU|b0|i0|c136|p2;APPROVED}
 73
     1
 44
1.0
1001
ACAD
1000
MTEXTBEGIN
1070
    73
1070
     1
1070
    44
1040
1.0
1070
    74
1070
     0
1000
MTEXTEND
  0
LINE
  5
9603
330
95D9
100
AcDbEntity
  8
0
 62
     5
100
AcDbLine
 10
230.2174083349271
 20
27.61951629559429
 30
0.0
 11
174.5069028989907
 21
27.61951629559428
 31
0.0
  0
MTEXT
  5
9604
330
95D9
100
AcDbEntity
  8
0
 62
     5
100
AcDbMText
 10
177.6576304344164
 20
17.48785630108154
 30
0.0
 40
1.429087418181818
 41
0.0
 71
     1
 72
     5
  1
{\fPMingLiU|b0|i0|c136|p2;DATE}
 73
     1
 44
1.0
1001
ACAD
1000
MTEXTBEGIN
1070
    73
1070
     1
1070
    44
1040
1.0
1070
    74
1070
     0
1000
MTEXTEND
  0
MTEXT
  5
9605
330
95D9
100
AcDbEntity
  8
0
100
AcDbMText
 10
221.0535001315969
 20
31.02456738381228
 30
0.0
 40
2.061818181818181
 41
0.0
 71
     1
 72
     5
  1
{\fRomantic|b0|i0|c2|p2;1}
 73
     1
 44
1.0
1001
ACAD
1000
MTEXTBEGIN
1070
    73
1070
     1
1070
    44
1040
1.0
1070
    74
1070
     0
1000
MTEXTEND
  0
MTEXT
  5
9606
330
95D9
100
AcDbEntity
  8
0
 62
     5
100
AcDbMText
 10
177.2033141821088
 20
34.56475675900743
 30
0.0
 40
1.429087418181818
 41
0.0
 71
     1
 72
     5
  1
{\fPMingLiU|b0|i0|c136|p2;THIRD}
 73
     1
 44
1.0
1001
ACAD
1000
MTEXTBEGIN
1070
    73
1070
     1
1070
    44
1040
1.0
1070
    74
1070
     0
1000
MTEXTEND
  0
MTEXT
  5
9607
330
95D9
100
AcDbEntity
  8
0
 62
     5
100
AcDbMText
 10
176.9178390985407
 20
31.34172768692878
 30
0.0
 40
1.429087418181818
 41
0.0
 71
     1
 72
     5
  1
{\fPMingLiU|b0|i0|c136|p2;ANGLE}
 73
     1
 44
1.0
1001
ACAD
1000
MTEXTBEGIN
1070
    73
1070
     1
1070
    44
1040
1.0
1070
    74
1070
     0
1000
MTEXTEND
  0
LINE
  5
9608
330
95D9
100
AcDbEntity
  8
0
 62
     5
100
AcDbLine
 10
174.5069028989907
 20
30.04946847927119
 30
0.0
 11
142.9038561259967
 21
30.04946847927119
 31
0.0
  0
LINE
  5
9609
330
95D9
100
AcDbEntity
  8
0
 48
0.8
100
AcDbLine
 10
188.2047449454813
 20
31.80734890957837
 30
0.0
 11
193.2767826339444
 21
31.80734890957837
 31
0.0
  0
LINE
  5
960A
330
95D9
100
AcDbEntity
  8
0
 48
0.8
100
AcDbLine
 10
190.6545310142052
 20
34.26751799671216
 30
0.0
 11
190.6545310142052
 21
29.3471798224445
 31
0.0
  0
CIRCLE
  5
960B
330
95D9
100
AcDbEntity
  8
0
 48
0.8
100
AcDbCircle
 10
190.6545310142052
 20
31.80734890957837
 30
0.0
 40
1.76486420543606
  0
CIRCLE
  5
960C
330
95D9
100
AcDbEntity
  8
0
 48
0.8
100
AcDbCircle
 10
190.6545310142052
 20
31.80734890957837
 30
0.0
 40
0.7692225632165219
  0
LINE
  5
960D
330
95D9
100
AcDbEntity
  8
0
 48
0.8
100
AcDbLine
 10
195.198853777746
 20
32.57657147279488
 30
0.0
 11
195.198853777746
 21
31.03812634636185
 31
0.0
  0
LINE
  5
960E
330
95D9
100
AcDbEntity
  8
0
 48
0.8
100
AcDbLine
 10
194.4170988130979
 20
31.80734890957837
 30
0.0
 11
200.0426258639385
 21
31.80734890957837
 31
0.0
  0
LINE
  5
960F
330
95D9
100
AcDbEntity
  8
0
 48
0.8
100
AcDbLine
 10
199.0024970528553
 20
33.57221311501443
 30
0.0
 11
199.0024970528553
 21
30.04248470414231
 31
0.0
  0
LINE
  5
9610
330
95D9
100
AcDbEntity
  8
0
 48
0.8
100
AcDbLine
 10
195.198853777746
 20
32.57657147279489
 30
0.0
 11
199.0024970528553
 21
33.57221311501443
 31
0.0
  0
LINE
  5
9611
330
95D9
100
AcDbEntity
  8
0
 48
0.8
100
AcDbLine
 10
195.198853777746
 20
31.03812634636184
 30
0.0
 11
199.0024970528553
 21
30.04248470414231
 31
0.0
  0
MTEXT
  5
9612
330
95D9
100
AcDbEntity
  8
0
 62
     5
100
AcDbMText
 10
148.7138573572125
 20
34.64054020451028
 30
0.0
 40
1.10668529664
 41
0.0
 71
     1
 72
     5
  1
{\fPMingLiU|b0|i0|c136|p2;PERMISSIBLE MACHINING}
 73
     1
 44
1.0
1001
ACAD
1000
MTEXTBEGIN
1070
    73
1070
     1
1070
    44
1040
1.0
1070
    74
1070
     0
1000
MTEXTEND
  0
MTEXT
  5
9613
330
95D9
100
AcDbEntity
  8
0
 62
     5
100
AcDbMText
 10
143.6908109369302
 20
25.39528961195669
 30
0.0
 40
1.143269934545454
 41
0.0
 71
     1
 72
     5
  1
{\fPMingLiU|b0|i0|c136|p2;%%P0.05}
 73
     1
 44
1.0
1001
ACAD
1000
MTEXTBEGIN
1070
    73
1070
     1
1070
    44
1040
1.0
1070
    74
1070
     0
1000
MTEXTEND
  0
MTEXT
  5
9614
330
95D9
100
AcDbEntity
  8
0
 62
     5
100
AcDbMText
 10
148.9145766387688
 20
25.47195115310956
 30
0.0
 40
1.143269934545454
 41
0.0
 71
     1
 72
     5
  1
{\fPMingLiU|b0|i0|c136|p2;%%P0.1}
 73
     1
 44
1.0
1001
ACAD
1000
MTEXTBEGIN
1070
    73
1070
     1
1070
    44
1040
1.0
1070
    74
1070
     0
1000
MTEXTEND
  0
MTEXT
  5
9615
330
95D9
100
AcDbEntity
  8
0
 62
     5
100
AcDbMText
 10
154.2692742525577
 20
25.33746919547167
 30
0.0
 40
1.143269934545454
 41
0.0
 71
     1
 72
     5
  1
{\fPMingLiU|b0|i0|c136|p2;%%P0.2}
 73
     1
 44
1.0
1001
ACAD
1000
MTEXTBEGIN
1070
    73
1070
     1
1070
    44
1040
1.0
1070
    74
1070
     0
1000
MTEXTEND
  0
LINE
  5
9616
330
95D9
100
AcDbEntity
  8
0
 62
     5
100
AcDbLine
 10
147.6682545583534
 20
30.04946847927119
 30
0.0
 11
147.6682545583534
 21
22.5975840943081
 31
0.0
  0
LINE
  5
9617
330
95D9
100
AcDbEntity
  8
0
 62
     5
100
AcDbLine
 10
152.8769092768149
 20
30.04946847927119
 30
0.0
 11
152.8769092768149
 21
22.5975840943081
 31
0.0
  0
LINE
  5
9618
330
95D9
100
AcDbEntity
  8
0
 62
     5
100
AcDbLine
 10
163.7721145446809
 20
30.04946847927119
 30
0.0
 11
163.7721145446809
 21
22.5975840943081
 31
0.0
  0
LINE
  5
9619
330
95D9
100
AcDbEntity
  8
0
 62
     5
100
AcDbLine
 10
174.5069028989907
 20
26.45619665177112
 30
0.0
 11
142.9038561259967
 21
26.45619665177111
 31
0.0
  0
LINE
  5
961A
330
95D9
100
AcDbEntity
  8
0
 62
     5
100
AcDbLine
 10
174.5069028989907
 20
16.61298322188565
 30
0.0
 11
142.9038561259967
 21
16.61298322188565
 31
0.0
  0
LINE
  5
961B
330
95D9
100
AcDbEntity
  8
0
 62
     5
100
AcDbLine
 10
174.5069028989907
 20
13.24934181817684
 30
0.0
 11
142.9038561259967
 21
13.24934181817684
 31
0.0
  0
MTEXT
  5
961C
330
95D9
100
AcDbEntity
  8
0
 62
     5
100
AcDbMText
 10
144.6873390984275
 20
28.99738023724138
 30
0.0
 40
1.143269934545454
 41
0.0
 71
     1
 72
     5
  1
{\fPMingLiU|b0|i0|c136|p2;>0}
 73
     1
 44
1.0
1001
ACAD
1000
MTEXTBEGIN
1070
    73
1070
     1
1070
    44
1040
1.0
1070
    74
1070
     0
1000
MTEXTEND
  0
MTEXT
  5
961D
330
95D9
100
AcDbEntity
  8
0
 62
     5
100
AcDbMText
 10
149.5338298322221
 20
28.99701137382511
 30
0.0
 40
1.143269934545454
 41
0.0
 71
     1
 72
     5
  1
{\fPMingLiU|b0|i0|c136|p2;>6}
 73
     1
 44
1.0
1001
ACAD
1000
MTEXTBEGIN
1070
    73
1070
     1
1070
    44
1040
1.0
1070
    74
1070
     0
1000
MTEXTEND
  0
MTEXT
  5
961E
330
95D9
100
AcDbEntity
  8
0
 62
     5
100
AcDbMText
 10
154.515118596289
 20
28.99701137382511
 30
0.0
 40
1.143269934545454
 41
0.0
 71
     1
 72
     5
  1
{\fPMingLiU|b0|i0|c136|p2;>30}
 73
     1
 44
1.0
1001
ACAD
1000
MTEXTBEGIN
1070
    73
1070
     1
1070
    44
1040
1.0
1070
    74
1070
     0
1000
MTEXTEND
  0
MTEXT
  5
961F
330
95D9
100
AcDbEntity
  8
0
 62
     5
100
AcDbMText
 10
159.5116054772021
 20
28.99701137382511
 30
0.0
 40
1.143269934545454
 41
0.0
 71
     1
 72
     5
  1
{\fPMingLiU|b0|i0|c136|p2;>100}
 73
     1
 44
1.0
1001
ACAD
1000
MTEXTBEGIN
1070
    73
1070
     1
1070
    44
1040
1.0
1070
    74
1070
     0
1000
MTEXTEND
  0
MTEXT
  5
9620
330
95D9
100
AcDbEntity
  8
0
 62
     5
100
AcDbMText
 10
164.8701982538038
 20
28.99701137382511
 30
0.0
 40
1.143269934545454
 41
0.0
 71
     1
 72
     5
  1
{\fPMingLiU|b0|i0|c136|p2;>300}
 73
     1
 44
1.0
1001
ACAD
1000
MTEXTBEGIN
1070
    73
1070
     1
1070
    44
1040
1.0
1070
    74
1070
     0
1000
MTEXTEND
  0
MTEXT
  5
9621
330
95D9
100
AcDbEntity
  8
0
 62
     5
100
AcDbMText
 10
169.8908464815969
 20
28.99701137382511
 30
0.0
 40
1.143269934545454
 41
0.0
 71
     1
 72
     5
  1
{\fPMingLiU|b0|i0|c136|p2;>1000}
 73
     1
 44
1.0
1001
ACAD
1000
MTEXTBEGIN
1070
    73
1070
     1
1070
    44
1040
1.0
1070
    74
1070
     0
1000
MTEXTEND
  0
MTEXT
  5
9622
330
95D9
100
AcDbEntity
  8
0
 62
     5
100
AcDbMText
 10
159.8530065142687
 20
25.39604432913711
 30
0.0
 40
1.143269934545454
 41
0.0
 71
     1
 72
     5
  1
{\fPMingLiU|b0|i0|c136|p2;%%P0.3}
 73
     1
 44
1.0
1001
ACAD
1000
MTEXTBEGIN
1070
    73
1070
     1
1070
    44
1040
1.0
1070
    74
1070
     0
1000
MTEXTEND
  0
MTEXT
  5
9623
330
95D9
100
AcDbEntity
  8
0
 62
     5
100
AcDbMText
 10
165.2958510813429
 20
25.27889316359381
 30
0.0
 40
1.143269934545454
 41
0.0
 71
     1
 72
     5
  1
{\fPMingLiU|b0|i0|c136|p2;%%P0.5}
 73
     1
 44
1.0
1001
ACAD
1000
MTEXTBEGIN
1070
    73
1070
     1
1070
    44
1040
1.0
1070
    74
1070
     0
1000
MTEXTEND
  0
MTEXT
  5
9624
330
95D9
100
AcDbEntity
  8
0
 62
     5
100
AcDbMText
 10
170.4915322034145
 20
25.28471806901382
 30
0.0
 40
1.143269934545454
 41
0.0
 71
     1
 72
     5
  1
{\fPMingLiU|b0|i0|c136|p2;%%P0.6}
 73
     1
 44
1.0
1001
ACAD
1000
MTEXTBEGIN
1070
    73
1070
     1
1070
    44
1040
1.0
1070
    74
1070
     0
1000
MTEXTEND
  0
LINE
  5
9625
330
95D9
100
AcDbEntity
  8
0
 62
     5
100
AcDbLine
 10
174.5069028989907
 20
22.5975840943081
 30
0.0
 11
142.9038561259967
 21
22.5975840943081
 31
0.0
  0
MTEXT
  5
9626
330
95D9
100
AcDbEntity
  8
0
 62
     5
100
AcDbMText
 10
150.6577402121705
 20
21.42914913937319
 30
0.0
 40
1.108403677082419
 41
0.0
 71
     1
 72
     5
  1
{\fPMingLiU|b0|i0|c136|p2;PERMISSIBLE ANGLE  }
 73
     1
 44
1.0
1001
ACAD
1000
MTEXTBEGIN
1070
    73
1070
     1
1070
    44
1040
1.0
1070
    74
1070
     0
1000
MTEXTEND
  0
LINE
  5
9627
330
95D9
100
AcDbEntity
  8
0
 62
     5
100
AcDbLine
 10
150.681486753489
 20
16.61298322188565
 30
0.0
 11
150.681486753489
 21
9.423490755382147
 31
0.0
  0
LINE
  5
9628
330
95D9
100
AcDbEntity
  8
0
 62
     5
100
AcDbLine
 10
158.6280440308887
 20
16.61298322188565
 30
0.0
 11
158.6280440308886
 21
9.423490755382147
 31
0.0
  0
LINE
  5
9629
330
95D9
100
AcDbEntity
  8
0
 62
     5
100
AcDbLine
 10
166.410623883509
 20
16.61298322188565
 30
0.0
 11
166.410623883509
 21
9.423490755382147
 31
0.0
  0
MTEXT
  5
962A
330
95D9
100
AcDbEntity
  8
0
 62
     5
100
AcDbMText
 10
145.4144001980171
 20
12.05222238155096
 30
0.0
 40
1.143269934545454
 41
0.0
 71
     1
 72
     5
  1
{\fPMingLiU|b0|i0|c136|p2;%%P0.1%%D}
 73
     1
 44
1.0
1001
ACAD
1000
MTEXTBEGIN
1070
    73
1070
     1
1070
    44
1040
1.0
1070
    74
1070
     0
1000
MTEXTEND
  0
MTEXT
  5
962B
330
95D9
100
AcDbEntity
  8
0
 62
     5
100
AcDbMText
 10
145.443695428167
 20
15.58575218203958
 30
0.0
 40
1.143269934545454
 41
0.0
 71
     1
 72
     5
  1
{\fPMingLiU|b0|i0|c136|p2;<10}
 73
     1
 44
1.0
1001
ACAD
1000
MTEXTBEGIN
1070
    73
1070
     1
1070
    44
1040
1.0
1070
    74
1070
     0
1000
MTEXTEND
  0
MTEXT
  5
962C
330
95D9
100
AcDbEntity
  8
0
 62
     5
100
AcDbMText
 10
146.7159664540418
 20
32.5974034804112
 30
0.0
 40
1.10668529664
 41
0.0
 71
     1
 72
     5
  1
{\fPMingLiU|b0|i0|c136|p2;BASIC DIMENSION DEVIATIONS}
 73
     1
 44
1.0
1001
ACAD
1000
MTEXTBEGIN
1070
    73
1070
     1
1070
    44
1040
1.0
1070
    74
1070
     0
1000
MTEXTEND
  0
MTEXT
  5
962D
330
95D9
100
AcDbEntity
  8
0
 62
     5
100
AcDbMText
 10
153.5799091196858
 20
12.05222238155096
 30
0.0
 40
1.143269934545454
 41
0.0
 71
     1
 72
     5
  1
{\fPMingLiU|b0|i0|c136|p2;%%P30%%D}
 73
     1
 44
1.0
1001
ACAD
1000
MTEXTBEGIN
1070
    73
1070
     1
1070
    44
1040
1.0
1070
    74
1070
     0
1000
MTEXTEND
  0
MTEXT
  5
962E
330
95D9
100
AcDbEntity
  8
0
 62
     5
100
AcDbMText
 10
153.2526632849024
 20
15.58575218203958
 30
0.0
 40
1.143269934545454
 41
0.0
 71
     1
 72
     5
  1
{\fPMingLiU|b0|i0|c136|p2;10-50}
 73
     1
 44
1.0
1001
ACAD
1000
MTEXTBEGIN
1070
    73
1070
     1
1070
    44
1040
1.0
1070
    74
1070
     0
1000
MTEXTEND
  0
MTEXT
  5
962F
330
95D9
100
AcDbEntity
  8
0
 62
     5
100
AcDbMText
 10
161.2710466168375
 20
12.05222238155096
 30
0.0
 40
1.143269934545454
 41
0.0
 71
     1
 72
     5
  1
{\fPMingLiU|b0|i0|c136|p2;%%P20%%D}
 73
     1
 44
1.0
1001
ACAD
1000
MTEXTBEGIN
1070
    73
1070
     1
1070
    44
1040
1.0
1070
    74
1070
     0
1000
MTEXTEND
  0
MTEXT
  5
9630
330
95D9
100
AcDbEntity
  8
0
 62
     5
100
AcDbMText
 10
160.4354991790922
 20
15.58575218203958
 30
0.0
 40
1.143269934545454
 41
0.0
 71
     1
 72
     5
  1
{\fPMingLiU|b0|i0|c136|p2;50-100}
 73
     1
 44
1.0
1001
ACAD
1000
MTEXTBEGIN
1070
    73
1070
     1
1070
    44
1040
1.0
1070
    74
1070
     0
1000
MTEXTEND
  0
MTEXT
  5
9631
330
95D9
100
AcDbEntity
  8
0
 62
     5
100
AcDbMText
 10
168.8878278636504
 20
12.05222238155096
 30
0.0
 40
1.143269934545454
 41
0.0
 71
     1
 72
     5
  1
{\fPMingLiU|b0|i0|c136|p2;%%P10%%D}
 73
     1
 44
1.0
1001
ACAD
1000
MTEXTBEGIN
1070
    73
1070
     1
1070
    44
1040
1.0
1070
    74
1070
     0
1000
MTEXTEND
  0
MTEXT
  5
9632
330
95D9
100
AcDbEntity
  8
0
 62
     5
100
AcDbMText
 10
168.9884313067869
 20
15.58575218203958
 30
0.0
 40
1.143269934545454
 41
0.0
 71
     1
 72
     5
  1
{\fPMingLiU|b0|i0|c136|p2;100<}
 73
     1
 44
1.0
1001
ACAD
1000
MTEXTBEGIN
1070
    73
1070
     1
1070
    44
1040
1.0
1070
    74
1070
     0
1000
MTEXTEND
  0
LINE
  5
9633
330
95D9
100
AcDbEntity
  8
0
 62
     5
100
AcDbLine
 10
142.9038561259967
 20
12.42634021691577
 30
0.0
 11
81.77838202908549
 21
12.42634021691577
 31
0.0
  0
LINE
  5
9634
330
95D9
100
AcDbEntity
  8
0
 62
     5
100
AcDbLine
 10
86.33151271564589
 20
36.31443325309096
 30
0.0
 11
86.33151271564589
 21
9.423490755382147
 31
0.0
  0
LINE
  5
9635
330
95D9
100
AcDbEntity
  8
0
 62
     5
100
AcDbLine
 10
135.2888928214914
 20
36.31443325309096
 30
0.0
 11
135.2888928214914
 21
9.423490755382147
 31
0.0
  0
LINE
  5
9636
330
95D9
100
AcDbEntity
  8
0
 62
     5
100
AcDbLine
 10
124.6971524391537
 20
36.31443325309096
 30
0.0
 11
124.6971524391537
 21
9.423490755382147
 31
0.0
  0
MTEXT
  5
9637
330
95D9
100
AcDbEntity
  8
0
 62
     5
100
AcDbMText
 10
136.9112322856071
 20
11.8528888000372
 30
0.0
 40
1.143269934545454
 41
0.0
 71
     1
 72
     5
  1
{\fPMingLiU|b0|i0|c136|p2;DATE}
 73
     1
 44
1.0
1001
ACAD
1000
MTEXTBEGIN
1070
    73
1070
     1
1070
    44
1040
1.0
1070
    74
1070
     0
1000
MTEXTEND
  0
MTEXT
  5
9638
330
95D9
100
AcDbEntity
  8
0
 62
     5
100
AcDbMText
 10
125.2131038141228
 20
11.73162228020629
 30
0.0
 40
1.143269934545454
 41
0.0
 71
     1
 72
     5
  1
{\fPMingLiU|b0|i0|c136|p2;APPROVED}
 73
     1
 44
1.0
1001
ACAD
1000
MTEXTBEGIN
1070
    73
1070
     1
1070
    44
1040
1.0
1070
    74
1070
     0
1000
MTEXTEND
  0
MTEXT
  5
9639
330
95D9
100
AcDbEntity
  8
0
 62
     5
100
AcDbMText
 10
83.08151214955557
 20
11.73162228020629
 30
0.0
 40
1.143269934545454
 41
0.0
 71
     1
 72
     5
  1
{\fPMingLiU|b0|i0|c136|p2;N0.}
 73
     1
 44
1.0
1001
ACAD
1000
MTEXTBEGIN
1070
    73
1070
     1
1070
    44
1040
1.0
1070
    74
1070
     0
1000
MTEXTEND
  0
LINE
  5
963A
330
95D9
100
AcDbEntity
  8
0
 62
     5
100
AcDbLine
 10
142.9038561259967
 20
15.4291896784494
 30
0.0
 11
81.77838202908549
 21
15.4291896784494
 31
0.0
  0
LINE
  5
963B
330
95D9
100
AcDbEntity
  8
0
 62
     5
100
AcDbLine
 10
142.9038561259967
 20
18.43203913998303
 30
0.0
 11
81.77838202908549
 21
18.43203913998303
 31
0.0
  0
LINE
  5
963C
330
95D9
100
AcDbEntity
  8
0
 62
     5
100
AcDbLine
 10
142.9038561259967
 20
21.43488860151666
 30
0.0
 11
81.77838202908549
 21
21.43488860151666
 31
0.0
  0
LINE
  5
963D
330
95D9
100
AcDbEntity
  8
0
 62
     5
100
AcDbLine
 10
142.9038561259967
 20
24.43773806305029
 30
0.0
 11
81.77838202908549
 21
24.43773806305029
 31
0.0
  0
LINE
  5
963E
330
95D9
100
AcDbEntity
  8
0
 62
     5
100
AcDbLine
 10
142.9038561259967
 20
27.44058752458392
 30
0.0
 11
81.77838202908549
 21
27.44058752458392
 31
0.0
  0
LINE
  5
963F
330
95D9
100
AcDbEntity
  8
0
 62
     5
100
AcDbLine
 10
142.9038561259967
 20
30.44343698611755
 30
0.0
 11
81.77838202908549
 21
30.44343698611755
 31
0.0
  0
LINE
  5
9640
330
95D9
100
AcDbEntity
  8
0
 62
     5
100
AcDbLine
 10
142.9038561259967
 20
33.44628644765118
 30
0.0
 11
81.77838202908549
 21
33.44628644765118
 31
0.0
  0
MTEXT
  5
9641
330
95D9
100
AcDbEntity
  8
0
 62
     5
100
AcDbMText
 10
149.2834273422318
 20
19.20130535330335
 30
0.0
 40
1.10668529664
 41
0.0
 71
     1
 72
     5
  1
{\fPMingLiU|b0|i0|c136|p2;DIMENSION DEVIATIONS}
 73
     1
 44
1.0
1001
ACAD
1000
MTEXTBEGIN
1070
    73
1070
     1
1070
    44
1040
1.0
1070
    74
1070
     0
1000
MTEXTEND
  0
ENDBLK
  5
9642
330
95D9
100
AcDbEntity
  8
0
100
AcDbBlockEnd
  0
BLOCK
  5
9A64
330
9A63
100
AcDbEntity
  8
0
100
AcDbBlockBegin
  2
*D7
 70
     1
 10
0.0
 20
0.0
 30
0.0
  3
*D7
  1

  0
LINE
  5
9EE9
330
9A63
100
AcDbEntity
  8
mark
370
    -2
100
AcDbLine
 10
64.5
 20
109.8127085281933
 30
0.0
 11
64.5
 21
119.6039494758124
 31
0.0
  0
LINE
  5
9EEA
330
9A63
100
AcDbEntity
  8
mark
370
    -2
100
AcDbLine
 10
125.5
 20
109.8127085281864
 30
0.0
 11
125.5
 21
119.6039494758124
 31
0.0
  0
LINE
  5
9EEB
330
9A63
100
AcDbEntity
  8
mark
370
    -2
100
AcDbLine
 10
67.5
 20
118.8039494758125
 30
0.0
 11
122.5
 21
118.8039494758125
 31
0.0
  0
INSERT
  5
9EEC
330
9A63
100
AcDbEntity
  8
mark
370
    -2
100
AcDbBlockReference
  2
_Open30
 10
64.5
 20
118.8039494758125
 30
0.0
 41
3.0
 42
3.0
 43
3.0
 50
180.0
  0
INSERT
  5
9EED
330
9A63
100
AcDbEntity
  8
mark
370
    -2
100
AcDbBlockReference
  2
_Open30
 10
125.5
 20
118.8039494758125
 30
0.0
 41
3.0
 42
3.0
 43
3.0
  0
MTEXT
  5
9EEE
330
9A63
100
AcDbEntity
  8
mark
 62
     3
100
AcDbMText
 10
95.0
 20
120.8539494758125
 30
0.0
 40
2.5
 41
0.0
 71
     5
 72
     1
  1
\A1;%%c61
 73
     1
 44
1.0
1001
ACAD
1000
MTEXTBEGIN
1070
    73
1070
     1
1070
    44
1040
1.0
1070
    74
1070
     0
1000
MTEXTEND
  0
POINT
  5
9EEF
330
9A63
100
AcDbEntity
  8
DEFPOINTS
 62
     0
100
AcDbPoint
 10
64.5
 20
109.0127085281933
 30
0.0
  0
POINT
  5
9EF0
330
9A63
100
AcDbEntity
  8
DEFPOINTS
 62
     0
100
AcDbPoint
 10
125.5
 20
109.0127085281864
 30
0.0
  0
POINT
  5
9EF1
330
9A63
100
AcDbEntity
  8
DEFPOINTS
 62
     0
100
AcDbPoint
 10
125.5
 20
118.8039494758125
 30
0.0
  0
ENDBLK
  5
9A65
330
9A63
100
AcDbEntity
  8
0
100
AcDbBlockEnd
  0
BLOCK
  5
9A71
330
9A70
100
AcDbEntity
  8
0
100
AcDbBlockBegin
  2
*D8
 70
     1
 10
0.0
 20
0.0
 30
0.0
  3
*D8
  1

  0
LINE
  5
9EF2
330
9A70
100
AcDbEntity
  8
mark
370
    -2
100
AcDbLine
 10
80.91022545811325
 20
112.0127085281931
 30
0.0
 11
80.91022545811325
 21
115.0127085281931
 31
0.0
  0
LINE
  5
9EF3
330
9A70
100
AcDbEntity
  8
mark
370
    -2
100
AcDbLine
 10
80.91022545811325
 20
104.0127085281931
 30
0.0
 11
80.91022545811325
 21
97.74604186152648
 31
0.0
  0
LINE
  5
9EF4
330
9A70
100
AcDbEntity
  8
mark
370
    -2
100
AcDbLine
 10
80.91022545811325
 20
109.0127085281931
 30
0.0
 11
80.91022545811325
 21
107.0127085281931
 31
0.0
  0
INSERT
  5
9EF5
330
9A70
100
AcDbEntity
  8
mark
370
    -2
100
AcDbBlockReference
  2
_Open30
 10
80.91022545811325
 20
109.0127085281931
 30
0.0
 41
3.0
 42
3.0
 43
3.0
 50
270.0
  0
INSERT
  5
9EF6
330
9A70
100
AcDbEntity
  8
mark
370
    -2
100
AcDbBlockReference
  2
_Open30
 10
80.91022545811325
 20
107.0127085281931
 30
0.0
 41
3.0
 42
3.0
 43
3.0
 50
90.0
  0
MTEXT
  5
9EF7
330
9A70
100
AcDbEntity
  8
mark
 62
     3
100
AcDbMText
 10
78.86022545811322
 20
99.37937519485982
 30
0.0
 40
2.5
 41
0.0
 71
     5
 72
     1
  1
\A1;2
 11
0.0000000000000001
 21
1.0
 31
0.0
 73
     1
 44
1.0
1001
ACAD
1000
MTEXTBEGIN
1070
    73
1070
     1
1070
    44
1040
1.0
1070
    74
1070
     0
1000
MTEXTEND
  0
POINT
  5
9EF8
330
9A70
100
AcDbEntity
  8
DEFPOINTS
 62
     0
100
AcDbPoint
 10
80.91022545811325
 20
109.0127085281931
 30
0.0
  0
POINT
  5
9EF9
330
9A70
100
AcDbEntity
  8
DEFPOINTS
 62
     0
100
AcDbPoint
 10
80.91022545811325
 20
107.0127085281931
 30
0.0
  0
POINT
  5
9EFA
330
9A70
100
AcDbEntity
  8
DEFPOINTS
 62
     0
100
AcDbPoint
 10
80.91022545811325
 20
107.0127085281931
 30
0.0
  0
ENDBLK
  5
9A72
330
9A70
100
AcDbEntity
  8
0
100
AcDbBlockEnd
  0
BLOCK
  5
9A87
330
9A86
100
AcDbEntity
  8
0
100
AcDbBlockBegin
  2
*D9
 70
     1
 10
0.0
 20
0.0
 30
0.0
  3
*D9
  1

  0
LINE
  5
9EFB
330
9A86
100
AcDbEntity
  8
mark
370
    -2
100
AcDbLine
 10
58.49999999999977
 20
109.8127085281929
 30
0.0
 11
58.49999999999977
 21
127.5117945552556
 31
0.0
  0
LINE
  5
9EFC
330
9A86
100
AcDbEntity
  8
mark
370
    -2
100
AcDbLine
 10
131.4999999999997
 20
109.8127085281933
 30
0.0
 11
131.4999999999997
 21
127.5117945552556
 31
0.0
  0
LINE
  5
9EFD
330
9A86
100
AcDbEntity
  8
mark
370
    -2
100
AcDbLine
 10
61.49999999999977
 20
126.7117945552556
 30
0.0
 11
128.4999999999997
 21
126.7117945552556
 31
0.0
  0
INSERT
  5
9EFE
330
9A86
100
AcDbEntity
  8
mark
370
    -2
100
AcDbBlockReference
  2
_Open30
 10
58.49999999999977
 20
126.7117945552556
 30
0.0
 41
3.0
 42
3.0
 43
3.0
 50
180.0
  0
INSERT
  5
9EFF
330
9A86
100
AcDbEntity
  8
mark
370
    -2
100
AcDbBlockReference
  2
_Open30
 10
131.4999999999997
 20
126.7117945552556
 30
0.0
 41
3.0
 42
3.0
 43
3.0
  0
MTEXT
  5
9F00
330
9A86
100
AcDbEntity
  8
mark
 62
     3
100
AcDbMText
 10
94.99999999999976
 20
128.7617945552556
 30
0.0
 40
2.5
 41
0.0
 71
     5
 72
     1
  1
\A1;%%c73%%P0.5
 73
     1
 44
1.0
1001
ACAD
1000
MTEXTBEGIN
1070
    73
1070
     1
1070
    44
1040
1.0
1070
    74
1070
     0
1000
MTEXTEND
  0
POINT
  5
9F01
330
9A86
100
AcDbEntity
  8
DEFPOINTS
 62
     0
100
AcDbPoint
 10
58.49999999999977
 20
109.0127085281929
 30
0.0
  0
POINT
  5
9F02
330
9A86
100
AcDbEntity
  8
DEFPOINTS
 62
     0
100
AcDbPoint
 10
131.4999999999997
 20
109.0127085281933
 30
0.0
  0
POINT
  5
9F03
330
9A86
100
AcDbEntity
  8
DEFPOINTS
 62
     0
100
AcDbPoint
 10
131.4999999999997
 20
126.7117945552556
 30
0.0
  0
ENDBLK
  5
9A88
330
9A86
100
AcDbEntity
  8
0
100
AcDbBlockEnd
  0
BLOCK
  5
9A94
330
9A93
100
AcDbEntity
  8
0
100
AcDbBlockBegin
  2
*D10
 70
     1
 10
0.0
 20
0.0
 30
0.0
  3
*D10
  1

  0
LINE
  5
9F04
330
9A93
100
AcDbEntity
  8
mark
370
    -2
100
AcDbLine
 10
55.0
 20
107.8127085281929
 30
0.0
 11
55.0
 21
136.0329215826223
 31
0.0
  0
LINE
  5
9F05
330
9A93
100
AcDbEntity
  8
mark
370
    -2
100
AcDbLine
 10
135.0
 20
107.8127085281933
 30
0.0
 11
135.0
 21
136.0329215826223
 31
0.0
  0
LINE
  5
9F06
330
9A93
100
AcDbEntity
  8
mark
370
    -2
100
AcDbLine
 10
58.0
 20
135.2329215826223
 30
0.0
 11
132.0
 21
135.2329215826223
 31
0.0
  0
INSERT
  5
9F07
330
9A93
100
AcDbEntity
  8
mark
370
    -2
100
AcDbBlockReference
  2
_Open30
 10
55.0
 20
135.2329215826223
 30
0.0
 41
3.0
 42
3.0
 43
3.0
 50
180.0
  0
INSERT
  5
9F08
330
9A93
100
AcDbEntity
  8
mark
370
    -2
100
AcDbBlockReference
  2
_Open30
 10
135.0
 20
135.2329215826223
 30
0.0
 41
3.0
 42
3.0
 43
3.0
  0
MTEXT
  5
9F09
330
9A93
100
AcDbEntity
  8
mark
 62
     3
100
AcDbMText
 10
95.0
 20
137.4912549159556
 30
0.0
 40
2.5
 41
0.0
 71
     5
 72
     1
  1
\A1;%%c80{\H1.250000;\S 0^ -0.2;}
 73
     1
 44
1.0
1001
ACAD
1000
MTEXTBEGIN
1070
    73
1070
     1
1070
    44
1040
1.0
1070
    74
1070
     0
1000
MTEXTEND
  0
POINT
  5
9F0A
330
9A93
100
AcDbEntity
  8
DEFPOINTS
 62
     0
100
AcDbPoint
 10
55.0
 20
107.0127085281929
 30
0.0
  0
POINT
  5
9F0B
330
9A93
100
AcDbEntity
  8
DEFPOINTS
 62
     0
100
AcDbPoint
 10
135.0
 20
107.0127085281933
 30
0.0
  0
POINT
  5
9F0C
330
9A93
100
AcDbEntity
  8
DEFPOINTS
 62
     0
100
AcDbPoint
 10
135.0
 20
135.2329215826223
 30
0.0
  0
ENDBLK
  5
9A95
330
9A93
100
AcDbEntity
  8
0
100
AcDbBlockEnd
  0
BLOCK
  5
9ACF
330
9ACE
100
AcDbEntity
  8
0
100
AcDbBlockBegin
  2
*D11
 70
     1
 10
0.0
 20
0.0
 30
0.0
  3
*D11
  1

  0
LINE
  5
9F0D
330
9ACE
100
AcDbEntity
  8
mark
370
    -2
100
AcDbLine
 10
55.7
 20
108.5127085281929
 30
0.0
 11
46.33976947990055
 21
108.5127085281929
 31
0.0
  0
LINE
  5
9F0E
330
9ACE
100
AcDbEntity
  8
mark
370
    -2
100
AcDbLine
 10
57.7
 20
109.0127085281929
 30
0.0
 11
46.33976947990055
 21
109.0127085281929
 31
0.0
  0
LINE
  5
9F0F
330
9ACE
100
AcDbEntity
  8
mark
370
    -2
100
AcDbLine
 10
47.13976947990056
 20
105.5127085281929
 30
0.0
 11
47.13976947990056
 21
102.5127085281929
 31
0.0
  0
LINE
  5
9F10
330
9ACE
100
AcDbEntity
  8
mark
370
    -2
100
AcDbLine
 10
47.13976947990057
 20
112.0127085281929
 30
0.0
 11
47.13976947990057
 21
121.1960418615262
 31
0.0
  0
LINE
  5
9F11
330
9ACE
100
AcDbEntity
  8
mark
370
    -2
100
AcDbLine
 10
47.13976947990056
 20
108.5127085281929
 30
0.0
 11
47.13976947990056
 21
109.0127085281929
 31
0.0
  0
INSERT
  5
9F12
330
9ACE
100
AcDbEntity
  8
mark
370
    -2
100
AcDbBlockReference
  2
_Open30
 10
47.13976947990056
 20
108.5127085281929
 30
0.0
 41
3.0
 42
3.0
 43
3.0
 50
90.0
  0
INSERT
  5
9F13
330
9ACE
100
AcDbEntity
  8
mark
370
    -2
100
AcDbBlockReference
  2
_Open30
 10
47.13976947990056
 20
109.0127085281929
 30
0.0
 41
3.0
 42
3.0
 43
3.0
 50
270.0
  0
MTEXT
  5
9F14
330
9ACE
100
AcDbEntity
  8
mark
 62
     3
100
AcDbMText
 10
45.08976947990055
 20
118.1043751948595
 30
0.0
 40
2.5
 41
0.0
 71
     5
 72
     1
  1
\A1;0.5
 11
0.0000000000000001
 21
1.0
 31
0.0
 73
     1
 44
1.0
1001
ACAD
1000
MTEXTBEGIN
1070
    73
1070
     1
1070
    44
1040
1.0
1070
    74
1070
     0
1000
MTEXTEND
  0
POINT
  5
9F15
330
9ACE
100
AcDbEntity
  8
DEFPOINTS
 62
     0
100
AcDbPoint
 10
56.5
 20
108.5127085281929
 30
0.0
  0
POINT
  5
9F16
330
9ACE
100
AcDbEntity
  8
DEFPOINTS
 62
     0
100
AcDbPoint
 10
58.5
 20
109.0127085281929
 30
0.0
  0
POINT
  5
9F17
330
9ACE
100
AcDbEntity
  8
DEFPOINTS
 62
     0
100
AcDbPoint
 10
47.13976947990056
 20
109.0127085281929
 30
0.0
  0
ENDBLK
  5
9AD0
330
9ACE
100
AcDbEntity
  8
0
100
AcDbBlockEnd
  0
BLOCK
  5
9C1E
330
9C1D
100
AcDbEntity
  8
0
100
AcDbBlockBegin
  2
*D12
 70
     1
 10
0.0
 20
0.0
 30
0.0
  3
*D12
  1

  0
LINE
  5
9F18
330
9C1D
100
AcDbEntity
  8
mark
370
    -2
100
AcDbLine
 10
65.0
 20
93.21270852819335
 30
0.0
 11
65.0
 21
78.94798469189705
 31
0.0
  0
LINE
  5
9F19
330
9C1D
100
AcDbEntity
  8
mark
370
    -2
100
AcDbLine
 10
124.9999999999999
 20
93.21270852819335
 30
0.0
 11
124.9999999999999
 21
78.94798469189705
 31
0.0
  0
LINE
  5
9F1A
330
9C1D
100
AcDbEntity
  8
mark
370
    -2
100
AcDbLine
 10
68.0
 20
79.74798469189704
 30
0.0
 11
121.9999999999999
 21
79.74798469189704
 31
0.0
  0
INSERT
  5
9F1B
330
9C1D
100
AcDbEntity
  8
mark
370
    -2
100
AcDbBlockReference
  2
_Open30
 10
65.0
 20
79.74798469189704
 30
0.0
 41
3.0
 42
3.0
 43
3.0
 50
180.0
  0
INSERT
  5
9F1C
330
9C1D
100
AcDbEntity
  8
mark
370
    -2
100
AcDbBlockReference
  2
_Open30
 10
124.9999999999999
 20
79.74798469189704
 30
0.0
 41
3.0
 42
3.0
 43
3.0
  0
MTEXT
  5
9F1D
330
9C1D
100
AcDbEntity
  8
mark
 62
     3
100
AcDbMText
 10
94.99999999999994
 20
81.79798469189703
 30
0.0
 40
2.5
 41
0.0
 71
     5
 72
     1
  1
\A1;M60x2.0P
 73
     1
 44
1.0
1001
ACAD
1000
MTEXTBEGIN
1070
    73
1070
     1
1070
    44
1040
1.0
1070
    74
1070
     0
1000
MTEXTEND
  0
POINT
  5
9F1E
330
9C1D
100
AcDbEntity
  8
DEFPOINTS
 62
     0
100
AcDbPoint
 10
65.0
 20
94.01270852819335
 30
0.0
  0
POINT
  5
9F1F
330
9C1D
100
AcDbEntity
  8
DEFPOINTS
 62
     0
100
AcDbPoint
 10
124.9999999999999
 20
94.01270852819335
 30
0.0
  0
POINT
  5
9F20
330
9C1D
100
AcDbEntity
  8
DEFPOINTS
 62
     0
100
AcDbPoint
 10
124.9999999999999
 20
79.74798469189704
 30
0.0
  0
ENDBLK
  5
9C1F
330
9C1D
100
AcDbEntity
  8
0
100
AcDbBlockEnd
  0
BLOCK
  5
9C2B
330
9C2A
100
AcDbEntity
  8
0
100
AcDbBlockBegin
  2
*D13
 70
     1
 10
0.0
 20
0.0
 30
0.0
  3
*D13
  1

  0
LINE
  5
9F21
330
9C2A
100
AcDbEntity
  8
mark
370
    -2
100
AcDbLine
 10
132.2999999999998
 20
109.0127085281933
 30
0.0
 11
145.3405997991564
 21
109.0127085281933
 31
0.0
  0
LINE
  5
9F22
330
9C2A
100
AcDbEntity
  8
mark
370
    -2
100
AcDbLine
 10
136.7999999999998
 20
101.0127085281926
 30
0.0
 11
145.3405997991564
 21
101.0127085281926
 31
0.0
  0
LINE
  5
9F23
330
9C2A
100
AcDbEntity
  8
mark
370
    -2
100
AcDbLine
 10
144.5405997991564
 20
106.0127085281933
 30
0.0
 11
144.5405997991564
 21
104.0127085281926
 31
0.0
  0
INSERT
  5
9F24
330
9C2A
100
AcDbEntity
  8
mark
370
    -2
100
AcDbBlockReference
  2
_Open30
 10
144.5405997991564
 20
109.0127085281933
 30
0.0
 41
3.0
 42
3.0
 43
3.0
 50
90.0
  0
INSERT
  5
9F25
330
9C2A
100
AcDbEntity
  8
mark
370
    -2
100
AcDbBlockReference
  2
_Open30
 10
144.5405997991564
 20
101.0127085281926
 30
0.0
 41
3.0
 42
3.0
 43
3.0
 50
270.0
  0
MTEXT
  5
9F26
330
9C2A
100
AcDbEntity
  8
mark
 62
     3
100
AcDbMText
 10
142.4905997991564
 20
105.012708528193
 30
0.0
 40
2.5
 41
0.0
 71
     5
 72
     1
  1
\A1;8
 11
0.0000000000000001
 21
1.0
 31
0.0
 73
     1
 44
1.0
1001
ACAD
1000
MTEXTBEGIN
1070
    73
1070
     1
1070
    44
1040
1.0
1070
    74
1070
     0
1000
MTEXTEND
  0
POINT
  5
9F27
330
9C2A
100
AcDbEntity
  8
DEFPOINTS
 62
     0
100
AcDbPoint
 10
131.4999999999997
 20
109.0127085281933
 30
0.0
  0
POINT
  5
9F28
330
9C2A
100
AcDbEntity
  8
DEFPOINTS
 62
     0
100
AcDbPoint
 10
135.9999999999997
 20
101.0127085281926
 30
0.0
  0
POINT
  5
9F29
330
9C2A
100
AcDbEntity
  8
DEFPOINTS
 62
     0
100
AcDbPoint
 10
144.5405997991564
 20
101.0127085281926
 30
0.0
  0
ENDBLK
  5
9C2C
330
9C2A
100
AcDbEntity
  8
0
100
AcDbBlockEnd
  0
BLOCK
  5
9C38
330
9C37
100
AcDbEntity
  8
0
100
AcDbBlockBegin
  2
*D14
 70
     1
 10
0.0
 20
0.0
 30
0.0
  3
*D14
  1

  0
LINE
  5
9F2A
330
9C37
100
AcDbEntity
  8
mark
370
    -2
100
AcDbLine
 10
132.2999999999998
 20
109.0127085281933
 30
0.0
 11
156.4744032119653
 21
109.0127085281933
 31
0.0
  0
LINE
  5
9F2B
330
9C37
100
AcDbEntity
  8
mark
370
    -2
100
AcDbLine
 10
134.2999999999998
 20
93.01270852819333
 30
0.0
 11
156.4744032119653
 21
93.01270852819333
 31
0.0
  0
LINE
  5
9F2C
330
9C37
100
AcDbEntity
  8
mark
370
    -2
100
AcDbLine
 10
155.6744032119653
 20
106.0127085281933
 30
0.0
 11
155.6744032119653
 21
96.01270852819334
 31
0.0
  0
INSERT
  5
9F2D
330
9C37
100
AcDbEntity
  8
mark
370
    -2
100
AcDbBlockReference
  2
_Open30
 10
155.6744032119653
 20
109.0127085281933
 30
0.0
 41
3.0
 42
3.0
 43
3.0
 50
90.0
  0
INSERT
  5
9F2E
330
9C37
100
AcDbEntity
  8
mark
370
    -2
100
AcDbBlockReference
  2
_Open30
 10
155.6744032119653
 20
93.01270852819333
 30
0.0
 41
3.0
 42
3.0
 43
3.0
 50
270.0
  0
MTEXT
  5
9F2F
330
9C37
100
AcDbEntity
  8
mark
 62
     3
100
AcDbMText
 10
153.6244032119653
 20
101.0127085281933
 30
0.0
 40
2.5
 41
0.0
 71
     5
 72
     1
  1
\A1;16%%P0.2
 11
0.0000000000000001
 21
1.0
 31
0.0
 73
     1
 44
1.0
1001
ACAD
1000
MTEXTBEGIN
1070
    73
1070
     1
1070
    44
1040
1.0
1070
    74
1070
     0
1000
MTEXTEND
  0
POINT
  5
9F30
330
9C37
100
AcDbEntity
  8
DEFPOINTS
 62
     0
100
AcDbPoint
 10
131.4999999999997
 20
109.0127085281933
 30
0.0
  0
POINT
  5
9F31
330
9C37
100
AcDbEntity
  8
DEFPOINTS
 62
     0
100
AcDbPoint
 10
133.4999999999997
 20
93.01270852819333
 30
0.0
  0
POINT
  5
9F32
330
9C37
100
AcDbEntity
  8
DEFPOINTS
 62
     0
100
AcDbPoint
 10
155.6744032119653
 20
93.01270852819333
 30
0.0
  0
ENDBLK
  5
9C39
330
9C37
100
AcDbEntity
  8
0
100
AcDbBlockEnd
  0
BLOCK
  5
9DE6
330
9DE5
100
AcDbEntity
  8
0
100
AcDbBlockBegin
  2
*D15
 70
     1
 10
0.0
 20
0.0
 30
0.0
  3
*D15
  1

  0
LINE
  5
9F33
330
9DE5
100
AcDbEntity
  8
mark
  6
ByBlock
370
    -2
100
AcDbLine
 10
45.35128308329094
 20
83.36399161148646
 30
0.0
 11
53.31801948466024
 21
91.33072801285406
 31
0.0
  0
MTEXT
  5
9F34
330
9DE5
100
AcDbEntity
  8
mark
 62
     3
100
AcDbMText
 10
46.82442221076337
 20
87.73626854182314
 30
0.0
 40
2.5
 41
0.0
 71
     5
 72
     1
  1
\A1;R1.5
 11
0.7071067811866235
 21
0.7071067811864716
 31
0.0
 73
     1
 44
1.0
1001
ACAD
1000
MTEXTBEGIN
1070
    73
1070
     1
1070
    44
1040
1.0
1070
    74
1070
     0
1000
MTEXTEND
  0
LINE
  5
9F35
330
9DE5
100
AcDbEntity
  8
mark
  6
ByBlock
370
    -2
100
AcDbLine
 10
56.50000000000011
 20
94.51270852819325
 30
0.0
 11
55.43933982822011
 21
93.45204835641345
 31
0.0
  0
INSERT
  5
9F36
330
9DE5
100
AcDbEntity
  8
mark
370
    -2
100
AcDbBlockReference
  2
_Open30
 10
55.43933982822011
 20
93.45204835641345
 30
0.0
 41
3.0
 42
3.0
 43
3.0
 50
44.99999999999384
  0
POINT
  5
9F37
330
9DE5
100
AcDbEntity
  8
DEFPOINTS
 62
     0
100
AcDbPoint
 10
55.43933982822011
 20
93.45204835641345
 30
0.0
  0
POINT
  5
9F38
330
9DE5
100
AcDbEntity
  8
DEFPOINTS
 62
     0
100
AcDbPoint
 10
56.50000000000011
 20
94.51270852819325
 30
0.0
  0
ENDBLK
  5
9DE7
330
9DE5
100
AcDbEntity
  8
0
100
AcDbBlockEnd
  0
BLOCK
  5
9DF6
330
9DF5
100
AcDbEntity
  8
0
100
AcDbBlockBegin
  2
*D16
 70
     1
 10
0.0
 20
0.0
 30
0.0
  3
*D16
  1

  0
LINE
  5
9F39
330
9DF5
100
AcDbEntity
  8
mark
  6
ByBlock
370
    -2
100
AcDbLine
 10
54.45702200196144
 20
194.7377302216985
 30
0.0
 11
46.3397694799007
 21
194.7377302216985
 31
0.0
  0
LINE
  5
9F3A
330
9DF5
100
AcDbEntity
  8
mark
  6
ByBlock
370
    -2
100
AcDbLine
 10
54.35341921820641
 20
187.7377302216985
 30
0.0
 11
46.3397694799007
 21
187.7377302216985
 31
0.0
  0
LINE
  5
9F3B
330
9DF5
100
AcDbEntity
  8
mark
  6
ByBlock
370
    -2
100
AcDbLine
 10
47.13976947990071
 20
197.7377302216985
 30
0.0
 11
47.13976947990071
 21
200.7377302216985
 31
0.0
  0
LINE
  5
9F3C
330
9DF5
100
AcDbEntity
  8
mark
  6
ByBlock
370
    -2
100
AcDbLine
 10
47.13976947990071
 20
184.7377302216985
 30
0.0
 11
47.13976947990071
 21
181.7377302216985
 31
0.0
  0
LINE
  5
9F3D
330
9DF5
100
AcDbEntity
  8
mark
  6
ByBlock
370
    -2
100
AcDbLine
 10
47.13976947990071
 20
194.7377302216985
 30
0.0
 11
47.13976947990071
 21
187.7377302216985
 31
0.0
  0
INSERT
  5
9F3E
330
9DF5
100
AcDbEntity
  8
mark
370
    -2
100
AcDbBlockReference
  2
_Open30
 10
47.13976947990071
 20
194.7377302216985
 30
0.0
 41
3.0
 42
3.0
 43
3.0
 50
270.0
  0
INSERT
  5
9F3F
330
9DF5
100
AcDbEntity
  8
mark
370
    -2
100
AcDbBlockReference
  2
_Open30
 10
47.13976947990071
 20
187.7377302216985
 30
0.0
 41
3.0
 42
3.0
 43
3.0
 50
90.0
  0
MTEXT
  5
9F40
330
9DF5
100
AcDbEntity
  8
mark
 62
     3
100
AcDbMText
 10
44.88143614656734
 20
191.2377302216985
 30
0.0
 40
2.5
 41
0.0
 71
     5
 72
     1
  1
\A1;7{\H1.250000;\S+0.15^ -0;}
 11
0.0000000000000001
 21
1.0
 31
0.0
 73
     1
 44
1.0
1001
ACAD
1000
MTEXTBEGIN
1070
    73
1070
     1
1070
    44
1040
1.0
1070
    74
1070
     0
1000
MTEXTEND
  0
POINT
  5
9F41
330
9DF5
100
AcDbEntity
  8
DEFPOINTS
 62
     0
100
AcDbPoint
 10
55.25702200196144
 20
194.7377302216985
 30
0.0
  0
POINT
  5
9F42
330
9DF5
100
AcDbEntity
  8
DEFPOINTS
 62
     0
100
AcDbPoint
 10
55.15341921820641
 20
187.7377302216985
 30
0.0
  0
POINT
  5
9F43
330
9DF5
100
AcDbEntity
  8
DEFPOINTS
 62
     0
100
AcDbPoint
 10
47.13976947990071
 20
187.7377302216985
 30
0.0
  0
ENDBLK
  5
9DF7
330
9DF5
100
AcDbEntity
  8
0
100
AcDbBlockEnd
  0
BLOCK
  5
9E05
330
9E04
100
AcDbEntity
  8
0
100
AcDbBlockBegin
  2
*D17
 70
     1
 10
0.0
 20
0.0
 30
0.0
  3
*D17
  1

  0
LINE
  5
9F44
330
9E04
100
AcDbEntity
  8
mark
  6
ByBlock
370
    -2
100
AcDbLine
 10
58.15341921820641
 20
186.9377302216985
 30
0.0
 11
58.15341921820641
 21
150.4377302216985
 31
0.0
  0
LINE
  5
9F45
330
9E04
100
AcDbEntity
  8
mark
  6
ByBlock
370
    -2
100
AcDbLine
 10
55.15341921820641
 20
186.9377302216985
 30
0.0
 11
55.15341921820641
 21
150.4377302216985
 31
0.0
  0
LINE
  5
9F46
330
9E04
100
AcDbEntity
  8
mark
  6
ByBlock
370
    -2
100
AcDbLine
 10
61.15341921820641
 20
151.2377302216985
 30
0.0
 11
64.1534192182064
 21
151.2377302216985
 31
0.0
  0
LINE
  5
9F47
330
9E04
100
AcDbEntity
  8
mark
  6
ByBlock
370
    -2
100
AcDbLine
 10
52.15341921820641
 20
151.2377302216985
 30
0.0
 11
40.67841921820641
 21
151.2377302216985
 31
0.0
  0
LINE
  5
9F48
330
9E04
100
AcDbEntity
  8
mark
  6
ByBlock
370
    -2
100
AcDbLine
 10
58.15341921820641
 20
151.2377302216985
 30
0.0
 11
55.15341921820641
 21
151.2377302216985
 31
0.0
  0
INSERT
  5
9F49
330
9E04
100
AcDbEntity
  8
mark
370
    -2
100
AcDbBlockReference
  2
_Open30
 10
58.15341921820641
 20
151.2377302216985
 30
0.0
 41
3.0
 42
3.0
 43
3.0
 50
180.0
  0
INSERT
  5
9F4A
330
9E04
100
AcDbEntity
  8
mark
370
    -2
100
AcDbBlockReference
  2
_Open30
 10
55.15341921820641
 20
151.2377302216985
 30
0.0
 41
3.0
 42
3.0
 43
3.0
  0
MTEXT
  5
9F4B
330
9E04
100
AcDbEntity
  8
mark
 62
     3
100
AcDbMText
 10
44.91591921820641
 20
153.4960635550318
 30
0.0
 40
2.5
 41
0.0
 71
     5
 72
     1
  1
\A1;3{\H1.250000;\S+0.15^ -0;}
 73
     1
 44
1.0
1001
ACAD
1000
MTEXTBEGIN
1070
    73
1070
     1
1070
    44
1040
1.0
1070
    74
1070
     0
1000
MTEXTEND
  0
POINT
  5
9F4C
330
9E04
100
AcDbEntity
  8
DEFPOINTS
 62
     0
100
AcDbPoint
 10
58.15341921820641
 20
187.7377302216985
 30
0.0
  0
POINT
  5
9F4D
330
9E04
100
AcDbEntity
  8
DEFPOINTS
 62
     0
100
AcDbPoint
 10
55.15341921820641
 20
187.7377302216985
 30
0.0
  0
POINT
  5
9F4E
330
9E04
100
AcDbEntity
  8
DEFPOINTS
 62
     0
100
AcDbPoint
 10
55.15341921820641
 20
151.2377302216985
 30
0.0
  0
ENDBLK
  5
9E06
330
9E04
100
AcDbEntity
  8
0
100
AcDbBlockEnd
  0
ENDSEC
  0
SECTION
  2
ENTITIES
  0
MTEXT
  5
C0
330
18
100
AcDbEntity
  8
0
100
AcDbMText
 10
41.26970765600413
 20
233.6950877649332
 30
0.0
 40
2.5
 41
0.0
 71
     1
 72
     5
  1

  7
ISOCP3
 73
     1
 44
1.0
1001
ACAD
1000
MTEXTBEGIN
1070
    73
1070
     1
1070
    44
1040
1.0
1070
    74
1070
     0
1000
MTEXTEND
  0
LWPOLYLINE
  5
9423
330
18
100
AcDbEntity
  8
frame
100
AcDbPolyline
 90
        4
 70
     1
 43
0.0
 10
190.0
 20
280.0
 10
0.0
 20
280.0
 10
0.0
 20
0.0
 10
190.0
 20
0.0
  0
MTEXT
  5
9424
330
18
100
AcDbEntity
  8
0
100
AcDbMText
 10
17.09950368689181
 20
19.07605901616614
 30
0.0
 40
4.5
 41
0.0
 71
     1
 72
     5
  1
{\Ftxt,bigfont|c128;林彦旭}
  7
JL
 73
     1
 44
1.0
1001
ACAD
1000
MTEXTBEGIN
1070
    73
1070
     1
1070
    44
1040
1.0
1070
    74
1070
     0
1000
MTEXTEND
  0
MTEXT
  5
9425
330
18
100
AcDbEntity
  8
0
100
AcDbMText
 10
77.95294729228851
 20
28.93578979870677
 30
0.0
 40
4.5
 41
0.0
 71
     1
 72
     5
  1
\Ftxt.shx,bigfont.shx|c128;1 : 1
  7
JL
 73
     1
 44
1.0
1001
ACAD
1000
MTEXTBEGIN
1070
    73
1070
     1
1070
    44
1040
1.0
1070
    74
1070
     0
1000
MTEXTEND
  0
MTEXT
  5
9426
330
18
100
AcDbEntity
  8
0
 48
2.0
370
    25
100
AcDbMText
 10
140.2194500465656
 20
3.490021654633892
 30
0.0
 40
4.5
 41
0.0
 71
     5
 72
     1
  1
{\Ftxt,bigfont|c128;N L 4 0 3 \Ftxt,bigfont|c136;6\Ftxt,bigfont|c128; \Ftxt,bigfont|c136;3}
 73
     1
 44
1.0
1001
ACAD
1000
MTEXTBEGIN
1070
    73
1070
     1
1070
    44
1040
1.0
1070
    74
1070
     0
1000
MTEXTEND
  0
MTEXT
  5
9427
330
18
100
AcDbEntity
  8
0
 48
2.0
100
AcDbMText
 10
169.8775928737022
 20
21.76437127823692
 30
0.0
 40
4.318181818181822
 41
0.0
 71
     5
 72
     1
  1
\P{\Ftxt,bigfont|c128;MRZ6\Ftxt,bigfont|c136;0x\Ftxt,bigfont|c128;2.0P}
 73
     1
 44
1.0
1001
ACAD
1000
MTEXTBEGIN
1070
    73
1070
     1
1070
    44
1040
1.0
1070
    74
1070
     0
1000
MTEXTEND
  0
MTEXT
  5
9428
330
18
100
AcDbEntity
  8
0
100
AcDbMText
 10
13.05677818763217
 20
29.06287472552094
 30
0.0
 40
4.5
 41
0.0
 71
     1
 72
     5
  1
{\Ftxt,bigfont|c136;2013\Ftxt,bigfont|c128;.\Ftxt,bigfont|c136;10\Ftxt,bigfont|c128;.\Ftxt,bigfont|c136;08}
  7
JL
 73
     1
 44
1.0
1001
ACAD
1000
MTEXTBEGIN
1070
    73
1070
     1
1070
    44
1040
1.0
1070
    74
1070
     0
1000
MTEXTEND
  0
LINE
  5
9429
330
18
100
AcDbEntity
  8
0
 62
     7
 48
5.0
100
AcDbLine
 39
3.838383838383842
 10
47.92942413992534
 20
27.65712907016086
 30
0.0
 11
53.04580144287854
 21
28.93622339589922
 31
0.0
  0
MTEXT
  5
942A
330
18
100
AcDbEntity
  8
0
100
AcDbMText
 10
14.91235548326415
 20
9.242195050049303
 30
0.0
 40
6.0
 41
0.0
 71
     1
 72
     5
  1
\Ftxt.shx,bigfont.shx|c128;日機株式会社
  7
LKK
 73
     1
 44
1.0
1001
ACAD
1000
MTEXTBEGIN
1070
    73
1070
     1
1070
    44
1040
1.0
1070
    74
1070
     0
1000
MTEXTEND
  0
LINE
  5
942B
330
18
100
AcDbEntity
  8
frame
100
AcDbLine
 10
0.0
 20
12.0
 30
0.0
 11
190.0
 21
12.00000000000005
 31
0.0
  0
LINE
  5
942C
330
18
100
AcDbEntity
  8
frame
100
AcDbLine
 10
0.0
 20
22.0
 30
0.0
 11
92.12121212121223
 21
22.0
 31
0.0
  0
LINE
  5
942D
330
18
100
AcDbEntity
  8
frame
100
AcDbLine
 10
0.0
 20
32.0
 30
0.0
 11
190.0
 21
32.0
 31
0.0
  0
LINE
  5
942E
330
18
100
AcDbEntity
  8
frame
100
AcDbLine
 10
12.19077332493805
 20
32.0
 30
0.0
 11
12.19077332493805
 21
12.0
 31
0.0
  0
LINE
  5
942F
330
18
100
AcDbEntity
  8
frame
100
AcDbLine
 10
30.70707070707067
 20
32.0
 30
0.0
 11
30.70707070707078
 21
12.0
 31
0.0
  0
MTEXT
  5
9430
330
18
100
AcDbEntity
  8
0
100
AcDbMText
 10
2.830274784221955
 20
29.08190089582831
 30
0.0
 40
4.5
 41
0.0
 71
     1
 72
     5
  1
\Ftxt.shx,bigfont.shx|c128;日 付
  7
JL
 73
     1
 44
1.0
1001
ACAD
1000
MTEXTBEGIN
1070
    73
1070
     1
1070
    44
1040
1.0
1070
    74
1070
     0
1000
MTEXTEND
  0
MTEXT
  5
9431
330
18
100
AcDbEntity
  8
0
100
AcDbMText
 10
2.970633077438947
 20
19.52163842926637
 30
0.0
 40
4.5
 41
0.0
 71
     1
 72
     5
  1
\Ftxt.shx,bigfont.shx|c128;製 図
  7
JL
 73
     1
 44
1.0
1001
ACAD
1000
MTEXTBEGIN
1070
    73
1070
     1
1070
    44
1040
1.0
1070
    74
1070
     0
1000
MTEXTEND
  0
LINE
  5
9432
330
18
100
AcDbEntity
  8
0
 62
     7
370
    25
100
AcDbLine
 10
53.04580144287854
 20
23.81984609294597
 30
0.0
 11
53.04580144287854
 21
28.93622339589922
 31
0.0
  0
MTEXT
  5
9433
330
18
100
AcDbEntity
  8
0
100
AcDbMText
 10
64.00748852490835
 20
29.12242703792379
 30
0.0
 40
4.5
 41
0.0
 71
     1
 72
     5
  1
\Ftxt.shx,bigfont.shx|c128;尺 度
  7
JL
 73
     1
 44
1.0
1001
ACAD
1000
MTEXTBEGIN
1070
    73
1070
     1
1070
    44
1040
1.0
1070
    74
1070
     0
1000
MTEXTEND
  0
LINE
  5
9434
330
18
100
AcDbEntity
  8
frame
100
AcDbLine
 10
61.41414141414145
 20
32.0
 30
0.0
 11
61.41414141414145
 21
12.0
 31
0.0
  0
LINE
  5
9435
330
18
100
AcDbEntity
  8
0
 62
     7
370
    25
100
AcDbLine
 10
39.6153110226262
 20
23.18889018332635
 30
0.0
 11
39.6153110226262
 21
29.36457992429672
 31
0.0
  0
CIRCLE
  5
9436
330
18
100
AcDbEntity
  8
0
 62
     7
100
AcDbCircle
 10
39.6153110226262
 20
26.37803474442251
 30
0.0
 40
2.558188651476678
  0
LINE
  5
9437
330
18
100
AcDbEntity
  8
0
 62
     7
370
    25
100
AcDbLine
 10
47.19321986919976
 20
26.37803474442262
 30
0.0
 11
53.50512581624241
 21
26.37803474442262
 31
0.0
  0
LINE
  5
9438
330
18
100
AcDbEntity
  8
0
 62
     7
100
AcDbLine
 10
47.92942413992534
 20
25.09894041868427
 30
0.0
 11
53.04580144287854
 21
23.81984609294597
 31
0.0
  0
LINE
  5
9439
330
18
100
AcDbEntity
  8
frame
100
AcDbLine
 10
42.742241959951
 20
22.0
 30
0.0
 11
42.742241959951
 21
12.0
 31
0.0
  0
LINE
  5
943A
330
18
100
AcDbEntity
  8
0
 62
     7
370
    25
100
AcDbLine
 10
36.41832228486612
 20
26.37803474442251
 30
0.0
 11
43.00325267619268
 21
26.37803474442262
 31
0.0
  0
CIRCLE
  5
943B
330
18
100
AcDbEntity
  8
0
 62
     7
100
AcDbCircle
 10
39.6153110226262
 20
26.37803474442251
 30
0.0
 40
1.279094325738339
  0
MTEXT
  5
943C
330
18
100
AcDbEntity
  8
0
100
AcDbMText
 10
33.70184032462407
 20
19.41013815785266
 30
0.0
 40
4.5
 41
0.0
 71
     1
 72
     5
  1
\Ftxt.shx,bigfont.shx|c128;検 図
  7
JL
 73
     1
 44
1.0
1001
ACAD
1000
MTEXTBEGIN
1070
    73
1070
     1
1070
    44
1040
1.0
1070
    74
1070
     0
1000
MTEXTEND
  0
LINE
  5
943D
330
18
100
AcDbEntity
  8
0
 62
     7
370
    25
100
AcDbLine
 10
47.92942413992534
 20
25.09894041868427
 30
0.0
 11
47.92942413992534
 21
27.65712907016086
 31
0.0
  0
MTEXT
  5
943E
330
18
100
AcDbEntity
  8
0
100
AcDbMText
 10
64.28820249919829
 20
19.32058534748881
 30
0.0
 40
4.5
 41
0.0
 71
     1
 72
     5
  1
\Ftxt.shx,bigfont.shx|c128;承 認
  7
JL
 73
     1
 44
1.0
1001
ACAD
1000
MTEXTBEGIN
1070
    73
1070
     1
1070
    44
1040
1.0
1070
    74
1070
     0
1000
MTEXTEND
  0
MTEXT
  5
943F
330
18
100
AcDbEntity
  8
0
100
AcDbMText
 10
93.71128715606699
 20
10.7026821961914
 30
0.0
 40
4.5
 41
0.0
 71
     1
 72
     5
  1
\Ftxt.shx,bigfont.shx|c128;図  面  番  号
  7
JL
 73
     1
 44
1.0
1001
ACAD
1000
MTEXTBEGIN
1070
    73
1070
     1
1070
    44
1040
1.0
1070
    74
1070
     0
1000
MTEXTEND
  0
MTEXT
  5
9440
330
18
100
AcDbEntity
  8
0
 48
2.0
100
AcDbMText
 10
116.9038190021384
 20
21.8757473149584
 30
0.0
 40
4.5
 41
0.0
 71
     5
 72
     1
  1
\P\Ftxt.shx,bigfont.shx|c128;    精密ロックナット
 73
     1
 44
1.0
1001
ACAD
1000
MTEXTBEGIN
1070
    73
1070
     1
1070
    44
1040
1.0
1070
    74
1070
     0
1000
MTEXTEND
  0
MTEXT
  5
9441
330
18
100
AcDbEntity
  8
0
100
AcDbMText
 10
94.8083613031232
 20
29.03862457973275
 30
0.0
 40
4.5
 41
0.0
 71
     1
 72
     5
  1
\Ftxt.shx,bigfont.shx|c128;品  名
  7
JL
 73
     1
 44
1.0
1001
ACAD
1000
MTEXTBEGIN
1070
    73
1070
     1
1070
    44
1040
1.0
1070
    74
1070
     0
1000
MTEXTEND
  0
LINE
  5
9442
330
18
100
AcDbEntity
  8
frame
100
AcDbLine
 10
92.12121212121223
 20
32.0
 30
0.0
 11
92.12121212121223
 21
0.1833227579584786
 31
0.0
  0
LINE
  5
9443
330
18
100
AcDbEntity
  8
frame
100
AcDbLine
 10
73.41414141414145
 20
32.0
 30
0.0
 11
73.41414141414145
 21
12.0
 31
0.0
  0
LINE
  5
9444
330
18
100
AcDbEntity
  8
frame
100
AcDbLine
 10
147.0327092740656
 20
32.0
 30
0.0
 11
147.0327092740657
 21
12.0
 31
0.0
  0
MTEXT
  5
9445
330
18
100
AcDbEntity
  8
0
100
AcDbMText
 10
150.895959446773
 20
29.04517782830391
 30
0.0
 40
4.5
 41
0.0
 71
     1
 72
     5
  1
\Ftxt.shx,bigfont.shx|c128;型  番
  7
JL
 73
     1
 44
1.0
1001
ACAD
1000
MTEXTBEGIN
1070
    73
1070
     1
1070
    44
1040
1.0
1070
    74
1070
     0
1000
MTEXTEND
  0
MTEXT
  5
9446
330
18
100
AcDbEntity
  8
0
100
AcDbMText
 10
165.8059614810325
 20
10.78298174971564
 30
0.0
 40
4.5
 41
0.0
 71
     1
 72
     5
  1
\Ftxt.shx,bigfont.shx|c128;変更
  7
JL
 73
     1
 44
1.0
1001
ACAD
1000
MTEXTBEGIN
1070
    73
1070
     1
1070
    44
1040
1.0
1070
    74
1070
     0
1000
MTEXTEND
  0
LINE
  5
9447
330
18
100
AcDbEntity
  8
frame
100
AcDbLine
 10
164.0909090909092
 20
12.00000000000005
 30
0.0
 11
164.0909090909093
 21
0.0
 31
0.0
  0
MTEXT
  5
9448
330
18
100
AcDbEntity
  8
0
100
AcDbMText
 10
57.63639061334425
 20
260.9000583279474
 30
0.0
 40
5.0
 41
0.0
 71
     1
 72
     5
  1
{\Ftxt,bigfont|c128;M8\Ftxt,bigfont|c136;x\Ftxt,bigfont|c128;1.25P-6L}
  7
JL
 73
     1
 44
1.0
1001
ACAD
1000
MTEXTBEGIN
1070
    73
1070
     1
1070
    44
1040
1.0
1070
    74
1070
     0
1000
MTEXTEND
  0
LINE
  5
944A
330
18
100
AcDbEntity
  8
frame
100
AcDbLine
 10
0.0
 20
254.0
 30
0.0
 11
190.0
 21
254.0
 31
0.0
  0
LINE
  5
944B
330
18
100
AcDbEntity
  8
frame
100
AcDbLine
 10
0.0
 20
262.0
 30
0.0
 11
190.0
 21
262.0
 31
0.0
  0
LINE
  5
944C
330
18
100
AcDbEntity
  8
frame
 62
     9
100
AcDbLine
 10
0.0
 20
270.0
 30
0.0
 11
190.0
 21
270.0
 31
0.0
  0
MTEXT
  5
944D
330
18
100
AcDbEntity
  8
0
100
AcDbMText
 10
57.0156439060371
 20
277.4240560049041
 30
0.0
 40
5.0
 41
0.0
 71
     1
 72
     5
  1
\Ftxt.shx,bigfont.shx|c128;図    番 / 規　　格
  7
JL
 73
     1
 44
1.0
1001
ACAD
1000
MTEXTBEGIN
1070
    73
1070
     1
1070
    44
1040
1.0
1070
    74
1070
     0
1000
MTEXTEND
  0
LINE
  5
944E
330
18
100
AcDbEntity
  8
frame
100
AcDbLine
 10
0.0
 20
254.0
 30
0.0
 11
190.0
 21
254.0
 31
0.0
  0
LINE
  5
944F
330
18
100
AcDbEntity
  8
frame
100
AcDbLine
 10
0.0
 20
245.8933909875332
 30
0.0
 11
190.0
 21
245.8933909875332
 31
0.0
  0
MTEXT
  5
9450
330
18
100
AcDbEntity
  8
0
100
AcDbMText
 10
21.12488048923433
 20
277.4637981386743
 30
0.0
 40
5.0
 41
0.0
 71
     1
 72
     5
  1
\Ftxt.shx,bigfont.shx|c128;品　          名
  7
JL
 73
     1
 44
1.0
1001
ACAD
1000
MTEXTBEGIN
1070
    73
1070
     1
1070
    44
1040
1.0
1070
    74
1070
     0
1000
MTEXTEND
  0
MTEXT
  5
9451
330
18
100
AcDbEntity
  8
0
100
AcDbMText
 10
18.10281387110137
 20
260.7907237289111
 30
0.0
 40
5.0
 41
0.0
 71
     1
 72
     5
  1
\Ftxt.shx,bigfont.shx|c128;セットスクリュ-
  7
JL
 73
     1
 44
1.0
1001
ACAD
1000
MTEXTBEGIN
1070
    73
1070
     1
1070
    44
1040
1.0
1070
    74
1070
     0
1000
MTEXTEND
  0
MTEXT
  5
9452
330
18
100
AcDbEntity
  8
0
100
AcDbMText
 10
17.91509480863158
 20
268.8361230282964
 30
0.0
 40
5.0
 41
0.0
 71
     1
 72
     5
  1
\Ftxt.shx,bigfont.shx|c128;ロックナット　  
  7
JL
 73
     1
 44
1.0
1001
ACAD
1000
MTEXTBEGIN
1070
    73
1070
     1
1070
    44
1040
1.0
1070
    74
1070
     0
1000
MTEXTEND
  0
MTEXT
  5
9453
330
18
100
AcDbEntity
  8
0
100
AcDbMText
 10
18.10281387110137
 20
252.8510545014035
 30
0.0
 40
5.0
 41
0.0
 71
     1
 72
     5
  1
\Ftxt.shx,bigfont.shx|c128;ロックピン 
  7
JL
 73
     1
 44
1.0
1001
ACAD
1000
MTEXTBEGIN
1070
    73
1070
     1
1070
    44
1040
1.0
1070
    74
1070
     0
1000
MTEXTEND
  0
LINE
  5
9454
330
18
100
AcDbEntity
  8
frame
 62
     9
100
AcDbLine
 10
14.39393939393937
 20
279.9999999999999
 30
0.0
 11
14.39393939393972
 21
245.8933909875332
 31
0.0
  0
LINE
  5
9455
330
18
100
AcDbEntity
  8
frame
 62
     9
100
AcDbLine
 10
14.39393939393937
 20
279.9999999999999
 30
0.0
 11
14.39393939393937
 21
255.0505050505051
 31
0.0
  0
MTEXT
  5
9456
330
18
100
AcDbEntity
  8
0
100
AcDbMText
 10
6.815009268013795
 20
268.7281674434121
 30
0.0
 40
5.0
 41
0.0
 71
     1
 72
     5
  1
\Ftxt.shx,bigfont.shx|c128;1
  7
JL
 73
     1
 44
1.0
1001
ACAD
1000
MTEXTBEGIN
1070
    73
1070
     1
1070
    44
1040
1.0
1070
    74
1070
     0
1000
MTEXTEND
  0
MTEXT
  5
9457
330
18
100
AcDbEntity
  8
0
100
AcDbMText
 10
2.119828072980226
 20
277.4734782639491
 30
0.0
 40
5.0
 41
0.0
 71
     1
 72
     5
  1
\Ftxt.shx,bigfont.shx|c128;照   号
  7
JL
 73
     1
 44
1.0
1001
ACAD
1000
MTEXTBEGIN
1070
    73
1070
     1
1070
    44
1040
1.0
1070
    74
1070
     0
1000
MTEXTEND
  0
LINE
  5
9458
330
18
100
AcDbEntity
  8
frame
 62
     9
100
AcDbLine
 10
52.77777777777783
 20
279.9999999999999
 30
0.0
 11
52.77777777777783
 21
245.8933909875332
 31
0.0
  0
MTEXT
  5
9459
330
18
100
AcDbEntity
  8
0
100
AcDbMText
 10
145.5736374372851
 20
277.6781663894194
 30
0.0
 40
5.0
 41
0.0
 71
     1
 72
     5
  1
\Ftxt.shx,bigfont.shx|c128;備           考
  7
JL
 73
     1
 44
1.0
1001
ACAD
1000
MTEXTBEGIN
1070
    73
1070
     1
1070
    44
1040
1.0
1070
    74
1070
     0
1000
MTEXTEND
  0
LINE
  5
945A
330
18
100
AcDbEntity
  8
frame
 62
     9
100
AcDbLine
 10
91.16161616161617
 20
280.0
 30
0.0
 11
91.16161616161617
 21
245.8933909875332
 31
0.0
  0
MTEXT
  5
945B
330
18
100
AcDbEntity
  8
0
100
AcDbMText
 10
92.87341089179369
 20
252.4309794461317
 30
0.0
 40
5.0
 41
0.0
 71
     1
 72
     5
  1
\Ftxt.shx,bigfont.shx|c128;C3604
  7
JL
 73
     1
 44
1.0
1001
ACAD
1000
MTEXTBEGIN
1070
    73
1070
     1
1070
    44
1040
1.0
1070
    74
1070
     0
1000
MTEXTEND
  0
MTEXT
  5
945C
330
18
100
AcDbEntity
  8
0
100
AcDbMText
 10
92.87341089179369
 20
268.8361230282964
 30
0.0
 40
5.0
 41
0.0
 71
     1
 72
     5
  1
\Ftxt.shx,bigfont.shx|c128;SCM-440
  7
JL
 73
     1
 44
1.0
1001
ACAD
1000
MTEXTBEGIN
1070
    73
1070
     1
1070
    44
1040
1.0
1070
    74
1070
     0
1000
MTEXTEND
  0
MTEXT
  5
945D
330
18
100
AcDbEntity
  8
0
100
AcDbMText
 10
92.87341089179369
 20
260.765002012584
 30
0.0
 40
5.0
 41
0.0
 71
     1
 72
     5
  1
\Ftxt.shx,bigfont.shx|c128;SCM435
  7
JL
 73
     1
 44
1.0
1001
ACAD
1000
MTEXTBEGIN
1070
    73
1070
     1
1070
    44
1040
1.0
1070
    74
1070
     0
1000
MTEXTEND
  0
MTEXT
  5
945E
330
18
100
AcDbEntity
  8
0
100
AcDbMText
 10
95.76798863104192
 20
277.5645499482919
 30
0.0
 40
5.0
 41
0.0
 71
     1
 72
     5
  1
\Ftxt.shx,bigfont.shx|c128;材　質
  7
JL
 73
     1
 44
1.0
1001
ACAD
1000
MTEXTBEGIN
1070
    73
1070
     1
1070
    44
1040
1.0
1070
    74
1070
     0
1000
MTEXTEND
  0
LINE
  5
945F
330
18
100
AcDbEntity
  8
frame
 62
     9
100
AcDbLine
 10
110.3535353535354
 20
280.0
 30
0.0
 11
110.3535353535354
 21
245.8933909875332
 31
0.0
  0
LINE
  5
9460
330
18
100
AcDbEntity
  8
frame
100
AcDbLine
 10
124.7474747474747
 20
280.0
 30
0.0
 11
124.7474747474748
 21
245.8933909875332
 31
0.0
  0
MTEXT
  5
9461
330
18
100
AcDbEntity
  8
0
100
AcDbMText
 10
116.5939070266884
 20
252.4642985589993
 30
0.0
 40
5.0
 41
0.0
 71
     1
 72
     5
  1
\Ftxt.shx,bigfont.shx|c128;3
  7
JL
 73
     1
 44
1.0
1001
ACAD
1000
MTEXTBEGIN
1070
    73
1070
     1
1070
    44
1040
1.0
1070
    74
1070
     0
1000
MTEXTEND
  0
MTEXT
  5
9462
330
18
100
AcDbEntity
  8
0
100
AcDbMText
 10
117.1685446215491
 20
269.0412711679932
 30
0.0
 40
5.0
 41
0.0
 71
     1
 72
     5
  1
\Ftxt.shx,bigfont.shx|c128;1
  7
JL
 73
     1
 44
1.0
1001
ACAD
1000
MTEXTBEGIN
1070
    73
1070
     1
1070
    44
1040
1.0
1070
    74
1070
     0
1000
MTEXTEND
  0
MTEXT
  5
9463
330
18
100
AcDbEntity
  8
0
100
AcDbMText
 10
116.5939070266884
 20
260.5092290150679
 30
0.0
 40
5.0
 41
0.0
 71
     1
 72
     5
  1
\Ftxt.shx,bigfont.shx|c128;3
  7
JL
 73
     1
 44
1.0
1001
ACAD
1000
MTEXTBEGIN
1070
    73
1070
     1
1070
    44
1040
1.0
1070
    74
1070
     0
1000
MTEXTEND
  0
MTEXT
  5
9464
330
18
100
AcDbEntity
  8
0
100
AcDbMText
 10
112.4223895919262
 20
277.5645499482919
 30
0.0
 40
5.0
 41
0.0
 71
     1
 72
     5
  1
\Ftxt.shx,bigfont.shx|c128;数   量
  7
JL
 73
     1
 44
1.0
1001
ACAD
1000
MTEXTBEGIN
1070
    73
1070
     1
1070
    44
1040
1.0
1070
    74
1070
     0
1000
MTEXTEND
  0
MTEXT
  5
9465
330
18
100
AcDbEntity
  8
0
100
AcDbMText
 10
6.404019699055993
 20
260.7281674434121
 30
0.0
 40
5.0
 41
0.0
 71
     1
 72
     5
  1
{\Ftxt,bigfont|c128;2}
  7
JL
 73
     1
 44
1.0
1001
ACAD
1000
MTEXTBEGIN
1070
    73
1070
     1
1070
    44
1040
1.0
1070
    74
1070
     0
1000
MTEXTEND
  0
MTEXT
  5
9466
330
18
100
AcDbEntity
  8
0
100
AcDbMText
 10
6.404019699055993
 20
252.6215584309452
 30
0.0
 40
5.0
 41
0.0
 71
     1
 72
     5
  1
{\Ftxt,bigfont|c128;3}
  7
JL
 73
     1
 44
1.0
1001
ACAD
1000
MTEXTBEGIN
1070
    73
1070
     1
1070
    44
1040
1.0
1070
    74
1070
     0
1000
MTEXTEND
  0
LINE
  5
94C3
330
18
100
AcDbEntity
  8
frame
100
AcDbLine
 10
124.6157900786393
 20
43.13491348924492
 30
0.0
 11
184.6157900786393
 21
43.13491348924481
 31
0.0
  0
LINE
  5
94C4
330
18
100
AcDbEntity
  8
frame
100
AcDbLine
 10
124.6157900786393
 20
50.33491348924497
 30
0.0
 11
184.6157900786393
 21
50.33491348924497
 31
0.0
  0
LINE
  5
94C5
330
18
100
AcDbEntity
  8
frame
100
AcDbLine
 10
124.6157900786393
 20
57.5349134892449
 30
0.0
 11
184.6157900786393
 21
57.53491348924478
 31
0.0
  0
LINE
  5
94C6
330
18
100
AcDbEntity
  8
frame
100
AcDbLine
 10
124.6157900786393
 20
64.73491348924494
 30
0.0
 11
184.6157900786393
 21
64.73491348924483
 31
0.0
  0
LINE
  5
94C7
330
18
100
AcDbEntity
  8
frame
100
AcDbLine
 10
124.6157900786393
 20
35.93491348924488
 30
0.0
 11
184.6157900786393
 21
35.93491348924488
 31
0.0
  0
MTEXT
  5
94C8
330
18
100
AcDbEntity
  8
0
 62
     7
 48
2.0
100
AcDbMText
 10
154.5011900445106
 20
65.52808189982909
 30
0.0
 40
4.8
 41
0.0
 71
     5
 72
     1
  1
\P\Ftxt.shx,bigfont.shx|c128;諸　　　　元
 73
     1
 44
1.0
1001
ACAD
1000
MTEXTBEGIN
1070
    73
1070
     1
1070
    44
1040
1.0
1070
    74
1070
     0
1000
MTEXTEND
  0
LINE
  5
94C9
330
18
100
AcDbEntity
  8
frame
100
AcDbLine
 10
124.6157900786393
 20
64.73491348924483
 30
0.0
 11
124.6157900786393
 21
35.93491348924488
 31
0.0
  0
MTEXT
  5
94CA
330
18
100
AcDbEntity
  8
0
100
AcDbMText
 10
128.1382258923195
 20
56.00840432212407
 30
0.0
 40
4.4
 41
163.916286842249
 71
     1
 72
     5
  1
\Ftxt.shx,bigfont.shx|c128;熱　処　理
  7
JL
 73
     1
 44
1.0
1001
ACAD
1000
MTEXTBEGIN
1070
    73
1070
     1
1070
    44
1040
1.0
1070
    74
1070
     0
1000
MTEXTEND
  0
LINE
  5
94CB
330
18
100
AcDbEntity
  8
frame
100
AcDbLine
 10
148.6157900786393
 20
57.53491348924478
 30
0.0
 11
148.6157900786393
 21
35.93491348924488
 31
0.0
  0
MTEXT
  5
94CC
330
18
100
AcDbEntity
  8
0
100
AcDbMText
 10
127.8579515249403
 20
49.00617587486397
 30
0.0
 40
4.4
 41
163.6058628849672
 71
     1
 72
     5
  1
\Ftxt.shx,bigfont.shx|c128;表 面 処 理
  7
JL
 73
     1
 44
1.0
1001
ACAD
1000
MTEXTBEGIN
1070
    73
1070
     1
1070
    44
1040
1.0
1070
    74
1070
     0
1000
MTEXTEND
  0
MTEXT
  5
94CD
330
18
100
AcDbEntity
  8
0
100
AcDbMText
 10
128.1480173733753
 20
41.71770302125605
 30
0.0
 40
4.4
 41
166.1718
 71
     1
 72
     5
  1
\Ftxt.shx,bigfont.shx|c128;等     　級
  7
JL
 73
     1
 44
1.0
1001
ACAD
1000
MTEXTBEGIN
1070
    73
1070
     1
1070
    44
1040
1.0
1070
    74
1070
     0
1000
MTEXTEND
  0
LINE
  5
94CE
330
18
100
AcDbEntity
  8
frame
100
AcDbLine
 10
184.6157900786393
 20
64.73491348924483
 30
0.0
 11
184.6157900786393
 21
35.93491348924499
 31
0.0
  0
MTEXT
  5
94CF
330
18
100
AcDbEntity
  8
0
100
AcDbMText
 10
153.3627933880818
 20
55.83344641471445
 30
0.0
 40
4.4
 41
291.8960056857887
 71
     1
 72
     5
  1
\Ftxt.shx,bigfont.shx|c128;調質　HRC30%%d%%p２%%d
  7
JL
 73
     1
 44
1.0
1001
ACAD
1000
MTEXTBEGIN
1070
    73
1070
     1
1070
    44
1040
1.0
1070
    74
1070
     0
1000
MTEXTEND
  0
MTEXT
  5
94D0
330
18
100
AcDbEntity
  8
0
100
AcDbMText
 10
153.6234323895182
 20
41.7183135927072
 30
0.0
 40
4.4
 41
290.783364796891
 71
     1
 72
     5
  1
\Ftxt.shx,bigfont.shx|c128;ＩＳＯ - ４Ｈ
  7
JL
 73
     1
 44
1.0
1001
ACAD
1000
MTEXTBEGIN
1070
    73
1070
     1
1070
    44
1040
1.0
1070
    74
1070
     0
1000
MTEXTEND
  0
MTEXT
  5
94D1
330
18
100
AcDbEntity
  8
0
100
AcDbMText
 10
153.7978935876485
 20
48.65328293790913
 30
0.0
 40
4.4
 41
291.4548
 71
     1
 72
     5
  1
\Ftxt.shx,bigfont.shx|c128;黒  　    染
  7
JL
 73
     1
 44
1.0
1001
ACAD
1000
MTEXTBEGIN
1070
    73
1070
     1
1070
    44
1040
1.0
1070
    74
1070
     0
1000
MTEXTEND
  0
MTEXT
  5
95D7
330
18
100
AcDbEntity
  8
0
100
AcDbMText
 10
47.65097232190464
 20
19.07605901616614
 30
0.0
 40
4.5
 41
0.0
 71
     1
 72
     5
  1
{\Ftxt,bigfont|c128;李国慶}
  7
JL
 73
     1
 44
1.0
1001
ACAD
1000
MTEXTBEGIN
1070
    73
1070
     1
1070
    44
1040
1.0
1070
    74
1070
     0
1000
MTEXTEND
  0
LINE
  5
987A
330
18
100
AcDbEntity
  8
center
 48
0.3
390
96C1
100
AcDbLine
 10
135.9999999999997
 20
101.0127085281926
 30
0.0
 11
123.0
 21
101.0127085281929
 31
0.0
  0
CIRCLE
  5
987C
330
18
100
AcDbEntity
  8
contour
390
96C1
100
AcDbCircle
 10
95.0
 20
191.2377302216985
 30
0.0
 40
29.0
  0
CIRCLE
  5
987D
330
18
100
AcDbEntity
  8
contour
390
96C1
100
AcDbCircle
 10
95.0
 20
191.2377302216985
 30
0.0
 40
36.5
  0
ARC
  5
987E
330
18
100
AcDbEntity
  8
contour
390
96C1
100
AcDbCircle
 10
95.0
 20
191.2377302216985
 30
0.0
 40
40.0
100
AcDbArc
 50
185.0198001316836
 51
294.9801998683117
  0
LINE
  5
987F
330
18
100
AcDbEntity
  8
contour
390
96C1
100
AcDbLine
 10
135.0
 20
107.0127085281933
 30
0.0
 11
134.9999999999997
 21
94.51270852819334
 31
0.0
  0
ARC
  5
9880
330
18
100
AcDbEntity
  8
contour
390
96C1
100
AcDbCircle
 10
133.5
 20
107.0127085281933
 30
0.0
 40
1.5
100
AcDbArc
 50
0.0
 51
90.0
  0
LINE
  5
9881
330
18
100
AcDbEntity
  8
contour
390
96C1
100
AcDbLine
 10
125.5
 20
109.0127085281933
 30
0.0
 11
125.4999999999997
 21
107.0127085281933
 31
0.0
  0
LINE
  5
9883
330
18
100
AcDbEntity
  8
contour
390
96C1
100
AcDbLine
 10
133.4999999999997
 20
93.01270852819333
 30
0.0
 11
56.5
 21
93.01270852819333
 31
0.0
  0
ARC
  5
9884
330
18
100
AcDbEntity
  8
contour
390
96C1
100
AcDbCircle
 10
56.5
 20
94.51270852819334
 30
0.0
 40
1.5
100
AcDbArc
 50
180.0
 51
270.0
  0
ARC
  5
9885
330
18
100
AcDbEntity
  8
contour
390
96C1
100
AcDbCircle
 10
133.4999999999997
 20
94.51270852819334
 30
0.0
 40
1.5
100
AcDbArc
 50
270.0
 51
0.0
  0
LINE
  5
9886
330
18
100
AcDbEntity
  8
contour
390
96C1
100
AcDbLine
 10
131.4999999999997
 20
109.0127085281933
 30
0.0
 11
58.49999999999977
 21
109.0127085281929
 31
0.0
  0
LINE
  5
9887
330
18
100
AcDbEntity
  8
contour
390
96C1
100
AcDbLine
 10
133.5
 20
108.5127085281933
 30
0.0
 11
131.5
 21
108.5127085281933
 31
0.0
  0
LINE
  5
9888
330
18
100
AcDbEntity
  8
contour
390
96C1
100
AcDbLine
 10
125.4999999999997
 20
107.0127085281933
 30
0.0
 11
64.5
 21
107.0127085281929
 31
0.0
  0
LINE
  5
9889
330
18
100
AcDbEntity
  8
contour
390
96C1
100
AcDbLine
 10
124.0
 20
95.01270852819335
 30
0.0
 11
65.99999999999977
 21
95.01270852819335
 31
0.0
  0
LINE
  5
988A
330
18
100
AcDbEntity
  8
contour
390
96C1
100
AcDbLine
 10
125.4999999999997
 20
107.0127085281933
 30
0.0
 11
123.9999999999997
 21
105.5127085281933
 31
0.0
  0
LINE
  5
988B
330
18
100
AcDbEntity
  8
contour
390
96C1
100
AcDbLine
 10
124.0
 20
105.5127085281933
 30
0.0
 11
124.0
 21
95.01270852819335
 31
0.0
  0
LINE
  5
988C
330
18
100
AcDbEntity
  8
contour
390
96C1
100
AcDbLine
 10
124.0
 20
95.01270852819335
 30
0.0
 11
126.0
 21
93.01270852819333
 31
0.0
  0
LINE
  5
988D
330
18
100
AcDbEntity
  8
contour
390
96C1
100
AcDbLine
 10
65.99999999999977
 20
95.01270852819335
 30
0.0
 11
63.99999999999977
 21
93.01270852819333
 31
0.0
  0
LINE
  5
988E
330
18
100
AcDbEntity
  8
contour
390
96C1
100
AcDbLine
 10
64.5
 20
107.0127085281933
 30
0.0
 11
66.0
 21
105.5127085281933
 31
0.0
  0
LINE
  5
988F
330
18
100
AcDbEntity
  8
contour
390
96C1
100
AcDbLine
 10
66.0
 20
105.5127085281933
 30
0.0
 11
65.99999999999977
 21
95.01270852819335
 31
0.0
  0
LINE
  5
9890
330
18
100
AcDbEntity
  8
contour
 62
     4
390
96C1
100
AcDbLine
 10
65.0
 20
106.5127085281933
 30
0.0
 11
65.0
 21
94.01270852819335
 31
0.0
  0
LINE
  5
9891
330
18
100
AcDbEntity
  8
contour
390
96C1
100
AcDbLine
 10
55.0
 20
107.0127085281929
 30
0.0
 11
55.0
 21
94.51270852819334
 31
0.0
  0
ARC
  5
9892
330
18
100
AcDbEntity
  8
contour
390
96C1
100
AcDbCircle
 10
56.5
 20
107.0127085281929
 30
0.0
 40
1.5
100
AcDbArc
 50
90.0
 51
180.0
  0
LINE
  5
9893
330
18
100
AcDbEntity
  8
contour
390
96C1
100
AcDbLine
 10
64.5
 20
109.0127085281933
 30
0.0
 11
64.5
 21
107.0127085281933
 31
0.0
  0
LINE
  5
9894
330
18
100
AcDbEntity
  8
contour
390
96C1
100
AcDbLine
 10
56.49999999999977
 20
108.5127085281929
 30
0.0
 11
58.49999999999977
 21
108.5127085281929
 31
0.0
  0
LINE
  5
9895
330
18
100
AcDbEntity
  8
contour
390
96C1
100
AcDbLine
 10
123.9999999999997
 20
105.5127085281933
 30
0.0
 11
66.0
 21
105.5127085281933
 31
0.0
  0
LINE
  5
9896
330
18
100
AcDbEntity
  8
contour
390
96C1
100
AcDbLine
 10
58.15341921820641
 20
187.7377302216985
 30
0.0
 11
55.15341921820641
 21
187.7377302216985
 31
0.0
  0
LINE
  5
9897
330
18
100
AcDbEntity
  8
contour
390
96C1
100
AcDbLine
 10
58.15341921820641
 20
194.7377302216985
 30
0.0
 11
55.15341921820641
 21
194.7377302216985
 31
0.0
  0
LINE
  5
9898
330
18
100
AcDbEntity
  8
contour
390
96C1
100
AcDbLine
 10
58.15341921820641
 20
194.7377302216985
 30
0.0
 11
58.15341921820641
 21
187.7377302216985
 31
0.0
  0
LINE
  5
9899
330
18
100
AcDbEntity
  8
contour
390
96C1
100
AcDbLine
 10
110.392201477651
 20
157.5776552220698
 30
0.0
 11
116.4543793041423
 21
161.0776552220698
 31
0.0
  0
LINE
  5
989A
330
18
100
AcDbEntity
  8
contour
390
96C1
100
AcDbLine
 10
110.392201477651
 20
157.5776552220698
 30
0.0
 11
111.892201477651
 21
154.9795790107161
 31
0.0
  0
LINE
  5
989B
330
18
100
AcDbEntity
  8
contour
390
96C1
100
AcDbLine
 10
116.4543793041423
 20
161.0776552220698
 30
0.0
 11
117.9543793041423
 21
158.4795790107162
 31
0.0
  0
LINE
  5
989C
330
18
100
AcDbEntity
  8
contour
390
96C1
100
AcDbLine
 10
116.4543793041423
 20
221.3978052213272
 30
0.0
 11
110.3922014776512
 21
224.8978052213272
 31
0.0
  0
LINE
  5
989D
330
18
100
AcDbEntity
  8
contour
390
96C1
100
AcDbLine
 10
116.4543793041423
 20
221.3978052213272
 30
0.0
 11
117.9543793041423
 21
223.9958814326803
 31
0.0
  0
LINE
  5
989E
330
18
100
AcDbEntity
  8
contour
390
96C1
100
AcDbLine
 10
110.3922014776512
 20
224.8978052213272
 30
0.0
 11
111.8922014776512
 21
227.4958814326804
 31
0.0
  0
ARC
  5
989F
330
18
100
AcDbEntity
  8
contour
390
96C1
100
AcDbCircle
 10
95.0
 20
191.2377302216985
 30
0.0
 40
40.0
100
AcDbArc
 50
305.0198001316772
 51
54.98019986832275
  0
ARC
  5
98A0
330
18
100
AcDbEntity
  8
contour
390
96C1
100
AcDbCircle
 10
95.0
 20
191.2377302216985
 30
0.0
 40
40.0
100
AcDbArc
 50
65.01980013168822
 51
174.9801998683163
  0
LINE
  5
98A2
330
18
100
AcDbEntity
  8
contour
390
96C1
100
AcDbLine
 10
134.3749999999995
 20
105.0127085281934
 30
0.0
 11
130.2500000000007
 21
105.0127085281933
 31
0.0
  0
LINE
  5
98A3
330
18
100
AcDbEntity
  8
contour
 62
     4
390
96C1
100
AcDbLine
 10
134.9999999999997
 20
97.63770852819334
 30
0.0
 11
129.6249999999997
 21
97.63770852819346
 31
0.0
  0
LINE
  5
98A4
330
18
100
AcDbEntity
  8
contour
 62
     4
390
96C1
100
AcDbLine
 10
134.9999999999997
 20
104.3877085281933
 30
0.0
 11
129.6250000000004
 21
104.3877085281931
 31
0.0
  0
LINE
  5
98AA
330
18
100
AcDbEntity
  8
contour
 62
     4
390
96C1
100
AcDbLine
 10
124.9999999999998
 20
106.5127085281933
 30
0.0
 11
124.9999999999998
 21
105.0127085281933
 31
0.0
  0
LINE
  5
98AD
330
18
100
AcDbEntity
  8
contour
390
96C1
100
AcDbLine
 10
129.0
 20
104.3877085281933
 30
0.0
 11
128.9999999999998
 21
97.63770852819289
 31
0.0
  0
LINE
  5
98AE
330
18
100
AcDbEntity
  8
contour
390
96C1
100
AcDbLine
 10
129.0000000000002
 20
103.7627085281931
 30
0.0
 11
130.2500000000007
 21
105.0127085281932
 31
0.0
  0
LINE
  5
98AF
330
18
100
AcDbEntity
  8
contour
390
96C1
100
AcDbLine
 10
128.9999999999998
 20
98.26270852819357
 30
0.0
 11
130.25
 21
97.01270852819334
 31
0.0
  0
LINE
  5
98B0
330
18
100
AcDbEntity
  8
contour
390
96C1
100
AcDbLine
 10
128.9999999999998
 20
104.3877085281929
 30
0.0
 11
124.0
 21
104.3877085281933
 31
0.0
  0
LINE
  5
98B1
330
18
100
AcDbEntity
  8
contour
 62
     4
390
96C1
100
AcDbLine
 10
130.2500000000007
 20
105.0127085281927
 30
0.0
 11
124.0
 21
105.0127085281933
 31
0.0
  0
LINE
  5
98B2
330
18
100
AcDbEntity
  8
contour
390
96C1
100
AcDbLine
 10
128.9999999999998
 20
97.63770852819334
 30
0.0
 11
124.0
 21
97.63770852819334
 31
0.0
  0
LINE
  5
98B3
330
18
100
AcDbEntity
  8
contour
 62
     4
390
96C1
100
AcDbLine
 10
130.25
 20
97.01270852819334
 30
0.0
 11
124.0
 21
97.01270852819334
 31
0.0
  0
LINE
  5
98B4
330
18
100
AcDbEntity
  8
contour
390
96C1
100
AcDbLine
 10
58.1781553278255
 20
108.5127085281929
 30
0.0
 11
58.18148902875236
 21
93.01270852819333
 31
0.0
  0
HATCH
  5
98B5
330
18
100
AcDbEntity
  8
section
390
96C1
100
AcDbHatch
 10
0.0
 20
0.0
 30
0.0
210
0.0
220
0.0
230
1.0
  2
AR-SAND
 70
     0
 71
     0
 91
        1
 92
        1
 93
        4
 72
     1
 10
129.0
 20
104.3877085281929
 11
129.0
 21
97.63770852819289
 72
     1
 10
128.9999999999998
 20
97.63770852819334
 11
123.9999999999997
 21
97.63770852819334
 72
     1
 10
124.0
 20
97.63770852819334
 11
124.0
 21
104.3877085281933
 72
     1
 10
124.0
 20
104.3877085281933
 11
128.9999999999998
 21
104.3877085281933
 97
        0
 75
     0
 76
     1
 52
-90.00000000000001
 41
0.02
 77
     0
 78
     4
 53
307.5
 43
-20.99408999978641
 44
309.6134644846377
 45
0.9788264746586847
 46
0.0320006259196807
 79
     6
 49
0.0
 49
-0.7721600000000001
 49
0.0
 49
-0.8636000000000001
 49
0.0
 49
-0.8255
 53
277.5
 43
-20.99408999978641
 44
309.6134644846377
 45
1.433650201136708
 46
-0.8990465662760055
 79
     6
 49
0.0
 49
-0.41656
 49
0.0
 49
-0.69596
 49
0.0
 49
-0.2667
 53
237.5
 43
-20.99408999978641
 44
310.2383044846376
 45
0.0028743693570911
 46
-1.581984740482915
 79
     6
 49
0.0
 49
-0.254
 49
0.0
 49
-0.9144
 49
0.0
 49
-1.193799999999999
 53
227.5
 43
-20.99408999978641
 44
310.2383044846376
 45
0.4458586465144322
 46
-1.527112904944594
 79
     6
 49
0.0
 49
-0.127
 49
0.0
 49
-0.59944
 49
0.0
 49
-0.6858
 98
        1
 10
-70.87255693556357
 20
353.4486096685744
1001
ACAD
1010
0.0
1020
0.0
1030
0.0
  0
LINE
  5
98B6
330
18
100
AcDbEntity
  8
bowel
 48
0.2
390
96C1
100
AcDbLine
 10
134.7994974842647
 20
187.2377302216985
 30
0.0
 11
123.7228132326902
 21
187.2377302216985
 31
0.0
  0
LINE
  5
98B7
330
18
100
AcDbEntity
  8
bowel
 48
0.2
390
96C1
100
AcDbLine
 10
134.8573628706165
 20
187.8627302216985
 30
0.0
 11
123.8029403880923
 21
187.862730221698
 31
0.0
  0
LINE
  5
98B8
330
18
100
AcDbEntity
  8
bowel
 48
0.2
390
96C1
100
AcDbLine
 10
134.8573628706165
 20
194.6127302216985
 30
0.0
 11
123.8029403880923
 21
194.612730221698
 31
0.0
  0
LINE
  5
98B9
330
18
100
AcDbEntity
  8
bowel
 48
0.2
390
96C1
100
AcDbLine
 10
134.7994974842647
 20
195.2377302216985
 30
0.0
 11
123.7228132326902
 21
195.2377302216985
 31
0.0
  0
LINE
  5
98BA
330
18
100
AcDbEntity
  8
center
 48
0.3
390
96C1
100
AcDbLine
 10
74.49999999999977
 20
226.7447717768604
 30
0.0
 11
80.99999999999955
 21
215.4864415276624
 31
0.0
  0
LINE
  5
98BB
330
18
100
AcDbEntity
  8
bowel
 48
0.2
390
96C1
100
AcDbLine
 10
71.63614964272984
 20
223.7051061009263
 30
0.0
 11
77.1744917685171
 21
214.1124161493638
 31
0.0
  0
LINE
  5
98BC
330
18
100
AcDbEntity
  8
bowel
 48
0.2
390
96C1
100
AcDbLine
 10
72.14848282691924
 20
224.067718995507
 30
0.0
 11
77.67569406818143
 21
214.4943083014752
 31
0.0
  0
LINE
  5
98BD
330
18
100
AcDbEntity
  8
bowel
 48
0.2
390
96C1
100
AcDbLine
 10
77.99415430246426
 20
227.442718995507
 30
0.0
 11
83.52136554372624
 21
217.8693083014753
 31
0.0
  0
LINE
  5
98BE
330
18
100
AcDbEntity
  8
bowel
 48
0.2
390
96C1
100
AcDbLine
 10
78.56435287300541
 20
227.7051061009263
 30
0.0
 11
84.10269499879268
 21
218.1124161493638
 31
0.0
  0
LINE
  5
98BF
330
18
100
AcDbEntity
  8
center
 48
0.3
390
96C1
100
AcDbLine
 10
74.24999999999977
 20
155.2976759646442
 30
0.0
 11
80.99999999999978
 21
166.9890189157344
 31
0.0
  0
LINE
  5
98C0
330
18
100
AcDbEntity
  8
bowel
 48
0.2
390
96C1
100
AcDbLine
 10
78.56435287300519
 20
154.7703543424702
 30
0.0
 11
84.10269499879268
 21
164.3630442940327
 31
0.0
  0
LINE
  5
98C1
330
18
100
AcDbEntity
  8
bowel
 48
0.2
390
96C1
100
AcDbLine
 10
77.99415430246404
 20
155.0327414478895
 30
0.0
 11
83.52136554372624
 21
164.6061521419217
 31
0.0
  0
LINE
  5
98C2
330
18
100
AcDbEntity
  8
bowel
 48
0.2
390
96C1
100
AcDbLine
 10
72.14848282691924
 20
158.4077414478895
 30
0.0
 11
77.6756940681812
 21
167.9811521419217
 31
0.0
  0
LINE
  5
98C3
330
18
100
AcDbEntity
  8
bowel
 48
0.2
390
96C1
100
AcDbLine
 10
71.63614964272984
 20
158.7703543424702
 30
0.0
 11
77.1744917685171
 21
168.3630442940327
 31
0.0
  0
LINE
  5
99DD
330
18
100
AcDbEntity
  8
bowel
 48
0.2
100
AcDbLine
 10
135.0
 20
103.3221096049519
 30
0.0
 11
131.0000000000002
 21
103.3221096049519
 31
0.0
  0
LINE
  5
99DE
330
18
100
AcDbEntity
  8
bowel
 48
0.2
100
AcDbLine
 10
134.9999999999997
 20
102.1674090665726
 30
0.0
 11
130.9999999999998
 21
102.1674090665726
 31
0.0
  0
LINE
  5
99DF
330
18
100
AcDbEntity
  8
bowel
 48
0.2
100
AcDbLine
 10
134.9999999999997
 20
99.85800798981415
 30
0.0
 11
130.9999999999998
 21
99.85800798981415
 31
0.0
  0
LINE
  5
99E0
330
18
100
AcDbEntity
  8
bowel
 48
0.2
100
AcDbLine
 10
134.9999999999997
 20
98.70330745143485
 30
0.0
 11
130.9999999999995
 21
98.70330745143485
 31
0.0
  0
LINE
  5
99E2
330
18
100
AcDbEntity
  8
bowel
 48
0.2
100
AcDbLine
 10
131.0
 20
103.3221096049519
 30
0.0
 11
129.6666666666665
 21
101.012708528193
 31
0.0
  0
LINE
  5
99E3
330
18
100
AcDbEntity
  8
bowel
 48
0.2
100
AcDbLine
 10
131.0
 20
103.3221096049519
 30
0.0
 11
131.0
 21
98.70330745143485
 31
0.0
  0
LINE
  5
99E4
330
18
100
AcDbEntity
  8
bowel
 48
0.2
100
AcDbLine
 10
131.0
 20
98.70330745143428
 30
0.0
 11
129.6666666666665
 21
101.012708528193
 31
0.0
  0
LINE
  5
99E5
330
18
100
AcDbEntity
  8
contour
390
96C1
100
AcDbLine
 10
134.9999999999997
 20
104.3877085281934
 30
0.0
 11
134.3749999999995
 21
105.0127085281934
 31
0.0
  0
LINE
  5
99E6
330
18
100
AcDbEntity
  8
contour
390
96C1
100
AcDbLine
 10
134.9999999999997
 20
97.63770852819346
 30
0.0
 11
134.3749999999998
 21
97.01270852819346
 31
0.0
  0
LINE
  5
99E7
330
18
100
AcDbEntity
  8
contour
100
AcDbLine
 10
134.3749999999995
 20
105.0127085281934
 30
0.0
 11
134.3749999999998
 21
97.01270852819334
 31
0.0
  0
LINE
  5
99E9
330
18
100
AcDbEntity
  8
contour
100
AcDbLine
 10
130.2500000000007
 20
105.0127085281932
 30
0.0
 11
130.25
 21
97.01270852819334
 31
0.0
  0
LINE
  5
99EA
330
18
100
AcDbEntity
  8
contour
 62
     4
100
AcDbLine
 10
124.9999999999998
 20
97.01270852819334
 30
0.0
 11
124.9999999999998
 21
94.01270852819335
 31
0.0
  0
LINE
  5
99F3
330
18
100
AcDbEntity
  8
contour
100
AcDbLine
 10
128.9999999999998
 20
104.3877085281929
 30
0.0
 11
129.6250000000004
 21
104.3877085281931
 31
0.0
  0
LINE
  5
99F4
330
18
100
AcDbEntity
  8
contour
100
AcDbLine
 10
128.9999999999998
 20
97.63770852819289
 30
0.0
 11
129.6249999999997
 21
97.63770852819346
 31
0.0
  0
LINE
  5
99F5
330
18
100
AcDbEntity
  8
contour
100
AcDbLine
 10
134.3749999999995
 20
105.0127085281934
 30
0.0
 11
135.0
 21
105.0127085281934
 31
0.0
  0
LINE
  5
99F6
330
18
100
AcDbEntity
  8
contour
100
AcDbLine
 10
134.3749999999995
 20
97.012708528193
 30
0.0
 11
135.0
 21
97.012708528193
 31
0.0
  0
LINE
  5
99F7
330
18
100
AcDbEntity
  8
contour
100
AcDbLine
 10
130.25
 20
97.01270852819334
 30
0.0
 11
134.3749999999998
 21
97.01270852819346
 31
0.0
  0
LINE
  5
99F8
330
18
100
AcDbEntity
  8
center
 48
0.3
100
AcDbLine
 10
94.99999999999976
 20
92.01270852819334
 30
0.0
 11
94.99999999999976
 21
110.0127085281931
 31
0.0
  0
LINE
  5
99FA
330
18
100
AcDbEntity
  8
center
 48
0.3
100
AcDbLine
 10
95.0
 20
232.2377302216985
 30
0.0
 11
95.0
 21
150.2377302216985
 31
0.0
  0
LINE
  5
99FB
330
18
100
AcDbEntity
  8
center
 48
0.3
100
AcDbLine
 10
136.0
 20
191.2377302216985
 30
0.0
 11
54.0
 21
191.2377302216985
 31
0.0
  0
ARC
  5
99FD
330
18
100
AcDbEntity
  8
contour
 62
     4
100
AcDbCircle
 10
95.0
 20
191.2377302216985
 30
0.0
 40
30.0
100
AcDbArc
 50
168.463040967185
 51
101.5369590328181
  0
CIRCLE
  5
99FF
330
18
100
AcDbEntity
  8
contour
100
AcDbCircle
 10
95.0
 20
191.2377302216985
 30
0.0
 40
30.5
  0
DIMENSION
  5
9A62
330
18
100
AcDbEntity
  8
mark
100
AcDbDimension
  2
*D7
 10
125.5
 20
118.8039494758125
 30
0.0
 11
95.0
 21
120.8539494758125
 31
0.0
 70
    32
  1
%%c<>
 71
     5
 42
61.0
  3
STANDARD
100
AcDbAlignedDimension
 13
64.5
 23
109.0127085281933
 33
0.0
 14
125.5
 24
109.0127085281864
 34
0.0
100
AcDbRotatedDimension
  0
DIMENSION
  5
9A6F
330
18
100
AcDbEntity
  8
mark
100
AcDbDimension
  2
*D8
 10
80.91022545811325
 20
107.0127085281931
 30
0.0
 11
78.86022545811322
 21
99.37937519485982
 31
0.0
 70
    32
 71
     5
 42
1.999999999999971
  3
STANDARD
100
AcDbAlignedDimension
 13
80.91022545811325
 23
109.0127085281931
 33
0.0
 14
80.91022545811325
 24
107.0127085281931
 34
0.0
 50
90.0
100
AcDbRotatedDimension
  0
DIMENSION
  5
9A85
330
18
100
AcDbEntity
  8
mark
100
AcDbDimension
  2
*D9
 10
131.4999999999997
 20
126.7117945552556
 30
0.0
 11
94.99999999999976
 21
128.7617945552556
 31
0.0
 70
    32
  1
%%c<>%%P0.5
 71
     5
 42
73.0
  3
STANDARD
100
AcDbAlignedDimension
 13
58.49999999999977
 23
109.0127085281929
 33
0.0
 14
131.4999999999997
 24
109.0127085281933
 34
0.0
100
AcDbRotatedDimension
  0
DIMENSION
  5
9A92
330
18
100
AcDbEntity
  8
mark
100
AcDbDimension
  2
*D10
 10
135.0
 20
135.2329215826223
 30
0.0
 11
95.0
 21
137.4912549159556
 31
0.0
 70
    32
  1
%%c<>
 71
     5
 42
80.0
  3
STANDARD
100
AcDbAlignedDimension
 13
55.0
 23
107.0127085281929
 33
0.0
 14
135.0
 24
107.0127085281933
 34
0.0
100
AcDbRotatedDimension
1001
ACAD
1000
DSTYLE
1002
{
1070
   284
1070
     8
1070
   146
1040
0.5
1070
    48
1040
0.2
1070
   147
1040
0.8
1070
    72
1070
     0
1070
    71
1070
     1
1002
}
  0
DIMENSION
  5
9ACD
330
18
100
AcDbEntity
  8
mark
100
AcDbDimension
  2
*D11
 10
47.13976947990056
 20
109.0127085281929
 30
0.0
 11
45.08976947990055
 21
118.1043751948595
 31
0.0
 70
    32
 71
     5
 42
0.5
  3
STANDARD
100
AcDbAlignedDimension
 13
56.5
 23
108.5127085281929
 33
0.0
 14
58.5
 24
109.0127085281929
 34
0.0
 50
90.0
100
AcDbRotatedDimension
  0
LINE
  5
9ADC
330
18
100
AcDbEntity
  8
contour
100
AcDbLine
 10
58.49999999999977
 20
109.0127085281929
 30
0.0
 11
58.49999999999977
 21
108.5127085281929
 31
0.0
  0
LINE
  5
9ADE
330
18
100
AcDbEntity
  8
contour
100
AcDbLine
 10
131.5
 20
109.0127085281933
 30
0.0
 11
131.5
 21
108.5127085281933
 31
0.0
  0
HATCH
  5
9C16
330
18
100
AcDbEntity
  8
section
100
AcDbHatch
 10
0.0
 20
0.0
 30
0.0
210
0.0
220
0.0
230
1.0
  2
ANSI31
 70
     0
 71
     0
 91
       16
 92
        7
 72
     0
 73
     1
 93
        9
 10
65.0
 20
106.5127085281933
 10
64.5
 20
107.0127085281933
 10
64.5
 20
109.0127085281929
 10
58.49999999999977
 20
109.0127085281929
 10
58.49999999999977
 20
108.5127085281929
 10
58.1781553278255
 20
108.5127085281929
 10
58.18148902875236
 20
93.01270852819333
 10
63.99999999999977
 20
93.01270852819333
 10
65.0
 20
94.01270852819356
 97
        0
 92
        7
 72
     0
 73
     1
 93
        4
 10
66.0
 20
105.5127085281933
 10
65.0
 20
106.5127085281933
 10
65.0
 20
94.01270852819356
 10
65.99999999999977
 20
95.01270852819335
 97
        0
 92
        7
 72
     1
 73
     1
 93
       11
 10
135.0
 20
107.0127085281933
 42
0.4142135623730989
 10
133.5
 20
108.5127085281933
 42
0.0
 10
131.5
 20
108.5127085281933
 42
0.0
 10
131.5
 20
109.0127085281933
 42
0.0
 10
125.5
 20
109.0127085281933
 42
0.0
 10
125.4999999999997
 20
107.0127085281933
 42
0.0
 10
124.9999999999998
 20
106.5127085281933
 42
0.0
 10
124.9999999999998
 20
105.0127085281932
 42
0.0
 10
130.2500000000007
 20
105.0127085281927
 42
0.0
 10
134.3749999999995
 20
105.0127085281934
 42
0.0
 10
135.0
 20
105.0127085281934
 42
0.0
 97
        0
 92
        7
 72
     1
 73
     1
 93
        8
 10
134.9999999999997
 20
97.012708528193
 42
0.0
 10
134.3749999999995
 20
97.012708528193
 42
0.0
 10
130.25
 20
97.01270852819334
 42
0.0
 10
124.9999999999998
 20
97.01270852819334
 42
0.0
 10
124.9999999999998
 20
94.01270852819356
 42
0.0
 10
126.0
 20
93.01270852819333
 42
0.0
 10
133.4999999999997
 20
93.01270852819333
 42
0.4142135623730898
 10
134.9999999999997
 20
94.51270852819332
 42
0.0
 97
        0
 92
        7
 72
     0
 73
     1
 93
        4
 10
124.9999999999998
 20
97.01270852819334
 10
124.0
 20
97.01270852819334
 10
124.0
 20
95.01270852819335
 10
124.9999999999998
 20
94.01270852819356
 97
        0
 92
        7
 72
     0
 73
     1
 93
        5
 10
129.6249999999999
 20
97.63770852819346
 10
128.9999999999998
 20
97.63770852819289
 10
124.0
 20
97.63770852819334
 10
124.0
 20
97.01270852819334
 10
130.25
 20
97.01270852819334
 97
        0
 92
        7
 72
     0
 73
     1
 93
        4
 10
124.9999999999998
 20
106.5127085281933
 10
124.0
 20
105.5127085281935
 10
124.0
 20
105.0127085281933
 10
124.9999999999998
 20
105.0127085281932
 97
        0
 92
        7
 72
     0
 73
     1
 93
        5
 10
130.2500000000002
 20
105.0127085281927
 10
124.0
 20
105.0127085281933
 10
124.0
 20
104.3877085281933
 10
128.9999999999998
 20
104.3877085281929
 10
129.6250000000003
 20
104.3877085281931
 97
        0
 92
        7
 72
     0
 73
     1
 93
        4
 10
134.3749999999995
 20
105.0127085281934
 10
130.2500000000007
 20
105.0127085281927
 10
130.2500000000005
 20
104.3877085281931
 10
134.3749999999995
 20
104.3877085281933
 97
        0
 92
        7
 72
     0
 73
     1
 93
        3
 10
130.2500000000007
 20
105.0127085281932
 10
129.6250000000003
 20
104.3877085281931
 10
130.2500000000005
 20
104.3877085281931
 97
        0
 92
       23
 72
     0
 73
     1
 93
        3
 10
134.3749999999995
 20
105.0127085281934
 10
134.3749999999995
 20
104.3877085281933
 10
134.9999999999999
 20
104.3877085281933
 97
        0
 92
        7
 72
     0
 73
     1
 93
        3
 10
135.0
 20
105.0127085281934
 10
134.3749999999995
 20
105.0127085281934
 10
134.9999999999999
 20
104.3877085281933
 97
        0
 92
        7
 72
     0
 73
     1
 93
        3
 10
134.9999999999997
 20
97.63770852819352
 10
134.3749999999993
 20
97.012708528193
 10
134.9999999999997
 20
97.012708528193
 97
        0
 92
       23
 72
     0
 73
     1
 93
        3
 10
134.9999999999995
 20
97.63770852819334
 10
134.3749999999998
 20
97.63770852819334
 10
134.3749999999998
 20
97.01270852819346
 97
        0
 92
        7
 72
     0
 73
     1
 93
        4
 10
134.3749999999998
 20
97.63770852819334
 10
130.2500000000001
 20
97.63770852819346
 10
130.25
 20
97.01270852819334
 10
134.3749999999998
 20
97.012708528193
 97
        0
 92
        7
 72
     0
 73
     1
 93
        3
 10
130.2500000000001
 20
97.63770852819346
 10
129.6249999999999
 20
97.63770852819346
 10
130.25
 20
97.01270852819334
 97
        0
 75
     1
 76
     1
 52
0.0
 41
0.5
 77
     0
 78
     1
 53
45.0
 43
-797.0564667121347
 44
-133.4188260329738
 45
-1.122532015133643
 46
1.122532015133644
 79
     0
 47
0.0200481317890649
 98
       16
 10
63.06274531585484
 20
102.4269198032195
 10
65.32375499094349
 20
102.5428084682767
 10
129.0275756815193
 20
105.8752162991509
 10
131.1032595693967
 20
95.9902885950521
 10
124.6727066275383
 20
96.35639664601626
 10
125.7309000657068
 20
97.21065048627725
 10
124.6320081937696
 20
105.5091082481867
 10
124.7541080497666
 20
104.6141760224873
 10
132.049503278551
 20
104.6758604065125
 10
130.0637153100173
 20
104.5756200549501
 10
134.5568123777897
 20
104.6558123362001
 10
134.7373397989357
 20
104.7961501193958
 10
134.8576906539177
 20
97.21795501212092
 10
134.4966380889712
 20
97.51867735781639
 10
133.4937135383378
 20
97.35829150430824
 10
129.9834798884657
 20
97.39838893594175
1001
GRADIENTCOLOR1ACI
1070
     5
1001
GRADIENTCOLOR2ACI
1070
     2
1001
ACAD
1010
0.0
1020
0.0
1030
0.0
  0
LWPOLYLINE
  5
9C19
330
18
100
AcDbEntity
  8
mark
100
AcDbPolyline
 90
        7
 70
     1
 43
0.0
 10
106.1879663720135
 20
111.5127085281932
 10
114.8482204098579
 20
111.5127085281932
 10
113.4048447368839
 20
109.0127085281931
 10
111.9614690639098
 20
111.5127085281932
 10
110.5180933909357
 20
109.0127085281931
 10
109.0747177179617
 20
111.5127085281932
 10
107.6313420449876
 20
109.0127085281931
  0
LEADER
  5
9C1A
330
18
100
AcDbEntity
  8
mark
100
AcDbLeader
  3
STANDARD
 76
     2
 10
125.0
 20
94.01270852819335
 30
0.0
 10
116.3313305161864
 20
85.34403904437864
 30
0.0
211
0.0000000000000001
221
-1.0
231
0.0
1001
ACAD
1000
DSTYLE
1002
{
1070
   147
1040
0.8
1070
    77
1070
     0
1002
}
  0
MTEXT
  5
9C1B
330
18
100
AcDbEntity
  8
mark
 62
     3
100
AcDbMText
 10
117.2211189250629
 20
89.16829584341138
 30
0.0
 40
2.5
 41
0.0
 71
     5
 72
     1
  1
C2
 11
0.7071067811862683
 21
0.7071067811868267
 31
0.0
 73
     1
 44
1.0
1001
ACAD
1000
MTEXTBEGIN
1070
    73
1070
     1
1070
    44
1040
1.0
1070
    74
1070
     0
1000
MTEXTEND
  0
DIMENSION
  5
9C1C
330
18
100
AcDbEntity
  8
mark
100
AcDbDimension
  2
*D12
 10
124.9999999999999
 20
79.74798469189704
 30
0.0
 11
94.99999999999994
 21
81.79798469189703
 31
0.0
 70
    32
  1
M60x2.0P
 71
     5
 42
59.99999999999989
  3
STANDARD
100
AcDbAlignedDimension
 13
65.0
 23
94.01270852819335
 33
0.0
 14
124.9999999999999
 24
94.01270852819335
 34
0.0
100
AcDbRotatedDimension
  0
DIMENSION
  5
9C29
330
18
100
AcDbEntity
  8
mark
100
AcDbDimension
  2
*D13
 10
144.5405997991564
 20
101.0127085281926
 30
0.0
 11
142.4905997991564
 21
105.012708528193
 31
0.0
 70
    32
 71
     5
 42
8.000000000000682
  3
STANDARD
100
AcDbAlignedDimension
 13
131.4999999999997
 23
109.0127085281933
 33
0.0
 14
135.9999999999997
 24
101.0127085281926
 34
0.0
 50
90.0
100
AcDbRotatedDimension
  0
DIMENSION
  5
9C36
330
18
100
AcDbEntity
  8
mark
100
AcDbDimension
  2
*D14
 10
155.6744032119653
 20
93.01270852819333
 30
0.0
 11
153.6244032119653
 21
101.0127085281933
 31
0.0
 70
    32
  1
<>%%P0.2
 71
     5
 42
16.0
  3
STANDARD
100
AcDbAlignedDimension
 13
131.4999999999997
 23
109.0127085281933
 33
0.0
 14
133.4999999999997
 24
93.01270852819333
 34
0.0
 50
90.0
100
AcDbRotatedDimension
1001
ACAD_DSTYLE_DIMINSPECT
1070
   396
1000
100%
1070
   395
1000

1070
   394
1070
    33
1070
   393
1070
     0
  0
TOLERANCE
  5
9C56
330
18
100
AcDbEntity
  8
mark
100
AcDbFcf
  3
STANDARD
 10
160.6744032119654
 20
118.8039494758124
 30
0.0
  1
{\Fgdt;h}%%v0.005%%v%%vA%%v%%v
1001
ACAD
1000
DSTYLE
1002
{
1070
    41
1040
2.5
1070
    42
1040
0.8
1070
    43
1040
6.0
1070
    44
1040
0.8
1070
    73
1070
     0
1070
    74
1070
     0
1070
    78
1070
     8
1070
    79
1070
     2
1070
   140
1040
2.5
1070
   141
1040
0.0
1070
   144
1040
1.0
1070
   147
1040
0.8
1070
   176
1070
   256
1070
   177
1070
   256
1070
   178
1070
     3
1070
   179
1070
     2
1070
   271
1070
     1
1070
   272
1070
     1
1070
   341
1005
8014
1070
   342
1005
8014
1002
}
  0
LWPOLYLINE
  5
9C57
330
18
100
AcDbEntity
  8
mark
100
AcDbPolyline
 90
        3
 70
     0
 43
0.0
 10
155.6744032119653
 20
109.0127085281933
 10
155.6744032119653
 20
118.8039494758124
 10
160.6744032119653
 20
118.8039494758124
  0
DIMENSION
  5
9DE4
330
18
100
AcDbEntity
  8
mark
100
AcDbDimension
  2
*D15
 10
56.50000000000011
 20
94.51270852819325
 30
0.0
 11
46.82442221076337
 21
87.73626854182314
 31
0.0
 70
    36
 71
     5
 42
1.500000000000099
  3
STANDARD
100
AcDbRadialDimension
 15
55.43933982822011
 25
93.45204835641345
 35
0.0
 40
0.0
1001
ACAD
1000
DSTYLE
1002
{
1070
    90
1070
     1
1070
   288
1070
     1
1070
   345
1005
12
1070
   346
1005
12
1070
   347
1005
12
1002
}
1001
ACAD_DSTYLE_DIMRADIAL_EXTENSION
1070
   387
1070
     1
1070
   388
1040
3.141592653589793
1070
   390
1040
4.712388980384689
  0
DIMENSION
  5
9DF4
330
18
100
AcDbEntity
  8
mark
100
AcDbDimension
  2
*D16
 10
47.13976947990071
 20
187.7377302216985
 30
0.0
 11
47.13976947990068
 21
191.2377302216985
 31
0.0
 70
   160
 71
     5
 42
7.0
  3
STANDARD
100
AcDbAlignedDimension
 13
55.25702200196144
 23
194.7377302216985
 33
0.0
 14
55.15341921820641
 24
187.7377302216985
 34
0.0
 50
90.0
100
AcDbRotatedDimension
1001
ACAD
1000
DSTYLE
1002
{
1070
   146
1040
0.5
1070
   284
1070
     8
1070
    47
1040
0.15
1070
    48
1040
0.000000001
1070
   147
1040
0.8
1070
    72
1070
     0
1070
    71
1070
     1
1070
    90
1070
     1
1070
   345
1005
12
1070
   346
1005
12
1070
   347
1005
12
1002
}
  0
DIMENSION
  5
9E03
330
18
100
AcDbEntity
  8
mark
100
AcDbDimension
  2
*D17
 10
55.15341921820641
 20
151.2377302216985
 30
0.0
 11
44.91591921820641
 21
153.4960635550318
 31
0.0
 70
    32
 71
     5
 42
3.0
  3
STANDARD
100
AcDbAlignedDimension
 13
58.15341921820641
 23
187.7377302216985
 33
0.0
 14
55.15341921820641
 24
187.7377302216985
 34
0.0
100
AcDbRotatedDimension
1001
ACAD
1000
DSTYLE
1002
{
1070
   146
1040
0.5
1070
   284
1070
     8
1070
    47
1040
0.15
1070
    48
1040
0.000000001
1070
   147
1040
0.8
1070
    72
1070
     0
1070
    71
1070
     1
1070
    90
1070
     1
1070
   345
1005
12
1070
   346
1005
12
1070
   347
1005
12
1002
}
  0
MTEXT
  5
9E75
330
18
100
AcDbEntity
  8
mark
 62
     3
100
AcDbMText
 10
43.40858869208375
 20
198.0026534119206
 30
0.0
 40
2.5
 41
0.0
 71
     1
 72
     1
  1
({\Ftxt,bigfont|c128;3等分\Ftxt,bigfont|c136;)}
 11
0.0000000000000001
 21
1.0
 31
0.0
 73
     1
 44
1.0
1001
ACAD
1000
MTEXTBEGIN
1070
    73
1070
     1
1070
    44
1040
1.0
1070
    74
1070
     0
1000
MTEXTEND
  0
LEADER
  5
9E76
330
18
100
AcDbEntity
  8
mark
100
AcDbLeader
  3
STANDARD
 76
     2
 10
123.2842712474619
 20
219.5220014691604
 30
0.0
 10
141.2443628964553
 20
237.4820931181538
 30
0.0
211
0.7071067811865476
221
0.7071067811865475
231
0.0
1001
ACAD
1000
DSTYLE
1002
{
1070
   147
1040
0.8
1070
    77
1070
     0
1070
    90
1070
     1
1070
   345
1005
12
1070
   346
1005
12
1070
   347
1005
12
1002
}
  0
MTEXT
  5
9E77
330
18
100
AcDbEntity
  8
mark
 62
     3
100
AcDbMText
 10
143.7938676094455
 20
240.6766020080344
 30
0.0
 40
3.5
 41
0.0
 71
     5
 72
     1
  1
1
 73
     1
 44
1.0
1001
ACAD
1000
MTEXTBEGIN
1070
    73
1070
     1
1070
    44
1040
1.0
1070
    74
1070
     0
1000
MTEXTEND
  0
LEADER
  5
9E7A
330
18
100
AcDbEntity
  8
mark
100
AcDbLeader
  3
STANDARD
 76
     2
 10
132.3125000000001
 20
105.0127085281933
 30
0.0
 10
141.2443628964553
 20
120.483148871093
 30
0.0
211
0.8660254037844385
221
-0.5000000000000002
231
0.0
1001
ACAD
1000
DSTYLE
1002
{
1070
   147
1040
0.8
1070
    77
1070
     0
1070
    90
1070
     1
1070
   345
1005
12
1070
   346
1005
12
1070
   347
1005
12
1002
}
  0
MTEXT
  5
9E7B
330
18
100
AcDbEntity
  8
mark
 62
     3
100
AcDbMText
 10
143.7938676094455
 20
123.9686216726699
 30
0.0
 40
3.5
 41
0.0
 71
     5
 72
     1
  1
2
 73
     1
 44
1.0
1001
ACAD
1000
MTEXTBEGIN
1070
    73
1070
     1
1070
    44
1040
1.0
1070
    74
1070
     0
1000
MTEXTEND
  0
LEADER
  5
9E7D
330
18
100
AcDbEntity
  8
mark
100
AcDbLeader
  3
STANDARD
 76
     2
 10
126.4999999999999
 20
97.63770852819334
 30
0.0
 10
141.2443628964553
 20
82.89334563173794
 30
0.0
211
0.7071067811865476
221
0.7071067811865475
231
0.0
1001
ACAD
1000
DSTYLE
1002
{
1070
   147
1040
0.8
1070
    77
1070
     0
1070
    90
1070
     1
1070
   345
1005
12
1070
   346
1005
12
1070
   347
1005
12
1002
}
  0
MTEXT
  5
9E7E
330
18
100
AcDbEntity
  8
mark
 62
     3
100
AcDbMText
 10
143.7938676094455
 20
80.11444193001819
 30
0.0
 40
3.5
 41
0.0
 71
     5
 72
     1
  1
3
 73
     1
 44
1.0
1001
ACAD
1000
MTEXTBEGIN
1070
    73
1070
     1
1070
    44
1040
1.0
1070
    74
1070
     0
1000
MTEXTEND
  0
TOLERANCE
  5
9E7F
330
18
100
AcDbEntity
  8
mark
100
AcDbFcf
  3
STANDARD
 10
82.5
 20
71.03131802523034
 30
0.0
  1
%%v%%v%%vA%%v%%v
 11
-0.0000000000000002
 21
-1.0
 31
0.0
1001
ACAD
1000
DSTYLE
1002
{
1070
    90
1070
     1
1070
   345
1005
12
1070
   346
1005
12
1070
   347
1005
12
1002
}
  0
LINE
  5
9E80
102
{ACAD_REACTORS
330
9E8F
102
}
330
18
100
AcDbEntity
  8
mark
100
AcDbLine
 10
65.0
 20
78.94798469189703
 30
0.0
 11
65.0
 21
66.86465135856372
 31
0.0
  0
LINE
  5
9E81
330
18
100
AcDbEntity
  8
mark
100
AcDbLine
 10
67.08333333333349
 20
68.94798469189703
 30
0.0
 11
80.0
 21
68.94798469189703
 31
0.0
  0
LINE
  5
9E82
102
{ACAD_REACTORS
330
9E8F
102
}
330
18
100
AcDbEntity
  8
mark
100
AcDbLine
 10
67.08333333333314
 20
68.94798469189698
 30
0.0
 11
65.0
 21
71.03131802523037
 31
0.0
  0
LINE
  5
9E83
102
{ACAD_REACTORS
330
9E8F
102
}
330
18
100
AcDbEntity
  8
mark
100
AcDbLine
 10
67.08333333333349
 20
68.94798469189701
 30
0.0
 11
65.0
 21
66.86465135856366
 31
0.0
  0
HATCH
  5
9E8F
330
18
100
AcDbEntity
  8
mark
100
AcDbHatch
 10
0.0
 20
0.0
 30
0.0
210
0.0
220
0.0
230
1.0
  2
SOLID
 70
     1
 71
     1
 91
        1
 92
        7
 72
     0
 73
     1
 93
        3
 10
65.0
 20
66.86465135856366
 10
67.0833333333333
 20
68.94798469189682
 10
65.0
 20
71.03131802523037
 97
        3
330
9E80
330
9E83
330
9E82
 75
     1
 76
     1
 47
0.0700556947552369
 98
        1
 10
65.51651159153118
 20
69.09600689571187
1001
GRADIENTCOLOR1ACI
1070
     5
1001
GRADIENTCOLOR2ACI
1070
     2
1001
ACAD
1010
0.0
1020
0.0
1030
0.0
  0
MTEXT
  5
A081
330
18
100
AcDbEntity
  8
0
100
AcDbMText
 10
9.490462412479832
 20
40.75751571296666
 30
0.0
 40
4.5
 41
0.0
 71
     1
 72
     5
  1
{\Ftxt,bigfont|c128;本品物は石綿を使用しておりません。}
  7
JL
 73
     1
 44
1.0
1001
ACAD
1000
ACAD_MTEXT_DEFINED_HEIGHT_BEGIN
1070
    46
1040
0.0
1000
ACAD_MTEXT_DEFINED_HEIGHT_END
1000
MTEXTBEGIN
1070
    73
1070
     1
1070
    44
1040
1.0
1070
    74
1070
     0
1000
MTEXTEND
  0
ENDSEC
  0
SECTION
  2
OBJECTS
  0
DICTIONARY
  5
C
330
0
100
AcDbDictionary
281
     1
  3
ACAD_2007HEADERVARS_RT
350
9FE5
  3
ACAD_COLOR
350
7FED
  3
ACAD_GROUP
350
D
  3
ACAD_LAYOUT
350
5CF3
  3
ACAD_MATERIAL
350
7FEC
  3
ACAD_MLEADERSTYLE
350
9043
  3
ACAD_MLINESTYLE
350
1B
  3
ACAD_PLOTSETTINGS
350
5CF4
  3
ACAD_PLOTSTYLENAME
350
5CF1
  3
ACAD_SCALELIST
350
9031
  3
ACAD_TABLESTYLE
350
7FEE
  3
ACAD_VISUALSTYLE
350
901D
  3
ACDB_RECOMPOSE_DATA
350
9FE3
  3
ACDBHEADERROUNDTRIPXREC
350
A09E
  3
ACDBVARIABLEDICTIONARY
350
45D
  3
AcmDictionary
350
92EA
  3
AMG
350
92D1
  3
AMGSNAPSETTINGS
350
9409
  3
DWGPROPS
350
A09D
  0
DICTIONARY
  5
9C5F
330
8
100
AcDbDictionary
280
     1
281
     1
  3
ACAD_XREC_ROUNDTRIP
360
9FEC
  0
DICTIONARY
  5
7FFF
330
2
100
AcDbDictionary
280
     1
281
     1
  3
ACAD_LAYERFILTERS
360
8003
  3
ACAD_LAYERSTATES
360
9226
  3
ACLYDICTIONARY
360
8002
  0
DICTIONARY
  5
9211
330
E
100
AcDbDictionary
280
     1
281
     1
  3
ADSK_XREC_LAYER_RECONCILED
360
9212
  0
DICTIONARY
  5
9213
330
B9
100
AcDbDictionary
280
     1
281
     1
  3
ADSK_XREC_LAYER_RECONCILED
360
9214
  0
DICTIONARY
  5
9215
330
5F8B
100
AcDbDictionary
280
     1
281
     1
  3
ADSK_XREC_LAYER_RECONCILED
360
9216
  0
DICTIONARY
  5
9217
330
644E
100
AcDbDictionary
280
     1
281
     1
  3
ADSK_XREC_LAYER_RECONCILED
360
9218
  0
DICTIONARY
  5
9219
330
650D
100
AcDbDictionary
280
     1
281
     1
  3
ADSK_XREC_LAYER_RECONCILED
360
921A
  0
DICTIONARY
  5
921B
330
650E
100
AcDbDictionary
280
     1
281
     1
  3
ADSK_XREC_LAYER_RECONCILED
360
921C
  0
DICTIONARY
  5
921D
330
650F
100
AcDbDictionary
280
     1
281
     1
  3
ADSK_XREC_LAYER_RECONCILED
360
921E
  0
DICTIONARY
  5
921F
330
6510
100
AcDbDictionary
280
     1
281
     1
  3
ADSK_XREC_LAYER_RECONCILED
360
9220
  0
DICTIONARY
  5
9221
330
7D87
100
AcDbDictionary
280
     1
281
     1
  3
ADSK_XREC_LAYER_RECONCILED
360
9222
  0
DICTIONARY
  5
96BA
330
96B9
100
AcDbDictionary
280
     1
281
     1
  0
DICTIONARY
  5
96BC
330
96BB
100
AcDbDictionary
280
     1
281
     1
  0
DICTIONARY
  5
45F
330
18
100
AcDbDictionary
280
     1
281
     1
  3
ACAD_LAYOUTSELFREF
360
5D8B
  3
ACAD_SORTENTS
360
460
  0
DICTIONARY
  5
5D89
330
15
100
AcDbDictionary
280
     1
281
     1
  3
ACAD_LAYOUTSELFREF
360
5D8A
  0
DICTIONARY
  5
801B
330
801A
100
AcDbDictionary
280
     1
281
     1
  3
AcDbBlockTableRecordData
360
9FF1
  0
DICTIONARY
  5
8FB4
330
8FA4
100
AcDbDictionary
280
     1
281
     1
  3
ACAD_SORTENTS
360
8FB5
  0
DICTIONARY
  5
95DA
330
95D9
100
AcDbDictionary
280
     1
281
     1
  3
ACAD_SORTENTS
360
95DB
  0
DICTIONARY
  5
9FE5
102
{ACAD_REACTORS
330
C
102
}
330
C
100
AcDbDictionary
281
     1
  3
DIMARCSYM
350
9FE7
  3
DIMFXL
350
9FE6
  3
DIMJOGANG
350
9FE8
  3
DIMLTEX1
350
9FEA
  3
DIMLTEX2
350
9FEB
  3
DIMLTYPE
350
9FE9
  0
DICTIONARY
  5
7FED
102
{ACAD_REACTORS
330
C
102
}
330
C
100
AcDbDictionary
281
     1
  0
DICTIONARY
  5
D
102
{ACAD_REACTORS
330
C
102
}
330
C
100
AcDbDictionary
281
     1
  0
DICTIONARY
  5
5CF3
102
{ACAD_REACTORS
330
C
102
}
330
C
100
AcDbDictionary
281
     1
  3
Model
350
5CF5
  3
配置1
350
5CF6
1001
ACADSTRINGINFO
1000
MIFCodePage
1070
     1
  0
DICTIONARY
  5
7FEC
102
{ACAD_REACTORS
330
C
102
}
330
C
100
AcDbDictionary
281
     1
  3
ByBlock
350
900D
  3
ByLayer
350
9005
  3
Global
350
9015
  0
DICTIONARY
  5
9043
102
{ACAD_REACTORS
330
C
102
}
330
C
100
AcDbDictionary
281
     1
  3
Standard
350
9044
  0
DICTIONARY
  5
1B
102
{ACAD_REACTORS
330
C
102
}
330
C
100
AcDbDictionary
281
     1
  3
STANDARD
350
1C
  0
DICTIONARY
  5
5CF4
102
{ACAD_REACTORS
330
C
102
}
330
C
100
AcDbDictionary
281
     1
  0
ACDBDICTIONARYWDFLT
  5
5CF1
102
{ACAD_REACTORS
330
C
102
}
330
C
100
AcDbDictionary
281
     1
  3
\M+2B6C2
350
96C1
  3
Normal
350
5CF2
100
AcDbDictionaryWithDefault
340
5CF2
  0
DICTIONARY
  5
9031
102
{ACAD_REACTORS
330
C
102
}
330
C
100
AcDbDictionary
281
     1
  3
A0
350
9032
  3
A1
350
9033
  3
A2
350
9034
  3
A3
350
9035
  3
A4
350
9036
  3
A5
350
9037
  3
A6
350
9038
  3
A7
350
9039
  3
A8
350
903A
  3
A9
350
903B
  3
B0
350
903C
  3
B1
350
903D
  3
B2
350
903E
  3
B3
350
903F
  3
B4
350
9040
  3
B5
350
9041
  3
B6
350
9042
  0
DICTIONARY
  5
7FEE
102
{ACAD_REACTORS
330
C
102
}
330
C
100
AcDbDictionary
281
     1
  3
Standard
350
7FEF
  0
DICTIONARY
  5
901D
102
{ACAD_REACTORS
330
C
102
}
330
C
100
AcDbDictionary
281
     1
  3
2dWireframe
350
9023
  3
3D Hidden
350
9025
  3
3dWireframe
350
9024
  3
Basic
350
9022
  3
Brighten
350
9029
  3
ColorChange
350
902D
  3
Conceptual
350
9026
  3
Dim
350
9028
  3
EdgeColorOff
350
9030
  3
Facepattern
350
902C
  3
Flat
350
901E
  3
FlatWithEdges
350
901F
  3
Gouraud
350
9020
  3
GouraudWithEdges
350
9021
  3
Hidden
350
928D
  3
JitterOff
350
902E
  3
Linepattern
350
902B
  3
OverhangOff
350
902F
  3
Realistic
350
9027
  3
Shaded
350
9292
  3
Shaded with edges
350
9291
  3
Shades of Gray
350
928E
  3
Sketchy
350
928F
  3
Thicken
350
902A
  3
Wireframe
350
928C
  3
X-Ray
350
9290
  0
XRECORD
  5
9FE3
102
{ACAD_REACTORS
330
C
102
}
330
C
100
AcDbXrecord
280
     1
 90
        1
330
7FEF
  0
DICTIONARY
  5
A09E
102
{ACAD_REACTORS
330
C
102
}
330
C
100
AcDbDictionary
281
     1
  0
DICTIONARY
  5
45D
102
{ACAD_REACTORS
330
C
102
}
330
C
100
AcDbDictionary
281
     1
  3
CANNOSCALE
350
9287
  3
CMLEADERSTYLE
350
9285
  3
CTABLESTYLE
350
8013
  3
DIMASSOC
350
9D67
  3
INDEXCTL
350
9D65
  3
LAYEREVAL
350
9289
  3
LAYERNOTIFY
350
928A
  3
LIGHTINGUNITS
350
9288
  3
MSLTSCALE
350
9286
  3
PROJECTNAME
350
A09B
  3
SORTENTS
350
45E
  3
XCLIPFRAME
350
A074
  0
DICTIONARY
  5
92EA
102
{ACAD_REACTORS
330
C
102
}
330
C
100
AcDbDictionary
281
     1
  3
AcmStdDictionary
350
92F3
  0
DICTIONARY
  5
92D1
102
{ACAD_REACTORS
330
C
102
}
330
C
100
AcDbDictionary
281
     1
  0
DICTIONARY
  5
9409
102
{ACAD_REACTORS
330
C
102
}
330
C
100
AcDbDictionary
281
     1
  0
XRECORD
  5
A09D
102
{ACAD_REACTORS
330
C
102
}
330
C
100
AcDbXrecord
280
     1
  1
DWGPROPS COOKIE
  2

  3

  4

  6

  7

  8
USER
  9

300
=
301
=
302
=
303
=
304
=
305
=
306
=
307
=
308
=
309
=
 40
2.374946724537037
 41
2451555.620234838
 42
2457828.488728623
  1

 90
        0
  0
XRECORD
  5
9FEC
102
{ACAD_REACTORS
330
9C5F
102
}
330
9C5F
100
AcDbXrecord
280
     1
102
VTR_0.000_0.000_1.000_1.000_VISUALSTYLE
340
9023
102
VTR_0.000_0.000_1.000_1.000_GRIDDISPLAY
 70
     3
102
VTR_0.000_0.000_1.000_1.000_GRIDMAJOR
 70
     5
102
VTR_0.000_0.000_1.000_1.000_DEFAULTLIGHTING
280
     1
102
VTR_0.000_0.000_1.000_1.000_DEFAULTLIGHTINGTYPE
 70
     1
102
VTR_0.000_0.000_1.000_1.000_BRIGHTNESS
141
0.0
102
VTR_0.000_0.000_1.000_1.000_CONTRAST
142
0.0
  0
DICTIONARY
  5
8003
102
{ACAD_REACTORS
330
7FFF
102
}
330
7FFF
100
AcDbDictionary
281
     1
  0
DICTIONARY
  5
9226
102
{ACAD_REACTORS
330
7FFF
102
}
330
7FFF
100
AcDbDictionary
281
     1
  0
DICTIONARY
  5
8002
102
{ACAD_REACTORS
330
7FFF
102
}
330
7FFF
100
AcDbDictionary
281
     1
1001
ACAD
1000
<All
  0
XRECORD
  5
9212
102
{ACAD_REACTORS
330
9211
102
}
330
9211
100
AcDbXrecord
280
     1
290
     1
  0
XRECORD
  5
9214
102
{ACAD_REACTORS
330
9213
102
}
330
9213
100
AcDbXrecord
280
     1
290
     1
  0
XRECORD
  5
9216
102
{ACAD_REACTORS
330
9215
102
}
330
9215
100
AcDbXrecord
280
     1
290
     1
  0
XRECORD
  5
9218
102
{ACAD_REACTORS
330
9217
102
}
330
9217
100
AcDbXrecord
280
     1
290
     1
  0
XRECORD
  5
921A
102
{ACAD_REACTORS
330
9219
102
}
330
9219
100
AcDbXrecord
280
     1
290
     1
  0
XRECORD
  5
921C
102
{ACAD_REACTORS
330
921B
102
}
330
921B
100
AcDbXrecord
280
     1
290
     1
  0
XRECORD
  5
921E
102
{ACAD_REACTORS
330
921D
102
}
330
921D
100
AcDbXrecord
280
     1
290
     1
  0
XRECORD
  5
9220
102
{ACAD_REACTORS
330
921F
102
}
330
921F
100
AcDbXrecord
280
     1
290
     1
  0
XRECORD
  5
9222
102
{ACAD_REACTORS
330
9221
102
}
330
9221
100
AcDbXrecord
280
     1
290
     1
  0
XRECORD
  5
5D8B
102
{ACAD_REACTORS
330
45F
102
}
330
45F
100
AcDbXrecord
280
     1
340
18
  0
SORTENTSTABLE
  5
460
102
{ACAD_REACTORS
330
45F
102
}
330
45F
100
AcDbSortentsTable
330
18
331
9893
  5
98B6
331
943F
  5
943F
331
C0
  5
CB
331
94CE
  5
94CE
331
99E2
  5
9A62
331
989B
  5
98C2
331
9447
  5
9447
331
99EA
  5
99E9
331
98A3
  5
99E5
331
944F
  5
944F
331
99FA
  5
9AE8
331
9457
  5
9457
331
987C
  5
987C
331
98B3
  5
99FA
331
9428
  5
9428
331
945F
  5
945F
331
9A62
  5
9AEC
331
9884
  5
9899
331
98BB
  5
9A06
331
9430
  5
9430
331
988C
  5
98AD
331
98C3
  5
9A0E
331
9E77
  5
9E77
331
94C7
  5
94C7
331
9E7F
  5
9E7F
331
9438
  5
9438
331
9894
  5
98BA
331
9440
  5
9440
331
94CF
  5
94CF
331
989C
  5
98C4
331
99E3
  5
9A6F
331
9C19
  5
9C19
331
9448
  5
9448
331
98A4
  5
99E6
331
9C29
  5
9C29
331
9E8F
  5
9E81
331
95D7
  5
95D7
331
99F3
  5
9ADF
331
9450
  5
9450
331
99FB
  5
9AE9
331
9A92
  5
9AEF
331
9458
  5
9458
331
987D
  5
987E
331
98B4
  5
99FB
331
9429
  5
9429
331
9460
  5
9460
331
9885
  5
989C
331
98BC
  5
9A07
331
9431
  5
9431
331
988D
  5
98AE
331
9439
  5
9439
331
94C8
  5
94C8
331
9895
  5
98BB
331
9E80
  5
9E82
331
9441
  5
9441
331
94D0
  5
94D0
331
989D
  5
98CB
331
99E4
  5
9A85
331
9C1A
  5
9C1A
331
99F4
  5
9AE0
331
9451
  5
9451
331
98AD
  5
99EA
331
9459
  5
9459
331
987E
  5
987F
331
98B5
  5
99FD
331
942A
  5
942A
331
9461
  5
9461
331
9886
  5
989E
331
98BD
  5
9A08
331
9432
  5
9432
331
988E
  5
98AF
331
943A
  5
943A
331
94C9
  5
94C9
331
9896
  5
98BC
331
99DD
  5
9A0F
331
9E81
  5
9E83
331
9442
  5
9442
331
94D1
  5
94D1
331
989E
  5
99DE
331
99E5
  5
9A92
331
9C1B
  5
9C1B
331
944A
  5
944A
331
99F5
  5
9AE4
331
9452
  5
9452
331
99FD
  5
9AEA
331
98AE
  5
99F3
331
9423
  5
9423
331
945A
  5
945A
331
987F
  5
9892
331
98B6
  5
99FF
331
942B
  5
942B
331
9462
  5
9462
331
98BE
  5
9A09
331
9887
  5
989F
331
9433
  5
9433
331
9E7A
  5
9E7A
331
988F
  5
98B1
331
9ADC
  5
9AF1
331
943B
  5
943B
331
94CA
  5
94CA
331
99DE
  5
9A10
331
9897
  5
98BD
331
9E82
  5
9E8A
331
9443
  5
9443
331
9A85
  5
9AEE
331
99E6
  5
9ACD
331
989F
  5
99DF
331
9C1C
  5
9C1C
331
944B
  5
944B
331
99F6
  5
9AE5
331
9453
  5
9453
331
9424
  5
9424
331
945B
  5
945B
331
98AF
  5
99F4
331
9ACD
  5
9AF0
331
942C
  5
942C
331
9463
  5
9463
331
9880
  5
9893
331
98B7
  5
9A01
331
9E03
  5
9E03
331
9434
  5
9434
331
94C3
  5
94C3
331
9888
  5
98A0
331
98BF
  5
9A0A
331
9E7B
  5
9E7B
331
943C
  5
943C
331
94CB
  5
94CB
331
9890
  5
98B3
331
99DF
  5
9A11
331
9444
  5
9444
331
9898
  5
98BE
331
9E83
  5
9E8B
331
944C
  5
944C
331
98A0
  5
99E0
331
99E7
  5
9ADC
331
9DE4
  5
9DE4
331
99F7
  5
9AE6
331
9454
  5
9454
331
99FF
  5
9AEB
331
9425
  5
9425
331
945C
  5
945C
331
98B0
  5
99F5
331
9DF4
  5
9DF4
331
942D
  5
942D
331
9464
  5
9464
331
9881
  5
9895
331
98B8
  5
9A03
331
9889
  5
98A2
331
98C0
  5
9A0B
331
9435
  5
9435
331
94C4
  5
94C4
331
9A6F
  5
9AED
331
9ADE
  5
9AF5
331
9891
  5
98B4
331
943D
  5
943D
331
94CC
  5
94CC
331
9899
  5
98C0
331
99E0
  5
9A12
331
9C16
  5
9890
331
9445
  5
9445
331
944D
  5
944D
331
9C36
  5
9C36
331
99F8
  5
9AE7
331
9455
  5
9455
331
987A
  5
987A
331
98B1
  5
99F6
331
9426
  5
9426
331
945D
  5
945D
331
98B9
  5
9A04
331
942E
  5
942E
331
9465
  5
9465
331
9E75
  5
9E75
331
988A
  5
98A4
331
98C1
  5
9A0C
331
9C56
  5
9C56
331
9436
  5
9436
331
94C5
  5
94C5
331
9E7D
  5
9E7D
331
9892
  5
98B5
331
943E
  5
943E
331
94CD
  5
94CD
331
989A
  5
98C1
331
9446
  5
9446
331
98A2
  5
99E4
331
99E9
  5
9ADE
331
944E
  5
944E
331
98AA
  5
99E7
331
9456
  5
9456
331
98B2
  5
99F7
331
9427
  5
9427
331
945E
  5
945E
331
98BA
  5
9A05
331
9883
  5
9897
331
942F
  5
942F
331
9466
  5
9466
331
9E76
  5
9E76
331
988B
  5
98AA
331
98C2
  5
9A0D
331
9C57
  5
9C57
331
9437
  5
9437
331
94C6
  5
94C6
331
9E7E
  5
9E7E
  0
XRECORD
  5
5D8A
102
{ACAD_REACTORS
330
5D89
102
}
330
5D89
100
AcDbXrecord
280
     1
340
15
  0
DICTIONARY
  5
9FF1
102
{ACAD_REACTORS
330
801B
102
}
330
801B
100
AcDbDictionary
280
     1
281
     1
  3
Edit
360
9FF2
  0
SORTENTSTABLE
  5
8FB5
102
{ACAD_REACTORS
330
8FB4
102
}
330
8FB4
100
AcDbSortentsTable
330
8FA4
  0
SORTENTSTABLE
  5
95DB
102
{ACAD_REACTORS
330
95DA
102
}
330
95DA
100
AcDbSortentsTable
330
95D9
331
960C
  5
181
331
9629
  5
177
331
95E7
  5
158
331
95FA
  5
16F
331
9608
  5
172
331
9625
  5
198
331
95F6
  5
168
331
95E3
  5
154
331
9604
  5
17A
331
95F2
  5
164
331
9621
  5
194
331
9617
  5
18D
331
9600
  5
176
331
95EE
  5
160
331
961D
  5
190
331
9613
  5
188
331
960F
  5
184
331
95EA
  5
15C
331
9619
  5
16A
331
95FD
  5
173
331
95E6
  5
157
331
960B
  5
180
331
9628
  5
15A
331
95F9
  5
16E
331
9607
  5
17D
331
9624
  5
197
331
95F5
  5
167
331
95E2
  5
153
331
9603
  5
169
331
9620
  5
193
331
95DF
  5
150
331
9616
  5
18B
331
95F1
  5
163
331
9612
  5
187
331
95ED
  5
15F
331
961C
  5
18F
331
95E9
  5
15B
331
95FC
  5
171
331
960E
  5
183
331
9618
  5
18E
331
960A
  5
17F
331
95F8
  5
16C
331
9627
  5
18C
331
95E5
  5
156
331
9623
  5
196
331
95F4
  5
166
331
9606
  5
17C
331
95E1
  5
152
331
9602
  5
179
331
9615
  5
18A
331
95F0
  5
162
331
961F
  5
192
331
95DE
  5
14F
331
9611
  5
186
331
95EC
  5
15E
331
961B
  5
14E
331
95FF
  5
175
331
960D
  5
182
331
95E8
  5
159
331
95FB
  5
170
331
95E4
  5
155
331
9609
  5
17E
331
9626
  5
199
331
95F7
  5
16B
331
95E0
  5
151
331
9605
  5
17B
331
9622
  5
195
331
95F3
  5
165
331
9601
  5
178
331
95EF
  5
161
331
961E
  5
191
331
9614
  5
189
331
95EB
  5
15D
331
961A
  5
16D
331
95FE
  5
174
331
9610
  5
185
  0
XRECORD
  5
9FE7
102
{ACAD_REACTORS
330
9FE5
102
}
330
9FE5
100
AcDbXrecord
280
     1
 70
     1
  0
XRECORD
  5
9FE6
102
{ACAD_REACTORS
330
9FE5
102
}
330
9FE5
100
AcDbXrecord
280
     1
 40
0.18
  0
XRECORD
  5
9FE8
102
{ACAD_REACTORS
330
9FE5
102
}
330
9FE5
100
AcDbXrecord
280
     1
 40
1.570796326794896
  0
XRECORD
  5
9FEA
102
{ACAD_REACTORS
330
9FE5
102
}
330
9FE5
100
AcDbXrecord
280
     1
340
12
  0
XRECORD
  5
9FEB
102
{ACAD_REACTORS
330
9FE5
102
}
330
9FE5
100
AcDbXrecord
280
     1
340
12
  0
XRECORD
  5
9FE9
102
{ACAD_REACTORS
330
9FE5
102
}
330
9FE5
100
AcDbXrecord
280
     1
340
12
  0
LAYOUT
  5
5CF5
102
{ACAD_XDICTIONARY
360
922B
102
}
102
{ACAD_REACTORS
330
5CF3
102
}
330
5CF3
100
AcDbPlotSettings
  1

  2
hp LaserJet 1300 PCL 6
  4
A4
  6

 40
5.027083396911621
 41
5.069413185119628
 42
5.027084350585937
 43
5.027069091796875
 44
209.9733276367187
 45
296.9683227539062
 46
4.918847786330957
 47
3.419579842190444
 48
0.0
 49
0.0
140
0.0
141
0.0
142
1.0
143
1.0
 70
 11956
 72
     1
 73
     0
 74
     1
  7
monochrome.ctb
 75
    16
147
1.0
148
-417.0120575741952
149
-133.4113806332544
100
AcDbLayout
  1
Model
 70
     1
 71
     0
 10
0.0
 20
0.0
 11
12.0
 21
9.0
 12
0.0
 22
0.0
 32
0.0
 14
0.0
 24
0.0
 34
0.0
 15
0.0
 25
0.0
 35
0.0
146
0.0
 13
0.0
 23
0.0
 33
0.0
 16
1.0
 26
0.0
 36
0.0
 17
0.0
 27
1.0
 37
0.0
 76
     0
330
18
1001
ACAD_PSEXT
1000
hp LaserJet 1300 PCL 6
1000
hp LaserJet 1300 PCL 6
1000
HP 1300
1000

1070
     0
  0
LAYOUT
  5
5CF6
102
{ACAD_XDICTIONARY
360
A0A0
102
}
102
{ACAD_REACTORS
330
5CF3
102
}
330
5CF3
100
AcDbPlotSettings
  1

  2
EPSON STYLUS COLOR 440
  4

  6

 40
0.0
 41
0.0
 42
0.0
 43
0.0
 44
0.0
 45
0.0
 46
0.0
 47
0.0
 48
0.0
 49
0.0
140
0.0
141
0.0
142
1.0
143
1.0
 70
   688
 72
     0
 73
     0
 74
     5
  7
monochrome.ctb
 75
    16
147
1.0
148
0.0
149
0.0
100
AcDbLayout
  1
ｰtｸm1
 70
     1
 71
     1
 10
0.0
 20
0.0
 11
420.0
 21
297.0
 12
0.0
 22
0.0
 32
0.0
 14
1.000000000000000E+20
 24
1.000000000000000E+20
 34
1.000000000000000E+20
 15
-1.000000000000000E+20
 25
-1.000000000000000E+20
 35
-1.000000000000000E+20
146
0.0
 13
0.0
 23
0.0
 33
0.0
 16
1.0
 26
0.0
 36
0.0
 17
0.0
 27
1.0
 37
0.0
 76
     0
330
15
1001
ACADSTRINGINFO
1000
MIFCodePage
1070
     1
  0
MATERIAL
  5
900D
102
{ACAD_XDICTIONARY
360
900E
102
}
102
{ACAD_REACTORS
330
7FEC
102
}
330
7FEC
100
AcDbMaterial
  1
ByBlock
 72
     0
 73
     2
 43
0.0208333333333333
 43
0.0
 43
0.0
 43
0.0
 43
0.0
 43
0.0208333333333333
 43
0.0
 43
0.0
 43
0.0
 43
0.0
 43
1.0
 43
0.0
 43
0.0
 43
0.0
 43
0.0
 43
1.0
 77
     0
 78
     2
 47
0.0208333333333333
 47
0.0
 47
0.0
 47
0.0
 47
0.0
 47
0.0208333333333333
 47
0.0
 47
0.0
 47
0.0
 47
0.0
 47
1.0
 47
0.0
 47
0.0
 47
0.0
 47
0.0
 47
1.0
171
     0
172
     2
 49
0.0208333333333333
 49
0.0
 49
0.0
 49
0.0
 49
0.0
 49
0.0208333333333333
 49
0.0
 49
0.0
 49
0.0
 49
0.0
 49
1.0
 49
0.0
 49
0.0
 49
0.0
 49
0.0
 49
1.0
175
     0
176
     2
142
0.0208333333333333
142
0.0
142
0.0
142
0.0
142
0.0
142
0.0208333333333333
142
0.0
142
0.0
142
0.0
142
0.0
142
1.0
142
0.0
142
0.0
142
0.0
142
0.0
142
1.0
179
     0
270
     2
144
0.0208333333333333
144
0.0
144
0.0
144
0.0
144
0.0
144
0.0208333333333333
144
0.0
144
0.0
144
0.0
144
0.0
144
1.0
144
0.0
144
0.0
144
0.0
144
0.0
144
1.0
274
     2
147
0.0208333333333333
147
0.0
147
0.0
147
0.0
147
0.0
147
0.0208333333333333
147
0.0
147
0.0
147
0.0
147
0.0
147
1.0
147
0.0
147
0.0
147
0.0
147
0.0
147
1.0
  0
MATERIAL
  5
9005
102
{ACAD_XDICTIONARY
360
9006
102
}
102
{ACAD_REACTORS
330
7FEC
102
}
330
7FEC
100
AcDbMaterial
  1
ByLayer
 72
     0
 73
     2
 43
0.0208333333333333
 43
0.0
 43
0.0
 43
0.0
 43
0.0
 43
0.0208333333333333
 43
0.0
 43
0.0
 43
0.0
 43
0.0
 43
1.0
 43
0.0
 43
0.0
 43
0.0
 43
0.0
 43
1.0
 77
     0
 78
     2
 47
0.0208333333333333
 47
0.0
 47
0.0
 47
0.0
 47
0.0
 47
0.0208333333333333
 47
0.0
 47
0.0
 47
0.0
 47
0.0
 47
1.0
 47
0.0
 47
0.0
 47
0.0
 47
0.0
 47
1.0
171
     0
172
     2
 49
0.0208333333333333
 49
0.0
 49
0.0
 49
0.0
 49
0.0
 49
0.0208333333333333
 49
0.0
 49
0.0
 49
0.0
 49
0.0
 49
1.0
 49
0.0
 49
0.0
 49
0.0
 49
0.0
 49
1.0
175
     0
176
     2
142
0.0208333333333333
142
0.0
142
0.0
142
0.0
142
0.0
142
0.0208333333333333
142
0.0
142
0.0
142
0.0
142
0.0
142
1.0
142
0.0
142
0.0
142
0.0
142
0.0
142
1.0
179
     0
270
     2
144
0.0208333333333333
144
0.0
144
0.0
144
0.0
144
0.0
144
0.0208333333333333
144
0.0
144
0.0
144
0.0
144
0.0
144
1.0
144
0.0
144
0.0
144
0.0
144
0.0
144
1.0
274
     2
147
0.0208333333333333
147
0.0
147
0.0
147
0.0
147
0.0
147
0.0208333333333333
147
0.0
147
0.0
147
0.0
147
0.0
147
1.0
147
0.0
147
0.0
147
0.0
147
0.0
147
1.0
  0
MATERIAL
  5
9015
102
{ACAD_XDICTIONARY
360
9016
102
}
102
{ACAD_REACTORS
330
7FEC
102
}
330
7FEC
100
AcDbMaterial
  1
Global
 72
     0
 73
     2
 43
0.0208333333333333
 43
0.0
 43
0.0
 43
0.0
 43
0.0
 43
0.0208333333333333
 43
0.0
 43
0.0
 43
0.0
 43
0.0
 43
1.0
 43
0.0
 43
0.0
 43
0.0
 43
0.0
 43
1.0
 77
     0
 78
     2
 47
0.0208333333333333
 47
0.0
 47
0.0
 47
0.0
 47
0.0
 47
0.0208333333333333
 47
0.0
 47
0.0
 47
0.0
 47
0.0
 47
1.0
 47
0.0
 47
0.0
 47
0.0
 47
0.0
 47
1.0
171
     0
172
     2
 49
0.0208333333333333
 49
0.0
 49
0.0
 49
0.0
 49
0.0
 49
0.0208333333333333
 49
0.0
 49
0.0
 49
0.0
 49
0.0
 49
1.0
 49
0.0
 49
0.0
 49
0.0
 49
0.0
 49
1.0
175
     0
176
     2
142
0.0208333333333333
142
0.0
142
0.0
142
0.0
142
0.0
142
0.0208333333333333
142
0.0
142
0.0
142
0.0
142
0.0
142
1.0
142
0.0
142
0.0
142
0.0
142
0.0
142
1.0
179
     0
270
     2
144
0.0208333333333333
144
0.0
144
0.0
144
0.0
144
0.0
144
0.0208333333333333
144
0.0
144
0.0
144
0.0
144
0.0
144
1.0
144
0.0
144
0.0
144
0.0
144
0.0
144
1.0
274
     2
147
0.0208333333333333
147
0.0
147
0.0
147
0.0
147
0.0
147
0.0208333333333333
147
0.0
147
0.0
147
0.0
147
0.0
147
1.0
147
0.0
147
0.0
147
0.0
147
0.0
147
1.0
  0
ACAD_PROXY_OBJECT
  5
9044
102
{ACAD_REACTORS
330
9043
102
}
330
9043
100
AcDbProxyObject
 90
      499
 91
      515
 95
   983063
 70
     0
 93
      618
310
40901902A4063FBFFFFFE000000000000002040AD7A3703D0AD73F4254DD185B99185C99000000000000000104090141901A00000000000004100000000000000041025764000000000000300FC0
340
12
340
0
340
F
340
0
 94
        0
1001
ACAD_MLEADERVER
1070
     2
1001
ACAD
1000
AcRTDxfName
1000
MLEADERSTYLE
  0
MLINESTYLE
  5
1C
102
{ACAD_REACTORS
330
1B
102
}
330
1B
100
AcDbMlineStyle
  2
STANDARD
 70
     0
  3

 62
   256
 51
90.0
 52
90.0
 71
     2
 49
0.5
 62
   256
  6
BYLAYER
 49
-0.5
 62
   256
  6
BYLAYER
  0
ACDBPLACEHOLDER
  5
96C1
102
{ACAD_REACTORS
330
5CF1
102
}
330
5CF1
  0
ACDBPLACEHOLDER
  5
5CF2
102
{ACAD_REACTORS
330
5CF1
102
}
330
5CF1
  0
ACAD_PROXY_OBJECT
  5
9032
102
{ACAD_REACTORS
330
9031
102
}
330
9031
100
AcDbProxyObject
 90
      499
 91
      514
 95
   983063
 70
     0
 93
       49
310
904313A3100580
 94
        0
1001
ACAD
1000
AcRTDxfName
1000
SCALE
  0
ACAD_PROXY_OBJECT
  5
9033
102
{ACAD_REACTORS
330
9031
102
}
330
9031
100
AcDbProxyObject
 90
      499
 91
      514
 95
   983063
 70
     0
 93
      113
310
904313A32004000000000000004013
 94
        0
1001
ACAD
1000
AcRTDxfName
1000
SCALE
  0
ACAD_PROXY_OBJECT
  5
9034
102
{ACAD_REACTORS
330
9031
102
}
330
9031
100
AcDbProxyObject
 90
      499
 91
      514
 95
   983063
 70
     0
 93
      113
310
904313A3400400000000000010400C
 94
        0
1001
ACAD
1000
AcRTDxfName
1000
SCALE
  0
ACAD_PROXY_OBJECT
  5
9035
102
{ACAD_REACTORS
330
9031
102
}
330
9031
100
AcDbProxyObject
 90
      499
 91
      514
 95
   983063
 70
     0
 93
      113
310
904313A35004000000000000144013
 94
        0
1001
ACAD
1000
AcRTDxfName
1000
SCALE
  0
ACAD_PROXY_OBJECT
  5
9036
102
{ACAD_REACTORS
330
9031
102
}
330
9031
100
AcDbProxyObject
 90
      499
 91
      514
 95
   983063
 70
     0
 93
      113
310
904313A3800400000000000020400C
 94
        0
1001
ACAD
1000
AcRTDxfName
1000
SCALE
  0
ACAD_PROXY_OBJECT
  5
9037
102
{ACAD_REACTORS
330
9031
102
}
330
9031
100
AcDbProxyObject
 90
      499
 91
      514
 95
   983063
 70
     0
 93
      121
310
905313A3130004000000000000244023
 94
        0
1001
ACAD
1000
AcRTDxfName
1000
SCALE
  0
ACAD_PROXY_OBJECT
  5
9038
102
{ACAD_REACTORS
330
9031
102
}
330
9031
100
AcDbProxyObject
 90
      499
 91
      514
 95
   983063
 70
     0
 93
      121
310
905313A3136004000000000000304040
 94
        0
1001
ACAD
1000
AcRTDxfName
1000
SCALE
  0
ACAD_PROXY_OBJECT
  5
9039
102
{ACAD_REACTORS
330
9031
102
}
330
9031
100
AcDbProxyObject
 90
      499
 91
      514
 95
   983063
 70
     0
 93
      121
310
905313A3230004000000000000344040
 94
        0
1001
ACAD
1000
AcRTDxfName
1000
SCALE
  0
ACAD_PROXY_OBJECT
  5
903A
102
{ACAD_REACTORS
330
9031
102
}
330
9031
100
AcDbProxyObject
 90
      499
 91
      514
 95
   983063
 70
     0
 93
      121
310
905313A33300040000000000003E4000
 94
        0
1001
ACAD
1000
AcRTDxfName
1000
SCALE
  0
ACAD_PROXY_OBJECT
  5
903B
102
{ACAD_REACTORS
330
9031
102
}
330
9031
100
AcDbProxyObject
 90
      499
 91
      514
 95
   983063
 70
     0
 93
      121
310
905313A3430004000000000000444000
 94
        0
1001
ACAD
1000
AcRTDxfName
1000
SCALE
  0
ACAD_PROXY_OBJECT
  5
903C
102
{ACAD_REACTORS
330
9031
102
}
330
9031
100
AcDbProxyObject
 90
      499
 91
      514
 95
   983063
 70
     0
 93
      121
310
905313A3530004000000000000494000
 94
        0
1001
ACAD
1000
AcRTDxfName
1000
SCALE
  0
ACAD_PROXY_OBJECT
  5
903D
102
{ACAD_REACTORS
330
9031
102
}
330
9031
100
AcDbProxyObject
 90
      499
 91
      514
 95
   983063
 70
     0
 93
      129
310
906313A313030004000000000000594000
 94
        0
1001
ACAD
1000
AcRTDxfName
1000
SCALE
  0
ACAD_PROXY_OBJECT
  5
903E
102
{ACAD_REACTORS
330
9031
102
}
330
9031
100
AcDbProxyObject
 90
      499
 91
      514
 95
   983063
 70
     0
 93
      113
310
904323A31000000000000000010159
 94
        0
1001
ACAD
1000
AcRTDxfName
1000
SCALE
  0
ACAD_PROXY_OBJECT
  5
903F
102
{ACAD_REACTORS
330
9031
102
}
330
9031
100
AcDbProxyObject
 90
      499
 91
      514
 95
   983063
 70
     0
 93
      113
310
904343A31000000000000000410100
 94
        0
1001
ACAD
1000
AcRTDxfName
1000
SCALE
  0
ACAD_PROXY_OBJECT
  5
9040
102
{ACAD_REACTORS
330
9031
102
}
330
9031
100
AcDbProxyObject
 90
      499
 91
      514
 95
   983063
 70
     0
 93
      113
310
904383A31000000000000000810159
 94
        0
1001
ACAD
1000
AcRTDxfName
1000
SCALE
  0
ACAD_PROXY_OBJECT
  5
9041
102
{ACAD_REACTORS
330
9031
102
}
330
9031
100
AcDbProxyObject
 90
      499
 91
      514
 95
   983063
 70
     0
 93
      121
310
90531303A31000000000000000910100
 94
        0
1001
ACAD
1000
AcRTDxfName
1000
SCALE
  0
ACAD_PROXY_OBJECT
  5
9042
102
{ACAD_REACTORS
330
9031
102
}
330
9031
100
AcDbProxyObject
 90
      499
 91
      514
 95
   983063
 70
     0
 93
      129
310
9063130303A31000000000000001650100
 94
        0
1001
ACAD
1000
AcRTDxfName
1000
SCALE
  0
TABLESTYLE
  5
7FEF
102
{ACAD_XDICTIONARY
360
9C58
102
}
102
{ACAD_REACTORS
330
7FEE
102
}
330
7FEE
100
AcDbTableStyle
  3
Standard
 70
     0
 71
     0
 40
1.5
 41
1.5
280
     0
281
     0
  7
STANDARD
140
4.5
170
     2
 62
     0
 63
     7
283
     0
274
    -2
284
     1
 64
     0
275
    -2
285
     1
 65
     0
276
    -2
286
     1
 66
     0
277
    -2
287
     1
 67
     0
278
    -2
288
     1
 68
     0
279
    -2
289
     1
 69
     0
  7
STANDARD
140
6.0
170
     5
 62
     0
 63
     7
283
     0
274
    -2
284
     1
 64
     0
275
    -2
285
     1
 65
     0
276
    -2
286
     1
 66
     0
277
    -2
287
     1
 67
     0
278
    -2
288
     1
 68
     0
279
    -2
289
     1
 69
     0
  7
STANDARD
140
4.5
170
     5
 62
     0
 63
     7
283
     0
274
    -2
284
     1
 64
     0
275
    -2
285
     1
 65
     0
276
    -2
286
     1
 66
     0
277
    -2
287
     1
 67
     0
278
    -2
288
     1
 68
     0
279
    -2
289
     1
 69
     0
  0
ACAD_PROXY_OBJECT
  5
9023
102
{ACAD_XDICTIONARY
360
A00E
102
}
102
{ACAD_REACTORS
330
901D
102
}
330
901D
100
AcDbProxyObject
 90
      499
 91
      513
 95
   983063
 70
     0
 93
      444
310
430C9915DA5C99599C985B59401049028333333333333E3BF0000000000000FB0107901411070040501600405405064090741402480A0340
 94
        0
1001
ACAD
1000
AcDbSavedByObjectVersion
1070
     0
1000
AcRTDxfName
1000
VISUALSTYLE
  0
ACAD_PROXY_OBJECT
  5
9025
102
{ACAD_XDICTIONARY
360
A012
102
}
102
{ACAD_REACTORS
330
901D
102
}
330
901D
100
AcDbProxyObject
 90
      499
 91
      513
 95
   983063
 70
     0
 93
      508
310
428CD108121A5919195B8010640502408333333333333E3BF0000000000000FB01079024090700405020000000000181990200405405064090740C02480A034E
 94
        0
1001
ACAD
1000
AcDbSavedByObjectVersion
1070
     0
1000
AcRTDxfName
1000
VISUALSTYLE
  0
ACAD_PROXY_OBJECT
  5
9024
102
{ACAD_XDICTIONARY
360
A010
102
}
102
{ACAD_REACTORS
330
901D
102
}
330
901D
100
AcDbProxyObject
 90
      499
 91
      513
 95
   983063
 70
     0
 93
      444
310
430CD915DA5C99599C985B59401059028333333333333E3BF0000000000000FB0107901411070040501600405405064090741402480A0340
 94
        0
1001
ACAD
1000
AcDbSavedByObjectVersion
1070
     0
1000
AcRTDxfName
1000
VISUALSTYLE
  0
ACAD_PROXY_OBJECT
  5
9022
102
{ACAD_XDICTIONARY
360
A00C
102
}
102
{ACAD_REACTORS
330
901D
102
}
330
901D
100
AcDbProxyObject
 90
      499
 91
      513
 95
   983063
 70
     0
 93
      396
310
4190985CDA58C0107406404333333333333E3BF0000000000000FB0107A41107004050150841D405064090741402480A0350
 94
        0
1001
ACAD
1000
AcDbSavedByObjectVersion
1070
     0
1000
AcRTDxfName
1000
VISUALSTYLE
  0
ACAD_PROXY_OBJECT
  5
9029
102
{ACAD_XDICTIONARY
360
A01A
102
}
102
{ACAD_REACTORS
330
901D
102
}
330
901D
100
AcDbProxyObject
 90
      499
 91
      513
 95
   983063
 70
     0
 93
      436
310
42509C9A59DA1D195B8010C409028333333333333E3BF0000000000000FB010790141107004050150841D405064090741402480A029956
 94
        0
1001
ACAD
1000
AcDbSavedByObjectVersion
1070
     0
1000
AcRTDxfName
1000
VISUALSTYLE
  0
ACAD_PROXY_OBJECT
  5
902D
102
{ACAD_XDICTIONARY
360
A022
102
}
102
{ACAD_REACTORS
330
901D
102
}
330
901D
100
AcDbProxyObject
 90
      499
 91
      513
 95
   983063
 70
     0
 93
      460
310
4310DBDB1BDC90DA185B99D9401104090240C333333333333E3BF0000000000000FB0108901411070040501508421405064090741402480A0354
 94
        0
1001
ACAD
1000
AcDbSavedByObjectVersion
1070
     0
1000
AcRTDxfName
1000
VISUALSTYLE
  0
ACAD_PROXY_OBJECT
  5
9026
102
{ACAD_XDICTIONARY
360
A014
102
}
102
{ACAD_REACTORS
330
901D
102
}
330
901D
100
AcDbProxyObject
 90
      499
 91
      513
 95
   983063
 70
     0
 93
      508
310
42D0DBDB98D95C1D1D585B0010940D028333333333333E3BF0000000000000FB0107902409070040501000000000018199010841D405064090740C02480A0340
 94
        0
1001
ACAD
1000
AcDbSavedByObjectVersion
1070
     0
1000
AcRTDxfName
1000
VISUALSTYLE
  0
ACAD_PROXY_OBJECT
  5
9028
102
{ACAD_XDICTIONARY
360
A018
102
}
102
{ACAD_REACTORS
330
901D
102
}
330
901D
100
AcDbProxyObject
 90
      499
 91
      513
 95
   983063
 70
     0
 93
      420
310
41111A5B4010B409028333333333333E3BF0000000000000FB010790141107004050150841D405064090741402480A02677FFFFFD4
 94
        0
1001
ACAD
1000
AcDbSavedByObjectVersion
1070
     0
1000
AcRTDxfName
1000
VISUALSTYLE
  0
ACAD_PROXY_OBJECT
  5
9030
102
{ACAD_XDICTIONARY
360
A028
102
}
102
{ACAD_REACTORS
330
901D
102
}
330
901D
100
AcDbProxyObject
 90
      499
 91
      513
 95
   983063
 70
     0
 93
      460
310
43515919D950DBDB1BDC93D99980116409028333333333333E3BF0000000000000FB010790141107004050150841D405064090741402480A0354
 94
        0
1001
ACAD
1000
AcDbSavedByObjectVersion
1070
     0
1000
AcRTDxfName
1000
VISUALSTYLE
  0
ACAD_PROXY_OBJECT
  5
902C
102
{ACAD_XDICTIONARY
360
A020
102
}
102
{ACAD_REACTORS
330
901D
102
}
330
901D
100
AcDbProxyObject
 90
      499
 91
      513
 95
   983063
 70
     0
 93
      452
310
43119858D95C185D1D195C9B8010F409028333333333333E3BF0000000000000FB010790141107004050150841D405064090741402480A0350
 94
        0
1001
ACAD
1000
AcDbSavedByObjectVersion
1070
     0
1000
AcRTDxfName
1000
VISUALSTYLE
  0
ACAD_PROXY_OBJECT
  5
901E
102
{ACAD_XDICTIONARY
360
A004
102
}
102
{ACAD_REACTORS
330
901D
102
}
330
901D
100
AcDbProxyObject
 90
      499
 91
      513
 95
   983063
 70
     0
 93
      396
310
41519B185D00240901404333333333333E3BF0000000000000F9010740A41107004050150841D405064090741402480A1B50
 94
        0
1001
ACAD
1000
AcDbSavedByObjectVersion
1070
     0
1000
AcRTDxfName
1000
VISUALSTYLE
  0
ACAD_PROXY_OBJECT
  5
901F
102
{ACAD_XDICTIONARY
360
A006
102
}
102
{ACAD_REACTORS
330
901D
102
}
330
901D
100
AcDbProxyObject
 90
      499
 91
      513
 95
   983063
 70
     0
 93
      484
310
43919B185D15DA5D1A115919D95CC010140901404333333333333E3BF0000000000000F9010740901411070040501600405405064090741402480A1B5C
 94
        0
1001
ACAD
1000
AcDbSavedByObjectVersion
1070
     0
1000
AcRTDxfName
1000
VISUALSTYLE
  0
ACAD_PROXY_OBJECT
  5
9020
102
{ACAD_XDICTIONARY
360
A008
102
}
102
{ACAD_REACTORS
330
901D
102
}
330
901D
100
AcDbProxyObject
 90
      499
 91
      513
 95
   983063
 70
     0
 93
      420
310
4211DBDD5C985D590010240902404333333333333E3BF0000000000000F9010740A411070040501641D405064090741402480A1B59
 94
        0
1001
ACAD
1000
AcDbSavedByObjectVersion
1070
     0
1000
AcRTDxfName
1000
VISUALSTYLE
  0
ACAD_PROXY_OBJECT
  5
9021
102
{ACAD_XDICTIONARY
360
A00A
102
}
102
{ACAD_REACTORS
330
901D
102
}
330
901D
100
AcDbProxyObject
 90
      499
 91
      513
 95
   983063
 70
     0
 93
      508
310
4451DBDD5C985D5915DA5D1A115919D95CC010340902404333333333333E3BF0000000000000F9010740901411070040501600405405064090741402480A1B5E
 94
        0
1001
ACAD
1000
AcDbSavedByObjectVersion
1070
     0
1000
AcRTDxfName
1000
VISUALSTYLE
  0
ACAD_PROXY_OBJECT
  5
928D
102
{ACAD_XDICTIONARY
360
A02C
102
}
102
{ACAD_REACTORS
330
901D
102
}
330
901D
100
AcDbProxyObject
 90
      499
 91
      513
 95
   983063
 70
     0
 93
      484
310
41D21A5919195B8010640502408333333333333E3BF0000000000000FB01079024090700405020000000000001110200405405064090740C02480A0341
 94
        0
1001
ACAD
1000
AcDbSavedByObjectVersion
1070
     0
1000
AcRTDxfName
1000
VISUALSTYLE
  0
ACAD_PROXY_OBJECT
  5
902E
102
{ACAD_XDICTIONARY
360
A024
102
}
102
{ACAD_REACTORS
330
901D
102
}
330
901D
100
AcDbProxyObject
 90
      499
 91
      513
 95
   983063
 70
     0
 93
      436
310
42929A5D1D195C93D99980114409028333333333333E3BF0000000000000FB010790141107004050150A41D405064090741402480A035A
 94
        0
1001
ACAD
1000
AcDbSavedByObjectVersion
1070
     0
1000
AcRTDxfName
1000
VISUALSTYLE
  0
ACAD_PROXY_OBJECT
  5
902B
102
{ACAD_XDICTIONARY
360
A01E
102
}
102
{ACAD_REACTORS
330
901D
102
}
330
901D
100
AcDbProxyObject
 90
      499
 91
      513
 95
   983063
 70
     0
 93
      452
310
43131A5B995C185D1D195C9B8010E409028333333333333E3BF0000000000000FB010790141107004050750841D405064090741402483A0350
 94
        0
1001
ACAD
1000
AcDbSavedByObjectVersion
1070
     0
1000
AcRTDxfName
1000
VISUALSTYLE
  0
ACAD_PROXY_OBJECT
  5
902F
102
{ACAD_XDICTIONARY
360
A026
102
}
102
{ACAD_REACTORS
330
901D
102
}
330
901D
100
AcDbProxyObject
 90
      499
 91
      513
 95
   983063
 70
     0
 93
      452
310
4313DD995C9A185B99D3D99980115409028333333333333E3BF0000000000000FB010790141107004050150941D405064090741402480A0353
 94
        0
1001
ACAD
1000
AcDbSavedByObjectVersion
1070
     0
1000
AcRTDxfName
1000
VISUALSTYLE
  0
ACAD_PROXY_OBJECT
  5
9027
102
{ACAD_XDICTIONARY
360
A016
102
}
102
{ACAD_REACTORS
330
901D
102
}
330
901D
100
AcDbProxyObject
 90
      499
 91
      513
 95
   983063
 70
     0
 93
      428
310
429499585B1A5CDD1A58C0108409028333333333333E3BF0000000000000FB01079019070040501508421405064090741402480A1B45
 94
        0
1001
ACAD
1000
AcDbSavedByObjectVersion
1070
     0
1000
AcRTDxfName
1000
VISUALSTYLE
  0
ACAD_PROXY_OBJECT
  5
9292
102
{ACAD_XDICTIONARY
360
A036
102
}
102
{ACAD_REACTORS
330
901D
102
}
330
901D
100
AcDbProxyObject
 90
      499
 91
      513
 95
   983063
 70
     0
 93
      428
310
41D4DA185919590011B40902404333333333333E3BF0000000000000F9010740A41107004050150800405405064090840C02480A0B41
 94
        0
1001
ACAD
1000
AcDbSavedByObjectVersion
1070
     0
1000
AcRTDxfName
1000
VISUALSTYLE
  0
ACAD_PROXY_OBJECT
  5
9291
102
{ACAD_XDICTIONARY
360
A034
102
}
102
{ACAD_REACTORS
330
901D
102
}
330
901D
100
AcDbProxyObject
 90
      499
 91
      513
 95
   983063
 70
     0
 93
      524
310
4494DA18591959081DDA5D1A08195919D95CC011A40902404333333333333E3BF0000000000000F901074090142907004050250800405405064090740C02480A0B4A
 94
        0
1001
ACAD
1000
AcDbSavedByObjectVersion
1070
     0
1000
AcRTDxfName
1000
VISUALSTYLE
  0
ACAD_PROXY_OBJECT
  5
928E
102
{ACAD_XDICTIONARY
360
A02E
102
}
102
{ACAD_REACTORS
330
901D
102
}
330
901D
100
AcDbProxyObject
 90
      499
 91
      513
 95
   983063
 70
     0
 93
      540
310
43D4DA1859195CC81BD98811DC985E401174090240C333333333333E3BF0000000000000FB01079024090741D01000000000000111010841D405064090740C02480A0340
 94
        0
1001
ACAD
1000
AcDbSavedByObjectVersion
1070
     0
1000
AcRTDxfName
1000
VISUALSTYLE
  0
ACAD_PROXY_OBJECT
  5
928F
102
{ACAD_XDICTIONARY
360
A030
102
}
102
{ACAD_REACTORS
330
901D
102
}
330
901D
100
AcDbProxyObject
 90
      499
 91
      513
 95
   983063
 70
     0
 93
      484
310
4214DAD95D18DA1E4011840502408333333333333E3BF0000000000000FB01079024090741D01000000000000111010B41D405064090741802480A0340
 94
        0
1001
ACAD
1000
AcDbSavedByObjectVersion
1070
     0
1000
AcRTDxfName
1000
VISUALSTYLE
  0
ACAD_PROXY_OBJECT
  5
902A
102
{ACAD_XDICTIONARY
360
A01C
102
}
102
{ACAD_REACTORS
330
901D
102
}
330
901D
100
AcDbProxyObject
 90
      499
 91
      513
 95
   983063
 70
     0
 93
      420
310
42151A1A58DAD95B8010D409028333333333333E3BF0000000000000FB010790141107004050150C41D405064090741402480A0354
 94
        0
1001
ACAD
1000
AcDbSavedByObjectVersion
1070
     0
1000
AcRTDxfName
1000
VISUALSTYLE
  0
ACAD_PROXY_OBJECT
  5
928C
102
{ACAD_XDICTIONARY
360
A02A
102
}
102
{ACAD_REACTORS
330
901D
102
}
330
901D
100
AcDbProxyObject
 90
      499
 91
      513
 95
   983063
 70
     0
 93
      428
310
4295DA5C99599C985B59401059028333333333333E3BF0000000000000FB0107901411070040501600405405064090740C02480A0341
 94
        0
1001
ACAD
1000
AcDbSavedByObjectVersion
1070
     0
1000
AcRTDxfName
1000
VISUALSTYLE
  0
ACAD_PROXY_OBJECT
  5
9290
102
{ACAD_XDICTIONARY
360
A032
102
}
102
{ACAD_REACTORS
330
901D
102
}
330
901D
100
AcDbProxyObject
 90
      499
 91
      513
 95
   983063
 70
     0
 93
      412
310
41960B54985E4011940902404000000000000E03F0000000000000FB010740501907004050150841D405064090740C02480A1B41
 94
        0
1001
ACAD
1000
AcDbSavedByObjectVersion
1070
     0
1000
AcRTDxfName
1000
VISUALSTYLE
  0
DICTIONARYVAR
  5
9287
102
{ACAD_REACTORS
330
45D
102
}
330
45D
100
DictionaryVariables
280
     0
  1
1:1
  0
DICTIONARYVAR
  5
9285
102
{ACAD_REACTORS
330
45D
102
}
330
45D
100
DictionaryVariables
280
     0
  1
STANDARD
  0
DICTIONARYVAR
  5
8013
102
{ACAD_REACTORS
330
45D
102
}
330
45D
100
DictionaryVariables
280
     0
  1
STANDARD
  0
DICTIONARYVAR
  5
9D67
102
{ACAD_REACTORS
330
45D
102
}
330
45D
100
DictionaryVariables
280
     0
  1
1
  0
DICTIONARYVAR
  5
9D65
102
{ACAD_REACTORS
330
45D
102
}
330
45D
100
DictionaryVariables
280
     0
  1
0
  0
DICTIONARYVAR
  5
9289
102
{ACAD_REACTORS
330
45D
102
}
330
45D
100
DictionaryVariables
280
     0
  1
1
  0
DICTIONARYVAR
  5
928A
102
{ACAD_REACTORS
330
45D
102
}
330
45D
100
DictionaryVariables
280
     0
  1
15
  0
DICTIONARYVAR
  5
9288
102
{ACAD_REACTORS
330
45D
102
}
330
45D
100
DictionaryVariables
280
     0
  1
0
  0
DICTIONARYVAR
  5
9286
102
{ACAD_REACTORS
330
45D
102
}
330
45D
100
DictionaryVariables
280
     0
  1
0
  0
DICTIONARYVAR
  5
A09B
102
{ACAD_REACTORS
330
45D
102
}
330
45D
100
DictionaryVariables
280
     0
  1

  0
DICTIONARYVAR
  5
45E
102
{ACAD_REACTORS
330
45D
102
}
330
45D
100
DictionaryVariables
280
     0
  1
127
  0
DICTIONARYVAR
  5
A074
102
{ACAD_REACTORS
330
45D
102
}
330
45D
100
DictionaryVariables
280
     0
  1
0
  0
DICTIONARY
  5
92F3
102
{ACAD_REACTORS
330
92EA
102
}
330
92EA
100
AcDbDictionary
281
     1
  0
XRECORD
  5
9FF2
102
{ACAD_REACTORS
330
9FF1
102
}
330
9FF1
100
AcDbXrecord
280
     1
1070
     0
1070
     1
1070
     1
  0
DICTIONARY
  5
922B
330
5CF5
100
AcDbDictionary
280
     1
281
     1
  3
ACAD_XREC_ROUNDTRIP
360
A09F
  3
ADSK_XREC_LAYOUTTHUMBNAIL
360
922C
  0
DICTIONARY
  5
A0A0
330
5CF6
100
AcDbDictionary
280
     1
281
     1
  3
ACAD_XREC_ROUNDTRIP
360
A0A1
  0
DICTIONARY
  5
900E
330
900D
100
AcDbDictionary
280
     1
281
     1
  3
ACAD_XREC_ROUNDTRIP
360
A002
  3
BUMPTILE
360
9010
  3
DIFFUSETILE
360
900F
  3
OPACITYTILE
360
9013
  3
REFLECTIONTILE
360
9012
  3
REFRACTIONTILE
360
9014
  3
SPECULARTILE
360
9011
  0
DICTIONARY
  5
9006
330
9005
100
AcDbDictionary
280
     1
281
     1
  3
ACAD_XREC_ROUNDTRIP
360
A001
  3
BUMPTILE
360
9008
  3
DIFFUSETILE
360
9007
  3
OPACITYTILE
360
900B
  3
REFLECTIONTILE
360
900A
  3
REFRACTIONTILE
360
900C
  3
SPECULARTILE
360
9009
  0
DICTIONARY
  5
9016
330
9015
100
AcDbDictionary
280
     1
281
     1
  3
ACAD_XREC_ROUNDTRIP
360
A003
  3
BUMPTILE
360
9018
  3
DIFFUSETILE
360
9017
  3
OPACITYTILE
360
901B
  3
REFLECTIONTILE
360
901A
  3
REFRACTIONTILE
360
901C
  3
SPECULARTILE
360
9019
  0
DICTIONARY
  5
9C58
330
7FEF
100
AcDbDictionary
280
     1
281
     1
  3
ACAD_ROUNDTRIP_2008_TABLESTYLE_CELLSTYLEMAP
360
9FE2
  3
ACAD_XREC_ROUNDTRIP
360
9FF0
  0
DICTIONARY
  5
A00E
330
9023
100
AcDbDictionary
280
     1
281
     1
  3
ACAD_XREC_ROUNDTRIP
360
A00F
  0
DICTIONARY
  5
A012
330
9025
100
AcDbDictionary
280
     1
281
     1
  3
ACAD_XREC_ROUNDTRIP
360
A013
  0
DICTIONARY
  5
A010
330
9024
100
AcDbDictionary
280
     1
281
     1
  3
ACAD_XREC_ROUNDTRIP
360
A011
  0
DICTIONARY
  5
A00C
330
9022
100
AcDbDictionary
280
     1
281
     1
  3
ACAD_XREC_ROUNDTRIP
360
A00D
  0
DICTIONARY
  5
A01A
330
9029
100
AcDbDictionary
280
     1
281
     1
  3
ACAD_XREC_ROUNDTRIP
360
A01B
  0
DICTIONARY
  5
A022
330
902D
100
AcDbDictionary
280
     1
281
     1
  3
ACAD_XREC_ROUNDTRIP
360
A023
  0
DICTIONARY
  5
A014
330
9026
100
AcDbDictionary
280
     1
281
     1
  3
ACAD_XREC_ROUNDTRIP
360
A015
  0
DICTIONARY
  5
A018
330
9028
100
AcDbDictionary
280
     1
281
     1
  3
ACAD_XREC_ROUNDTRIP
360
A019
  0
DICTIONARY
  5
A028
330
9030
100
AcDbDictionary
280
     1
281
     1
  3
ACAD_XREC_ROUNDTRIP
360
A029
  0
DICTIONARY
  5
A020
330
902C
100
AcDbDictionary
280
     1
281
     1
  3
ACAD_XREC_ROUNDTRIP
360
A021
  0
DICTIONARY
  5
A004
330
901E
100
AcDbDictionary
280
     1
281
     1
  3
ACAD_XREC_ROUNDTRIP
360
A005
  0
DICTIONARY
  5
A006
330
901F
100
AcDbDictionary
280
     1
281
     1
  3
ACAD_XREC_ROUNDTRIP
360
A007
  0
DICTIONARY
  5
A008
330
9020
100
AcDbDictionary
280
     1
281
     1
  3
ACAD_XREC_ROUNDTRIP
360
A009
  0
DICTIONARY
  5
A00A
330
9021
100
AcDbDictionary
280
     1
281
     1
  3
ACAD_XREC_ROUNDTRIP
360
A00B
  0
DICTIONARY
  5
A02C
330
928D
100
AcDbDictionary
280
     1
281
     1
  3
ACAD_XREC_ROUNDTRIP
360
A02D
  0
DICTIONARY
  5
A024
330
902E
100
AcDbDictionary
280
     1
281
     1
  3
ACAD_XREC_ROUNDTRIP
360
A025
  0
DICTIONARY
  5
A01E
330
902B
100
AcDbDictionary
280
     1
281
     1
  3
ACAD_XREC_ROUNDTRIP
360
A01F
  0
DICTIONARY
  5
A026
330
902F
100
AcDbDictionary
280
     1
281
     1
  3
ACAD_XREC_ROUNDTRIP
360
A027
  0
DICTIONARY
  5
A016
330
9027
100
AcDbDictionary
280
     1
281
     1
  3
ACAD_XREC_ROUNDTRIP
360
A017
  0
DICTIONARY
  5
A036
330
9292
100
AcDbDictionary
280
     1
281
     1
  3
ACAD_XREC_ROUNDTRIP
360
A037
  0
DICTIONARY
  5
A034
330
9291
100
AcDbDictionary
280
     1
281
     1
  3
ACAD_XREC_ROUNDTRIP
360
A035
  0
DICTIONARY
  5
A02E
330
928E
100
AcDbDictionary
280
     1
281
     1
  3
ACAD_XREC_ROUNDTRIP
360
A02F
  0
DICTIONARY
  5
A030
330
928F
100
AcDbDictionary
280
     1
281
     1
  3
ACAD_XREC_ROUNDTRIP
360
A031
  0
DICTIONARY
  5
A01C
330
902A
100
AcDbDictionary
280
     1
281
     1
  3
ACAD_XREC_ROUNDTRIP
360
A01D
  0
DICTIONARY
  5
A02A
330
928C
100
AcDbDictionary
280
     1
281
     1
  3
ACAD_XREC_ROUNDTRIP
360
A02B
  0
DICTIONARY
  5
A032
330
9290
100
AcDbDictionary
280
     1
281
     1
  3
ACAD_XREC_ROUNDTRIP
360
A033
  0
XRECORD
  5
A09F
102
{ACAD_REACTORS
330
922B
102
}
330
922B
100
AcDbXrecord
280
     1
102
SHADEPLOT
 70
     0
102
SHADEPLOTRESLEVEL
 70
     2
102
SHADEPLOTCUSTOMDPI
 70
   300
  0
XRECORD
  5
922C
102
{ACAD_REACTORS
330
922B
102
}
330
922B
100
AcDbXrecord
280
     1
310
280000000001000079000000010008000000000000790000000000000000000000010000000000000000000000000000FFFFFF000000000000000000000000000000000000000000000000000000000000000000330000006600000099000000CC000000FF00000000330000333300006633000099330000CC330000FF3300
310
0000660000336600006666000099660000CC660000FF66000000990000339900006699000099990000CC990000FF99000000CC000033CC000066CC000099CC0000CCCC0000FFCC000000FF000033FF000066FF000099FF0000CCFF0000FFFF000000003300330033006600330099003300CC003300FF003300003333003333
310
33006633330099333300CC333300FF33330000663300336633006666330099663300CC663300FF66330000993300339933006699330099993300CC993300FF99330000CC330033CC330066CC330099CC3300CCCC3300FFCC330000FF330033FF330066FF330099FF3300CCFF3300FFFF330000006600330066006600660099
310
006600CC006600FF00660000336600333366006633660099336600CC336600FF33660000666600336666006666660099666600CC666600FF66660000996600339966006699660099996600CC996600FF99660000CC660033CC660066CC660099CC6600CCCC6600FFCC660000FF660033FF660066FF660099FF6600CCFF6600
310
FFFF660000009900330099006600990099009900CC009900FF00990000339900333399006633990099339900CC339900FF33990000669900336699006666990099669900CC669900FF66990000999900339999006699990099999900CC999900FF99990000CC990033CC990066CC990099CC9900CCCC9900FFCC990000FF99
310
0033FF990066FF990099FF9900CCFF9900FFFF99000000CC003300CC006600CC009900CC00CC00CC00FF00CC000033CC003333CC006633CC009933CC00CC33CC00FF33CC000066CC003366CC006666CC009966CC00CC66CC00FF66CC000099CC003399CC006699CC009999CC00CC99CC00FF99CC0000CCCC0033CCCC0066CC
310
CC0099CCCC00CCCCCC00FFCCCC0000FFCC0033FFCC0066FFCC0099FFCC00CCFFCC00FFFFCC000000FF003300FF006600FF009900FF00CC00FF00FF00FF000033FF003333FF006633FF009933FF00CC33FF00FF33FF000066FF003366FF006666FF009966FF00CC66FF00FF66FF000099FF003399FF006699FF009999FF00CC
310
99FF00FF99FF0000CCFF0033CCFF0066CCFF0099CCFF00CCCCFF00FFCCFF0000FFFF0033FFFF0066FFFF0099FFFF00CCFFFF00FFFFFF00000000000D0D0D001A1A1A00282828003535350043434300505050005D5D5D006B6B6B00787878008686860093939300A1A1A100AEAEAE00BBBBBB00C9C9C900D6D6D600E4E4E400
310
F1F1F100FFFFFF0000000000000000000000000000000000000000000000000000000000000000000000000000000000E2E2E2E2E2E2E2E2E2E2E2E2E2E2E2E2E2E2E2E2E2E2E2E2E2E2E2E2E2E2E2E2E2E2E2E2E2E2E2E2E2E2E2E2E2E2E2E2E2E2E2E2E2E2E2E2E2E2E2E2E2E2E2E2E2E2E2E2E2E2E2E2E2E2E2E2E2E2E2
310
E2E2E2E2E2E2E2E2E2E2E2E2E2E2E2E2E2E2E2E2E2E2E2E2E2E2E2E2E2E2E2E2E2E2E2E2E2E2E2E2E2E2E2E2E2E2E2E2E2E2E2E2E2E2E2E2E2E2E2E2E2E2E2E2E2E2E2E2E2E2E2E2E2E2E2E2E2E2E2E2E2E2E2E2E2E2E2E2E2E2E2E2E2E2E2E2E2E2E2E2E2E2E2E2E2E2E2E2E2E2E2E2E2E2E2E2E2E2E2E2E2E2E2E2E2E2E2
310
E2E2E2E2E2E2E2E2E2E2E2E2E2E2E2E2E2E2E2E2E2E2E2E2E2E2E2E2E2E2E2E2E2E2E2E2E2E2E2E2E2E2E2E2E2E2E2E2E2E2E2E2E2E2E2E2E2E2E2E2E2E2E2E2E2E2E2E2E2E2E2E2E2E2E2E2E2E2E2E2E2E2E2E2E2E2E2E2E2E2E2E2E2E2E2E2E2E2E2E2E2E2E2E2E2E2E2E2E2E2E2E2E2E2E2E2E2E2E2E2E2E2E2E2E2E2E2
310
E2E2E2E2E2E2E2E2E2E2E2E2E2E2E2E2E2E2E2E2E2E2E2E2E2E2E2E2E2E2E2E2E2E2E2E2E2E2E2E2E2E2E2E2E2E2E2E2E2E2E2E2E2E2E2E2E2E2E2E2E2E2E2E2E2E2E2E2E2E2E2E2E2E2E2E2E2E2E2E2E2E2E2E2E2E2E2E2E2E2E2E2E2E2E2E2E2E2E2E2E2E2E2E2E2E2E2E2E2E2E2E2E2E2E2E2E2E2E2E2E2E2E2E2E2E2E2
310
E2E2E2E2E2E2E2E2E2E2E2E2E2E2E2E2E2E2E2E2E2E2E2E2E2E2E2E2E2E2E2E2E2E2E2E2E2E2E2E2E2E2E2E2E2E2E2E2E2E2E2E2E2E2E2E2E2E2E2E2E2E2E2E2E2E2E2E2E2E2E2E2E2E2E2E2E2E2E2E2E2E2E2E2E2E2E2E2E2E2E2E2E2E2E2E2E2E2E2E2E2E2E2E2E2E2E2E2E2E2E2E2E2E2E2E2E2E2E2E2E2E2E2E2E2E2E2
310
E2E2E2E2E2E2E2E2E2E2E2E2E2E2E2E2E2E2E2E2E2E2E2E2E2E2E2E2E2E2E2E2E2E2E2E2E2E2E2E2E2E2E2E2E2E2E2E2E2E2E2E2E2E2E2E2E2E2E2E2E2E2E2E2E2E2E2E2E2E2E2E2E2E2E2E2E2E2E2E2E2E2E2E2E2E2E2E2E2E2E2E2E2E2E2E2E2E2E2E2E2E2E2E2E2E2E2E2E2E2E2E2E2E2E2E2E2E2E2E2E2E2E2E2E2E2E2
310
E2E2E2E2E2E2E2E2E2E2E2E2E2E2E2E2E2E2E2E2E2E2E2E2E2E2E2E2E2E2E2E2E2E2E2E2E2E2E2E2E2E2E2E2E2E2E2E2E2E2E2E2E2E2E2E2E2E2E2E2E2E2E2E2E2E2E2E2E2E2E2E2E2E2E2E2E2E2E2E2E2E2E2E2E2E2E2E2E2E2E2E2E2E2E2E2E2E2E2E2E2E2E2E2E2E2E2E2E2E2E2E2E2E2E2E2E2E2E2E2E2E2E2E2E2E2E2
310
E2E2E2E2E2E2E2E2E2E2E2E2E2E2E2E2E2E2E2E2E2E2E2E2E2E2E2E2E2E2E2E2E2E2E2E2E2E2E2E2E2E2E2E2E2E2E2E2E2E2E2E2E2E2E2E2E2E2E2E2E2E2E2E2E2E2E2E2E2E2E2E2E2E2E2E2E2E2E2E2E2E2E2E2E2E2E2E2E2E2E2E2E2E2E2E2E2E2E2E2E2E2E2E2E2E2E2E2E2E2E2E2E2E2E2E2E2E2E2E2E2E2E2E2E2E2E2
310
E2E2E2E2E2E2E2E2E2E2E2E2E2E2E2E2E2E2E2E2E2E2E2E2E2E2E2E2E2E2E2E2E2E2E2E2E2E2E2E2E2E2E2E2E2E2E2E2E2E2E2E2E2E2E2E2E2E2E2E2E2E2E2E2E2E2E2E2E2E2E2E2E2E2E2E2E2E2E2E2E2E2E2E2E2E2E2E2E2E2E2E2E2E2E2E2E2E2E2E2E2E2E2E2E2E2E2E2E2E2E2E2E2E2E2E2E2E2E2E2E2E2E2E2E2E2E2
310
E2E2E2E2E2E2E2E2E2E2E2E2E2E2E2E2E2E2E2E2E2E2E2E2E2E2E2E2E2E2E2E2E2E2E2E2E2E2E2E2E2E2E2E2E2E2E2E2E2E2E2E2E2E2E2E2E2E2E2E2E2E2E2E2E2E2E2E2E2E2E2E2E2E2E2E2E2E2E2E2E2E2E2E2E2E2E2E2E2E2E2E2E2E2E2E2E2E2E2E2E2E2E2E2E2E2E2E2E2E2E2E2E2E2E2E2E2E2E2E2E2E2E2E2E2E2E2
310
E2E2E2E2E2E2E2E2E2E2E2E2E2E2E2E2E2E2E2E2E2E2E2E2E2E2E2E2E2E2E2E2E2E2E2E2E2E2E2E2E2E2E2E2E2E2E2E2E2E2E2E2E2E2E2E2E2E2E2E2E2E2E2E2E2E2E2E2E2E2E2E2E2E2E2E2E2E2E2E2E2E2E2E2E2E2E2E2E2E2E2E2E2E2E2E2E2E2E2E2E2E2E2E2E2E2E2E2E2E2E2E2E2E2E2E2E2E2E2E2E2E2E2E2E2E2E2
310
E2E2E2E2E2E2E2E2E2E2E2E2E2E2E2E2E2E2E2E2E2E2E2E2E2E2E2E2E2E2E2E2E2E2E2E2E2E2E2E2E2E2E2E2E2E2E2E2E2E2E2E2E2E2E2E2E2E2E2E2E2E2E2E2E2E2E2E2E2E2E2E2E2E2E2E2E2E2E2E2E2E2E2E2E2E2E2E2E2E2E2E2E2E2E2E2E2E2E2E2E2E2E2E2E2E2E2E2E2E2E2E2E2E2E2E2E2E2E2E2E2E2E2E2E2E2E2
310
E2E2E2E2E2E2E2E2E2E2E2E2E2E2E2E2E2E2E2E2E2E2E2E2E2E2E2E2E2E2E2E2E2E2E2E2E2E2E2E2E2E2E2E2E2E2E2E2E2E2E2E2E2E2E2E2E2E2E2E2E2E2E2E2E2E2E2E2E2E2E2E2E2E2E2E2E2E2E2E2E2E2E2E2E2E2E2E2E2E2E2E2E2E2E2E2E2E2E2E2E2E2E2E2E2E2E2E2E2E2E2E2E2E2E2E2E2E2E2E2E2E2E2E2E2E2E2
310
E2E2E2E2E2E2E2E2E2E2E2E2E2E2E2E2E2E2E2E2E2E2E2E2E2E2E2E2E2E2E2E2E2E2E2E2E2E2E2E2E2E2E2E2E2E2E2E2E2E2E2E2E2E2E2E2E2E2E2E2E2E2E2E2E2E2E2E2E2E2E2E2E2E2E2E2E2E2E2E2E2E2E2E2E2E2E2E2E2E2E2E2E2E2E2E2E2E2E2E2E2E2E2E2E2E2E2E2E2E2E2E2E2E2E2E2E2E2E2E2E2E2E2E2E2E2E2
310
E2E2E2E2E2E2E2E2E2E2E2E2E2E2E2E2E2E2E2E2E2E2E2E2E2E2E2E2E2E2E2E2E2E2E2E2E2E2E2E2E2E2E2E2E2E2E2E2E2E2E2E2E2E2E2E2E2E2E2E2E2E2E2E2E2E2E2E2E2E2E2E2E2E2E2E2E2E2E2E2E2E2E2E2E2E2E2E2E2E2E2E2E2E2E2E2E2E2E2E2E2E2E2E2E2E2E2E2E2E2E2E2E2E2E2E2E2E2E2E2E2E2E2E2E2E2E2
310
E2E2E2E2E2E2E2E2E2E2E2E2E2E2E2E2E2E2E2E2E2E2E2E2E2E2E2E2E2E2E2E2E2E2E2E2E2E2E2E2E2E2E2E2E2E2E2E2E2E2E2E2E2E2E2E2E2E2E2E2E2E2E2E2E2E2E2E2E2E2E2E2E2E2E2E2E2E2E2E2E2E2E2E2E2E2E2E2E2E2E2E2E2E2E2E2E2E2E2E2E2E2E2E2E2E2E2E2E2E2E2E2E2E2E2E2E2E2E2E2E2E2E2E2E2E2E2
310
E2E2E2E2E2E2E2E2E2E2E2E2E2E2E2E2E2E2E2E2E2E2E2E2E2E2E2E2E2E2E2E2E2E2E2E2E2E2E2E2E2E2E2E2E2E2E2E2E2E2E2E2E2E2E2E2E2E2E2E2E2E2E2E2E2E2E2E2E2E2E2E2E2E2E2E2E2E2E2E2E2E2E2E2E2E2E2E2E2E2E2E2E2E2E2E2E2E2E2E2E2E2E2E2E2E2E2E2E2E2E2E2E2E2E2E2E2E2E2E2E2E2E2E2E2E2E2
310
E2E2E2E2E2E2E2E2E2E2E2E2E2E2E2E2E2E2E2E2E2E2E2E2E2E2E2E2E2E2E2E2E2E2E2E2E2E2E2E2E2E2E2E2E2E2E2E2E2E2E2E2E2E2E2E2E2E2E2E2E2E2E2E2E2E2E2E2E2E2E2E2E2E2E2E2E2E2E2E2E2E2E2E2E2E2E2E2E2E2E2E2E2E2E2E2E2E2E2E2E2E2E2E2E2E2E2E2E2E2E2E2E2E2E2E2E2E2E2E2E2E2E2E2E2E2E2
310
E2E2E2E2E2E2E2E2E2E2E2E2E2E2E2E2E2E2E2E2E2E2E2E2E2E2E2E2E2E2E2E2E2E2E2E2E2E2E2E2E2E2E2E2E2E2E2E2E2E2E2E2E2E2E2E2E2E2E2E2E2E2E2E2E2E2E2E2E2E2E2E2E2E2E2E2E2E2E2E2E2E2E2E2E2E2E2E2E2E2E2E2E2E2E2E2E2E2E2E2E2E2E2E2E2E2E2E2E2E2E2E2E2E2E2E2E2E2E2E2E2E2E2E2E2E2E2
310
E2E2E2E2E2E2E2E2E2E2E2E2E2E2E2E2E2E2E2E2E2E2E2E2E2E2E2E2E2E2E2E2E2E2E2E2E2E2E2E2E2E2E2E2E2E2E2E2E2E2E2E2E2E2E2E2E2E2E2E2E2E2E2E2E2E2E2E2E2E2E2E2E2E2E2E2E2E2E2E2E2E2E2E2E2E2E2E2E2E2E2E2E2E2E2E2E2E2E2E2E2E2E2E2E2E2E2E2E2E2E2E2E2E2E2E2E2E2E2E2E2E2E2E2E2E2E2
310
E2E2E2E2E2E2E2E2E2E2E2E2E2E2E2E2E2E2E2E2E2E2E2E2E2E2E2E2E2E2E2E2E2E2E2E2E2E2E2E2E2E2E2E2E2E2E2E2E2E2E2E2E2E2E2E2E2E2E2E2E2E2E2E2E2E2E2E2E2E2E2E2E2BEF0F0F0F0F0F0F0F0F0F0F0F0F0F0F0F0F0F0F0F0F0F0F0F0F0F0F0F0F0F0F0F0F0F0F0F0F0F0F0F0F0F0F0F5F5F0F5F5F0F5F0F5F5
310
F0F5F5F5F5F5F5F0F0F0F0F0F0F0F0F0F0BEF0F0F0F0F0F0F0F0F0F0F0F0F0F0F0F0F0F0F0F0F0F0F0F0F0F0F0F0F0F0F0F0F0F0F0F0F0F0F0F0F0F0F0F5F0F5F5F5F0F0F5F0F5F0F5F5F0F5F5F5F5F0F0F0F0F0F0F0F0F0F0E2E2E2E2E2E2E2E2E2E2E2E2E2E2E2E2E2E2E2E2E2E2E2E2E2E2E2E2E2E2E2E2E2E2E2E2E2E2
310
E2E2E2E2E2E2E2E2E2E2E2E2E2E2E2E2E2E2E2E2E2E2E2E2E2E2E2E2E2E2E2E2E2E2E2E2E2E2E2E2E2E2E2E2E2E2E2E2E2E2E2E2E2E2E2E2E2E2E2E2E2E2E2E2E2E2E2E2E2E2E2E2E2E2E2F0BEE2E2E2E2F5F5F5F5F5F5F5F5F5F5F5F5F5F5F5F5F5F5F5F5F5F5F5E2E2E2E2E2F0E2E2E2E2E2E2E2E2E2F5F5E2F5E2E2F5F5
310
F5F5E2F5F5F5F5F5F5F0E2E2E2E2C328C3E2BEF0E2E2E2E2E2F5F5F5F5F5F5F5F5F5F5F5F5F5F5F5F5F5F5F5F5F5F5F5F5E2E2E2E2E2F0E2E2E2E2E2E2E2E2F5F5F5F5E2E2F5F5E2F5E2F5F5E2F5F5F5F5F0E2E2E2C328C3E2E2F0E2E2E2E2E2E2E2E2E2E2E2E2E2E2E2E2E2E2E2E2E2E2E2E2E2E2E2E2E2E2E2E2E2E2E2E2
310
E2E2E2E2E2E2E2E2E2E2E2E2E2E2E2E2E2E2E2E2E2E2E2E2E2E2E2E2E2E2E2E2E2E2E2E2E2E2E2E2E2E2E2E2E2E2E2E2E2E2E2E2E2E2E2E2E2E2E2E2E2E2E2E2E2E2E2E2E2E2E2E2E2E2E2E2E2F0BEE2E2E2E2F5F5F5E2F5F5F5E2F5F5F5F5F5F5E2F5F5F5F5E2F5F5F5E2E2E2E2E2F0F5F5F5F5F5F5F5F5E2F5F5E2F5E2E2
310
F5E2E2F5E2F5F5E2F5E2F5F0F5F5F5E2E228E2E2BEF0E2E2E2E2E2F5F5F5E2F5F5F5E2F5F5F5E2F5F5E2F5F5F5F5F5F5F5F5E2E2E2E2E2E2F0F5F5F5F5F5F5F5E2F5E2F5F5E2E2E2F5E2F5E2F5F5E2F5E2E2F5F0F5F5E2E228E2E2E2F0E2E2E2E2E2E2E2E2E2E2E2E2E2E2E2E2E2E2E2E2E2E2E2E2E2E2E2E2E2E2E2E2E2E2
310
E2E2E2E2E2E2E2E2E2E2E2E2E2E2E2E2E2E2E2E2E2E2E2E2E2E2E2E2E2E2E2E2E2E2E2E2E2E2E2E2E2E2E2E2E2E2E2E2E2E2E2E2E2E2E2E2E2E2E2E2E2E2E2E2E2E2E2E2E2E2E2E2E2E2E2E2E2E2E2F0E2BEE2E2E2F5F5F5F5F5F5F5F5F5F5F5F5F5F5F5E2F5F5E2F5F5E2F5E2E2E2E2E2F0F5F5F5F5F5F5F5F5E2E2E2E2E2
310
E2E2E2E2E2E2E2E2E2E2E2E2E2F0F5F5F5E2E2E2E2BEE2F0E2E2E2E2E2F5F5F5F5F5F5F5F5F5F5F5F5F5F5F5F5F5F5F5F5F5F5F5E2E2E2E2E2E2F0F5F5F5F5F5F5F5E2E2E2E2E2E2E2E2E2E2E2E2E2E2E2E2E2E2E2F0F5F5E2E2E2E2E2E2F0E2E2E2E2E2E2E2E2E2E2E2E2E2E2E2E2E2E2E2E2E2E2E2E2E2E2E2E2E2E2E2E2
310
E2E2E2E2E2E2E2E2E2E2E2E2E2E2E2E2E2E2E2E2E2E2E2E2E2E2E2E2E2E2E2E2E2E2E2E2E2E2E2E2E2E2E2E2E2E2E2E2E2E2E2E2E2E2E2E2E2E2E2E2E2E2E2E2E2E2E2E2E2E2E2E2E2E2E2E2E2E2E2E2E2F0F0F0BEF0F0F0F0F0F0F0F0F0F0F0F0F0F0F0F0F0F0F0F0F0F0F0F0F0F0F0F0F0F0F0F5F5F5F5F5F5F5F5F0F0F0
310
F0F0F0F0F0F0F0F0F0F0F0F0F0F0F0F0F5F5F5F0F0F0BEF0F0F0F0F0F0F0F0F0F0F0F0F0F0F0F0F0F0F0F0F0F0F0F0F0F0F0F0F0F0F0F0F0F0F0F0F0F0F5F5F5F5F5F5F5F0F0F0F0F0F0F0F0F0F0F0F0F0F0F0F0F0F0F0F0F5F5F0F0F0F0F0F0F0E2E2E2E2E2E2E2E2E2E2E2E2E2E2E2E2E2E2E2E2E2E2E2E2E2E2E2E2E2E2
310
E2E2E2E2E2E2E2E2E2E2E2E2E2E2E2E2E2E2E2E2E2E2E2E2E2E2E2E2E2E2E2E2E2E2E2E2E2E2E2E2E2E2E2E2E2E2E2E2E2E2E2E2E2E2E2E2E2E2E2E2E2E2E2E2E2E2E2E2E2E2E2E2E2E2E2E2E2E2E2E2E2E2E2F0F5F5BEF0E2F5F5F5F5E2F0E2F5F5F5F0E2F5E2F5E2E2F0F5F5F5F0E2E2E2E2E2E2F0E2E2E2E2E2E2E2E2E2
310
E2E2E2E2E2E2E2E2E2E2E2F0E2E2E2E2E2E2E2E2E2E2E2E2BEE2E2F0F5F5F5E2F0E2F5F5F5E2E2F0F5F5F5F0E2F5E2F5F5E2F0F5F5F5E2F0E2E2E2E2E2E2F0E2E2E2E2E2E2E2E2E2E2E2E2E2E2E2E2E2E2E2F0E2E2E2E2E2E2E2E2E2E2E2E2E2E2E2F0E2E2E2E2E2E2E2E2E2E2E2E2E2E2E2E2E2E2E2E2E2E2E2E2E2E2E2E2
310
E2E2E2E2E2E2E2E2E2E2E2E2E2E2E2E2E2E2E2E2E2E2E2E2E2E2E2E2E2E2E2E2E2E2E2E2E2E2E2E2E2E2E2E2E2E2E2E2E2E2E2E2E2E2E2E2E2E2E2E2E2E2E2E2E2E2E2E2E2E2E2E2E2E2E2E2E2E2E2E2E2E2E2E2E2F0F5F5F5BEE2F5F5F5F5E2F0E2F5F5F5F0E2F5F5F5E2E2F0F5F5F5F0E2E2E2E2E2E2F0E2E2E2F5F5F5F5
310
F5F5F5F5F5F5F5F5F5F5E2F5E2F0F5F5F5F5F5F5F5F5F5F5F5BEF5F5F5F0F5F5F5E2F0E2F5F5F5E2E2F0F5F5F5F0E2F5F5F5F5E2F0F5F5F5E2F0E2E2E2E2E2E2F0E2E2F5F5F5F5F5F5F5F5E2F5E2F5E2F5E2F5F5F0E2F5F5F5F5F5F5F5F5F5F5F5F5F5F5F5E2E2E2E2E2E2E2E2E2E2E2E2E2E2E2E2E2E2E2E2E2E2E2E2E2E2
310
E2E2E2E2E2E2E2E2E2E2E2E2E2E2E2E2E2E2E2E2E2E2E2E2E2E2E2E2E2E2E2E2E2E2E2E2E2E2E2E2E2E2E2E2E2E2E2E2E2E2E2E2E2E2E2E2E2E2E2E2E2E2E2E2E2E2E2E2E2E2E2E2E2E2E2E2E2E2E2E2E2E2E2E2E2E2E2F0F5F5F5F0BEF5F5F5F5E2F0E2F5F5F5F0E2F5E2F5E2E2F0F5F5F5F0E2E2E2E2E2E2F0E2E2E2F5F5
310
F5F5F5F5F5F5E2F5F5F5F5F5E2F5E2F0F5F5F5F5F5F5F5F5F5F5BEF5F5F5F5F0F5F5F5E2F0E2F5F5F5E2E2F0F5F5F5F0E2F5E2F5F5E2F0F5F5F5E2F0E2E2E2E2E2E2F0E2E2F5F5F5F5F5F5F5F5E2F5F5F5F5F5E2F5E2F0E2F5F5F5F5F5F5F5F5F5F5F5F5F5F5F5E2E2E2E2E2E2E2E2E2E2E2E2E2E2E2E2E2E2E2E2E2E2E2E2
310
E2E2E2E2E2E2E2E2E2E2E2E2E2E2E2E2E2E2E2E2E2E2E2E2E2E2E2E2E2E2E2E2E2E2E2E2E2E2E2E2E2E2E2E2E2E2E2E2E2E2E2E2E2E2E2E2E2E2E2E2E2E2E2E2E2E2E2E2E2E2E2E2E2E2E2E2E2E2E2E2E2E2E2E2E2E2E2E2E2F0F0F0F0F0BEF0F0F0F0F0F0F0F0F0F5F0F0F0F0F0F0F0F0F0F0F0F0F0F0F0F0F0F0F0E2E2E2
310
E2E2E2E2E2E2E2E2E2E2E2E2E2E2E2E2E2F0E2E2E2E2E2E2E2E2E2E2BEE2E2E2E2F0F0F0F0F0F0F0F0F0F0F0F0F0F0F0F5F0F0F0F0F0F0F0F0F0F0F0F0F0F0F0F0F0F0F0F0E2E2E2E2E2E2E2E2E2E2E2E2E2E2E2E2E2E2E2F0E2E2E2E2E2E2E2E2E2E2E2E2E2E2E2F0E2E2E2E2E2E2E2E2E2E2E2E2E2E2E2E2E2E2E2E2E2E2
310
E2E2E2E2E2E2E2E2E2E2E2E2E2E2E2E2E2E2E2E2E2E2E2E2E2E2E2E2E2E2E2E2E2E2E2E2E2E2E2E2E2E2E2E2E2E2E2E2E2E2E2E2E2E2E2E2E2E2E2E2E2E2E2E2E2E2E2E2E2E2E2E2E2E2E2E2E2E2E2E2E2E2E2E2E2E2E2E2E2E2E2F0F5F5F5F0E2BEF5F5F5F5F0E2E2F5F5F5E2F5F5F5E2E2F0F5F5F5F0E2F5F5F5E2E2F0F5
310
F5E2F5E2E2E2E2E2E2E2E2E2E2E2E2E2E2E2E2F0F5F5F5F5E2E2E2E2E2BEE2E2E2E2E2F0F5F5F5E2F0F5F5F5F5F5F5F0E2F5F5F5E2F5F5F5E2E2F0F5F5F5E2F0F5F5F5E2E2E2F0F5E2F5E2E2E2E2E2E2E2E2E2E2E2E2E2E2E2E2F0E2F5E2F5E2E2E2E2E2E2E2E2E2E2E2F0E2E2E2E2E2E2E2E2E2E2E2E2E2E2E2E2E2E2E2E2
310
E2E2E2E2E2E2E2E2E2E2E2E2E2E2E2E2E2E2E2E2E2E2E2E2E2E2E2E2E2E2E2E2E2E2E2E2E2E2E2E2E2E2E2E2E2E2E2E2E2E2E2E2E2E2E2E2E2E2E2E2E2E2E2E2E2E2E2E2E2E2E2E2E2E2E2E2E2E2E2E2E2E2E2E2E2E2E2E2E2E2E2E2E2F0F5F5F5F0E2F5BEF5F5F5F0E2E2F5F5F5E2F5F5F5E2E2F0F5F5F5F0E2F5F5F5E2E2
310
F0E2F5F5F5E2E2E2E2E2E2E2E2E2E2E2E2E2E2E2E2F0F5F5F5F5E2E2E2E2BEE2E2E2E2E2E2F0F5F5F5E2F0F5F5F5F5F5F5F0E2F5F5F5E2F5F5F5E2E2F0F5F5F5E2F0F5F5F5E2E2E2F0F5E2F5E2E2E2E2E2E2E2E2E2E2E2E2E2E2E2E2F0E2F5E2F5E2E2E2E2E2E2E2E2E2E2E2F0E2E2E2E2E2E2E2E2E2E2E2E2E2E2E2E2E2E2
310
E2E2E2E2E2E2E2E2E2E2E2E2E2E2E2E2E2E2E2E2E2E2E2E2E2E2E2E2E2E2E2E2E2E2E2E2E2E2E2E2E2E2E2E2E2E2E2E2E2E2E2E2E2E2E2E2E2E2E2E2E2E2E2E2E2E2E2E2E2E2E2E2E2E2E2E2E2E2E2E2E2E2E2E2E2E2E2E2E2E2E2E2E2E2E2F0E2E2E2F0E2E2E2BEE2E2F0E2E2E2F5E2E2E2E2E2E2E2F0E2E2E2F0E2E2E2E2
310
E2E2F0E2E2E2E2E2E2E2E2E2E2E2E2E2E2E2E2E2E2E2E2F0E2E2E2E2E2E2E2BEE2E2E2E2E2E2E2F0E2E2E2E2F0E2E2E2E2E2E2F0E2E2F5E2E2E2E2E2E2E2F0E2E2E2E2F0E2E2E2E2E2E2F0E2E2E2E2E2E2E2E2E2E2E2E2E2E2E2E2E2E2E2F0E2E2E2E2E2E2E2E2E2E2E2E2E2E2E2F0E2E2E2E2E2E2E2E2E2E2E2E2E2E2E2E2
310
E2E2E2E2E2E2E2E2E2E2E2E2E2E2E2E2E2E2E2E2E2E2E2E2E2E2E2E2E2E2E2E2E2E2E2E2E2E2E2E2E2E2E2E2E2E2E2E2E2E2E2E2E2E2E2E2E2E2E2E2E2E2E2E2E2E2E2E2E2E2E2E2E2E2E2E2E2E2E2E2E2E2E2E2E2E2E2E2E2E2E2E2E2E2E2E2E2F0F0F0F0F0F0F0F0BEF0F0F0F0F0F0F0F0F0F0F0F0F0F0F0F0F0F0F0F0F0
310
F0F0F0F0F0F0F0F0F0F0F0F0F0F0F0F0F0F0F0F0F0F0F0F0F0F0F0F0F0F0F0F0F0BEF0F0F0F0F0F0F0F0F0F0F0F0F0F0F0F0F0F0F0F0F0F0F0F0F0F0F0F0F0F0F0F0F0F0F0F0F0F0F0F0F0F0F0F0F0F0F0F0F0F0F0F0F0F0F0F0F0F0F0F0F0F0F0F0F0F0F0F0F0F0F0F0F0F0F0F0F0F0F0E2E2E2E2E2E2E2E2E2E2E2E2E2E2
310
E2E2E2E2E2E2E2E2E2E2E2E2E2E2E2E2E2E2E2E2E2E2E2E2E2E2E2E2E2E2E2E2E2E2E2E2E2E2E2E2E2E2E2E2E2E2E2E2E2E2E2E2E2E2E2E2E2E2E2E2E2E2E2E2E2E2E2E2E2E2E2E2E2E2E2E2E2E2E2E2E2E2E2E2E2E2E2E2E2E2E2E2E2E2E2E2E2E2E2F0C328C32828282828BE28282828282828282828E2E2E2E2E2E2E2E2
310
E2E2E2E2E2E2E2E2E2E2E2E2E2E2E2E2E2E2E2F0F0F0F0F0F0F0F0F0F0F0F0F0F0F0BEF0F0F0F0F0F0F0E2F0C328C328282828282828282828282828282828E2E2E2E2E2E2E2E2E2E2E2E2E2E2E2E2E2E2E2E2E2E2E2E2E2E2E2F0F0F0F0F0F0F0F0F0F0F0F0F0F0F0F0F0F0F0F0F0F0F0E2F0E2E2E2E2E2E2E2E2E2E2E2E2
310
E2E2E2E2E2E2E2E2E2E2E2E2E2E2E2E2E2E2E2E2E2E2E2E2E2E2E2E2E2E2E2E2E2E2E2E2E2E2E2E2E2E2E2E2E2E2E2E2E2E2E2E2E2E2E2E2E2E2E2E2E2E2E2E2E2E2E2E2E2E2E2E2E2E2E2E2E2E2E2E2E2E2E2E2E2E2E2E2E2E2E2E2E2E2E2E2E2E2E2E2E2F0E228C3282828282828BE282828282828282828E2E2E2E2E2E2
310
E2E2E2E2E2E2E2E2E2E2E2E2E2E2E2E2E2E2E2E2E2F0F5F5E2E2F5F5E2E2F0F5F5F5F5BEF5F5F5E2E2E2E2F0E2F0E228C328282828282828282828282828282828E2E2E2E2E2E2E2E2E2E2E2E2E2E2E2E2E2E2E2E2E2E2E2E2E2E2E2F0F5F5E2E2E2F5E2E2F0E2F5F5F5F5F5F5F5E2E2E2E2F0E2F0E2E2E2E2E2E2E2E2E2E2
310
E2E2E2E2E2E2E2E2E2E2E2E2E2E2E2E2E2E2E2E2E2E2E2E2E2E2E2E2E2E2E2E2E2E2E2E2E2E2E2E2E2E2E2E2E2E2E2E2E2E2E2E2E2E2E2E2E2E2E2E2E2E2E2E2E2E2E2E2E2E2E2E2E2E2E2E2E2E2E2E2E2E2E2E2E2E2E2E2E2E2E2E2E2E2E2E2E2E2E2E2E2E2E2F0E2C3E2E2E2E2E2E2E2BEE2E2E2E2E2E2E22828E2E2E2E2
310
E2E2E2E2E2E2E2E2E2E2E2E2E2E2E2E2E2E2E2E2E2E2E2F0F5F5E2E2F5F5E2E2F0F5F5F5F5BEF5F5F5E2E2E2E2F0E2F0C3C3C328282828282828282828282828282828E2E2E2E2E2E2E2E2E2E2E2E2E2E2E2E2E2E2E2E2E2E2E2E2E2E2E2F0F5F5E2E2E2F5E2E2F0E2F5F5F5E2E2F5F5E2E2E2E2F0E2F0E2E2E2E2E2E2E2E2
310
E2E2E2E2E2E2E2E2E2E2E2E2E2E2E2E2E2E2E2E2E2E2E2E2E2E2E2E2E2E2E2E2E2E2E2E2E2E2E2E2E2E2E2E2E2E2E2E2E2E2E2E2E2E2E2E2E2E2E2E2E2E2E2E2E2E2E2E2E2E2E2E2E2E2E2E2E2E2E2E2E2E2E2E2E2E2E2E2E2E2E2E2E2E2E2E2E2E2E2E2E2E2E2E2E2F0E2E2E2E2E2E2E2E2E2E2BEE2E2E2E2E2E2E2E2E2E2
310
E2E2E2E2E2E2E2E2E2E2E2E2E2E2E2E2E2E2E2E2E2E2E2E2E2F0F5F5F5F5F5F5F0F0F0F0F5F0BEF0F5F5F0F0F0F0F0F0E2F0E2282828282828282828282828282828282828E2E2E2E2E2E2E2E2E2E2E2E2E2E2E2E2E2E2E2E2E2E2E2E2E2E2E2F0F5F5F5F5F5F5F0F0F0F0F5F0F0F0F0F5F0F0F0F0F0F0E2F0E2E2E2E2E2E2
310
E2E2E2E2E2E2E2E2E2E2E2E2E2E2E2E2E2E2E2E2E2E2E2E2E2E2E2E2E2E2E2E2E2E2E2E2E2E2E2E2E2E2E2E2E2E2E2E2E2E2E2E2E2E2E2E2E2E2E2E2E2E2E2E2E2E2E2E2E2E2E2E2E2E2E2E2E2E2E2E2E2E2E2E2E2E2E2E2E2E2E2E2E2E2E2E2E2E2E2E2E2E2E2E2E2E2E2F0E2E2E2E2E2E2E2E2E2E2E2BEE2E2E2E2E2E2E2
310
E2E2E2E2E2E2E2E2E2E2E2E2E2E2E2E2E2E2E2E2E2E2E2E2E2E2E2F0F5F5F5F5F5F5E2E2F0E2F5BEE2E2F5F5E2E2E2E2E2F0E2F0E2C3E228282828282828282828282828282828E2E2E2E2E2E2E2E2E2E2E2E2E2E2E2E2E2E2E2E2E2E2E2E2E2E2E2F0F5F5F5F5F5F5E2E2F0E2F5E2E2E2E2F5E2E2E2E2E2F0E2F0E2E2E2E2
310
E2E2E2E2E2E2E2E2E2E2E2E2E2E2E2E2E2E2E2E2E2E2E2E2E2E2E2E2E2E2E2E2E2E2E2E2E2E2E2E2E2E2E2E2E2E2E2E2E2E2E2E2E2E2E2E2E2E2E2E2E2E2E2E2E2E2E2E2E2E2E2E2E2E2E2E2E2E2E2E2E2E2E2E2E2E2E2E2E2E2E2E2E2E2E2E2E2E2E2E2E2E2E2E2E2E2E2E2E2F0E2E2E2E2E2E2E2E2E2E2E2BEE2E2E2E2E2
310
E2E2E2E2E2E2E2E2E2E2E2E2E2E2E2E2E2E2E2E2E2E2E2E2E2E2E2E2E2F0F5F5F5F5F5F5F0F0F0F0F5BEF0F0F5F5F0F0F0F0F0F0E2F0E2E2E2E2E2E2E2E2E2E2E2E2E2E2E2E2E2E2E2E2E2E2E2E2E2E2E2E2E2E2E2E2E2E2E2E2E2E2E2E2E2E2E2E2E2E2F0F5F5F5F5F5F5F0F0F0F0F5F0F0F0F0F5F0F0F0F0F0F0E2F0E2E2
310
E2E2E2E2E2E2E2E2E2E2E2E2E2E2E2E2E2E2E2E2E2E2E2E2E2E2E2E2E2E2E2E2E2E2E2E2E2E2E2E2E2E2E2E2E2E2E2E2E2E2E2E2E2E2E2E2E2E2E2E2E2E2E2E2E2E2E2E2E2E2E2E2E2E2E2E2E2E2E2E2E2E2E2E2E2E2E2E2E2E2E2E2E2E2E2E2E2E2E2E2E2E2E2E2E2E2E2E2E2E2E2F0E2E2E2E2E2E2E2E2E2E2E2E2BEE2E2
310
E2E2E2E2E2E2E2E2E2E2E2E2E2E2E2E2E2E2E2E2E2E2E2E2E2E2E2E2E2E2E2F0F5F5F5F5F5F5E2E2F0F5BEF5F5F5F5F5F5F5F5E2E2F0E2F0E2E2E2E2E2E2E2E2E2E2E2E2E2E2E2E2E2E2E2E2E2E2E2E2E2E2E2E2E2E2E2E2E2E2E2E2E2E2E2E2E2E2E2E2E2E2F0F5F5F5F5F5F5E2E2F0E2F5F5E2F5F5F5F5F5F5F5E2F0E2F0
310
E2E2E2E2E2E2E2E2E2E2E2E2E2E2E2E2E2E2E2E2E2E2E2E2E2E2E2E2E2E2E2E2E2E2E2E2E2E2E2E2E2E2E2E2E2E2E2E2E2E2E2E2E2E2E2E2E2E2E2E2E2E2E2E2E2E2E2E2E2E2E2E2E2E2E2E2E2E2E2E2E2E2E2E2E2E2E2E2E2E2E2E2E2E2E2E2E2E2E2E2E2E2E2E2E2E2E2E2E2E2E2E2E2F0E2E2E2E2E2E2E2E2E2E2E2E2E2
310
BEE2E2E2E2E2E2E2E2E2E2E2E2E2E2E2E2E2E2E2E2E2E2E2E2E2E2E2E2E2E2E2E2F0F5F5F5F5F5F5E2E2F0BEF5F5F5F5F5F5F5F5F5F5E2F0E2F0E2E2E2E2E2E2E2E2E2E2E2E2E2E2E2E2E2E2E2E2E2E2E2E2E2E2E2E2E2E2E2E2E2E2E2E2E2E2E2E2E2E2E2E2E2E2F0F5F5F5F5F5F5E2E2F0E2F5F5E2F5F5F5F5F5F5F5E2F0
310
E2F0E2E2E2E2E2E2E2E2E2E2E2E2E2E2E2E2E2E2E2E2E2E2E2E2E2E2E2E2E2E2E2E2E2E2E2E2E2E2E2E2E2E2E2E2E2E2E2E2E2E2E2E2E2E2E2E2E2E2E2E2E2E2E2E2E2E2E2E2E2E2E2E2E2E2E2E2E2E2E2E2E2E2E2E2E2E2E2E2E2E2E2E2E2E2E2E2E2E2E2E2E2E2E2E2E2E2E2E2E2E2E2E2E2F0E2E2E2E2E2E2E2E2E2E2E2
310
E2E2BEE2E2E2E2E2E2E2E2E2E2E2E2E2E2E2E2E2E2E2E2E2E2E2E2E2E2E2E2E2E2E2E2F0F5F0F5F0F0F0F0F0F0BEF0F0F0F0F0F0F0F0F0F0F0F0E2F0E2E2E2E2E2E2E2E2E2E2E2E2E2E2E2E2E2E2E2E2E2E2E2E2E2E2E2E2E2E2E2E2E2E2E2E2E2E2E2E2E2E2E2E2E2E2F0F5F5F5F0F0F0F0F0F0F0F0F0F0F0F0F0F0F0F0F0
310
F0F0E2F0E2E2E2E2E2E2E2E2E2E2E2E2E2E2E2E2E2E2E2E2E2E2E2E2E2E2E2E2E2E2E2E2E2E2E2E2E2E2E2E2E2E2E2E2E2E2E2E2E2E2E2E2E2E2E2E2E2E2E2E2E2E2E2E2E2E2E2E2E2E2E2E2E2E2E2E2E2E2E2E2E2E2E2E2E2E2E2E2E2E2E2E2E2E2E2E2E2E2E2E2E2E2E2E2E2E2E2E2E2E2E2E2E2F0E2E2E2E2E2E2E2E2E2
310
E2E2E2E2E2BEE2E2E2E2E2E2E2E2E2E2E2E2E2E2E2E2E2E2E2E2E2E2E2E2E2E2E2E2E2E2E2F0E2E2E2E2F5F5E2E2BEE2E2E2E2E2F5F5F5E2E2E2E2F0E2F0E2E2E2E2E2E2E2E2E2E2E2E2E2E2E2E2E2E2E2E2E2E2E2E2E2E2E2E2E2E2E2E2E2E2E2E2E2E2E2E2E2E2E2E2E2E2F0E2E2E2E2F5F5E2E2E2E2E2E2E2E2E2F5F5E2
310
E2E2E2F0E2F0E2E2E2E2E2E2E2E2E2E2E2E2E2E2E2E2E2E2E2E2E2E2E2E2E2E2E2E2E2E2E2E2E2E2E2E2E2E2E2E2E2E2E2E2E2E2E2E2E2E2E2E2E2E2E2E2E2E2E2E2E2E2E2E2E2E2E2E2E2E2E2E2E2E2E2E2E2E2E2E2E2E2E2E2E2E2E2E2E2E2E2E2E2E2E2E2E2E2E2E2E2E2E2E2E2E2E2E2E2E2E2E2E2F0E2E2E2E2E2E2E2
310
E2E2E2E2E2E2E2E2BEE2E2E2E2E2E2C3C3C3C3E2E2E2E2E2E2E2E2E2E2E2E2E2E2E2E2E2E2E2E2F0E2E2E2E2F5F5E2BEE2E2E2E2E2E2F5F5F5E2E2E2E2F0E2F0E2E2E2E2E2E2E2E2E2E2E2E2E2E2E2E2E2E2E2E2E2E2E2C3C3C3C3E2E2E2E2E2E2E2E2E2E2E2E2E2E2E2E2E2E2E2F0E2E2E2E2F5F5E2E2E2E2E2E2E2E2E2F5
310
F5E2E2E2E2F0E2F0E2E2E2E2E2E2E2E2E2E2E2E2E2E2E2E2E2E2E2E2E2E2E2E2E2E2E2E2E2E2E2E2E2E2E2E2E2E2E2E2E2E2E2E2E2E2E2E2E2E2E2E2E2E2E2E2E2E2E2E2E2E2E2E2E2E2E2E2E2E2E2E2E2E2E2E2E2E2E2E2E2E2E2E2E2E2E2E2E2E2E2E2E2E2E2E2E2E2E2E2E2E2E2E2E2E2E2E2E2E2E2E2E2F0E2E2E2E2E2
310
E2E2E2E2E2E2E2E2E2E2BEE2E2E2E2E2E2C3E2C3C3E2E2E2E2E2E2E2E2E2E2E2E2E2E2E2E2E2E2E2E2F0F0F0F0F0F0F0F0BEF0F0F0F0F0F0F0F0F0F0F0F0F0F0E2F0E2E2E2E2E2E2E2E2E2E2E2E2E2E2E2E2E2E2E2E2E2E2E2C3C3C3C3E2E2E2E2E2E2E2E2E2E2E2E2E2E2E2E2E2E2E2F0F0F0F0F0F0F0F0F0F0F0F0F0F0F0
310
F0F0F0F0F0F0F0F0E2F0E2E2E2E2E2E2E2E2E2E2E2E2E2E2E2E2E2E2E2E2E2E2E2E2E2E2E2E2E2E2E2E2E2E2E2E2E2E2E2E2E2E2E2E2E2E2E2E2E2E2E2E2E2E2E2E2E2E2E2E2E2E2E2E2E2E2E2E2E2E2E2E2E2E2E2E2E2E2E2E2E2E2E2E2E2E2E2E2E2E2E2E2E2E2E2E2E2E2E2E2E2E2E2E2E2E2E2E2E2E2E2E2E2F0E2E2E2
310
E2E2E2E2E2E2E2E2E2E2E2E2E2BEE2E2E2E2E2C3E2E2E2E2E2E2E2E2E2E2E2E2E2E2E2E2E2E2E2E2E2E2E2E2E2E2E2E2E2E2BEE2E2E2E2E2E2E2E2E2E2E2E2E2E2E2E2F0E2E2E2E2E2E2E2E2E2E2E2E2E2E2E2E2E2E2E2E2E2E2E2C3E2E2E2E2E2E2E2E2E2E2E2E2E2E2E2E2E2E2E2E2E2E2E2E2E2E2E2E2E2E2E2E2E2E2E2
310
E2E2E2E2E2E2E2E2E2E2E2F0E2E2E2E2E2E2E2E2E2E2E2E2E2E2E2E2E2E2E2E2E2E2E2E2E2E2E2E2E2E2E2E2E2E2E2E2E2E2E2E2E2E2E2E2E2E2E2E2E2E2E2E2E2E2E2E2E2E2E2E2E2E2E2E2E2E2E2E2E2E2E2E2E2E2E2E2E2E2E2E2E2E2E2E2E2E2E2E2E2E2E2E2E2E2E2E2E2E2E2E2E2E2E2E2E2E2E2E2E2E2E2E2E2F0E2
310
E2E2E2E2E2E2E2E2E2E2E2E2E2E2E2E2BEE2E2E2E2C3E2E2E2E2E2E2E2E2E2E2E2E2E2E2E2E2E2E2E2E2E2E2E2E2E2E2E2E2E2BEE2E2E2E2E2E2E2E2E2E2E2E2E2E2E2E2E2F0E2E2E2E2E2E2E2E2E2E2E2E2E2E2E2E2E2E2E2E2E2E2E2C3E2E2E2E2E2E2E2E2E2E2E2E2E2E2E2E2E2E2E2E2E2E2E2E2E2E2E2E2E2E2E2E2E2
310
E2E2E2E2E2E2E2E2E2E2E2E2E2F0E2E2E2E2E2E2E2E2E2E2E2E2E2E2E2E2E2E2E2E2E2E2E2E2E2E2E2E2E2E2E2E2E2E2E2E2E2E2E2E2E2E2E2E2E2E2E2E2E2E2E2E2E2E2E2E2E2E2E2E2E2E2E2E2E2E2E2E2E2E2E2E2E2E2E2E2E2E2E2E2E2E2E2E2E2E2E2E2E2E2E2E2E2E2E2E2E2E2E2E2E2E2E2E2E2E2E2E2E2E2E2E2E2
310
F0E2E2E2E2E2E2E2E2E2E2E2E2E2E2E2E2E2BEE2E2E2E2C3C3C3C3C3C3C3C3C3C3C3C3C3C3C3C3C3C3C3C3C3C3C3C3C3C3E2E2E2E2BEE2E2E2E2E2E2E2E2E2E2E2E2E2E2E2E2E2F0E2E2E2E2E2E2E2E2E2E2E2E2E2E2E2E2E2E2E2E2E2E2E2C3C3C3C3C3C3C3C3C3C3C3C3C3C3C3C3C3C3C3C3C3C3C3C3C3E2E2E2E2E2E2E2
310
E2E2E2E2E2E2E2E2E2E2E2E2E2E2E2F0E2E2E2E2E2E2E2E2E2E2E2E2E2E2E2E2E2E2E2E2E2E2E2E2E2E2E2E2E2E2E2E2E2E2E2E2E2E2E2E2E2E2E2E2E2E2E2E2E2E2E2E2E2E2E2E2E2E2E2E2E2E2E2E2E2E2E2E2E2E2E2E2E2E2E2E2E2E2E2E2E2E2E2E2E2E2E2E2E2E2E2E2E2E2E2E2E2E2E2E2E2E2E2E2E2E2E2E2E2E2E2
310
E2E2F0E2E2E2E2E2E2E2E2E2E2E2E2E2E2C3E2E2E2BEE2E2E2C3C3E2E2E2E2E2E2E22828282828282828E2E2E2E2E2E2E2C3C3E2E2E2BEE2E2E2E2E2E2E2E2E2E2E2E2E2E2E2E2E2E2F0E2E2E2E2E2E2E2E2E2E2E2E2E2E2E2C3E2E2E2E2E2E2E2C3C3E2E2E2E2E2E22828282828282828E2E2E2E2E2E2E2C3C3E2E2E2E2E2
310
E2E2E2E2E2E2E2E2E2E2E2E2E2E2E2E2E2F0E2E2E2E2E2E2E2E2E2E2E2E2E2E2E2E2E2E2E2E2E2E2E2E2E2E2E2E2E2E2E2E2E2E2E2E2E2E2E2E2E2E2E2E2E2E2E2E2E2E2E2E2E2E2E2E2E2E2E2E2E2E2E2E2E2E2E2E2E2E2E2E2E2E2E2E2E2E2E2E2E2E2E2E2E2E2E2E2E2E2E2E2E2E2E2E2E2E2E2E2E2E2E2E2E2E2E2E2E2
310
E2E2E2E2F0E2E2E2E2E2E2E2E2E2E2E2E2E2E22828E2E2E2BEE2E2C3E2E2E2E2E2E2E2E22828282828282828E2E2E2E2E2E2E2E2C3E2E2BEE2E22828E2E2E2E2E2E2E2E2E2E2E2E2E2E2E2F0E2E2E2E2E2E2E2E2E2E2E2E2E2E22828C3E2E2E2E2E2E2C3E2E2E2E2E2E2E22828282828282828E2E2E2E2E2E2E2E2C3E2E2E2
310
E2E22828E2E2E2E2E2E2E2E2E2E2E2E2E2E2E2F0E2E2E2E2E2E2E2E2E2E2E2E2E2E2E2E2E2E2E2E2E2E2E2E2E2E2E2E2E2E2E2E2E2E2E2E2E2E2E2E2E2E2E2E2E2E2E2E2E2E2E2E2E2E2E2E2E2E2E2E2E2E2E2E2E2E2E2E2E2E2E2E2E2E2E2E2E2E2E2E2E2E2E2E2E2E2E2E2E2E2E2E2E2E2E2E2E2E2E2E2E2E2E2E2E2E2E2
310
E2E2E2E2E2E2F0E2E2E2E2E2E2E2E2E2E2E2E2E2E2282828E2E2BEE2E2C3E2E2E2E2E2E2E2E2E2E2E2E2E2E2E2E2E2E2E2E22828E2E2C3E2E2BEE2C32828E2E2E2E2E2E2E2E2E2E2E2E2E2E2E2F0E2E2E2E2E2E2E2E2E2E2E2E2E2E2282828C3E2E2E2E2E2C3E2E2E2E2E2E2E2E2E2E2E2E2E2E2E2E2E2E2E2E228E2E2C3E2
310
E2E2E2E2C328E2E2E2E2E2E2E2E2E2E2E2E2E2E2E2F0E2E2E2E2E2E2E2E2E2E2E2E2E2E2E2E2E2E2E2E2E2E2E2E2E2E2E2E2E2E2E2E2E2E2E2E2E2E2E2E2E2E2E2E2E2E2E2E2E2E2E2E2E2E2E2E2E2E2E2E2E2E2E2E2E2E2E2E2E2E2E2E2E2E2E2E2E2E2E2E2E2E2E2E2E2E2E2E2E2E2E2E2E2E2E2E2E2E2E2E2E2E2E2E2E2
310
E2E2E2E2E2E2E2E2F0E2E2E2E2E2E2E2E2E2E2E2E2E2E2E2282828E2E2BEE2C3E2E2E2E2E2E2E2E2E2E2E2E2E2E2E2E2E2E2E2E2282828E2C3E2BEE2C3E2E2E2E2E2E2E2E2E2E2E2E2E2E2E2E2E2E2F0E2E2E2E2E2E2E2E2E2E2E2E2E2E2E2282828E2E2E2E2E2C3E2E2E2E2E2E2E2E2E2E2E2E2E2E2E2E2E2E2E2282828E2
310
C3E2E2E2E2C3E2E2E2E2E2E2E2E2E2E2E2E2E2E2E2E2E2F0E2E2E2E2E2E2E2E2E2E2E2E2E2E2E2E2E2E2E2E2E2E2E2E2E2E2E2E2E2E2E2E2E2E2E2E2E2E2E2E2E2E2E2E2E2E2E2E2E2E2E2E2E2E2E2E2E2E2E2E2E2E2E2E2E2E2E2E2E2E2E2E2E2E2E2E2E2E2E2E2E2E2E2E2E2E2E2E2E2E2E2E2E2E2E2E2E2E2E2E2E2E2E2
310
E2E2E2E2E2E2E2E2E2E2F0E2E2E2E2E2E2E2E2E2E2E2E2E2E2E2E228E2C3E2E2BEC3E2E2E2E2E2E2E2E2E2E2E2E2BEE2E2E2E2E2E2E2E228E2C3C3BEE2C3E2E2E2E2E2E2E2E2E2E2E2E2E2E2E2E2E2E2E2F0E2E2E2E2E2E2E2E2E2E2E2E2E2E2E2E22828C3E2E2E2E2C3E2E2E2E2E2E2E2E2E2E2E2BEE2E2E2E2E2E2E2E228
310
E2C3C3E2E2C3C3E2E2E2E2E2E2E2E2E2E2E2E2E2E2E2E2E2E2F0E2E2E2E2E2E2E2E2E2E2E2E2E2E2E2E2E2E2E2E2E2E2E2E2E2E2E2E2E2E2E2E2E2E2E2E2E2E2E2E2E2E2E2E2E2E2E2E2E2E2E2E2E2E2E2E2E2E2E2E2E2E2E2E2E2E2E2E2E2E2E2E2E2E2E2E2E2E2E2E2E2E2E2E2E2E2E2E2E2E2E2E2E2E2E2E2E2E2E2E2E2
310
E2E2E2E2E2E2E2E2E2E2E2E2F0E2E2E2E2E2E2E2E2E2E2E2E2E2E2E2E2E2E2E2C3DCDCBEDCDCDCDCDCDCDCDCDCDCDCDCBEDCDCDCDCDCDCDCDCDCDCDCBEC3C3C3C3C3C3C3C3C3C3C3E2E2E2E2E2E2E2E2E2E2E2F0E2E2E2E2E2E2E2E2E2E2E2E2E2E2E2E2E2E2E2C3C3DCDCDCDCDCDCDCDCDCDCDCDCDCDCBEDCDCDCDCDCDCDC
310
DCDCDCDCC3DCDCDCDCC3C3C3C3C3C3C3E2E2E2E2E2E2E2E2E2E2E2F0E2E2E2E2E2E2E2E2E2E2E2E2E2E2E2E2E2E2E2E2E2E2E2E2E2E2E2E2E2E2E2E2E2E2E2E2E2E2E2E2E2E2E2E2E2E2E2E2E2E2E2E2E2E2E2E2E2E2E2E2E2E2E2E2E2E2E2E2E2E2E2E2E2E2E2E2E2E2E2E2E2E2E2E2E2E2E2E2E2E2E2E2E2E2E2E2E2E2E2
310
E2E2E2E2E2E2E2E2E2E2E2E2E2E2F0E2E2E2E2E2E2E2E2E2E2E2E2E2E2E2E2E2E2E2DCDC0FBEDCE2E2E2E2C3E2E2E2E2E2E2BEE2E2E2E2E2E2E2E2E2E2DCBEC32DDCE2E2E2E2E22828C3E2E2E2E2E2E2E2E2E2E2E2F0E2E2E2E2E2E2E2E2E2E2E2E2E2E2E2E2E2E2E2DCDC0F0F2DE2E2E2E2C3E2E2E2E2E2E2BEE2E2E2E2E2
310
E2E2E2E2E22D0F0FDC2DDCE2E2E2E22828C3E2E2E2E2E2E2E2E2E2E2E2F0E2E2E2E2E2E2E2E2E2E2E2E2E2E2E2E2E2E2E2E2E2E2E2E2E2E2E2E2E2E2E2E2E2E2E2E2E2E2E2E2E2E2E2E2E2E2E2E2E2E2E2E2E2E2E2E2E2E2E2E2E2E2E2E2E2E2E2E2E2E2E2E2E2E2E2E2E2E2E2E2E2E2E2E2E2E2E2E2E2E2E2E2E2E2E2E2E2
310
E2E2E2E2E2E2E2E2E2E2E2E2E2E2E2E2F0E2E2E2E2E2E2E2E2E2E2E2E2E2E2E2E2E2E2E2DCDC0F2DBEE2E2E22828E2E2E2E2E2E2BEE2E2E2E2E2E2E2E2E2E2BE0FDCDCDCE2E2E2E2E22828E2E2E2E2E2E2E2E2E2E2E2E2F0E2E2E2E2E2E2E2E2E2E2E2E2E2E2E2E2E2E2E2DCDC0F0F2DE2E2E22828E2E2E2E2E2E2BEE2E2E2
310
E2E2E2E2E2E2E20F0FDCDCDCDCE2E2E2E22828E2E2E2E2E2E2E2E2E2E2E2E2F0E2E2E2E2E2E2E2E2E2E2E2E2E2E2E2E2E2E2E2E2E2E2E2E2E2E2E2E2E2E2E2E2E2E2E2E2E2E2E2E2E2E2E2E2E2E2E2E2E2E2E2E2E2E2E2E2E2E2E2E2E2E2E2E2E2E2E2E2E2E2E2E2E2E2E2E2E2E2E2E2E2E2E2E2E2E2E2E2E2E2E2E2E2E2E2
310
E2E2E2E2E2E2E2E2E2E2E2E2E2E2E2E2E2E2F0E2E2E2E2E2E2E2E2E2E2E2E2E2E2E2C3E2E2E2DCDC0F2DDCBEE2E2E2C3E2E2E2E2E2E2BEE2E2E2E2E2E2E2E2E2BEBEBEBEBEC3C3C3C3C3C32828E2E2E2E2E2E2E2E2E2E2E2E2F0E2E2E2E2E2E2E2E2E2E2E2E2E2E2E2C3E2E2E2DCDC0F0F2DE2E2E2E2C3E2E2E2E2E2E2BEE2
310
E2E2E2E2E2E2E2E2E2DC0FDCDCBEDCC3C3C3C32828E2E2E2E2E2E2E2E2E2E2E2E2F0E2E2E2E2E2E2E2E2E2E2E2E2E2E2E2E2E2E2E2E2E2E2E2E2E2E2E2E2E2E2E2E2E2E2E2E2E2E2E2E2E2E2E2E2E2E2E2E2E2E2E2E2E2E2E2E2E2E2E2E2E2E2E2E2E2E2E2E2E2E2E2E2E2E2E2E2E2E2E2E2E2E2E2E2E2E2E2E2E2E2E2E2E2
310
E2E2E2E2E2E2E2E2E2E2E2E2E2E2E2E2E2E2E2E2F0E2E2E2E2E2E2E2E2E2E2E2E2E2E2E2C3E2E2E2DCDC0F2DDCBEDCDCDCC3DCDCDCDCDCDCBEDCDCDCDCDCDCDCDCDCBEDCDCDC2DC3C3E22828C32828E2E2E2E2E2E2E2E2E2E2E2E2F0E2E2E2E2E2E2E2E2E2E2E2E2E2E2E2C3E2E2E2DCDC0FE2DCDCDCDCDCDCDCDCDCDCDCDC
310
BEDCDCDCDCDCDCDCDCDCDC2D0FDCDCDCDCE22828C32828E2E2E2E2E2E2E2E2E2E2E2E2F0E2E2E2E2E2E2E2E2E2E2E2E2E2E2E2E2E2E2E2E2E2E2E2E2E2E2E2E2E2E2E2E2E2E2E2E2E2E2E2E2E2E2E2E2E2E2E2E2E2E2E2E2E2E2E2E2E2E2E2E2E2E2E2E2E2E2E2E2E2E2E2E2E2E2E2E2E2E2E2E2E2E2E2E2E2E2E2E2E2E2E2
310
E2E2E2E2E2E2E2E2E2E2E2E2E2E2E2E2E2E2E2E2E2E2F0E2E2E2E2E2E2E2E2E2E2E2E2E2E2E2C3C3C3C3C3DC0FDCDCDCBEDCDCC3DCDCDCDCDCDCBEDCDCDCDCDCDCDCDCBEDCDCDC0FDCC3C3E2E2C3C32828C3E2E2E2E2E2E2E2E2E2E2E2F0E2E2E2E2E2E2E2E2E2E2E2E2E2E2E2C3C3C3C3C3C30FDCDCDCDCDCDCDCDCDCDCDC
310
DCDCBEDCDCDCDCDCDCDCDCDCDCDCDC0FDCDCC3E2E2C3C32828C3E2E2E2E2E2E2E2E2E2E2E2F0E2E2E2E2E2E2E2E2E2E2E2E2E2E2E2E2E2E2E2E2E2E2E2E2E2E2E2E2E2E2E2E2E2E2E2E2E2E2E2E2E2E2E2E2E2E2E2E2E2E2E2E2E2E2E2E2E2E2E2E2E2E2E2E2E2E2E2E2E2E2E2E2E2E2E2E2E2E2E2E2E2E2E2E2E2E2E2E2E2
310
E2E2E2E2E2E2E2E2E2E2E2E2E2E2E2E2E2E2E2E2E2E2E2E2F0E2E2E2E2E2E2E2E2E2E2E2E2E2E2E2C3C3C3C3C3C3DCC3DCDCDCBEDCC3DCDCDCDCDCDCBEDCDCDCC3C3C3DCBEDCDCDCC3DCC3C3C3C3C3C3C3C3C3C3E2E2E2E2E2E2E2E2E2E2E2F0E2E2E2E2E2E2E2E2E2E2E2E2E2E2E2C3C3C3C3C3C3DCC3DCDCDCDCDCDCDCDC
310
DCDCDCDCBEDCDCDCC3DCC3C3DCDCDCDCC3DCC3C3C3C3C3C3C3C3C3C3E2E2E2E2E2E2E2E2E2E2E2F0E2E2E2E2E2E2E2E2E2E2E2E2E2E2E2E2E2E2E2E2E2E2E2E2E2E2E2E2E2E2E2E2E2E2E2E2E2E2E2E2E2E2E2E2E2E2E2E2E2E2E2E2E2E2E2E2E2E2E2E2E2E2E2E2E2E2E2E2E2E2E2E2E2E2E2E2E2E2E2E2E2E2E2E2E2E2E2
310
E2E2E2E2E2E2E2E2E2E2E2E2E2E2E2E2E2E2E2E2E2E2E2E2E2E2F0E2E2E2E2E2E2E2E2E2E2E2E2E2E2E2C3E2E2E2C3C3E2C3E2E2E2BEE2C3E2E2E2E2E2E2E2E2E2E2C3C3C3C3BEE2E2E2C3E2C3C3E2C3E2E2E2E2C3E2E2E2E2E2E2E2E2E2E2E2E2F0E2E2E2E2E2E2E2E2E2E2E2E2E2E2E2C3E2E2E2C3C3E2C3E2E2E2E2E2C3
310
E2E2E2E2E2E2E2E2E2E2C3C3C3C3E2E2E2E2C3E2C3E2C3C3E2E2E2E2C3E2E2E2E2E2E2E2E2E2E2E2E2F0E2E2E2E2E2E2E2E2E2E2E2E2E2E2E2E2E2E2E2E2E2E2E2E2E2E2E2E2E2E2E2E2E2E2E2E2E2E2E2E2E2E2E2E2E2E2E2E2E2E2E2E2E2E2E2E2E2E2E2E2E2E2E2E2E2E2E2E2E2E2E2E2E2E2E2E2E2E2E2E2E2E2E2E2E2
310
E2E2E2E2E2E2E2E2E2E2E2E2E2E2E2E2E2E2E2E2E2E2E2E2E2E2E2E2F0E2E2E2E2E2E2E2E2E2E2E2E2E2E22828E2E2E2C3C3E2C3E2E2E2E2BEC3E2E2E2E2E2E2E2E2E2E2E2E2E2BEE2E2E2E2C3E2C3C3E2E2C3E2E2E2C3E2C3C3C3C3C3C3C3C3C3E2E2F0E2E2E2E2E2E2E2E2E2E2E2E2E2E22828E2E2E2C3C3E2C3E2E2E2E2
310
E2C3E2E2E2E2E2E2E2E2E2E2E2E2E2E2E2E2E2E2C3E2C3E2C3E2C3E2E2E2C3E2C3C3C3C3C3C3C3C3C3E2E2F0E2E2E2E2E2E2E2E2E2E2E2E2E2E2E2E2E2E2E2E2E2E2E2E2E2E2E2E2E2E2E2E2E2E2E2E2E2E2E2E2E2E2E2E2E2E2E2E2E2E2E2E2E2E2E2E2E2E2E2E2E2E2E2E2E2E2E2E2E2E2E2E2E2E2E2E2E2E2E2E2E2E2E2
310
E2E2E2E2E2E2E2E2E2E2E2E2E2E2E2E2E2E2E2E2E2E2E2E2E2E2E2E2E2E2F0E2E2E2E2E2E2E2E2E2E2E2E2E2E22828E2E2E2C3C3E2C3C3C3C3C3C3BEC3C3C3C328282828C3C3C3C3BEC3C3C3C3C3C3E2C3C3E2E2C328E2E2C3C3C32828BEBEBEBEBEC3E2E2F0E2E2E2E2E2E2E2E2E2E2E2E2E2E22828E2E2E2C3C3E2C3C3C3
310
C3C3C3C3C3C3C3C328282828C3C3C3C3C3C3C3C3C3C3C3E2C3E2C3E2C328E2E2C3C3C32828BEBEBEBEBEC3E2E2F0E2E2E2E2E2E2E2E2E2E2E2E2E2E2E2E2E2E2E2E2E2E2E2E2E2E2E2E2E2E2E2E2E2E2E2E2E2E2E2E2E2E2E2E2E2E2E2E2E2E2E2E2E2E2E2E2E2E2E2E2E2E2E2E2E2E2E2E2E2E2E2E2E2E2E2E2E2E2E2E2E2
310
E2E2E2E2E2E2E2E2E2E2E2E2E2E2E2E2E2E2E2E2E2E2E2E2E2E2E2E2E2E2E2E2F0E2E2E2E2E2E2E2E2E2E2E2E2E2E22828E2E2E2C3C3E2E2E2E2E2E2E2BEE2E2E2E228282828E2E2E2E2BEE2E2E2E2E2E2E2C3C3E2E22828E2E2E2E2C3C3C3C3C3C3C3C3C3E2E2F0E2E2E2E2E2E2E2E2E2E2E2E2E2E22828E2E2E2C3C3E2E2
310
E2E2E2E2E2E2E2E2E2E228282828E2E2E2E2E2E2E2E2E2E2E2E2C3E2C3E22828E2E2E2E2C3C3C3C3C3C3C3C3C3E2E2F0E2E2E2E2E2E2E2E2E2E2E2E2E2E2E2E2E2E2E2E2E2E2E2E2E2E2E2E2E2E2E2E2E2E2E2E2E2E2E2E2E2E2E2E2E2E2E2E2E2E2E2E2E2E2E2E2E2E2E2E2E2E2E2E2E2E2E2E2E2E2E2E2E2E2E2E2E2E2E2
310
E2E2E2E2E2E2E2E2E2E2E2E2E2E2E2E2E2E2E2E2E2E2E2E2E2E2E2E2E2E2E2E2E2E2F0E2E2E2E2E2E2E2E2E2E2E2E2E2E2E2E2E2E2E2C3C3C3C3C3C3C3C3C3C3BEC3C3C3C3C3C3C3C3C3C3BEC3C3C3C3C3C3C3C3C3C3E2E22828E2E2E2E2C3282828282828E2E2E2E2F0E2E2E2E2E2E2E2E2E2E2E2E2E2E2E2E2E2E2E2C3C3
310
C3C3C3C3C3C3C3C3C3C3C3C3C3C3C3C3C3C3C3C3C3C3C3C3C3C3C3C3C3E2C3E22828E2E2E2E2C3BEBEBEBEBEBEBEE2E2E2F0E2E2E2E2E2E2E2E2E2E2E2E2E2E2E2E2E2E2E2E2E2E2E2E2E2E2E2E2E2E2E2E2E2E2E2E2E2E2E2E2E2E2E2E2E2E2E2E2E2E2E2E2E2E2E2E2E2E2E2E2E2E2E2E2E2E2E2E2E2E2E2E2E2E2E2E2E2
310
E2E2E2E2E2E2E2E2E2E2E2E2E2E2E2E2E2E2E2E2E2E2E2E2E2E2E2E2E2E2E2E2E2E2E2E2F0E2E2E2E2E2E2E2E2E2E2E2E2E2E2E2E2E2E2E2C3C3C3E2E2E2E2E2E2E2E2BEE2282828282828E2BEE2E2E2E2E2E2E2E2C3C3C3E2E2E2E2E2E2E2E2E228C328282828E2E2E2E2F0E2E2E2E2E2E2E2E2E2E2E2E2E2E2E2E2E2E2E2
310
C3C3C3E2E2E2E2E2E2E2E2E2E2282828282828E2E2E2E2E2E2E2E2E2E2C3C3E2C3E2E2E2E2E2E2E2E2BEBEBEBEBEBEBEE2E2E2F0E2E2E2E2E2E2E2E2E2E2E2E2E2E2E2E2E2E2E2E2E2E2E2E2E2E2E2E2E2E2E2E2E2E2E2E2E2E2E2E2E2E2E2E2E2E2E2E2E2E2E2E2E2E2E2E2E2E2E2E2E2E2E2E2E2E2E2E2E2E2E2E2E2E2E2
310
E2E2E2E2E2E2E2E2E2E2E2E2E2E2E2E2E2E2E2E2E2E2E2E2E2E2E2E2E2E2E2E2E2E2E2E2E2E2F0E2E2E2E2E2E2E2E2E2E2E2E2E2E2E2E2E2E2E2C3E2E2E2E2E2E2E2E2E2E2BEE2282828282828E2BEE2E2E2E2E2E2E2E2E2E2C3E2E2E2E2E2E2E2E2E2C3E2E2E2E2E2E2E2E2E2F0E2E2E2E2E2E2E2E2E2E2E2E2E2E2E2E2E2
310
E2E2C3E2E2E2E2E2E2E2E2E2E2E2E2282828282828E2E2E2E2E2E2E2E2E2E2E2E2E2C3E2E2E2E2E2E2E2C3282828282828E2E2E2E2F0E2E2E2E2E2E2E2E2E2E2E2E2E2E2E2E2E2E2E2E2E2E2E2E2E2E2E2E2E2E2E2E2E2E2E2E2E2E2E2E2E2E2E2E2E2E2E2E2E2E2E2E2E2E2E2E2E2E2E2E2E2E2E2E2E2E2E2E2E2E2E2E2E2
310
E2E2E2E2E2E2E2E2E2E2E2E2E2E2E2E2E2E2E2E2E2E2E2E2E2E2E2E2E2E2E2E2E2E2E2E2E2E2E2E2F0E2E2E2E2E2E2E2E2E2E2E2E2E2E2E2E2E2E2E2C3C3C3C3C3C3C3C3C3C3C3C3BEC32828282828BEC3C3C3C3C3C3C3C3C3C3C3C3E2E2E2E2E2E2E2E2E2E2E2E2E2E2E2E2E2E2E2F0E2E2E2E2E2E2E2E2E2E2E2E2E2E2E2
310
E2E2E2E2C3C3C3C3C3C3C3C3C3C3C3C3C3C3C3282828C3C3C3C3C3C3C3C3C3C3C3C3C3C3C3E2E2E2E2E2E2E2E2282828282828E2E2E2E2F0E2E2E2E2E2E2E2E2E2E2E2E2E2E2E2E2E2E2E2E2E2E2E2E2E2E2E2E2E2E2E2E2E2E2E2E2E2E2E2E2E2E2E2E2E2E2E2E2E2E2E2E2E2E2E2E2E2E2E2E2E2E2E2E2E2E2E2E2E2E2E2
310
E2E2E2E2E2E2E2E2E2E2E2E2E2E2E2E2E2E2E2E2E2E2E2E2E2E2E2E2E2E2E2E2E2E2E2E2E2E2E2E2E2E2F0E2E2E2E2E2E2E2E2E2E2E2E2E2E2E2E2E2E2E2E2E2E2E2E2E2E2E2E2E2E2E2E2BE28282828BE28E2E2E2E2E2E2E2E2E2E2E2E2E2E2E2E2E2E2E2E2E2E2E2E2E2E2E2E2E2E2E2F0E2E2E2E2E2E2E2E2E2E2E2E2E2
310
E2E2E2E2E2E2E2E2E2E2E2E2E2E2E2E2E2E2E2E2282828282828E2E2E2E2E2E2E2E2E2E2E2E2E2E2E2E2E2E2E2E2E2E2C3E2E2E2E2E2E2E2E2F0E2E2E2E2E2E2E2E2E2E2E2E2E2E2E2E2E2E2E2E2E2E2E2E2E2E2E2E2E2E2E2E2E2E2E2E2E2E2E2E2E2E2E2E2E2E2E2E2E2E2E2E2E2E2E2E2E2E2E2E2E2E2E2E2E2E2E2E2E2
310
E2E2E2E2E2E2E2E2E2E2E2E2E2E2E2E2E2E2E2E2E2E2E2E2E2E2E2E2E2E2E2E2E2E2E2E2E2E2E2E2E2E2E2E2F0E2E2E2E2E2E2E2E2E2E2E2E2E2E2E2E2E2E2E2E2E2E2E2E2E2E2E2E2E2E2E2E2BEE2E2E2E2BEE2E2E2E2E2E2E2E2E2E2E2E2E2E2E2E2E2E2E2E2E2E2E2E2E2E2E2E2E2E2E2E2F0E2E2E2E2E2E2E2E2E2E2E2
310
E2E2E2E2E2E2E2E2E2E2E2E2E2E2E2E2E2E2E2E2E2E2E2E2E2E228E2E2E2E2E2E2E2E2E2E2E2E2E2E2E2E2E2E2E2E2E2E2E2E2E2E2E2E2E2E2E2E2F0E2E2E2E2E2E2E2E2E2E2E2E2E2E2E2E2E2E2E2E2E2E2E2E2E2E2E2E2E2E2E2E2E2E2E2E2E2E2E2E2E2E2E2E2E2E2E2E2E2E2E2E2E2E2E2E2E2E2E2E2E2E2E2E2E2E2E2
310
E2E2E2E2E2E2E2E2E2E2E2E2E2E2E2E2E2E2E2E2E2E2E2E2E2E2E2E2E2E2E2E2E2E2E2E2E2E2E2E2E2E2E2E2E2E2F0E2E2E2E2E2E2E2E2E2E2E2E2E2E2E2E2E2E2E2E2E2E2E2E2E2E2E2E2E2E2E2E2E2BEE2E2BEE2E2E2E2E2E2E2E2E2E2E2E2E2E2E2E2E2E2E2E2E2E2E2E2E2E2E2E2E2E2E2E2E2F0E2E2E2E2E2E2E2E2E2
310
E2E2E2E2E2E2E2E2E2E2E2E2E2E2E2E2E2E2E2E2E2E2E2E2E2E2E2E2E2E2E2E2E2E2E2E2E2E2E2E2E2E2E2E2E2E2E2E2E2E2E2E2E2E2E2E2E2E2E2E2E2F0E2E2E2E2E2E2E2E2E2E2E2E2E2E2E2E2E2E2E2E2E2E2E2E2E2E2E2E2E2E2E2E2E2E2E2E2E2E2E2E2E2E2E2E2E2E2E2E2E2E2E2E2E2E2E2E2E2E2E2E2E2E2E2E2E2
310
E2E2E2E2E2E2E2E2E2E2E2E2E2E2E2E2E2E2E2E2E2E2E2E2E2E2E2E2E2E2E2E2E2E2E2E2E2E2E2E2E2E2E2E2E2E2E2E2F0E2E2E2E2E2E2E2E2E2E2E2E2E2E2E2E2E2E2E2E2E2E2E2E2E2E2E2E2E2E2E2E2E2E2BEBEE2E2E2E2E2E2E2E2E2E2E2E2E2E2E2E2E2E2E2E2E2E2E2E2E2E2E2E2E2E2E2E2E2E2F0E2E2E2E2E2E2E2
310
E2E2E2E2E2E2E2E2E2E2E2E2E2E2E2E2E2E2E2E2E2E2E2E2E2E2E2E2E2E2E2E2E2E2E2E2E2E2E2E2E2E2E2E2E2E2E2E2E2E2E2E2E2E2E2E2E2E2E2E2E2E2E2F0E2E2E2E2E2E2E2E2E2E2E2E2E2E2E2E2E2E2E2E2E2E2E2E2E2E2E2E2E2E2E2E2E2E2E2E2E2E2E2E2E2E2E2E2E2E2E2E2E2E2E2E2E2E2E2E2E2E2E2E2E2E2E2
310
E2E2E2E2E2E2E2E2E2E2E2E2E2E2E2E2E2E2E2E2E2E2E2E2E2E2E2E2E2E2E2E2E2E2E2E2E2E2E2E2E2E2E2E2E2E2E2E2E2E2F0E2E2E2E2E2E2E2E2E2E2E2E2E2E2E2E2E2E2E2E2E2E2E2E2E2E2E2E2E2E2E2E2E2E2BEE2E2E2E2E2E2E2E2E2E2E2E2E2E2E2E2E2E2E2E2E2E2E2E2E2E2E2E2E2E2E2E2E2E2E2F0E2E2E2E2E2
310
E2E2E2E2E2E2E2E2E2E2E2E2E2E2E2E2E2E2E2E2E2E2E2E2E2E2E2E2E2E2E2E2E2E2E2E2E2E2E2E2E2E2E2E2E2E2E2E2E2E2E2E2E2E2E2E2E2E2E2E2E2E2E2E2E2F0E2E2E2E2E2E2E2E2E2E2E2E2E2E2E2E2E2E2E2E2E2E2E2E2E2E2E2E2E2E2E2E2E2E2E2E2E2E2E2E2E2E2E2E2E2E2E2E2E2E2E2E2E2E2E2E2E2E2E2E2E2
310
E2E2E2E2E2E2E2E2E2E2E2E2E2E2E2E2E2E2E2E2E2E2E2E2E2E2E2E2E2E2E2E2E2E2E2E2E2E2E2E2E2E2E2E2E2E2E2E2E2E2E2E2F0E2E2E2E2E2E2E2E2E2E2E2E2E2E2E2E2E2E2C3C3C3C3E2E2E2E2E2E2E2E2E2E2E2E2BEBEE2E2E2E2E2E2E2E2E2E2E2E2E2E2E2E2E2E2E2E2E2E2E2E2E2E2E2E2E2E2E2E2E2E2F0E2E2E2
310
E2E2E2E2E2E2E2E2E2E2E2E2E2E2E2C3C3C3C3E2E2E2E2E2E2E2E2E2E2E2E2E2E2E2E2E2E2E2E2E2E2E2E2E2E2E2E2E2E2E2E2E2E2E2E2E2E2E2E2E2E2E2E2E2E2E2E2F0E2E2E2E2E2E2E2E2E2E2E2E2E2E2E2E2E2E2E2E2E2E2E2E2E2E2E2E2E2E2E2E2E2E2E2E2E2E2E2E2E2E2E2E2E2E2E2E2E2E2E2E2E2E2E2E2E2E2E2
310
E2E2E2E2E2E2E2E2E2E2E2E2E2E2E2E2E2E2E2E2E2E2E2E2E2E2E2E2E2E2E2E2E2E2E2E2E2E2E2E2E2E2E2E2E2E2E2E2E2E2E2E2E2E2F0E2E2E2E2E2E2E2E2E2E2E2E2E2E2E228282828C3C3C3C3E2E2E2E2E2E2E2E2E2E2BEE2BEBEE2E2E2E2E2E2E2E2E2E2E2E2E2E2E2E2E2E2E2E2E2E2E2E2E2E2E2E2E2E2E2E2E2F0E2
310
E2E2E2E2E2E2E2E2E2E2E2E2E2E2C3282828C3C3C3C3E2E2E2E2E2E2E2E2E2E2E2E2BEE2E2E2E2E2E2E2E2E2E2E2E2E2E2E2E2E2E2E2E2E2E2E2E2E2E2E2E2E2E2E2E2E2E2F0E2E2E2E2E2E2E2E2E2E2E2E2E2E2E2E2E2E2E2E2E2E2E2E2E2E2E2E2E2E2E2E2E2E2E2E2E2E2E2E2E2E2E2E2E2E2E2E2E2E2E2E2E2E2E2E2E2
310
E2E2E2E2E2E2E2E2E2E2E2E2E2E2E2E2E2E2E2E2E2E2E2E2E2E2E2E2E2E2E2E2E2E2E2E2E2E2E2E2E2E2E2E2E2E2E2E2E2E2E2E2E2E2E2E2F0E2E2E2E2E2E2E2E2E2E2E2E2E2E2E228282828C3C3E2E2E2E2E2E2E2E2E2E2DCBEDCDCBEDCBEDCE2E2E2E2E2E2E2E2E2E2E2E2E2E2E2E2E2E2E2E2E2E2E2E2E2E2E2E2E2E2E2
310
F0E2E2E2E2E2E2E2E2E2E2E2E2E2E2E2E2282828C3C3E2E2E2E2E2E2E2E2E2E2DCDCDCDCBEDCDCDCE2E2E2E2E2E2E2E2E2E2E2E2E2E2E2E2E2E2E2E2E2E2E2E2E2E2E2E2E2E2E2F0E2E2E2E2E2E2E2E2E2E2E2E2E2E2E2E2E2E2E2E2E2E2E2E2E2E2E2E2E2E2E2E2E2E2E2E2E2E2E2E2E2E2E2E2E2E2E2E2E2E2E2E2E2E2E2
310
E2E2E2E2E2E2E2E2E2E2E2E2E2E2E2E2E2E2E2E2E2E2E2E2E2E2E2E2E2E2E2E2E2E2E2E2E2E2E2E2E2E2E2E2E2E2E2E2E2E2E2E2E2E2E2E2E2E2F0E2E2E2E2E2E2E2E2E2E2E2E2E2E2E2E2E2E2E2C3C3E2E2E2E2E2E2E2DCDCDCDCBEDCDCBEDCBEDCDCDCDCE2E2E2E2E2E2E2E2E2E2E2E2E2E2E2E2E2E2E2E2E2E2E2E2E2E2
310
E2E2F0E2E2E2E2E2E2E2E2E2E2E2E2E2E2E2E2E2E2E2C3C3E2E2E2E2E2E2E2DCDCDCDCE2DCDCBEDCE2DCDCDCDCE2E2E2E2E2E2E2E2E2E2E2E2E2E2E2E2E2E2E2E2E2E2E2E2E2E2E2E2F0E2E2E2E2E2E2E2E2E2E2E2E2E2E2E2E2E2E2E2E2E2E2E2E2E2E2E2E2E2E2E2E2E2E2E2E2E2E2E2E2E2E2E2E2E2E2E2E2E2E2E2E2E2
310
E2E2E2E2E2E2E2E2E2E2E2E2E2E2E2E2E2E2E2E2E2E2E2E2E2E2E2E2E2E2E2E2E2E2E2E2E2E2E2E2E2E2E2E2E2E2E2E2E2E2E2E2E2E2E2E2E2E2E2E2F0E2E2E2E2E2E2E2E2E2E2E2E2E2E2E2E2E2E2E2C3C3E2E2E2E2E2BEDC2DDCDCBEDCDCE2BEDCDCBEDCDCDCE2E2E2E2E2E2E2E2E2E2E2E2E2E2E2E2E2E2E2E2E2E2E2E2
310
E2E2E2E2F0E2E2E2E2E2E2E2E2E2E2E2E2E2E2E2E2E2E2E2C3C3E2E2E2E2E2BEDC2DDCDCDCDCDCE2BEE2DCDCDCDCDCE2E2E2E2E2E2E2E2E2E2E2E2E2E2E2E2E2E2E2E2E2E2E2E2E2E2E2E2F0E2E2E2E2E2E2E2E2E2E2E2E2E2E2E2E2E2E2E2E2E2E2E2E2E2E2E2E2E2E2E2E2E2E2E2E2E2E2E2E2E2E2E2E2E2E2E2E2E2E2E2
310
E2E2E2E2E2E2E2E2E2E2E2E2E2E2E2E2E2E2E2E2E2E2E2E2E2E2E2E2E2E2E2E2E2E2E2E2E2E2E2E2E2E2E2E2E2E2E2E2E2E2E2E2E2E2E2E2E2E2E2E2E2E2F0E2E2E2E2E2E2E2E2E2E2E2E2E2E2E2E2E2E2E2C3C3E2E2E2E22D2DBE2D2DBEE2E2E2E2BEE2E2E2BEDCDCDCE2DCE2E2E2E2E2E2E2E2E2E2E2E2E2E2E2E2E2E2E2
310
E2E2E2E2E2E2F0E2E2E2E2E2E2E2E2E2E2E2E2E2E2E2E2E2E2E2C3C3E2E2E2E22D2DBE2D2DE2E2E2E2E2BEE2E2E2E2E2DCDCE2DCDCE2E2E2E2E2E2E2E2E2E2E2E2E2E2E2E2E2E2E2E2E2E2E2E2F0E2E2E2E2E2E2E2E2E2E2E2E2E2E2E2E2E2E2E2E2E2E2E2E2E2E2E2E2E2E2E2E2E2E2E2E2E2E2E2E2E2E2E2E2E2E2E2E2E2
310
E2E2E2E2E2E2E2E2E2E2E2E2E2E2E2E2E2E2E2E2E2E2E2E2E2E2E2E2E2E2E2E2E2E2E2E2E2E2E2E2E2E2E2E2E2E2E2E2E2E2E2E2E2E2E2E2E2E2E2E2E2E2E2E2F0E2E2E2E2E2E2E2E2E2E2E2E2E2E2E2E2E2E2E2C3C3E2E2E2DCDC2DBEBE2DBEDCDCDCDCBEDCDCDCBEE2E2DCDCDCDCE2E2E2E2E2E2E2E2E2E2E2E2E2E2E2E2
310
E2E2E2E2E2E2E2E2F0E2E2E2E2E2E2E2E2E2E2E2E2E2E2E2E2E2E2E2C3C3E2E2E2DCDC2DDCBE2D2DDCDCDCDCBEDCDCDCDCE2E2DCDCE2DCDCE2E2E2E2E2E2E2E2E2E2E2E2E2E2E2E2E2E2E2E2E2E2E2F0E2E2E2E2E2E2E2E2E2E2E2E2E2E2E2E2E2E2E2E2E2E2E2E2E2E2E2E2E2E2E2E2E2E2E2E2E2E2E2E2E2E2E2E2E2E2E2
310
E2E2E2E2E2E2E2E2E2E2E2E2E2E2E2E2E2E2E2E2E2E2E2E2E2E2E2E2E2E2E2E2E2E2E2E2E2E2E2E2E2E2E2E2E2E2E2E2E2E2E2E2E2E2E2E2E2E2E2E2E2E2E2E2E2E2F0E2E2E2E2E2E2E2E2E2E2E2E2E2E2E2E2E2E2E2C3C3E2E2DCDCDC2D2DBEBE2DDCDCE2E2BEE2DCDCDCBEDCE2E2DCDCDCE2E2E2E2E2E2E2E2E2E2E2E2E2
310
E2E2E2E2E2E2E2E2E2E2F0E2E2E2E2E2E2E2E2E2E2E2E2E2E2E2E2E2E2E2C3C3E2E2DCE2DC2D2DBEDC2DDCDCE2E2BEE2E2DCDCDCDCE2E2DCDCDCE2E2E2E2E2E2E2E2E2E2E2E2E2E2E2E2E2E2E2E2E2E2E2F0E2E2E2E2E2E2E2E2E2E2E2E2E2E2E2E2E2E2E2E2E2E2E2E2E2E2E2E2E2E2E2E2E2E2E2E2E2E2E2E2E2E2E2E2E2
310
E2E2E2E2E2E2E2E2E2E2E2E2E2E2E2E2E2E2E2E2E2E2E2E2E2E2E2E2E2E2E2E2E2E2E2E2E2E2E2E2E2E2E2E2E2E2E2E2E2E2E2E2E2E2E2E2E2E2E2E2E2E2E2E2E2E2E2E2F0E2E2E2E2E2E2E2E2E2E2E2E2E2E2E2E2E2E2E2C3C3E2DCDCDCE2E22DBEBEE2E2E2E2E2BEE2E2E2E2DCBEDCE2E2DCDCDCE2E2E2E2E2E2E2E2E2E2
310
E2E2E2E2E2E2E2E2E2E2E2E2F0E2E2E2E2E2E2E2E2E2E2E2E2E2E2E2E2E2E2E2C3C3E2DCDCDCE2E22D2DBEE2E2E2E2E2BEE2E2E2E2DCDCDCE2E2DCDCDCE2E2E2E2E2E2E2E2E2E2E2E2E2E2E2E2E2E2E2E2E2E2F0E2E2E2E2E2E2E2E2E2E2E2E2E2E2E2E2E2E2E2E2E2E2E2E2E2E2E2E2E2E2E2E2E2E2E2E2E2E2E2E2E2E2E2
310
E2E2E2E2E2E2E2E2E2E2E2E2E2E2E2E2E2E2E2E2E2E2E2E2E2E2E2E2E2E2E2E2E2E2E2E2E2E2E2E2E2E2E2E2E2E2E2E2E2E2E2E2E2E2E2E2E2E2E2E2E2E2E2E2E2E2E2E2E2E2F0E2E2E2E2E2E2E2E2E2E2E2E2E2E2E2E2E2E2E2C3C3DCDCDCE2E2DC2DBEE2E2E2E2E2E2BEE2E2E2E2E2BEDCDCE2E2DCDCDCE2E2E2E2E2E2E2
310
E2E2E2E2E2E2E2E2E2E2E2E2E2E2F0E2E2E2E2E2E2E2E2E2E2E2E2E2E2E2E2E2E2E2C3C3DCDCDCE2E2DCDC2DE2E2E2E2E2E2BEE2E2E2E2E2E2DCDCDCE2DCDCDCE2E2E2E2E2E2E2E2E2E2E2E2E2E2E2E2E2E2E2E2E2F0E2E2E2E2E2E2E2E2E2E2E2E2E2E2E2E2E2E2E2E2E2E2E2E2E2E2E2E2E2E2E2E2E2E2E2E2E2E2E2E2E2
310
E2E2E2E2E2E2E2E2E2E2E2E2E2E2E2E2E2E2E2E2E2E2E2E2E2E2E2E2E2E2E2E2E2E2E2E2E2E2E2E2E2E2E2E2E2E2E2E2E2E2E2E2E2E2E2E2E2E2E2E2E2E2E2E2E2E2E2E2E2E2E2E2F0E2E2E2E2E2E2E2E2E2E2E2E2E2E2E2E2E2E2E2C3C3DCDCDCE2DCDCBEE2E2E2E2E2E2E2BEE2E2E2E2E2E2BEDCDCE2DCDCDCDCE2E2E2E2
310
E2E2E2E2E2E2E2E2E2E2E2E2E2E2E2E2F0E2E2E2E2E2E2E2E2E2E2E2E2E2E2E2E2E2E2E2C3C3DCDCDCE2DCDCE2E2E2E2E2E2E2E2BEE2E2E2E2E2E2E2DCDCE2E2DCDCDCE2E2E2E2E2E2E2E2E2E2E2E2E2E2E2E2E2E2E2E2F0E2E2E2E2E2E2E2E2E2E2E2E2E2E2E2E2E2E2E2E2E2E2E2E2E2E2E2E2E2E2E2E2E2E2E2E2E2E2E2
310
E2E2E2E2E2E2E2E2E2E2E2E2E2E2E2E2E2E2E2E2E2E2E2E2E2E2E2E2E2E2E2E2E2E2E2E2E2E2E2E2E2E2E2E2E2E2E2E2E2E2E2E2E2E2E2E2E2E2E2E2E2E2E2E2E2E2E2E2E2E2E2E2E2E2F0E2E2E2E2E2E2E2E2E2E2E2E2E2E2E2E2E2E2E2C3C3DCDCE2DCDCBEE2E2E2E2E2E2E2E2BEE2E2E2E2E2E2E2BEDCDCE2DCDCDCE2E2
310
E2E2E2E2E2E2E2E2E2E2E2E2E2E2E2E2E2E2F0E2E2E2E2E2E2E2E2E2E2E2E2E2E2E2E2E2E2E2C3C3DCDCE2DCDCDCE2E2E2E2E2E2E2E2BEE2E2E2E2E2E2E2E2DCDCE2DCDCDCE2E2E2E2E2E2E2E2E2E2E2E2E2E2E2E2E2E2E2E2F0E2E2E2E2E2E2E2E2E2E2E2E2E2E2E2E2E2E2E2E2E2E2E2E2E2E2E2E2E2E2E2E2E2E2E2E2E2
310
E2E2E2E2E2E2E2E2E2E2E2E2E2E2E2E2E2E2E2E2E2E2E2E2E2E2E2E2E2E2E2E2E2E2E2E2E2E2E2E2E2E2E2E2E2E2E2E2E2E2E2E2E2E2E2E2E2E2E2E2E2E2E2E2E2E2E2E2E2E2E2E2E2E2E2E2F0E2E2E2E2E2E2E2E2E2E2E2E2E2E2E2E2E2E2E2C3C3DCE2DCDCDCBEE2E2E2E2E2E2E2E2BEE2E2E2E2E2E2E2BEDCDCDCE2DCDC
310
E2E2E2E2E2E2E2E2E2E2E2E2E2E2E2E2E2E2E2E2F0E2E2E2E2E2E2E2E2E2E2E2E2E2E2E2E2E2E2E2C3C3DCDCE2DCDCE2E2E2E2E2E2E2E2E2BEE2E2E2E2E2E2E2E2E2DCDCE2DCDCDCE2E2E2E2E2E2E2E2E2E2E2E2E2E2E2E2E2E2E2F0E2E2E2E2E2E2E2E2E2E2E2E2E2E2E2E2E2E2E2E2E2E2E2E2E2E2E2E2E2E2E2E2E2E2E2
310
E2E2E2E2E2E2E2E2E2E2E2E2E2E2E2E2E2E2E2E2E2E2E2E2E2E2E2E2E2E2E2E2E2E2E2E2E2E2E2E2E2E2E2E2E2E2E2E2E2E2E2E2E2E2E2E2E2E2E2E2E2E2E2E2E2E2E2E2E2E2E2E2E2E2E2E2E2E2F0E2E2E2E2E2E2E2E2E2E2E2E2E2E2E2E2E2E2E2C3C3DCE2DCDCBEE2E2E2E2E2E2E2E2E2BEE2E2E2E2E2E2E2E2BEDCDCE2
310
DCE2DCE2E2E2E2E2E2E2E2E2E2E2E2E2E2E2E2E2E2E2F0E2E2E2E2E2E2E2E2E2E2E2E2E2E2E2E2E2E2E2C3C3DCE2DCDCE2E2E2E2E2E2E2E2E2E2BEE2E2E2E2E2E2E2E2E2DCDCE2DCDCDCE2E2E2E2E2E2E2E2E2E2E2E2E2E2E2E2E2E2E2F0E2E2E2E2E2E2E2E2E2E2E2E2E2E2E2E2E2E2E2E2E2E2E2E2E2E2E2E2E2E2E2E2E2
310
E2E2E2E2E2E2E2E2E2E2E2E2E2E2E2E2E2E2E2E2E2E2E2E2E2E2E2E2E2E2E2E2E2E2E2E2E2E2E2E2E2E2E2E2E2E2E2E2E2E2E2E2E2E2E2E2E2E2E2E2E2E2E2E2E2E2E2E2E2E2E2E2E2E2E2E2E2E2E2E2F0E2E2E2E2E2E2E2E2E2E2E2E2E2E2E2C3E2E2E2C3C3DCE2DCBEE2E2E2E2E2E2E2E2E2E2BEE2E2E2E2E2E2E2E2E2BE
310
DCE2DCDCDCE2E2E2E2E2E2E2E2E2E2E2E2E2E2E2E2E2E2E2F0E2E2E2E2E2E2E2E2E2E2E2E2E2E2E2C3E2E2E2C3C3DCE2DCDCE2E2E2E2E2E2E2E2E2E2BEE2E2E2E2E2E2E2E2E2E2DCE2E2DCDCE2E2E2E2E2E2E2E2E2E2E2E2E2E2E2E2E2E2E2F0E2E2E2E2E2E2E2E2E2E2E2E2E2E2E2E2E2E2E2E2E2E2E2E2E2E2E2E2E2E2E2
310
E2E2E2E2E2E2E2E2E2E2E2E2E2E2E2E2E2E2E2E2E2E2E2E2E2E2E2E2E2E2E2E2E2E2E2E2E2E2E2E2E2E2E2E2E2E2E2E2E2E2E2E2E2E2E2E2E2E2E2E2E2E2E2E2E2E2E2E2E2E2E2E2E2E2E2E2E2E2E2E2E2E2F0E2E2E2E2E2E2E2E2E2E2E2E2E2E2E2C3E2E2E2C3C3E2DCDCBEE2E2E2E2E2E2E2E2E2E2BEE2E2E2E2E2E2E2E2
310
E2BEDCDCE2DCDCE2E2E2E2E2E2E2E2E2E2E2E2E2E2E2E2E2E2E2F0E2E2E2E2E2E2E2E2E2E2E2E2E2E2E2C3E2E2E2C3C3E2E2DCE2E2E2E2E2E2E2E2E2E2E2BEE2E2E2E2E2E2E2E2E2E2DCDCE2DCDCE2E2E2E2E2E2E2E2E2E2E2E2E2E2E2E2E2E2E2F0E2E2E2E2E2E2E2E2E2E2E2E2E2E2E2E2E2E2E2E2E2E2E2E2E2E2E2E2E2
310
E2E2E2E2E2E2E2E2E2E2E2E2E2E2E2E2E2E2E2E2E2E2E2E2E2E2E2E2E2E2E2E2E2E2E2E2E2E2E2E2E2E2E2E2E2E2E2E2E2E2E2E2E2E2E2E2E2E2E2E2E2E2E2E2E2E2E2E2E2E2E2E2E2E2E2E2E2E2E2E2E2E2E2E2F0E2E2E2E2E2E2E2E2E2E2E2E2E2E2E2C3E2E2E2C3C3E2DCBEE2E2E2E2E2E2E2E2E2E2E2BEE2E2E2E2E2E2
310
E2E2E2E2BE2D2D2D2DE2E2E2E2E2E2E2E2E2E2E2E2E2E2E2E2E2E2E2F0E2E2E2E2E2E2E2E2E2E2E2E2E2E2E2C3E2E2E2C3C3E2DCDCE2E2E2E2E2E2E2E2E2E2E2BEE2E2E2E2E2E2E2E2E2E22D2D2D2D2D2DE2E2E2E2E2E2E2E2E2E2E2E2E2E2E2E2E2E2F0E2E2E2E2E2E2E2E2E2E2E2E2E2E2E2E2E2E2E2E2E2E2E2E2E2E2E2
310
E2E2E2E2E2E2E2E2E2E2E2E2E2E2E2E2E2E2E2E2E2E2E2E2E2E2E2E2E2E2E2E2E2E2E2E2E2E2E2E2E2E2E2E2E2E2E2E2E2E2E2E2E2E2E2E2E2E2E2E2E2E2E2E2E2E2E2E2E2E2E2E2E2E2E2E2E2E2E2E2E2E2E2E2E2E2F0E2E2E2E2E2E2E2E2E2E2E2E2E2E2E2C3C3C3C3C3C3E2BEDCE2E2E2E2E2E2E2E2E2E2E2BEE2E2E2E2
310
E2E2E2E2E2E22DBE2D2D2DE2E2E2E2E2E2E2E2E2E2E2E2E2E2E2E2E2E2E2F0E2E2E2E2E2E2E2E2E2E2E2E2E2E2E2C3C3C3C3C3C3E2DCDCE2E2E2E2E2E2E2E2E2E2E2BEE2E2E2E2E2E2E2E2E2E22D2D2D2D2D2DE2E2E2E2E2E2E2E2E2E2E2E2E2E2E2E2E2E2F0E2E2E2E2E2E2E2E2E2E2E2E2E2E2E2E2E2E2E2E2E2E2E2E2E2
310
E2E2E2E2E2E2E2E2E2E2E2E2E2E2E2E2E2E2E2E2E2E2E2E2E2E2E2E2E2E2E2E2E2E2E2E2E2E2E2E2E2E2E2E2E2E2E2E2E2E2E2E2E2E2E2E2E2E2E2E2E2E2E2E2E2E2E2E2E2E2E2E2E2E2E2E2E2E2E2E2E2E2E2E2E2E2E2E2F0E2E2E2E2E2E2E2E2E2E2E2E2E2282828E2E2BEBEDCBEBEBEBEBEBEBEBEBEBEBEBEBEBEBEBEBE
310
BEBEBEBEBEBEBEBEBEBEBEBEBEBEE2E2E2E2E2E2E2E2E2E2E2E2E2E2E2E2E2E2F0E2E2E2E2E2E2E2E2E2E2E2E2E2E22828E2E2BEBEDCBEBEBEE2BEBEBEBEBEBEBEBEBEBEBEBEBEBEBEBEBEBEE2BEBEBEBEBEBEBEBEE2E2E2E2E2E2E2E2E2E2E2E2E2E2E2E2E2E2F0E2E2E2E2E2E2E2E2E2E2E2E2E2E2E2E2E2E2E2E2E2E2E2
310
E2E2E2E2E2E2E2E2E2E2E2E2E2E2E2E2E2E2E2E2E2E2E2E2E2E2E2E2E2E2E2E2E2E2E2E2E2E2E2E2E2E2E2E2E2E2E2E2E2E2E2E2E2E2E2E2E2E2E2E2E2E2E2E2E2E2E2E2E2E2E2E2E2E2E2E2E2E2E2E2E2E2E2E2E2E2E2E2E2E2F0E2E2E2E2E2E2E2E2E2E2E2E2E22828C3C3C3C3C3DCBEDCDCE2E2E2E2E2E2E2E2E2E2E2BE
310
E2E2E2E2E2E2E2E2E2E22D2DBE2D2DE2E2E2E2E2E2E2E2E2E2E2E2E2E2E2E2E2E2E2F0E2E2E2E2E2E2E2E2E2E2E2E2E2282828C3C3C3C3DCE2DCDCE2E2E2E2E2E2E2E2E2E2E2BEE2E2E2E2E2E2E2E2E2E22D2D2D2D2D2DE2E2E2E2E2E2E2E2E2E2E2E2E2E2E2E2E2E2F0E2E2E2E2E2E2E2E2E2E2E2E2E2E2E2E2E2E2E2E2E2
310
E2E2E2E2E2E2E2E2E2E2E2E2E2E2E2E2E2E2E2E2E2E2E2E2E2E2E2E2E2E2E2E2E2E2E2E2E2E2E2E2E2E2E2E2E2E2E2E2E2E2E2E2E2E2E2E2E2E2E2E2E2E2E2E2E2E2E2E2E2E2E2E2E2E2E2E2E2E2E2E2E2E2E2E2E2E2E2E2E2E2E2E2F0E2E2E2E2E2E2E2E2E2E2E2E2E22828C3E2E2E2DCBEE2DCDCE2E2E2E2E2E2E2E2E2E2
310
E2BEE2E2E2E2E2E2E2E2E2E2DCDCE2BEDCE2E2E2E2E2E2E2E2E2E2E2E2E2E2E2E2E2E2E2F0E2E2E2E2E2E2E2E2E2E2E2E2E22828C3E2E2E2DCDCE2DCDCE2E2E2E2E2E2E2E2E2E2E2BEE2E2E2E2E2E2E2E2E2E2DCDCE2DCDCDCE2E2E2E2E2E2E2E2E2E2E2E2E2E2E2E2E2E2F0E2E2E2E2E2E2E2E2E2E2E2E2E2E2E2E2E2E2E2
310
E2E2E2E2E2E2E2E2E2E2E2E2E2E2E2E2E2E2E2E2E2E2E2E2E2E2E2E2E2E2E2E2E2E2E2E2E2E2E2E2E2E2E2E2E2E2E2E2E2E2E2E2E2E2E2E2E2E2E2E2E2E2E2E2E2E2E2E2E2E2E2E2E2E2E2E2E2E2E2E2E2E2E2E2E2E2E2E2E2E2E2E2E2E2F0E2E2E2E2E2E2E2E2E2E2E2E2E2E228C3E2E2E2BEDCE2DCDCE2E2E2E2E2E2E2E2
310
E2E2E2BEE2E2E2E2E2E2E2E2E2E2DCDCE2DCBEE2E2E2E2E2E2E2E2E2E2E2E2E2E2E2E2E2E2E2F0E2E2E2E2E2E2E2E2E2E2E2E2E2E22828E2E2E2DCDCE2E2DCE2E2E2E2E2E2E2E2E2E2E2BEE2E2E2E2E2E2E2E2E2E2DCDCE2DCDCE2E2E2E2E2E2E2E2E2E2E2E2E2E2E2E2E2E2E2F0E2E2E2E2E2E2E2E2E2E2E2E2E2E2E2E2E2
310
E2E2E2E2E2E2E2E2E2E2E2E2E2E2E2E2E2E2E2E2E2E2E2E2E2E2E2E2E2E2E2E2E2E2E2E2E2E2E2E2E2E2E2E2E2E2E2E2E2E2E2E2E2E2E2E2E2E2E2E2E2E2E2E2E2E2E2E2E2E2E2E2E2E2E2E2E2E2E2E2E2E2E2E2E2E2E2E2E2E2E2E2E2E2E2E2F0E2E2E2E2E2E2E2E2E2E2E2E2E2E228E2E2E2E2BEDCDCE2DCDCE2E2E2E2E2
310
E2E2E2E2E2BEE2E2E2E2E2E2E2E2E2DCDCE2DCDCBEE2E2E2E2E2E2E2E2E2E2E2E2E2E2E2E2E2E2E2F0E2E2E2E2E2E2E2E2E2E2E2E2E2E22828E2E2E2DCE2DCE2DCDCE2E2E2E2E2E2E2E2E2E2BEE2E2E2E2E2E2E2E2E2E2DCE2E2DCDCE2E2E2E2E2E2E2E2E2E2E2E2E2E2E2E2E2E2E2F0E2E2E2E2E2E2E2E2E2E2E2E2E2E2E2
310
E2E2E2E2E2E2E2E2E2E2E2E2E2E2E2E2E2E2E2E2E2E2E2E2E2E2E2E2E2E2E2E2E2E2E2E2E2E2E2E2E2E2E2E2E2E2E2E2E2E2E2E2E2E2E2E2E2E2E2E2E2E2E2E2E2E2E2E2E2E2E2E2E2E2E2E2E2E2E2E2E2E2E2E2E2E2E2E2E2E2E2E2E2E2E2E2E2E2F0E2E2E2E2E2E2E2E2E2E2E2E2E2E228E2E2E2BEDCDCDCE2DCDCE2E2E2
310
E2E2E2E2E2E2E2BEE2E2E2E2E2E2E2E2E2DCDCE2DCDCDCBEE2E2E2E2E2E2E2E2E2E2E2E2E2E2E2E2E2E2F0E2E2E2E2E2E2E2E2E2E2E2E2E2E22828E2E2E2E2DCDCE2DCDCE2E2E2E2E2E2E2E2E2E2BEE2E2E2E2E2E2E2E2E2DCDCE2DCDCDCE2E2E2E2E2E2E2E2E2E2E2E2E2E2E2E2E2E2E2F0E2E2E2E2E2E2E2E2E2E2E2E2E2
310
E2E2E2E2E2E2E2E2E2E2E2E2E2E2E2E2E2E2E2E2E2E2E2E2E2E2E2E2E2E2E2E2E2E2E2E2E2E2E2E2E2E2E2E2E2E2E2E2E2E2E2E2E2E2E2E2E2E2E2E2E2E2E2E2E2E2E2E2E2E2E2E2E2E2E2E2E2E2E2E2E2E2E2E2E2E2E2E2E2E2E2E2E2E2E2E2E2E2E2E2F0E2E2E2E2E2E2E2E2E2E2E2E2E2E228E2E2BEE2E2DCDCE2E2DCDC
310
E2E2E2E2E2E2E2E2E2BEE2E2E2E2E2E2E2E2DCDCE2E2DCDCE2E2BEE2E2E2E2E2E2E2E2E2E2E2E2E2E2E2E2E2F0E2E2E2E2E2E2E2E2E2E2E2E2E2E22828E2E2E2E2DCDCDCE2DCDCE2E2E2E2E2E2E2E2E2BEE2E2E2E2E2E2E2E2E2DCDCE2DCDCDCE2E2E2E2E2E2E2E2E2E2E2E2E2E2E2E2E2E2E2F0E2E2E2E2E2E2E2E2E2E2E2
310
E2E2E2E2E2E2E2E2E2E2E2E2E2E2E2E2E2E2E2E2E2E2E2E2E2E2E2E2E2E2E2E2E2E2E2E2E2E2E2E2E2E2E2E2E2E2E2E2E2E2E2E2E2E2E2E2E2E2E2E2E2E2E2E2E2E2E2E2E2E2E2E2E2E2E2E2E2E2E2E2E2E2E2E2E2E2E2E2E2E2E2E2E2E2E2E2E2E2E2E2E2E2F0E2E2E2E2E2E2E2E2E2E2E2E2E2E228E2E2BEE2E2DCE2DCE2
310
DCDCE2E2E2E2E2E2E2E2E2BEE2E2E2E2E2E2E2E2DCDCE2DCE2DCE2E2BEE2E2E2E2E2E2E2E2E2E2E2E2E2E2E2E2E2F0E2E2E2E2E2E2E2E2E2E2E2E2E2E228E2E2E2E2E2DCDCDCE2DCDCDCE2E2E2E2E2E2E2E2BEE2E2E2E2E2E2E2E2DCDCE2DCDCDCE2E2E2E2E2E2E2E2E2E2E2E2E2E2E2E2E2E2E2E2F0E2E2E2E2E2E2E2E2E2
310
E2E2E2E2E2E2E2E2E2E2E2E2E2E2E2E2E2E2E2E2E2E2E2E2E2E2E2E2E2E2E2E2E2E2E2E2E2E2E2E2E2E2E2E2E2E2E2E2E2E2E2E2E2E2E2E2E2E2E2E2E2E2E2E2E2E2E2E2E2E2E2E2E2E2E2E2E2E2E2E2E2E2E2E2E2E2E2E2E2E2E2E2E2E2E2E2E2E2E2E2E2E2E2E2F0E2E2E2E2E2E2E2E2E2E2E2E2E2E2E2E2BEE2E2E2E2DC
310
DCDCE2DCDCE2E2E2E2E2E2E2E2BEE2E2E2E2E2E2E2DCDCE2DCDCDCE2E2E2E2BEE2E2E2E2E2E2E2E2E2E2E2E2E2E2E2E2F0E2E2E2E2E2E2E2E2E2E2E2E2E2E2E2E2E2E2E2E2E2DCDCDCE2DCDCDCE2E2E2E2E2E2E2BEE2E2E2E2E2E2E2DCDCE2E2DCDCDCE2E2E2E2E2E2E2E2E2E2E2E2E2E2E2E2E2E2E2E2F0E2E2E2E2E2E2E2
310
E2E2E2E2E2E2E2E2E2E2E2E2E2E2E2E2E2E2E2E2E2E2E2E2E2E2E2E2E2E2E2E2E2E2E2E2E2E2E2E2E2E2E2E2E2E2E2E2E2E2E2E2E2E2E2E2E2E2E2E2E2E2E2E2E2E2E2E2E2E2E2E2E2E2E2E2E2E2E2E2E2E2E2E2E2E2E2E2E2E2E2E2E2E2E2E2E2E2E2E2E2E2E2E2E2E2F0E2E2E2E2E2E2E2E2E2E2E2E2E2E2E2BEE2E2E2E2
310
E2DCDCDCE2E2DC2D2DBEE2E2E2E2E2BEE2E2E2E2E2DCDCDCE2E2DCDCDCE2E2E2E2E2BEE2E2E2E2E2E2E2E2E2E2E2E2E2E2E2F0E2E2E2E2E2E2E2E2E2E2E2E2E2E2E2E2E2E2E2E2E2DCDCDCDCE2DCDC2DBEE2E2E2E2E2BEE2E2E2E2E2E2DCDCDCE2DCE2DCE2E2E2E2E2E2E2E2E2E2E2E2E2E2E2E2E2E2E2E2E2F0E2E2E2E2E2
310
E2E2E2E2E2E2E2E2E2E2E2E2E2E2E2E2E2E2E2E2E2E2E2E2E2E2E2E2E2E2E2E2E2E2E2E2E2E2E2E2E2E2E2E2E2E2E2E2E2E2E2E2E2E2E2E2E2E2E2E2E2E2E2E2E2E2E2E2E2E2E2E2E2E2E2E2E2E2E2E2E2E2E2E2E2E2E2E2E2E2E2E2E2E2E2E2E2E2E2E2E2E2E2E2E2E2E2E2F0E2E2E2E2E2E2E2E2E2E2E2E2E2E2E2BEE2E2
310
E2E2E2E2DCDCDCE2E22DDCBEE2E2E2E2E2BEE2E2E2E2DCDCDCE2E2DCDCDCE2E2E2E2E2E2BEE2E2E2E2E2E2E2E2E2E2E2E2E2E2E2F0E2E2E2E2E2E2E2E2E2E2E2E2E2E2E2E2E2E2E2E2E2E2DCDCDCE2E22DDCBEE2E2E2E2E2BEE2E2E2E2DCDCDCE2E2DCDCDCE2E2E2E2E2E2E2E2E2E2E2E2E2E2E2E2E2E2E2E2E2E2F0E2E2E2
310
E2E2E2E2E2E2E2E2E2E2E2E2E2E2E2E2E2E2E2E2E2E2E2E2E2E2E2E2E2E2E2E2E2E2E2E2E2E2E2E2E2E2E2E2E2E2E2E2E2E2E2E2E2E2E2E2E2E2E2E2E2E2E2E2E2E2E2E2E2E2E2E2E2E2E2E2E2E2E2E2E2E2E2E2E2E2E2E2E2E2E2E2E2E2E2E2E2E2E2E2E2E2E2E2E2E2E2E2E2E2F0E2E2E2E2E2E2E2E2E2E2E2E2E2E2BEE2
310
E2E2E2E2E2E2E2DCDCDC2D2DBE2D2DDCDCDCE2BEDCDCDCDCDCDCE2DCDCDCC3E2E2E2E2E2E2E2E2BEE2E2E2E2E2E2E2E2E2E2E2E2E2E2F0E2E2E2E2E2E2E2E2E2E2E2E2E2E2E2E2E2E2E2E2E2E2E2DCDCDC2D2DBEDC2DDCDCDCE2BEE2DCDCDCDCDCE2E2DCDCDCE2E2E2E2E2E2E2E2E2E2E2E2E2E2E2E2E2E2E2E2E2E2E2F0E2
310
E2E2E2E2E2E2E2E2E2E2E2E2E2E2E2E2E2E2E2E2E2E2E2E2E2E2E2E2E2E2E2E2E2E2E2E2E2E2E2E2E2E2E2E2E2E2E2E2E2E2E2E2E2E2E2E2E2E2E2E2E2E2E2E2E2E2E2E2E2E2E2E2E2E2E2E2E2E2E2E2E2E2E2E2E2E2E2E2E2E2E2E2E2E2E2E2E2E2E2E2E2E2E2E2E2E2E2E2E2E2E2E2F0E2E2E2E2E2E2E2E2E2E2E2E2E2BE
310
E2E2E2E2E2E2E2E2E2E2DCDC2DBEBE2DDCDCDCDCDCBEDCDCDCDCE2E2DCDCDCDCC3C3E2E2E2E2E2E2E2E2BEE2E2E2E2E2E2E2E2E2E2E2E2E2F0E2E2E2E2E2E2E2E2E2E2E2E2E2E2E2E2E2E2E2E2E2E2E2E2DCDC2DBEBE2D2DDCDCDCDCBEDCDCDCDCE2E2DCDCE2DCC3C3E2E2E2E2E2E2E2E2E2E2E2E2E2E2E2E2E2E2E2E2E2E2
310
F0E2E2E2E2E2E2E2E2E2E2E2E2E2E2E2E2E2E2E2E2E2E2E2E2E2E2E2E2E2E2E2E2E2E2E2E2E2E2E2E2E2E2E2E2E2E2E2E2E2E2E2E2E2E2E2E2E2E2E2E2E2E2E2E2E2E2E2E2E2E2E2E2E2E2E2E2E2E2E2E2E2E2E2E2E2E2E2E2E2E2E2E2E2E2E2E2E2E2E2E2E2E2E2E2E2E2E2E2E2E2E2E2E2F0E2E2E2E2E2E2E2E2E2E2E2E2
310
E2BEE2E2E2E2E2E2E2E2E2E2E22D2DBE2D2DE2E2E2E2E2BEE2E2E2E2DCDCDCE2DCE2E2C3E2E2E2E2E2E2E2E2BEE2E2E2E2E2E2E2E2E2E2E2E2E2F0E2E2E2E2E2E2E2E2E2E2E2E2E2E2E2E2E2E2E2E2E2E2E2E2E22D2DBE2D2DE2E2E2E2E2BEE2E2E2E2DCDCDCE2DCE2E2C3E2E2E2E2E2E2E2E2E2E2E2E2E2E2E2E2E2E2E2E2
310
E2E2F0E2E2E2E2E2E2E2E2E2E2E2E2E2E2E2E2E2E2E2E2E2E2E2E2E2E2E2E2E2E2E2E2E2E2E2E2E2E2E2E2E2E2E2E2E2E2E2E2E2E2E2E2E2E2E2E2E2E2E2E2E2E2E2E2E2E2E2E2E2E2E2E2E2E2E2E2E2E2E2E2E2E2E2E2E2E2E2E2E2E2E2E2E2E2E2E2E2E2E2E2E2E2E2E2E2E2E2E2E2E2E2E2E2F0E2E2E2E2E2E2E2E2E2E2
310
E2E2BEE2E2E2E2E2E2E2E2E2E2E2E2E2BEDC2DDCDCDCDCDCDCBEDCDCDCDCDCDCE2E2E2E2E2E2C3E2E2E2E2E2E2E2E2BEE2E2E2E2E2E2E2E2E2E2E2E2F0E2E2E2E2E2E2E2E2E2E2E2E2E2E2E2E2E2E2E2E2E2E2E2E2E2E2BEDC2DE2DCDCDCDCDCBEDCDCDCDCDCDCE2E2E2E2E2E2C3E2E2E2E2E2E2E2E2E2E2E2E2E2E2E2E2E2
310
E2E2E2E2F0E2E2E2E2E2E2E2E2E2E2E2E2E2E2E2E2E2E2E2E2E2E2E2E2E2E2E2E2E2E2E2E2E2E2E2E2E2E2E2E2E2E2E2E2E2E2E2E2E2E2E2E2E2E2E2E2E2E2E2E2E2E2E2E2E2E2E2E2E2E2E2E2E2E2E2E2E2E2E2E2E2E2E2E2E2E2E2E2E2E2E2E2E2E2E2E2E2E2E2E2E2E2E2E2E2E2E2E2E2E2E2E2E2F0E2E2E2E2E2E2E2E2
310
E2E2E2BEE2E2E2E2E2E2E2E2E2E2E2E2E2E2E2E2DCDCDCDCE2E2E2BEE2E2DCDCDCDCE2E2E2E2E2E2E2C3E2E2E2E2E2E2E2E2BEE2E2E2E2E2E2E2E2E2E2E2F0E2E2E2E2E2E2E2E2E2E2E2E2E2E2E2E2E2E2E2E2E2E2E2E2E2E2E2E2E2DCDCDCDCE2E2BEE2E2DCDCDCDCE2E2E2E2E2E2E2C3C3E2E2E2E2E2E2E2E2E2E2E2E2E2
310
E2E2E2E2E2E2F0E2E2E2E2E2E2E2E2E2E2E2E2E2E2E2E2E2E2E2E2E2E2E2E2E2E2E2E2E2E2E2E2E2E2E2E2E2E2E2E2E2E2E2E2E2E2E2E2E2E2E2E2E2E2E2E2E2E2E2E2E2E2E2E2E2E2E2E2E2E2E2E2E2E2E2E2E2E2E2E2E2E2E2E2E2E2E2E2E2E2E2E2E2E2E2E2E2E2E2E2E2E2E2E2E2E2E2E2E2E2E2E2E2F0E2E2E2E2E2E2
310
E2E2E2E2E2BEE2E2E2E2E2E2E2E2E2E2E2E2E2E2E2E2E2E2E2E2DCDCDCBEDCDCE2E2E2E2E2E2E2E2E2E2E2E2C3E2E2E2E2E2E2E2BEE2E2E2E2E2E2E2E2E2E2E2F0E2E2E2E2E2E2E2E2E2E2E2E2E2E2E2E2E2E2E2E2E2E2E2E2E2E2E2E2E2E2E2E2DCDCDCBEDCDCE2E2E2E2E2E2E2E2E2E2E2E2E2C3E2E2E2E2E2E2E2E2E2E2
310
E2E2E2E2E2E2E2E2F0E2E2E2E2E2E2E2E2E2E2E2E2E2E2E2E2E2E2E2E2E2E2E2E2E2E2E2E2E2E2E2E2E2E2E2E2E2E2E2E2E2E2E2E2E2E2E2E2E2E2E2E2E2E2E2E2E2E2E2E2E2E2E2E2E2E2E2E2E2E2E2E2E2E2E2E2E2E2E2E2E2E2E2E2E2E2E2E2E2E2E2E2E2E2E2E2E2E2E2E2E2E2E2E2E2E2E2E2E2E2E2E2E2F0E2E2E2E2
310
E2E2E2E2E2E2BEE2E2E2E2E2E2E2E2E2E2E2E2E2E2E2E2E2E2E2E2E2E2E2E2BEE2E2E2E2E2E2E2E2E2E2E2E2E2E2E2C3E2E2E2E2E2E2E2BEE2E2E2E2E2E2E2E2E2E2F0E2E2E2E2E2E2E2E2E2E2E2E2E2E2E2E2E2E2E2E2E2E2E2E2E2E2E2E2E2E2E2E2E2E2E2BEE2E2E2E2E2E2E2E2E2E2E2E2E2E2E2E2C3E2E2E2E2E2E2E2
310
E2E2E2E2E2E2E2E2E2E2F0E2E2E2E2E2E2E2E2E2E2E2E2E2E2E2E2E2E2E2E2E2E2E2E2E2E2E2E2E2E2E2E2E2E2E2E2E2E2E2E2E2E2E2E2E2E2E2E2E2E2E2E2E2E2E2E2E2E2E2E2E2E2E2E2E2E2E2E2E2E2E2E2E2E2E2E2E2E2E2E2E2E2E2E2E2E2E2E2E2E2E2E2E2E2E2E2E2E2E2E2E2E2E2E2E2E2E2E2E2E2E2E2E2F0E2E2
310
E2E2E2E2E2E2E2BEE2E2E2E2E2E2E2E2E2E2E2E2E2E2E2E2E2E2E2E2E2E2E2E2E2E2E2E2E2E2E2E2E2E2E2E2E2E2E2E2E2E2C328E2E2E2E2E2E2BEE2E2E2E2E2E2E2E2E2F0E2E2E2E2E2E2E2E2E2E2E2E2E2E2E2E2E2E2E2E2E2E2E2E2E2E2E2E2E2E2E2E2E2E2E2E2E2E2E2E2E2E2E2E2E2E2E2E2E2E2E2E2E228E2E2E2E2
310
E2E2E2E2E2E2E2E2E2E2E2E2F0E2E2E2E2E2E2E2E2E2E2E2E2E2E2E2E2E2E2E2E2E2E2E2E2E2E2E2E2E2E2E2E2E2E2E2E2E2E2E2E2E2E2E2E2E2E2E2E2E2E2E2E2E2E2E2E2E2E2E2E2E2E2E2E2E2E2E2E2E2E2E2E2E2E2E2E2E2E2E2E2E2E2E2E2E2E2E2E2E2E2E2E2E2E2E2E2E2E2E2E2E2E2E2E2E2E2E2E2E2E2E2E2E2F0
310
E2E2E2E2E2E2E2E2E2BEE2E2E2E2E2E2E2E2E2E2E2E2E2E2E2E2E2E2E2E2E2E2E2E2E2E2E2E2E2E2E2E2E2E2E2E2E2E2E2E2E2E2E228E2E2E2E2E2E2BEE2E2E2E2E2E2E2E2E2F0E2E2E2E2E2E2E2E2E2E2E2E2E2E2E2E2E2E2E2E2E2E2E2E2E2E2E2E2E2E2E2E2E2E2E2E2E2E2E2E2E2E2E2E2E2E2E2E2E2E2E2E2E228E2E2
310
E2E2E2E2E2E2E2E2E2E2E2E2E2E2F0E2E2E2E2E2E2E2E2E2E2E2E2E2E2E2E2E2E2E2E2E2E2E2E2E2E2E2E2E2E2E2E2E2E2E2E2E2E2E2E2E2E2E2E2E2E2E2E2E2E2E2E2E2E2E2E2E2E2E2E2E2E2E2E2E2E2E2E2E2E2E2E2E2E2E2E2E2E2E2E2E2E2E2E2E2E2E2E2E2E2E2E2E2E2E2E2E2E2E2E2E2E2E2E2E2E2E2E2E2E2E2E2
310
E2F0F0F0F0F0F0F0F0F0BEF0F0F0F0F0F0F0F0F0F0F0F0F0F0F0F0F0F0F0F0F0F0F0F0F0F0F0F0F0F0F0F0F0F0F0F0F0F0F0F0F0F0F0F0F0F0F0F0F0F0F0F0BEF0F0F0F0F0F0F0F0F0F0F0F0F0F0F0F0F0F0F0F0F0F0F0F0F0F0F0F0F0F0F0F0F0F0F0F0F0F0F0F0F0F0F0F0F0F0F0F0F0F0F0F0F0F0F0F0F0F0F0F0F0F0F0
310
F0F0F0F0F0F0F0F0F0F0F0F0F0F0F0F0F0E2E2E2E2E2E2E2E2E2E2E2E2E2E2E2E2E2E2E2E2E2E2E2E2E2E2E2E2E2E2E2E2E2E2E2E2E2E2E2E2E2E2E2E2E2E2E2E2E2E2E2E2E2E2E2E2E2E2E2E2E2E2E2E2E2E2E2E2E2E2E2E2E2E2E2E2E2E2E2E2E2E2E2E2E2E2E2E2E2E2E2E2E2E2E2E2E2E2E2E2E2E2E2E2E2E2E2E2E2E2
310
E2E2E2F0E2F5F5E2F0E2F5BEF5F5F5F5E2E2E2E2E2E2E2F0E2F5F5F5F5F5E2E2E2E2E2E2E2F0F5F5F5F5F5E2F0E2E2F5E2E2F0E2E2E2E2E2E2E2E2E2E2E2E2E2E2E2BEE2E2E2E2E2E2E2F0E2E2F5E2F0E2F5F5F5F5F5F5E2E2E2E2E2E2E2F0E2F5F5F5F5F5E2E2E2E2E2E2E2F0F5F5F5F5F5E2F0E2E2F5E2E2F0E2E2E2E2E2
310
E2E2E2E2E2E2E2E2E2E2E2E2E2E2E2E2E2E2F0E2E2E2E2E2E2E2E2E2E2E2E2E2E2E2E2E2E2E2E2E2E2E2E2E2E2E2E2E2E2E2E2E2E2E2E2E2E2E2E2E2E2E2E2E2E2E2E2E2E2E2E2E2E2E2E2E2E2E2E2E2E2E2E2E2E2E2E2E2E2E2E2E2E2E2E2E2E2E2E2E2E2E2E2E2E2E2E2E2E2E2E2E2E2E2E2E2E2E2E2E2E2E2E2E2E2E2E2
310
E2E2E2E2E2F0E2F5F5E2F0E2F5BEF5F5F5F5E2E2E2E2E2E2E2F0E2F5F5F5F5E2E2E2E2E2E2E2E2F0F5F5F5F5F5E2F0E2E2F5E2E2F0E2E2E2E2E2E2E2E2E2E2E2E2E2E2E2BEE2E2E2E2E2E2E2F0E2E2F5E2F0E2F5F5F5F5F5F5E2E2E2E2E2E2E2F0E2F5F5F5F5E2E2E2E2E2E2E2E2F0F5F5F5F5F5E2F0E2E2F5E2E2F0E2E2E2
310
E2E2E2E2E2E2E2E2E2E2E2E2E2E2E2E2E2E2E2E2F0E2E2E2E2E2E2E2E2E2E2E2E2E2E2E2E2E2E2E2E2E2E2E2E2E2E2E2E2E2E2E2E2E2E2E2E2E2E2E2E2E2E2E2E2E2E2E2E2E2E2E2E2E2E2E2E2E2E2E2E2E2E2E2E2E2E2E2E2E2E2E2E2E2E2E2E2E2E2E2E2E2E2E2E2E2E2E2E2E2E2E2E2E2E2E2E2E2E2E2E2E2E2E2E2E2E2
310
E2E2E2E2E2E2E2F0F0F5F5F0F0F0BEF0F0F5F5F0F0F0F0F0F0F0F0F0F0F0F0F0F0F0F0F0F0F0F0F0F0F0F5F5F5F5F5F0F0F0F0F5F0F0F0F0F0F0F0F0F0F0F0F0F0F0F0F0F0F0F0BEF0F0F0F0F0F0F0F0F0F5F0F0F0F0F0F0F5F5F0F0F0F0F0F0F0F0F0F0F0F0F0F0F0F0F0F0F0F0F0F0F0F5F5F5F5F5F0F0F0F0F5F0F0F0F0
310
F0F0F0F0F0F0F0F0F0F0F0F0F0F0F0F0F0F0F0F0F0F0F0E2E2E2E2E2E2E2E2E2E2E2E2E2E2E2E2E2E2E2E2E2E2E2E2E2E2E2E2E2E2E2E2E2E2E2E2E2E2E2E2E2E2E2E2E2E2E2E2E2E2E2E2E2E2E2E2E2E2E2E2E2E2E2E2E2E2E2E2E2E2E2E2E2E2E2E2E2E2E2E2E2E2E2E2E2E2E2E2E2E2E2E2E2E2E2E2E2E2E2E2E2E2E2E2
310
E2E2E2E2E2E2E2E2E2F0E2F5F5E2F0BEF5F5F5F5F5F5F5F5E2E2E2E2E2F0E2F5F5F5F5F5F5E2F5F5F5E2E2F0F5F5F5F5F5F5F0E2E2F5E2E2F0E2E2E2E2E2E2E2E2E2E2E2E2E2E2E2E2E2BEE2E2E2E2E2F0E2E2F5E2F0E2F5F5F5F5F5F5F5F5E2E2E2E2E2F0E2F5F5F5F5F5F5E2F5F5F5E2E2F0F5F5F5F5F5F5F0E2E2F5E2E2
310
F0E2E2E2E2E2E2E2E2E2E2E2E2E2E2E2E2E2E2E2E2E2E2E2F0E2E2E2E2E2E2E2E2E2E2E2E2E2E2E2E2E2E2E2E2E2E2E2E2E2E2E2E2E2E2E2E2E2E2E2E2E2E2E2E2E2E2E2E2E2E2E2E2E2E2E2E2E2E2E2E2E2E2E2E2E2E2E2E2E2E2E2E2E2E2E2E2E2E2E2E2E2E2E2E2E2E2E2E2E2E2E2E2E2E2E2E2E2E2E2E2E2E2E2E2E2E2
310
E2E2E2E2E2E2E2E2E2E2E2F0E2F5F5E2BEE2F5F5F5F5F5F5F5F5F5E2E2E2E2F0E2F5F5F5F5F5F5F5F5F5E2E2E2F0F5F5F5F5F5F5F0E2E2F5E2E2F0E2E2E2E2E2E2E2E2E2E2E2E2E2E2E2E2E2E2BEE2E2E2E2F0E2E2F5E2F0E2F5F5F5F5F5F5F5F5F5E2E2E2E2F0E2F5F5F5F5F5F5F5F5F5E2E2E2F0E2F5F5F5F5F5F0E2E2F5
310
E2E2F0E2E2E2E2E2E2E2E2E2E2E2E2E2E2E2E2E2E2E2E2E2E2E2F0E2E2E2E2E2E2E2E2E2E2E2E2E2E2E2E2E2E2E2E2E2E2E2E2E2E2E2E2E2E2E2E2E2E2E2E2E2E2E2E2E2E2E2E2E2E2E2E2E2E2E2E2E2E2E2E2E2E2E2E2E2E2E2E2E2E2E2E2E2E2E2E2E2E2E2E2E2E2E2E2E2E2E2E2E2E2E2E2E2E2E2E2E2E2E2E2E2E2E2E2
310
E2E2E2E2E2E2E2E2E2E2E2E2E2F0F0F5F5F0BEF0F5F0F5F5F5F5F5F0F0F0F0F0F0F0F0F0F0F0F0F0F0F0F0F0F0F0F0F0F5F5F5F5F5F5F0F0F0F5F0F0F0F0F0F0F0F0F0F0F0F0F0F0F0F0F0F0F0F0F0BEF0F0F0F0F0F0F0F5F0F0F0F5F0F5F5F5F0F5F0F0F0F0F0F0F0F0F0F0F0F0F0F0F0F0F0F0F0F0F0F5F5F5F5F5F5F0F0
310
F0F5F0F0F0F0F0F0F0F0F0F0F0F0F0F0F0F0F0F0F0F0F0F0F0F0F0F0F0E2E2E2E2E2E2E2E2E2E2E2E2E2E2E2E2E2E2E2E2E2E2E2E2E2E2E2E2E2E2E2E2E2E2E2E2E2E2E2E2E2E2E2E2E2E2E2E2E2E2E2E2E2E2E2E2E2E2E2E2E2E2E2E2E2E2E2E2E2E2E2E2E2E2E2E2E2E2E2E2E2E2E2E2E2E2E2E2E2E2E2E2E2E2E2E2E2E2
310
E2E2E2E2E2E2E2E2E2E2E2E2E2E2E2F0E2F5F5BEF0E2F5F5F5F5F5F5E2E2E2E2E2E2E2F0E2E2E2E2E2E2E2E2E2E2E2E2E2F0F5F5F5E2F5F5F0E2E2F5E2E2F0E2E2E2E2E2E2E2E2E2E2E2E2E2E2E2E2E2E2E2BEE2E2E2F0E2E2F5E2F0E2F5F5F5F5F5F5F5E2E2E2E2E2E2F0E2E2E2E2E2E2E2E2E2E2E2E2E2F0F5F5F5E2F5F5
310
F0E2E2F5E2E2F0E2E2E2E2E2E2E2E2E2E2E2E2E2E2E2E2E2E2E2E2E2E2E2F0E2E2E2E2E2E2E2E2E2E2E2E2E2E2E2E2E2E2E2E2E2E2E2E2E2E2E2E2E2E2E2E2E2E2E2E2E2E2E2E2E2E2E2E2E2E2E2E2E2E2E2E2E2E2E2E2E2E2E2E2E2E2E2E2E2E2E2E2E2E2E2E2E2E2E2E2E2E2E2E2E2E2E2E2E2E2E2E2E2E2E2E2E2E2E2E2
310
E2E2E2E2E2E2E2E2E2E2E2E2E2E2E2E2E2F0E2F5BEE2F0E2F5F5F5F5F5F5F5E2E2E2E2E2E2F0E2E2E2E2E2E2E2E2E2E2E2E2E2F0F5F5F5F5F5F5F0E2E2F5E2E2F0E2E2E2E2E2E2E2E2E2E2E2E2E2E2E2E2E2E2E2E2BEE2E2F0E2E2F5E2F0E2F5F5F5F5F5F5F5E2E2E2E2E2E2F0E2E2E2E2E2E2E2E2E2E2E2E2E2F0E2F5F5F5
310
F5F5F0E2E2F5E2E2F0E2E2E2E2E2E2E2E2E2E2E2E2E2E2E2E2E2E2E2E2E2E2E2F0E2E2E2E2E2E2E2E2E2E2E2E2E2E2E2E2E2E2E2E2E2E2E2E2E2E2E2E2E2E2E2E2E2E2E2E2E2E2E2E2E2E2E2E2E2E2E2E2E2E2E2E2E2E2E2E2E2E2E2E2E2E2E2E2E2E2E2E2E2E2E2E2E2E2E2E2E2E2E2E2E2E2E2E2E2E2E2E2E2E2E2E2E2E2
310
E2E2E2E2E2E2E2E2E2E2E2E2E2E2E2E2E2E2E2F0F0F0BEF0F0F0F0F0F0F5F0F5F0F0F0F0F0F0F0F0F0F0F0F0F0F0F0F0F0F0F0F0F0F0F5F5F5F0F5F5F0F0F0F5F0F0F0F0F0F0F0F0F0F0F0F0F0F0F0F0F0F0F0F0F0F0F0BEF0F0F0F0F0F5F0F0F0F0F0F0F0F5F0F5F0F0F0F0F0F0F0F0F0F0F0F0F0F0F0F0F0F0F0F0F0F5F5
310
F5F0F5F5F0F0F0F5F0F0F0F0F0F0F0F0F0F0F0F0F0F0F0F0F0F0F0F0F0F0F0F0F0F0F0E2E2E2E2E2E2E2E2E2E2E2E2E2E2E2E2E2E2E2E2E2E2E2E2E2E2E2E2E2E2E2E2E2E2E2E2E2E2E2E2E2E2E2E2E2E2E2E2E2E2E2E2E2E2E2E2E2E2E2E2E2E2E2E2E2E2E2E2E2E2E2E2E2E2E2E2E2E2E2E2E2E2E2E2E2E2E2E2E2E2E2E2
310
E2E2E2E2E2E2E2E2E2E2E2E2E2E2E2E2E2E2E2E2E2F0F5BEE2F5F0E2E2F5F5E2E2E2E2E2E2F5F5E2E2F0F5F5E2E2F5F5E2F5F5E2F5F5E2F0E2F5F5F5F5E2F0F5F5E2F5F5F0E2E2E2E2E2E2E2F5E2E2E2E2E2E2F5F5E2E2E2E2E2BEE2F0F5F5E2F5F0E2E2F5F5E2E2E2E2E2E2F5F5E2E2F0F5F5E2E2F5F5E2F5F5E2E2F5E2F0
310
E2F5F5F5F5E2F0F5F5E2F5F5F0E2E2E2E2E2E2E2F5E2E2E2E2E2E2F5F5E2E2E2E2E2E2E2F0E2E2E2E2E2E2E2E2E2E2E2E2E2E2E2E2E2E2E2E2E2E2E2E2E2E2E2E2E2E2E2E2E2E2E2E2E2E2E2E2E2E2E2E2E2E2E2E2E2E2E2E2E2E2E2E2E2E2E2E2E2E2E2E2E2E2E2E2E2E2E2E2E2E2E2E2E2E2E2E2E2E2E2E2E2E2E2E2E2E2
310
E2E2E2E2E2E2E2E2E2E2E2E2E2E2E2E2E2E2E2E2E2E2E2F0BEF5E2F5F0E2E2F5F5E2E2E2E2E2E2F5F5E2E2F0F5F5E2E2F5E2F5F5F5E2F5F5E2F0E2F5F5F5F5E2F0F5F5E2F5F5F0E2E2E2E2E2E2F5F5E2E2E2E2E2E2F5F5E2E2E2E2E2E2BEF0F5F5E2F5F5E2E2F5F5E2E2E2E2E2E2F5F5E2E2F0F5F5E2E2F5F5F5F5F5E2F5F5
310
E2F0E2F5F5F5F5E2F0F5F5E2F5F5F0E2E2E2E2E2E2E2F5E2E2E2E2E2E2F5F5E2E2E2E2E2E2E2F0E2E2E2E2E2E2E2E2E2E2E2E2E2E2E2E2E2E2E2E2E2E2E2E2E2E2E2E2E2E2E2E2E2E2E2E2E2E2E2E2E2E2E2E2E2E2E2E2E2E2E2E2E2E2E2E2E2E2E2E2E2E2E2E2E2E2E2E2E2E2E2E2E2E2E2E2E2E2E2E2E2E2E2E2E2E2E2E2
310
E2E2E2E2E2E2E2E2E2E2E2E2E2E2E2E2E2E2E2E2E2E2E2E2E2F0BEF5E2F5F0E2E2F5F5E2E2E2E2E2E2F5E2E2E2F0F5F5E2E2F5E2F5F5F5E2F5F5E2F0E2F5F5F5F5E2F0F5F5E2F5F5F0E2E2E2E2E2E2E2F5E2E2E2E2E2E2F5F5E2E2E2E2E2E2BEF0F5F5E2F5F0E2E2F5F5E2E2E2E2E2E2F5F5E2E2F0F5F5E2E2F5F5F5F5F5E2
310
F5F5E2F0E2F5F5F5F5E2F0F5F5E2F5F5F0E2E2E2E2E2E2E2F5F5E2E2E2E2E2F5F5E2E2E2E2E2E2E2F0E2E2E2E2E2E2E2E2E2E2E2E2E2E2E2E2E2E2E2E2E2E2E2E2E2E2E2E2E2E2E2E2E2E2E2E2E2E2E2E2E2E2E2E2E2E2E2E2E2E2E2E2E2E2E2E2E2E2E2E2E2E2E2E2E2E2E2E2E2E2E2E2E2E2E2E2E2E2E2E2E2E2E2E2E2E2
310
E2E2E2E2E2E2E2E2E2E2E2E2E2E2E2E2E2E2E2E2E2E2E2E2E2E2E2BEF0F0F0F0F0F0F0F0F0F0F0F0F0F0F0F0F0F0F0F0F0F0F0F0F0F0F0F0F0F0F0F0F0F0F0F0F0F0F0F0F0F0F0F0F0F0F0F0F0F0F0F0F0F0F0F0F0F0F0F0F0F0F0F0F0F0F0F0F0F0BEF0F0F0F0F0F0F0F0F0F0F0F0F0F0F0F0F0F0F0F0F0F0F0F0F0F0F0F0
310
F0F0F0F0F0F0F0F0F0F0F0F0F0F0F0F0F0F0F0F0F0F0F0F0F0F0F0F0F0F0F0F0F0F0F0F0F0F0F0F0F0F0F0E2E2E2E2E2E2E2E2E2E2E2E2E2E2E2E2E2E2E2E2E2E2E2E2E2E2E2E2E2E2E2E2E2E2E2E2E2E2E2E2E2E2E2E2E2E2E2E2E2E2E2E2E2E2E2E2E2E2E2E2E2E2E2E2E2E2E2E2E2E2E2E2E2E2E2E2E2E2E2E2E2E2E2E2
310
E2E2E2E2E2E2E2E2E2E2E2E2E2E2E2E2E2E2E2E2E2E2E2E2E2E2E2E2E2E2E2E2E2E2E2E2E2E2E2E2E2E2E2E2E2E2E2E2E2E2E2E2E2E2E2E2E2E2E2E2E2E2E2E2E2E2E2E2E2E2E2E2E2E2E2E2E2E2E2E2E2E2E2E2E2E2E2E2E2E2E2E2E2E2E2E2E2E2E2E2E2E2E2E2E2E2E2E2E2E2E2E2E2E2E2E2E2E2E2E2E2E2E2E2E2E2E2
310
E2E2E2E2E2E2E2E2E2E2E2E2E2E2E2E2E2E2E2E2E2E2E2E2E2E2E2E2E2E2E2E2E2E2E2E2E2E2E2E2E2E2E2E2E2E2E2E2E2E2E2E2E2E2E2E2E2E2E2E2E2E2E2E2E2E2E2E2E2E2E2E2E2E2E2E2E2E2E2E2E2E2E2E2E2E2E2E2E2E2E2E2E2E2E2E2E2E2E2E2E2E2E2E2E2E2E2E2E2E2E2E2E2E2E2E2E2E2E2E2E2E2E2E2E2E2E2
310
E2E2E2E2E2E2E2E2E2E2E2E2E2E2E2E2E2E2E2E2E2E2E2E2E2E2E2E2E2E2E2E2E2E2E2E2E2E2E2E2E2E2E2E2E2E2E2E2E2E2E2E2E2E2E2E2E2E2E2E2E2E2E2E2E2E2E2E2E2E2E2E2E2E2E2E2E2E2E2E2E2E2E2E2E2E2E2E2E2E2E2E2E2E2E2E2E2E2E2E2E2E2E2E2E2E2E2E2E2E2E2E2E2E2E2E2E2E2E2E2E2E2E2E2E2E2E2
310
E2E2E2E2E2E2E2E2E2E2E2E2E2E2E2E2E2E2E2E2E2E2E2E2E2E2E2E2E2E2E2E2E2E2E2E2E2E2E2E2E2E2E2E2E2E2E2E2E2E2E2E2E2E2E2E2E2E2E2E2E2E2E2E2E2E2E2E2E2E2E2E2E2E2E2E2E2E2E2E2E2E2E2E2E2E2E2E2E2E2E2E2E2E2E2E2E2E2E2E2E2E2E2E2E2E2E2E2E2E2E2E2E2E2E2E2E2E2E2E2E2E2E2E2E2E2E2
310
E2E2E2E2E2E2E2E2E2E2E2E2E2E2E2E2E2E2E2E2E2E2E2E2E2E2E2E2E2E2E2E2E2E2E2E2E2E2E2E2E2E2E2E2E2E2E2E2E2E2E2E2E2E2E2E2E2E2E2E2E2E2E2E2E2E2E2E2E2E2E2E2E2E2E2E2E2E2E2E2E2E2E2E2E2E2E2E2E2E2E2E2E2E2E2E2E2E2E2E2E2E2E2E2E2E2E2E2E2E2E2E2E2E2E2E2E2E2E2E2E2E2E2E2E2E2E2
310
E2E2E2E2E2E2E2E2E2E2E2E2E2E2E2E2E2E2E2E2E2E2E2E2E2E2E2E2E2E2E2E2E2E2E2E2E2E2E2E2E2E2E2E2E2E2E2E2E2E2E2E2E2E2E2E2E2E2E2E2E2E2E2E2E2E2E2E2E2E2E2E2E2E2E2E2E2E2E2E2E2E2E2E2E2E2E2E2E2E2E2E2E2E2E2E2E2E2E2E2E2E2E2E2E2E2E2E2E2E2E2E2E2E2E2E2E2E2E2E2E2E2E2E2E2E2E2
310
E2E2E2E2E2E2E2E2E2E2E2E2E2E2E2E2E2E2E2E2E2E2E2E2E2E2E2E2E2E2E2E2E2E2E2E2E2E2E2E2E2E2E2E2E2E2E2E2E2E2E2E2E2E2E2E2E2E2E2E2E2E2E2E2E2E2E2E2E2E2E2E2E2E2E2E2E2E2E2E2E2E2E2E2E2E2E2E2E2E2E2E2E2E2E2E2E2E2E2E2E2E2E2E2E2E2E2E2E2E2E2E2E2E2E2E2E2E2E2E2E2E2E2E2E2E2E2
310
E2E2E2E2E2E2E2E2E2E2E2E2E2E2E2E2E2E2E2E2E2E2E2E2E2E2E2E2E2E2E2E2E2E2E2E2E2E2E2E2E2E2E2E2E2E2E2E2E2E2E2E2E2E2E2E2E2E2E2E2E2E2E2E2E2E2E2E2E2E2E2E2E2E2E2E2E2E2E2E2E2E2E2E2E2E2E2E2E2E2E2E2E2E2E2E2E2E2E2E2E2E2E2E2E2E2E2E2E2E2E2E2E2E2E2E2E2E2E2E2E2E2E2E2E2E2E2
310
E2E2E2E2E2E2E2E2E2E2E2E2E2E2E2E2E2E2E2E2E2E2E2E2E2E2E2E2E2E2E2E2E2E2E2E2E2E2E2E2E2E2E2E2E2E2E2E2E2E2E2E2E2E2E2E2E2E2E2E2E2E2E2E2E2E2E2E2E2E2E2E2E2E2E2E2E2E2E2E2E2E2E2E2E2E2E2E2E2E2E2E2E2E2E2E2E2E2E2E2E2E2E2E2E2E2E2E2E2E2E2E2E2E2E2E2E2E2E2E2E2E2E2E2E2E2E2
310
E2E2E2E2E2E2E2E2E2E2E2E2E2E2E2E2E2E2E2E2E2E2E2E2E2E2E2E2E2E2E2E2E2E2E2E2E2E2E2E2E2E2E2E2E2E2E2E2E2E2E2E2E2E2E2E2E2E2E2E2E2E2E2E2E2E2E2E2E2E2E2E2E2E2E2E2E2E2E2E2E2E2E2E2E2E2E2E2E2E2E2E2E2E2E2E2E2E2E2E2E2E2E2E2E2E2E2E2E2E2E2E2E2E2E2E2E2E2E2E2E2E2E2E2E2E2E2
310
E2E2E2E2E2E2E2E2E2E2E2E2E2E2E2E2E2E2E2E2E2E2E2E2E2E2E2E2E2E2E2E2E2E2E2E2E2E2E2E2E2E2E2E2E2E2E2E2E2E2E2E2E2E2E2E2E2E2E2E2E2E2E2E2E2E2E2E2E2E2E2E2E2E2E2E2E2E2E2E2E2E2E2E2E2E2E2E2E2E2E2E2E2E2E2E2E2E2E2E2E2E2E2E2E2E2E2E2E2E2E2E2E2E2E2E2E2E2E2E2E2E2E2E2E2E2E2
310
E2E2E2E2E2E2E2E2E2E2E2E2E2E2E2E2E2E2E2E2E2E2E2E2E2E2E2E2E2E2E2E2E2E2E2E2E2E2E2E2E2E2E2E2E2E2E2E2E2E2E2E2E2E2E2E2E2E2E2E2E2E2E2E2E2E2E2E2E2E2E2E2E2E2E2E2E2E2E2E2E2E2E2E2E2E2E2E2E2E2E2E2E2E2E2E2E2E2E2E2E2E2E2E2E2E2E2E2E2E2E2E2E2E2E2E2E2E2E2E2E2E2E2E2E2E2E2
310
E2E2E2E2E2E2E2E2E2E2E2E2E2E2E2E2E2E2E2E2E2E2E2E2E2E2E2E2E2E2E2E2E2E2E2E2
  0
XRECORD
  5
A0A1
102
{ACAD_REACTORS
330
A0A0
102
}
330
A0A0
100
AcDbXrecord
280
     1
102
SHADEPLOT
 70
     0
102
SHADEPLOTRESLEVEL
 70
     2
102
SHADEPLOTCUSTOMDPI
 70
   300
  0
XRECORD
  5
A002
102
{ACAD_REACTORS
330
900E
102
}
330
900E
100
AcDbXrecord
280
     1
102
MATERIAL
148
0.0
149
0.0
149
0.0
 93
        0
 94
      127
282
     0
 72
     0
 77
     0
171
     0
175
     0
179
     0
273
     0
  0
XRECORD
  5
9010
102
{ACAD_REACTORS
330
900E
102
}
330
900E
100
AcDbXrecord
280
     1
270
     1
271
     1
  0
XRECORD
  5
900F
102
{ACAD_REACTORS
330
900E
102
}
330
900E
100
AcDbXrecord
280
     1
270
     1
271
     1
  0
XRECORD
  5
9013
102
{ACAD_REACTORS
330
900E
102
}
330
900E
100
AcDbXrecord
280
     1
270
     1
271
     1
  0
XRECORD
  5
9012
102
{ACAD_REACTORS
330
900E
102
}
330
900E
100
AcDbXrecord
280
     1
270
     1
271
     1
  0
XRECORD
  5
9014
102
{ACAD_REACTORS
330
900E
102
}
330
900E
100
AcDbXrecord
280
     1
270
     1
271
     1
  0
XRECORD
  5
9011
102
{ACAD_REACTORS
330
900E
102
}
330
900E
100
AcDbXrecord
280
     1
270
     1
271
     1
  0
XRECORD
  5
A001
102
{ACAD_REACTORS
330
9006
102
}
330
9006
100
AcDbXrecord
280
     1
102
MATERIAL
148
0.0
149
0.0
149
0.0
 93
        0
 94
      127
282
     0
 72
     0
 77
     0
171
     0
175
     0
179
     0
273
     0
  0
XRECORD
  5
9008
102
{ACAD_REACTORS
330
9006
102
}
330
9006
100
AcDbXrecord
280
     1
270
     1
271
     1
  0
XRECORD
  5
9007
102
{ACAD_REACTORS
330
9006
102
}
330
9006
100
AcDbXrecord
280
     1
270
     1
271
     1
  0
XRECORD
  5
900B
102
{ACAD_REACTORS
330
9006
102
}
330
9006
100
AcDbXrecord
280
     1
270
     1
271
     1
  0
XRECORD
  5
900A
102
{ACAD_REACTORS
330
9006
102
}
330
9006
100
AcDbXrecord
280
     1
270
     1
271
     1
  0
XRECORD
  5
900C
102
{ACAD_REACTORS
330
9006
102
}
330
9006
100
AcDbXrecord
280
     1
270
     1
271
     1
  0
XRECORD
  5
9009
102
{ACAD_REACTORS
330
9006
102
}
330
9006
100
AcDbXrecord
280
     1
270
     1
271
     1
  0
XRECORD
  5
A003
102
{ACAD_REACTORS
330
9016
102
}
330
9016
100
AcDbXrecord
280
     1
102
MATERIAL
148
0.0
149
0.0
149
0.0
 93
        0
 94
      127
282
     0
 72
     0
 77
     0
171
     0
175
     0
179
     0
273
     0
  0
XRECORD
  5
9018
102
{ACAD_REACTORS
330
9016
102
}
330
9016
100
AcDbXrecord
280
     1
270
     1
271
     1
  0
XRECORD
  5
9017
102
{ACAD_REACTORS
330
9016
102
}
330
9016
100
AcDbXrecord
280
     1
270
     1
271
     1
  0
XRECORD
  5
901B
102
{ACAD_REACTORS
330
9016
102
}
330
9016
100
AcDbXrecord
280
     1
270
     1
271
     1
  0
XRECORD
  5
901A
102
{ACAD_REACTORS
330
9016
102
}
330
9016
100
AcDbXrecord
280
     1
270
     1
271
     1
  0
XRECORD
  5
901C
102
{ACAD_REACTORS
330
9016
102
}
330
9016
100
AcDbXrecord
280
     1
270
     1
271
     1
  0
XRECORD
  5
9019
102
{ACAD_REACTORS
330
9016
102
}
330
9016
100
AcDbXrecord
280
     1
270
     1
271
     1
  0
ACAD_PROXY_OBJECT
  5
9FE2
102
{ACAD_REACTORS
330
9C58
102
}
330
9C58
100
AcDbProxyObject
 90
      499
 91
      577
 95
   983063
 70
     0
 93
     5232
310
40D054060020000020000003200101A412A5058000000C10000000000000006101010000000000003E0FC000000000000F83F0000000000003E0FC000000000000F83F02B5E8DC0F42B1CFC0AD7A3703D0AC73F419019018000000C1003FBFFFFFE02B5E8DC0F42A9CFD029018000000C1003FBFFFFFE02B5E8DC0F42A9CFD
310
049018000000C1003FBFFFFFE02B5E8DC0F42A9CFD089018000000C1003FBFFFFFE02B5E8DC0F42A9CFD109018000000C1003FBFFFFFE02B5E8DC0F42A9CFD209018000000C1003FBFFFFFE02B5E8DC0F42A9CFD01405075F5449544C450041501A8000000C800406904A94160000003040000000000000012404040000000
310
00000F83F0000000000003E0FC000000000000F83F0000000000003E0FC0AD7A3703D0AC73F02B5E8DC0F42B1CFD0640640600000030400FEFFFFFF80AD7A3703D0AA73F40A40600000030400FEFFFFFF80AD7A3703D0AA73F41240600000030400FEFFFFFF80AD7A3703D0AA73F42240600000030400FEFFFFFF80AD7A370
310
3D0AA73F44240600000030400FEFFFFFF80AD7A3703D0AA73F48240600000030400FEFFFFFF80AD7A3703D0AA73F409014217D2115051115480105406A0000003200101A412A5028000000C10000000000000004901010000000000003E0FC000000000000F83F0000000000003E0FC000000000000F83F02B5E8DC0F42B1C
310
FC0AD7A3703D0AC73F419019018000000C1003FBFFFFFE02B5E8DC0F42A9CFD029018000000C1003FBFFFFFE02B5E8DC0F42A9CFD049018000000C1003FBFFFFFE02B5E8DC0F42A9CFD089018000000C1003FBFFFFFE02B5E8DC0F42A9CFD109018000000C1003FBFFFFFE02B5E8DC0F42A9CFD209018000000C1003FBFFFF
310
FE02B5E8DC0F42A9CFD03409065F444154410000
340
F
340
0
340
0
340
0
340
0
340
0
340
0
340
F
340
0
340
0
340
0
340
0
340
0
340
0
340
F
340
0
340
0
340
0
340
0
340
0
340
0
 94
        0
1001
ACAD
1000
AcRTDxfName
1000
CELLSTYLEMAP
  0
XRECORD
  5
9FF0
102
{ACAD_REACTORS
330
9C58
102
}
330
9C58
100
AcDbXrecord
280
     1
102
ACAD_ROUNDTRIP_PRE2007_TABLESTYLE
 90
        4
 91
        0
  1

 92
        4
 93
        0
  2

 94
        4
 95
        0
  3

  0
XRECORD
  5
A00F
102
{ACAD_REACTORS
330
A00E
102
}
330
A00E
100
AcDbXrecord
280
     1
102
RTVSPropertyOp0
 70
     1
102
RTVSPropertyOp1
 70
     1
102
RTVSPropertyOp2
 70
     1
102
RTVSPropertyOp3
 70
     1
102
RTVSPropertyOp4
 70
     1
102
RTVSPropertyOp5
 70
     1
102
RTVSPropertyOp6
 70
     1
102
RTVSPropertyOp7
 70
     1
102
RTVSPropertyOp8
 70
     1
102
RTVSPropertyOp9
 70
     1
102
RTVSPropertyOp10
 70
     1
102
RTVSPropertyOp11
 70
     1
102
RTVSPropertyOp12
 70
     1
102
RTVSPropertyOp13
 70
     1
102
RTVSPropertyOp14
 70
     1
102
RTVSPropertyOp15
 70
     1
102
RTVSPropertyOp16
 70
     1
102
RTVSPropertyOp17
 70
     1
102
RTVSPropertyOp18
 70
     1
102
RTVSPropertyOp19
 70
     1
102
RTVSPropertyOp20
 70
     1
102
RTVSPropertyOp21
 70
     1
102
RTVSPropertyOp22
 70
     1
102
RTVSPropertyOp23
 70
     1
102
RTVSPropertyOp24
 70
     1
102
RTVSPropertyOp25
 70
     1
102
RTVSPropertyOp26
 70
     1
102
RTVSPropertyOp27
 70
     1
102
RTVSPropertyOp28
 70
     1
102
RTVSPropertyOp29
 70
     1
102
RTVSPropertyOp30
 70
     1
102
RTVSPropertyOp31
 70
     1
102
RTVSPropertyOp32
 70
     1
  0
XRECORD
  5
A013
102
{ACAD_REACTORS
330
A012
102
}
330
A012
100
AcDbXrecord
280
     1
102
RTVSPropertyOp0
 70
     1
102
RTVSPropertyOp1
 70
     1
102
RTVSPropertyOp2
 70
     1
102
RTVSPropertyOp3
 70
     1
102
RTVSPropertyOp4
 70
     1
102
RTVSPropertyOp5
 70
     1
102
RTVSPropertyOp6
 70
     1
102
RTVSPropertyOp7
 70
     1
102
RTVSPropertyOp8
 70
     1
102
RTVSPropertyOp9
 70
     1
102
RTVSPropertyOp10
 70
     1
102
RTVSPropertyOp11
 70
     1
102
RTVSPropertyOp12
 70
     1
102
RTVSPropertyOp13
 70
     1
102
RTVSPropertyOp14
 70
     1
102
RTVSPropertyOp15
 70
     1
102
RTVSPropertyOp16
 70
     1
102
RTVSPropertyOp17
 70
     1
102
RTVSPropertyOp18
 70
     1
102
RTVSPropertyOp19
 70
     1
102
RTVSPropertyOp20
 70
     1
102
RTVSPropertyOp21
 70
     1
102
RTVSPropertyOp22
 70
     1
102
RTVSPropertyOp23
 70
     1
102
RTVSPropertyOp24
 70
     1
102
RTVSPropertyOp25
 70
     1
102
RTVSPropertyOp26
 70
     1
102
RTVSPropertyOp27
 70
     1
102
RTVSPropertyOp28
 70
     1
102
RTVSPropertyOp29
 70
     1
102
RTVSPropertyOp30
 70
     1
102
RTVSPropertyOp31
 70
     1
102
RTVSPropertyOp32
 70
     1
  0
XRECORD
  5
A011
102
{ACAD_REACTORS
330
A010
102
}
330
A010
100
AcDbXrecord
280
     1
102
RTVSPropertyOp0
 70
     1
102
RTVSPropertyOp1
 70
     1
102
RTVSPropertyOp2
 70
     1
102
RTVSPropertyOp3
 70
     1
102
RTVSPropertyOp4
 70
     1
102
RTVSPropertyOp5
 70
     1
102
RTVSPropertyOp6
 70
     1
102
RTVSPropertyOp7
 70
     1
102
RTVSPropertyOp8
 70
     1
102
RTVSPropertyOp9
 70
     1
102
RTVSPropertyOp10
 70
     1
102
RTVSPropertyOp11
 70
     1
102
RTVSPropertyOp12
 70
     1
102
RTVSPropertyOp13
 70
     1
102
RTVSPropertyOp14
 70
     1
102
RTVSPropertyOp15
 70
     1
102
RTVSPropertyOp16
 70
     1
102
RTVSPropertyOp17
 70
     1
102
RTVSPropertyOp18
 70
     1
102
RTVSPropertyOp19
 70
     1
102
RTVSPropertyOp20
 70
     1
102
RTVSPropertyOp21
 70
     1
102
RTVSPropertyOp22
 70
     1
102
RTVSPropertyOp23
 70
     1
102
RTVSPropertyOp24
 70
     1
102
RTVSPropertyOp25
 70
     1
102
RTVSPropertyOp26
 70
     1
102
RTVSPropertyOp27
 70
     1
102
RTVSPropertyOp28
 70
     1
102
RTVSPropertyOp29
 70
     1
102
RTVSPropertyOp30
 70
     1
102
RTVSPropertyOp31
 70
     1
102
RTVSPropertyOp32
 70
     1
  0
XRECORD
  5
A00D
102
{ACAD_REACTORS
330
A00C
102
}
330
A00C
100
AcDbXrecord
280
     1
102
RTVSPropertyOp0
 70
     1
102
RTVSPropertyOp1
 70
     1
102
RTVSPropertyOp2
 70
     1
102
RTVSPropertyOp3
 70
     1
102
RTVSPropertyOp4
 70
     1
102
RTVSPropertyOp5
 70
     1
102
RTVSPropertyOp6
 70
     1
102
RTVSPropertyOp7
 70
     1
102
RTVSPropertyOp8
 70
     1
102
RTVSPropertyOp9
 70
     1
102
RTVSPropertyOp10
 70
     1
102
RTVSPropertyOp11
 70
     1
102
RTVSPropertyOp12
 70
     1
102
RTVSPropertyOp13
 70
     1
102
RTVSPropertyOp14
 70
     1
102
RTVSPropertyOp15
 70
     1
102
RTVSPropertyOp16
 70
     1
102
RTVSPropertyOp17
 70
     1
102
RTVSPropertyOp18
 70
     1
102
RTVSPropertyOp19
 70
     1
102
RTVSPropertyOp20
 70
     1
102
RTVSPropertyOp21
 70
     1
102
RTVSPropertyOp22
 70
     1
102
RTVSPropertyOp23
 70
     1
102
RTVSPropertyOp24
 70
     1
102
RTVSPropertyOp25
 70
     1
102
RTVSPropertyOp26
 70
     1
102
RTVSPropertyOp27
 70
     1
102
RTVSPropertyOp28
 70
     1
102
RTVSPropertyOp29
 70
     1
102
RTVSPropertyOp30
 70
     1
102
RTVSPropertyOp31
 70
     1
102
RTVSPropertyOp32
 70
     1
  0
XRECORD
  5
A01B
102
{ACAD_REACTORS
330
A01A
102
}
330
A01A
100
AcDbXrecord
280
     1
102
RTVSPropertyOp0
 70
     1
102
RTVSPropertyOp1
 70
     1
102
RTVSPropertyOp2
 70
     1
102
RTVSPropertyOp3
 70
     1
102
RTVSPropertyOp4
 70
     1
102
RTVSPropertyOp5
 70
     1
102
RTVSPropertyOp6
 70
     1
102
RTVSPropertyOp7
 70
     1
102
RTVSPropertyOp8
 70
     1
102
RTVSPropertyOp9
 70
     1
102
RTVSPropertyOp10
 70
     1
102
RTVSPropertyOp11
 70
     1
102
RTVSPropertyOp12
 70
     1
102
RTVSPropertyOp13
 70
     1
102
RTVSPropertyOp14
 70
     1
102
RTVSPropertyOp15
 70
     1
102
RTVSPropertyOp16
 70
     1
102
RTVSPropertyOp17
 70
     1
102
RTVSPropertyOp18
 70
     1
102
RTVSPropertyOp19
 70
     1
102
RTVSPropertyOp20
 70
     1
102
RTVSPropertyOp21
 70
     1
102
RTVSPropertyOp22
 70
     1
102
RTVSPropertyOp23
 70
     1
102
RTVSPropertyOp24
 70
     1
102
RTVSPropertyOp25
 70
     1
102
RTVSPropertyOp26
 70
     1
102
RTVSPropertyOp27
 70
     1
102
RTVSPropertyOp28
 70
     1
102
RTVSPropertyOp29
 70
     1
102
RTVSPropertyOp30
 70
     1
102
RTVSPropertyOp31
 70
     1
102
RTVSPropertyOp32
 70
     1
  0
XRECORD
  5
A023
102
{ACAD_REACTORS
330
A022
102
}
330
A022
100
AcDbXrecord
280
     1
102
RTVSPropertyOp0
 70
     1
102
RTVSPropertyOp1
 70
     1
102
RTVSPropertyOp2
 70
     1
102
RTVSPropertyOp3
 70
     1
102
RTVSPropertyOp4
 70
     1
102
RTVSPropertyOp5
 70
     1
102
RTVSPropertyOp6
 70
     1
102
RTVSPropertyOp7
 70
     1
102
RTVSPropertyOp8
 70
     1
102
RTVSPropertyOp9
 70
     1
102
RTVSPropertyOp10
 70
     1
102
RTVSPropertyOp11
 70
     1
102
RTVSPropertyOp12
 70
     1
102
RTVSPropertyOp13
 70
     1
102
RTVSPropertyOp14
 70
     1
102
RTVSPropertyOp15
 70
     1
102
RTVSPropertyOp16
 70
     1
102
RTVSPropertyOp17
 70
     1
102
RTVSPropertyOp18
 70
     1
102
RTVSPropertyOp19
 70
     1
102
RTVSPropertyOp20
 70
     1
102
RTVSPropertyOp21
 70
     1
102
RTVSPropertyOp22
 70
     1
102
RTVSPropertyOp23
 70
     1
102
RTVSPropertyOp24
 70
     1
102
RTVSPropertyOp25
 70
     1
102
RTVSPropertyOp26
 70
     1
102
RTVSPropertyOp27
 70
     1
102
RTVSPropertyOp28
 70
     1
102
RTVSPropertyOp29
 70
     1
102
RTVSPropertyOp30
 70
     1
102
RTVSPropertyOp31
 70
     1
102
RTVSPropertyOp32
 70
     1
  0
XRECORD
  5
A015
102
{ACAD_REACTORS
330
A014
102
}
330
A014
100
AcDbXrecord
280
     1
102
RTVSPropertyOp0
 70
     1
102
RTVSPropertyOp1
 70
     1
102
RTVSPropertyOp2
 70
     1
102
RTVSPropertyOp3
 70
     1
102
RTVSPropertyOp4
 70
     1
102
RTVSPropertyOp5
 70
     1
102
RTVSPropertyOp6
 70
     1
102
RTVSPropertyOp7
 70
     1
102
RTVSPropertyOp8
 70
     1
102
RTVSPropertyOp9
 70
     1
102
RTVSPropertyOp10
 70
     1
102
RTVSPropertyOp11
 70
     1
102
RTVSPropertyOp12
 70
     1
102
RTVSPropertyOp13
 70
     1
102
RTVSPropertyOp14
 70
     1
102
RTVSPropertyOp15
 70
     1
102
RTVSPropertyOp16
 70
     1
102
RTVSPropertyOp17
 70
     1
102
RTVSPropertyOp18
 70
     1
102
RTVSPropertyOp19
 70
     1
102
RTVSPropertyOp20
 70
     1
102
RTVSPropertyOp21
 70
     1
102
RTVSPropertyOp22
 70
     1
102
RTVSPropertyOp23
 70
     1
102
RTVSPropertyOp24
 70
     1
102
RTVSPropertyOp25
 70
     1
102
RTVSPropertyOp26
 70
     1
102
RTVSPropertyOp27
 70
     1
102
RTVSPropertyOp28
 70
     1
102
RTVSPropertyOp29
 70
     1
102
RTVSPropertyOp30
 70
     1
102
RTVSPropertyOp31
 70
     1
102
RTVSPropertyOp32
 70
     1
  0
XRECORD
  5
A019
102
{ACAD_REACTORS
330
A018
102
}
330
A018
100
AcDbXrecord
280
     1
102
RTVSPropertyOp0
 70
     1
102
RTVSPropertyOp1
 70
     1
102
RTVSPropertyOp2
 70
     1
102
RTVSPropertyOp3
 70
     1
102
RTVSPropertyOp4
 70
     1
102
RTVSPropertyOp5
 70
     1
102
RTVSPropertyOp6
 70
     1
102
RTVSPropertyOp7
 70
     1
102
RTVSPropertyOp8
 70
     1
102
RTVSPropertyOp9
 70
     1
102
RTVSPropertyOp10
 70
     1
102
RTVSPropertyOp11
 70
     1
102
RTVSPropertyOp12
 70
     1
102
RTVSPropertyOp13
 70
     1
102
RTVSPropertyOp14
 70
     1
102
RTVSPropertyOp15
 70
     1
102
RTVSPropertyOp16
 70
     1
102
RTVSPropertyOp17
 70
     1
102
RTVSPropertyOp18
 70
     1
102
RTVSPropertyOp19
 70
     1
102
RTVSPropertyOp20
 70
     1
102
RTVSPropertyOp21
 70
     1
102
RTVSPropertyOp22
 70
     1
102
RTVSPropertyOp23
 70
     1
102
RTVSPropertyOp24
 70
     1
102
RTVSPropertyOp25
 70
     1
102
RTVSPropertyOp26
 70
     1
102
RTVSPropertyOp27
 70
     1
102
RTVSPropertyOp28
 70
     1
102
RTVSPropertyOp29
 70
     1
102
RTVSPropertyOp30
 70
     1
102
RTVSPropertyOp31
 70
     1
102
RTVSPropertyOp32
 70
     1
  0
XRECORD
  5
A029
102
{ACAD_REACTORS
330
A028
102
}
330
A028
100
AcDbXrecord
280
     1
102
RTVSPropertyOp0
 70
     0
102
RTVSPropertyOp1
 70
     0
102
RTVSPropertyOp2
 70
     0
102
RTVSPropertyOp3
 70
     0
102
RTVSPropertyOp4
 70
     0
102
RTVSPropertyOp5
 70
     0
102
RTVSPropertyOp6
 70
     0
102
RTVSPropertyOp7
 70
     0
102
RTVSPropertyOp8
 70
     0
102
RTVSPropertyOp9
 70
     0
102
RTVSPropertyOp10
 70
     0
102
RTVSPropertyOp11
 70
     0
102
RTVSPropertyOp12
 70
     0
102
RTVSPropertyOp13
 70
     0
102
RTVSPropertyOp14
 70
     2
102
RTVSPropertyOp15
 70
     0
102
RTVSPropertyOp16
 70
     0
102
RTVSPropertyOp17
 70
     0
102
RTVSPropertyOp18
 70
     0
102
RTVSPropertyOp19
 70
     0
102
RTVSPropertyOp20
 70
     0
102
RTVSPropertyOp21
 70
     0
102
RTVSPropertyOp22
 70
     0
102
RTVSPropertyOp23
 70
     0
102
RTVSPropertyOp24
 70
     0
102
RTVSPropertyOp25
 70
     0
102
RTVSPropertyOp26
 70
     0
102
RTVSPropertyOp27
 70
     0
102
RTVSPropertyOp28
 70
     1
102
RTVSPropertyOp29
 70
     1
102
RTVSPropertyOp30
 70
     1
102
RTVSPropertyOp31
 70
     1
102
RTVSPropertyOp32
 70
     1
  0
XRECORD
  5
A021
102
{ACAD_REACTORS
330
A020
102
}
330
A020
100
AcDbXrecord
280
     1
102
RTVSPropertyOp0
 70
     1
102
RTVSPropertyOp1
 70
     1
102
RTVSPropertyOp2
 70
     1
102
RTVSPropertyOp3
 70
     1
102
RTVSPropertyOp4
 70
     1
102
RTVSPropertyOp5
 70
     1
102
RTVSPropertyOp6
 70
     1
102
RTVSPropertyOp7
 70
     1
102
RTVSPropertyOp8
 70
     1
102
RTVSPropertyOp9
 70
     1
102
RTVSPropertyOp10
 70
     1
102
RTVSPropertyOp11
 70
     1
102
RTVSPropertyOp12
 70
     1
102
RTVSPropertyOp13
 70
     1
102
RTVSPropertyOp14
 70
     1
102
RTVSPropertyOp15
 70
     1
102
RTVSPropertyOp16
 70
     1
102
RTVSPropertyOp17
 70
     1
102
RTVSPropertyOp18
 70
     1
102
RTVSPropertyOp19
 70
     1
102
RTVSPropertyOp20
 70
     1
102
RTVSPropertyOp21
 70
     1
102
RTVSPropertyOp22
 70
     1
102
RTVSPropertyOp23
 70
     1
102
RTVSPropertyOp24
 70
     1
102
RTVSPropertyOp25
 70
     1
102
RTVSPropertyOp26
 70
     1
102
RTVSPropertyOp27
 70
     1
102
RTVSPropertyOp28
 70
     1
102
RTVSPropertyOp29
 70
     1
102
RTVSPropertyOp30
 70
     1
102
RTVSPropertyOp31
 70
     1
102
RTVSPropertyOp32
 70
     1
  0
XRECORD
  5
A005
102
{ACAD_REACTORS
330
A004
102
}
330
A004
100
AcDbXrecord
280
     1
102
RTVSPropertyOp0
 70
     1
102
RTVSPropertyOp1
 70
     1
102
RTVSPropertyOp2
 70
     1
102
RTVSPropertyOp3
 70
     1
102
RTVSPropertyOp4
 70
     1
102
RTVSPropertyOp5
 70
     1
102
RTVSPropertyOp6
 70
     1
102
RTVSPropertyOp7
 70
     1
102
RTVSPropertyOp8
 70
     1
102
RTVSPropertyOp9
 70
     1
102
RTVSPropertyOp10
 70
     1
102
RTVSPropertyOp11
 70
     1
102
RTVSPropertyOp12
 70
     1
102
RTVSPropertyOp13
 70
     1
102
RTVSPropertyOp14
 70
     1
102
RTVSPropertyOp15
 70
     1
102
RTVSPropertyOp16
 70
     1
102
RTVSPropertyOp17
 70
     1
102
RTVSPropertyOp18
 70
     1
102
RTVSPropertyOp19
 70
     1
102
RTVSPropertyOp20
 70
     1
102
RTVSPropertyOp21
 70
     1
102
RTVSPropertyOp22
 70
     1
102
RTVSPropertyOp23
 70
     1
102
RTVSPropertyOp24
 70
     1
102
RTVSPropertyOp25
 70
     1
102
RTVSPropertyOp26
 70
     1
102
RTVSPropertyOp27
 70
     1
102
RTVSPropertyOp28
 70
     1
102
RTVSPropertyOp29
 70
     1
102
RTVSPropertyOp30
 70
     1
102
RTVSPropertyOp31
 70
     1
102
RTVSPropertyOp32
 70
     1
  0
XRECORD
  5
A007
102
{ACAD_REACTORS
330
A006
102
}
330
A006
100
AcDbXrecord
280
     1
102
RTVSPropertyOp0
 70
     1
102
RTVSPropertyOp1
 70
     1
102
RTVSPropertyOp2
 70
     1
102
RTVSPropertyOp3
 70
     1
102
RTVSPropertyOp4
 70
     1
102
RTVSPropertyOp5
 70
     1
102
RTVSPropertyOp6
 70
     1
102
RTVSPropertyOp7
 70
     1
102
RTVSPropertyOp8
 70
     1
102
RTVSPropertyOp9
 70
     1
102
RTVSPropertyOp10
 70
     1
102
RTVSPropertyOp11
 70
     1
102
RTVSPropertyOp12
 70
     1
102
RTVSPropertyOp13
 70
     1
102
RTVSPropertyOp14
 70
     1
102
RTVSPropertyOp15
 70
     1
102
RTVSPropertyOp16
 70
     1
102
RTVSPropertyOp17
 70
     1
102
RTVSPropertyOp18
 70
     1
102
RTVSPropertyOp19
 70
     1
102
RTVSPropertyOp20
 70
     1
102
RTVSPropertyOp21
 70
     1
102
RTVSPropertyOp22
 70
     1
102
RTVSPropertyOp23
 70
     1
102
RTVSPropertyOp24
 70
     1
102
RTVSPropertyOp25
 70
     1
102
RTVSPropertyOp26
 70
     1
102
RTVSPropertyOp27
 70
     1
102
RTVSPropertyOp28
 70
     1
102
RTVSPropertyOp29
 70
     1
102
RTVSPropertyOp30
 70
     1
102
RTVSPropertyOp31
 70
     1
102
RTVSPropertyOp32
 70
     1
  0
XRECORD
  5
A009
102
{ACAD_REACTORS
330
A008
102
}
330
A008
100
AcDbXrecord
280
     1
102
RTVSPropertyOp0
 70
     1
102
RTVSPropertyOp1
 70
     1
102
RTVSPropertyOp2
 70
     1
102
RTVSPropertyOp3
 70
     1
102
RTVSPropertyOp4
 70
     1
102
RTVSPropertyOp5
 70
     1
102
RTVSPropertyOp6
 70
     1
102
RTVSPropertyOp7
 70
     1
102
RTVSPropertyOp8
 70
     1
102
RTVSPropertyOp9
 70
     1
102
RTVSPropertyOp10
 70
     1
102
RTVSPropertyOp11
 70
     1
102
RTVSPropertyOp12
 70
     1
102
RTVSPropertyOp13
 70
     1
102
RTVSPropertyOp14
 70
     1
102
RTVSPropertyOp15
 70
     1
102
RTVSPropertyOp16
 70
     1
102
RTVSPropertyOp17
 70
     1
102
RTVSPropertyOp18
 70
     1
102
RTVSPropertyOp19
 70
     1
102
RTVSPropertyOp20
 70
     1
102
RTVSPropertyOp21
 70
     1
102
RTVSPropertyOp22
 70
     1
102
RTVSPropertyOp23
 70
     1
102
RTVSPropertyOp24
 70
     1
102
RTVSPropertyOp25
 70
     1
102
RTVSPropertyOp26
 70
     1
102
RTVSPropertyOp27
 70
     1
102
RTVSPropertyOp28
 70
     1
102
RTVSPropertyOp29
 70
     1
102
RTVSPropertyOp30
 70
     1
102
RTVSPropertyOp31
 70
     1
102
RTVSPropertyOp32
 70
     1
  0
XRECORD
  5
A00B
102
{ACAD_REACTORS
330
A00A
102
}
330
A00A
100
AcDbXrecord
280
     1
102
RTVSPropertyOp0
 70
     1
102
RTVSPropertyOp1
 70
     1
102
RTVSPropertyOp2
 70
     1
102
RTVSPropertyOp3
 70
     1
102
RTVSPropertyOp4
 70
     1
102
RTVSPropertyOp5
 70
     1
102
RTVSPropertyOp6
 70
     1
102
RTVSPropertyOp7
 70
     1
102
RTVSPropertyOp8
 70
     1
102
RTVSPropertyOp9
 70
     1
102
RTVSPropertyOp10
 70
     1
102
RTVSPropertyOp11
 70
     1
102
RTVSPropertyOp12
 70
     1
102
RTVSPropertyOp13
 70
     1
102
RTVSPropertyOp14
 70
     1
102
RTVSPropertyOp15
 70
     1
102
RTVSPropertyOp16
 70
     1
102
RTVSPropertyOp17
 70
     1
102
RTVSPropertyOp18
 70
     1
102
RTVSPropertyOp19
 70
     1
102
RTVSPropertyOp20
 70
     1
102
RTVSPropertyOp21
 70
     1
102
RTVSPropertyOp22
 70
     1
102
RTVSPropertyOp23
 70
     1
102
RTVSPropertyOp24
 70
     1
102
RTVSPropertyOp25
 70
     1
102
RTVSPropertyOp26
 70
     1
102
RTVSPropertyOp27
 70
     1
102
RTVSPropertyOp28
 70
     1
102
RTVSPropertyOp29
 70
     1
102
RTVSPropertyOp30
 70
     1
102
RTVSPropertyOp31
 70
     1
102
RTVSPropertyOp32
 70
     1
  0
XRECORD
  5
A02D
102
{ACAD_REACTORS
330
A02C
102
}
330
A02C
100
AcDbXrecord
280
     1
102
RTVSPropertyOp0
 70
     1
102
RTVSPropertyOp1
 70
     1
102
RTVSPropertyOp2
 70
     1
102
RTVSPropertyOp3
 70
     1
102
RTVSPropertyOp4
 70
     1
102
RTVSPropertyOp5
 70
     1
102
RTVSPropertyOp6
 70
     1
102
RTVSPropertyOp7
 70
     1
102
RTVSPropertyOp8
 70
     1
102
RTVSPropertyOp9
 70
     1
102
RTVSPropertyOp10
 70
     1
102
RTVSPropertyOp11
 70
     1
102
RTVSPropertyOp12
 70
     1
102
RTVSPropertyOp13
 70
     1
102
RTVSPropertyOp14
 70
     1
102
RTVSPropertyOp15
 70
     1
102
RTVSPropertyOp16
 70
     1
102
RTVSPropertyOp17
 70
     1
102
RTVSPropertyOp18
 70
     1
102
RTVSPropertyOp19
 70
     1
102
RTVSPropertyOp20
 70
     1
102
RTVSPropertyOp21
 70
     1
102
RTVSPropertyOp22
 70
     1
102
RTVSPropertyOp23
 70
     1
102
RTVSPropertyOp24
 70
     1
102
RTVSPropertyOp25
 70
     1
102
RTVSPropertyOp26
 70
     1
102
RTVSPropertyOp27
 70
     1
102
RTVSPropertyOp28
 70
     1
102
RTVSPropertyOp29
 70
     1
102
RTVSPropertyOp30
 70
     1
102
RTVSPropertyOp31
 70
     1
102
RTVSPropertyOp32
 70
     1
  0
XRECORD
  5
A025
102
{ACAD_REACTORS
330
A024
102
}
330
A024
100
AcDbXrecord
280
     1
102
RTVSPropertyOp0
 70
     0
102
RTVSPropertyOp1
 70
     0
102
RTVSPropertyOp2
 70
     0
102
RTVSPropertyOp3
 70
     0
102
RTVSPropertyOp4
 70
     0
102
RTVSPropertyOp5
 70
     0
102
RTVSPropertyOp6
 70
     0
102
RTVSPropertyOp7
 70
     0
102
RTVSPropertyOp8
 70
     0
102
RTVSPropertyOp9
 70
     0
102
RTVSPropertyOp10
 70
     0
102
RTVSPropertyOp11
 70
     0
102
RTVSPropertyOp12
 70
     0
102
RTVSPropertyOp13
 70
     0
102
RTVSPropertyOp14
 70
     2
102
RTVSPropertyOp15
 70
     0
102
RTVSPropertyOp16
 70
     0
102
RTVSPropertyOp17
 70
     0
102
RTVSPropertyOp18
 70
     0
102
RTVSPropertyOp19
 70
     0
102
RTVSPropertyOp20
 70
     0
102
RTVSPropertyOp21
 70
     0
102
RTVSPropertyOp22
 70
     0
102
RTVSPropertyOp23
 70
     0
102
RTVSPropertyOp24
 70
     0
102
RTVSPropertyOp25
 70
     0
102
RTVSPropertyOp26
 70
     0
102
RTVSPropertyOp27
 70
     0
102
RTVSPropertyOp28
 70
     1
102
RTVSPropertyOp29
 70
     1
102
RTVSPropertyOp30
 70
     1
102
RTVSPropertyOp31
 70
     1
102
RTVSPropertyOp32
 70
     1
  0
XRECORD
  5
A01F
102
{ACAD_REACTORS
330
A01E
102
}
330
A01E
100
AcDbXrecord
280
     1
102
RTVSPropertyOp0
 70
     1
102
RTVSPropertyOp1
 70
     1
102
RTVSPropertyOp2
 70
     1
102
RTVSPropertyOp3
 70
     1
102
RTVSPropertyOp4
 70
     1
102
RTVSPropertyOp5
 70
     1
102
RTVSPropertyOp6
 70
     1
102
RTVSPropertyOp7
 70
     1
102
RTVSPropertyOp8
 70
     1
102
RTVSPropertyOp9
 70
     1
102
RTVSPropertyOp10
 70
     1
102
RTVSPropertyOp11
 70
     1
102
RTVSPropertyOp12
 70
     1
102
RTVSPropertyOp13
 70
     1
102
RTVSPropertyOp14
 70
     1
102
RTVSPropertyOp15
 70
     1
102
RTVSPropertyOp16
 70
     1
102
RTVSPropertyOp17
 70
     1
102
RTVSPropertyOp18
 70
     1
102
RTVSPropertyOp19
 70
     1
102
RTVSPropertyOp20
 70
     1
102
RTVSPropertyOp21
 70
     1
102
RTVSPropertyOp22
 70
     1
102
RTVSPropertyOp23
 70
     1
102
RTVSPropertyOp24
 70
     1
102
RTVSPropertyOp25
 70
     1
102
RTVSPropertyOp26
 70
     1
102
RTVSPropertyOp27
 70
     1
102
RTVSPropertyOp28
 70
     1
102
RTVSPropertyOp29
 70
     1
102
RTVSPropertyOp30
 70
     1
102
RTVSPropertyOp31
 70
     1
102
RTVSPropertyOp32
 70
     1
  0
XRECORD
  5
A027
102
{ACAD_REACTORS
330
A026
102
}
330
A026
100
AcDbXrecord
280
     1
102
RTVSPropertyOp0
 70
     0
102
RTVSPropertyOp1
 70
     0
102
RTVSPropertyOp2
 70
     0
102
RTVSPropertyOp3
 70
     0
102
RTVSPropertyOp4
 70
     0
102
RTVSPropertyOp5
 70
     0
102
RTVSPropertyOp6
 70
     0
102
RTVSPropertyOp7
 70
     0
102
RTVSPropertyOp8
 70
     0
102
RTVSPropertyOp9
 70
     0
102
RTVSPropertyOp10
 70
     0
102
RTVSPropertyOp11
 70
     0
102
RTVSPropertyOp12
 70
     0
102
RTVSPropertyOp13
 70
     0
102
RTVSPropertyOp14
 70
     2
102
RTVSPropertyOp15
 70
     0
102
RTVSPropertyOp16
 70
     0
102
RTVSPropertyOp17
 70
     0
102
RTVSPropertyOp18
 70
     0
102
RTVSPropertyOp19
 70
     0
102
RTVSPropertyOp20
 70
     0
102
RTVSPropertyOp21
 70
     0
102
RTVSPropertyOp22
 70
     0
102
RTVSPropertyOp23
 70
     0
102
RTVSPropertyOp24
 70
     0
102
RTVSPropertyOp25
 70
     0
102
RTVSPropertyOp26
 70
     0
102
RTVSPropertyOp27
 70
     0
102
RTVSPropertyOp28
 70
     1
102
RTVSPropertyOp29
 70
     1
102
RTVSPropertyOp30
 70
     1
102
RTVSPropertyOp31
 70
     1
102
RTVSPropertyOp32
 70
     1
  0
XRECORD
  5
A017
102
{ACAD_REACTORS
330
A016
102
}
330
A016
100
AcDbXrecord
280
     1
102
RTVSPropertyOp0
 70
     1
102
RTVSPropertyOp1
 70
     1
102
RTVSPropertyOp2
 70
     1
102
RTVSPropertyOp3
 70
     1
102
RTVSPropertyOp4
 70
     1
102
RTVSPropertyOp5
 70
     1
102
RTVSPropertyOp6
 70
     1
102
RTVSPropertyOp7
 70
     1
102
RTVSPropertyOp8
 70
     1
102
RTVSPropertyOp9
 70
     1
102
RTVSPropertyOp10
 70
     1
102
RTVSPropertyOp11
 70
     1
102
RTVSPropertyOp12
 70
     1
102
RTVSPropertyOp13
 70
     1
102
RTVSPropertyOp14
 70
     1
102
RTVSPropertyOp15
 70
     1
102
RTVSPropertyOp16
 70
     1
102
RTVSPropertyOp17
 70
     1
102
RTVSPropertyOp18
 70
     1
102
RTVSPropertyOp19
 70
     1
102
RTVSPropertyOp20
 70
     1
102
RTVSPropertyOp21
 70
     1
102
RTVSPropertyOp22
 70
     1
102
RTVSPropertyOp23
 70
     1
102
RTVSPropertyOp24
 70
     1
102
RTVSPropertyOp25
 70
     1
102
RTVSPropertyOp26
 70
     1
102
RTVSPropertyOp27
 70
     1
102
RTVSPropertyOp28
 70
     1
102
RTVSPropertyOp29
 70
     1
102
RTVSPropertyOp30
 70
     1
102
RTVSPropertyOp31
 70
     1
102
RTVSPropertyOp32
 70
     1
  0
XRECORD
  5
A037
102
{ACAD_REACTORS
330
A036
102
}
330
A036
100
AcDbXrecord
280
     1
102
RTVSPropertyOp0
 70
     1
102
RTVSPropertyOp1
 70
     1
102
RTVSPropertyOp2
 70
     1
102
RTVSPropertyOp3
 70
     1
102
RTVSPropertyOp4
 70
     1
102
RTVSPropertyOp5
 70
     1
102
RTVSPropertyOp6
 70
     1
102
RTVSPropertyOp7
 70
     1
102
RTVSPropertyOp8
 70
     1
102
RTVSPropertyOp9
 70
     1
102
RTVSPropertyOp10
 70
     1
102
RTVSPropertyOp11
 70
     1
102
RTVSPropertyOp12
 70
     1
102
RTVSPropertyOp13
 70
     1
102
RTVSPropertyOp14
 70
     1
102
RTVSPropertyOp15
 70
     1
102
RTVSPropertyOp16
 70
     1
102
RTVSPropertyOp17
 70
     1
102
RTVSPropertyOp18
 70
     1
102
RTVSPropertyOp19
 70
     1
102
RTVSPropertyOp20
 70
     1
102
RTVSPropertyOp21
 70
     1
102
RTVSPropertyOp22
 70
     1
102
RTVSPropertyOp23
 70
     1
102
RTVSPropertyOp24
 70
     1
102
RTVSPropertyOp25
 70
     1
102
RTVSPropertyOp26
 70
     1
102
RTVSPropertyOp27
 70
     1
102
RTVSPropertyOp28
 70
     1
102
RTVSPropertyOp29
 70
     1
102
RTVSPropertyOp30
 70
     1
102
RTVSPropertyOp31
 70
     1
102
RTVSPropertyOp32
 70
     1
  0
XRECORD
  5
A035
102
{ACAD_REACTORS
330
A034
102
}
330
A034
100
AcDbXrecord
280
     1
102
RTVSPropertyOp0
 70
     1
102
RTVSPropertyOp1
 70
     1
102
RTVSPropertyOp2
 70
     1
102
RTVSPropertyOp3
 70
     1
102
RTVSPropertyOp4
 70
     1
102
RTVSPropertyOp5
 70
     1
102
RTVSPropertyOp6
 70
     1
102
RTVSPropertyOp7
 70
     1
102
RTVSPropertyOp8
 70
     1
102
RTVSPropertyOp9
 70
     1
102
RTVSPropertyOp10
 70
     1
102
RTVSPropertyOp11
 70
     1
102
RTVSPropertyOp12
 70
     1
102
RTVSPropertyOp13
 70
     1
102
RTVSPropertyOp14
 70
     1
102
RTVSPropertyOp15
 70
     1
102
RTVSPropertyOp16
 70
     1
102
RTVSPropertyOp17
 70
     1
102
RTVSPropertyOp18
 70
     1
102
RTVSPropertyOp19
 70
     1
102
RTVSPropertyOp20
 70
     1
102
RTVSPropertyOp21
 70
     1
102
RTVSPropertyOp22
 70
     1
102
RTVSPropertyOp23
 70
     1
102
RTVSPropertyOp24
 70
     1
102
RTVSPropertyOp25
 70
     1
102
RTVSPropertyOp26
 70
     1
102
RTVSPropertyOp27
 70
     1
102
RTVSPropertyOp28
 70
     1
102
RTVSPropertyOp29
 70
     1
102
RTVSPropertyOp30
 70
     1
102
RTVSPropertyOp31
 70
     1
102
RTVSPropertyOp32
 70
     1
  0
XRECORD
  5
A02F
102
{ACAD_REACTORS
330
A02E
102
}
330
A02E
100
AcDbXrecord
280
     1
102
RTVSPropertyOp0
 70
     1
102
RTVSPropertyOp1
 70
     1
102
RTVSPropertyOp2
 70
     1
102
RTVSPropertyOp3
 70
     1
102
RTVSPropertyOp4
 70
     1
102
RTVSPropertyOp5
 70
     1
102
RTVSPropertyOp6
 70
     1
102
RTVSPropertyOp7
 70
     1
102
RTVSPropertyOp8
 70
     1
102
RTVSPropertyOp9
 70
     1
102
RTVSPropertyOp10
 70
     1
102
RTVSPropertyOp11
 70
     1
102
RTVSPropertyOp12
 70
     1
102
RTVSPropertyOp13
 70
     1
102
RTVSPropertyOp14
 70
     1
102
RTVSPropertyOp15
 70
     1
102
RTVSPropertyOp16
 70
     1
102
RTVSPropertyOp17
 70
     1
102
RTVSPropertyOp18
 70
     1
102
RTVSPropertyOp19
 70
     1
102
RTVSPropertyOp20
 70
     1
102
RTVSPropertyOp21
 70
     1
102
RTVSPropertyOp22
 70
     1
102
RTVSPropertyOp23
 70
     1
102
RTVSPropertyOp24
 70
     1
102
RTVSPropertyOp25
 70
     1
102
RTVSPropertyOp26
 70
     1
102
RTVSPropertyOp27
 70
     1
102
RTVSPropertyOp28
 70
     1
102
RTVSPropertyOp29
 70
     1
102
RTVSPropertyOp30
 70
     1
102
RTVSPropertyOp31
 70
     1
102
RTVSPropertyOp32
 70
     1
  0
XRECORD
  5
A031
102
{ACAD_REACTORS
330
A030
102
}
330
A030
100
AcDbXrecord
280
     1
102
RTVSPropertyOp0
 70
     1
102
RTVSPropertyOp1
 70
     1
102
RTVSPropertyOp2
 70
     1
102
RTVSPropertyOp3
 70
     1
102
RTVSPropertyOp4
 70
     1
102
RTVSPropertyOp5
 70
     1
102
RTVSPropertyOp6
 70
     1
102
RTVSPropertyOp7
 70
     1
102
RTVSPropertyOp8
 70
     1
102
RTVSPropertyOp9
 70
     1
102
RTVSPropertyOp10
 70
     1
102
RTVSPropertyOp11
 70
     1
102
RTVSPropertyOp12
 70
     1
102
RTVSPropertyOp13
 70
     1
102
RTVSPropertyOp14
 70
     1
102
RTVSPropertyOp15
 70
     1
102
RTVSPropertyOp16
 70
     1
102
RTVSPropertyOp17
 70
     1
102
RTVSPropertyOp18
 70
     1
102
RTVSPropertyOp19
 70
     1
102
RTVSPropertyOp20
 70
     1
102
RTVSPropertyOp21
 70
     1
102
RTVSPropertyOp22
 70
     1
102
RTVSPropertyOp23
 70
     1
102
RTVSPropertyOp24
 70
     1
102
RTVSPropertyOp25
 70
     1
102
RTVSPropertyOp26
 70
     1
102
RTVSPropertyOp27
 70
     1
102
RTVSPropertyOp28
 70
     1
102
RTVSPropertyOp29
 70
     1
102
RTVSPropertyOp30
 70
     1
102
RTVSPropertyOp31
 70
     1
102
RTVSPropertyOp32
 70
     1
  0
XRECORD
  5
A01D
102
{ACAD_REACTORS
330
A01C
102
}
330
A01C
100
AcDbXrecord
280
     1
102
RTVSPropertyOp0
 70
     1
102
RTVSPropertyOp1
 70
     1
102
RTVSPropertyOp2
 70
     1
102
RTVSPropertyOp3
 70
     1
102
RTVSPropertyOp4
 70
     1
102
RTVSPropertyOp5
 70
     1
102
RTVSPropertyOp6
 70
     1
102
RTVSPropertyOp7
 70
     1
102
RTVSPropertyOp8
 70
     1
102
RTVSPropertyOp9
 70
     1
102
RTVSPropertyOp10
 70
     1
102
RTVSPropertyOp11
 70
     1
102
RTVSPropertyOp12
 70
     1
102
RTVSPropertyOp13
 70
     1
102
RTVSPropertyOp14
 70
     1
102
RTVSPropertyOp15
 70
     1
102
RTVSPropertyOp16
 70
     1
102
RTVSPropertyOp17
 70
     1
102
RTVSPropertyOp18
 70
     1
102
RTVSPropertyOp19
 70
     1
102
RTVSPropertyOp20
 70
     1
102
RTVSPropertyOp21
 70
     1
102
RTVSPropertyOp22
 70
     1
102
RTVSPropertyOp23
 70
     1
102
RTVSPropertyOp24
 70
     1
102
RTVSPropertyOp25
 70
     1
102
RTVSPropertyOp26
 70
     1
102
RTVSPropertyOp27
 70
     1
102
RTVSPropertyOp28
 70
     1
102
RTVSPropertyOp29
 70
     1
102
RTVSPropertyOp30
 70
     1
102
RTVSPropertyOp31
 70
     1
102
RTVSPropertyOp32
 70
     1
  0
XRECORD
  5
A02B
102
{ACAD_REACTORS
330
A02A
102
}
330
A02A
100
AcDbXrecord
280
     1
102
RTVSPropertyOp0
 70
     1
102
RTVSPropertyOp1
 70
     1
102
RTVSPropertyOp2
 70
     1
102
RTVSPropertyOp3
 70
     1
102
RTVSPropertyOp4
 70
     1
102
RTVSPropertyOp5
 70
     1
102
RTVSPropertyOp6
 70
     1
102
RTVSPropertyOp7
 70
     1
102
RTVSPropertyOp8
 70
     1
102
RTVSPropertyOp9
 70
     1
102
RTVSPropertyOp10
 70
     1
102
RTVSPropertyOp11
 70
     1
102
RTVSPropertyOp12
 70
     1
102
RTVSPropertyOp13
 70
     1
102
RTVSPropertyOp14
 70
     1
102
RTVSPropertyOp15
 70
     1
102
RTVSPropertyOp16
 70
     1
102
RTVSPropertyOp17
 70
     1
102
RTVSPropertyOp18
 70
     1
102
RTVSPropertyOp19
 70
     1
102
RTVSPropertyOp20
 70
     1
102
RTVSPropertyOp21
 70
     1
102
RTVSPropertyOp22
 70
     1
102
RTVSPropertyOp23
 70
     1
102
RTVSPropertyOp24
 70
     1
102
RTVSPropertyOp25
 70
     1
102
RTVSPropertyOp26
 70
     1
102
RTVSPropertyOp27
 70
     1
102
RTVSPropertyOp28
 70
     1
102
RTVSPropertyOp29
 70
     1
102
RTVSPropertyOp30
 70
     1
102
RTVSPropertyOp31
 70
     1
102
RTVSPropertyOp32
 70
     1
  0
XRECORD
  5
A033
102
{ACAD_REACTORS
330
A032
102
}
330
A032
100
AcDbXrecord
280
     1
102
RTVSPropertyOp0
 70
     1
102
RTVSPropertyOp1
 70
     1
102
RTVSPropertyOp2
 70
     1
102
RTVSPropertyOp3
 70
     1
102
RTVSPropertyOp4
 70
     1
102
RTVSPropertyOp5
 70
     1
102
RTVSPropertyOp6
 70
     1
102
RTVSPropertyOp7
 70
     1
102
RTVSPropertyOp8
 70
     1
102
RTVSPropertyOp9
 70
     1
102
RTVSPropertyOp10
 70
     1
102
RTVSPropertyOp11
 70
     1
102
RTVSPropertyOp12
 70
     1
102
RTVSPropertyOp13
 70
     1
102
RTVSPropertyOp14
 70
     1
102
RTVSPropertyOp15
 70
     1
102
RTVSPropertyOp16
 70
     1
102
RTVSPropertyOp17
 70
     1
102
RTVSPropertyOp18
 70
     1
102
RTVSPropertyOp19
 70
     1
102
RTVSPropertyOp20
 70
     1
102
RTVSPropertyOp21
 70
     1
102
RTVSPropertyOp22
 70
     1
102
RTVSPropertyOp23
 70
     1
102
RTVSPropertyOp24
 70
     1
102
RTVSPropertyOp25
 70
     1
102
RTVSPropertyOp26
 70
     1
102
RTVSPropertyOp27
 70
     1
102
RTVSPropertyOp28
 70
     1
102
RTVSPropertyOp29
 70
     1
102
RTVSPropertyOp30
 70
     1
102
RTVSPropertyOp31
 70
     1
102
RTVSPropertyOp32
 70
     1
  0
ENDSEC
  0
EOF
