  0
SECTION
  2
HEADER
  9
$ACADVER
  1
AC1015
  9
$ACADMAINTVER
 70
    20
  9
$DWGCODEPAGE
  3
ANSI_932
  9
$INSBASE
 10
0.0
 20
0.0
 30
0.0
  9
$EXTMIN
 10
417.0564667121347
 20
133.4188260329738
 30
0.0
  9
$EXTMAX
 10
607.0564667121346
 20
413.4188260329738
 30
3.838383838383842
  9
$LIMMIN
 10
0.0
 20
0.0
  9
$LIMMAX
 10
420.0
 20
297.0
  9
$ORTHOMODE
 70
     1
  9
$REGENMODE
 70
     1
  9
$FILLMODE
 70
     1
  9
$QTEXTMODE
 70
     0
  9
$MIRRTEXT
 70
     1
  9
$LTSCALE
 40
1.0
  9
$ATTMODE
 70
     1
  9
$TEXTSIZE
 40
2.5
  9
$TRACEWID
 40
1.0
  9
$TEXTSTYLE
  7
TXT
  9
$CLAYER
  8
mark
  9
$CELTYPE
  6
BYLAYER
  9
$CECOLOR
 62
   256
  9
$CELTSCALE
 40
1.0
  9
$DISPSILH
 70
     0
  9
$DIMSCALE
 40
1.0
  9
$DIMASZ
 40
3.0
  9
$DIMEXO
 40
0.8
  9
$DIMDLI
 40
0.38
  9
$DIMRND
 40
0.0
  9
$DIMDLE
 40
0.0
  9
$DIMEXE
 40
0.8
  9
$DIMTP
 40
0.0
  9
$DIMTM
 40
0.0
  9
$DIMTXT
 40
2.5
  9
$DIMCEN
 40
0.09
  9
$DIMTSZ
 40
0.0
  9
$DIMTOL
 70
     0
  9
$DIMLIM
 70
     0
  9
$DIMTIH
 70
     0
  9
$DIMTOH
 70
     0
  9
$DIMSE1
 70
     0
  9
$DIMSE2
 70
     0
  9
$DIMTAD
 70
     3
  9
$DIMZIN
 70
     8
  9
$DIMBLK
  1
Open30
  9
$DIMASO
 70
     1
  9
$DIMSHO
 70
     1
  9
$DIMPOST
  1

  9
$DIMAPOST
  1

  9
$DIMALT
 70
     0
  9
$DIMALTD
 70
     2
  9
$DIMALTF
 40
25.4
  9
$DIMLFAC
 40
1.0
  9
$DIMTOFL
 70
     1
  9
$DIMTVP
 40
0.0
  9
$DIMTIX
 70
     0
  9
$DIMSOXD
 70
     0
  9
$DIMSAH
 70
     0
  9
$DIMBLK1
  1

  9
$DIMBLK2
  1

  9
$DIMSTYLE
  2
STANDARD
  9
$DIMCLRD
 70
   256
  9
$DIMCLRE
 70
   256
  9
$DIMCLRT
 70
     3
  9
$DIMTFAC
 40
1.0
  9
$DIMGAP
 40
0.8
  9
$DIMJUST
 70
     0
  9
$DIMSD1
 70
     0
  9
$DIMSD2
 70
     0
  9
$DIMTOLJ
 70
     1
  9
$DIMTZIN
 70
     0
  9
$DIMALTZ
 70
     0
  9
$DIMALTTZ
 70
     0
  9
$DIMUPT
 70
     0
  9
$DIMDEC
 70
     2
  9
$DIMTDEC
 70
     2
  9
$DIMALTU
 70
     2
  9
$DIMALTTD
 70
     2
  9
$DIMTXSTY
  7
STANDARD
  9
$DIMAUNIT
 70
     0
  9
$DIMADEC
 70
     2
  9
$DIMALTRND
 40
0.0
  9
$DIMAZIN
 70
     2
  9
$DIMDSEP
 70
    46
  9
$DIMATFIT
 70
     3
  9
$DIMFRAC
 70
     0
  9
$DIMLDRBLK
  1
Open30
  9
$DIMLUNIT
 70
     2
  9
$DIMLWD
 70
    -2
  9
$DIMLWE
 70
    -2
  9
$DIMTMOVE
 70
     0
  9
$LUNITS
 70
     2
  9
$LUPREC
 70
     2
  9
$SKETCHINC
 40
1.0
  9
$FILLETRAD
 40
2.0
  9
$AUNITS
 70
     0
  9
$AUPREC
 70
     2
  9
$MENU
  1
.
  9
$ELEVATION
 40
0.0
  9
$PELEVATION
 40
0.0
  9
$THICKNESS
 40
0.0
  9
$LIMCHECK
 70
     0
  9
$CHAMFERA
 40
2.0
  9
$CHAMFERB
 40
2.0
  9
$CHAMFERC
 40
1.75
  9
$CHAMFERD
 40
0.0174532925199433
  9
$SKPOLY
 70
     0
  9
$TDCREATE
 40
2451555.620234838
  9
$TDUCREATE
 40
2451555.245234838
  9
$TDUPDATE
 40
2457828.489044885
  9
$TDUUPDATE
 40
2457828.114044884
  9
$TDINDWG
 40
2.3448833912
  9
$TDUSRTIMER
 40
2.3448833912
  9
$USRTIMER
 70
     1
  9
$ANGBASE
 50
0.0
  9
$ANGDIR
 70
     0
  9
$PDMODE
 70
     0
  9
$PDSIZE
 40
0.0
  9
$PLINEWID
 40
0.0
  9
$SPLFRAME
 70
     0
  9
$SPLINETYPE
 70
     6
  9
$SPLINESEGS
 70
     8
  9
$HANDSEED
  5
9015
  9
$SURFTAB1
 70
     6
  9
$SURFTAB2
 70
     6
  9
$SURFTYPE
 70
     6
  9
$SURFU
 70
     6
  9
$SURFV
 70
     6
  9
$UCSBASE
  2

  9
$UCSNAME
  2

  9
$UCSORG
 10
0.0
 20
0.0
 30
0.0
  9
$UCSXDIR
 10
1.0
 20
0.0
 30
0.0
  9
$UCSYDIR
 10
0.0
 20
1.0
 30
0.0
  9
$UCSORTHOREF
  2

  9
$UCSORTHOVIEW
 70
     0
  9
$UCSORGTOP
 10
0.0
 20
0.0
 30
0.0
  9
$UCSORGBOTTOM
 10
0.0
 20
0.0
 30
0.0
  9
$UCSORGLEFT
 10
0.0
 20
0.0
 30
0.0
  9
$UCSORGRIGHT
 10
0.0
 20
0.0
 30
0.0
  9
$UCSORGFRONT
 10
0.0
 20
0.0
 30
0.0
  9
$UCSORGBACK
 10
0.0
 20
0.0
 30
0.0
  9
$PUCSBASE
  2

  9
$PUCSNAME
  2

  9
$PUCSORG
 10
0.0
 20
0.0
 30
0.0
  9
$PUCSXDIR
 10
1.0
 20
0.0
 30
0.0
  9
$PUCSYDIR
 10
0.0
 20
1.0
 30
0.0
  9
$PUCSORTHOREF
  2

  9
$PUCSORTHOVIEW
 70
     0
  9
$PUCSORGTOP
 10
0.0
 20
0.0
 30
0.0
  9
$PUCSORGBOTTOM
 10
0.0
 20
0.0
 30
0.0
  9
$PUCSORGLEFT
 10
0.0
 20
0.0
 30
0.0
  9
$PUCSORGRIGHT
 10
0.0
 20
0.0
 30
0.0
  9
$PUCSORGFRONT
 10
0.0
 20
0.0
 30
0.0
  9
$PUCSORGBACK
 10
0.0
 20
0.0
 30
0.0
  9
$USERI1
 70
     0
  9
$USERI2
 70
     0
  9
$USERI3
 70
     0
  9
$USERI4
 70
     0
  9
$USERI5
 70
     0
  9
$USERR1
 40
0.0
  9
$USERR2
 40
0.0
  9
$USERR3
 40
0.0
  9
$USERR4
 40
0.0
  9
$USERR5
 40
0.0
  9
$WORLDVIEW
 70
     1
  9
$SHADEDGE
 70
     3
  9
$SHADEDIF
 70
    70
  9
$TILEMODE
 70
     1
  9
$MAXACTVP
 70
    48
  9
$PINSBASE
 10
0.0
 20
0.0
 30
0.0
  9
$PLIMCHECK
 70
     0
  9
$PEXTMIN
 10
1.000000000000000E+20
 20
1.000000000000000E+20
 30
1.000000000000000E+20
  9
$PEXTMAX
 10
-1.000000000000000E+20
 20
-1.000000000000000E+20
 30
-1.000000000000000E+20
  9
$PLIMMIN
 10
0.0
 20
0.0
  9
$PLIMMAX
 10
420.0
 20
297.0
  9
$UNITMODE
 70
     0
  9
$VISRETAIN
 70
     1
  9
$PLINEGEN
 70
     0
  9
$PSLTSCALE
 70
     1
  9
$TREEDEPTH
 70
  3020
  9
$CMLSTYLE
  2
STANDARD
  9
$CMLJUST
 70
     0
  9
$CMLSCALE
 40
20.0
  9
$PROXYGRAPHICS
 70
     1
  9
$MEASUREMENT
 70
     1
  9
$CELWEIGHT
370
    -1
  9
$ENDCAPS
280
     0
  9
$JOINSTYLE
280
     0
  9
$LWDISPLAY
290
     0
  9
$INSUNITS
 70
     0
  9
$HYPERLINKBASE
  1

  9
$STYLESHEET
  1
monochrome.ctb
  9
$XEDIT
290
     1
  9
$CEPSNTYPE
380
     0
  9
$PSTYLEMODE
290
     1
  9
$FINGERPRINTGUID
  2
{1CF51E8A-A506-11D4-A7D9-AF69F5C20846}
  9
$VERSIONGUID
  2
{875B2CEB-4909-4771-B1A3-AE4E93C11EE4}
  9
$EXTNAMES
290
     1
  9
$PSVPSCALE
 40
0.0
  9
$OLESTARTUP
290
     0
  0
ENDSEC
  0
SECTION
  2
CLASSES
  0
CLASS
  1
DICTIONARYVAR
  2
AcDbDictionaryVar
  3
ObjectDBX Classes
 90
        0
280
     0
281
     0
  0
CLASS
  1
SORTENTSTABLE
  2
AcDbSortentsTable
  3
ObjectDBX Classes
 90
        0
280
     0
281
     0
  0
CLASS
  1
ACDBDICTIONARYWDFLT
  2
AcDbDictionaryWithDefault
  3
ObjectDBX Classes
 90
        0
280
     0
281
     0
  0
CLASS
  1
ACDBPLACEHOLDER
  2
AcDbPlaceHolder
  3
ObjectDBX Classes
 90
        0
280
     0
281
     0
  0
CLASS
  1
LAYOUT
  2
AcDbLayout
  3
ObjectDBX Classes
 90
        0
280
     0
281
     0
  0
CLASS
  1
TABLESTYLE
  2
AcDbTableStyle
  3
ObjectDBX Classes
 90
     2047
280
     0
281
     0
  0
ENDSEC
  0
SECTION
  2
TABLES
  0
TABLE
  2
VPORT
  5
8
330
0
100
AcDbSymbolTable
 70
     2
  0
VPORT
  5
900F
330
8
100
AcDbSymbolTableRecord
100
AcDbViewportTableRecord
  2
*Active
 70
     0
 10
0.0
 20
0.0
 11
1.0
 21
1.0
 12
688.0073371197227
 22
273.4235497448984
 13
0.0
 23
0.0
 14
10.0
 24
10.0
 15
10.0
 25
10.0
 16
0.0
 26
0.0
 36
1.0
 17
0.0
 27
0.0
 37
0.0
 40
283.4295635078844
 41
2.647181628392484
 42
50.0
 43
0.0
 44
0.0
 50
0.0
 51
0.0
 71
     0
 72
 20000
 73
     1
 74
     1
 75
     0
 76
     0
 77
     0
 78
     0
281
     0
 65
     1
110
0.0
120
0.0
130
0.0
111
1.0
121
0.0
131
0.0
112
0.0
122
1.0
132
0.0
 79
     0
146
0.0
  0
ENDTAB
  0
TABLE
  2
LTYPE
  5
5
330
0
100
AcDbSymbolTable
 70
     7
  0
LTYPE
  5
12
330
5
100
AcDbSymbolTableRecord
100
AcDbLinetypeTableRecord
  2
BYBLOCK
 70
     0
  3

 72
    65
 73
     0
 40
0.0
  0
LTYPE
  5
13
330
5
100
AcDbSymbolTableRecord
100
AcDbLinetypeTableRecord
  2
BYLAYER
 70
     0
  3

 72
    65
 73
     0
 40
0.0
  0
LTYPE
  5
14
330
5
100
AcDbSymbolTableRecord
100
AcDbLinetypeTableRecord
  2
CONTINUOUS
 70
     0
  3
Solid line
 72
    65
 73
     0
 40
0.0
  0
LTYPE
  5
9D
330
5
100
AcDbSymbolTableRecord
100
AcDbLinetypeTableRecord
  2
CENTERX2
 70
     0
  3
Center (2x) ________  __  ________  __  _____
 72
    65
 73
     4
 40
101.6
 49
63.5
 74
     0
 49
-12.7
 74
     0
 49
12.7
 74
     0
 49
-12.7
 74
     0
  0
LTYPE
  5
A1
330
5
100
AcDbSymbolTableRecord
100
AcDbLinetypeTableRecord
  2
DASHED
 70
     0
  3
Dashed __ __ __ __ __ __ __ __ __ __ __ __ __ _
 72
    65
 73
     2
 40
19.05
 49
12.7
 74
     0
 49
-6.349999999999999
 74
     0
  0
LTYPE
  5
A2
330
5
100
AcDbSymbolTableRecord
100
AcDbLinetypeTableRecord
  2
DASHED2
 70
     0
  3
Dashed (.5x) _ _ _ _ _ _ _ _ _ _ _ _ _ _ _ _ _
 72
    65
 73
     2
 40
9.524999999999998
 49
6.349999999999999
 74
     0
 49
-3.174999999999999
 74
     0
  0
LTYPE
  5
A5
330
5
100
AcDbSymbolTableRecord
100
AcDbLinetypeTableRecord
  2
DIVIDE2
 70
     0
  3
Divide (.5x) __..__..__..__..__..__..__..__.._
 72
    65
 73
     6
 40
15.875
 49
6.349999999999999
 74
     0
 49
-3.174999999999999
 74
     0
 49
0.0
 74
     0
 49
-3.174999999999999
 74
     0
 49
0.0
 74
     0
 49
-3.174999999999999
 74
     0
  0
LTYPE
  5
650B
330
5
100
AcDbSymbolTableRecord
100
AcDbLinetypeTableRecord
  2
CENTER
 70
     0
  3
Center ____ _ ____ _ ____ _ ____ _ ____ _ ____
 72
    65
 73
     4
 40
50.8
 49
31.75
 74
     0
 49
-6.349999999999999
 74
     0
 49
6.349999999999999
 74
     0
 49
-6.349999999999999
 74
     0
  0
LTYPE
  5
650C
330
5
100
AcDbSymbolTableRecord
100
AcDbLinetypeTableRecord
  2
HIDDEN
 70
     0
  3
Hidden __ __ __ __ __ __ __ __ __ __ __ __ __ _
 72
    65
 73
     2
 40
9.524999999999998
 49
6.349999999999999
 74
     0
 49
-3.174999999999999
 74
     0
  0
ENDTAB
  0
TABLE
  2
LAYER
  5
2
102
{ACAD_XDICTIONARY
360
7FFF
102
}
330
0
100
AcDbSymbolTable
 70
    10
  0
LAYER
  5
E
330
2
100
AcDbSymbolTableRecord
100
AcDbLayerTableRecord
  2
0
 70
     0
 62
     7
  6
CONTINUOUS
370
    -3
390
5CF2
  0
LAYER
  5
B9
330
2
100
AcDbSymbolTableRecord
100
AcDbLayerTableRecord
  2
dim
 70
     0
 62
     3
  6
CONTINUOUS
370
    -3
390
5CF2
  0
LAYER
  5
F2
330
2
100
AcDbSymbolTableRecord
100
AcDbLayerTableRecord
  2
DEFPOINTS
 70
     0
 62
     7
  6
CONTINUOUS
290
     0
370
    -3
390
5CF2
  0
LAYER
  5
5F8B
330
2
100
AcDbSymbolTableRecord
100
AcDbLayerTableRecord
  2
mark
 70
     0
 62
     6
  6
CONTINUOUS
370
    -3
390
5CF2
  0
LAYER
  5
644E
330
2
100
AcDbSymbolTableRecord
100
AcDbLayerTableRecord
  2
frame
 70
     0
 62
     9
  6
CONTINUOUS
370
    -3
390
5CF2
  0
LAYER
  5
650D
330
2
100
AcDbSymbolTableRecord
100
AcDbLayerTableRecord
  2
center
 70
     0
 62
     1
  6
CENTER
370
    -3
390
5CF2
  0
LAYER
  5
650E
330
2
100
AcDbSymbolTableRecord
100
AcDbLayerTableRecord
  2
bowle
 70
     0
 62
     4
  6
HIDDEN
370
    -3
390
5CF2
  0
LAYER
  5
650F
330
2
100
AcDbSymbolTableRecord
100
AcDbLayerTableRecord
  2
contour
 70
     0
 62
     2
  6
CONTINUOUS
370
    -3
390
5CF2
  0
LAYER
  5
6510
330
2
100
AcDbSymbolTableRecord
100
AcDbLayerTableRecord
  2
section
 70
     0
 62
     5
  6
CONTINUOUS
370
    -3
390
5CF2
  0
LAYER
  5
7D87
330
2
100
AcDbSymbolTableRecord
100
AcDbLayerTableRecord
  2
TXT
 70
     0
 62
     3
  6
DASHED
370
    -3
390
5CF2
  0
ENDTAB
  0
TABLE
  2
STYLE
  5
3
330
0
100
AcDbSymbolTable
 70
     5
  0
STYLE
  5
F
330
3
100
AcDbSymbolTableRecord
100
AcDbTextStyleTableRecord
  2
STANDARD
 70
     0
 40
0.0
 41
1.0
 50
0.0
 71
     0
 42
2.5
  3
txt
  4

  0
STYLE
  5
BE
330
3
100
AcDbSymbolTableRecord
100
AcDbTextStyleTableRecord
  2
ISOCP3
 70
     0
 40
0.0
 41
1.0
 50
0.0
 71
     0
 42
2.5
  3
isocp3.shx
  4

  0
STYLE
  5
2A37
330
3
100
AcDbSymbolTableRecord
100
AcDbTextStyleTableRecord
  2
TXT
 70
     0
 40
0.0
 41
1.0
 50
0.0
 71
     0
 42
2.5
  3
txt.shx
  4
bigfont.shx
  0
STYLE
  5
5DCB
330
3
100
AcDbSymbolTableRecord
100
AcDbTextStyleTableRecord
  2
LKK
 70
     0
 40
50.0
 41
1.5
 50
0.0
 71
     0
 42
50.0
  3
MS PGothic.ttf
  4

1001
ACAD
1000
MS PGothic
1071
    32818
  0
STYLE
  5
5DCC
330
3
100
AcDbSymbolTableRecord
100
AcDbTextStyleTableRecord
  2
JL
 70
     0
 40
10.0
 41
0.5
 50
0.0
 71
     0
 42
5.0
  3
MS Mincho.ttf
  4

1001
ACAD
1000
MS Mincho
1071
    32785
  0
ENDTAB
  0
TABLE
  2
VIEW
  5
6
330
0
100
AcDbSymbolTable
 70
     0
  0
ENDTAB
  0
TABLE
  2
UCS
  5
7
330
0
100
AcDbSymbolTable
 70
     0
  0
ENDTAB
  0
TABLE
  2
APPID
  5
9
330
0
100
AcDbSymbolTable
 70
    11
  0
APPID
  5
10
330
9
100
AcDbSymbolTableRecord
100
AcDbRegAppTableRecord
  2
ACAD
 70
     0
  0
APPID
  5
80AD
330
9
100
AcDbSymbolTableRecord
100
AcDbRegAppTableRecord
  2
ACAD_DSTYLE_DIMEXT_LENGTH
 70
     0
  0
APPID
  5
80AE
330
9
100
AcDbSymbolTableRecord
100
AcDbRegAppTableRecord
  2
ACAD_DSTYLE_DIMEXT_ENABLED
 70
     0
  0
APPID
  5
80AF
330
9
100
AcDbSymbolTableRecord
100
AcDbRegAppTableRecord
  2
ACAD_DSTYLE_DIMJOGGED_JOGANGLE_SYMBOL
 70
     0
  0
APPID
  5
80B0
330
9
100
AcDbSymbolTableRecord
100
AcDbRegAppTableRecord
  2
ACAD_DSTYLE_DIMARC_LENGTH_SYMBOL
 70
     0
  0
APPID
  5
84D9
330
9
100
AcDbSymbolTableRecord
100
AcDbRegAppTableRecord
  2
ACAD_EXEMPT_FROM_CAD_STANDARDS
 70
     0
  0
APPID
  5
84F6
330
9
100
AcDbSymbolTableRecord
100
AcDbRegAppTableRecord
  2
ACAD_DSTYLE_DIMTEXT_FILL
 70
     0
  0
APPID
  5
84F9
330
9
100
AcDbSymbolTableRecord
100
AcDbRegAppTableRecord
  2
ACAD_DSTYLE_DIM_LINETYPE
 70
     0
  0
APPID
  5
84FA
330
9
100
AcDbSymbolTableRecord
100
AcDbRegAppTableRecord
  2
ACAD_DSTYLE_DIM_EXT1_LINETYPE
 70
     0
  0
APPID
  5
84FB
330
9
100
AcDbSymbolTableRecord
100
AcDbRegAppTableRecord
  2
ACAD_DSTYLE_DIM_EXT2_LINETYPE
 70
     0
  0
APPID
  5
8F4D
330
9
100
AcDbSymbolTableRecord
100
AcDbRegAppTableRecord
  2
ACAD_PSEXT
 70
     0
  0
ENDTAB
  0
TABLE
  2
DIMSTYLE
  5
A
330
0
100
AcDbSymbolTable
 70
     2
100
AcDbDimStyleTable
 71
     1
340
1D
  0
DIMSTYLE
105
1D
102
{ACAD_REACTORS
330
8C26
330
8C33
330
8C40
330
8C68
330
8C77
330
8C87
330
8CA6
330
8CCF
330
8CDC
330
8CEB
330
8CF8
102
}
330
A
100
AcDbSymbolTableRecord
100
AcDbDimStyleTableRecord
  2
STANDARD
 70
     0
 41
3.0
 42
0.8
 44
0.8
 73
     0
 74
     0
 77
     3
 78
     8
 79
     2
140
2.5
147
0.8
172
     1
176
   256
177
   256
178
     3
179
     2
271
     2
272
     2
340
F
341
8014
342
8014
1001
ACAD_DSTYLE_DIMEXT_LENGTH
1070
   378
1040
0.18
1001
ACAD_DSTYLE_DIMEXT_ENABLED
1070
   383
1070
     0
1001
ACAD_DSTYLE_DIMARC_LENGTH_SYMBOL
1070
   379
1070
     0
1001
ACAD_DSTYLE_DIMJOGGED_JOGANGLE_SYMBOL
1070
   384
1040
1.570796326794896
  0
DIMSTYLE
105
8FEC
330
A
100
AcDbSymbolTableRecord
100
AcDbDimStyleTableRecord
  2
A
 70
     0
 41
2.5
 42
1.0
 43
6.0
 44
1.0
 73
     0
 74
     0
 77
     3
 78
     8
140
3.0
141
0.0
147
1.0
176
     6
177
     6
178
     3
271
     1
272
     1
279
     1
340
2A37
  0
ENDTAB
  0
TABLE
  2
BLOCK_RECORD
  5
1
330
0
100
AcDbSymbolTable
 70
    16
  0
BLOCK_RECORD
  5
18
102
{ACAD_XDICTIONARY
360
45F
102
}
330
1
100
AcDbSymbolTableRecord
100
AcDbBlockTableRecord
  2
*MODEL_SPACE
340
5CF5
  0
BLOCK_RECORD
  5
15
102
{ACAD_XDICTIONARY
360
5D89
102
}
330
1
100
AcDbSymbolTableRecord
100
AcDbBlockTableRecord
  2
*PAPER_SPACE
340
5CF6
  0
BLOCK_RECORD
  5
639D
330
1
100
AcDbSymbolTableRecord
100
AcDbBlockTableRecord
  2
A$C255C26A2
340
0
  0
BLOCK_RECORD
  5
7D25
330
1
100
AcDbSymbolTableRecord
100
AcDbBlockTableRecord
  2
A$C77B462EC
340
0
  0
BLOCK_RECORD
  5
8014
330
1
100
AcDbSymbolTableRecord
100
AcDbBlockTableRecord
  2
_Open30
340
0
102
{BLKREFS
331
8D78
331
8D79
331
8D81
331
8D82
331
8D8A
331
8D8B
331
8D95
331
8D96
331
8DA0
331
8DA1
331
8DAB
331
8DAC
331
8DB4
331
8DBA
331
8DBB
331
8DC3
331
8DC4
331
8DCC
331
8DCD
331
8DD5
331
8DD6
102
}
  0
BLOCK_RECORD
  5
801A
102
{ACAD_XDICTIONARY
360
801B
102
}
330
1
100
AcDbSymbolTableRecord
100
AcDbBlockTableRecord
  2
A
340
0
310
2800000020000000200000000100080000000000000400000000000000000000000000000000000000000000000080000080000000808000800000008000800080800000C0C0C000C0DCC000F0CAA6000020400000206000002080000020A0000020C0000020E00000400000004020000040400000406000004080000040A0
310
000040C0000040E00000600000006020000060400000606000006080000060A0000060C0000060E00000800000008020000080400000806000008080000080A0000080C0000080E00000A0000000A0200000A0400000A0600000A0800000A0A00000A0C00000A0E00000C0000000C0200000C0400000C0600000C0800000C0
310
A00000C0C00000C0E00000E0000000E0200000E0400000E0600000E0800000E0A00000E0C00000E0E00040000000400020004000400040006000400080004000A0004000C0004000E00040200000402020004020400040206000402080004020A0004020C0004020E000404000004040200040404000404060004040800040
310
40A0004040C0004040E00040600000406020004060400040606000406080004060A0004060C0004060E00040800000408020004080400040806000408080004080A0004080C0004080E00040A0000040A0200040A0400040A0600040A0800040A0A00040A0C00040A0E00040C0000040C0200040C0400040C0600040C08000
310
40C0A00040C0C00040C0E00040E0000040E0200040E0400040E0600040E0800040E0A00040E0C00040E0E00080000000800020008000400080006000800080008000A0008000C0008000E00080200000802020008020400080206000802080008020A0008020C0008020E00080400000804020008040400080406000804080
310
008040A0008040C0008040E00080600000806020008060400080606000806080008060A0008060C0008060E00080800000808020008080400080806000808080008080A0008080C0008080E00080A0000080A0200080A0400080A0600080A0800080A0A00080A0C00080A0E00080C0000080C0200080C0400080C0600080C0
310
800080C0A00080C0C00080C0E00080E0000080E0200080E0400080E0600080E0800080E0A00080E0C00080E0E000C0000000C0002000C0004000C0006000C0008000C000A000C000C000C000E000C0200000C0202000C0204000C0206000C0208000C020A000C020C000C020E000C0400000C0402000C0404000C0406000C0
310
408000C040A000C040C000C040E000C0600000C0602000C0604000C0606000C0608000C060A000C060C000C060E000C0800000C0802000C0804000C0806000C0808000C080A000C080C000C080E000C0A00000C0A02000C0A04000C0A06000C0A08000C0A0A000C0A0C000C0A0E000C0C00000C0C02000C0C04000C0C06000
310
C0C08000C0C0A000F0FBFF00A4A0A000808080000000FF0000FF000000FFFF00FF000000FF00FF00FFFF0000FFFFFF0000000000000000000000000000000000000000000000000000000000000000000000000000000000000000000000000000000000000000000000000000000000000000000000000000000000000000
310
00000000000000000000000000000000000000000000000000000000000000000000000000000000000000000000000000000000000000000000000000000000000000000000000000000000000000000000000000000000000000000000000000000000000000000000000000000000000000000000000000000000000000
310
00000000000000000000000000000000000000000000000000000000000000000000000000000000000000000000000000000000000000000000000000000000000000000000000000000000000000000000000000000000000000000000000000000000000000000000000000000000000000000000000000000000000000
310
000000000000FDFDFDFDFDFDFDFDFDFDFDFD0000FD0000000000000000000000000000000000FD0000FA0000000000FA00FD0000FDFD00000000000000000000000000000000FD0000FA0000000000FA00FD0000FDFDFD000000000000000000000000000000FD0000FA0000000000FA00FD0000FDFDFDFD00000000000000
310
00000000000000FD0000FAFAFAFAFAFAFA00FD0000FDFDFDFDFD00000000000000000000000000FD000000FA00000000FA00FD0000FDFDFDFDFDFDFDFDFDFDFDFDFDFDFDFDFDFDFD000000FA000000FA0000FD0000FDFDFDFDFD00000000000000000000000000FD00000000FA0000FA0000FD0000FDFDFDFD000000000000
310
0000000000000000FD00000000FA00FA000000FD0000FDFD00000000000000000000000000000000FD0000000000FAFA000000FD0000FD0000000000000000000000000000000000FD0000000000FA00000000FD0000000000000000000000000000000000000000FDFDFDFDFDFDFDFDFDFDFDFD0000000000000000000000
310
00000000000000000000000000000000000000000000000000000000000000000000000000000000000000000000000000000000000000000000000000000000000000000000000000000000000000000000000000000000000000000000000000000000000000000000000000000000000000000000000000000000000000
310
00000000000000000000000000000000000000000000000000000000000000000000000000000000000000000000000000000000000000000000000000000000000000000000000000000000000000000000000000000000000000000000000000000000000000000000000000000000000000000000000000000000000000
310
0000000000000000000000000000000000000000000000000000000000000000000000000000000000000000000000000000000000000000
102
{BLKREFS
331
8CEA
102
}
  0
BLOCK_RECORD
  5
8C27
330
1
100
AcDbSymbolTableRecord
100
AcDbBlockTableRecord
  2
*D4
340
0
  0
BLOCK_RECORD
  5
8C34
330
1
100
AcDbSymbolTableRecord
100
AcDbBlockTableRecord
  2
*D5
340
0
  0
BLOCK_RECORD
  5
8C41
330
1
100
AcDbSymbolTableRecord
100
AcDbBlockTableRecord
  2
*D6
340
0
  0
BLOCK_RECORD
  5
8C69
330
1
100
AcDbSymbolTableRecord
100
AcDbBlockTableRecord
  2
*D7
340
0
  0
BLOCK_RECORD
  5
8C78
330
1
100
AcDbSymbolTableRecord
100
AcDbBlockTableRecord
  2
*D8
340
0
  0
BLOCK_RECORD
  5
8C88
330
1
100
AcDbSymbolTableRecord
100
AcDbBlockTableRecord
  2
*D9
340
0
  0
BLOCK_RECORD
  5
8CA7
330
1
100
AcDbSymbolTableRecord
100
AcDbBlockTableRecord
  2
*D10
340
0
  0
BLOCK_RECORD
  5
8CD0
330
1
100
AcDbSymbolTableRecord
100
AcDbBlockTableRecord
  2
*D11
340
0
  0
BLOCK_RECORD
  5
8CDD
330
1
100
AcDbSymbolTableRecord
100
AcDbBlockTableRecord
  2
*D12
340
0
  0
BLOCK_RECORD
  5
8CEC
330
1
100
AcDbSymbolTableRecord
100
AcDbBlockTableRecord
  2
*D13
340
0
  0
BLOCK_RECORD
  5
8CF9
330
1
100
AcDbSymbolTableRecord
100
AcDbBlockTableRecord
  2
*D14
340
0
  0
BLOCK_RECORD
  5
8FA4
102
{ACAD_XDICTIONARY
360
8FB4
102
}
330
1
100
AcDbSymbolTableRecord
100
AcDbBlockTableRecord
  2
A$C2EC74796
340
0
1001
ACAD
1000
DesignCenter Data
1002
{
1070
     1
1070
     0
1002
}
  0
ENDTAB
  0
ENDSEC
  0
SECTION
  2
BLOCKS
  0
BLOCK
  5
19
330
18
100
AcDbEntity
  8
0
100
AcDbBlockBegin
  2
*MODEL_SPACE
 70
     0
 10
0.0
 20
0.0
 30
0.0
  3
*MODEL_SPACE
  1

  0
ENDBLK
  5
1A
330
18
100
AcDbEntity
  8
0
100
AcDbBlockEnd
  0
BLOCK
  5
16
330
15
100
AcDbEntity
 67
     1
  8
0
100
AcDbBlockBegin
  2
*PAPER_SPACE
 70
     0
 10
0.0
 20
0.0
 30
0.0
  3
*PAPER_SPACE
  1

  0
ENDBLK
  5
17
330
15
100
AcDbEntity
 67
     1
  8
0
100
AcDbBlockEnd
  0
BLOCK
  5
63A1
330
639D
100
AcDbEntity
  8
0
100
AcDbBlockBegin
  2
A$C255C26A2
 70
     0
 10
0.0
 20
0.0
 30
0.0
  3
A$C255C26A2
  1

  0
LWPOLYLINE
  5
639E
330
639D
100
AcDbEntity
  8
0
100
AcDbPolyline
 90
        3
 70
     1
 43
0.0
 10
7.014806023851633
 20
0.0000006939811783
 10
5.611844869720698
 20
2.430000693981241
 10
8.417767177982568
 20
2.430000693981241
  0
LWPOLYLINE
  5
639F
330
639D
100
AcDbEntity
  8
0
100
AcDbPolyline
 90
        3
 70
     1
 43
0.0
 10
4.20888371558999
 20
0.0000006939811783
 10
2.805922561459283
 20
2.430000693981241
 10
5.611844869720698
 20
2.430000693981241
  0
LWPOLYLINE
  5
63A0
330
639D
100
AcDbEntity
  8
0
100
AcDbPolyline
 90
        3
 70
     1
 43
0.0
 10
1.402961407328348
 20
0.0000006939811783
 10
0.0000002531974133
 20
2.430000693981241
 10
2.805922561459283
 20
2.430000693981241
  0
ENDBLK
  5
63A2
330
639D
100
AcDbEntity
  8
0
100
AcDbBlockEnd
  0
BLOCK
  5
7D2F
330
7D25
100
AcDbEntity
  8
0
100
AcDbBlockBegin
  2
A$C77B462EC
 70
     0
 10
0.0
 20
0.0
 30
0.0
  3
A$C77B462EC
  1

  0
LINE
  5
7D26
330
7D25
100
AcDbEntity
  8
dim
100
AcDbLine
 10
0.0000009317494971
 20
0.1345090743570836
 30
0.0
 11
3.417903047077061
 21
3.798228550710234
 31
0.0
  0
LINE
  5
7D27
330
7D25
100
AcDbEntity
  8
dim
100
AcDbLine
 10
0.0000009317494971
 20
7.461948027063385
 30
0.0
 11
3.417903047077061
 21
3.798228550710234
 31
0.0
  0
HATCH
  5
7D28
330
7D25
100
AcDbEntity
  8
dim
  6
Continuous
100
AcDbHatch
 10
0.0
 20
0.0
 30
0.0
210
0.0
220
0.0
230
1.0
  2
SOLID
 70
     1
 71
     0
 91
        1
 92
        7
 72
     0
 73
     1
 93
        3
 10
0.0000009317494687
 20
0.1345090743570836
 10
3.417903047077061
 20
3.798228550710234
 10
0.0000009317494687
 20
7.461948027063385
 97
        0
 75
     0
 76
     1
 47
0.2359147607200769
 98
        1
 10
1.070744965346307
 20
4.58496964331266
  0
LINE
  5
7D29
330
7D25
100
AcDbEntity
  8
dim
100
AcDbLine
 10
13.33622353816685
 20
0.0000006444382166
 30
0.0
 11
13.33622353816685
 21
7.596456456982252
 31
0.0
  0
LINE
  5
7D2A
330
7D25
100
AcDbEntity
  8
dim
100
AcDbLine
 10
13.33622353816685
 20
7.596456456982252
 30
0.0
 11
21.27088029964744
 21
7.596456456982252
 31
0.0
  0
LINE
  5
7D2B
330
7D25
100
AcDbEntity
  8
dim
100
AcDbLine
 10
21.27088029964744
 20
0.0000006444382166
 30
0.0
 11
21.27088029964744
 21
7.596456456982252
 31
0.0
  0
LINE
  5
7D2C
330
7D25
100
AcDbEntity
  8
dim
100
AcDbLine
 10
13.33622353816685
 20
0.0000006444382166
 30
0.0
 11
21.27088029964744
 21
0.0000006444382166
 31
0.0
  0
MTEXT
  5
7D2D
330
7D25
100
AcDbEntity
  8
TXT
  6
ByBlock
100
AcDbMText
 10
17.43648996954911
 20
3.691087562803886
 30
0.0
 40
5.599999999999999
 41
0.0
 71
     5
 72
     5
  1
A
  7
TXT
 11
-0.0000000000000002
 21
-1.0
 31
0.0
 73
     1
 44
1.0
1001
ACAD
1000
MTEXTBEGIN
1070
    73
1070
     1
1070
    44
1040
1.0
1070
    74
1070
     0
1000
MTEXTEND
  0
LINE
  5
7D2E
330
7D25
100
AcDbEntity
  8
dim
100
AcDbLine
 10
13.33622353816685
 20
3.798228550710234
 30
0.0
 11
3.417903047077061
 21
3.798228550710234
 31
0.0
  0
ENDBLK
  5
7D30
330
7D25
100
AcDbEntity
  8
0
100
AcDbBlockEnd
  0
BLOCK
  5
8015
330
8014
100
AcDbEntity
  8
0
100
AcDbBlockBegin
  2
_Open30
 70
     0
 10
0.0
 20
0.0
 30
0.0
  3
_Open30
  1

  0
LINE
  5
8016
330
8014
100
AcDbEntity
  8
0
  6
ByBlock
 62
     0
370
    -2
100
AcDbLine
 10
-1.0
 20
0.26794919
 30
0.0
 11
0.0
 21
0.0
 31
0.0
  0
LINE
  5
8017
330
8014
100
AcDbEntity
  8
0
  6
ByBlock
 62
     0
370
    -2
100
AcDbLine
 10
0.0
 20
0.0
 30
0.0
 11
-1.0
 21
-0.26794919
 31
0.0
  0
LINE
  5
8018
330
8014
100
AcDbEntity
  8
0
  6
ByBlock
 62
     0
370
    -2
100
AcDbLine
 10
0.0
 20
0.0
 30
0.0
 11
-1.0
 21
0.0
 31
0.0
  0
ENDBLK
  5
8019
330
8014
100
AcDbEntity
  8
0
100
AcDbBlockEnd
  0
BLOCK
  5
801E
330
801A
100
AcDbEntity
  8
0
100
AcDbBlockBegin
  2
A
 70
     0
 10
0.0
 20
0.0
 30
0.0
  3
A
  1

  0
MTEXT
  5
801F
330
801A
100
AcDbEntity
  8
mark
 62
     3
100
AcDbMText
 10
10.65641897020822
 20
-5.596245361730467
 30
0.0
 40
2.5
 41
0.0
 71
     5
 72
     1
  1
A
 73
     1
 44
1.0
1001
ACAD
1000
ACAD_MTEXT_DEFINED_HEIGHT_BEGIN
1070
    46
1040
0.0
1000
ACAD_MTEXT_DEFINED_HEIGHT_END
1000
MTEXTBEGIN
1070
    73
1070
     1
1070
    44
1040
1.0
1070
    74
1070
     0
1000
MTEXTEND
  0
LWPOLYLINE
  5
8020
330
801A
100
AcDbEntity
  8
mark
100
AcDbPolyline
 90
        4
 70
     1
 43
0.0
 10
9.07926800414657
 20
-7.141145101782569
 10
12.07926800414657
 20
-7.141145101782569
 10
12.07926800414657
 20
-4.141145101782569
 10
9.07926800414657
 20
-4.141145101782569
  0
HATCH
  5
8021
330
801A
100
AcDbEntity
  8
mark
100
AcDbHatch
 10
0.0
 20
0.0
 30
0.0
210
0.0
220
0.0
230
1.0
  2
SOLID
 70
     1
 71
     0
 91
        1
 92
        7
 72
     0
 73
     1
 93
        3
 10
5.32926800414657
 20
-5.641145101782569
 10
4.07926800414657
 20
-4.391145101782541
 10
4.07926800414657
 20
-6.891145101782541
 97
        0
 75
     0
 76
     1
 47
0.0398277943677868
 98
        1
 10
4.589689734415287
 20
-5.732163331855076
1001
ACAD
1010
0.0
1020
0.0
1030
0.0
  0
LINE
  5
8022
330
801A
100
AcDbEntity
  8
mark
100
AcDbLine
 10
5.32926800414657
 20
-5.641145101782569
 30
0.0
 11
9.07926800414657
 21
-5.641145101782569
 31
0.0
  0
LINE
  5
8023
330
801A
100
AcDbEntity
  8
mark
100
AcDbLine
 10
5.32926800414657
 20
-5.641145101782569
 30
0.0
 11
4.07926800414657
 21
-4.391145101782569
 31
0.0
  0
LINE
  5
8024
330
801A
100
AcDbEntity
  8
mark
100
AcDbLine
 10
5.32926800414657
 20
-5.641145101782569
 30
0.0
 11
4.07926800414657
 21
-6.891145101782569
 31
0.0
  0
ENDBLK
  5
8025
330
801A
100
AcDbEntity
  8
0
100
AcDbBlockEnd
  0
BLOCK
  5
8C31
330
8C27
100
AcDbEntity
  8
0
100
AcDbBlockBegin
  2
*D4
 70
     1
 10
0.0
 20
0.0
 30
0.0
  3
*D4
  1

  0
LINE
  5
8D75
330
8C27
100
AcDbEntity
  8
mark
370
    -2
100
AcDbLine
 10
479.0564667121347
 20
238.875202221417
 30
0.0
 11
479.0564667121347
 21
247.4453414093361
 31
0.0
  0
LINE
  5
8D76
330
8C27
100
AcDbEntity
  8
mark
370
    -2
100
AcDbLine
 10
545.0564667121347
 20
238.875202221417
 30
0.0
 11
545.0564667121347
 21
247.4453414093361
 31
0.0
  0
LINE
  5
8D77
330
8C27
100
AcDbEntity
  8
mark
370
    -2
100
AcDbLine
 10
482.0564667121346
 20
246.6453414093361
 30
0.0
 11
542.0564667121347
 21
246.6453414093361
 31
0.0
  0
INSERT
  5
8D78
330
8C27
100
AcDbEntity
  8
mark
370
    -2
100
AcDbBlockReference
  2
_Open30
 10
479.0564667121347
 20
246.6453414093361
 30
0.0
 41
3.0
 42
3.0
 43
3.0
 50
180.0
  0
INSERT
  5
8D79
330
8C27
100
AcDbEntity
  8
mark
370
    -2
100
AcDbBlockReference
  2
_Open30
 10
545.0564667121347
 20
246.6453414093361
 30
0.0
 41
3.0
 42
3.0
 43
3.0
  0
MTEXT
  5
8D7A
330
8C27
100
AcDbEntity
  8
mark
 62
     3
100
AcDbMText
 10
512.0564667121347
 20
248.6953414093362
 30
0.0
 40
2.5
 41
0.0
 71
     5
 72
     1
  1
\A1;%%C66
 73
     1
 44
1.0
1001
ACAD
1000
MTEXTBEGIN
1070
    73
1070
     1
1070
    44
1040
1.0
1070
    74
1070
     0
1000
MTEXTEND
  0
POINT
  5
8D7B
330
8C27
100
AcDbEntity
  8
DEFPOINTS
 62
     0
100
AcDbPoint
 10
479.0564667121347
 20
238.075202221417
 30
0.0
  0
POINT
  5
8D7C
330
8C27
100
AcDbEntity
  8
DEFPOINTS
 62
     0
100
AcDbPoint
 10
545.0564667121347
 20
238.075202221417
 30
0.0
  0
POINT
  5
8D7D
330
8C27
100
AcDbEntity
  8
DEFPOINTS
 62
     0
100
AcDbPoint
 10
545.0564667121347
 20
246.6453414093361
 30
0.0
  0
ENDBLK
  5
8C32
330
8C27
100
AcDbEntity
  8
0
100
AcDbBlockEnd
  0
BLOCK
  5
8C3E
330
8C34
100
AcDbEntity
  8
0
100
AcDbBlockBegin
  2
*D5
 70
     1
 10
0.0
 20
0.0
 30
0.0
  3
*D5
  1

  0
LINE
  5
8D7E
330
8C34
100
AcDbEntity
  8
mark
370
    -2
100
AcDbLine
 10
473.0564667121346
 20
238.875202221417
 30
0.0
 11
473.0564667121346
 21
254.4102849505174
 31
0.0
  0
LINE
  5
8D7F
330
8C34
100
AcDbEntity
  8
mark
370
    -2
100
AcDbLine
 10
551.0564667121347
 20
238.875202221417
 30
0.0
 11
551.0564667121347
 21
254.4102849505174
 31
0.0
  0
LINE
  5
8D80
330
8C34
100
AcDbEntity
  8
mark
370
    -2
100
AcDbLine
 10
476.0564667121347
 20
253.6102849505174
 30
0.0
 11
548.0564667121346
 21
253.6102849505174
 31
0.0
  0
INSERT
  5
8D81
330
8C34
100
AcDbEntity
  8
mark
370
    -2
100
AcDbBlockReference
  2
_Open30
 10
473.0564667121346
 20
253.6102849505174
 30
0.0
 41
3.0
 42
3.0
 43
3.0
 50
180.0
  0
INSERT
  5
8D82
330
8C34
100
AcDbEntity
  8
mark
370
    -2
100
AcDbBlockReference
  2
_Open30
 10
551.0564667121347
 20
253.6102849505174
 30
0.0
 41
3.0
 42
3.0
 43
3.0
  0
MTEXT
  5
8D83
330
8C34
100
AcDbEntity
  8
mark
 62
     3
100
AcDbMText
 10
512.0564667121347
 20
255.6602849505174
 30
0.0
 40
2.5
 41
0.0
 71
     5
 72
     1
  1
\A1;%%c78%%P0.5
 73
     1
 44
1.0
1001
ACAD
1000
MTEXTBEGIN
1070
    73
1070
     1
1070
    44
1040
1.0
1070
    74
1070
     0
1000
MTEXTEND
  0
POINT
  5
8D84
330
8C34
100
AcDbEntity
  8
DEFPOINTS
 62
     0
100
AcDbPoint
 10
473.0564667121346
 20
238.075202221417
 30
0.0
  0
POINT
  5
8D85
330
8C34
100
AcDbEntity
  8
DEFPOINTS
 62
     0
100
AcDbPoint
 10
551.0564667121347
 20
238.075202221417
 30
0.0
  0
POINT
  5
8D86
330
8C34
100
AcDbEntity
  8
DEFPOINTS
 62
     0
100
AcDbPoint
 10
551.0564667121347
 20
253.6102849505174
 30
0.0
  0
ENDBLK
  5
8C3F
330
8C34
100
AcDbEntity
  8
0
100
AcDbBlockEnd
  0
BLOCK
  5
8C4B
330
8C41
100
AcDbEntity
  8
0
100
AcDbBlockBegin
  2
*D6
 70
     1
 10
0.0
 20
0.0
 30
0.0
  3
*D6
  1

  0
LINE
  5
8D87
330
8C41
100
AcDbEntity
  8
mark
370
    -2
100
AcDbLine
 10
469.5564667121346
 20
236.375202221417
 30
0.0
 11
469.5564667121346
 21
261.7494211434083
 31
0.0
  0
LINE
  5
8D88
330
8C41
100
AcDbEntity
  8
mark
370
    -2
100
AcDbLine
 10
554.5564667121347
 20
236.375202221417
 30
0.0
 11
554.5564667121347
 21
261.7494211434083
 31
0.0
  0
LINE
  5
8D89
330
8C41
100
AcDbEntity
  8
mark
370
    -2
100
AcDbLine
 10
472.5564667121346
 20
260.9494211434083
 30
0.0
 11
551.5564667121346
 21
260.9494211434083
 31
0.0
  0
INSERT
  5
8D8A
330
8C41
100
AcDbEntity
  8
mark
370
    -2
100
AcDbBlockReference
  2
_Open30
 10
469.5564667121346
 20
260.9494211434083
 30
0.0
 41
3.0
 42
3.0
 43
3.0
 50
180.0
  0
INSERT
  5
8D8B
330
8C41
100
AcDbEntity
  8
mark
370
    -2
100
AcDbBlockReference
  2
_Open30
 10
554.5564667121347
 20
260.9494211434083
 30
0.0
 41
3.0
 42
3.0
 43
3.0
  0
MTEXT
  5
8D8C
330
8C41
100
AcDbEntity
  8
mark
 62
     3
100
AcDbMText
 10
512.0564667121347
 20
262.9994211434083
 30
0.0
 40
2.5
 41
0.0
 71
     5
 72
     1
  1
\A1;%%C85
 73
     1
 44
1.0
1001
ACAD
1000
MTEXTBEGIN
1070
    73
1070
     1
1070
    44
1040
1.0
1070
    74
1070
     0
1000
MTEXTEND
  0
POINT
  5
8D8D
330
8C41
100
AcDbEntity
  8
DEFPOINTS
 62
     0
100
AcDbPoint
 10
469.5564667121346
 20
235.575202221417
 30
0.0
  0
POINT
  5
8D8E
330
8C41
100
AcDbEntity
  8
DEFPOINTS
 62
     0
100
AcDbPoint
 10
554.5564667121347
 20
235.575202221417
 30
0.0
  0
POINT
  5
8D8F
330
8C41
100
AcDbEntity
  8
DEFPOINTS
 62
     0
100
AcDbPoint
 10
554.5564667121347
 20
260.9494211434083
 30
0.0
  0
ENDBLK
  5
8C4C
330
8C41
100
AcDbEntity
  8
0
100
AcDbBlockEnd
  0
BLOCK
  5
8C75
330
8C69
100
AcDbEntity
  8
0
100
AcDbBlockBegin
  2
*D7
 70
     1
 10
0.0
 20
0.0
 30
0.0
  3
*D7
  1

  0
LINE
  5
8D90
330
8C69
100
AcDbEntity
  8
mark
370
    -2
100
AcDbLine
 10
470.7564667121347
 20
237.575202221417
 30
0.0
 11
458.7947046890516
 21
237.575202221417
 31
0.0
  0
LINE
  5
8D91
330
8C69
100
AcDbEntity
  8
mark
370
    -2
100
AcDbLine
 10
472.2564667121346
 20
238.075202221417
 30
0.0
 11
458.7947046890516
 21
238.075202221417
 31
0.0
  0
LINE
  5
8D92
330
8C69
100
AcDbEntity
  8
mark
370
    -2
100
AcDbLine
 10
459.5947046890516
 20
234.575202221417
 30
0.0
 11
459.5947046890516
 21
231.575202221417
 31
0.0
  0
LINE
  5
8D93
330
8C69
100
AcDbEntity
  8
mark
370
    -2
100
AcDbLine
 10
459.5947046890516
 20
241.075202221417
 30
0.0
 11
459.5947046890516
 21
250.2585355547503
 31
0.0
  0
LINE
  5
8D94
330
8C69
100
AcDbEntity
  8
mark
370
    -2
100
AcDbLine
 10
459.5947046890516
 20
237.575202221417
 30
0.0
 11
459.5947046890516
 21
238.075202221417
 31
0.0
  0
INSERT
  5
8D95
330
8C69
100
AcDbEntity
  8
mark
370
    -2
100
AcDbBlockReference
  2
_Open30
 10
459.5947046890516
 20
237.575202221417
 30
0.0
 41
3.0
 42
3.0
 43
3.0
 50
90.0
  0
INSERT
  5
8D96
330
8C69
100
AcDbEntity
  8
mark
370
    -2
100
AcDbBlockReference
  2
_Open30
 10
459.5947046890516
 20
238.075202221417
 30
0.0
 41
3.0
 42
3.0
 43
3.0
 50
270.0
  0
MTEXT
  5
8D97
330
8C69
100
AcDbEntity
  8
mark
 62
     3
100
AcDbMText
 10
457.5447046890515
 20
247.1668688880837
 30
0.0
 40
2.5
 41
0.0
 71
     5
 72
     1
  1
\A1;0.5
 11
0.0000000000000001
 21
1.0
 31
0.0
 73
     1
 44
1.0
1001
ACAD
1000
MTEXTBEGIN
1070
    73
1070
     1
1070
    44
1040
1.0
1070
    74
1070
     0
1000
MTEXTEND
  0
POINT
  5
8D98
330
8C69
100
AcDbEntity
  8
DEFPOINTS
 62
     0
100
AcDbPoint
 10
471.5564667121347
 20
237.575202221417
 30
0.0
  0
POINT
  5
8D99
330
8C69
100
AcDbEntity
  8
DEFPOINTS
 62
     0
100
AcDbPoint
 10
473.0564667121346
 20
238.075202221417
 30
0.0
  0
POINT
  5
8D9A
330
8C69
100
AcDbEntity
  8
DEFPOINTS
 62
     0
100
AcDbPoint
 10
459.5947046890516
 20
238.075202221417
 30
0.0
  0
ENDBLK
  5
8C76
330
8C69
100
AcDbEntity
  8
0
100
AcDbBlockEnd
  0
BLOCK
  5
8C84
330
8C78
100
AcDbEntity
  8
0
100
AcDbBlockBegin
  2
*D8
 70
     1
 10
0.0
 20
0.0
 30
0.0
  3
*D8
  1

  0
LINE
  5
8D9B
330
8C78
100
AcDbEntity
  8
mark
370
    -2
100
AcDbLine
 10
468.9008295430399
 20
328.1853887746144
 30
0.0
 11
458.7947046890516
 21
328.1853887746144
 31
0.0
  0
LINE
  5
8D9C
330
8C78
100
AcDbEntity
  8
mark
370
    -2
100
AcDbLine
 10
468.9008295430399
 20
321.1853887746145
 30
0.0
 11
458.7947046890516
 21
321.1853887746145
 31
0.0
  0
LINE
  5
8D9D
330
8C78
100
AcDbEntity
  8
mark
370
    -2
100
AcDbLine
 10
459.5947046890516
 20
331.1853887746143
 30
0.0
 11
459.5947046890516
 21
334.1853887746144
 31
0.0
  0
LINE
  5
8D9E
330
8C78
100
AcDbEntity
  8
mark
370
    -2
100
AcDbLine
 10
459.5947046890516
 20
318.1853887746145
 30
0.0
 11
459.5947046890516
 21
315.1853887746145
 31
0.0
  0
LINE
  5
8D9F
330
8C78
100
AcDbEntity
  8
mark
370
    -2
100
AcDbLine
 10
459.5947046890516
 20
328.1853887746144
 30
0.0
 11
459.5947046890516
 21
321.1853887746145
 31
0.0
  0
INSERT
  5
8DA0
330
8C78
100
AcDbEntity
  8
mark
370
    -2
100
AcDbBlockReference
  2
_Open30
 10
459.5947046890516
 20
328.1853887746144
 30
0.0
 41
3.0
 42
3.0
 43
3.0
 50
270.0
  0
INSERT
  5
8DA1
330
8C78
100
AcDbEntity
  8
mark
370
    -2
100
AcDbBlockReference
  2
_Open30
 10
459.5947046890516
 20
321.1853887746145
 30
0.0
 41
3.0
 42
3.0
 43
3.0
 50
90.0
  0
MTEXT
  5
8DA2
330
8C78
100
AcDbEntity
  8
mark
 62
     3
100
AcDbMText
 10
457.5447046890515
 20
324.6853887746145
 30
0.0
 40
2.5
 41
0.0
 71
     5
 72
     1
  1
\A1;7
 11
0.0000000000000001
 21
1.0
 31
0.0
 73
     1
 44
1.0
1001
ACAD
1000
MTEXTBEGIN
1070
    73
1070
     1
1070
    44
1040
1.0
1070
    74
1070
     0
1000
MTEXTEND
  0
POINT
  5
8DA3
330
8C78
100
AcDbEntity
  8
DEFPOINTS
 62
     0
100
AcDbPoint
 10
469.7008295430399
 20
328.1853887746144
 30
0.0
  0
POINT
  5
8DA4
330
8C78
100
AcDbEntity
  8
DEFPOINTS
 62
     0
100
AcDbPoint
 10
469.7008295430399
 20
321.1853887746145
 30
0.0
  0
POINT
  5
8DA5
330
8C78
100
AcDbEntity
  8
DEFPOINTS
 62
     0
100
AcDbPoint
 10
459.5947046890516
 20
321.1853887746145
 30
0.0
  0
ENDBLK
  5
8C85
330
8C78
100
AcDbEntity
  8
0
100
AcDbBlockEnd
  0
BLOCK
  5
8C94
330
8C88
100
AcDbEntity
  8
0
100
AcDbBlockBegin
  2
*D9
 70
     1
 10
0.0
 20
0.0
 30
0.0
  3
*D9
  1

  0
LINE
  5
8DA6
330
8C88
100
AcDbEntity
  8
mark
370
    -2
100
AcDbLine
 10
472.7008295430399
 20
320.3853887746145
 30
0.0
 11
472.7008295430399
 21
277.2476941004077
 31
0.0
  0
LINE
  5
8DA7
330
8C88
100
AcDbEntity
  8
mark
370
    -2
100
AcDbLine
 10
469.7008295430399
 20
320.3853887746145
 30
0.0
 11
469.7008295430399
 21
277.2476941004077
 31
0.0
  0
LINE
  5
8DA8
330
8C88
100
AcDbEntity
  8
mark
370
    -2
100
AcDbLine
 10
475.70082954304
 20
278.0476941004077
 30
0.0
 11
478.7008295430399
 21
278.0476941004077
 31
0.0
  0
LINE
  5
8DA9
330
8C88
100
AcDbEntity
  8
mark
370
    -2
100
AcDbLine
 10
466.7008295430399
 20
278.0476941004077
 30
0.0
 11
460.4341628763733
 21
278.0476941004077
 31
0.0
  0
LINE
  5
8DAA
330
8C88
100
AcDbEntity
  8
mark
370
    -2
100
AcDbLine
 10
472.7008295430399
 20
278.0476941004077
 30
0.0
 11
469.7008295430399
 21
278.0476941004077
 31
0.0
  0
INSERT
  5
8DAB
330
8C88
100
AcDbEntity
  8
mark
370
    -2
100
AcDbBlockReference
  2
_Open30
 10
472.7008295430399
 20
278.0476941004077
 30
0.0
 41
3.0
 42
3.0
 43
3.0
 50
180.0
  0
INSERT
  5
8DAC
330
8C88
100
AcDbEntity
  8
mark
370
    -2
100
AcDbBlockReference
  2
_Open30
 10
469.7008295430399
 20
278.0476941004077
 30
0.0
 41
3.0
 42
3.0
 43
3.0
  0
MTEXT
  5
8DAD
330
8C88
100
AcDbEntity
  8
mark
 62
     3
100
AcDbMText
 10
462.0674962097066
 20
280.0976941004077
 30
0.0
 40
2.5
 41
0.0
 71
     5
 72
     1
  1
\A1;3
 73
     1
 44
1.0
1001
ACAD
1000
MTEXTBEGIN
1070
    73
1070
     1
1070
    44
1040
1.0
1070
    74
1070
     0
1000
MTEXTEND
  0
POINT
  5
8DAE
330
8C88
100
AcDbEntity
  8
DEFPOINTS
 62
     0
100
AcDbPoint
 10
472.7008295430399
 20
321.1853887746145
 30
0.0
  0
POINT
  5
8DAF
330
8C88
100
AcDbEntity
  8
DEFPOINTS
 62
     0
100
AcDbPoint
 10
469.7008295430399
 20
321.1853887746145
 30
0.0
  0
POINT
  5
8DB0
330
8C88
100
AcDbEntity
  8
DEFPOINTS
 62
     0
100
AcDbPoint
 10
469.7008295430399
 20
278.0476941004077
 30
0.0
  0
ENDBLK
  5
8C95
330
8C88
100
AcDbEntity
  8
0
100
AcDbBlockEnd
  0
BLOCK
  5
8CAE
330
8CA7
100
AcDbEntity
  8
0
100
AcDbBlockBegin
  2
*D10
 70
     1
 10
0.0
 20
0.0
 30
0.0
  3
*D10
  1

  0
LINE
  5
8DB1
330
8CA7
100
AcDbEntity
  8
mark
370
    -2
100
AcDbLine
 10
458.2864294518657
 20
210.805164961151
 30
0.0
 11
468.0209328062017
 21
220.5396683154846
 31
0.0
  0
MTEXT
  5
8DB2
330
8CA7
100
AcDbEntity
  8
mark
 62
     3
100
AcDbMText
 10
460.6434520558215
 20
216.0613253679708
 30
0.0
 40
2.5
 41
0.0
 71
     5
 72
     1
  1
\A1;2-R2
 11
0.7071067811866334
 21
0.7071067811864618
 31
0.0
 73
     1
 44
1.0
1001
ACAD
1000
MTEXTBEGIN
1070
    73
1070
     1
1070
    44
1040
1.0
1070
    74
1070
     0
1000
MTEXTEND
  0
LINE
  5
8DB3
330
8CA7
100
AcDbEntity
  8
mark
370
    -2
100
AcDbLine
 10
471.556466712135
 20
224.0752022214171
 30
0.0
 11
470.1422531497615
 21
222.660988659044
 31
0.0
  0
INSERT
  5
8DB4
330
8CA7
100
AcDbEntity
  8
mark
370
    -2
100
AcDbBlockReference
  2
_Open30
 10
470.1422531497615
 20
222.660988659044
 30
0.0
 41
3.0
 42
3.0
 43
3.0
 50
44.99999999999304
  0
POINT
  5
8DB5
330
8CA7
100
AcDbEntity
  8
DEFPOINTS
 62
     0
100
AcDbPoint
 10
470.1422531497615
 20
222.660988659044
 30
0.0
  0
POINT
  5
8DB6
330
8CA7
100
AcDbEntity
  8
DEFPOINTS
 62
     0
100
AcDbPoint
 10
471.556466712135
 20
224.0752022214171
 30
0.0
  0
ENDBLK
  5
8CAF
330
8CA7
100
AcDbEntity
  8
0
100
AcDbBlockEnd
  0
BLOCK
  5
8CDA
330
8CD0
100
AcDbEntity
  8
0
100
AcDbBlockBegin
  2
*D11
 70
     1
 10
0.0
 20
0.0
 30
0.0
  3
*D11
  1

  0
LINE
  5
8DB7
330
8CD0
100
AcDbEntity
  8
mark
370
    -2
100
AcDbLine
 10
544.5564667121346
 20
222.192702221417
 30
0.0
 11
544.5564667121346
 21
206.791726423157
 31
0.0
  0
LINE
  5
8DB8
330
8CD0
100
AcDbEntity
  8
mark
370
    -2
100
AcDbLine
 10
479.5564667121347
 20
222.192702221417
 30
0.0
 11
479.5564667121347
 21
206.791726423157
 31
0.0
  0
LINE
  5
8DB9
330
8CD0
100
AcDbEntity
  8
mark
370
    -2
100
AcDbLine
 10
541.5564667121347
 20
207.591726423157
 30
0.0
 11
482.5564667121347
 21
207.591726423157
 31
0.0
  0
INSERT
  5
8DBA
330
8CD0
100
AcDbEntity
  8
mark
370
    -2
100
AcDbBlockReference
  2
_Open30
 10
544.5564667121346
 20
207.591726423157
 30
0.0
 41
3.0
 42
3.0
 43
3.0
  0
INSERT
  5
8DBB
330
8CD0
100
AcDbEntity
  8
mark
370
    -2
100
AcDbBlockReference
  2
_Open30
 10
479.5564667121347
 20
207.591726423157
 30
0.0
 41
3.0
 42
3.0
 43
3.0
 50
180.0
  0
MTEXT
  5
8DBC
330
8CD0
100
AcDbEntity
  8
mark
 62
     3
100
AcDbMText
 10
512.0564667121347
 20
209.641726423157
 30
0.0
 40
2.5
 41
0.0
 71
     5
 72
     1
  1
\A1;M65X2.0P
 73
     1
 44
1.0
1001
ACAD
1000
MTEXTBEGIN
1070
    73
1070
     1
1070
    44
1040
1.0
1070
    74
1070
     0
1000
MTEXTEND
  0
POINT
  5
8DBD
330
8CD0
100
AcDbEntity
  8
DEFPOINTS
 62
     0
100
AcDbPoint
 10
544.5564667121346
 20
222.992702221417
 30
0.0
  0
POINT
  5
8DBE
330
8CD0
100
AcDbEntity
  8
DEFPOINTS
 62
     0
100
AcDbPoint
 10
479.5564667121347
 20
222.992702221417
 30
0.0
  0
POINT
  5
8DBF
330
8CD0
100
AcDbEntity
  8
DEFPOINTS
 62
     0
100
AcDbPoint
 10
479.5564667121347
 20
207.591726423157
 30
0.0
  0
ENDBLK
  5
8CDB
330
8CD0
100
AcDbEntity
  8
0
100
AcDbBlockEnd
  0
BLOCK
  5
8CE7
330
8CDD
100
AcDbEntity
  8
0
100
AcDbBlockBegin
  2
*D12
 70
     1
 10
0.0
 20
0.0
 30
0.0
  3
*D12
  1

  0
LINE
  5
8DC0
330
8CDD
100
AcDbEntity
  8
mark
370
    -2
100
AcDbLine
 10
494.2930892899535
 20
241.075202221417
 30
0.0
 11
494.2930892899535
 21
244.075202221417
 31
0.0
  0
LINE
  5
8DC1
330
8CDD
100
AcDbEntity
  8
mark
370
    -2
100
AcDbLine
 10
494.2930892899535
 20
233.075202221417
 30
0.0
 11
494.2930892899535
 21
226.8085355547503
 31
0.0
  0
LINE
  5
8DC2
330
8CDD
100
AcDbEntity
  8
mark
370
    -2
100
AcDbLine
 10
494.2930892899535
 20
238.075202221417
 30
0.0
 11
494.2930892899535
 21
236.075202221417
 31
0.0
  0
INSERT
  5
8DC3
330
8CDD
100
AcDbEntity
  8
mark
370
    -2
100
AcDbBlockReference
  2
_Open30
 10
494.2930892899535
 20
238.075202221417
 30
0.0
 41
3.0
 42
3.0
 43
3.0
 50
270.0
  0
INSERT
  5
8DC4
330
8CDD
100
AcDbEntity
  8
mark
370
    -2
100
AcDbBlockReference
  2
_Open30
 10
494.2930892899535
 20
236.075202221417
 30
0.0
 41
3.0
 42
3.0
 43
3.0
 50
90.0
  0
MTEXT
  5
8DC5
330
8CDD
100
AcDbEntity
  8
mark
 62
     3
100
AcDbMText
 10
492.2430892899534
 20
228.4418688880837
 30
0.0
 40
2.5
 41
0.0
 71
     5
 72
     1
  1
\A1;2
 11
0.0000000000000001
 21
1.0
 31
0.0
 73
     1
 44
1.0
1001
ACAD
1000
MTEXTBEGIN
1070
    73
1070
     1
1070
    44
1040
1.0
1070
    74
1070
     0
1000
MTEXTEND
  0
POINT
  5
8DC6
330
8CDD
100
AcDbEntity
  8
DEFPOINTS
 62
     0
100
AcDbPoint
 10
494.2930892899535
 20
238.075202221417
 30
0.0
  0
POINT
  5
8DC7
330
8CDD
100
AcDbEntity
  8
DEFPOINTS
 62
     0
100
AcDbPoint
 10
494.2930892899535
 20
236.075202221417
 30
0.0
  0
POINT
  5
8DC8
330
8CDD
100
AcDbEntity
  8
DEFPOINTS
 62
     0
100
AcDbPoint
 10
494.2930892899535
 20
236.075202221417
 30
0.0
  0
ENDBLK
  5
8CE8
330
8CDD
100
AcDbEntity
  8
0
100
AcDbBlockEnd
  0
BLOCK
  5
8CF6
330
8CEC
100
AcDbEntity
  8
0
100
AcDbBlockBegin
  2
*D13
 70
     1
 10
0.0
 20
0.0
 30
0.0
  3
*D13
  1

  0
LINE
  5
8DC9
330
8CEC
100
AcDbEntity
  8
mark
370
    -2
100
AcDbLine
 10
557.3564667121346
 20
230.0752022214171
 30
0.0
 11
565.8476735211549
 21
230.0752022214171
 31
0.0
  0
LINE
  5
8DCA
330
8CEC
100
AcDbEntity
  8
mark
370
    -2
100
AcDbLine
 10
551.8564667121346
 20
238.075202221417
 30
0.0
 11
565.8476735211549
 21
238.075202221417
 31
0.0
  0
LINE
  5
8DCB
330
8CEC
100
AcDbEntity
  8
mark
370
    -2
100
AcDbLine
 10
565.047673521155
 20
233.0752022214171
 30
0.0
 11
565.047673521155
 21
235.075202221417
 31
0.0
  0
INSERT
  5
8DCC
330
8CEC
100
AcDbEntity
  8
mark
370
    -2
100
AcDbBlockReference
  2
_Open30
 10
565.047673521155
 20
230.0752022214171
 30
0.0
 41
3.0
 42
3.0
 43
3.0
 50
270.0
  0
INSERT
  5
8DCD
330
8CEC
100
AcDbEntity
  8
mark
370
    -2
100
AcDbBlockReference
  2
_Open30
 10
565.047673521155
 20
238.075202221417
 30
0.0
 41
3.0
 42
3.0
 43
3.0
 50
90.0
  0
MTEXT
  5
8DCE
330
8CEC
100
AcDbEntity
  8
mark
 62
     3
100
AcDbMText
 10
562.9976735211551
 20
234.0752022214172
 30
0.0
 40
2.5
 41
0.0
 71
     5
 72
     1
  1
\A1;8
 11
0.0000000000000001
 21
1.0
 31
0.0
 73
     1
 44
1.0
1001
ACAD
1000
MTEXTBEGIN
1070
    73
1070
     1
1070
    44
1040
1.0
1070
    74
1070
     0
1000
MTEXTEND
  0
POINT
  5
8DCF
330
8CEC
100
AcDbEntity
  8
DEFPOINTS
 62
     0
100
AcDbPoint
 10
556.5564667121346
 20
230.0752022214171
 30
0.0
  0
POINT
  5
8DD0
330
8CEC
100
AcDbEntity
  8
DEFPOINTS
 62
     0
100
AcDbPoint
 10
551.0564667121347
 20
238.075202221417
 30
0.0
  0
POINT
  5
8DD1
330
8CEC
100
AcDbEntity
  8
DEFPOINTS
 62
     0
100
AcDbPoint
 10
565.047673521155
 20
238.075202221417
 30
0.0
  0
ENDBLK
  5
8CF7
330
8CEC
100
AcDbEntity
  8
0
100
AcDbBlockEnd
  0
BLOCK
  5
8D03
330
8CF9
100
AcDbEntity
  8
0
100
AcDbBlockBegin
  2
*D14
 70
     1
 10
0.0
 20
0.0
 30
0.0
  3
*D14
  1

  0
LINE
  5
8DD2
330
8CF9
100
AcDbEntity
  8
mark
370
    -2
100
AcDbLine
 10
553.3564667121346
 20
222.075202221417
 30
0.0
 11
573.6988684379562
 21
222.075202221417
 31
0.0
  0
LINE
  5
8DD3
330
8CF9
100
AcDbEntity
  8
mark
370
    -2
100
AcDbLine
 10
551.8564667121346
 20
238.075202221417
 30
0.0
 11
573.6988684379562
 21
238.075202221417
 31
0.0
  0
LINE
  5
8DD4
330
8CF9
100
AcDbEntity
  8
mark
370
    -2
100
AcDbLine
 10
572.8988684379562
 20
225.075202221417
 30
0.0
 11
572.8988684379562
 21
235.075202221417
 31
0.0
  0
INSERT
  5
8DD5
330
8CF9
100
AcDbEntity
  8
mark
370
    -2
100
AcDbBlockReference
  2
_Open30
 10
572.8988684379562
 20
222.075202221417
 30
0.0
 41
3.0
 42
3.0
 43
3.0
 50
270.0
  0
INSERT
  5
8DD6
330
8CF9
100
AcDbEntity
  8
mark
370
    -2
100
AcDbBlockReference
  2
_Open30
 10
572.8988684379562
 20
238.075202221417
 30
0.0
 41
3.0
 42
3.0
 43
3.0
 50
90.0
  0
MTEXT
  5
8DD7
330
8CF9
100
AcDbEntity
  8
mark
 62
     3
100
AcDbMText
 10
570.8488684379562
 20
230.0752022214171
 30
0.0
 40
2.5
 41
0.0
 71
     5
 72
     1
  1
\A1;16%%P0.2
 11
0.0000000000000001
 21
1.0
 31
0.0
 73
     1
 44
1.0
1001
ACAD
1000
MTEXTBEGIN
1070
    73
1070
     1
1070
    44
1040
1.0
1070
    74
1070
     0
1000
MTEXTEND
  0
POINT
  5
8DD8
330
8CF9
100
AcDbEntity
  8
DEFPOINTS
 62
     0
100
AcDbPoint
 10
552.5564667121346
 20
222.075202221417
 30
0.0
  0
POINT
  5
8DD9
330
8CF9
100
AcDbEntity
  8
DEFPOINTS
 62
     0
100
AcDbPoint
 10
551.0564667121347
 20
238.075202221417
 30
0.0
  0
POINT
  5
8DDA
330
8CF9
100
AcDbEntity
  8
DEFPOINTS
 62
     0
100
AcDbPoint
 10
572.8988684379562
 20
238.075202221417
 30
0.0
  0
ENDBLK
  5
8D04
330
8CF9
100
AcDbEntity
  8
0
100
AcDbBlockEnd
  0
BLOCK
  5
8FB6
330
8FA4
100
AcDbEntity
  8
0
100
AcDbBlockBegin
  2
A$C2EC74796
 70
     0
 10
0.0
 20
0.0
 30
0.0
  3
A$C2EC74796
  1

  0
LINE
  5
8FA5
330
8FA4
100
AcDbEntity
  8
frame
100
AcDbLine
 10
-0.0000002182619028
 20
3.599999969514669
 30
0.0
 11
29.9999997817381
 21
3.599999969514612
 31
0.0
  0
LINE
  5
8FA6
330
8FA4
100
AcDbEntity
  8
frame
100
AcDbLine
 10
-0.0000002182619028
 20
7.199999969514692
 30
0.0
 11
29.9999997817381
 21
7.199999969514692
 31
0.0
  0
LINE
  5
8FA7
330
8FA4
100
AcDbEntity
  8
frame
100
AcDbLine
 10
-0.0000002182619028
 20
10.79999996951466
 30
0.0
 11
29.9999997817381
 21
10.7999999695146
 31
0.0
  0
LINE
  5
8FA8
330
8FA4
100
AcDbEntity
  8
frame
100
AcDbLine
 10
-0.0000002182619028
 20
14.39999996951468
 30
0.0
 11
29.9999997817381
 21
14.39999996951462
 31
0.0
  0
MTEXT
  5
8FA9
330
8FA4
100
AcDbEntity
  8
0
 62
     7
 48
2.0
100
AcDbMText
 10
14.94269976467376
 20
14.79658417480675
 30
0.0
 40
2.4
 41
0.0
 71
     5
 72
     1
  1
\P\Ftxt.shx,bigfont.shx|c128;諸　　　　元
 73
     1
 44
1.0
1001
ACAD
1000
MTEXTBEGIN
1070
    73
1070
     1
1070
    44
1040
1.0
1070
    74
1070
     0
1000
MTEXTEND
  0
LINE
  5
8FAA
330
8FA4
100
AcDbEntity
  8
frame
100
AcDbLine
 10
-0.0000002182619028
 20
14.39999996951462
 30
0.0
 11
-0.0000002182618957
 21
-0.0000000304854133
 31
0.0
  0
LINE
  5
8FAB
330
8FA4
100
AcDbEntity
  8
frame
100
AcDbLine
 10
11.99999978173809
 20
10.7999999695146
 30
0.0
 11
11.99999978173807
 21
-0.0000000304854311
 31
0.0
  0
MTEXT
  5
8FAC
330
8FA4
100
AcDbEntity
  8
0
100
AcDbMText
 10
1.621080504888595
 20
6.535631162324055
 30
0.0
 40
2.2
 41
81.80293144248363
 71
     1
 72
     5
  1
\Ftxt.shx,bigfont.shx|c128;表 面 処 理
  7
JL
 73
     1
 44
1.0
1001
ACAD
1000
MTEXTBEGIN
1070
    73
1070
     1
1070
    44
1040
1.0
1070
    74
1070
     0
1000
MTEXTEND
  0
MTEXT
  5
8FAD
330
8FA4
100
AcDbEntity
  8
0
100
AcDbMText
 10
1.766113429106098
 20
2.891394735520098
 30
0.0
 40
2.2
 41
83.0859
 71
     1
 72
     5
  1
\Ftxt.shx,bigfont.shx|c128;等     　級
  7
JL
 73
     1
 44
1.0
1001
ACAD
1000
MTEXTBEGIN
1070
    73
1070
     1
1070
    44
1040
1.0
1070
    74
1070
     0
1000
MTEXTEND
  0
LINE
  5
8FAE
330
8FA4
100
AcDbEntity
  8
frame
100
AcDbLine
 10
29.9999997817381
 20
14.39999996951462
 30
0.0
 11
29.99999978173809
 21
-0.0000000304854666
 31
0.0
  0
MTEXT
  5
8FAF
330
8FA4
100
AcDbEntity
  8
0
100
AcDbMText
 10
14.59105153624273
 20
6.359184693846632
 30
0.0
 40
2.2
 41
145.7274
 71
     1
 72
     5
  1
\Ftxt.shx,bigfont.shx|c128;黒  　    染
  7
JL
 73
     1
 44
1.0
1001
ACAD
1000
MTEXTBEGIN
1070
    73
1070
     1
1070
    44
1040
1.0
1070
    74
1070
     0
1000
MTEXTEND
  0
LINE
  5
8FB0
330
8FA4
100
AcDbEntity
  8
frame
100
AcDbLine
 10
-0.000000218261917
 20
-0.0000000304854098
 30
0.0
 11
29.99999978173809
 21
-0.0000000304854666
 31
0.0
  0
MTEXT
  5
8FB1
330
8FA4
100
AcDbEntity
  8
0
100
AcDbMText
 10
1.657650262807123
 20
9.919738071872018
 30
0.0
 40
2.2
 41
81.80293144248363
 71
     1
 72
     5
  1
\Ftxt.shx,bigfont.shx|c128;熱　処　理
  7
JL
 73
     1
 44
1.0
1001
ACAD
1000
MTEXTBEGIN
1070
    73
1070
     1
1070
    44
1040
1.0
1070
    74
1070
     0
1000
MTEXTEND
  0
MTEXT
  5
8FB2
330
8FA4
100
AcDbEntity
  8
0
100
AcDbMText
 10
14.47869911279304
 20
9.8322591181672
 30
0.0
 40
2.2
 41
145.9480028428943
 71
     1
 72
     5
  1
\Ftxt.shx,bigfont.shx|c128;調質　HRC30%%d%%p２%%d
  7
JL
 73
     1
 44
1.0
1001
ACAD
1000
MTEXTBEGIN
1070
    73
1070
     1
1070
    44
1040
1.0
1070
    74
1070
     0
1000
MTEXTEND
  0
MTEXT
  5
8FB3
330
8FA4
100
AcDbEntity
  8
0
100
AcDbMText
 10
14.19148840930177
 20
2.77469270716358
 30
0.0
 40
2.2
 41
145.3916823984455
 71
     1
 72
     5
  1
\Ftxt.shx,bigfont.shx|c128;ＩＳＯ - ４Ｈ
  7
JL
 73
     1
 44
1.0
1001
ACAD
1000
MTEXTBEGIN
1070
    73
1070
     1
1070
    44
1040
1.0
1070
    74
1070
     0
1000
MTEXTEND
  0
ENDBLK
  5
8FB7
330
8FA4
100
AcDbEntity
  8
0
100
AcDbBlockEnd
  0
ENDSEC
  0
SECTION
  2
ENTITIES
  0
MTEXT
  5
C0
330
18
100
AcDbEntity
  8
0
100
AcDbMText
 10
41.26970765600413
 20
233.6950877649332
 30
0.0
 40
2.5
 41
0.0
 71
     1
 72
     5
  1

  7
ISOCP3
 73
     1
 44
1.0
1001
ACAD
1000
MTEXTBEGIN
1070
    73
1070
     1
1070
    44
1040
1.0
1070
    74
1070
     0
1000
MTEXTEND
  0
ARC
  5
7FF9
330
18
100
AcDbEntity
  8
contour
100
AcDbCircle
 10
512.0564667121347
 20
324.6853887746144
 30
0.0
 40
42.5
100
AcDbArc
 50
184.7238257592094
 51
295.276174240791
  0
CIRCLE
  5
7FFA
330
18
100
AcDbEntity
  8
contour
100
AcDbCircle
 10
512.0564667121347
 20
324.6853887746144
 30
0.0
 40
39.0
  0
ARC
  5
7FFB
330
18
100
AcDbEntity
  8
contour
 62
     4
100
AcDbCircle
 10
512.0564667121347
 20
324.6853887746144
 30
0.0
 40
32.5
100
AcDbArc
 50
174.7036190881477
 51
95.29638091185232
  0
CIRCLE
  5
7FFD
330
18
100
AcDbEntity
  8
contour
100
AcDbCircle
 10
512.0564667121347
 20
324.6853887746144
 30
0.0
 40
31.4175
  0
CIRCLE
  5
7FFE
330
18
100
AcDbEntity
  8
contour
100
AcDbCircle
 10
512.0564667121347
 20
324.6853887746144
 30
0.0
 40
33.0
  0
LINE
  5
8004
330
18
100
AcDbEntity
  8
center
  6
CENTER
 48
0.5
100
AcDbLine
 10
467.5564667121347
 20
324.6853887746144
 30
0.0
 11
556.5564667121346
 21
324.6853887746144
 31
0.0
  0
LINE
  5
8007
330
18
100
AcDbEntity
  8
center
  6
CENTER
 48
0.5
100
AcDbLine
 10
512.0564667121347
 20
369.1853887746144
 30
0.0
 11
512.0564667121347
 21
280.1853887746144
 31
0.0
  0
LINE
  5
8008
330
18
100
AcDbEntity
  8
contour
100
AcDbLine
 10
469.7008295430399
 20
328.1853887746144
 30
0.0
 11
472.7008295430399
 21
328.1853887746145
 31
0.0
  0
LINE
  5
8009
330
18
100
AcDbEntity
  8
contour
100
AcDbLine
 10
469.7008295430399
 20
321.1853887746144
 30
0.0
 11
472.7008295430399
 21
321.1853887746145
 31
0.0
  0
LINE
  5
800B
330
18
100
AcDbEntity
  8
contour
100
AcDbLine
 10
472.7008295430399
 20
328.1853887746144
 30
0.0
 11
472.7008295430399
 21
321.1853887746144
 31
0.0
  0
LINE
  5
800C
330
18
100
AcDbEntity
  8
contour
100
AcDbLine
 10
536.2653742099276
 20
289.754330992702
 30
0.0
 11
534.7653742099275
 21
292.3524072040553
 31
0.0
  0
LINE
  5
800D
330
18
100
AcDbEntity
  8
contour
100
AcDbLine
 10
530.2031963834365
 20
286.254330992702
 30
0.0
 11
528.7031963834365
 21
288.8524072040553
 31
0.0
  0
LINE
  5
800E
330
18
100
AcDbEntity
  8
contour
100
AcDbLine
 10
528.7031963834365
 20
288.8524072040553
 30
0.0
 11
534.7653742099275
 21
292.3524072040553
 31
0.0
  0
LINE
  5
800F
330
18
100
AcDbEntity
  8
contour
100
AcDbLine
 10
530.2031963834365
 20
363.1164465565269
 30
0.0
 11
528.7031963834365
 21
360.5183703451735
 31
0.0
  0
LINE
  5
8010
330
18
100
AcDbEntity
  8
contour
100
AcDbLine
 10
536.2653742099276
 20
359.6164465565269
 30
0.0
 11
534.7653742099275
 21
357.0183703451736
 31
0.0
  0
LINE
  5
8011
330
18
100
AcDbEntity
  8
contour
100
AcDbLine
 10
534.7653742099275
 20
357.0183703451736
 30
0.0
 11
528.7031963834365
 21
360.5183703451735
 31
0.0
  0
LWPOLYLINE
  5
818A
330
18
100
AcDbEntity
  8
frame
100
AcDbPolyline
 90
        4
 70
     1
 43
0.0
 10
607.0564667121346
 20
413.4188260329738
 10
417.0564667121347
 20
413.4188260329738
 10
417.0564667121347
 20
133.4188260329738
 10
607.0564667121346
 20
133.4188260329738
  0
MTEXT
  5
818B
330
18
100
AcDbEntity
  8
0
100
AcDbMText
 10
434.1559703990264
 20
152.4948850491399
 30
0.0
 40
4.5
 41
0.0
 71
     1
 72
     5
  1
{\Ftxt,bigfont|c128;林彦旭}
  7
JL
 73
     1
 44
1.0
1001
ACAD
1000
ACAD_MTEXT_DEFINED_HEIGHT_BEGIN
1070
    46
1040
0.0
1000
ACAD_MTEXT_DEFINED_HEIGHT_END
1000
MTEXTBEGIN
1070
    73
1070
     1
1070
    44
1040
1.0
1070
    74
1070
     0
1000
MTEXTEND
  0
MTEXT
  5
818C
330
18
100
AcDbEntity
  8
0
100
AcDbMText
 10
495.0094140044232
 20
162.3546158316806
 30
0.0
 40
4.5
 41
0.0
 71
     1
 72
     5
  1
\Ftxt.shx,bigfont.shx|c128;1 : 1
  7
JL
 73
     1
 44
1.0
1001
ACAD
1000
MTEXTBEGIN
1070
    73
1070
     1
1070
    44
1040
1.0
1070
    74
1070
     0
1000
MTEXTEND
  0
MTEXT
  5
818D
330
18
100
AcDbEntity
  8
0
 48
2.0
370
    25
100
AcDbMText
 10
557.2759167587003
 20
136.9088476876077
 30
0.0
 40
4.5
 41
0.0
 71
     5
 72
     1
  1
{\Ftxt,bigfont|c128;N L 4 0 3 2 1}
 73
     1
 44
1.0
1001
ACAD
1000
ACAD_MTEXT_DEFINED_HEIGHT_BEGIN
1070
    46
1040
0.0
1000
ACAD_MTEXT_DEFINED_HEIGHT_END
1000
MTEXTBEGIN
1070
    73
1070
     1
1070
    44
1040
1.0
1070
    74
1070
     0
1000
MTEXTEND
  0
MTEXT
  5
818E
330
18
100
AcDbEntity
  8
0
 48
2.0
100
AcDbMText
 10
586.9340595858369
 20
155.1831973112107
 30
0.0
 40
4.318181818181822
 41
0.0
 71
     5
 72
     1
  1
\P{\Ftxt,bigfont|c128;MRZ65X2.0P}
 73
     1
 44
1.0
1001
ACAD
1000
ACAD_MTEXT_DEFINED_HEIGHT_BEGIN
1070
    46
1040
0.0
1000
ACAD_MTEXT_DEFINED_HEIGHT_END
1000
MTEXTBEGIN
1070
    73
1070
     1
1070
    44
1040
1.0
1070
    74
1070
     0
1000
MTEXTEND
  0
MTEXT
  5
818F
330
18
100
AcDbEntity
  8
0
100
AcDbMText
 10
432.432534425812
 20
161.7962296313209
 30
0.0
 40
4.5
 41
0.0
 71
     1
 72
     5
  1
{\Ftxt,bigfont|c128;07.07.10}
  7
JL
 73
     1
 44
1.0
1001
ACAD
1000
ACAD_MTEXT_DEFINED_HEIGHT_BEGIN
1070
    46
1040
0.0
1000
ACAD_MTEXT_DEFINED_HEIGHT_END
1000
MTEXTBEGIN
1070
    73
1070
     1
1070
    44
1040
1.0
1070
    74
1070
     0
1000
MTEXTEND
  0
LINE
  5
8190
330
18
100
AcDbEntity
  8
0
 62
     7
 48
5.0
100
AcDbLine
 39
3.838383838383842
 10
464.98589085206
 20
161.0759551031347
 30
0.0
 11
470.1022681550132
 21
162.355049428873
 31
0.0
  0
MTEXT
  5
8191
330
18
100
AcDbEntity
  8
0
100
AcDbMText
 10
431.9688221953988
 20
142.6610210830231
 30
0.0
 40
6.0
 41
0.0
 71
     1
 72
     5
  1
\Ftxt.shx,bigfont.shx|c128;日機株式会社
  7
LKK
 73
     1
 44
1.0
1001
ACAD
1000
MTEXTBEGIN
1070
    73
1070
     1
1070
    44
1040
1.0
1070
    74
1070
     0
1000
MTEXTEND
  0
LINE
  5
8192
330
18
100
AcDbEntity
  8
frame
100
AcDbLine
 10
417.0564667121347
 20
145.4188260329738
 30
0.0
 11
607.0564667121346
 21
145.4188260329738
 31
0.0
  0
LINE
  5
8193
330
18
100
AcDbEntity
  8
frame
100
AcDbLine
 10
417.0564667121347
 20
155.4188260329738
 30
0.0
 11
509.1776788333469
 21
155.4188260329738
 31
0.0
  0
LINE
  5
8194
330
18
100
AcDbEntity
  8
frame
100
AcDbLine
 10
417.0564667121347
 20
165.4188260329738
 30
0.0
 11
607.0564667121346
 21
165.4188260329738
 31
0.0
  0
LINE
  5
8195
330
18
100
AcDbEntity
  8
frame
100
AcDbLine
 10
429.2472400370726
 20
165.4188260329738
 30
0.0
 11
429.2472400370726
 21
145.4188260329738
 31
0.0
  0
LINE
  5
8196
330
18
100
AcDbEntity
  8
frame
100
AcDbLine
 10
447.7635374192053
 20
165.4188260329738
 30
0.0
 11
447.7635374192054
 21
145.4188260329738
 31
0.0
  0
MTEXT
  5
8197
330
18
100
AcDbEntity
  8
0
100
AcDbMText
 10
419.8867414963566
 20
162.5007269288021
 30
0.0
 40
4.5
 41
0.0
 71
     1
 72
     5
  1
\Ftxt.shx,bigfont.shx|c128;日 付
  7
JL
 73
     1
 44
1.0
1001
ACAD
1000
MTEXTBEGIN
1070
    73
1070
     1
1070
    44
1040
1.0
1070
    74
1070
     0
1000
MTEXTEND
  0
MTEXT
  5
8198
330
18
100
AcDbEntity
  8
0
100
AcDbMText
 10
420.0270997895735
 20
152.9404644622402
 30
0.0
 40
4.5
 41
0.0
 71
     1
 72
     5
  1
\Ftxt.shx,bigfont.shx|c128;製 図
  7
JL
 73
     1
 44
1.0
1001
ACAD
1000
MTEXTBEGIN
1070
    73
1070
     1
1070
    44
1040
1.0
1070
    74
1070
     0
1000
MTEXTEND
  0
LINE
  5
8199
330
18
100
AcDbEntity
  8
0
 62
     7
370
    25
100
AcDbLine
 10
470.1022681550132
 20
157.2386721259197
 30
0.0
 11
470.1022681550132
 21
162.355049428873
 31
0.0
  0
MTEXT
  5
819A
330
18
100
AcDbEntity
  8
0
100
AcDbMText
 10
481.063955237043
 20
162.5412530708976
 30
0.0
 40
4.5
 41
0.0
 71
     1
 72
     5
  1
\Ftxt.shx,bigfont.shx|c128;尺 度
  7
JL
 73
     1
 44
1.0
1001
ACAD
1000
MTEXTBEGIN
1070
    73
1070
     1
1070
    44
1040
1.0
1070
    74
1070
     0
1000
MTEXTEND
  0
LINE
  5
819B
330
18
100
AcDbEntity
  8
frame
100
AcDbLine
 10
478.4706081262761
 20
165.4188260329738
 30
0.0
 11
478.4706081262761
 21
145.4188260329738
 31
0.0
  0
LINE
  5
819C
330
18
100
AcDbEntity
  8
0
 62
     7
370
    25
100
AcDbLine
 10
456.6717777347609
 20
156.6077162163001
 30
0.0
 11
456.6717777347609
 21
162.7834059572705
 31
0.0
  0
CIRCLE
  5
819D
330
18
100
AcDbEntity
  8
0
 62
     7
100
AcDbCircle
 10
456.6717777347609
 20
159.7968607773963
 30
0.0
 40
2.558188651476678
  0
LINE
  5
819E
330
18
100
AcDbEntity
  8
0
 62
     7
370
    25
100
AcDbLine
 10
464.2496865813344
 20
159.7968607773964
 30
0.0
 11
470.5615925283771
 21
159.7968607773964
 31
0.0
  0
LINE
  5
819F
330
18
100
AcDbEntity
  8
0
 62
     7
100
AcDbLine
 10
464.98589085206
 20
158.517766451658
 30
0.0
 11
470.1022681550132
 21
157.2386721259197
 31
0.0
  0
LINE
  5
81A0
330
18
100
AcDbEntity
  8
frame
100
AcDbLine
 10
459.7987086720856
 20
155.4188260329738
 30
0.0
 11
459.7987086720856
 21
145.4188260329738
 31
0.0
  0
LINE
  5
81A1
330
18
100
AcDbEntity
  8
0
 62
     7
370
    25
100
AcDbLine
 10
453.4747889970008
 20
159.7968607773963
 30
0.0
 11
460.0597193883273
 21
159.7968607773964
 31
0.0
  0
CIRCLE
  5
81A2
330
18
100
AcDbEntity
  8
0
 62
     7
100
AcDbCircle
 10
456.6717777347609
 20
159.7968607773963
 30
0.0
 40
1.279094325738339
  0
MTEXT
  5
81A3
330
18
100
AcDbEntity
  8
0
100
AcDbMText
 10
450.7583070367587
 20
152.8289641908265
 30
0.0
 40
4.5
 41
0.0
 71
     1
 72
     5
  1
\Ftxt.shx,bigfont.shx|c128;検 図
  7
JL
 73
     1
 44
1.0
1001
ACAD
1000
MTEXTBEGIN
1070
    73
1070
     1
1070
    44
1040
1.0
1070
    74
1070
     0
1000
MTEXTEND
  0
LINE
  5
81A4
330
18
100
AcDbEntity
  8
0
 62
     7
370
    25
100
AcDbLine
 10
464.98589085206
 20
158.517766451658
 30
0.0
 11
464.98589085206
 21
161.0759551031347
 31
0.0
  0
MTEXT
  5
81A5
330
18
100
AcDbEntity
  8
0
100
AcDbMText
 10
481.344669211333
 20
152.7394113804626
 30
0.0
 40
4.5
 41
0.0
 71
     1
 72
     5
  1
\Ftxt.shx,bigfont.shx|c128;承 認
  7
JL
 73
     1
 44
1.0
1001
ACAD
1000
MTEXTBEGIN
1070
    73
1070
     1
1070
    44
1040
1.0
1070
    74
1070
     0
1000
MTEXTEND
  0
MTEXT
  5
81A6
330
18
100
AcDbEntity
  8
0
100
AcDbMText
 10
510.7677538682017
 20
144.1215082291652
 30
0.0
 40
4.5
 41
0.0
 71
     1
 72
     5
  1
\Ftxt.shx,bigfont.shx|c128;図  面  番  号
  7
JL
 73
     1
 44
1.0
1001
ACAD
1000
MTEXTBEGIN
1070
    73
1070
     1
1070
    44
1040
1.0
1070
    74
1070
     0
1000
MTEXTEND
  0
MTEXT
  5
81A7
330
18
100
AcDbEntity
  8
0
 48
2.0
100
AcDbMText
 10
533.9602857142731
 20
155.2945733479322
 30
0.0
 40
4.5
 41
0.0
 71
     5
 72
     1
  1
\P\Ftxt.shx,bigfont.shx|c128;    精密ロックナット
 73
     1
 44
1.0
1001
ACAD
1000
MTEXTBEGIN
1070
    73
1070
     1
1070
    44
1040
1.0
1070
    74
1070
     0
1000
MTEXTEND
  0
MTEXT
  5
81A8
330
18
100
AcDbEntity
  8
0
100
AcDbMText
 10
511.8648280152578
 20
162.4574506127065
 30
0.0
 40
4.5
 41
0.0
 71
     1
 72
     5
  1
\Ftxt.shx,bigfont.shx|c128;品  名
  7
JL
 73
     1
 44
1.0
1001
ACAD
1000
MTEXTBEGIN
1070
    73
1070
     1
1070
    44
1040
1.0
1070
    74
1070
     0
1000
MTEXTEND
  0
LINE
  5
81A9
330
18
100
AcDbEntity
  8
frame
100
AcDbLine
 10
509.1776788333469
 20
165.4188260329738
 30
0.0
 11
509.1776788333469
 21
133.6021487909323
 31
0.0
  0
LINE
  5
81AA
330
18
100
AcDbEntity
  8
frame
100
AcDbLine
 10
490.4706081262761
 20
165.4188260329738
 30
0.0
 11
490.4706081262761
 21
145.4188260329738
 31
0.0
  0
LINE
  5
81AB
330
18
100
AcDbEntity
  8
frame
100
AcDbLine
 10
564.0891759862003
 20
165.4188260329738
 30
0.0
 11
564.0891759862004
 21
145.4188260329738
 31
0.0
  0
MTEXT
  5
81AC
330
18
100
AcDbEntity
  8
0
100
AcDbMText
 10
567.9524261589078
 20
162.4640038612777
 30
0.0
 40
4.5
 41
0.0
 71
     1
 72
     5
  1
\Ftxt.shx,bigfont.shx|c128;型  番
  7
JL
 73
     1
 44
1.0
1001
ACAD
1000
MTEXTBEGIN
1070
    73
1070
     1
1070
    44
1040
1.0
1070
    74
1070
     0
1000
MTEXTEND
  0
MTEXT
  5
81AD
330
18
100
AcDbEntity
  8
0
100
AcDbMText
 10
582.8624281931673
 20
144.2018077826894
 30
0.0
 40
4.5
 41
0.0
 71
     1
 72
     5
  1
\Ftxt.shx,bigfont.shx|c128;変更
  7
JL
 73
     1
 44
1.0
1001
ACAD
1000
MTEXTBEGIN
1070
    73
1070
     1
1070
    44
1040
1.0
1070
    74
1070
     0
1000
MTEXTEND
  0
LINE
  5
81AE
330
18
100
AcDbEntity
  8
frame
100
AcDbLine
 10
581.1473758030439
 20
145.4188260329738
 30
0.0
 11
581.147375803044
 21
133.4188260329738
 31
0.0
  0
MTEXT
  5
81BE
330
18
100
AcDbEntity
  8
0
100
AcDbMText
 10
474.6928573254789
 20
394.3188843609212
 30
0.0
 40
5.0
 41
0.0
 71
     1
 72
     5
  1
{\Ftxt,bigfont|c128;M8X1.25P-6L}
  7
JL
 73
     1
 44
1.0
1001
ACAD
1000
ACAD_MTEXT_DEFINED_HEIGHT_BEGIN
1070
    46
1040
0.0
1000
ACAD_MTEXT_DEFINED_HEIGHT_END
1000
MTEXTBEGIN
1070
    73
1070
     1
1070
    44
1040
1.0
1070
    74
1070
     0
1000
MTEXTEND
  0
MTEXT
  5
81BF
330
18
100
AcDbEntity
  8
0
100
AcDbMText
 10
474.6928573254789
 20
385.9848611192455
 30
0.0
 40
5.0
 41
0.0
 71
     1
 72
     5
  1
{\Ftxt,bigfont|c128;%%C7X6L}
  7
JL
 73
     1
 44
1.0
1001
ACAD
1000
ACAD_MTEXT_DEFINED_HEIGHT_BEGIN
1070
    46
1040
0.0
1000
ACAD_MTEXT_DEFINED_HEIGHT_END
1000
MTEXTBEGIN
1070
    73
1070
     1
1070
    44
1040
1.0
1070
    74
1070
     0
1000
MTEXTEND
  0
LINE
  5
81C0
330
18
100
AcDbEntity
  8
frame
100
AcDbLine
 10
417.0564667121347
 20
387.4188260329738
 30
0.0
 11
607.0564667121346
 21
387.4188260329738
 31
0.0
  0
LINE
  5
81C1
330
18
100
AcDbEntity
  8
frame
100
AcDbLine
 10
417.0564667121347
 20
395.4188260329738
 30
0.0
 11
607.0564667121346
 21
395.4188260329738
 31
0.0
  0
LINE
  5
81C2
330
18
100
AcDbEntity
  8
frame
 62
     9
100
AcDbLine
 10
417.0564667121347
 20
403.4188260329738
 30
0.0
 11
607.0564667121346
 21
403.4188260329738
 31
0.0
  0
MTEXT
  5
81C3
330
18
100
AcDbEntity
  8
0
100
AcDbMText
 10
474.0721106181718
 20
410.8428820378779
 30
0.0
 40
5.0
 41
0.0
 71
     1
 72
     5
  1
\Ftxt.shx,bigfont.shx|c128;図    番 / 規　　格
  7
JL
 73
     1
 44
1.0
1001
ACAD
1000
MTEXTBEGIN
1070
    73
1070
     1
1070
    44
1040
1.0
1070
    74
1070
     0
1000
MTEXTEND
  0
LINE
  5
81C4
330
18
100
AcDbEntity
  8
frame
100
AcDbLine
 10
417.0564667121347
 20
387.4188260329738
 30
0.0
 11
607.0564667121346
 21
387.4188260329738
 31
0.0
  0
LINE
  5
81C5
330
18
100
AcDbEntity
  8
frame
100
AcDbLine
 10
417.0564667121347
 20
379.312217020507
 30
0.0
 11
607.0564667121346
 21
379.312217020507
 31
0.0
  0
MTEXT
  5
81C6
330
18
100
AcDbEntity
  8
0
100
AcDbMText
 10
438.181347201369
 20
410.8826241716481
 30
0.0
 40
5.0
 41
0.0
 71
     1
 72
     5
  1
\Ftxt.shx,bigfont.shx|c128;品　          名
  7
JL
 73
     1
 44
1.0
1001
ACAD
1000
MTEXTBEGIN
1070
    73
1070
     1
1070
    44
1040
1.0
1070
    74
1070
     0
1000
MTEXTEND
  0
MTEXT
  5
81C7
330
18
100
AcDbEntity
  8
0
100
AcDbMText
 10
435.159280583236
 20
394.2095497618849
 30
0.0
 40
5.0
 41
0.0
 71
     1
 72
     5
  1
\Ftxt.shx,bigfont.shx|c128;セットスクリュ-
  7
JL
 73
     1
 44
1.0
1001
ACAD
1000
MTEXTBEGIN
1070
    73
1070
     1
1070
    44
1040
1.0
1070
    74
1070
     0
1000
MTEXTEND
  0
MTEXT
  5
81C8
330
18
100
AcDbEntity
  8
0
100
AcDbMText
 10
434.9715615207663
 20
402.2549490612702
 30
0.0
 40
5.0
 41
0.0
 71
     1
 72
     5
  1
\Ftxt.shx,bigfont.shx|c128;ロックナット　  
  7
JL
 73
     1
 44
1.0
1001
ACAD
1000
MTEXTBEGIN
1070
    73
1070
     1
1070
    44
1040
1.0
1070
    74
1070
     0
1000
MTEXTEND
  0
MTEXT
  5
81C9
330
18
100
AcDbEntity
  8
0
100
AcDbMText
 10
435.159280583236
 20
386.2698805343773
 30
0.0
 40
5.0
 41
0.0
 71
     1
 72
     5
  1
\Ftxt.shx,bigfont.shx|c128;ロックピン 
  7
JL
 73
     1
 44
1.0
1001
ACAD
1000
MTEXTBEGIN
1070
    73
1070
     1
1070
    44
1040
1.0
1070
    74
1070
     0
1000
MTEXTEND
  0
LINE
  5
81CA
330
18
100
AcDbEntity
  8
frame
 62
     9
100
AcDbLine
 10
431.450406106074
 20
413.4188260329737
 30
0.0
 11
431.4504061060744
 21
379.312217020507
 31
0.0
  0
LINE
  5
81CB
330
18
100
AcDbEntity
  8
frame
 62
     9
100
AcDbLine
 10
431.450406106074
 20
413.4188260329737
 30
0.0
 11
431.450406106074
 21
388.4693310834789
 31
0.0
  0
MTEXT
  5
81CC
330
18
100
AcDbEntity
  8
0
100
AcDbMText
 10
423.8714759801484
 20
402.1469934763858
 30
0.0
 40
5.0
 41
0.0
 71
     1
 72
     5
  1
\Ftxt.shx,bigfont.shx|c128;1
  7
JL
 73
     1
 44
1.0
1001
ACAD
1000
MTEXTBEGIN
1070
    73
1070
     1
1070
    44
1040
1.0
1070
    74
1070
     0
1000
MTEXTEND
  0
MTEXT
  5
81CD
330
18
100
AcDbEntity
  8
0
100
AcDbMText
 10
419.1762947851149
 20
410.8923042969228
 30
0.0
 40
5.0
 41
0.0
 71
     1
 72
     5
  1
\Ftxt.shx,bigfont.shx|c128;照   号
  7
JL
 73
     1
 44
1.0
1001
ACAD
1000
MTEXTBEGIN
1070
    73
1070
     1
1070
    44
1040
1.0
1070
    74
1070
     0
1000
MTEXTEND
  0
LINE
  5
81CE
330
18
100
AcDbEntity
  8
frame
 62
     9
100
AcDbLine
 10
469.8342444899124
 20
413.4188260329737
 30
0.0
 11
469.8342444899124
 21
379.312217020507
 31
0.0
  0
MTEXT
  5
81CF
330
18
100
AcDbEntity
  8
0
100
AcDbMText
 10
562.6301041494198
 20
411.0969924223931
 30
0.0
 40
5.0
 41
0.0
 71
     1
 72
     5
  1
\Ftxt.shx,bigfont.shx|c128;備           考
  7
JL
 73
     1
 44
1.0
1001
ACAD
1000
MTEXTBEGIN
1070
    73
1070
     1
1070
    44
1040
1.0
1070
    74
1070
     0
1000
MTEXTEND
  0
LINE
  5
81D0
330
18
100
AcDbEntity
  8
frame
 62
     9
100
AcDbLine
 10
508.2180828737508
 20
413.4188260329738
 30
0.0
 11
508.2180828737508
 21
379.312217020507
 31
0.0
  0
MTEXT
  5
81D1
330
18
100
AcDbEntity
  8
0
100
AcDbMText
 10
509.9298776039283
 20
385.8498054791055
 30
0.0
 40
5.0
 41
0.0
 71
     1
 72
     5
  1
\Ftxt.shx,bigfont.shx|c128;C3604
  7
JL
 73
     1
 44
1.0
1001
ACAD
1000
MTEXTBEGIN
1070
    73
1070
     1
1070
    44
1040
1.0
1070
    74
1070
     0
1000
MTEXTEND
  0
MTEXT
  5
81D2
330
18
100
AcDbEntity
  8
0
100
AcDbMText
 10
509.9298776039283
 20
402.2549490612702
 30
0.0
 40
5.0
 41
0.0
 71
     1
 72
     5
  1
\Ftxt.shx,bigfont.shx|c128;SCM-440
  7
JL
 73
     1
 44
1.0
1001
ACAD
1000
MTEXTBEGIN
1070
    73
1070
     1
1070
    44
1040
1.0
1070
    74
1070
     0
1000
MTEXTEND
  0
MTEXT
  5
81D3
330
18
100
AcDbEntity
  8
0
100
AcDbMText
 10
509.9298776039283
 20
394.1838280455578
 30
0.0
 40
5.0
 41
0.0
 71
     1
 72
     5
  1
\Ftxt.shx,bigfont.shx|c128;SCM435
  7
JL
 73
     1
 44
1.0
1001
ACAD
1000
MTEXTBEGIN
1070
    73
1070
     1
1070
    44
1040
1.0
1070
    74
1070
     0
1000
MTEXTEND
  0
MTEXT
  5
81D4
330
18
100
AcDbEntity
  8
0
100
AcDbMText
 10
512.8244553431766
 20
410.9833759812657
 30
0.0
 40
5.0
 41
0.0
 71
     1
 72
     5
  1
\Ftxt.shx,bigfont.shx|c128;材　質
  7
JL
 73
     1
 44
1.0
1001
ACAD
1000
MTEXTBEGIN
1070
    73
1070
     1
1070
    44
1040
1.0
1070
    74
1070
     0
1000
MTEXTEND
  0
LINE
  5
81D5
330
18
100
AcDbEntity
  8
frame
 62
     9
100
AcDbLine
 10
527.4100020656701
 20
413.4188260329738
 30
0.0
 11
527.4100020656701
 21
379.312217020507
 31
0.0
  0
LINE
  5
81D6
330
18
100
AcDbEntity
  8
frame
100
AcDbLine
 10
541.8039414596093
 20
413.4188260329738
 30
0.0
 11
541.8039414596095
 21
379.312217020507
 31
0.0
  0
MTEXT
  5
81D7
330
18
100
AcDbEntity
  8
0
100
AcDbMText
 10
533.650373738823
 20
385.8831245919731
 30
0.0
 40
5.0
 41
0.0
 71
     1
 72
     5
  1
\Ftxt.shx,bigfont.shx|c128;3
  7
JL
 73
     1
 44
1.0
1001
ACAD
1000
MTEXTBEGIN
1070
    73
1070
     1
1070
    44
1040
1.0
1070
    74
1070
     0
1000
MTEXTEND
  0
MTEXT
  5
81D8
330
18
100
AcDbEntity
  8
0
100
AcDbMText
 10
534.2250113336838
 20
402.4600972009669
 30
0.0
 40
5.0
 41
0.0
 71
     1
 72
     5
  1
\Ftxt.shx,bigfont.shx|c128;1
  7
JL
 73
     1
 44
1.0
1001
ACAD
1000
MTEXTBEGIN
1070
    73
1070
     1
1070
    44
1040
1.0
1070
    74
1070
     0
1000
MTEXTEND
  0
MTEXT
  5
81D9
330
18
100
AcDbEntity
  8
0
100
AcDbMText
 10
533.650373738823
 20
393.9280550480418
 30
0.0
 40
5.0
 41
0.0
 71
     1
 72
     5
  1
\Ftxt.shx,bigfont.shx|c128;3
  7
JL
 73
     1
 44
1.0
1001
ACAD
1000
MTEXTBEGIN
1070
    73
1070
     1
1070
    44
1040
1.0
1070
    74
1070
     0
1000
MTEXTEND
  0
MTEXT
  5
81DA
330
18
100
AcDbEntity
  8
0
100
AcDbMText
 10
529.478856304061
 20
410.9833759812657
 30
0.0
 40
5.0
 41
0.0
 71
     1
 72
     5
  1
\Ftxt.shx,bigfont.shx|c128;数   量
  7
JL
 73
     1
 44
1.0
1001
ACAD
1000
MTEXTBEGIN
1070
    73
1070
     1
1070
    44
1040
1.0
1070
    74
1070
     0
1000
MTEXTEND
  0
MTEXT
  5
81DB
330
18
100
AcDbEntity
  8
0
100
AcDbMText
 10
423.4604864111906
 20
394.1469934763859
 30
0.0
 40
5.0
 41
0.0
 71
     1
 72
     5
  1
{\Ftxt,bigfont|c128;2}
  7
JL
 73
     1
 44
1.0
1001
ACAD
1000
ACAD_MTEXT_DEFINED_HEIGHT_BEGIN
1070
    46
1040
0.0
1000
ACAD_MTEXT_DEFINED_HEIGHT_END
1000
MTEXTBEGIN
1070
    73
1070
     1
1070
    44
1040
1.0
1070
    74
1070
     0
1000
MTEXTEND
  0
MTEXT
  5
81DC
330
18
100
AcDbEntity
  8
0
100
AcDbMText
 10
423.4604864111906
 20
386.0403844639191
 30
0.0
 40
5.0
 41
0.0
 71
     1
 72
     5
  1
{\Ftxt,bigfont|c128;3}
  7
JL
 73
     1
 44
1.0
1001
ACAD
1000
ACAD_MTEXT_DEFINED_HEIGHT_BEGIN
1070
    46
1040
0.0
1000
ACAD_MTEXT_DEFINED_HEIGHT_END
1000
MTEXTBEGIN
1070
    73
1070
     1
1070
    44
1040
1.0
1070
    74
1070
     0
1000
MTEXTEND
  0
LINE
  5
8395
330
18
100
AcDbEntity
  8
bowle
  6
HIDDEN
 48
0.2
100
AcDbLine
 10
554.3678127082147
 20
328.6853887746144
 30
0.0
 11
543.2182912134376
 21
328.6853887746144
 31
0.0
  0
LINE
  5
8396
330
18
100
AcDbEntity
  8
bowle
  6
HIDDEN
 48
0.2
100
AcDbLine
 10
554.3678127082147
 20
320.6853887746144
 30
0.0
 11
543.2182912134376
 21
320.6853887746144
 31
0.0
  0
LINE
  5
8397
330
18
100
AcDbEntity
  8
bowle
  6
HIDDEN
 48
0.2
100
AcDbLine
 10
554.4263185852531
 20
328.0088887746143
 30
0.0
 11
543.2976839419418
 21
328.0088887746144
 31
0.0
  0
LINE
  5
8398
330
18
100
AcDbEntity
  8
bowle
  6
HIDDEN
 48
0.2
100
AcDbLine
 10
554.4263185852531
 20
321.3618887746144
 30
0.0
 11
543.2976839419418
 21
321.3618887746144
 31
0.0
  0
LINE
  5
8399
330
18
100
AcDbEntity
  8
bowle
  6
HIDDEN
 48
0.2
100
AcDbLine
 10
487.4366920989569
 20
359.3280892755327
 30
0.0
 11
493.0114528463454
 21
349.6723204210151
 31
0.0
  0
LINE
  5
839A
330
18
100
AcDbEntity
  8
bowle
  6
HIDDEN
 48
0.2
100
AcDbLine
 10
494.3648953292323
 20
363.3280892755327
 30
0.0
 11
499.9396560766209
 21
353.6723204210151
 31
0.0
  0
LINE
  5
839B
330
18
100
AcDbEntity
  8
bowle
  6
HIDDEN
 48
0.2
100
AcDbLine
 10
487.9933053460979
 20
359.7170068513187
 30
0.0
 11
493.5576226677535
 21
350.0793265407755
 31
0.0
  0
LINE
  5
839C
330
18
100
AcDbEntity
  8
bowle
  6
HIDDEN
 48
0.2
100
AcDbLine
 10
493.749776205053
 20
363.0405068513187
 30
0.0
 11
499.3140935267087
 21
353.4028265407755
 31
0.0
  0
LINE
  5
839D
330
18
100
AcDbEntity
  8
bowle
  6
HIDDEN
 48
0.2
100
AcDbLine
 10
494.3648953292323
 20
286.0426882736961
 30
0.0
 11
499.9396560766209
 21
295.6984571282138
 31
0.0
  0
LINE
  5
839E
330
18
100
AcDbEntity
  8
bowle
  6
HIDDEN
 48
0.2
100
AcDbLine
 10
487.4366920989569
 20
290.0426882736961
 30
0.0
 11
493.0114528463454
 21
299.6984571282138
 31
0.0
  0
LINE
  5
839F
330
18
100
AcDbEntity
  8
bowle
  6
HIDDEN
 48
0.2
100
AcDbLine
 10
493.7497762050529
 20
286.3302706979102
 30
0.0
 11
499.3140935267087
 21
295.9679510084533
 31
0.0
  0
LINE
  5
83A0
330
18
100
AcDbEntity
  8
bowle
  6
HIDDEN
 48
0.2
100
AcDbLine
 10
487.9933053460978
 20
289.6537706979102
 30
0.0
 11
493.5576226677535
 21
299.2914510084533
 31
0.0
  0
LINE
  5
83A3
330
18
100
AcDbEntity
  8
center
  6
CENTER
 48
0.2
100
AcDbLine
 10
497.3477167121346
 20
350.1616910904431
 30
0.0
 11
489.8064667121347
 21
363.223519243022
 31
0.0
  0
LINE
  5
83A6
330
18
100
AcDbEntity
  8
center
  6
CENTER
 48
0.2
100
AcDbLine
 10
497.3477167121346
 20
299.2090864587857
 30
0.0
 11
489.8064667121347
 21
286.1472583062068
 31
0.0
  0
ARC
  5
83A7
330
18
100
AcDbEntity
  8
contour
100
AcDbCircle
 10
512.0564667121347
 20
324.6853887746144
 30
0.0
 40
42.5
100
AcDbArc
 50
304.7238257592084
 51
55.2761742407916
  0
ARC
  5
83A8
330
18
100
AcDbEntity
  8
contour
100
AcDbCircle
 10
512.0564667121347
 20
324.6853887746144
 30
0.0
 40
42.5
100
AcDbArc
 50
64.72382575920896
 51
175.2761742407905
  0
LINE
  5
84CD
102
{ACAD_REACTORS
330
8E25
102
}
330
18
100
AcDbEntity
  8
contour
100
AcDbLine
 10
551.0564667121347
 20
238.075202221417
 30
0.0
 11
473.0564667121346
 21
238.075202221417
 31
0.0
  0
LINE
  5
84CE
330
18
100
AcDbEntity
  8
contour
100
AcDbLine
 10
469.5564667121346
 20
235.575202221417
 30
0.0
 11
469.5564667121346
 21
224.075202221417
 31
0.0
  0
LINE
  5
84CF
102
{ACAD_REACTORS
330
8E25
102
}
330
18
100
AcDbEntity
  8
contour
100
AcDbLine
 10
471.5564667121347
 20
222.075202221417
 30
0.0
 11
552.5564667121346
 21
222.075202221417
 31
0.0
  0
LINE
  5
84D0
102
{ACAD_REACTORS
330
8E25
102
}
330
18
100
AcDbEntity
  8
contour
100
AcDbLine
 10
554.5564667121347
 20
224.075202221417
 30
0.0
 11
554.5564667121347
 21
235.575202221417
 31
0.0
  0
LINE
  5
84D1
102
{ACAD_REACTORS
330
8E25
102
}
330
18
100
AcDbEntity
  8
contour
100
AcDbLine
 10
552.5564667121346
 20
237.575202221417
 30
0.0
 11
551.0564667121347
 21
237.575202221417
 31
0.0
  0
LINE
  5
84D2
102
{ACAD_REACTORS
330
8E25
102
}
330
18
100
AcDbEntity
  8
contour
100
AcDbLine
 10
473.0564667121346
 20
238.075202221417
 30
0.0
 11
473.0564667121346
 21
237.575202221417
 31
0.0
  0
ARC
  5
84D3
330
18
100
AcDbEntity
  8
contour
100
AcDbCircle
 10
471.5564667121347
 20
224.075202221417
 30
0.0
 40
2.0
100
AcDbArc
 50
180.0
 51
270.0
  0
ARC
  5
84D4
330
18
100
AcDbEntity
  8
contour
100
AcDbCircle
 10
471.5564667121347
 20
235.575202221417
 30
0.0
 40
2.0
100
AcDbArc
 50
90.0
 51
180.0
  0
ARC
  5
84D5
102
{ACAD_REACTORS
330
8E25
102
}
330
18
100
AcDbEntity
  8
contour
100
AcDbCircle
 10
552.5564667121346
 20
224.075202221417
 30
0.0
 40
2.0
100
AcDbArc
 50
270.0
 51
0.0
  0
ARC
  5
84D6
102
{ACAD_REACTORS
330
8E25
102
}
330
18
100
AcDbEntity
  8
contour
100
AcDbCircle
 10
552.5564667121346
 20
235.575202221417
 30
0.0
 40
2.0
100
AcDbArc
 50
0.0
 51
90.0
  0
LINE
  5
84D7
102
{ACAD_REACTORS
330
8E25
102
}
330
18
100
AcDbEntity
  8
contour
100
AcDbLine
 10
551.0564667121347
 20
238.075202221417
 30
0.0
 11
551.0564667121347
 21
237.575202221417
 31
0.0
  0
LINE
  5
84DF
102
{ACAD_REACTORS
330
8E25
102
}
330
18
100
AcDbEntity
  8
contour
100
AcDbLine
 10
473.0564667121346
 20
237.575202221417
 30
0.0
 11
471.5564667121347
 21
237.575202221417
 31
0.0
  0
LINE
  5
84E1
102
{ACAD_REACTORS
330
8E25
102
}
330
18
100
AcDbEntity
  8
contour
100
AcDbLine
 10
480.6389667121346
 20
234.492702221417
 30
0.0
 11
480.6389667121345
 21
224.075202221417
 31
0.0
  0
LINE
  5
84E2
102
{ACAD_REACTORS
330
8E25
102
}
330
18
100
AcDbEntity
  8
contour
 62
     4
100
AcDbLine
 10
479.5564667121347
 20
235.575202221417
 30
0.0
 11
479.5564667121347
 21
222.992702221417
 31
0.0
  0
LINE
  5
84E4
102
{ACAD_REACTORS
330
8E25
102
}
330
18
100
AcDbEntity
  8
contour
100
AcDbLine
 10
472.7008295430398
 20
237.575202221417
 30
0.0
 11
472.7008295430399
 21
222.075202221417
 31
0.0
  0
LINE
  5
84E5
102
{ACAD_REACTORS
330
8E25
102
}
330
18
100
AcDbEntity
  8
contour
100
AcDbLine
 10
479.0564667121347
 20
238.075202221417
 30
0.0
 11
479.0564667121347
 21
236.075202221417
 31
0.0
  0
LINE
  5
84E6
330
18
100
AcDbEntity
  8
contour
100
AcDbLine
 10
479.0564667121347
 20
236.075202221417
 30
0.0
 11
545.0564667121347
 21
236.075202221417
 31
0.0
  0
LINE
  5
84E7
102
{ACAD_REACTORS
330
8E25
102
}
330
18
100
AcDbEntity
  8
contour
100
AcDbLine
 10
545.0564667121347
 20
236.075202221417
 30
0.0
 11
545.0564667121347
 21
238.075202221417
 31
0.0
  0
LINE
  5
84E9
102
{ACAD_REACTORS
330
8E25
102
}
330
18
100
AcDbEntity
  8
contour
100
AcDbLine
 10
478.6389667121346
 20
222.075202221417
 30
0.0
 11
480.6389667121345
 21
224.075202221417
 31
0.0
  0
LINE
  5
84EA
102
{ACAD_REACTORS
330
8E25
102
}
330
18
100
AcDbEntity
  8
contour
100
AcDbLine
 10
479.0564667121347
 20
236.075202221417
 30
0.0
 11
480.6389667121347
 21
234.4927022214169
 31
0.0
  0
LINE
  5
84EB
102
{ACAD_REACTORS
330
8E25
102
}
330
18
100
AcDbEntity
  8
contour
100
AcDbLine
 10
543.4739667121347
 20
234.492702221417
 30
0.0
 11
543.4739667121347
 21
224.075202221417
 31
0.0
  0
LINE
  5
84EC
102
{ACAD_REACTORS
330
8E25
102
}
330
18
100
AcDbEntity
  8
contour
100
AcDbLine
 10
545.4739667121348
 20
222.075202221417
 30
0.0
 11
543.4739667121347
 21
224.075202221417
 31
0.0
  0
LINE
  5
84ED
102
{ACAD_REACTORS
330
8E25
102
}
330
18
100
AcDbEntity
  8
contour
 62
     4
100
AcDbLine
 10
544.5564667121345
 20
235.575202221417
 30
0.0
 11
544.5564667121345
 21
234.0752022214171
 31
0.0
  0
LINE
  5
84EE
102
{ACAD_REACTORS
330
8E25
102
}
330
18
100
AcDbEntity
  8
contour
100
AcDbLine
 10
545.0564667121347
 20
236.075202221417
 30
0.0
 11
543.4739667121346
 21
234.4927022214169
 31
0.0
  0
LINE
  5
84EF
330
18
100
AcDbEntity
  8
contour
100
AcDbLine
 10
480.6389667121345
 20
224.075202221417
 30
0.0
 11
543.4739667121347
 21
224.0752022214173
 31
0.0
  0
LINE
  5
84F0
330
18
100
AcDbEntity
  8
contour
100
AcDbLine
 10
543.4739667121346
 20
234.4927022214169
 30
0.0
 11
480.6389667121347
 21
234.4927022214169
 31
0.0
  0
LINE
  5
84F1
330
18
100
AcDbEntity
  8
center
  6
CENTER
 48
0.2
100
AcDbLine
 10
512.0564667121347
 20
240.075202221417
 30
0.0
 11
512.0564667121347
 21
220.075202221417
 31
0.0
  0
LWPOLYLINE
  5
84F4
330
18
100
AcDbEntity
  8
mark
100
AcDbPolyline
 90
        7
 70
     1
 43
0.0
 10
523.2444330841484
 20
240.5752022214171
 10
531.9046871219929
 20
240.5752022214171
 10
530.4613114490187
 20
238.075202221417
 10
529.0179357760447
 20
240.5752022214171
 10
527.5745601030706
 20
238.075202221417
 10
526.1311844300966
 20
240.5752022214171
 10
524.6878087571225
 20
238.075202221417
  0
DIMENSION
  5
8C26
330
18
100
AcDbEntity
  8
mark
100
AcDbDimension
  2
*D4
 10
545.0564667121347
 20
246.6453414093361
 30
0.0
 11
512.0564667121347
 21
248.6953414093362
 31
0.0
 70
    32
  1
%%C66
 71
     5
 42
66.0
  3
STANDARD
100
AcDbAlignedDimension
 13
479.0564667121347
 23
238.075202221417
 33
0.0
 14
545.0564667121347
 24
238.075202221417
 34
0.0
100
AcDbRotatedDimension
  0
DIMENSION
  5
8C33
330
18
100
AcDbEntity
  8
mark
100
AcDbDimension
  2
*D5
 10
551.0564667121347
 20
253.6102849505174
 30
0.0
 11
512.0564667121347
 21
255.6602849505174
 31
0.0
 70
    32
  1
%%c78%%P0.5
 71
     5
 42
78.0
  3
STANDARD
100
AcDbAlignedDimension
 13
473.0564667121346
 23
238.075202221417
 33
0.0
 14
551.0564667121347
 24
238.075202221417
 34
0.0
100
AcDbRotatedDimension
  0
DIMENSION
  5
8C40
330
18
100
AcDbEntity
  8
mark
100
AcDbDimension
  2
*D6
 10
554.5564667121347
 20
260.9494211434083
 30
0.0
 11
512.0564667121347
 21
262.9994211434083
 31
0.0
 70
    32
  1
%%C85
 71
     5
 42
85.0
  3
STANDARD
100
AcDbAlignedDimension
 13
469.5564667121346
 23
235.575202221417
 33
0.0
 14
554.5564667121347
 24
235.575202221417
 34
0.0
100
AcDbRotatedDimension
  0
DIMENSION
  5
8C68
330
18
100
AcDbEntity
  8
mark
100
AcDbDimension
  2
*D7
 10
459.5947046890516
 20
238.075202221417
 30
0.0
 11
457.5447046890515
 21
247.1668688880837
 31
0.0
 70
    32
 71
     5
 42
0.5
  3
STANDARD
100
AcDbAlignedDimension
 13
471.5564667121347
 23
237.575202221417
 33
0.0
 14
473.0564667121346
 24
238.075202221417
 34
0.0
 50
90.0
100
AcDbRotatedDimension
  0
DIMENSION
  5
8C77
330
18
100
AcDbEntity
  8
mark
100
AcDbDimension
  2
*D8
 10
459.5947046890516
 20
321.1853887746145
 30
0.0
 11
457.5447046890515
 21
324.6853887746145
 31
0.0
 70
    32
 71
     5
 42
6.999999999999886
  3
STANDARD
100
AcDbAlignedDimension
 13
469.7008295430399
 23
328.1853887746144
 33
0.0
 14
469.7008295430399
 24
321.1853887746145
 34
0.0
 50
90.0
100
AcDbRotatedDimension
  0
DIMENSION
  5
8C87
330
18
100
AcDbEntity
  8
mark
100
AcDbDimension
  2
*D9
 10
469.7008295430399
 20
278.0476941004077
 30
0.0
 11
462.0674962097066
 21
280.0976941004077
 31
0.0
 70
    32
 71
     5
 42
3.0
  3
STANDARD
100
AcDbAlignedDimension
 13
472.7008295430399
 23
321.1853887746145
 33
0.0
 14
469.7008295430399
 24
321.1853887746145
 34
0.0
100
AcDbRotatedDimension
  0
MTEXT
  5
8C96
330
18
100
AcDbEntity
  8
mark
 62
     3
100
AcDbMText
 10
463.4470379101752
 20
281.7539644585677
 30
0.0
 40
1.25
 41
0.0
 71
     1
 72
     1
  1
+0.15\P+0
 73
     1
 44
1.0
1001
ACAD
1000
ACAD_MTEXT_DEFINED_HEIGHT_BEGIN
1070
    46
1040
0.0
1000
ACAD_MTEXT_DEFINED_HEIGHT_END
1000
MTEXTBEGIN
1070
    73
1070
     1
1070
    44
1040
1.0
1070
    74
1070
     0
1000
MTEXTEND
  0
MTEXT
  5
8C97
330
18
100
AcDbEntity
  8
mark
 62
     3
100
AcDbMText
 10
455.1855756162937
 20
326.1610824478086
 30
0.0
 40
1.25
 41
0.0
 71
     1
 72
     1
  1
+0.15\P+0
 11
0.0000000000000001
 21
1.0
 31
0.0
 73
     1
 44
1.0
1001
ACAD
1000
ACAD_MTEXT_DEFINED_HEIGHT_BEGIN
1070
    46
1040
0.0
1000
ACAD_MTEXT_DEFINED_HEIGHT_END
1000
MTEXTBEGIN
1070
    73
1070
     1
1070
    44
1040
1.0
1070
    74
1070
     0
1000
MTEXTEND
  0
MTEXT
  5
8C98
330
18
100
AcDbEntity
  8
mark
 62
     3
100
AcDbMText
 10
456.018908949627
 20
331.4214794448945
 30
0.0
 40
2.5
 41
0.0
 71
     1
 72
     1
  1
({\Ftxt,bigfont|c128;3等分\Ftxt,bigfont|c136;)}
 11
0.0000000000000001
 21
1.0
 31
0.0
 73
     1
 44
1.0
1001
ACAD
1000
ACAD_MTEXT_DEFINED_HEIGHT_BEGIN
1070
    46
1040
0.0
1000
ACAD_MTEXT_DEFINED_HEIGHT_END
1000
MTEXTBEGIN
1070
    73
1070
     1
1070
    44
1040
1.0
1070
    74
1070
     0
1000
MTEXTEND
  0
LEADER
  5
8CA4
330
18
100
AcDbEntity
  8
mark
100
AcDbLeader
  3
STANDARD
 76
     2
 10
544.4739667121348
 20
223.075202221417
 30
0.0
 10
535.8052972283212
 20
214.4065327376023
 30
0.0
211
0.0000000000000001
221
-1.0
231
0.0
1001
ACAD
1000
DSTYLE
1002
{
1070
   147
1040
0.8
1070
    77
1070
     0
1002
}
  0
MTEXT
  5
8CA5
330
18
100
AcDbEntity
  8
mark
 62
     3
100
AcDbMText
 10
536.6950856371977
 20
218.230789536635
 30
0.0
 40
2.5
 41
0.0
 71
     5
 72
     1
  1
C2
 11
0.7071067811862683
 21
0.7071067811868267
 31
0.0
 73
     1
 44
1.0
1001
ACAD
1000
ACAD_MTEXT_DEFINED_HEIGHT_BEGIN
1070
    46
1040
0.0
1000
ACAD_MTEXT_DEFINED_HEIGHT_END
1000
MTEXTBEGIN
1070
    73
1070
     1
1070
    44
1040
1.0
1070
    74
1070
     0
1000
MTEXTEND
  0
DIMENSION
  5
8CA6
330
18
100
AcDbEntity
  8
mark
100
AcDbDimension
  2
*D10
 10
471.556466712135
 20
224.0752022214171
 30
0.0
 11
460.6434520558215
 21
216.0613253679708
 31
0.0
 70
    36
  1
2-R2
 71
     5
 42
2.000000000000341
  3
STANDARD
100
AcDbRadialDimension
 15
470.1422531497615
 25
222.660988659044
 35
0.0
 40
0.0
1001
ACAD
1000
DSTYLE
1002
{
1070
   288
1070
     1
1002
}
  0
LINE
  5
8CB9
102
{ACAD_REACTORS
330
8E25
102
}
330
18
100
AcDbEntity
  8
contour
 62
     4
100
AcDbLine
 10
554.5564667121348
 20
234.0752022214172
 30
0.0
 11
543.4739667121347
 21
234.0752022214172
 31
0.0
  0
LINE
  5
8CBA
102
{ACAD_REACTORS
330
8E25
102
}
330
18
100
AcDbEntity
  8
contour
 62
     4
100
AcDbLine
 10
554.5564667121348
 20
226.0752022214171
 30
0.0
 11
543.4739667121347
 21
226.0752022214171
 31
0.0
  0
LINE
  5
8CBB
102
{ACAD_REACTORS
330
8E25
102
}
330
18
100
AcDbEntity
  8
contour
100
AcDbLine
 10
549.3799667121346
 20
233.3987022214171
 30
0.0
 11
548.5564667121346
 21
233.3987022214171
 31
0.0
  0
LINE
  5
8CBC
102
{ACAD_REACTORS
330
8E25
102
}
330
18
100
AcDbEntity
  8
contour
100
AcDbLine
 10
549.3799667121349
 20
226.7517022214171
 30
0.0
 11
548.5564667121346
 21
226.7517022214171
 31
0.0
  0
HATCH
  5
8CBD
330
18
100
AcDbEntity
  8
section
100
AcDbHatch
 10
0.0
 20
0.0
 30
0.0
210
0.0
220
0.0
230
1.0
  2
AR-SAND
 70
     0
 71
     0
 91
        2
 92
        7
 72
     0
 73
     1
 93
        4
 10
543.4739667121347
 20
233.5752022214171
 10
543.4739667121347
 20
230.0752022214171
 10
548.5564667121346
 20
230.0752022214171
 10
548.5564667121346
 20
233.5752022214171
 97
        0
 92
        7
 72
     0
 73
     1
 93
        4
 10
543.4739667121347
 20
230.0752022214171
 10
543.4739667121347
 20
226.5752022214171
 10
548.5564667121346
 20
226.5752022214171
 10
548.5564667121346
 20
230.0752022214171
 97
        0
 75
     0
 76
     1
 52
0.0
 41
0.02
 77
     0
 78
     4
 53
37.5
 43
229.527257382136
 44
118.8029680844594
 45
-0.0320006259196809
 46
0.9788264746586847
 79
     6
 49
0.0
 49
-0.7721600000000001
 49
0.0
 49
-0.8636000000000001
 49
0.0
 49
-0.8255
 53
7.499999999999999
 43
229.527257382136
 44
118.8029680844594
 45
0.8990465662760053
 46
1.433650201136708
 79
     6
 49
0.0
 49
-0.4165600000000001
 49
0.0
 49
-0.69596
 49
0.0
 49
-0.2667000000000001
 53
327.5
 43
228.902417382136
 44
118.8029680844594
 45
1.581984740482915
 46
0.0028743693570914
 79
     6
 49
0.0
 49
-0.254
 49
0.0
 49
-0.9144
 49
0.0
 49
-1.193799999999999
 53
317.5
 43
228.902417382136
 44
118.8029680844594
 45
1.527112904944594
 46
0.4458586465144325
 79
     6
 49
0.0
 49
-0.127
 49
0.0
 49
-0.59944
 49
0.0
 49
-0.6858
 47
0.0620254116255438
 98
        2
 10
545.6160778977449
 20
231.8759210484047
 10
545.4299450718814
 20
229.0227523821787
1001
ACAD
1010
0.0
1020
0.0
1030
0.0
  0
LWPOLYLINE
  5
8CBE
102
{ACAD_REACTORS
330
8E25
102
}
330
18
100
AcDbEntity
  8
contour
100
AcDbPolyline
 90
        6
 70
     0
 43
0.0
 10
550.0564667121347
 20
234.0752022214172
 10
550.0564667121347
 20
234.0752022214172
 10
548.5564667121346
 20
232.5752022214171
 10
548.5564667121346
 20
227.5752022214171
 10
550.0564667121347
 20
226.0752022214171
 10
550.0564667121347
 20
226.0752022214171
  0
LWPOLYLINE
  5
8CBF
330
18
100
AcDbEntity
  8
contour
100
AcDbPolyline
 90
        2
 70
     0
 43
0.0
 10
554.5564667121347
 20
226.7517022214172
 10
554.5564667121347
 20
233.3987022214171
  0
LINE
  5
8CC0
330
18
100
AcDbEntity
  8
contour
100
AcDbLine
 10
550.0564667121347
 20
234.0752022214172
 30
0.0
 11
550.0564667121347
 21
226.0752022214171
 31
0.0
  0
LINE
  5
8CC1
330
18
100
AcDbEntity
  8
contour
100
AcDbLine
 10
552.0564667121346
 20
232.5752022214171
 30
0.0
 11
554.5564667121347
 21
232.5752022214171
 31
0.0
  0
LINE
  5
8CC2
330
18
100
AcDbEntity
  8
contour
100
AcDbLine
 10
552.0564667121346
 20
227.5752022214171
 30
0.0
 11
554.5564667121347
 21
227.5752022214171
 31
0.0
  0
LINE
  5
8CC3
330
18
100
AcDbEntity
  8
contour
100
AcDbLine
 10
552.0564667121346
 20
232.5752022214171
 30
0.0
 11
552.0564667121346
 21
227.5752022214171
 31
0.0
  0
LINE
  5
8CC4
330
18
100
AcDbEntity
  8
contour
100
AcDbLine
 10
551.5564667121346
 20
230.0752022214171
 30
0.0
 11
552.0564667121346
 21
232.5752022214171
 31
0.0
  0
LINE
  5
8CC5
330
18
100
AcDbEntity
  8
contour
100
AcDbLine
 10
551.5564667121346
 20
230.0752022214171
 30
0.0
 11
552.0564667121346
 21
227.5752022214171
 31
0.0
  0
LINE
  5
8CC6
330
18
100
AcDbEntity
  8
contour
 62
     4
100
AcDbLine
 10
554.5564667121347
 20
233.3987022214171
 30
0.0
 11
549.3799667121346
 21
233.3987022214171
 31
0.0
  0
LINE
  5
8CC7
330
18
100
AcDbEntity
  8
contour
 62
     4
100
AcDbLine
 10
554.5564667121347
 20
226.7517022214171
 30
0.0
 11
549.3799667121349
 21
226.7517022214171
 31
0.0
  0
LINE
  5
8CC8
102
{ACAD_REACTORS
330
8E25
102
}
330
18
100
AcDbEntity
  8
contour
100
AcDbLine
 10
554.5564667121347
 20
233.3987022214171
 30
0.0
 11
553.3847343408143
 21
234.0752022214172
 31
0.0
  0
LINE
  5
8CC9
330
18
100
AcDbEntity
  8
contour
100
AcDbLine
 10
553.3847343408143
 20
234.0752022214172
 30
0.0
 11
553.3847343408143
 21
226.0752022214171
 31
0.0
  0
LINE
  5
8CCA
102
{ACAD_REACTORS
330
8E25
102
}
330
18
100
AcDbEntity
  8
contour
100
AcDbLine
 10
554.5564667121347
 20
226.7517022214172
 30
0.0
 11
553.3847343408143
 21
226.0752022214171
 31
0.0
  0
LWPOLYLINE
  5
8CCB
102
{ACAD_REACTORS
330
8E25
102
}
330
18
100
AcDbEntity
  8
contour
100
AcDbPolyline
 90
        4
 70
     1
 43
0.0
 10
543.4739667121347
 20
233.5752022214171
 10
543.4739667121347
 20
226.5752022214171
 10
548.5564667121346
 20
226.5752022214171
 10
548.5564667121346
 20
233.5752022214171
  0
LINE
  5
8CCC
102
{ACAD_REACTORS
330
8E25
102
}
330
18
100
AcDbEntity
  8
contour
 62
     4
100
AcDbLine
 10
544.5564667121345
 20
226.0752022214171
 30
0.0
 11
544.5564667121346
 21
222.992702221417
 31
0.0
  0
LINE
  5
8CCD
330
18
100
AcDbEntity
  8
center
  6
CENTER
 48
0.2
100
AcDbLine
 10
541.4739667121348
 20
230.0752022214171
 30
0.0
 11
556.5564667121346
 21
230.0752022214171
 31
0.0
  0
DIMENSION
  5
8CCF
330
18
100
AcDbEntity
  8
mark
100
AcDbDimension
  2
*D11
 10
479.5564667121347
 20
207.591726423157
 30
0.0
 11
512.0564667121347
 21
209.641726423157
 31
0.0
 70
    32
  1
M65X2.0P
 71
     5
 42
65.0
  3
STANDARD
100
AcDbAlignedDimension
 13
544.5564667121346
 23
222.992702221417
 33
0.0
 14
479.5564667121347
 24
222.992702221417
 34
0.0
100
AcDbRotatedDimension
  0
DIMENSION
  5
8CDC
330
18
100
AcDbEntity
  8
mark
100
AcDbDimension
  2
*D12
 10
494.2930892899535
 20
236.075202221417
 30
0.0
 11
492.2430892899534
 21
228.4418688880837
 31
0.0
 70
    32
 71
     5
 42
2.000000000000028
  3
STANDARD
100
AcDbAlignedDimension
 13
494.2930892899535
 23
238.075202221417
 33
0.0
 14
494.2930892899535
 24
236.075202221417
 34
0.0
 50
90.0
100
AcDbRotatedDimension
  0
LINE
  5
8CE9
330
18
100
AcDbEntity
  8
mark
100
AcDbLine
 10
479.5564667121347
 20
206.791726423157
 30
0.0
 11
479.5564667121347
 21
198.041726423157
 31
0.0
  0
INSERT
  5
8CEA
330
18
100
AcDbEntity
  8
mark
100
AcDbBlockReference
  2
A
 10
475.4771987079881
 20
202.4328715249396
 30
0.0
  0
DIMENSION
  5
8CEB
330
18
100
AcDbEntity
  8
mark
100
AcDbDimension
  2
*D13
 10
565.047673521155
 20
238.075202221417
 30
0.0
 11
562.9976735211551
 21
234.0752022214172
 31
0.0
 70
    32
 71
     5
 42
7.999999999999857
  3
STANDARD
100
AcDbAlignedDimension
 13
556.5564667121346
 23
230.0752022214171
 33
0.0
 14
551.0564667121347
 24
238.075202221417
 34
0.0
 50
90.0
100
AcDbRotatedDimension
  0
DIMENSION
  5
8CF8
330
18
100
AcDbEntity
  8
mark
100
AcDbDimension
  2
*D14
 10
572.8988684379562
 20
238.075202221417
 30
0.0
 11
570.8488684379562
 21
230.0752022214171
 31
0.0
 70
    32
  1
16%%P0.2
 71
     5
 42
16.0
  3
STANDARD
100
AcDbAlignedDimension
 13
552.5564667121346
 23
222.075202221417
 33
0.0
 14
551.0564667121347
 24
238.075202221417
 34
0.0
 50
90.0
100
AcDbRotatedDimension
  0
TOLERANCE
  5
8D05
330
18
100
AcDbEntity
  8
mark
100
AcDbFcf
  3
STANDARD
 10
577.8988684379562
 20
248.075202221417
 30
0.0
  1
{\Fgdt;h}%%v0.005%%v%%vA%%v%%v
1001
ACAD
1000
DSTYLE
1002
{
1070
    41
1040
2.5
1070
    42
1040
0.8
1070
    43
1040
6.0
1070
    44
1040
0.8
1070
    73
1070
     0
1070
    74
1070
     0
1070
    78
1070
     8
1070
    79
1070
     2
1070
   140
1040
2.5
1070
   141
1040
0.0
1070
   144
1040
1.0
1070
   147
1040
0.8
1070
   176
1070
   256
1070
   177
1070
   256
1070
   178
1070
     3
1070
   179
1070
     2
1070
   271
1070
     1
1070
   272
1070
     1
1070
   341
1005
8014
1070
   342
1005
8014
1002
}
  0
LWPOLYLINE
  5
8D06
330
18
100
AcDbEntity
  8
mark
100
AcDbPolyline
 90
        3
 70
     0
 43
0.0
 10
572.8988684379562
 20
238.075202221417
 10
572.8988684379562
 20
248.075202221417
 10
577.8988684379562
 20
248.075202221417
  0
MTEXT
  5
8D07
330
18
100
AcDbEntity
  8
mark
 62
     3
100
AcDbMText
 10
562.3156431221441
 20
249.9258017674068
 30
0.0
 40
3.5
 41
0.0
 71
     5
 72
     1
  1
2
 73
     1
 44
1.0
1001
ACAD
1000
ACAD_MTEXT_DEFINED_HEIGHT_BEGIN
1070
    46
1040
0.0
1000
ACAD_MTEXT_DEFINED_HEIGHT_END
1000
MTEXTBEGIN
1070
    73
1070
     1
1070
    44
1040
1.0
1070
    74
1070
     0
1000
MTEXTEND
  0
LEADER
  5
8D08
330
18
100
AcDbEntity
  8
mark
100
AcDbLeader
  3
STANDARD
 76
     2
 10
554.5564667121348
 20
230.0752022214175
 30
0.0
 10
560.3210686492015
 20
248.1259268687277
 30
0.0
1001
ACAD
1000
DSTYLE
1002
{
1070
   147
1040
0.8
1070
    77
1070
     0
1002
}
  0
MTEXT
  5
8D09
330
18
100
AcDbEntity
  8
mark
 62
     3
100
AcDbMText
 10
562.0906431221441
 20
213.8680289450149
 30
0.0
 40
3.5
 41
0.0
 71
     5
 72
     1
  1
3
 73
     1
 44
1.0
1001
ACAD
1000
ACAD_MTEXT_DEFINED_HEIGHT_BEGIN
1070
    46
1040
0.0
1000
ACAD_MTEXT_DEFINED_HEIGHT_END
1000
MTEXTBEGIN
1070
    73
1070
     1
1070
    44
1040
1.0
1070
    74
1070
     0
1000
MTEXTEND
  0
LEADER
  5
8D0A
330
18
100
AcDbEntity
  8
mark
100
AcDbLeader
  3
STANDARD
 76
     2
 10
546.0152167121348
 20
226.5752022214173
 30
0.0
 10
560.0196714019932
 20
214.105997531559
 30
0.0
211
0.7071067811865476
221
0.7071067811865475
231
0.0
1001
ACAD
1000
DSTYLE
1002
{
1070
   147
1040
0.8
1070
    77
1070
     0
1002
}
  0
LEADER
  5
8D0B
330
18
100
AcDbEntity
  8
mark
100
AcDbLeader
  3
STANDARD
 76
     2
 10
541.3975096841442
 20
355.4319852905654
 30
0.0
 10
559.588835602168
 20
373.6924476267873
 30
0.0
211
0.8660254037844385
221
0.5000000000000005
231
0.0
1001
ACAD
1000
DSTYLE
1002
{
1070
   147
1040
0.8
1070
    77
1070
     0
1002
}
  0
MTEXT
  5
8D0C
330
18
100
AcDbEntity
  8
mark
 62
     3
100
AcDbMText
 10
560.8503343215802
 20
374.0954280410083
 30
0.0
 40
3.5
 41
0.0
 71
     5
 72
     1
  1
1
 73
     1
 44
1.0
1001
ACAD
1000
ACAD_MTEXT_DEFINED_HEIGHT_BEGIN
1070
    46
1040
0.0
1000
ACAD_MTEXT_DEFINED_HEIGHT_END
1000
MTEXTBEGIN
1070
    73
1070
     1
1070
    44
1040
1.0
1070
    74
1070
     0
1000
MTEXTEND
  0
MTEXT
  5
8DDB
330
18
100
AcDbEntity
  8
mark
 62
     3
100
AcDbMText
 10
516.638240289535
 20
264.6556915015683
 30
0.0
 40
1.25
 41
0.0
 71
     1
 72
     1
  1
+0\P-0.2
 73
     1
 44
1.0
1001
ACAD
1000
ACAD_MTEXT_DEFINED_HEIGHT_BEGIN
1070
    46
1040
0.0
1000
ACAD_MTEXT_DEFINED_HEIGHT_END
1000
MTEXTBEGIN
1070
    73
1070
     1
1070
    44
1040
1.0
1070
    74
1070
     0
1000
MTEXTEND
  0
HATCH
  5
8E25
330
18
100
AcDbEntity
  8
section
100
AcDbHatch
 10
0.0
 20
0.0
 30
0.0
210
0.0
220
0.0
230
1.0
  2
ANSI31
 70
     0
 71
     1
 91
       10
 92
        7
 72
     0
 73
     1
 93
        9
 10
479.5564667121347
 20
235.5752022214169
 10
479.0564667121347
 20
236.0752022214169
 10
479.0564667121347
 20
238.075202221417
 10
473.0564667121347
 20
238.075202221417
 10
473.0564667121346
 20
237.575202221417
 10
472.7008295430398
 20
237.575202221417
 10
472.7008295430398
 20
222.075202221417
 10
478.6389667121346
 20
222.075202221417
 10
479.5564667121347
 20
222.992702221417
 97
        9
330
84EA
330
84E5
330
84CD
330
84D2
330
84DF
330
84E4
330
84CF
330
84E9
330
84E2
 92
        7
 72
     0
 73
     1
 93
        4
 10
480.6389667121345
 20
234.492702221417
 10
479.5564667121347
 20
235.5752022214169
 10
479.5564667121347
 20
222.992702221417
 10
480.6389667121345
 20
224.0752022214171
 97
        4
330
84EA
330
84E2
330
84E9
330
84E1
 92
        7
 72
     0
 73
     1
 93
        4
 10
544.5564667121345
 20
234.0752022214171
 10
544.5564667121346
 20
235.5752022214169
 10
543.4739667121347
 20
234.492702221417
 10
543.4739667121346
 20
234.0752022214171
 97
        4
330
84EE
330
84EB
330
8CB9
330
84ED
 92
        7
 72
     1
 73
     1
 93
        9
 10
554.5564667121347
 20
234.0752022214172
 42
0.0
 10
554.5564667121347
 20
235.575202221417
 42
0.4142135623730951
 10
552.5564667121346
 20
237.575202221417
 42
0.0
 10
551.0564667121346
 20
237.575202221417
 42
0.0
 10
551.0564667121346
 20
238.075202221417
 42
0.0
 10
545.0564667121347
 20
238.075202221417
 42
0.0
 10
545.0564667121347
 20
236.0752022214171
 42
0.0
 10
544.5564667121344
 20
235.5752022214168
 42
0.0
 10
544.5564667121346
 20
234.0752022214172
 42
0.0
 97
        9
330
84D6
330
84D1
330
84D7
330
84CD
330
84E7
330
84EE
330
84ED
330
8CB9
330
84D0
 92
        7
 72
     0
 73
     1
 93
        4
 10
544.5564667121344
 20
226.0752022214171
 10
543.4739667121347
 20
226.0752022214171
 10
543.4739667121347
 20
224.0752022214169
 10
544.5564667121346
 20
222.9927022214171
 97
        4
330
8CBA
330
84EB
330
84EC
330
8CCC
 92
        7
 72
     1
 73
     1
 93
        6
 10
544.5564667121346
 20
226.0752022214171
 42
0.0
 10
544.5564667121346
 20
222.9927022214171
 42
0.0
 10
545.4739667121348
 20
222.075202221417
 42
0.0
 10
552.5564667121346
 20
222.075202221417
 42
0.4142135623730951
 10
554.5564667121347
 20
224.075202221417
 42
0.0
 10
554.5564667121348
 20
226.0752022214171
 42
0.0
 97
        6
330
8CBA
330
8CCC
330
84EC
330
84CF
330
84D5
330
84D0
 92
        7
 72
     0
 73
     1
 93
        6
 10
549.3799667121346
 20
226.7517022214171
 10
548.5564667121345
 20
226.7517022214171
 10
548.5564667121346
 20
226.5752022214171
 10
543.4739667121347
 20
226.5752022214172
 10
543.4739667121347
 20
226.0752022214171
 10
550.0564667121345
 20
226.0752022214171
 97
        5
330
8CBC
330
8CCB
330
84EB
330
8CBA
330
8CBE
 92
        7
 72
     0
 73
     1
 93
        6
 10
548.5564667121346
 20
233.5752022214171
 10
548.5564667121345
 20
233.3987022214171
 10
549.3799667121346
 20
233.3987022214171
 10
550.0564667121347
 20
234.0752022214171
 10
543.4739667121347
 20
234.0752022214172
 10
543.4739667121347
 20
233.5752022214171
 97
        5
330
8CB9
330
84EB
330
8CCB
330
8CBB
330
8CBE
 92
        7
 72
     0
 73
     1
 93
        3
 10
554.5564667121346
 20
233.398702221417
 10
554.5564667121346
 20
234.0752022214171
 10
553.3847343408142
 20
234.0752022214171
 97
        3
330
8CB9
330
8CC8
330
84D0
 92
        7
 72
     0
 73
     1
 93
        3
 10
553.3847343408142
 20
226.0752022214171
 10
554.5564667121347
 20
226.0752022214171
 10
554.5564667121347
 20
226.7517022214172
 97
        3
330
8CCA
330
8CBA
330
84D0
 75
     0
 76
     1
 52
0.0
 41
0.5
 77
     0
 78
     1
 53
45.0
 43
0.0
 44
0.0
 45
-1.122532015133643
 46
1.122532015133644
 79
     0
 47
0.0435466521338318
 98
       10
 10
477.534945717478
 20
231.396696650327
 10
480.2182585335692
 20
230.2264712310645
 10
544.2280376371948
 20
234.3364453239708
 10
546.3049271825538
 20
234.5843570372878
 10
544.4017975437184
 20
225.1207159809962
 10
545.9570836267137
 20
224.7475597748978
 10
549.4695732315854
 20
226.4035128978115
 10
548.6419364302337
 20
233.6322571673733
 10
554.3047120079075
 20
233.8064441748957
 10
554.2611521339767
 20
226.3599659771287
1001
ACAD
1010
0.0
1020
0.0
1030
0.0
  0
MTEXT
  5
8F8F
330
18
100
AcDbEntity
  8
0
100
AcDbMText
 10
464.7074390340394
 20
152.4948850491399
 30
0.0
 40
4.5
 41
0.0
 71
     1
 72
     5
  1
{\Ftxt,bigfont|c128;小\~柳}
  7
JL
 73
     1
 44
1.0
1001
ACAD
1000
ACAD_MTEXT_DEFINED_HEIGHT_BEGIN
1070
    46
1040
0.0
1000
ACAD_MTEXT_DEFINED_HEIGHT_END
1000
MTEXTBEGIN
1070
    73
1070
     1
1070
    44
1040
1.0
1070
    74
1070
     0
1000
MTEXTEND
  0
LINE
  5
8FCE
330
18
100
AcDbEntity
  8
frame
100
AcDbLine
 10
541.6722567907739
 20
176.5537395222187
 30
0.0
 11
601.672256790774
 21
176.5537395222186
 31
0.0
  0
LINE
  5
8FCF
330
18
100
AcDbEntity
  8
frame
100
AcDbLine
 10
541.6722567907739
 20
183.7537395222188
 30
0.0
 11
601.672256790774
 21
183.7537395222188
 31
0.0
  0
LINE
  5
8FD0
330
18
100
AcDbEntity
  8
frame
100
AcDbLine
 10
541.6722567907739
 20
190.9537395222187
 30
0.0
 11
601.672256790774
 21
190.9537395222186
 31
0.0
  0
LINE
  5
8FD1
330
18
100
AcDbEntity
  8
frame
100
AcDbLine
 10
541.6722567907739
 20
198.1537395222187
 30
0.0
 11
601.672256790774
 21
198.1537395222186
 31
0.0
  0
LINE
  5
8FD2
330
18
100
AcDbEntity
  8
frame
100
AcDbLine
 10
541.6722567907739
 20
169.3537395222187
 30
0.0
 11
601.672256790774
 21
169.3537395222187
 31
0.0
  0
MTEXT
  5
8FD3
330
18
100
AcDbEntity
  8
0
 62
     7
 48
2.0
100
AcDbMText
 10
571.5576567566452
 20
198.9469079328029
 30
0.0
 40
4.8
 41
0.0
 71
     5
 72
     1
  1
\P\Ftxt.shx,bigfont.shx|c128;諸　　　　元
 73
     1
 44
1.0
1001
ACAD
1000
MTEXTBEGIN
1070
    73
1070
     1
1070
    44
1040
1.0
1070
    74
1070
     0
1000
MTEXTEND
  0
LINE
  5
8FD4
330
18
100
AcDbEntity
  8
frame
100
AcDbLine
 10
541.6722567907739
 20
198.1537395222186
 30
0.0
 11
541.6722567907739
 21
169.3537395222187
 31
0.0
  0
MTEXT
  5
8FD5
330
18
100
AcDbEntity
  8
0
100
AcDbMText
 10
545.1946926044541
 20
189.4272303550979
 30
0.0
 40
4.4
 41
163.916286842249
 71
     1
 72
     5
  1
\Ftxt.shx,bigfont.shx|c128;熱　処　理
  7
JL
 73
     1
 44
1.0
1001
ACAD
1000
MTEXTBEGIN
1070
    73
1070
     1
1070
    44
1040
1.0
1070
    74
1070
     0
1000
MTEXTEND
  0
LINE
  5
8FD6
330
18
100
AcDbEntity
  8
frame
100
AcDbLine
 10
565.6722567907739
 20
190.9537395222186
 30
0.0
 11
565.6722567907739
 21
169.3537395222187
 31
0.0
  0
MTEXT
  5
8FD7
330
18
100
AcDbEntity
  8
0
100
AcDbMText
 10
544.914418237075
 20
182.4250019078378
 30
0.0
 40
4.4
 41
163.6058628849672
 71
     1
 72
     5
  1
\Ftxt.shx,bigfont.shx|c128;表 面 処 理
  7
JL
 73
     1
 44
1.0
1001
ACAD
1000
MTEXTBEGIN
1070
    73
1070
     1
1070
    44
1040
1.0
1070
    74
1070
     0
1000
MTEXTEND
  0
MTEXT
  5
8FD8
330
18
100
AcDbEntity
  8
0
100
AcDbMText
 10
545.20448408551
 20
175.1365290542298
 30
0.0
 40
4.4
 41
166.1718
 71
     1
 72
     5
  1
\Ftxt.shx,bigfont.shx|c128;等     　級
  7
JL
 73
     1
 44
1.0
1001
ACAD
1000
MTEXTBEGIN
1070
    73
1070
     1
1070
    44
1040
1.0
1070
    74
1070
     0
1000
MTEXTEND
  0
LINE
  5
8FD9
330
18
100
AcDbEntity
  8
frame
100
AcDbLine
 10
601.672256790774
 20
198.1537395222186
 30
0.0
 11
601.672256790774
 21
169.3537395222188
 31
0.0
  0
MTEXT
  5
8FDA
330
18
100
AcDbEntity
  8
0
100
AcDbMText
 10
570.4192601002165
 20
189.2522724476882
 30
0.0
 40
4.4
 41
291.8960056857887
 71
     1
 72
     5
  1
\Ftxt.shx,bigfont.shx|c128;調質　HRC30%%d%%p２%%d
  7
JL
 73
     1
 44
1.0
1001
ACAD
1000
MTEXTBEGIN
1070
    73
1070
     1
1070
    44
1040
1.0
1070
    74
1070
     0
1000
MTEXTEND
  0
MTEXT
  5
8FDB
330
18
100
AcDbEntity
  8
0
100
AcDbMText
 10
570.6798991016529
 20
175.137139625681
 30
0.0
 40
4.4
 41
290.783364796891
 71
     1
 72
     5
  1
\Ftxt.shx,bigfont.shx|c128;ＩＳＯ - ４Ｈ
  7
JL
 73
     1
 44
1.0
1001
ACAD
1000
MTEXTBEGIN
1070
    73
1070
     1
1070
    44
1040
1.0
1070
    74
1070
     0
1000
MTEXTEND
  0
MTEXT
  5
8FDC
330
18
100
AcDbEntity
  8
0
100
AcDbMText
 10
570.8543602997832
 20
182.0721089708829
 30
0.0
 40
4.4
 41
291.4548
 71
     1
 72
     5
  1
\Ftxt.shx,bigfont.shx|c128;黒  　    染
  7
JL
 73
     1
 44
1.0
1001
ACAD
1000
MTEXTBEGIN
1070
    73
1070
     1
1070
    44
1040
1.0
1070
    74
1070
     0
1000
MTEXTEND
  0
LWPOLYLINE
  5
8FF7
330
18
100
AcDbEntity
  8
mark
100
AcDbPolyline
 90
        3
 70
     1
 43
0.0
 10
425.9349535662073
 20
168.7358399321872
 10
423.0482022202592
 20
173.7358399321872
 10
420.161450874311
 20
168.7358399321872
  0
MTEXT
  5
8FF8
330
18
100
AcDbEntity
  8
dim
100
AcDbMText
 10
422.5965043319787
 20
172.1134062128182
 30
0.0
 40
2.5
 41
9.163114146879252
 71
     1
 72
     5
  1
1
 73
     1
 44
1.0
1001
ACAD
1000
ACAD_MTEXT_DEFINED_HEIGHT_BEGIN
1070
    46
1040
0.0
1000
ACAD_MTEXT_DEFINED_HEIGHT_END
1000
MTEXTBEGIN
1070
    73
1070
     1
1070
    44
1040
1.0
1070
    74
1070
     0
1000
MTEXTEND
  0
MTEXT
  5
8FF9
330
18
100
AcDbEntity
  8
dim
100
AcDbMText
 10
427.6981520776789
 20
173.1963979146375
 30
0.0
 40
4.5
 41
0.0
 71
     1
 72
     5
  1
{\Ftxt,bigfont|c128;08.08.08 振れ精度の変更  林}
  7
JL
 73
     1
 44
1.0
1001
ACAD
1000
ACAD_MTEXT_DEFINED_HEIGHT_BEGIN
1070
    46
1040
0.0
1000
ACAD_MTEXT_DEFINED_HEIGHT_END
1000
MTEXTBEGIN
1070
    73
1070
     1
1070
    44
1040
1.0
1070
    74
1070
     0
1000
MTEXTEND
  0
CIRCLE
  5
8FFA
330
18
100
AcDbEntity
  8
dim
100
AcDbCircle
 10
465.4724553717047
 20
170.8865792946707
 30
0.0
 40
2.762409708108862
  0
LINE
  5
8FFB
330
18
100
AcDbEntity
  8
mark
 62
     1
100
AcDbLine
 10
584.5889862466456
 20
248.4160183729045
 30
0.0
 11
594.8271194207582
 21
248.4160183729045
 31
0.0
  0
LINE
  5
8FFC
330
18
100
AcDbEntity
  8
mark
 62
     1
100
AcDbLine
 10
584.5889862466456
 20
247.6862659968484
 30
0.0
 11
594.8271194207582
 21
247.6862659968484
 31
0.0
  0
LWPOLYLINE
  5
8FFD
330
18
100
AcDbEntity
  8
mark
100
AcDbPolyline
 90
        3
 70
     1
 43
0.0
 10
584.0154602675245
 20
251.6101398810068
 10
581.1287089215763
 20
256.6101398810068
 10
578.2419575756282
 20
251.6101398810068
  0
MTEXT
  5
8FFE
330
18
100
AcDbEntity
  8
dim
100
AcDbMText
 10
580.6770110332958
 20
254.9877061616379
 30
0.0
 40
2.5
 41
9.163114146879252
 71
     1
 72
     5
  1
1
 73
     1
 44
1.0
1001
ACAD
1000
ACAD_MTEXT_DEFINED_HEIGHT_BEGIN
1070
    46
1040
0.0
1000
ACAD_MTEXT_DEFINED_HEIGHT_END
1000
MTEXTBEGIN
1070
    73
1070
     1
1070
    44
1040
1.0
1070
    74
1070
     0
1000
MTEXTEND
  0
MTEXT
  5
8FFF
330
18
100
AcDbEntity
  8
dim
100
AcDbMText
 10
585.3741383830045
 20
254.9877061616379
 30
0.0
 40
2.5
 41
9.163114146879252
 71
     1
 72
     5
  1
0.007
 73
     1
 44
1.0
1001
ACAD
1000
ACAD_MTEXT_DEFINED_HEIGHT_BEGIN
1070
    46
1040
0.0
1000
ACAD_MTEXT_DEFINED_HEIGHT_END
1000
MTEXTBEGIN
1070
    73
1070
     1
1070
    44
1040
1.0
1070
    74
1070
     0
1000
MTEXTEND
  0
LWPOLYLINE
  5
9000
330
18
100
AcDbEntity
  8
mark
100
AcDbPolyline
 90
        3
 70
     1
 43
0.0
 10
598.4484722733336
 20
136.0712592839979
 10
595.5617209273855
 20
141.0712592839979
 10
592.6749695814374
 20
136.0712592839979
  0
MTEXT
  5
9001
330
18
100
AcDbEntity
  8
dim
100
AcDbMText
 10
595.110023039105
 20
139.448825564629
 30
0.0
 40
2.5
 41
9.163114146879252
 71
     1
 72
     5
  1
1
 73
     1
 44
1.0
1001
ACAD
1000
ACAD_MTEXT_DEFINED_HEIGHT_BEGIN
1070
    46
1040
0.0
1000
ACAD_MTEXT_DEFINED_HEIGHT_END
1000
MTEXTBEGIN
1070
    73
1070
     1
1070
    44
1040
1.0
1070
    74
1070
     0
1000
MTEXTEND
  0
ENDSEC
  0
SECTION
  2
OBJECTS
  0
DICTIONARY
  5
C
330
0
100
AcDbDictionary
281
     1
  3
ACAD_COLOR
350
7FED
  3
ACAD_GROUP
350
D
  3
ACAD_LAYOUT
350
5CF3
  3
ACAD_MATERIAL
350
7FEC
  3
ACAD_MLINESTYLE
350
1B
  3
ACAD_PLOTSETTINGS
350
5CF4
  3
ACAD_PLOTSTYLENAME
350
5CF1
  3
ACAD_TABLESTYLE
350
7FEE
  3
ACDBHEADERROUNDTRIPXREC
350
9010
  3
ACDBVARIABLEDICTIONARY
350
45D
  0
DICTIONARY
  5
7FFF
330
2
100
AcDbDictionary
280
     1
281
     1
  3
ACAD_LAYERFILTERS
360
8003
  3
ACLYDICTIONARY
360
8002
  0
DICTIONARY
  5
45F
330
18
100
AcDbDictionary
280
     1
281
     1
  3
ACAD_LAYOUTSELFREF
360
5D8B
  3
ACAD_SORTENTS
360
460
  0
DICTIONARY
  5
5D89
330
15
100
AcDbDictionary
280
     1
281
     1
  3
ACAD_LAYOUTSELFREF
360
5D8A
  0
DICTIONARY
  5
801B
330
801A
100
AcDbDictionary
280
     1
281
     1
  3
AcDbBlockTableRecordData
360
801C
  0
DICTIONARY
  5
8FB4
330
8FA4
100
AcDbDictionary
280
     1
281
     1
  3
ACAD_SORTENTS
360
8FB5
  0
DICTIONARY
  5
7FED
102
{ACAD_REACTORS
330
C
102
}
330
C
100
AcDbDictionary
281
     1
  0
DICTIONARY
  5
D
102
{ACAD_REACTORS
330
C
102
}
330
C
100
AcDbDictionary
281
     1
  0
DICTIONARY
  5
5CF3
102
{ACAD_REACTORS
330
C
102
}
330
C
100
AcDbDictionary
281
     1
  3
Model
350
5CF5
  3
配置1
350
5CF6
  0
DICTIONARY
  5
7FEC
102
{ACAD_REACTORS
330
C
102
}
330
C
100
AcDbDictionary
281
     1
  0
DICTIONARY
  5
1B
102
{ACAD_REACTORS
330
C
102
}
330
C
100
AcDbDictionary
281
     1
  3
STANDARD
350
1C
  0
DICTIONARY
  5
5CF4
102
{ACAD_REACTORS
330
C
102
}
330
C
100
AcDbDictionary
281
     1
  0
ACDBDICTIONARYWDFLT
  5
5CF1
102
{ACAD_REACTORS
330
C
102
}
330
C
100
AcDbDictionary
281
     1
  3
Normal
350
5CF2
100
AcDbDictionaryWithDefault
340
5CF2
  0
DICTIONARY
  5
7FEE
102
{ACAD_REACTORS
330
C
102
}
330
C
100
AcDbDictionary
281
     1
  3
Standard
350
7FEF
  0
DICTIONARY
  5
9010
102
{ACAD_REACTORS
330
C
102
}
330
C
100
AcDbDictionary
281
     1
  0
DICTIONARY
  5
45D
102
{ACAD_REACTORS
330
C
102
}
330
C
100
AcDbDictionary
281
     1
  3
CTABLESTYLE
350
8013
  3
DIMASSOC
350
900D
  3
PROJECTNAME
350
900E
  3
SORTENTS
350
45E
  0
DICTIONARY
  5
8003
102
{ACAD_REACTORS
330
7FFF
102
}
330
7FFF
100
AcDbDictionary
281
     1
  0
DICTIONARY
  5
8002
102
{ACAD_REACTORS
330
7FFF
102
}
330
7FFF
100
AcDbDictionary
281
     1
1001
ACAD
1000
<All
  0
XRECORD
  5
5D8B
102
{ACAD_REACTORS
330
45F
102
}
330
45F
100
AcDbXrecord
280
     1
340
18
  0
SORTENTSTABLE
  5
460
102
{ACAD_REACTORS
330
45F
102
}
330
45F
100
AcDbSortentsTable
330
18
331
84D2
  5
84E2
331
81D3
  5
81D9
331
818C
  5
8192
331
81DB
  5
8399
331
8194
  5
819A
331
C0
  5
CB
331
800D
  5
8179
331
84E2
  5
84E7
331
8C98
  5
8CB9
331
819C
  5
81A2
331
84EA
  5
84ED
331
81A4
  5
81AA
331
839B
  5
83A1
331
81AC
  5
81B2
331
83A3
  5
84CD
331
81C4
  5
81CA
331
8CC0
  5
8CC4
331
81CC
  5
81D2
331
8CC8
  5
8CCC
331
7FFE
  5
8009
331
8D07
  5
8D0A
331
84D3
  5
84D7
331
81D4
  5
81DA
331
818D
  5
8193
331
81DC
  5
839A
331
8195
  5
819B
331
800E
  5
817A
331
8E25
  5
84CF
331
819D
  5
81A3
331
84EB
  5
84EE
331
81A5
  5
81AB
331
839C
  5
83A2
331
81AD
  5
81B3
331
8CB9
  5
8CBD
331
81C5
  5
81CB
331
8CC1
  5
8CC5
331
8CF8
  5
8D07
331
81CD
  5
81D3
331
8C33
  5
8C87
331
8CC9
  5
8CCD
331
81D5
  5
81DB
331
84D4
  5
84D5
331
818E
  5
8194
331
8007
  5
800F
331
8D08
  5
8D0B
331
8196
  5
819C
331
800F
  5
817B
331
8395
  5
839B
331
84E4
  5
84E9
331
819E
  5
81A4
331
84EC
  5
84EF
331
81A6
  5
81AC
331
839D
  5
83A5
331
84F4
  5
8C40
331
81AE
  5
81B4
331
8CE9
  5
8CF8
331
81BE
  5
81C4
331
8CBA
  5
8CBE
331
81C6
  5
81CC
331
8CC2
  5
8CC6
331
8CCA
  5
8CCF
331
81CE
  5
81D4
331
84CD
  5
84D0
331
81D6
  5
81DC
331
84D5
  5
84E1
331
818F
  5
8195
331
8008
  5
800E
331
8D09
  5
8D0C
331
8197
  5
819D
331
8010
  5
818E
331
8396
  5
839C
331
84E5
  5
84EA
331
819F
  5
81A5
331
84ED
  5
84F0
331
81A7
  5
81AD
331
839E
  5
83A6
331
8CEA
  5
8D05
331
8CBB
  5
8CBF
331
81BF
  5
81C5
331
83A6
  5
84CE
331
81C7
  5
81CD
331
8CC3
  5
8CC7
331
7FF9
  5
7FF9
331
8CCB
  5
8CDC
331
81CF
  5
81D5
331
84CE
  5
84D4
331
81D7
  5
81DD
331
84D6
  5
84D3
331
8190
  5
8196
331
8009
  5
800D
331
8D0A
  5
8DDB
331
8198
  5
819E
331
8011
  5
818F
331
84E6
  5
84EB
331
81A0
  5
81A6
331
8397
  5
839D
331
8CA4
  5
8CBA
331
84EE
  5
84F4
331
81A8
  5
81AE
331
8CEB
  5
8D06
331
839F
  5
83A7
331
8CBC
  5
8CC0
331
81C0
  5
81C6
331
83A7
  5
7FFD
331
81C8
  5
81CE
331
8C26
  5
8C77
331
8CC4
  5
8CC8
331
7FFA
  5
8004
331
8CCC
  5
84F1
331
84CF
  5
84D6
331
81D0
  5
81D6
331
8D0B
  5
8DDE
331
84D7
  5
84E4
331
81D8
  5
81DE
331
8191
  5
8197
331
8CDC
  5
8CEB
331
84DF
  5
84D2
331
8199
  5
819F
331
84E7
  5
84EC
331
81A1
  5
81A7
331
8CA5
  5
8CBB
331
84EF
  5
84F5
331
8398
  5
839E
331
81A9
  5
81AF
331
83A0
  5
83A8
331
8CBD
  5
8CC1
331
83A8
  5
7FFE
331
81C1
  5
81C7
331
81C9
  5
81CF
331
8CC5
  5
8CC9
331
7FFB
  5
8006
331
8CCD
  5
8CE9
331
84D0
  5
84DF
331
81D1
  5
81D7
331
818A
  5
8190
331
8D0C
  5
8F1D
331
81D9
  5
81DF
331
800B
  5
8011
331
8192
  5
8198
331
8C96
  5
8CA5
331
819A
  5
81A0
331
81A2
  5
81A8
331
8CA6
  5
8CBC
331
84F0
  5
8C26
331
8399
  5
839F
331
81AA
  5
81B0
331
8C77
  5
8C98
331
81C2
  5
81C8
331
8CBE
  5
8CC2
331
81CA
  5
81D0
331
8CC6
  5
8CCA
331
8D05
  5
8D08
331
8DDB
  5
8F1E
331
8C87
  5
8CA4
331
81D2
  5
81D8
331
8004
  5
800B
331
818B
  5
8191
331
8C40
  5
8C96
331
81DA
  5
81E0
331
8193
  5
8199
331
800C
  5
8178
331
8C97
  5
8CA6
331
84E1
  5
84E5
331
819B
  5
81A1
331
84E9
  5
84E6
331
81A3
  5
81A9
331
8C68
  5
8C97
331
84F1
  5
8C33
331
839A
  5
83A0
331
81AB
  5
81B1
331
8CBF
  5
8CC3
331
81C3
  5
81C9
331
81CB
  5
81D1
331
8CC7
  5
8CCB
331
7FFD
  5
8007
331
8D06
  5
8D09
331
8CCF
  5
8CEA
  0
XRECORD
  5
5D8A
102
{ACAD_REACTORS
330
5D89
102
}
330
5D89
100
AcDbXrecord
280
     1
340
15
  0
DICTIONARY
  5
801C
102
{ACAD_REACTORS
330
801B
102
}
330
801B
100
AcDbDictionary
280
     1
281
     1
  3
Edit
360
801D
  0
SORTENTSTABLE
  5
8FB5
102
{ACAD_REACTORS
330
8FB4
102
}
330
8FB4
100
AcDbSortentsTable
330
8FA4
  0
LAYOUT
  5
5CF5
102
{ACAD_XDICTIONARY
360
9011
102
}
102
{ACAD_REACTORS
330
5CF3
102
}
330
5CF3
100
AcDbPlotSettings
  1

  2
hp LaserJet 1300 PCL 6
  4
A4
  6

 40
5.027083396911621
 41
5.069413185119628
 42
5.027084350585937
 43
5.027069091796875
 44
209.9733276367187
 45
296.9683227539062
 46
4.918847786330957
 47
3.419579842190444
 48
0.0
 49
0.0
140
0.0
141
0.0
142
1.0
143
1.0
 70
 11956
 72
     1
 73
     0
 74
     1
  7
LIN.ctb
 75
    16
147
1.0
148
-417.0120575741952
149
-133.4113806332544
100
AcDbLayout
  1
Model
 70
     1
 71
     0
 10
0.0
 20
0.0
 11
12.0
 21
9.0
 12
0.0
 22
0.0
 32
0.0
 14
0.0
 24
0.0
 34
0.0
 15
0.0
 25
0.0
 35
0.0
146
0.0
 13
0.0
 23
0.0
 33
0.0
 16
1.0
 26
0.0
 36
0.0
 17
0.0
 27
1.0
 37
0.0
 76
     0
330
18
1001
ACAD_PSEXT
1000
hp LaserJet 1300 PCL 6
1000
hp LaserJet 1300 PCL 6
1000
HP 1300
1000

1070
     0
  0
LAYOUT
  5
5CF6
102
{ACAD_XDICTIONARY
360
9013
102
}
102
{ACAD_REACTORS
330
5CF3
102
}
330
5CF3
100
AcDbPlotSettings
  1

  2
EPSON STYLUS COLOR 440
  4

  6

 40
0.0
 41
0.0
 42
0.0
 43
0.0
 44
0.0
 45
0.0
 46
0.0
 47
0.0
 48
0.0
 49
0.0
140
0.0
141
0.0
142
1.0
143
1.0
 70
   688
 72
     0
 73
     0
 74
     5
  7
LIN.ctb
 75
    16
147
1.0
148
0.0
149
0.0
100
AcDbLayout
  1
ｰtｸm1
 70
     1
 71
     1
 10
0.0
 20
0.0
 11
420.0
 21
297.0
 12
0.0
 22
0.0
 32
0.0
 14
1.000000000000000E+20
 24
1.000000000000000E+20
 34
1.000000000000000E+20
 15
-1.000000000000000E+20
 25
-1.000000000000000E+20
 35
-1.000000000000000E+20
146
0.0
 13
0.0
 23
0.0
 33
0.0
 16
1.0
 26
0.0
 36
0.0
 17
0.0
 27
1.0
 37
0.0
 76
     0
330
15
  0
MLINESTYLE
  5
1C
102
{ACAD_REACTORS
330
1B
102
}
330
1B
100
AcDbMlineStyle
  2
STANDARD
 70
     0
  3

 62
   256
 51
90.0
 52
90.0
 71
     2
 49
0.5
 62
   256
  6
BYLAYER
 49
-0.5
 62
   256
  6
BYLAYER
  0
ACDBPLACEHOLDER
  5
5CF2
102
{ACAD_REACTORS
330
5CF1
102
}
330
5CF1
  0
TABLESTYLE
  5
7FEF
102
{ACAD_REACTORS
330
7FEE
102
}
330
7FEE
100
AcDbTableStyle
  3
Standard
 70
     0
 71
     0
 40
1.5
 41
1.5
280
     0
281
     0
  7
STANDARD
140
4.5
170
     2
 62
     0
 63
     7
283
     0
274
    -2
284
     1
 64
     0
275
    -2
285
     1
 65
     0
276
    -2
286
     1
 66
     0
277
    -2
287
     1
 67
     0
278
    -2
288
     1
 68
     0
279
    -2
289
     1
 69
     0
  7
STANDARD
140
6.0
170
     5
 62
     0
 63
     7
283
     0
274
    -2
284
     1
 64
     0
275
    -2
285
     1
 65
     0
276
    -2
286
     1
 66
     0
277
    -2
287
     1
 67
     0
278
    -2
288
     1
 68
     0
279
    -2
289
     1
 69
     0
  7
STANDARD
140
4.5
170
     5
 62
     0
 63
     7
283
     0
274
    -2
284
     1
 64
     0
275
    -2
285
     1
 65
     0
276
    -2
286
     1
 66
     0
277
    -2
287
     1
 67
     0
278
    -2
288
     1
 68
     0
279
    -2
289
     1
 69
     0
  0
DICTIONARYVAR
  5
8013
102
{ACAD_REACTORS
330
45D
102
}
330
45D
100
DictionaryVariables
280
     0
  1
STANDARD
  0
DICTIONARYVAR
  5
900D
102
{ACAD_REACTORS
330
45D
102
}
330
45D
100
DictionaryVariables
280
     0
  1
1
  0
DICTIONARYVAR
  5
900E
102
{ACAD_REACTORS
330
45D
102
}
330
45D
100
DictionaryVariables
280
     0
  1

  0
DICTIONARYVAR
  5
45E
102
{ACAD_REACTORS
330
45D
102
}
330
45D
100
DictionaryVariables
280
     0
  1
127
  0
XRECORD
  5
801D
102
{ACAD_REACTORS
330
801C
102
}
330
801C
100
AcDbXrecord
280
     1
1070
     0
1070
     1
1070
     1
  0
DICTIONARY
  5
9011
330
5CF5
100
AcDbDictionary
280
     1
281
     1
  3
ACAD_XREC_ROUNDTRIP
360
9012
  0
DICTIONARY
  5
9013
330
5CF6
100
AcDbDictionary
280
     1
281
     1
  3
ACAD_XREC_ROUNDTRIP
360
9014
  0
XRECORD
  5
9012
102
{ACAD_REACTORS
330
9011
102
}
330
9011
100
AcDbXrecord
280
     1
102
SHADEPLOT
 70
     0
102
SHADEPLOTRESLEVEL
 70
     2
102
SHADEPLOTCUSTOMDPI
 70
   300
  0
XRECORD
  5
9014
102
{ACAD_REACTORS
330
9013
102
}
330
9013
100
AcDbXrecord
280
     1
102
SHADEPLOT
 70
     0
102
SHADEPLOTRESLEVEL
 70
     2
102
SHADEPLOTCUSTOMDPI
 70
   300
  0
ENDSEC
  0
EOF
