  0
SECTION
  2
HEADER
  9
$ACADVER
  1
AC1018
  9
$ACADMAINTVER
 70
    76
  9
$DWGCODEPAGE
  3
ANSI_932
  9
$INSBASE
 10
0.0
 20
0.0
 30
0.0
  9
$EXTMIN
 10
0.0
 20
-0.0000000000001137
 30
0.0
  9
$EXTMAX
 10
396.0
 20
580.0
 30
8.0
  9
$LIMMIN
 10
0.0
 20
0.0
  9
$LIMMAX
 10
420.0
 20
297.0
  9
$ORTHOMODE
 70
     0
  9
$REGENMODE
 70
     1
  9
$FILLMODE
 70
     1
  9
$QTEXTMODE
 70
     0
  9
$MIRRTEXT
 70
     1
  9
$LTSCALE
 40
1.0
  9
$ATTMODE
 70
     1
  9
$TEXTSIZE
 40
2.5
  9
$TRACEWID
 40
1.0
  9
$TEXTSTYLE
  7
TXT
  9
$CLAYER
  8
0
  9
$CELTYPE
  6
BYLAYER
  9
$CECOLOR
 62
   256
  9
$CELTSCALE
 40
1.0
  9
$DISPSILH
 70
     0
  9
$DIMSCALE
 40
1.0
  9
$DIMASZ
 40
5.0
  9
$DIMEXO
 40
1.0
  9
$DIMDLI
 40
6.0
  9
$DIMRND
 40
0.0
  9
$DIMDLE
 40
0.0
  9
$DIMEXE
 40
1.0
  9
$DIMTP
 40
0.0
  9
$DIMTM
 40
0.0
  9
$DIMTXT
 40
6.0
  9
$DIMCEN
 40
0.0
  9
$DIMTSZ
 40
0.0
  9
$DIMTOL
 70
     0
  9
$DIMLIM
 70
     0
  9
$DIMTIH
 70
     0
  9
$DIMTOH
 70
     0
  9
$DIMSE1
 70
     0
  9
$DIMSE2
 70
     0
  9
$DIMTAD
 70
     3
  9
$DIMZIN
 70
     8
  9
$DIMBLK
  1

  9
$DIMASO
 70
     1
  9
$DIMSHO
 70
     1
  9
$DIMPOST
  1

  9
$DIMAPOST
  1

  9
$DIMALT
 70
     0
  9
$DIMALTD
 70
     2
  9
$DIMALTF
 40
25.4
  9
$DIMLFAC
 40
1.0
  9
$DIMTOFL
 70
     0
  9
$DIMTVP
 40
0.0
  9
$DIMTIX
 70
     0
  9
$DIMSOXD
 70
     0
  9
$DIMSAH
 70
     0
  9
$DIMBLK1
  1

  9
$DIMBLK2
  1

  9
$DIMSTYLE
  2
A
  9
$DIMCLRD
 70
     6
  9
$DIMCLRE
 70
     6
  9
$DIMCLRT
 70
     3
  9
$DIMTFAC
 40
1.0
  9
$DIMGAP
 40
1.0
  9
$DIMJUST
 70
     0
  9
$DIMSD1
 70
     0
  9
$DIMSD2
 70
     0
  9
$DIMTOLJ
 70
     1
  9
$DIMTZIN
 70
     0
  9
$DIMALTZ
 70
     0
  9
$DIMALTTZ
 70
     0
  9
$DIMUPT
 70
     0
  9
$DIMDEC
 70
     1
  9
$DIMTDEC
 70
     1
  9
$DIMALTU
 70
     2
  9
$DIMALTTD
 70
     2
  9
$DIMTXSTY
  7
TXT
  9
$DIMAUNIT
 70
     0
  9
$DIMADEC
 70
     0
  9
$DIMALTRND
 40
0.0
  9
$DIMAZIN
 70
     0
  9
$DIMDSEP
 70
    46
  9
$DIMATFIT
 70
     3
  9
$DIMFRAC
 70
     0
  9
$DIMLDRBLK
  1

  9
$DIMLUNIT
 70
     2
  9
$DIMLWD
 70
    -2
  9
$DIMLWE
 70
    -2
  9
$DIMTMOVE
 70
     1
  9
$LUNITS
 70
     2
  9
$LUPREC
 70
     2
  9
$SKETCHINC
 40
1.0
  9
$FILLETRAD
 40
2.0
  9
$AUNITS
 70
     0
  9
$AUPREC
 70
     2
  9
$MENU
  1
.
  9
$ELEVATION
 40
0.0
  9
$PELEVATION
 40
0.0
  9
$THICKNESS
 40
0.0
  9
$LIMCHECK
 70
     0
  9
$CHAMFERA
 40
0.0
  9
$CHAMFERB
 40
0.0
  9
$CHAMFERC
 40
1.75
  9
$CHAMFERD
 40
0.0174532925199433
  9
$SKPOLY
 70
     0
  9
$TDCREATE
 40
2451555.620234838
  9
$TDUCREATE
 40
2451555.245234838
  9
$TDUPDATE
 40
2455846.607760510
  9
$TDUUPDATE
 40
2455846.232760510
  9
$TDINDWG
 40
2.9323094676
  9
$TDUSRTIMER
 40
2.9323094676
  9
$USRTIMER
 70
     1
  9
$ANGBASE
 50
0.0
  9
$ANGDIR
 70
     0
  9
$PDMODE
 70
     0
  9
$PDSIZE
 40
0.0
  9
$PLINEWID
 40
0.0
  9
$SPLFRAME
 70
     0
  9
$SPLINETYPE
 70
     6
  9
$SPLINESEGS
 70
     8
  9
$HANDSEED
  5
C0D2
  9
$SURFTAB1
 70
     6
  9
$SURFTAB2
 70
     6
  9
$SURFTYPE
 70
     6
  9
$SURFU
 70
     6
  9
$SURFV
 70
     6
  9
$UCSBASE
  2

  9
$UCSNAME
  2

  9
$UCSORG
 10
0.0
 20
0.0
 30
0.0
  9
$UCSXDIR
 10
1.0
 20
0.0
 30
0.0
  9
$UCSYDIR
 10
0.0
 20
1.0
 30
0.0
  9
$UCSORTHOREF
  2

  9
$UCSORTHOVIEW
 70
     0
  9
$UCSORGTOP
 10
0.0
 20
0.0
 30
0.0
  9
$UCSORGBOTTOM
 10
0.0
 20
0.0
 30
0.0
  9
$UCSORGLEFT
 10
0.0
 20
0.0
 30
0.0
  9
$UCSORGRIGHT
 10
0.0
 20
0.0
 30
0.0
  9
$UCSORGFRONT
 10
0.0
 20
0.0
 30
0.0
  9
$UCSORGBACK
 10
0.0
 20
0.0
 30
0.0
  9
$PUCSBASE
  2

  9
$PUCSNAME
  2

  9
$PUCSORG
 10
0.0
 20
0.0
 30
0.0
  9
$PUCSXDIR
 10
1.0
 20
0.0
 30
0.0
  9
$PUCSYDIR
 10
0.0
 20
1.0
 30
0.0
  9
$PUCSORTHOREF
  2

  9
$PUCSORTHOVIEW
 70
     0
  9
$PUCSORGTOP
 10
0.0
 20
0.0
 30
0.0
  9
$PUCSORGBOTTOM
 10
0.0
 20
0.0
 30
0.0
  9
$PUCSORGLEFT
 10
0.0
 20
0.0
 30
0.0
  9
$PUCSORGRIGHT
 10
0.0
 20
0.0
 30
0.0
  9
$PUCSORGFRONT
 10
0.0
 20
0.0
 30
0.0
  9
$PUCSORGBACK
 10
0.0
 20
0.0
 30
0.0
  9
$USERI1
 70
     0
  9
$USERI2
 70
     0
  9
$USERI3
 70
     0
  9
$USERI4
 70
     0
  9
$USERI5
 70
     0
  9
$USERR1
 40
0.0
  9
$USERR2
 40
0.0
  9
$USERR3
 40
0.0
  9
$USERR4
 40
0.0
  9
$USERR5
 40
0.0
  9
$WORLDVIEW
 70
     1
  9
$SHADEDGE
 70
     3
  9
$SHADEDIF
 70
    70
  9
$TILEMODE
 70
     1
  9
$MAXACTVP
 70
    48
  9
$PINSBASE
 10
0.0
 20
0.0
 30
0.0
  9
$PLIMCHECK
 70
     0
  9
$PEXTMIN
 10
1.000000000000000E+20
 20
1.000000000000000E+20
 30
1.000000000000000E+20
  9
$PEXTMAX
 10
-1.000000000000000E+20
 20
-1.000000000000000E+20
 30
-1.000000000000000E+20
  9
$PLIMMIN
 10
0.0
 20
0.0
  9
$PLIMMAX
 10
420.0
 20
297.0
  9
$UNITMODE
 70
     0
  9
$VISRETAIN
 70
     1
  9
$PLINEGEN
 70
     0
  9
$PSLTSCALE
 70
     1
  9
$TREEDEPTH
 70
  3020
  9
$CMLSTYLE
  2
STANDARD
  9
$CMLJUST
 70
     0
  9
$CMLSCALE
 40
20.0
  9
$PROXYGRAPHICS
 70
     1
  9
$MEASUREMENT
 70
     1
  9
$CELWEIGHT
370
    -1
  9
$ENDCAPS
280
     0
  9
$JOINSTYLE
280
     0
  9
$LWDISPLAY
290
     0
  9
$INSUNITS
 70
     0
  9
$HYPERLINKBASE
  1

  9
$STYLESHEET
  1

  9
$XEDIT
290
     1
  9
$CEPSNTYPE
380
     0
  9
$PSTYLEMODE
290
     1
  9
$FINGERPRINTGUID
  2
{1CF51E8A-A506-11D4-A7D9-AF69F5C20846}
  9
$VERSIONGUID
  2
{833D7BCF-EA95-4E6B-A0A1-E6947081254C}
  9
$EXTNAMES
290
     1
  9
$PSVPSCALE
 40
0.0
  9
$OLESTARTUP
290
     0
  9
$SORTENTS
280
   127
  9
$INDEXCTL
280
     0
  9
$HIDETEXT
280
     0
  9
$XCLIPFRAME
290
     0
  9
$HALOGAP
280
     0
  9
$OBSCOLOR
 70
   257
  9
$OBSLTYPE
280
     0
  9
$INTERSECTIONDISPLAY
280
     0
  9
$INTERSECTIONCOLOR
 70
   257
  9
$DIMASSOC
280
     1
  9
$PROJECTNAME
  1

  0
ENDSEC
  0
SECTION
  2
CLASSES
  0
CLASS
  1
DICTIONARYVAR
  2
AcDbDictionaryVar
  3
ObjectDBX Classes
 90
        0
 91
        2
280
     0
281
     0
  0
CLASS
  1
SORTENTSTABLE
  2
AcDbSortentsTable
  3
ObjectDBX Classes
 90
        0
 91
        1
280
     0
281
     0
  0
CLASS
  1
ACDBDICTIONARYWDFLT
  2
AcDbDictionaryWithDefault
  3
ObjectDBX Classes
 90
        0
 91
        1
280
     0
281
     0
  0
CLASS
  1
TABLESTYLE
  2
AcDbTableStyle
  3
ObjectDBX Classes
 90
     2047
 91
        1
280
     0
281
     0
  0
ENDSEC
  0
SECTION
  2
TABLES
  0
TABLE
  2
VPORT
  5
8
330
0
100
AcDbSymbolTable
 70
     2
  0
VPORT
  5
C0D1
330
8
100
AcDbSymbolTableRecord
100
AcDbViewportTableRecord
  2
*Active
 70
     0
 10
0.0
 20
0.0
 11
1.0
 21
1.0
 12
483.4572758306956
 22
271.4628324962994
 13
0.0
 23
0.0
 14
10.0
 24
10.0
 15
10.0
 25
10.0
 16
0.0
 26
0.0
 36
1.0
 17
0.0
 27
0.0
 37
0.0
 40
651.231047056357
 41
2.47104247104247
 42
50.0
 43
0.0
 44
0.0
 50
0.0
 51
0.0
 71
     0
 72
   100
 73
     1
 74
     1
 75
     0
 76
     0
 77
     0
 78
     0
281
     0
 65
     1
110
0.0
120
0.0
130
0.0
111
1.0
121
0.0
131
0.0
112
0.0
122
1.0
132
0.0
 79
     0
146
0.0
  0
ENDTAB
  0
TABLE
  2
LTYPE
  5
5
330
0
100
AcDbSymbolTable
 70
     8
  0
LTYPE
  5
12
330
5
100
AcDbSymbolTableRecord
100
AcDbLinetypeTableRecord
  2
BYBLOCK
 70
     0
  3

 72
    65
 73
     0
 40
0.0
  0
LTYPE
  5
13
330
5
100
AcDbSymbolTableRecord
100
AcDbLinetypeTableRecord
  2
BYLAYER
 70
     0
  3

 72
    65
 73
     0
 40
0.0
  0
LTYPE
  5
14
330
5
100
AcDbSymbolTableRecord
100
AcDbLinetypeTableRecord
  2
CONTINUOUS
 70
     0
  3
Solid line
 72
    65
 73
     0
 40
0.0
  0
LTYPE
  5
9D
330
5
100
AcDbSymbolTableRecord
100
AcDbLinetypeTableRecord
  2
CENTERX2
 70
     0
  3
Center (2x) ________  __  ________  __  _____
 72
    65
 73
     4
 40
101.6
 49
63.5
 74
     0
 49
-12.7
 74
     0
 49
12.7
 74
     0
 49
-12.7
 74
     0
  0
LTYPE
  5
A1
330
5
100
AcDbSymbolTableRecord
100
AcDbLinetypeTableRecord
  2
DASHED
 70
     0
  3
Dashed __ __ __ __ __ __ __ __ __ __ __ __ __ _
 72
    65
 73
     2
 40
19.05
 49
12.7
 74
     0
 49
-6.349999999999999
 74
     0
  0
LTYPE
  5
A2
330
5
100
AcDbSymbolTableRecord
100
AcDbLinetypeTableRecord
  2
DASHED2
 70
     0
  3
Dashed (.5x) _ _ _ _ _ _ _ _ _ _ _ _ _ _ _ _ _
 72
    65
 73
     2
 40
9.524999999999998
 49
6.349999999999999
 74
     0
 49
-3.174999999999999
 74
     0
  0
LTYPE
  5
A5
330
5
100
AcDbSymbolTableRecord
100
AcDbLinetypeTableRecord
  2
DIVIDE2
 70
     0
  3
Divide (.5x) __..__..__..__..__..__..__..__.._
 72
    65
 73
     6
 40
15.875
 49
6.349999999999999
 74
     0
 49
-3.174999999999999
 74
     0
 49
0.0
 74
     0
 49
-3.174999999999999
 74
     0
 49
0.0
 74
     0
 49
-3.174999999999999
 74
     0
  0
LTYPE
  5
650B
330
5
100
AcDbSymbolTableRecord
100
AcDbLinetypeTableRecord
  2
CENTER
 70
     0
  3
Center ____ _ ____ _ ____ _ ____ _ ____ _ ____
 72
    65
 73
     4
 40
50.8
 49
31.75
 74
     0
 49
-6.349999999999999
 74
     0
 49
6.349999999999999
 74
     0
 49
-6.349999999999999
 74
     0
  0
LTYPE
  5
650C
330
5
100
AcDbSymbolTableRecord
100
AcDbLinetypeTableRecord
  2
HIDDEN
 70
     0
  3
Hidden __ __ __ __ __ __ __ __ __ __ __ __ __ _
 72
    65
 73
     2
 40
9.524999999999998
 49
6.349999999999999
 74
     0
 49
-3.174999999999999
 74
     0
  0
LTYPE
  5
A075
330
5
100
AcDbSymbolTableRecord
100
AcDbLinetypeTableRecord
  2
ACAD_ISO03W100
 70
     0
  3
ISO dash space __    __    __    __    __    __
 72
    65
 73
     2
 40
30.0
 49
12.0
 74
     0
 49
-18.0
 74
     0
  0
ENDTAB
  0
TABLE
  2
LAYER
  5
2
330
0
100
AcDbSymbolTable
 70
     9
  0
LAYER
  5
E
330
2
100
AcDbSymbolTableRecord
100
AcDbLayerTableRecord
  2
0
 70
     0
 62
     7
  6
CONTINUOUS
370
    -3
390
5CF2
  0
LAYER
  5
B9
330
2
100
AcDbSymbolTableRecord
100
AcDbLayerTableRecord
  2
DIM
 70
     0
 62
     3
  6
CONTINUOUS
370
    -3
390
5CF2
  0
LAYER
  5
F2
330
2
100
AcDbSymbolTableRecord
100
AcDbLayerTableRecord
  2
DEFPOINTS
 70
     0
 62
     4
  6
CONTINUOUS
290
     0
370
    -3
390
5CF2
  0
LAYER
  5
5F8B
330
2
100
AcDbSymbolTableRecord
100
AcDbLayerTableRecord
  2
公差
 70
     0
 62
     6
  6
CONTINUOUS
370
    -3
390
5CF2
  0
LAYER
  5
644E
330
2
100
AcDbSymbolTableRecord
100
AcDbLayerTableRecord
  2
図框線
 70
     0
 62
     9
  6
CONTINUOUS
370
    -3
390
5CF2
  0
LAYER
  5
650D
330
2
100
AcDbSymbolTableRecord
100
AcDbLayerTableRecord
  2
中心線
 70
     0
 62
     1
  6
CENTER
370
    -3
390
5CF2
  0
LAYER
  5
650E
330
2
100
AcDbSymbolTableRecord
100
AcDbLayerTableRecord
  2
本体内線
 70
     0
 62
     4
  6
HIDDEN
370
    -3
390
5CF2
  0
LAYER
  5
650F
330
2
100
AcDbSymbolTableRecord
100
AcDbLayerTableRecord
  2
本体外線
 70
     0
 62
     2
  6
CONTINUOUS
370
    -3
390
5CF2
  0
LAYER
  5
6510
330
2
100
AcDbSymbolTableRecord
100
AcDbLayerTableRecord
  2
剖面線
 70
     0
 62
     5
  6
CONTINUOUS
370
    -3
390
5CF2
  0
ENDTAB
  0
TABLE
  2
STYLE
  5
3
330
0
100
AcDbSymbolTable
 70
     5
  0
STYLE
  5
F
330
3
100
AcDbSymbolTableRecord
100
AcDbTextStyleTableRecord
  2
STANDARD
 70
     0
 40
0.0
 41
1.0
 50
0.0
 71
     0
 42
2.5
  3
txt
  4

  0
STYLE
  5
BE
330
3
100
AcDbSymbolTableRecord
100
AcDbTextStyleTableRecord
  2
ISOCP3
 70
     0
 40
0.0
 41
1.0
 50
0.0
 71
     0
 42
2.5
  3
isocp3.shx
  4

  0
STYLE
  5
2A37
330
3
100
AcDbSymbolTableRecord
100
AcDbTextStyleTableRecord
  2
TXT
 70
     0
 40
0.0
 41
1.0
 50
0.0
 71
     0
 42
2.5
  3
txt.shx
  4
bigfont.shx
  0
STYLE
  5
5DCB
330
3
100
AcDbSymbolTableRecord
100
AcDbTextStyleTableRecord
  2
LKK
 70
     0
 40
50.0
 41
1.5
 50
0.0
 71
     0
 42
50.0
  3
MS PGothic.ttf
  4

1001
ACAD
1000
MS PGothic
1071
    32818
  0
STYLE
  5
5DCC
330
3
100
AcDbSymbolTableRecord
100
AcDbTextStyleTableRecord
  2
JL
 70
     0
 40
10.0
 41
0.5
 50
0.0
 71
     0
 42
5.0
  3
MS Mincho.ttf
  4

1001
ACAD
1000
MS Mincho
1071
    32785
  0
ENDTAB
  0
TABLE
  2
VIEW
  5
6
330
0
100
AcDbSymbolTable
 70
     0
  0
ENDTAB
  0
TABLE
  2
UCS
  5
7
330
0
100
AcDbSymbolTable
 70
     0
  0
ENDTAB
  0
TABLE
  2
APPID
  5
9
330
0
100
AcDbSymbolTable
 70
     2
  0
APPID
  5
10
330
9
100
AcDbSymbolTableRecord
100
AcDbRegAppTableRecord
  2
ACAD
 70
     0
  0
APPID
  5
BFEA
330
9
100
AcDbSymbolTableRecord
100
AcDbRegAppTableRecord
  2
ACAD_EXEMPT_FROM_CAD_STANDARDS
 70
     0
  0
ENDTAB
  0
TABLE
  2
DIMSTYLE
  5
A
330
0
100
AcDbSymbolTable
 70
     3
100
AcDbDimStyleTable
 71
     1
340
1A4
  0
DIMSTYLE
105
1D
330
A
100
AcDbSymbolTableRecord
100
AcDbDimStyleTableRecord
  2
STANDARD
 70
     0
 41
3.0
 42
0.06
 77
     3
140
4.0
144
0.3333333333333333
172
     1
340
F
  0
DIMSTYLE
105
1A4
102
{ACAD_REACTORS
330
BE60
330
BE63
330
BE64
330
BE65
330
BE6A
330
BE6B
330
BE6C
330
BE6D
330
BE6E
330
BE83
330
BE84
330
BECE
102
}
330
A
100
AcDbSymbolTableRecord
100
AcDbDimStyleTableRecord
  2
A
 70
     0
 41
5.0
 42
1.0
 43
6.0
 44
1.0
 73
     0
 74
     0
 77
     3
 78
     8
140
6.0
141
0.0
147
1.0
176
     6
177
     6
178
     3
271
     1
272
     1
279
     1
340
2A37
  0
DIMSTYLE
105
6006
330
A
100
AcDbSymbolTableRecord
100
AcDbDimStyleTableRecord
  2
ISO-25
 70
     0
 40
0.0
 41
2.0
 42
0.3
 43
1.0
 44
0.3
 73
     0
 74
     0
 77
     1
 78
     8
140
3.0
147
1.0
172
     1
176
     6
177
     6
178
     3
271
     1
272
     2
284
     8
288
     1
289
     2
340
F
  0
ENDTAB
  0
TABLE
  2
BLOCK_RECORD
  5
1
330
0
100
AcDbSymbolTable
 70
    13
  0
BLOCK_RECORD
  5
18
102
{ACAD_XDICTIONARY
360
45F
102
}
330
1
100
AcDbSymbolTableRecord
100
AcDbBlockTableRecord
  2
*MODEL_SPACE
340
5CF5
  0
BLOCK_RECORD
  5
15
102
{ACAD_XDICTIONARY
360
5D89
102
}
330
1
100
AcDbSymbolTableRecord
100
AcDbBlockTableRecord
  2
*PAPER_SPACE
340
5CF6
  0
BLOCK_RECORD
  5
639D
330
1
100
AcDbSymbolTableRecord
100
AcDbBlockTableRecord
  2
A$C255C26A2
340
0
102
{BLKREFS
331
BE01
102
}
  0
BLOCK_RECORD
  5
BED2
330
1
100
AcDbSymbolTableRecord
100
AcDbBlockTableRecord
  2
*D1
340
0
  0
BLOCK_RECORD
  5
BEDE
330
1
100
AcDbSymbolTableRecord
100
AcDbBlockTableRecord
  2
*D2
340
0
  0
BLOCK_RECORD
  5
BEEA
330
1
100
AcDbSymbolTableRecord
100
AcDbBlockTableRecord
  2
*D3
340
0
  0
BLOCK_RECORD
  5
BEF6
330
1
100
AcDbSymbolTableRecord
100
AcDbBlockTableRecord
  2
*D4
340
0
  0
BLOCK_RECORD
  5
BF05
330
1
100
AcDbSymbolTableRecord
100
AcDbBlockTableRecord
  2
*D5
340
0
  0
BLOCK_RECORD
  5
BF14
330
1
100
AcDbSymbolTableRecord
100
AcDbBlockTableRecord
  2
*D6
340
0
  0
BLOCK_RECORD
  5
BF20
330
1
100
AcDbSymbolTableRecord
100
AcDbBlockTableRecord
  2
*D7
340
0
  0
BLOCK_RECORD
  5
BF2C
330
1
100
AcDbSymbolTableRecord
100
AcDbBlockTableRecord
  2
*D8
340
0
  0
BLOCK_RECORD
  5
BF38
330
1
100
AcDbSymbolTableRecord
100
AcDbBlockTableRecord
  2
*D9
340
0
  0
BLOCK_RECORD
  5
BF47
330
1
100
AcDbSymbolTableRecord
100
AcDbBlockTableRecord
  2
*D10
340
0
  0
BLOCK_RECORD
  5
BF54
330
1
100
AcDbSymbolTableRecord
100
AcDbBlockTableRecord
  2
*D11
340
0
  0
BLOCK_RECORD
  5
BF61
330
1
100
AcDbSymbolTableRecord
100
AcDbBlockTableRecord
  2
*D12
340
0
  0
ENDTAB
  0
ENDSEC
  0
SECTION
  2
BLOCKS
  0
BLOCK
  5
19
330
18
100
AcDbEntity
  8
0
100
AcDbBlockBegin
  2
*MODEL_SPACE
 70
     0
 10
0.0
 20
0.0
 30
0.0
  3
*MODEL_SPACE
  1

  0
ENDBLK
  5
1A
330
18
100
AcDbEntity
  8
0
100
AcDbBlockEnd
  0
BLOCK
  5
16
330
15
100
AcDbEntity
 67
     1
  8
0
100
AcDbBlockBegin
  2
*PAPER_SPACE
 70
     0
 10
0.0
 20
0.0
 30
0.0
  3
*PAPER_SPACE
  1

  0
ENDBLK
  5
17
330
15
100
AcDbEntity
 67
     1
  8
0
100
AcDbBlockEnd
  0
BLOCK
  5
63A1
330
639D
100
AcDbEntity
  8
0
100
AcDbBlockBegin
  2
A$C255C26A2
 70
     0
 10
0.0
 20
0.0
 30
0.0
  3
A$C255C26A2
  1

  0
LWPOLYLINE
  5
639E
330
639D
100
AcDbEntity
  8
0
100
AcDbPolyline
 90
        3
 70
     1
 43
0.0
 10
7.014806023851633
 20
0.0000006939811783
 10
5.611844869720698
 20
2.430000693981241
 10
8.417767177982568
 20
2.430000693981241
  0
LWPOLYLINE
  5
639F
330
639D
100
AcDbEntity
  8
0
100
AcDbPolyline
 90
        3
 70
     1
 43
0.0
 10
4.20888371558999
 20
0.0000006939811783
 10
2.805922561459283
 20
2.430000693981241
 10
5.611844869720698
 20
2.430000693981241
  0
LWPOLYLINE
  5
63A0
330
639D
100
AcDbEntity
  8
0
100
AcDbPolyline
 90
        3
 70
     1
 43
0.0
 10
1.402961407328348
 20
0.0000006939811783
 10
0.0000002531974133
 20
2.430000693981241
 10
2.805922561459283
 20
2.430000693981241
  0
ENDBLK
  5
63A2
330
639D
100
AcDbEntity
  8
0
100
AcDbBlockEnd
  0
BLOCK
  5
BEDC
330
BED2
100
AcDbEntity
  8
0
100
AcDbBlockBegin
  2
*D1
 70
     1
 10
0.0
 20
0.0
 30
0.0
  3
*D1
  1

  0
LINE
  5
C032
330
BED2
100
AcDbEntity
  8
0
 62
     6
370
    -2
100
AcDbLine
 10
126.0201019934127
 20
183.1281112170569
 30
0.0
 11
126.0201019934127
 21
152.1377808383771
 31
0.0
  0
LINE
  5
C033
330
BED2
100
AcDbEntity
  8
0
 62
     6
370
    -2
100
AcDbLine
 10
226.0201019934127
 20
183.128111217057
 30
0.0
 11
226.0201019934127
 21
152.1377808383771
 31
0.0
  0
LINE
  5
C034
330
BED2
100
AcDbEntity
  8
0
 62
     6
370
    -2
100
AcDbLine
 10
131.0201019934127
 20
153.1377808383771
 30
0.0
 11
221.0201019934127
 21
153.1377808383771
 31
0.0
  0
MTEXT
  5
C035
330
BED2
100
AcDbEntity
  8
0
 62
     3
100
AcDbMText
 10
176.0201019934126
 20
157.1377808383771
 30
0.0
 40
6.0
 41
0.0
 71
     5
 72
     1
  1
\A1;M100X2.0P
  7
TXT
 73
     1
 44
1.0
  0
SOLID
  5
C036
330
BED2
100
AcDbEntity
  8
0
 62
     6
100
AcDbTrace
 10
131.0201019934127
 20
153.9711141717104
 30
0.0
 11
131.0201019934127
 21
152.3044475050437
 31
0.0
 12
126.0201019934127
 22
153.1377808383771
 32
0.0
 13
126.0201019934127
 23
153.1377808383771
 33
0.0
  0
SOLID
  5
C037
330
BED2
100
AcDbEntity
  8
0
 62
     6
100
AcDbTrace
 10
221.0201019934127
 20
153.9711141717104
 30
0.0
 11
221.0201019934127
 21
152.3044475050437
 31
0.0
 12
226.0201019934127
 22
153.1377808383771
 32
0.0
 13
226.0201019934127
 23
153.1377808383771
 33
0.0
  0
POINT
  5
C038
330
BED2
100
AcDbEntity
  8
DEFPOINTS
 62
     0
100
AcDbPoint
 10
126.0201019934127
 20
184.1281112170569
 30
0.0
  0
POINT
  5
C039
330
BED2
100
AcDbEntity
  8
DEFPOINTS
 62
     0
100
AcDbPoint
 10
226.0201019934127
 20
184.128111217057
 30
0.0
  0
POINT
  5
C03A
330
BED2
100
AcDbEntity
  8
DEFPOINTS
 62
     0
100
AcDbPoint
 10
226.0201019934127
 20
153.1377808383771
 30
0.0
  0
ENDBLK
  5
BEDD
330
BED2
100
AcDbEntity
  8
0
100
AcDbBlockEnd
  0
BLOCK
  5
BEE8
330
BEDE
100
AcDbEntity
  8
0
100
AcDbBlockBegin
  2
*D2
 70
     1
 10
0.0
 20
0.0
 30
0.0
  3
*D2
  1

  0
LINE
  5
C03B
330
BEDE
100
AcDbEntity
  8
DIM
 62
     6
370
    -2
100
AcDbLine
 10
117.0201019934127
 20
210.4614445503902
 30
0.0
 11
117.0201019934127
 21
247.3438277105237
 31
0.0
  0
LINE
  5
C03C
330
BEDE
100
AcDbEntity
  8
DIM
 62
     6
370
    -2
100
AcDbLine
 10
235.0201019934127
 20
210.4614445503881
 30
0.0
 11
235.0201019934127
 21
247.3438277105237
 31
0.0
  0
LINE
  5
C03D
330
BEDE
100
AcDbEntity
  8
DIM
 62
     6
370
    -2
100
AcDbLine
 10
122.0201019934127
 20
246.3438277105236
 30
0.0
 11
230.0201019934127
 21
246.3438277105236
 31
0.0
  0
SOLID
  5
C03E
330
BEDE
100
AcDbEntity
  8
DIM
 62
     6
100
AcDbTrace
 10
122.0201019934127
 20
247.177161043857
 30
0.0
 11
122.0201019934127
 21
245.5104943771903
 31
0.0
 12
117.0201019934127
 22
246.3438277105236
 32
0.0
 13
117.0201019934127
 23
246.3438277105236
 33
0.0
  0
SOLID
  5
C03F
330
BEDE
100
AcDbEntity
  8
DIM
 62
     6
100
AcDbTrace
 10
230.0201019934127
 20
247.177161043857
 30
0.0
 11
230.0201019934127
 21
245.5104943771903
 31
0.0
 12
235.0201019934127
 22
246.3438277105236
 32
0.0
 13
235.0201019934127
 23
246.3438277105236
 33
0.0
  0
MTEXT
  5
C040
330
BEDE
100
AcDbEntity
  8
DIM
 62
     3
100
AcDbMText
 10
176.0201019934127
 20
250.3438277105237
 30
0.0
 40
6.0
 41
0.0
 71
     5
 72
     1
  1
\A1;%%c118%%p0.5
  7
TXT
 73
     1
 44
1.0
  0
POINT
  5
C041
330
BEDE
100
AcDbEntity
  8
DEFPOINTS
 62
     0
100
AcDbPoint
 10
117.0201019934127
 20
209.4614445503903
 30
0.0
  0
POINT
  5
C042
330
BEDE
100
AcDbEntity
  8
DEFPOINTS
 62
     0
100
AcDbPoint
 10
235.0201019934127
 20
209.461444550388
 30
0.0
  0
POINT
  5
C043
330
BEDE
100
AcDbEntity
  8
DEFPOINTS
 62
     0
100
AcDbPoint
 10
235.0201019934127
 20
246.3438277105236
 30
0.0
  0
ENDBLK
  5
BEE9
330
BEDE
100
AcDbEntity
  8
0
100
AcDbBlockEnd
  0
BLOCK
  5
BEF4
330
BEEA
100
AcDbEntity
  8
0
100
AcDbBlockBegin
  2
*D3
 70
     1
 10
0.0
 20
0.0
 30
0.0
  3
*D3
  1

  0
LINE
  5
C044
330
BEEA
100
AcDbEntity
  8
DIM
 62
     6
370
    -2
100
AcDbLine
 10
112.0201019934127
 20
207.9614445503902
 30
0.0
 11
112.0201019934127
 21
258.1579310734154
 31
0.0
  0
LINE
  5
C045
330
BEEA
100
AcDbEntity
  8
DIM
 62
     6
370
    -2
100
AcDbLine
 10
240.0201019934128
 20
207.9614445503902
 30
0.0
 11
240.0201019934128
 21
258.1579310734154
 31
0.0
  0
LINE
  5
C046
330
BEEA
100
AcDbEntity
  8
DIM
 62
     6
370
    -2
100
AcDbLine
 10
117.0201019934127
 20
257.1579310734154
 30
0.0
 11
235.0201019934128
 21
257.1579310734154
 31
0.0
  0
MTEXT
  5
C047
330
BEEA
100
AcDbEntity
  8
DIM
 62
     3
100
AcDbMText
 10
168.6782588700564
 20
263.8614563544278
 30
0.0
 40
6.0
 41
0.0
 71
     5
 72
     1
  1
\A1;%%c128
  7
TXT
 73
     1
 44
1.0
  0
SOLID
  5
C048
330
BEEA
100
AcDbEntity
  8
DIM
 62
     6
100
AcDbTrace
 10
117.0201019934127
 20
257.9912644067487
 30
0.0
 11
117.0201019934127
 21
256.3245977400821
 31
0.0
 12
112.0201019934127
 22
257.1579310734154
 32
0.0
 13
112.0201019934127
 23
257.1579310734154
 33
0.0
  0
SOLID
  5
C049
330
BEEA
100
AcDbEntity
  8
DIM
 62
     6
100
AcDbTrace
 10
235.0201019934128
 20
257.9912644067487
 30
0.0
 11
235.0201019934128
 21
256.3245977400821
 31
0.0
 12
240.0201019934128
 22
257.1579310734154
 32
0.0
 13
240.0201019934128
 23
257.1579310734154
 33
0.0
  0
POINT
  5
C04A
330
BEEA
100
AcDbEntity
  8
DEFPOINTS
 62
     0
100
AcDbPoint
 10
112.0201019934127
 20
206.9614445503902
 30
0.0
  0
POINT
  5
C04B
330
BEEA
100
AcDbEntity
  8
DEFPOINTS
 62
     0
100
AcDbPoint
 10
240.0201019934128
 20
206.9614445503902
 30
0.0
  0
POINT
  5
C04C
330
BEEA
100
AcDbEntity
  8
DEFPOINTS
 62
     0
100
AcDbPoint
 10
240.0201019934128
 20
257.1579310734154
 30
0.0
  0
ENDBLK
  5
BEF5
330
BEEA
100
AcDbEntity
  8
0
100
AcDbBlockEnd
  0
BLOCK
  5
BF03
330
BEF6
100
AcDbEntity
  8
0
100
AcDbBlockBegin
  2
*D4
 70
     1
 10
0.0
 20
0.0
 30
0.0
  3
*D4
  1

  0
LINE
  5
C04D
330
BEF6
100
AcDbEntity
  8
0
 62
     6
370
    -2
100
AcDbLine
 10
240.9230766953732
 20
190.919407059451
 30
0.0
 11
290.4763833732214
 21
162.3097921097588
 31
0.0
  0
LINE
  5
C04E
330
BEF6
100
AcDbEntity
  8
0
 62
     6
370
    -2
100
AcDbLine
 10
236.3030766953731
 20
182.9173323284827
 30
0.0
 11
285.8563833732213
 21
154.3077173787905
 31
0.0
  0
LINE
  5
C04F
330
BEF6
100
AcDbEntity
  8
0
 62
     6
370
    -2
100
AcDbLine
 10
292.110357969437
 20
167.139919128681
 30
0.0
 11
294.6103579694371
 21
171.4700461476031
 31
0.0
  0
LINE
  5
C050
330
BEF6
100
AcDbEntity
  8
0
 62
     6
370
    -2
100
AcDbLine
 10
282.4903579694369
 20
150.4775903598684
 30
0.0
 11
279.9903579694368
 21
146.1474633409462
 31
0.0
  0
LINE
  5
C051
330
BEF6
100
AcDbEntity
  8
0
 62
     6
370
    -2
100
AcDbLine
 10
308.3245714275961
 20
195.2237606429791
 30
0.0
 11
289.610357969437
 21
162.8097921097588
 31
0.0
  0
MTEXT
  5
C052
330
BEF6
100
AcDbEntity
  8
0
 62
     3
100
AcDbMText
 10
298.6104698124583
 20
186.3984430956737
 30
0.0
 40
6.0
 41
0.0
 71
     5
 72
     1
  1
\A1;9%%p0.5
  7
TXT
 11
0.5000000000000057
 21
0.8660254037844353
 31
0.0
 73
     1
 44
1.0
  0
LINE
  5
C053
330
BEF6
100
AcDbEntity
  8
0
 62
     6
370
    -2
100
AcDbLine
 10
289.610357969437
 20
162.8097921097588
 30
0.0
 11
284.9903579694369
 21
154.8077173787905
 31
0.0
  0
SOLID
  5
C054
330
BEF6
100
AcDbEntity
  8
0
 62
     6
100
AcDbTrace
 10
291.38867013295
 20
167.5565857953477
 30
0.0
 11
292.8320458059241
 21
166.7232524620143
 31
0.0
 12
289.610357969437
 22
162.8097921097588
 32
0.0
 13
289.610357969437
 23
162.8097921097588
 33
0.0
  0
SOLID
  5
C055
330
BEF6
100
AcDbEntity
  8
0
 62
     6
100
AcDbTrace
 10
281.7686701329499
 20
150.894257026535
 30
0.0
 11
283.212045805924
 21
150.0609236932017
 31
0.0
 12
284.9903579694369
 22
154.8077173787905
 32
0.0
 13
284.9903579694369
 23
154.8077173787905
 33
0.0
  0
POINT
  5
C056
330
BEF6
100
AcDbEntity
  8
DEFPOINTS
 62
     0
100
AcDbPoint
 10
240.0570512915888
 20
191.419407059451
 30
0.0
  0
POINT
  5
C057
330
BEF6
100
AcDbEntity
  8
DEFPOINTS
 62
     0
100
AcDbPoint
 10
235.4370512915886
 20
183.4173323284827
 30
0.0
  0
POINT
  5
C058
330
BEF6
100
AcDbEntity
  8
DEFPOINTS
 62
     0
100
AcDbPoint
 10
284.9903579694369
 20
154.8077173787905
 30
0.0
  0
ENDBLK
  5
BF04
330
BEF6
100
AcDbEntity
  8
0
100
AcDbBlockEnd
  0
BLOCK
  5
BF12
330
BF05
100
AcDbEntity
  8
0
100
AcDbBlockBegin
  2
*D5
 70
     1
 10
0.0
 20
0.0
 30
0.0
  3
*D5
  1

  0
LINE
  5
C059
330
BF05
100
AcDbEntity
  8
0
 62
     6
370
    -2
100
AcDbLine
 10
116.0201019934127
 20
209.4614445503903
 30
0.0
 11
88.2297375281753
 21
209.4614445503903
 31
0.0
  0
LINE
  5
C05A
330
BF05
100
AcDbEntity
  8
0
 62
     6
370
    -2
100
AcDbLine
 10
113.0201019934127
 20
208.9614445503902
 30
0.0
 11
88.2297375281753
 21
208.9614445503902
 31
0.0
  0
LINE
  5
C05B
330
BF05
100
AcDbEntity
  8
0
 62
     6
370
    -2
100
AcDbLine
 10
89.22973752817529
 20
214.4614445503902
 30
0.0
 11
89.22973752817529
 21
219.4614445503902
 31
0.0
  0
LINE
  5
C05C
330
BF05
100
AcDbEntity
  8
0
 62
     6
370
    -2
100
AcDbLine
 10
89.22973752817529
 20
203.9614445503902
 30
0.0
 11
89.22973752817529
 21
198.9614445503902
 31
0.0
  0
LINE
  5
C05D
330
BF05
100
AcDbEntity
  8
0
 62
     6
370
    -2
100
AcDbLine
 10
89.22973752817531
 20
237.4573791422943
 30
0.0
 11
89.22973752817529
 21
209.4614445503903
 31
0.0
  0
MTEXT
  5
C05E
330
BF05
100
AcDbEntity
  8
0
 62
     3
100
AcDbMText
 10
85.22973752817526
 20
230.9573791422944
 30
0.0
 40
6.0
 41
0.0
 71
     5
 72
     1
  1
\A1;0.5
  7
TXT
 11
0.0000000000000001
 21
1.0
 31
0.0
 73
     1
 44
1.0
  0
LINE
  5
C05F
330
BF05
100
AcDbEntity
  8
0
 62
     6
370
    -2
100
AcDbLine
 10
89.22973752817529
 20
209.4614445503903
 30
0.0
 11
89.22973752817529
 21
208.9614445503902
 31
0.0
  0
SOLID
  5
C060
330
BF05
100
AcDbEntity
  8
0
 62
     6
100
AcDbTrace
 10
88.39640419484195
 20
214.4614445503902
 30
0.0
 11
90.06307086150862
 21
214.4614445503902
 31
0.0
 12
89.22973752817529
 22
209.4614445503903
 32
0.0
 13
89.22973752817529
 23
209.4614445503903
 33
0.0
  0
SOLID
  5
C061
330
BF05
100
AcDbEntity
  8
0
 62
     6
100
AcDbTrace
 10
88.39640419484195
 20
203.9614445503902
 30
0.0
 11
90.06307086150862
 21
203.9614445503902
 31
0.0
 12
89.22973752817529
 22
208.9614445503902
 32
0.0
 13
89.22973752817529
 23
208.9614445503902
 33
0.0
  0
POINT
  5
C062
330
BF05
100
AcDbEntity
  8
DEFPOINTS
 62
     0
100
AcDbPoint
 10
117.0201019934127
 20
209.4614445503903
 30
0.0
  0
POINT
  5
C063
330
BF05
100
AcDbEntity
  8
DEFPOINTS
 62
     0
100
AcDbPoint
 10
114.0201019934127
 20
208.9614445503902
 30
0.0
  0
POINT
  5
C064
330
BF05
100
AcDbEntity
  8
DEFPOINTS
 62
     0
100
AcDbPoint
 10
89.22973752817529
 20
208.9614445503902
 30
0.0
  0
ENDBLK
  5
BF13
330
BF05
100
AcDbEntity
  8
0
100
AcDbBlockEnd
  0
BLOCK
  5
BF1E
330
BF14
100
AcDbEntity
  8
0
100
AcDbBlockBegin
  2
*D6
 70
     1
 10
0.0
 20
0.0
 30
0.0
  3
*D6
  1

  0
LINE
  5
C065
330
BF14
100
AcDbEntity
  8
DIM
 62
     6
370
    -2
100
AcDbLine
 10
125.5201019934127
 20
210.4614445503902
 30
0.0
 11
125.5201019934127
 21
237.2506651688494
 31
0.0
  0
LINE
  5
C066
330
BF14
100
AcDbEntity
  8
DIM
 62
     6
370
    -2
100
AcDbLine
 10
226.5201019934127
 20
210.4614445503901
 30
0.0
 11
226.5201019934127
 21
237.2506651688494
 31
0.0
  0
LINE
  5
C067
330
BF14
100
AcDbEntity
  8
DIM
 62
     6
370
    -2
100
AcDbLine
 10
130.5201019934127
 20
236.2506651688494
 30
0.0
 11
221.5201019934127
 21
236.2506651688494
 31
0.0
  0
SOLID
  5
C068
330
BF14
100
AcDbEntity
  8
DIM
 62
     6
100
AcDbTrace
 10
130.5201019934127
 20
237.0839985021828
 30
0.0
 11
130.5201019934127
 21
235.4173318355161
 31
0.0
 12
125.5201019934127
 22
236.2506651688494
 32
0.0
 13
125.5201019934127
 23
236.2506651688494
 33
0.0
  0
SOLID
  5
C069
330
BF14
100
AcDbEntity
  8
DIM
 62
     6
100
AcDbTrace
 10
221.5201019934127
 20
237.0839985021828
 30
0.0
 11
221.5201019934127
 21
235.4173318355161
 31
0.0
 12
226.5201019934127
 22
236.2506651688494
 32
0.0
 13
226.5201019934127
 23
236.2506651688494
 33
0.0
  0
MTEXT
  5
C06A
330
BF14
100
AcDbEntity
  8
DIM
 62
     3
100
AcDbMText
 10
176.0201019934127
 20
240.2506651688494
 30
0.0
 40
6.0
 41
0.0
 71
     5
 72
     1
  1
\A1;%%c101
  7
TXT
 73
     1
 44
1.0
  0
POINT
  5
C06B
330
BF14
100
AcDbEntity
  8
DEFPOINTS
 62
     0
100
AcDbPoint
 10
125.5201019934127
 20
209.4614445503903
 30
0.0
  0
POINT
  5
C06C
330
BF14
100
AcDbEntity
  8
DEFPOINTS
 62
     0
100
AcDbPoint
 10
226.5201019934127
 20
209.46144455039
 30
0.0
  0
POINT
  5
C06D
330
BF14
100
AcDbEntity
  8
DEFPOINTS
 62
     0
100
AcDbPoint
 10
226.5201019934127
 20
236.2506651688494
 30
0.0
  0
ENDBLK
  5
BF1F
330
BF14
100
AcDbEntity
  8
0
100
AcDbBlockEnd
  0
BLOCK
  5
BF2A
330
BF20
100
AcDbEntity
  8
0
100
AcDbBlockBegin
  2
*D7
 70
     1
 10
0.0
 20
0.0
 30
0.0
  3
*D7
  1

  0
LINE
  5
C06E
330
BF20
100
AcDbEntity
  8
DIM
 62
     6
370
    -2
100
AcDbLine
 10
236.0201019934127
 20
209.4614445503902
 30
0.0
 11
262.0142493952712
 21
209.4614445503902
 31
0.0
  0
LINE
  5
C06F
330
BF20
100
AcDbEntity
  8
DIM
 62
     6
370
    -2
100
AcDbLine
 10
238.7701019934127
 20
187.4582946806762
 30
0.0
 11
262.0142493952712
 21
187.4582946806762
 31
0.0
  0
LINE
  5
C070
330
BF20
100
AcDbEntity
  8
DIM
 62
     6
370
    -2
100
AcDbLine
 10
261.0142493952712
 20
204.4614445503902
 30
0.0
 11
261.0142493952712
 21
192.4582946806762
 31
0.0
  0
SOLID
  5
C071
330
BF20
100
AcDbEntity
  8
DIM
 62
     6
100
AcDbTrace
 10
260.1809160619379
 20
204.4614445503902
 30
0.0
 11
261.8475827286045
 21
204.4614445503902
 31
0.0
 12
261.0142493952712
 22
209.4614445503902
 32
0.0
 13
261.0142493952712
 23
209.4614445503902
 33
0.0
  0
SOLID
  5
C072
330
BF20
100
AcDbEntity
  8
DIM
 62
     6
100
AcDbTrace
 10
260.1809160619379
 20
192.4582946806762
 30
0.0
 11
261.8475827286045
 21
192.4582946806762
 31
0.0
 12
261.0142493952712
 22
187.4582946806762
 32
0.0
 13
261.0142493952712
 23
187.4582946806762
 33
0.0
  0
MTEXT
  5
C073
330
BF20
100
AcDbEntity
  8
DIM
 62
     3
100
AcDbMText
 10
257.0142493952712
 20
198.4598696155332
 30
0.0
 40
6.0
 41
0.0
 71
     5
 72
     1
  1
\A1;22
  7
TXT
 11
0.0000000000000001
 21
1.0
 31
0.0
 73
     1
 44
1.0
  0
POINT
  5
C074
330
BF20
100
AcDbEntity
  8
DEFPOINTS
 62
     0
100
AcDbPoint
 10
235.0201019934127
 20
209.4614445503902
 30
0.0
  0
POINT
  5
C075
330
BF20
100
AcDbEntity
  8
DEFPOINTS
 62
     0
100
AcDbPoint
 10
237.7701019934127
 20
187.4582946806762
 30
0.0
  0
POINT
  5
C076
330
BF20
100
AcDbEntity
  8
DEFPOINTS
 62
     0
100
AcDbPoint
 10
261.0142493952712
 20
187.4582946806762
 30
0.0
  0
ENDBLK
  5
BF2B
330
BF20
100
AcDbEntity
  8
0
100
AcDbBlockEnd
  0
BLOCK
  5
BF36
330
BF2C
100
AcDbEntity
  8
0
100
AcDbBlockBegin
  2
*D8
 70
     1
 10
0.0
 20
0.0
 30
0.0
  3
*D8
  1

  0
LINE
  5
C077
330
BF2C
100
AcDbEntity
  8
DIM
 62
     6
370
    -2
100
AcDbLine
 10
236.4370512915887
 20
183.4173323284827
 30
0.0
 11
281.8647181464917
 21
183.4173323284827
 31
0.0
  0
LINE
  5
C078
330
BF2C
100
AcDbEntity
  8
DIM
 62
     6
370
    -2
100
AcDbLine
 10
236.0201019934127
 20
209.4614445503902
 30
0.0
 11
281.8647181464917
 21
209.4614445503902
 31
0.0
  0
LINE
  5
C079
330
BF2C
100
AcDbEntity
  8
DIM
 62
     6
370
    -2
100
AcDbLine
 10
280.8647181464916
 20
188.4173323284827
 30
0.0
 11
280.8647181464916
 21
204.4614445503902
 31
0.0
  0
MTEXT
  5
C07A
330
BF2C
100
AcDbEntity
  8
DIM
 62
     3
100
AcDbMText
 10
275.7186708859745
 20
190.6043452539815
 30
0.0
 40
6.0
 41
0.0
 71
     5
 72
     1
  1
\A1;26
  7
TXT
 11
0.0000000000000001
 21
1.0
 31
0.0
 73
     1
 44
1.0
  0
SOLID
  5
C07B
330
BF2C
100
AcDbEntity
  8
DIM
 62
     6
100
AcDbTrace
 10
280.0313848131584
 20
188.4173323284827
 30
0.0
 11
281.698051479825
 21
188.4173323284827
 31
0.0
 12
280.8647181464916
 22
183.4173323284827
 32
0.0
 13
280.8647181464916
 23
183.4173323284827
 33
0.0
  0
SOLID
  5
C07C
330
BF2C
100
AcDbEntity
  8
DIM
 62
     6
100
AcDbTrace
 10
280.0313848131584
 20
204.4614445503902
 30
0.0
 11
281.698051479825
 21
204.4614445503902
 31
0.0
 12
280.8647181464916
 22
209.4614445503902
 32
0.0
 13
280.8647181464916
 23
209.4614445503902
 33
0.0
  0
POINT
  5
C07D
330
BF2C
100
AcDbEntity
  8
DEFPOINTS
 62
     0
100
AcDbPoint
 10
235.4370512915886
 20
183.4173323284827
 30
0.0
  0
POINT
  5
C07E
330
BF2C
100
AcDbEntity
  8
DEFPOINTS
 62
     0
100
AcDbPoint
 10
235.0201019934127
 20
209.4614445503902
 30
0.0
  0
POINT
  5
C07F
330
BF2C
100
AcDbEntity
  8
DEFPOINTS
 62
     0
100
AcDbPoint
 10
280.8647181464916
 20
209.4614445503902
 30
0.0
  0
ENDBLK
  5
BF37
330
BF2C
100
AcDbEntity
  8
0
100
AcDbBlockEnd
  0
BLOCK
  5
BF45
330
BF38
100
AcDbEntity
  8
0
100
AcDbBlockBegin
  2
*D9
 70
     1
 10
0.0
 20
0.0
 30
0.0
  3
*D9
  1

  0
LINE
  5
C080
330
BF38
100
AcDbEntity
  8
DIM
 62
     6
370
    -2
100
AcDbLine
 10
189.3485779150776
 20
207.4614445503905
 30
0.0
 11
185.5663130215578
 21
207.4614445503905
 31
0.0
  0
LINE
  5
C081
330
BF38
100
AcDbEntity
  8
DIM
 62
     6
370
    -2
100
AcDbLine
 10
189.3485779150776
 20
209.4614445503903
 30
0.0
 11
185.5663130215578
 21
209.4614445503903
 31
0.0
  0
LINE
  5
C082
330
BF38
100
AcDbEntity
  8
DIM
 62
     6
370
    -2
100
AcDbLine
 10
186.5663130215578
 20
202.4614445503905
 30
0.0
 11
186.5663130215578
 21
197.4614445503905
 31
0.0
  0
LINE
  5
C083
330
BF38
100
AcDbEntity
  8
DIM
 62
     6
370
    -2
100
AcDbLine
 10
186.5663130215578
 20
214.4614445503902
 30
0.0
 11
186.5663130215578
 21
219.4614445503902
 31
0.0
  0
LINE
  5
C084
330
BF38
100
AcDbEntity
  8
DIM
 62
     6
370
    -2
100
AcDbLine
 10
186.5663130215578
 20
226.9985578384829
 30
0.0
 11
186.5663130215578
 21
209.4614445503903
 31
0.0
  0
MTEXT
  5
C085
330
BF38
100
AcDbEntity
  8
DIM
 62
     3
100
AcDbMText
 10
182.5663130215577
 20
223.998557838483
 30
0.0
 40
6.0
 41
0.0
 71
     5
 72
     1
  1
\A1;2
  7
TXT
 11
0.0000000000000001
 21
1.0
 31
0.0
 73
     1
 44
1.0
  0
LINE
  5
C086
330
BF38
100
AcDbEntity
  8
DIM
 62
     6
370
    -2
100
AcDbLine
 10
186.5663130215578
 20
207.4614445503905
 30
0.0
 11
186.5663130215578
 21
209.4614445503903
 31
0.0
  0
SOLID
  5
C087
330
BF38
100
AcDbEntity
  8
DIM
 62
     6
100
AcDbTrace
 10
185.7329796882244
 20
202.4614445503905
 30
0.0
 11
187.3996463548911
 21
202.4614445503905
 31
0.0
 12
186.5663130215578
 22
207.4614445503905
 32
0.0
 13
186.5663130215578
 23
207.4614445503905
 33
0.0
  0
SOLID
  5
C088
330
BF38
100
AcDbEntity
  8
DIM
 62
     6
100
AcDbTrace
 10
185.7329796882244
 20
214.4614445503902
 30
0.0
 11
187.3996463548911
 21
214.4614445503902
 31
0.0
 12
186.5663130215578
 22
209.4614445503903
 32
0.0
 13
186.5663130215578
 23
209.4614445503903
 33
0.0
  0
POINT
  5
C089
330
BF38
100
AcDbEntity
  8
DEFPOINTS
 62
     0
100
AcDbPoint
 10
190.3485779150776
 20
207.4614445503905
 30
0.0
  0
POINT
  5
C08A
330
BF38
100
AcDbEntity
  8
DEFPOINTS
 62
     0
100
AcDbPoint
 10
190.3485779150776
 20
209.4614445503903
 30
0.0
  0
POINT
  5
C08B
330
BF38
100
AcDbEntity
  8
DEFPOINTS
 62
     0
100
AcDbPoint
 10
186.5663130215578
 20
209.4614445503903
 30
0.0
  0
ENDBLK
  5
BF46
330
BF38
100
AcDbEntity
  8
0
100
AcDbBlockEnd
  0
BLOCK
  5
BF52
330
BF47
100
AcDbEntity
  8
0
100
AcDbBlockBegin
  2
*D10
 70
     1
 10
0.0
 20
0.0
 30
0.0
  3
*D10
  1

  0
LINE
  5
C08C
330
BF47
100
AcDbEntity
  8
0
 62
     6
370
    -2
100
AcDbLine
 10
182.0201019934127
 20
422.2713658027134
 30
0.0
 11
258.118717336645
 21
422.2713658027134
 31
0.0
  0
LINE
  5
C08D
330
BF47
100
AcDbEntity
  8
0
 62
     6
370
    -2
100
AcDbLine
 10
182.0201019934127
 20
426.2968025827897
 30
0.0
 11
258.118717336645
 21
426.2968025827897
 31
0.0
  0
LINE
  5
C08E
330
BF47
100
AcDbEntity
  8
0
 62
     6
370
    -2
100
AcDbLine
 10
257.118717336645
 20
417.2713658027134
 30
0.0
 11
257.118717336645
 21
412.2713658027134
 31
0.0
  0
LINE
  5
C08F
330
BF47
100
AcDbEntity
  8
0
 62
     6
370
    -2
100
AcDbLine
 10
257.118717336645
 20
431.2968025827897
 30
0.0
 11
257.118717336645
 21
436.2968025827897
 31
0.0
  0
MTEXT
  5
C090
330
BF47
100
AcDbEntity
  8
0
 62
     3
100
AcDbMText
 10
253.118717336645
 20
424.2840841927515
 30
0.0
 40
6.0
 41
0.0
 71
     5
 72
     1
  1
\A1;4
  7
TXT
 11
0.0000000000000001
 21
1.0
 31
0.0
 73
     1
 44
1.0
  0
SOLID
  5
C091
330
BF47
100
AcDbEntity
  8
0
 62
     6
100
AcDbTrace
 10
256.2853840033117
 20
417.2713658027134
 30
0.0
 11
257.9520506699783
 21
417.2713658027134
 31
0.0
 12
257.118717336645
 22
422.2713658027134
 32
0.0
 13
257.118717336645
 23
422.2713658027134
 33
0.0
  0
SOLID
  5
C092
330
BF47
100
AcDbEntity
  8
0
 62
     6
100
AcDbTrace
 10
256.2853840033117
 20
431.2968025827897
 30
0.0
 11
257.9520506699783
 21
431.2968025827897
 31
0.0
 12
257.118717336645
 22
426.2968025827897
 32
0.0
 13
257.118717336645
 23
426.2968025827897
 33
0.0
  0
POINT
  5
C093
330
BF47
100
AcDbEntity
  8
DEFPOINTS
 62
     0
100
AcDbPoint
 10
181.0201019934127
 20
422.2713658027134
 30
0.0
  0
POINT
  5
C094
330
BF47
100
AcDbEntity
  8
DEFPOINTS
 62
     0
100
AcDbPoint
 10
181.0201019934127
 20
426.2968025827897
 30
0.0
  0
POINT
  5
C095
330
BF47
100
AcDbEntity
  8
DEFPOINTS
 62
     0
100
AcDbPoint
 10
257.118717336645
 20
426.2968025827897
 30
0.0
  0
ENDBLK
  5
BF53
330
BF47
100
AcDbEntity
  8
0
100
AcDbBlockEnd
  0
BLOCK
  5
BF5F
330
BF54
100
AcDbEntity
  8
0
100
AcDbBlockBegin
  2
*D11
 70
     1
 10
0.0
 20
0.0
 30
0.0
  3
*D11
  1

  0
LINE
  5
C096
330
BF54
100
AcDbEntity
  8
DIM
 62
     6
370
    -2
100
AcDbLine
 10
171.0201019934127
 20
426.9968025827897
 30
0.0
 11
171.0201019934127
 21
447.7717014203721
 31
0.0
  0
LINE
  5
C097
330
BF54
100
AcDbEntity
  8
DIM
 62
     6
370
    -2
100
AcDbLine
 10
181.0201019934127
 20
426.9968025827897
 30
0.0
 11
181.0201019934127
 21
447.7717014203721
 31
0.0
  0
LINE
  5
C098
330
BF54
100
AcDbEntity
  8
DIM
 62
     6
370
    -2
100
AcDbLine
 10
166.0201019934127
 20
446.7717014203721
 30
0.0
 11
161.0201019934127
 21
446.7717014203721
 31
0.0
  0
LINE
  5
C099
330
BF54
100
AcDbEntity
  8
DIM
 62
     6
370
    -2
100
AcDbLine
 10
186.0201019934127
 20
446.7717014203721
 30
0.0
 11
191.0201019934127
 21
446.7717014203721
 31
0.0
  0
MTEXT
  5
C09A
330
BF54
100
AcDbEntity
  8
DIM
 62
     3
100
AcDbMText
 10
201.2767577249779
 20
452.6533607362439
 30
0.0
 40
6.0
 41
0.0
 71
     5
 72
     1
  1
\A1;10      (6等分)
  7
TXT
 73
     1
 44
1.0
  0
SOLID
  5
C09B
330
BF54
100
AcDbEntity
  8
DIM
 62
     6
100
AcDbTrace
 10
166.0201019934127
 20
447.6050347537054
 30
0.0
 11
166.0201019934127
 21
445.9383680870388
 31
0.0
 12
171.0201019934127
 22
446.7717014203721
 32
0.0
 13
171.0201019934127
 23
446.7717014203721
 33
0.0
  0
SOLID
  5
C09C
330
BF54
100
AcDbEntity
  8
DIM
 62
     6
100
AcDbTrace
 10
186.0201019934127
 20
447.6050347537054
 30
0.0
 11
186.0201019934127
 21
445.9383680870388
 31
0.0
 12
181.0201019934127
 22
446.7717014203721
 32
0.0
 13
181.0201019934127
 23
446.7717014203721
 33
0.0
  0
POINT
  5
C09D
330
BF54
100
AcDbEntity
  8
DEFPOINTS
 62
     0
100
AcDbPoint
 10
171.0201019934127
 20
425.9968025827896
 30
0.0
  0
POINT
  5
C09E
330
BF54
100
AcDbEntity
  8
DEFPOINTS
 62
     0
100
AcDbPoint
 10
181.0201019934127
 20
425.9968025827896
 30
0.0
  0
POINT
  5
C09F
330
BF54
100
AcDbEntity
  8
DEFPOINTS
 62
     0
100
AcDbPoint
 10
181.0201019934127
 20
446.7717014203721
 30
0.0
  0
ENDBLK
  5
BF60
330
BF54
100
AcDbEntity
  8
0
100
AcDbBlockEnd
  0
BLOCK
  5
BF6D
330
BF61
100
AcDbEntity
  8
0
100
AcDbBlockBegin
  2
*D12
 70
     1
 10
0.0
 20
0.0
 30
0.0
  3
*D12
  1

  0
LINE
  5
C0A0
330
BF61
100
AcDbEntity
  8
DIM
 62
     6
370
    -2
100
AcDbLine
 10
240.3482802828372
 20
185.9697827512581
 30
0.0
 11
306.4722662228777
 21
147.7930816688845
 31
0.0
  0
LINE
  5
C0A1
330
BF61
100
AcDbEntity
  8
DIM
 62
     6
370
    -2
100
AcDbLine
 10
236.0201019934127
 20
209.4614445503902
 30
0.0
 11
322.9962542555266
 21
209.4614445503901
 31
0.0
  0
ARC
  5
C0A2
330
BF61
100
AcDbEntity
  8
DIM
 62
     6
370
    -2
100
AcDbCircle
 10
199.6595284925159
 20
209.4614445503902
 30
0.0
 40
122.3367257630108
100
AcDbArc
 50
332.3418874317996
 51
357.6581125682003
  0
SOLID
  5
C0A3
330
BF61
100
AcDbEntity
  8
DIM
 62
     6
100
AcDbTrace
 10
308.7472827578366
 20
152.2715612759077
 30
0.0
 11
307.2871789967079
 21
153.075224628634
 31
0.0
 12
305.6062408190932
 22
148.2930816688845
 32
0.0
 13
305.6062408190932
 23
148.2930816688845
 33
0.0
  0
SOLID
  5
C0A4
330
BF61
100
AcDbEntity
  8
DIM
 62
     6
100
AcDbTrace
 10
321.0609179396572
 20
204.4795181739107
 30
0.0
 11
322.7272365653191
 21
204.4454591728979
 31
0.0
 12
321.9962542555267
 22
209.46144455039
 32
0.0
 13
321.9962542555267
 23
209.46144455039
 33
0.0
  0
MTEXT
  5
C0A5
330
BF61
100
AcDbEntity
  8
DIM
 62
     3
100
AcDbMText
 10
313.9640281054949
 20
178.8336461878487
 30
0.0
 40
6.0
 41
0.0
 71
     5
 72
     1
  1
\A1;30%%D
  7
TXT
 11
0.2588190451025218
 21
0.9659258262890679
 31
0.0
 73
     1
 44
1.0
  0
POINT
  5
C0A6
330
BF61
100
AcDbEntity
  8
DEFPOINTS
 62
     0
100
AcDbPoint
 10
314.6184469431263
 20
167.6198200709319
 30
0.0
  0
POINT
  5
C0A7
330
BF61
100
AcDbEntity
  8
DEFPOINTS
 62
     0
100
AcDbPoint
 10
117.0201019934127
 20
209.4614445503903
 30
0.0
  0
POINT
  5
C0A8
330
BF61
100
AcDbEntity
  8
DEFPOINTS
 62
     0
100
AcDbPoint
 10
223.0148072675954
 20
195.9772680625992
 30
0.0
  0
POINT
  5
C0A9
330
BF61
100
AcDbEntity
  8
DEFPOINTS
 62
     0
100
AcDbPoint
 10
239.4822548790528
 20
186.4697827512581
 30
0.0
  0
POINT
  5
C0AA
330
BF61
100
AcDbEntity
  8
DEFPOINTS
 62
     0
100
AcDbPoint
 10
235.0201019934127
 20
209.4614445503902
 30
0.0
  0
ENDBLK
  5
BF6E
330
BF61
100
AcDbEntity
  8
0
100
AcDbBlockEnd
  0
ENDSEC
  0
SECTION
  2
ENTITIES
  0
MTEXT
  5
C0
330
18
100
AcDbEntity
  8
0
100
AcDbMText
 10
41.26970765600413
 20
233.6950877649332
 30
0.0
 40
2.5
 41
0.0
 71
     1
 72
     5
  1

  7
ISOCP3
 73
     1
 44
1.0
  0
MTEXT
  5
BDF7
330
18
100
AcDbEntity
  8
DIM
100
AcDbMText
 10
182.4339232574023
 20
270.113208243778
 30
0.0
 40
4.0
 41
22.96918919432704
 71
     1
 72
     5
  1
+0\P-0.2
  7
TXT
 73
     1
 44
1.0
  0
LINE
  5
BDF8
330
18
100
AcDbEntity
  8
DIM
100
AcDbLine
 10
280.8647181464916
 20
209.4614445503902
 30
0.0
 11
280.8647181464916
 21
241.6602891418217
 31
0.0
  0
LINE
  5
BDF9
330
18
100
AcDbEntity
  8
DIM
100
AcDbLine
 10
280.8647181464916
 20
241.6602891418217
 30
0.0
 11
290.9797717511926
 21
241.6602891418217
 31
0.0
  0
LINE
  5
BDFA
330
18
100
AcDbEntity
  8
DIM
100
AcDbLine
 10
126.0201019934127
 20
159.8511130778705
 30
0.0
 11
126.0201019934127
 21
145.2880426983809
 31
0.0
  0
TOLERANCE
  5
BDFB
330
18
100
AcDbEntity
  8
DIM
  6
ByBlock
100
AcDbFcf
  3
A
 10
290.9797717511926
 20
241.7621660140837
 30
0.0
  1
{\Fgdt;h}%%v0.005%%v%%vA%%v%%v
1001
ACAD
1000
DSTYLE
1002
{
1070
   140
1040
5.487999999999998
1070
   147
1040
1.371999999999999
1002
}
  0
MTEXT
  5
BDFC
330
18
100
AcDbEntity
  8
0
100
AcDbMText
 10
35.6389655789958
 20
38.74799668632523
 30
0.0
 40
10.0
 41
0.0
 71
     1
 72
     5
  1
\Ftxt.shx,bigfont.shx|c128;呉銘宏
  7
JL
 73
     1
 44
1.0
  0
MTEXT
  5
BDFD
330
18
100
AcDbEntity
  8
0
100
AcDbMText
 10
162.4703533039278
 20
58.4556461067782
 30
0.0
 40
9.0
 41
0.0
 71
     1
 72
     5
  1
\Ftxt.shx,bigfont.shx|c128;1 : 2
  7
JL
 73
     1
 44
1.0
  0
MTEXT
  5
BDFE
330
18
100
AcDbEntity
  8
0
 48
2.0
370
    25
100
AcDbMText
 10
292.2468537812633
 20
7.273939869658079
 30
0.0
 40
9.0
 41
0.0
 71
     5
 72
     1
  1
\Ftxt.shx,bigfont.shx|c128;N L 4 0 0 1 7
 73
     1
 44
1.0
  0
MTEXT
  5
BDFF
330
18
100
AcDbEntity
  8
0
 48
2.0
100
AcDbMText
 10
356.2601493995553
 20
44.35100540095686
 30
0.0
 40
9.0
 41
0.0
 71
     5
 72
     1
  1
\P\Ftxt.shx,bigfont.shx|c128;    MF100X2.0P
 73
     1
 44
1.0
  0
MTEXT
  5
BE00
330
18
100
AcDbEntity
  8
0
100
AcDbMText
 10
32.04696218219124
 20
57.29185171023914
 30
0.0
 40
9.0
 41
0.0
 71
     1
 72
     5
  1
\Ftxt.shx,bigfont.shx|c128;05.03.03
  7
JL
 73
     1
 44
1.0
  0
INSERT
  5
BE01
330
18
100
AcDbEntity
  8
公差
100
AcDbBlockReference
  2
A$C255C26A2
 10
202.6114986903501
 20
209.4614431624279
 30
0.0
 41
2.0
 42
2.0
 43
2.0
  0
MTEXT
  5
BE02
330
18
100
AcDbEntity
  8
DIM
 48
2.0
100
AcDbMText
 10
210.7991041880625
 20
219.2525450964651
 30
0.0
 40
6.0
 41
0.0
 71
     5
 72
     1
  1
G
 73
     1
 44
1.0
  0
LEADER
  5
BE03
330
18
100
AcDbEntity
  8
DIM
 62
     6
100
AcDbLeader
  3
A
 76
     2
 10
226.891163776085
 20
196.2056296926291
 30
0.0
 10
258.6551629692199
 20
244.7859804048555
 30
0.0
  0
LEADER
  5
BE04
330
18
100
AcDbEntity
  8
DIM
 62
     6
100
AcDbLeader
  3
A
 76
     2
 10
237.7701019934127
 20
187.4582946806762
 30
0.0
 10
252.9332190418267
 20
154.190040623316
 30
0.0
  0
MTEXT
  5
BE05
330
18
100
AcDbEntity
  8
DIM
100
AcDbMText
 10
256.877140615298
 20
256.0729907080987
 30
0.0
 40
10.0
 41
1.0
 71
     1
 72
     5
  1
\Ftxt.shx,bigfont.shx|c128;3
 73
     1
 44
1.0
  0
MTEXT
  5
BE06
330
18
100
AcDbEntity
  8
DIM
100
AcDbMText
 10
251.4493603708638
 20
153.2478399176926
 30
0.0
 40
10.0
 41
1.0
 71
     1
 72
     5
  1
\Ftxt.shx,bigfont.shx|c128;2
 73
     1
 44
1.0
  0
LINE
  5
BE07
330
18
100
AcDbEntity
  8
DIM
100
AcDbLine
 10
126.0201019934127
 20
145.2880426983809
 30
0.0
 11
127.8450186898639
 21
143.3322945069308
 31
0.0
  0
HATCH
  5
BE08
330
18
100
AcDbEntity
  8
DIM
  6
Continuous
100
AcDbHatch
 10
0.0
 20
0.0
 30
0.0
210
0.0
220
0.0
230
1.0
  2
SOLID
 70
     1
 71
     0
 91
        1
 92
        7
 72
     0
 73
     1
 93
        3
 10
126.0178537645075
 20
141.3206659084199
 10
127.8553179417076
 20
143.2902814989073
 10
126.0178537645075
 20
145.2598970893948
 97
        0
 75
     0
 76
     1
 47
0.2359147607200769
 98
        1
 10
126.5934857569691
 20
143.7132335102904
450
        0
451
        0
460
0.0
461
0.0
452
        0
462
0.0
453
        0
470

  0
LINE
  5
BE09
330
18
100
AcDbEntity
  8
DIM
100
AcDbLine
 10
137.339204303256
 20
139.7049868986118
 30
0.0
 11
137.339204303256
 21
146.9975844786541
 31
0.0
  0
LINE
  5
BE0A
330
18
100
AcDbEntity
  8
DIM
100
AcDbLine
 10
137.339204303256
 20
146.9975844786541
 30
0.0
 11
144.9564747942774
 21
146.9975844786541
 31
0.0
  0
LINE
  5
BE0B
330
18
100
AcDbEntity
  8
DIM
100
AcDbLine
 10
144.9564747942774
 20
139.7049868986118
 30
0.0
 11
144.9564747942774
 21
146.9975844786541
 31
0.0
  0
LINE
  5
BE0C
330
18
100
AcDbEntity
  8
DIM
100
AcDbLine
 10
137.339204303256
 20
139.7049868986118
 30
0.0
 11
144.9564747942774
 21
139.7049868986118
 31
0.0
  0
LINE
  5
BE0D
330
18
100
AcDbEntity
  8
DIM
100
AcDbLine
 10
137.339204303256
 20
143.3512856886329
 30
0.0
 11
127.8176166318099
 21
143.3512856886329
 31
0.0
  0
MTEXT
  5
BE0E
330
18
100
AcDbEntity
  8
DIM
100
AcDbMText
 10
139.2536797481352
 20
146.334921047107
 30
0.0
 40
6.0
 41
4.709751971108957
 71
     1
 72
     5
  1
A
  7
ISOCP3
 73
     1
 44
1.0
  0
LINE
  5
BE0F
330
18
100
AcDbEntity
  8
図框線
100
AcDbLine
 10
396.0
 20
579.9999999999998
 30
0.0
 11
396.0
 21
-0.0000000000001137
 31
0.0
  0
LINE
  5
BE10
330
18
100
AcDbEntity
  8
図框線
370
    30
100
AcDbLine
 10
0.0
 20
0.0
 30
0.0
 11
0.0
 21
580.0
 31
0.0
  0
LINE
  5
BE11
330
18
100
AcDbEntity
  8
0
 62
     7
 48
5.0
100
AcDbLine
 39
8.0
 10
99.89501031268673
 20
55.7906479567564
 30
0.0
 11
110.558617744105
 21
58.45654981461098
 31
0.0
  0
MTEXT
  5
BE12
330
18
100
AcDbEntity
  8
0
100
AcDbMText
 10
31.9573395431753
 20
19.2626802095765
 30
0.0
 40
12.0
 41
0.0
 71
     1
 72
     5
  1
\Ftxt.shx,bigfont.shx|c128;日機株式会社
  7
LKK
 73
     1
 44
1.0
  0
LINE
  5
BE13
330
18
100
AcDbEntity
  8
図框線
100
AcDbLine
 10
0.0000000000004547
 20
0.0
 30
0.0
 11
396.0
 21
0.0
 31
0.0
  0
LINE
  5
BE14
330
18
100
AcDbEntity
  8
図框線
100
AcDbLine
 10
0.0000000000004547
 20
24.0
 30
0.0
 11
396.0
 21
24.00000000000011
 31
0.0
  0
LINE
  5
BE15
330
18
100
AcDbEntity
  8
図框線
100
AcDbLine
 10
0.0000000000004547
 20
44.0
 30
0.0
 11
192.0000000000004
 21
44.0
 31
0.0
  0
LINE
  5
BE16
330
18
100
AcDbEntity
  8
図框線
100
AcDbLine
 10
0.0000000000004547
 20
64.0
 30
0.0
 11
396.0
 21
64.0
 31
0.0
  0
LINE
  5
BE17
330
18
100
AcDbEntity
  8
図框線
100
AcDbLine
 10
24.00000000000046
 20
64.0
 30
0.0
 11
24.00000000000046
 21
24.0
 31
0.0
  0
LINE
  5
BE18
330
18
100
AcDbEntity
  8
図框線
100
AcDbLine
 10
64.00000000000045
 20
64.0
 30
0.0
 11
64.00000000000045
 21
24.0
 31
0.0
  0
MTEXT
  5
BE19
330
18
100
AcDbEntity
  8
0
100
AcDbMText
 10
5.898888497642019
 20
58.09430066702453
 30
0.0
 40
9.0
 41
0.0
 71
     1
 72
     5
  1
\Ftxt.shx,bigfont.shx|c128;日 付
  7
JL
 73
     1
 44
1.0
  0
MTEXT
  5
BE1A
330
18
100
AcDbEntity
  8
0
100
AcDbMText
 10
6.191424729820482
 20
39.6766779894183
 30
0.0
 40
9.0
 41
0.0
 71
     1
 72
     5
  1
\Ftxt.shx,bigfont.shx|c128;製 図
  7
JL
 73
     1
 44
1.0
  0
LINE
  5
BE1B
330
18
100
AcDbEntity
  8
0
 62
     7
370
    25
100
AcDbLine
 10
110.558617744105
 20
47.79294238319266
 30
0.0
 11
110.558617744105
 21
58.45654981461098
 31
0.0
  0
MTEXT
  5
BE1C
330
18
100
AcDbEntity
  8
0
100
AcDbMText
 10
133.4050813466515
 20
58.84463740535693
 30
0.0
 40
9.0
 41
0.0
 71
     1
 72
     5
  1
\Ftxt.shx,bigfont.shx|c128;尺 度
  7
JL
 73
     1
 44
1.0
  0
LINE
  5
BE1D
330
18
100
AcDbEntity
  8
図框線
100
AcDbLine
 10
128.0000000000004
 20
64.0
 30
0.0
 11
128.0000000000004
 21
24.0
 31
0.0
  0
LINE
  5
BE1E
330
18
100
AcDbEntity
  8
0
 62
     7
370
    25
100
AcDbLine
 10
82.56664823663186
 20
46.4778974347223
 30
0.0
 11
82.56664823663186
 21
59.34933500011311
 31
0.0
  0
CIRCLE
  5
BE1F
330
18
100
AcDbEntity
  8
0
 62
     7
100
AcDbCircle
 10
82.56664823663186
 20
53.12474609890159
 30
0.0
 40
5.331803715709282
  0
LINE
  5
BE20
330
18
100
AcDbEntity
  8
0
 62
     7
370
    25
100
AcDbLine
 10
98.36060562212196
 20
53.12474609890182
 30
0.0
 11
111.5159464380635
 21
53.12474609890182
 31
0.0
  0
LINE
  5
BE21
330
18
100
AcDbEntity
  8
0
 62
     7
100
AcDbLine
 10
99.89501031268673
 20
50.45884424104724
 30
0.0
 11
110.558617744105
 21
47.79294238319266
 31
0.0
  0
LINE
  5
BE22
330
18
100
AcDbEntity
  8
図框線
100
AcDbLine
 10
88.00000000000045
 20
43.99999999999977
 30
0.0
 11
88.00000000000045
 21
24.0
 31
0.0
  0
LINE
  5
BE23
330
18
100
AcDbEntity
  8
0
 62
     7
370
    25
100
AcDbLine
 10
75.90345065687916
 20
53.12474609890159
 30
0.0
 11
89.62783189353876
 21
53.12474609890182
 31
0.0
  0
CIRCLE
  5
BE24
330
18
100
AcDbEntity
  8
0
 62
     7
100
AcDbCircle
 10
82.56664823663186
 20
53.12474609890159
 30
0.0
 40
2.665901857854641
  0
MTEXT
  5
BE25
330
18
100
AcDbEntity
  8
0
100
AcDbMText
 10
70.24173036079583
 20
38.79964686336098
 30
0.0
 40
9.0
 41
0.0
 71
     1
 72
     5
  1
\Ftxt.shx,bigfont.shx|c128;検 図
  7
JL
 73
     1
 44
1.0
  0
LINE
  5
BE26
330
18
100
AcDbEntity
  8
0
 62
     7
370
    25
100
AcDbLine
 10
99.89501031268673
 20
50.45884424104724
 30
0.0
 11
99.89501031268673
 21
55.7906479567564
 31
0.0
  0
MTEXT
  5
BE27
330
18
100
AcDbEntity
  8
0
100
AcDbMText
 10
133.9901483667504
 20
39.25764104002928
 30
0.0
 40
9.0
 41
0.0
 71
     1
 72
     5
  1
\Ftxt.shx,bigfont.shx|c128;承 認
  7
JL
 73
     1
 44
1.0
  0
LINE
  5
BE28
330
18
100
AcDbEntity
  8
図框線
100
AcDbLine
 10
270.9697166699029
 20
463.1333365810578
 30
0.0
 11
390.969716669903
 21
463.1333365810576
 31
0.0
  0
LINE
  5
BE29
330
18
100
AcDbEntity
  8
図框線
100
AcDbLine
 10
270.9697166699029
 20
477.5333365810579
 30
0.0
 11
390.969716669903
 21
477.5333365810579
 31
0.0
  0
LINE
  5
BE2A
330
18
100
AcDbEntity
  8
図框線
100
AcDbLine
 10
270.9697166699029
 20
491.9333365810578
 30
0.0
 11
390.969716669903
 21
491.9333365810575
 31
0.0
  0
LINE
  5
BE2B
330
18
100
AcDbEntity
  8
図框線
100
AcDbLine
 10
270.9697166699029
 20
506.3333365810579
 30
0.0
 11
390.969716669903
 21
506.3333365810576
 31
0.0
  0
LINE
  5
BE2C
330
18
100
AcDbEntity
  8
図框線
100
AcDbLine
 10
270.9697166699029
 20
448.7333365810577
 30
0.0
 11
390.969716669903
 21
448.7333365810577
 31
0.0
  0
MTEXT
  5
BE2D
330
18
100
AcDbEntity
  8
0
 62
     7
 48
2.0
100
AcDbMText
 10
330.7405166016456
 20
507.9196734022262
 30
0.0
 40
9.600000000000001
 41
0.0
 71
     5
 72
     1
  1
\P\Ftxt.shx,bigfont.shx|c128;諸　　　　元
 73
     1
 44
1.0
  0
LINE
  5
BE2E
330
18
100
AcDbEntity
  8
図框線
100
AcDbLine
 10
270.9697166699029
 20
506.3333365810576
 30
0.0
 11
270.9697166699029
 21
448.7333365810577
 31
0.0
  0
MTEXT
  5
BE2F
330
18
100
AcDbEntity
  8
0
100
AcDbMText
 10
278.0145882972633
 20
488.8803182468161
 30
0.0
 40
8.8
 41
327.8325736844981
 71
     1
 72
     5
  1
\Ftxt.shx,bigfont.shx|c128;熱　処　理
  7
JL
 73
     1
 44
1.0
  0
LINE
  5
BE30
330
18
100
AcDbEntity
  8
図框線
100
AcDbLine
 10
318.9697166699029
 20
491.9333365810575
 30
0.0
 11
318.9697166699029
 21
448.7333365810577
 31
0.0
  0
MTEXT
  5
BE31
330
18
100
AcDbEntity
  8
0
100
AcDbMText
 10
195.3140511252768
 20
22.30664289311471
 30
0.0
 40
10.0
 41
0.0
 71
     1
 72
     5
  1
\Ftxt.shx,bigfont.shx|c128;図  面  番  号
  7
JL
 73
     1
 44
1.0
  0
MTEXT
  5
BE32
330
18
100
AcDbEntity
  8
0
 62
     7
 48
2.0
100
AcDbMText
 10
243.6521701307729
 20
44.58313650907121
 30
0.0
 40
9.0
 41
0.0
 71
     5
 72
     1
  1
\P\Ftxt.shx,bigfont.shx|c128;    精密ロックナット
 73
     1
 44
1.0
  0
MTEXT
  5
BE33
330
18
100
AcDbEntity
  8
0
370
    25
100
AcDbMText
 10
197.60058461072
 20
59.61377630807942
 30
0.0
 40
10.0
 41
0.0
 71
     1
 72
     5
  1
\Ftxt.shx,bigfont.shx|c128;品  名
  7
JL
 73
     1
 44
1.0
  0
LINE
  5
BE34
330
18
100
AcDbEntity
  8
図框線
100
AcDbLine
 10
192.0000000000004
 20
64.0
 30
0.0
 11
192.0000000000004
 21
0.3820832218502801
 31
0.0
  0
LINE
  5
BE35
330
18
100
AcDbEntity
  8
図框線
100
AcDbLine
 10
152.0000000000004
 20
64.0
 30
0.0
 11
152.0000000000004
 21
24.0
 31
0.0
  0
LINE
  5
BE36
330
18
100
AcDbEntity
  8
図框線
100
AcDbLine
 10
306.447120381737
 20
64.0
 30
0.0
 11
306.447120381737
 21
24.0
 31
0.0
  0
MTEXT
  5
BE37
330
18
100
AcDbEntity
  8
0
100
AcDbMText
 10
277.4540395625049
 20
474.8758613522959
 30
0.0
 40
8.8
 41
327.2117257699345
 71
     1
 72
     5
  1
\Ftxt.shx,bigfont.shx|c128;表 面 処 理
  7
JL
 73
     1
 44
1.0
  0
MTEXT
  5
BE38
330
18
100
AcDbEntity
  8
0
100
AcDbMText
 10
278.0341712593749
 20
460.2989156450801
 30
0.0
 40
8.8
 41
332.3436
 71
     1
 72
     5
  1
\Ftxt.shx,bigfont.shx|c128;等     　級
  7
JL
 73
     1
 44
1.0
  0
LINE
  5
BE39
330
18
100
AcDbEntity
  8
図框線
100
AcDbLine
 10
390.969716669903
 20
506.3333365810576
 30
0.0
 11
390.969716669903
 21
448.7333365810579
 31
0.0
  0
MTEXT
  5
BE3A
330
18
100
AcDbEntity
  8
0
100
AcDbMText
 10
328.4637232887881
 20
488.5304024319968
 30
0.0
 40
8.8
 41
583.7920113715775
 71
     1
 72
     5
  1
\Ftxt.shx,bigfont.shx|c128;調質　HRC30%%d%%p２%%d
  7
JL
 73
     1
 44
1.0
  0
MTEXT
  5
BE3B
330
18
100
AcDbEntity
  8
0
370
    25
100
AcDbMText
 10
314.4989470574851
 20
59.17139528187135
 30
0.0
 40
10.0
 41
0.0
 71
     1
 72
     5
  1
\Ftxt.shx,bigfont.shx|c128;型  番
  7
JL
 73
     1
 44
1.0
  0
MTEXT
  5
BE3C
330
18
100
AcDbEntity
  8
0
100
AcDbMText
 10
345.5745302446785
 20
22.47400406782845
 30
0.0
 40
10.0
 41
0.0
 71
     1
 72
     5
  1
\Ftxt.shx,bigfont.shx|c128;変更
  7
JL
 73
     1
 44
1.0
  0
LINE
  5
BE3D
330
18
100
AcDbEntity
  8
図框線
100
AcDbLine
 10
342.0000000000005
 20
24.01814055685463
 30
0.0
 11
342.0000000000005
 21
0.0
 31
0.0
  0
MTEXT
  5
BE3E
330
18
100
AcDbEntity
  8
0
100
AcDbMText
 10
328.9850012916609
 20
460.3001367879824
 30
0.0
 40
8.8
 41
581.5667295937819
 71
     1
 72
     5
  1
\Ftxt.shx,bigfont.shx|c128;ＩＳＯ - ４Ｈ
  7
JL
 73
     1
 44
1.0
  0
MTEXT
  5
BE3F
330
18
100
AcDbEntity
  8
0
100
AcDbMText
 10
329.3339236879215
 20
474.1700754783862
 30
0.0
 40
8.8
 41
582.9095999999999
 71
     1
 72
     5
  1
\Ftxt.shx,bigfont.shx|c128;黒  　    染
  7
JL
 73
     1
 44
1.0
  0
MTEXT
  5
BE40
330
18
100
AcDbEntity
  8
0
100
AcDbMText
 10
120.1263720151805
 20
540.1917005150899
 30
0.0
 40
10.0
 41
0.0
 71
     1
 72
     5
  1
\Ftxt.shx,bigfont.shx|c128;M8X1.25-10L
  7
JL
 73
     1
 44
1.0
  0
MTEXT
  5
BE41
330
18
100
AcDbEntity
  8
0
100
AcDbMText
 10
120.1263720151805
 20
524.1917005150899
 30
0.0
 40
10.0
 41
0.0
 71
     1
 72
     5
  1
\Ftxt.shx,bigfont.shx|c128;%%c7X7L
  7
JL
 73
     1
 44
1.0
  0
LINE
  5
BE42
330
18
100
AcDbEntity
  8
図框線
100
AcDbLine
 10
0.0
 20
527.9999999999997
 30
0.0
 11
396.0
 21
527.9999999999997
 31
0.0
  0
LINE
  5
BE43
330
18
100
AcDbEntity
  8
図框線
100
AcDbLine
 10
0.0
 20
543.9999999999997
 30
0.0
 11
396.0
 21
543.9999999999997
 31
0.0
  0
LINE
  5
BE44
330
18
100
AcDbEntity
  8
図框線
 62
     9
100
AcDbLine
 10
0.0
 20
559.9999999999997
 30
0.0
 11
396.0
 21
559.9999999999997
 31
0.0
  0
LINE
  5
BE45
330
18
100
AcDbEntity
  8
図框線
100
AcDbLine
 10
0.0
 20
580.0
 30
0.0
 11
396.0
 21
580.0
 31
0.0
  0
MTEXT
  5
BE46
330
18
100
AcDbEntity
  8
0
100
AcDbMText
 10
118.8326051936351
 20
574.6311904102208
 30
0.0
 40
10.0
 41
0.0
 71
     1
 72
     5
  1
\Ftxt.shx,bigfont.shx|c128;図    番 / 規　　格
  7
JL
 73
     1
 44
1.0
  0
LINE
  5
BE47
330
18
100
AcDbEntity
  8
図框線
100
AcDbLine
 10
0.0
 20
527.9999999999997
 30
0.0
 11
396.0
 21
527.9999999999997
 31
0.0
  0
LINE
  5
BE48
330
18
100
AcDbEntity
  8
図框線
100
AcDbLine
 10
0.0
 20
511.9999999999997
 30
0.0
 11
396.0
 21
511.9999999999997
 31
0.0
  0
MTEXT
  5
BE49
330
18
100
AcDbEntity
  8
0
100
AcDbMText
 10
44.02869828282518
 20
573.5776051639654
 30
0.0
 40
10.0
 41
0.0
 71
     1
 72
     5
  1
\Ftxt.shx,bigfont.shx|c128;品　          名
  7
JL
 73
     1
 44
1.0
  0
MTEXT
  5
BE4A
330
18
100
AcDbEntity
  8
0
100
AcDbMText
 10
37.73007522608486
 20
541.0597099590691
 30
0.0
 40
12.0
 41
0.0
 71
     1
 72
     5
  1
\Ftxt.shx,bigfont.shx|c128;セットスクリュ-
  7
JL
 73
     1
 44
1.0
  0
MTEXT
  5
BE4B
330
18
100
AcDbEntity
  8
0
100
AcDbMText
 10
37.33882918009522
 20
556.7321301010806
 30
0.0
 40
12.0
 41
0.0
 71
     1
 72
     5
  1
\Ftxt.shx,bigfont.shx|c128;ロックナット　  
  7
JL
 73
     1
 44
1.0
  0
MTEXT
  5
BE4C
330
18
100
AcDbEntity
  8
0
100
AcDbMText
 10
37.73007522608486
 20
525.0597099590691
 30
0.0
 40
12.0
 41
0.0
 71
     1
 72
     5
  1
\Ftxt.shx,bigfont.shx|c128;ロックピン 
  7
JL
 73
     1
 44
1.0
  0
LINE
  5
BE4D
330
18
100
AcDbEntity
  8
図框線
100
AcDbLine
 10
30.0
 20
579.9999999999995
 30
0.0
 11
30.00000000000068
 21
511.9999999999997
 31
0.0
  0
LINE
  5
BE4E
330
18
100
AcDbEntity
  8
0
100
AcDbLine
 10
30.0
 20
579.9999999999995
 30
0.0
 11
30.0
 21
527.9999999999997
 31
0.0
  0
MTEXT
  5
BE4F
330
18
100
AcDbEntity
  8
0
100
AcDbMText
 10
12.43057817478143
 20
525.4872818712787
 30
0.0
 40
10.0
 41
0.0
 71
     1
 72
     5
  1
\Ftxt.shx,bigfont.shx|c128;3
  7
JL
 73
     1
 44
1.0
  0
MTEXT
  5
BE50
330
18
100
AcDbEntity
  8
0
100
AcDbMText
 10
14.20391405333407
 20
557.1597020132908
 30
0.0
 40
10.0
 41
0.0
 71
     1
 72
     5
  1
\Ftxt.shx,bigfont.shx|c128;1
  7
JL
 73
     1
 44
1.0
  0
MTEXT
  5
BE51
330
18
100
AcDbEntity
  8
0
100
AcDbMText
 10
12.43057817478143
 20
541.4872818712788
 30
0.0
 40
10.0
 41
0.0
 71
     1
 72
     5
  1
\Ftxt.shx,bigfont.shx|c128;2
  7
JL
 73
     1
 44
1.0
  0
MTEXT
  5
BE52
330
18
100
AcDbEntity
  8
0
100
AcDbMText
 10
4.418167983685179
 20
574.1770508328113
 30
0.0
 40
10.0
 41
0.0
 71
     1
 72
     5
  1
\Ftxt.shx,bigfont.shx|c128;照   号
  7
JL
 73
     1
 44
1.0
  0
LINE
  5
BE53
330
18
100
AcDbEntity
  8
図框線
 62
     9
100
AcDbLine
 10
110.0
 20
579.9999999999995
 30
0.0
 11
110.0
 21
511.9999999999999
 31
0.0
  0
MTEXT
  5
BE54
330
18
100
AcDbEntity
  8
0
100
AcDbMText
 10
292.6707531850762
 20
575.1608099484737
 30
0.0
 40
10.0
 41
0.0
 71
     1
 72
     5
  1
\Ftxt.shx,bigfont.shx|c128;備           考
  7
JL
 73
     1
 44
1.0
  0
LINE
  5
BE55
330
18
100
AcDbEntity
  8
図框線
 62
     9
100
AcDbLine
 10
190.0
 20
579.9999999999998
 30
0.0
 11
190.0
 21
511.9999999999997
 31
0.0
  0
MTEXT
  5
BE56
330
18
100
AcDbEntity
  8
0
100
AcDbMText
 10
193.567740595528
 20
524.7321301010806
 30
0.0
 40
10.0
 41
0.0
 71
     1
 72
     5
  1
\Ftxt.shx,bigfont.shx|c128;C3604
  7
JL
 73
     1
 44
1.0
  0
MTEXT
  5
BE57
330
18
100
AcDbEntity
  8
0
100
AcDbMText
 10
193.567740595528
 20
556.7321301010806
 30
0.0
 40
10.0
 41
0.0
 71
     1
 72
     5
  1
\Ftxt.shx,bigfont.shx|c128;SCM-440
  7
JL
 73
     1
 44
1.0
  0
MTEXT
  5
BE58
330
18
100
AcDbEntity
  8
0
100
AcDbMText
 10
193.567740595528
 20
540.7321301010806
 30
0.0
 40
10.0
 41
0.0
 71
     1
 72
     5
  1
\Ftxt.shx,bigfont.shx|c128;SCM435
  7
JL
 73
     1
 44
1.0
  0
MTEXT
  5
BE59
330
18
100
AcDbEntity
  8
0
100
AcDbMText
 10
199.6006499889086
 20
575.1608099484737
 30
0.0
 40
10.0
 41
0.0
 71
     1
 72
     5
  1
\Ftxt.shx,bigfont.shx|c128;材　質
  7
JL
 73
     1
 44
1.0
  0
LINE
  5
BE5A
330
18
100
AcDbEntity
  8
図框線
 62
     9
100
AcDbLine
 10
230.0
 20
579.9999999999998
 30
0.0
 11
230.0
 21
511.9999999999997
 31
0.0
  0
LINE
  5
BE5B
330
18
100
AcDbEntity
  8
図框線
100
AcDbLine
 10
260.0
 20
579.9999999999998
 30
0.0
 11
260.0
 21
511.9999999999997
 31
0.0
  0
MTEXT
  5
BE5C
330
18
100
AcDbEntity
  8
0
100
AcDbMText
 10
242.4305781747812
 20
525.4872818712787
 30
0.0
 40
10.0
 41
0.0
 71
     1
 72
     5
  1
\Ftxt.shx,bigfont.shx|c128;3
  7
JL
 73
     1
 44
1.0
  0
MTEXT
  5
BE5D
330
18
100
AcDbEntity
  8
0
100
AcDbMText
 10
244.2039140533339
 20
557.1597020132908
 30
0.0
 40
10.0
 41
0.0
 71
     1
 72
     5
  1
\Ftxt.shx,bigfont.shx|c128;1
  7
JL
 73
     1
 44
1.0
  0
MTEXT
  5
BE5E
330
18
100
AcDbEntity
  8
0
100
AcDbMText
 10
242.4305781747812
 20
541.4872818712788
 30
0.0
 40
10.0
 41
0.0
 71
     1
 72
     5
  1
\Ftxt.shx,bigfont.shx|c128;3
  7
JL
 73
     1
 44
1.0
  0
MTEXT
  5
BE5F
330
18
100
AcDbEntity
  8
0
100
AcDbMText
 10
232.8674806238346
 20
575.1608099484737
 30
0.0
 40
10.0
 41
0.0
 71
     1
 72
     5
  1
\Ftxt.shx,bigfont.shx|c128;数   量
  7
JL
 73
     1
 44
1.0
  0
DIMENSION
  5
BE60
330
18
100
AcDbEntity
  8
0
100
AcDbDimension
  2
*D1
 10
226.0201019934127
 20
153.1377808383771
 30
0.0
 11
176.0201019934126
 21
153.1377808383771
 31
0.0
 70
   160
  1
M<>X2.0P
 71
     5
 42
100.0
  3
A
100
AcDbAlignedDimension
 13
126.0201019934127
 23
184.1281112170569
 33
0.0
 14
226.0201019934127
 24
184.128111217057
 34
0.0
100
AcDbRotatedDimension
  0
LEADER
  5
BE61
330
18
100
AcDbEntity
  8
DIM
 62
     6
100
AcDbLeader
  3
A
 73
     0
 74
     0
 75
     1
 40
6.0
 41
9.999999999999998
 76
     3
 10
126.2701019934127
 20
206.4614445503902
 30
0.0
 10
137.5721714740762
 20
222.9879323685334
 30
0.0
 10
142.5721714740762
 20
222.9879323685334
 30
0.0
340
BE62
  0
MTEXT
  5
BE62
102
{ACAD_REACTORS
330
BE61
102
}
330
18
100
AcDbEntity
  8
DIM
 62
     3
100
AcDbMText
 10
143.5721714740762
 20
226.9879323685334
 30
0.0
 40
6.0
 41
0.0
 71
     4
 72
     1
  1
\A1;C2
  7
TXT
 73
     1
 44
1.0
  0
DIMENSION
  5
BE63
330
18
100
AcDbEntity
  8
DIM
100
AcDbDimension
  2
*D2
 10
235.0201019934127
 20
246.3438277105236
 30
0.0
 11
176.0201019934127
 21
250.3438277105237
 31
0.0
 70
    32
  1
%%c<>%%p0.5
 71
     5
 42
118.0
  3
A
100
AcDbAlignedDimension
 13
117.0201019934127
 23
209.4614445503903
 33
0.0
 14
235.0201019934127
 24
209.461444550388
 34
0.0
100
AcDbRotatedDimension
  0
DIMENSION
  5
BE64
330
18
100
AcDbEntity
  8
DIM
100
AcDbDimension
  2
*D3
 10
240.0201019934128
 20
257.1579310734154
 30
0.0
 11
168.6782588700564
 21
259.8614563544278
 31
0.0
 70
   160
  1
%%c<>
 71
     5
 42
128.0000000000001
  3
A
100
AcDbAlignedDimension
 13
112.0201019934127
 23
206.9614445503902
 33
0.0
 14
240.0201019934128
 24
206.9614445503902
 34
0.0
100
AcDbRotatedDimension
  0
DIMENSION
  5
BE65
330
18
100
AcDbEntity
  8
0
100
AcDbDimension
  2
*D4
 10
284.9903579694369
 20
154.8077173787905
 30
0.0
 11
302.0745714275962
 21
184.3984430956736
 31
0.0
 70
   161
  1
9%%p0.5
 71
     5
 42
9.240000000000122
  3
A
100
AcDbAlignedDimension
 13
240.0570512915888
 23
191.419407059451
 33
0.0
 14
235.4370512915886
 24
183.4173323284827
 34
0.0
  0
MTEXT
  5
BE66
102
{ACAD_REACTORS
330
BE67
102
}
330
18
100
AcDbEntity
  8
DIM
 62
     3
100
AcDbMText
 10
204.0252919893305
 20
172.7823015939264
 30
0.0
 40
6.0
 41
0.0
 71
     6
 72
     1
  1
\A1;C2
  7
TXT
 73
     1
 44
1.0
  0
LEADER
  5
BE67
330
18
100
AcDbEntity
  8
DIM
 62
     6
100
AcDbLeader
  3
A
 73
     0
 75
     1
 40
6.0
 41
9.999999999999998
 76
     3
 10
225.7701019934127
 20
184.4614445503903
 30
0.0
 10
210.0252919893305
 20
168.7823015939264
 30
0.0
 10
205.0252919893305
 20
168.7823015939264
 30
0.0
340
BE66
  0
MTEXT
  5
BE68
102
{ACAD_REACTORS
330
BE69
102
}
330
18
100
AcDbEntity
  8
DIM
 62
     3
100
AcDbMText
 10
262.8720699710489
 20
230.050813164812
 30
0.0
 40
6.0
 41
0.0
 71
     4
 72
     1
  1
\A1;R2
  7
TXT
 73
     1
 44
1.0
  0
LEADER
  5
BE69
330
18
100
AcDbEntity
  8
DIM
 62
     6
100
AcDbLeader
  3
A
 73
     0
 74
     0
 75
     1
 40
6.0
 41
9.999999999999998
 76
     3
 10
239.4343155557858
 20
208.3756581127633
 30
0.0
 10
256.8720699710488
 20
226.050813164812
 30
0.0
 10
261.8720699710489
 20
226.050813164812
 30
0.0
340
BE68
1001
ACAD
1000
DSTYLE
1002
{
1070
    45
1040
0.0
1002
}
  0
DIMENSION
  5
BE6A
330
18
100
AcDbEntity
  8
0
100
AcDbDimension
  2
*D5
 10
89.22973752817529
 20
208.9614445503902
 30
0.0
 11
89.22973752817529
 21
230.9573791422944
 31
0.0
 70
   160
 71
     5
 42
0.5
  3
A
100
AcDbAlignedDimension
 13
117.0201019934127
 23
209.4614445503903
 33
0.0
 14
114.0201019934127
 24
208.9614445503902
 34
0.0
 50
90.0
100
AcDbRotatedDimension
  0
DIMENSION
  5
BE6B
330
18
100
AcDbEntity
  8
DIM
100
AcDbDimension
  2
*D6
 10
226.5201019934127
 20
236.2506651688494
 30
0.0
 11
176.0201019934127
 21
240.2506651688494
 31
0.0
 70
    32
  1
%%c<>
 71
     5
 42
101.0
  3
A
100
AcDbAlignedDimension
 13
125.5201019934127
 23
209.4614445503903
 33
0.0
 14
226.5201019934127
 24
209.46144455039
 34
0.0
100
AcDbRotatedDimension
  0
DIMENSION
  5
BE6C
330
18
100
AcDbEntity
  8
DIM
100
AcDbDimension
  2
*D7
 10
261.0142493952712
 20
187.4582946806762
 30
0.0
 11
257.0142493952712
 21
198.4598696155332
 31
0.0
 70
    32
 71
     5
 42
22.00314986971392
  3
A
100
AcDbAlignedDimension
 13
235.0201019934127
 23
209.4614445503902
 33
0.0
 14
237.7701019934127
 24
187.4582946806762
 34
0.0
 50
90.0
100
AcDbRotatedDimension
  0
DIMENSION
  5
BE6D
330
18
100
AcDbEntity
  8
DIM
100
AcDbDimension
  2
*D8
 10
280.8647181464916
 20
209.4614445503902
 30
0.0
 11
279.7186708859745
 21
190.6043452539815
 31
0.0
 70
   160
 71
     5
 42
26.04411222190746
  3
A
100
AcDbAlignedDimension
 13
235.4370512915886
 23
183.4173323284827
 33
0.0
 14
235.0201019934127
 24
209.4614445503902
 34
0.0
 50
90.0
100
AcDbRotatedDimension
  0
DIMENSION
  5
BE6E
330
18
100
AcDbEntity
  8
DIM
100
AcDbDimension
  2
*D9
 10
186.5663130215578
 20
209.4614445503903
 30
0.0
 11
186.5663130215578
 21
223.998557838483
 31
0.0
 70
   160
 71
     5
 42
1.999999999999744
  3
A
100
AcDbAlignedDimension
 13
190.3485779150776
 23
207.4614445503905
 33
0.0
 14
190.3485779150776
 24
209.4614445503903
 34
0.0
 50
90.0
100
AcDbRotatedDimension
  0
LINE
  5
BE6F
330
18
100
AcDbEntity
  8
本体内線
  6
HIDDEN
 48
0.2
100
AcDbLine
 10
236.4573252436812
 20
190.3948594854739
 30
0.0
 11
234.5705738977338
 21
189.3055430879967
 31
0.0
  0
LINE
  5
BE70
330
18
100
AcDbEntity
  8
本体内線
  6
HIDDEN
 48
0.2
100
AcDbLine
 10
234.5705738977335
 20
189.3055430879965
 30
0.0
 11
234.5705738977333
 21
187.1269102930424
 31
0.0
  0
LINE
  5
BE71
330
18
100
AcDbEntity
  8
本体内線
  6
HIDDEN
 48
0.2
100
AcDbLine
 10
238.7134776663868
 20
189.0922692768919
 30
0.0
 11
236.4573252436812
 21
190.3948594854739
 31
0.0
  0
LINE
  5
BE72
330
18
100
AcDbEntity
  8
本体内線
  6
HIDDEN
 48
0.2
100
AcDbLine
 10
236.8267263204387
 20
185.8243200844606
 30
0.0
 11
234.5705738977333
 21
187.1269102930424
 31
0.0
  0
LINE
  5
BE73
330
18
100
AcDbEntity
  8
0
100
AcDbLine
 10
230.8118492334481
 20
193.7850448614902
 30
0.0
 11
233.543900041017
 21
194.5170956690591
 31
0.0
  0
LINE
  5
BE74
330
18
100
AcDbEntity
  8
0
100
AcDbLine
 10
228.8118492334481
 20
190.3209432463525
 30
0.0
 11
229.543900041017
 21
187.5888924387836
 31
0.0
  0
LINE
  5
BE75
330
18
100
AcDbEntity
  8
0
100
AcDbLine
 10
233.543900041017
 20
194.5170956690591
 30
0.0
 11
229.543900041017
 21
187.5888924387836
 31
0.0
  0
LINE
  5
BE76
330
18
100
AcDbEntity
  8
0
100
AcDbLine
 10
239.0772816703852
 20
189.722396295814
 30
0.0
 11
231.651079717989
 21
194.0099159920866
 31
0.0
  0
LINE
  5
BE77
330
18
100
AcDbEntity
  8
0
100
AcDbLine
 10
236.4629223164404
 20
185.1941930655389
 30
0.0
 11
229.0367203640446
 21
189.481712761811
 31
0.0
  0
LINE
  5
BE78
330
18
100
AcDbEntity
  8
0
100
AcDbLine
 10
231.5618492334484
 20
195.0840829671666
 30
0.0
 11
228.0618492334483
 21
189.0219051406756
 31
0.0
  0
LINE
  5
BE79
330
18
100
AcDbEntity
  8
0
100
AcDbLine
 10
231.5618492334484
 20
195.0840829671666
 30
0.0
 11
225.0201019934127
 21
198.8609624971715
 31
0.0
  0
LINE
  5
BE7A
330
18
100
AcDbEntity
  8
0
100
AcDbLine
 10
228.0618492334483
 20
189.0219051406756
 30
0.0
 11
225.0201019934127
 21
190.778058728517
 31
0.0
  0
LWPOLYLINE
  5
BE7B
330
18
100
AcDbEntity
  8
0
100
AcDbPolyline
 90
        2
 70
     0
 43
0.0
 10
239.7701019934129
 20
190.9223962958143
 10
225.0201019934127
 20
199.4383127663613
  0
LWPOLYLINE
  5
BE7C
330
18
100
AcDbEntity
  8
0
100
AcDbPolyline
 90
        2
 70
     0
 43
0.0
 10
235.7701019934129
 20
183.9941930655388
 10
225.0201019934127
 20
190.2007084593274
  0
LINE
  5
BE7D
330
18
100
AcDbEntity
  8
本体内線
  6
HIDDEN
 48
0.2
100
AcDbLine
 10
234.5705738977333
 20
187.1269102930425
 30
0.0
 11
236.4573252436812
 21
190.3948594854739
 31
0.0
  0
HATCH
  5
BE7E
330
18
100
AcDbEntity
  8
0
100
AcDbHatch
 10
0.0
 20
0.0
 30
0.0
210
0.0
220
0.0
230
1.0
  2
AR-SAND
 70
     0
 71
     0
 91
        2
 92
        7
 72
     0
 73
     1
 93
        4
 10
225.0201019934127
 20
198.8609624971715
 10
225.0201019934127
 20
194.8195106128439
 10
229.8118492334483
 20
192.0529940539209
 10
231.5618492334484
 20
195.0840829671666
 97
        0
 92
        7
 72
     0
 73
     1
 93
        4
 10
225.0201019934127
 20
194.8195106128439
 10
225.0201019934127
 20
190.778058728517
 10
228.0618492334483
 20
189.0219051406756
 10
229.8118492334481
 20
192.0529940539209
 97
        0
 75
     0
 76
     1
 52
0.0
 41
0.06
 77
     0
 78
     4
 53
37.5
 43
-20.07898149144029
 44
-21.76428177007565
 45
-0.0960018777590428
 46
2.936479423976054
 79
     6
 49
0.0
 49
-2.31648
 49
0.0
 49
-2.590799999999999
 49
0.0
 49
-2.476499999999999
 53
7.499999999999999
 43
-20.07898149144029
 44
-21.76428177007565
 45
2.697139698828015
 46
4.300950603410125
 79
     6
 49
0.0
 49
-1.24968
 49
0.0
 49
-2.08788
 49
0.0
 49
-0.8001000000000001
 53
327.5
 43
-21.95350149144025
 44
-21.76428177007565
 45
4.745954221448747
 46
0.0086231080712741
 79
     6
 49
0.0
 49
-0.762
 49
0.0
 49
-2.743199999999999
 49
0.0
 49
-3.581399999999999
 53
317.5
 43
-21.95350149144025
 44
-21.76428177007565
 45
4.581338714833782
 46
1.337575939543297
 79
     6
 49
0.0
 49
-0.381
 49
0.0
 49
-1.798319999999999
 49
0.0
 49
-2.057399999999999
 47
0.0797825508318402
 98
        2
 10
228.8158689342947
 20
194.9306091821355
 10
227.5378972912197
 20
191.8190898271114
  0
MTEXT
  5
BE7F
330
18
100
AcDbEntity
  8
DIM
100
AcDbMText
 10
245.4507985257308
 20
429.8242669307259
 30
0.0
 40
4.0
 41
9.555074525974475
 71
     1
 72
     5
  1
+0.15\P+0
  7
TXT
 11
0.0000000000000001
 21
1.0
 31
0.0
 73
     1
 44
1.0
  0
MTEXT
  5
BE80
330
18
100
AcDbEntity
  8
DIM
100
AcDbMText
 10
187.2469032923752
 20
458.1134619689848
 30
0.0
 40
4.0
 41
8.84945634767439
 71
     1
 72
     5
  1
+0.15\P+0
  7
TXT
 73
     1
 44
1.0
  0
LEADER
  5
BE81
330
18
100
AcDbEntity
  8
DIM
 62
     6
100
AcDbLeader
  3
A
 76
     2
 10
238.4621670029851
 20
376.2276738078368
 30
0.0
 10
263.5149582547651
 20
395.8556200824366
 30
0.0
  0
MTEXT
  5
BE82
330
18
100
AcDbEntity
  8
DIM
100
AcDbMText
 10
265.3074501631586
 20
402.8605027289599
 30
0.0
 40
10.0
 41
1.0
 71
     1
 72
     5
  1
\Ftxt.shx,bigfont.shx|c128;1
 73
     1
 44
1.0
  0
DIMENSION
  5
BE83
330
18
100
AcDbEntity
  8
0
100
AcDbDimension
  2
*D10
 10
257.118717336645
 20
426.2968025827897
 30
0.0
 11
257.118717336645
 21
424.2840841927515
 31
0.0
 70
   160
 71
     5
 42
4.02543678007629
  3
A
100
AcDbAlignedDimension
 13
181.0201019934127
 23
422.2713658027134
 33
0.0
 14
181.0201019934127
 24
426.2968025827897
 34
0.0
 50
90.0
100
AcDbRotatedDimension
  0
DIMENSION
  5
BE84
330
18
100
AcDbEntity
  8
DIM
100
AcDbDimension
  2
*D11
 10
181.0201019934127
 20
446.7717014203721
 30
0.0
 11
201.2767577249779
 21
448.6533607362439
 31
0.0
 70
   160
  1
<>      (6等分)
 71
     5
 42
10.0
  3
A
100
AcDbAlignedDimension
 13
171.0201019934127
 23
425.9968025827896
 33
0.0
 14
181.0201019934127
 24
425.9968025827896
 34
0.0
100
AcDbRotatedDimension
  0
LINE
  5
BE85
330
18
100
AcDbEntity
  8
DIM
 62
     6
100
AcDbLine
 10
182.0201019934127
 20
446.7717014203721
 30
0.0
 11
231.9460076077578
 21
446.7717014203721
 31
0.0
  0
LINE
  5
BE86
330
18
100
AcDbEntity
  8
DIM
 62
     6
100
AcDbLine
 10
257.118717336645
 20
436.2968025827896
 30
0.0
 11
257.118717336645
 21
444.3268484824537
 31
0.0
  0
LINE
  5
BE87
330
18
100
AcDbEntity
  8
中心線
  6
CENTER
 48
0.3
100
AcDbLine
 10
176.0201019934127
 20
431.1924140189926
 30
0.0
 11
176.0201019934127
 21
293.1924140189926
 31
0.0
  0
ARC
  5
BE88
330
18
100
AcDbEntity
  8
本体外線
100
AcDbCircle
 10
176.0201019934127
 20
362.1924140189926
 30
0.0
 40
64.0
100
AcDbArc
 50
94.48079878598221
 51
145.5192012140166
  0
CIRCLE
  5
BE89
330
18
100
AcDbEntity
  8
本体外線
100
AcDbCircle
 10
176.0201019934127
 20
362.1924140189926
 30
0.0
 40
59.0
  0
ARC
  5
BE8A
330
18
100
AcDbEntity
  8
0
100
AcDbCircle
 10
176.0201019934127
 20
362.1924140189926
 30
0.0
 40
50.0
100
AcDbArc
 50
167.7884761699336
 51
101.1303270346729
  0
CIRCLE
  5
BE8B
330
18
100
AcDbEntity
  8
本体外線
100
AcDbCircle
 10
176.0201019934127
 20
362.1924140189926
 30
0.0
 40
49.0
  0
LINE
  5
BE8C
330
18
100
AcDbEntity
  8
中心線
  6
CENTER
 48
0.3
100
AcDbLine
 10
244.9833965318892
 20
362.1924140189924
 30
0.0
 11
107.0568074549362
 21
362.1924140189928
 31
0.0
  0
LINE
  5
BE8D
330
18
100
AcDbEntity
  8
本体外線
 48
0.2
100
AcDbLine
 10
171.0201019934127
 20
425.9968025827896
 30
0.0
 11
171.0201019934127
 21
422.1924140189925
 31
0.0
  0
LINE
  5
BE8E
330
18
100
AcDbEntity
  8
本体外線
 48
0.2
100
AcDbLine
 10
181.0201019934127
 20
425.9968025827896
 30
0.0
 11
181.0201019934127
 21
422.1924140189925
 31
0.0
  0
LINE
  5
BE8F
330
18
100
AcDbEntity
  8
本体外線
 48
0.5
100
AcDbLine
 10
181.0201019934127
 20
422.1924140189925
 30
0.0
 11
171.0201019934127
 21
422.1924140189925
 31
0.0
  0
LINE
  5
BE90
330
18
100
AcDbEntity
  8
本体外線
 48
0.2
100
AcDbLine
 10
118.2638806242311
 20
389.764481281969
 30
0.0
 11
121.5585777663464
 21
387.8622870000704
 31
0.0
  0
LINE
  5
BE91
330
18
100
AcDbEntity
  8
本体外線
 48
0.2
100
AcDbLine
 10
123.2638806242311
 20
398.4247353198133
 30
0.0
 11
126.5585777663464
 21
396.5225410379147
 31
0.0
  0
LINE
  5
BE92
330
18
100
AcDbEntity
  8
本体外線
 48
0.5
100
AcDbLine
 10
126.5585777663464
 20
396.5225410379147
 30
0.0
 11
121.5585777663464
 21
387.8622870000704
 31
0.0
  0
LINE
  5
BE93
330
18
100
AcDbEntity
  8
本体外線
 48
0.2
100
AcDbLine
 10
123.2638806242311
 20
325.9600927181719
 30
0.0
 11
126.5585777663464
 21
327.8622870000705
 31
0.0
  0
LINE
  5
BE94
330
18
100
AcDbEntity
  8
本体外線
 48
0.2
100
AcDbLine
 10
118.2638806242311
 20
334.6203467560163
 30
0.0
 11
121.5585777663464
 21
336.5225410379149
 31
0.0
  0
LINE
  5
BE95
330
18
100
AcDbEntity
  8
本体外線
 48
0.5
100
AcDbLine
 10
121.5585777663464
 20
336.5225410379149
 30
0.0
 11
126.5585777663464
 21
327.8622870000705
 31
0.0
  0
LINE
  5
BE96
330
18
100
AcDbEntity
  8
本体外線
 48
0.2
100
AcDbLine
 10
181.0201019934127
 20
298.3880254551955
 30
0.0
 11
181.0201019934127
 21
302.1924140189926
 31
0.0
  0
LINE
  5
BE97
330
18
100
AcDbEntity
  8
本体外線
 48
0.2
100
AcDbLine
 10
171.0201019934127
 20
298.3880254551955
 30
0.0
 11
171.0201019934127
 21
302.1924140189926
 31
0.0
  0
LINE
  5
BE98
330
18
100
AcDbEntity
  8
本体外線
 48
0.5
100
AcDbLine
 10
171.0201019934127
 20
302.1924140189926
 30
0.0
 11
181.0201019934127
 21
302.1924140189926
 31
0.0
  0
LINE
  5
BE99
330
18
100
AcDbEntity
  8
本体外線
 48
0.2
100
AcDbLine
 10
233.7763233625942
 20
334.6203467560163
 30
0.0
 11
230.4816262204789
 21
336.5225410379149
 31
0.0
  0
LINE
  5
BE9A
330
18
100
AcDbEntity
  8
本体外線
 48
0.2
100
AcDbLine
 10
228.7763233625942
 20
325.9600927181719
 30
0.0
 11
225.4816262204789
 21
327.8622870000705
 31
0.0
  0
LINE
  5
BE9B
330
18
100
AcDbEntity
  8
本体外線
 48
0.5
100
AcDbLine
 10
225.4816262204789
 20
327.8622870000705
 30
0.0
 11
230.4816262204789
 21
336.5225410379149
 31
0.0
  0
LINE
  5
BE9C
330
18
100
AcDbEntity
  8
本体外線
 48
0.2
100
AcDbLine
 10
228.7763233625943
 20
398.4247353198133
 30
0.0
 11
225.4816262204789
 21
396.5225410379147
 31
0.0
  0
LINE
  5
BE9D
330
18
100
AcDbEntity
  8
本体外線
 48
0.2
100
AcDbLine
 10
233.7763233625943
 20
389.7644812819689
 30
0.0
 11
230.4816262204789
 21
387.8622870000704
 31
0.0
  0
LINE
  5
BE9E
330
18
100
AcDbEntity
  8
本体外線
 48
0.5
100
AcDbLine
 10
230.4816262204789
 20
387.8622870000704
 30
0.0
 11
225.4816262204789
 21
396.5225410379147
 31
0.0
  0
ARC
  5
BE9F
330
18
100
AcDbEntity
  8
本体外線
100
AcDbCircle
 10
176.0201019934127
 20
362.1924140189926
 30
0.0
 40
64.0
100
AcDbArc
 50
154.4807987859812
 51
205.5192012140188
  0
ARC
  5
BEA0
330
18
100
AcDbEntity
  8
本体外線
100
AcDbCircle
 10
176.0201019934127
 20
362.1924140189926
 30
0.0
 40
64.0
100
AcDbArc
 50
214.4807987859833
 51
265.5192012140178
  0
ARC
  5
BEA1
330
18
100
AcDbEntity
  8
本体外線
100
AcDbCircle
 10
176.0201019934127
 20
362.1924140189926
 30
0.0
 40
64.0
100
AcDbArc
 50
274.4807987859822
 51
325.5192012140166
  0
ARC
  5
BEA2
330
18
100
AcDbEntity
  8
本体外線
100
AcDbCircle
 10
176.0201019934127
 20
362.1924140189926
 30
0.0
 40
64.0
100
AcDbArc
 50
334.4807987859812
 51
25.5192012140188
  0
ARC
  5
BEA3
330
18
100
AcDbEntity
  8
本体外線
100
AcDbCircle
 10
176.0201019934127
 20
362.1924140189926
 30
0.0
 40
64.0
100
AcDbArc
 50
34.48079878598333
 51
85.51920121401778
  0
LINE
  5
BEA4
330
18
100
AcDbEntity
  8
本体内線
  6
HIDDEN
 48
0.4
100
AcDbLine
 10
239.894979684098
 20
366.1924140189924
 30
0.0
 11
224.8565637817119
 21
366.1924140189925
 31
0.0
  0
LINE
  5
BEA5
330
18
100
AcDbEntity
  8
本体内線
  6
HIDDEN
 48
0.4
100
AcDbLine
 10
239.894979684098
 20
358.1924140189924
 30
0.0
 11
224.8565637817119
 21
358.1924140189925
 31
0.0
  0
LINE
  5
BEA6
330
18
100
AcDbEntity
  8
本体内線
  6
HIDDEN
 48
0.4
100
AcDbLine
 10
239.9297256818682
 20
365.5924140189924
 30
0.0
 11
224.902000483549
 21
365.5924140189925
 31
0.0
  0
LINE
  5
BEA7
330
18
100
AcDbEntity
  8
本体内線
  6
HIDDEN
 48
0.4
100
AcDbLine
 10
239.9297256818682
 20
358.7924140189925
 30
0.0
 11
224.902000483549
 21
358.7924140189926
 31
0.0
  0
LINE
  5
BEA8
330
18
100
AcDbEntity
  8
中心線
  6
CENTER
 48
0.3
100
AcDbLine
 10
142.5201019934129
 20
420.21611607255
 30
0.0
 11
153.0201019934128
 21
402.0295825930769
 31
0.0
  0
LINE
  5
BEA9
330
18
100
AcDbEntity
  8
本体内線
  6
HIDDEN
 48
0.4
100
AcDbLine
 10
140.6185615329325
 20
415.5096807627499
 30
0.0
 11
148.1377694841254
 21
402.4860305586076
 31
0.0
  0
LINE
  5
BEAA
330
18
100
AcDbEntity
  8
本体内線
  6
HIDDEN
 48
0.3
100
AcDbLine
 10
147.546764763208
 20
419.5096807627499
 30
0.0
 11
155.065972714401
 21
406.4860305586076
 31
0.0
  0
LINE
  5
BEAB
330
18
100
AcDbEntity
  8
本体内線
  6
HIDDEN
 48
0.4
100
AcDbLine
 10
141.120803776318
 20
415.8397716794988
 30
0.0
 11
148.6346663754775
 21
402.8253798966629
 31
0.0
  0
LINE
  5
BEAC
330
18
100
AcDbEntity
  8
本体内線
  6
HIDDEN
 48
0.4
100
AcDbLine
 10
147.0097765220522
 20
419.2397716794988
 30
0.0
 11
154.5236391212116
 21
406.2253798966628
 31
0.0
  0
LINE
  5
BEAD
330
18
100
AcDbEntity
  8
中心線
  6
CENTER
 48
0.3
100
AcDbLine
 10
142.5201019934126
 20
304.1687119654353
 30
0.0
 11
153.0201019934127
 21
322.3552454449085
 31
0.0
  0
LINE
  5
BEAE
330
18
100
AcDbEntity
  8
本体内線
  6
HIDDEN
 48
0.4
100
AcDbLine
 10
147.5467647632076
 20
304.8751472752353
 30
0.0
 11
155.0659727144008
 21
317.8987974793776
 31
0.0
  0
LINE
  5
BEAF
330
18
100
AcDbEntity
  8
本体内線
  6
HIDDEN
 48
0.4
100
AcDbLine
 10
140.6185615329321
 20
308.8751472752353
 30
0.0
 11
148.1377694841253
 21
321.8987974793776
 31
0.0
  0
LINE
  5
BEB0
330
18
100
AcDbEntity
  8
本体内線
  6
HIDDEN
 48
0.4
100
AcDbLine
 10
147.0097765220518
 20
305.1450563584863
 30
0.0
 11
154.5236391212115
 21
318.1594481413223
 31
0.0
  0
LINE
  5
BEB1
330
18
100
AcDbEntity
  8
本体内線
  6
HIDDEN
 48
0.4
100
AcDbLine
 10
141.1208037763177
 20
308.5450563584864
 30
0.0
 11
148.6346663754773
 21
321.5594481413223
 31
0.0
  0
LINE
  5
BEB2
330
18
100
AcDbEntity
  8
中心線
  6
CENTER
 48
0.3
100
AcDbLine
 10
176.0201019934127
 20
212.4614445503902
 30
0.0
 11
176.0201019934127
 21
180.4614445503902
 31
0.0
  0
LINE
  5
BEB3
330
18
100
AcDbEntity
  8
本体外線
100
AcDbLine
 10
117.0201019934127
 20
209.4614445503903
 30
0.0
 11
235.0201019934127
 21
209.4614445503902
 31
0.0
  0
LINE
  5
BEB4
330
18
100
AcDbEntity
  8
本体外線
100
AcDbLine
 10
116.577684492044
 20
183.4614445503902
 30
0.0
 11
235.4625194947814
 21
183.4614445503901
 31
0.0
  0
LINE
  5
BEB5
330
18
100
AcDbEntity
  8
本体外線
100
AcDbLine
 10
125.5201019934127
 20
207.4614445503902
 30
0.0
 11
226.5201019934127
 21
207.4614445503902
 31
0.0
  0
LINE
  5
BEB6
330
18
100
AcDbEntity
  8
本体外線
100
AcDbLine
 10
127.0201019934127
 20
185.4614445503902
 30
0.0
 11
225.0201019934127
 21
185.4614445503902
 31
0.0
  0
LINE
  5
BEB7
330
18
100
AcDbEntity
  8
本体外線
100
AcDbLine
 10
127.0201019934127
 20
205.4614445503903
 30
0.0
 11
225.0201019934127
 21
205.4614445503902
 31
0.0
  0
LINE
  5
BEB8
330
18
100
AcDbEntity
  8
本体外線
 48
0.2
100
AcDbLine
 10
112.0201019934127
 20
206.9614445503902
 30
0.0
 11
112.0201019934126
 21
191.3554089977062
 31
0.0
  0
LINE
  5
BEB9
330
18
100
AcDbEntity
  8
本体外線
 48
0.2
100
AcDbLine
 10
240.0201019934127
 20
206.9614445503902
 30
0.0
 11
240.0201019934127
 21
191.3554089977059
 31
0.0
  0
LINE
  5
BEBA
330
18
100
AcDbEntity
  8
本体外線
 48
0.2
100
AcDbLine
 10
117.0201019934127
 20
209.4614445503903
 30
0.0
 11
117.0201019934127
 21
208.9614445503902
 31
0.0
  0
LINE
  5
BEBB
330
18
100
AcDbEntity
  8
本体外線
 48
0.2
100
AcDbLine
 10
235.0201019934127
 20
209.4614445503902
 30
0.0
 11
235.0201019934127
 21
208.9614445503902
 31
0.0
  0
LINE
  5
BEBC
330
18
100
AcDbEntity
  8
本体外線
100
AcDbLine
 10
114.0201019934127
 20
208.9614445503902
 30
0.0
 11
117.0201019934127
 21
208.9614445503902
 31
0.0
  0
LINE
  5
BEBD
330
18
100
AcDbEntity
  8
本体外線
100
AcDbLine
 10
235.0201019934127
 20
208.9614445503902
 30
0.0
 11
238.0201019934127
 21
208.9614445503902
 31
0.0
  0
ARC
  5
BEBE
330
18
100
AcDbEntity
  8
本体外線
 48
0.2
100
AcDbCircle
 10
114.0201019934127
 20
206.9614445503902
 30
0.0
 40
2.0
100
AcDbArc
 50
90.0
 51
179.9999999999998
  0
ARC
  5
BEBF
330
18
100
AcDbEntity
  8
本体外線
 48
0.2
100
AcDbCircle
 10
238.0201019934127
 20
206.9614445503902
 30
0.0
 40
2.0
100
AcDbArc
 50
359.9999999999999
 51
90.0
  0
LINE
  5
BEC0
330
18
100
AcDbEntity
  8
本体外線
 48
0.2
100
AcDbLine
 10
125.5201019934127
 20
209.4614445503902
 30
0.0
 11
125.5201019934127
 21
207.4614445503902
 31
0.0
  0
LINE
  5
BEC1
330
18
100
AcDbEntity
  8
本体外線
 48
0.2
100
AcDbLine
 10
226.5201019934127
 20
209.4614445503902
 30
0.0
 11
226.5201019934127
 21
207.4614445503902
 31
0.0
  0
LINE
  5
BEC2
330
18
100
AcDbEntity
  8
0
 48
0.2
100
AcDbLine
 10
126.0201019934127
 20
206.7947778837236
 30
0.0
 11
126.0201019934127
 21
184.1281112170569
 31
0.0
  0
LINE
  5
BEC3
330
18
100
AcDbEntity
  8
0
 48
0.2
100
AcDbLine
 10
226.0201019934127
 20
206.7947778837235
 30
0.0
 11
226.0201019934127
 21
198.8609624971717
 31
0.0
  0
LINE
  5
BEC4
330
18
100
AcDbEntity
  8
本体外線
 48
0.2
100
AcDbLine
 10
127.0201019934127
 20
205.4614445503903
 30
0.0
 11
127.0201019934127
 21
185.4614445503902
 31
0.0
  0
LINE
  5
BEC5
330
18
100
AcDbEntity
  8
本体外線
 48
0.2
100
AcDbLine
 10
225.0201019934127
 20
205.4614445503902
 30
0.0
 11
225.0201019934127
 21
185.4614445503902
 31
0.0
  0
LINE
  5
BEC6
330
18
100
AcDbEntity
  8
本体外線
100
AcDbLine
 10
127.0201019934127
 20
205.4614445503903
 30
0.0
 11
125.5201019934127
 21
207.4614445503902
 31
0.0
  0
LINE
  5
BEC7
330
18
100
AcDbEntity
  8
本体外線
100
AcDbLine
 10
225.0201019934127
 20
205.4614445503902
 30
0.0
 11
226.5201019934127
 21
207.4614445503902
 31
0.0
  0
LINE
  5
BEC8
330
18
100
AcDbEntity
  8
本体外線
100
AcDbLine
 10
127.0201019934127
 20
185.4614445503902
 30
0.0
 11
125.5201019934127
 21
183.4614445503902
 31
0.0
  0
LINE
  5
BEC9
330
18
100
AcDbEntity
  8
本体外線
100
AcDbLine
 10
225.0201019934127
 20
185.4614445503903
 30
0.0
 11
226.5201019934127
 21
183.4614445503902
 31
0.0
  0
LINE
  5
BECA
330
18
100
AcDbEntity
  8
本体外線
 48
0.2
100
AcDbLine
 10
240.0201019934127
 20
191.3554089977061
 30
0.0
 11
235.4625194947814
 21
183.4614445503901
 31
0.0
  0
LINE
  5
BECB
330
18
100
AcDbEntity
  8
本体外線
 48
0.2
100
AcDbLine
 10
112.0201019934127
 20
191.3554089977061
 30
0.0
 11
116.577684492044
 21
183.4614445503901
 31
0.0
  0
LINE
  5
BECC
330
18
100
AcDbEntity
  8
中心線
  6
CENTER
 48
0.3
100
AcDbLine
 10
223.0148072675954
 20
195.9772680625991
 30
0.0
 11
239.4822548790528
 21
186.4697827512581
 31
0.0
  0
LINE
  5
BECD
330
18
100
AcDbEntity
  8
0
 48
0.2
100
AcDbLine
 10
226.0201019934127
 20
189.6233581901378
 30
0.0
 11
226.0201019934127
 21
184.128111217057
 31
0.0
  0
DIMENSION
  5
BECE
330
18
100
AcDbEntity
  8
DIM
100
AcDbDimension
  2
*D12
 10
235.0201019934127
 20
209.4614445503901
 30
0.0
 11
313.9640281054949
 21
178.8336461878487
 31
0.0
 70
    34
  1
30%%D
 71
     5
 42
0.523598775598301
  3
A
100
AcDb2LineAngularDimension
 13
223.0148072675954
 23
195.9772680625991
 33
0.0
 14
239.4822548790528
 24
186.4697827512581
 34
0.0
 15
117.0201019934127
 25
209.4614445503903
 35
0.0
 16
314.6184469431263
 26
167.6198200709319
 36
0.0
1001
ACAD
1000
DSTYLE
1002
{
1070
    79
1070
     2
1070
   179
1070
     1
1002
}
  0
MTEXT
  5
BECF
330
18
100
AcDbEntity
  8
DIM
100
AcDbMText
 10
274.1432249223642
 20
196.6213160913767
 30
0.0
 40
4.0
 41
22.96918919432704
 71
     1
 72
     5
  1
%%p0.5
  7
TXT
 11
0.0000000000000001
 21
1.0
 31
0.0
 73
     1
 44
1.0
  0
LINE
  5
BED0
330
18
100
AcDbEntity
  8
本体外線
 48
0.2
100
AcDbLine
 10
116.0201019934127
 20
208.9614445503903
 30
0.0
 11
116.0201019934125
 21
184.427205767431
 31
0.0
  0
HATCH
  5
BED1
330
18
100
AcDbEntity
  8
剖面線
100
AcDbHatch
 10
0.0
 20
0.0
 30
0.0
210
0.0
220
0.0
230
1.0
  2
ANSI31
 70
     0
 71
     0
 91
        6
 92
        7
 72
     0
 73
     1
 93
       10
 10
126.0201019934127
 20
206.7947778837235
 10
125.5201019934127
 20
207.4614445503902
 10
125.5201019934127
 20
209.4614445503903
 10
117.0201019934127
 20
209.4614445503903
 10
117.0201019934127
 20
208.9614445503902
 10
116.0201019934127
 20
208.9614445503902
 10
116.0201019934125
 20
184.427205767431
 10
116.5776844920439
 20
183.4614445503902
 10
125.5201019934127
 20
183.4614445503902
 10
126.0201019934127
 20
184.128111217057
 97
        0
 92
        7
 72
     0
 73
     1
 93
        4
 10
127.0201019934126
 20
205.4614445503903
 10
126.0201019934127
 20
206.7947778837236
 10
126.0201019934127
 20
184.128111217057
 10
127.0201019934127
 20
185.4614445503903
 97
        0
 92
        7
 72
     1
 73
     1
 93
       10
 10
226.0201019934127
 20
198.8609624971717
 42
0.0
 10
239.7701019934129
 20
190.9223962958143
 42
0.0
 10
240.0201019934127
 20
191.355408997706
 42
0.0
 10
240.0201019934127
 20
206.9614445503902
 42
0.4142135623730987
 10
238.0201019934127
 20
208.9614445503902
 42
0.0
 10
235.0201019934127
 20
208.9614445503902
 42
0.0
 10
235.0201019934127
 20
209.4614445503902
 42
0.0
 10
226.5201019934127
 20
209.4614445503902
 42
0.0
 10
226.5201019934127
 20
207.4614445503902
 42
0.0
 10
226.0201019934127
 20
206.7947778837235
 42
0.0
 97
        0
 92
        7
 72
     0
 73
     1
 93
        4
 10
225.0201019934127
 20
199.4383127663613
 10
226.0201019934127
 20
198.8609624971717
 10
226.0201019934127
 20
206.7947778837235
 10
225.0201019934127
 20
205.4614445503902
 97
        0
 92
        7
 72
     0
 73
     1
 93
        5
 10
226.0201019934127
 20
189.6233581901378
 10
226.0201019934127
 20
184.128111217057
 10
226.5201019934128
 20
183.4614445503901
 10
235.4625194947814
 20
183.4614445503901
 10
235.7701019934129
 20
183.9941930655388
 97
        0
 92
        7
 72
     0
 73
     1
 93
        4
 10
226.0201019934127
 20
189.6233581901377
 10
225.0201019934127
 20
190.2007084593274
 10
225.0201019934127
 20
185.4614445503903
 10
226.0201019934127
 20
184.128111217057
 97
        0
 75
     0
 76
     1
 52
0.0
 41
1.0
 77
     0
 78
     1
 53
45.0
 43
198.0000000000002
 44
-0.0000000000000568
 45
-2.245064030267287
 46
2.245064030267288
 79
     0
 47
0.197645045608498
 98
        6
 10
123.5589824357009
 20
202.5135801832511
 10
126.5987038633022
 20
199.4762954843487
 10
228.8763606359041
 20
203.2282346028775
 10
225.4790261557898
 20
200.726941401793
 10
227.9081569002585
 20
187.0528463817026
 10
225.7232927081921
 20
187.3975485738485
  0
LINE
  5
BFE8
330
18
100
AcDbEntity
  8
0
 62
     1
100
AcDbLine
 10
274.7358215952317
 20
208.0170284700204
 30
0.0
 11
274.7358215952317
 21
184.9030022164519
 31
0.0
  0
LINE
  5
BFF0
330
18
100
AcDbEntity
  8
0
 62
     1
100
AcDbLine
 10
277.5518937523397
 20
208.0170284700204
 30
0.0
 11
277.5518937523397
 21
184.9030022164519
 31
0.0
  0
MTEXT
  5
C006
330
18
100
AcDbEntity
  8
DIM
100
AcDbMText
 10
266.5137041198398
 20
206.2295235964746
 30
0.0
 40
4.0
 41
22.96918919432704
 71
     1
 72
     5
  1
%%P0.2
  7
TXT
 11
0.0000000000000001
 21
1.0
 31
0.0
 73
     1
 44
1.0
1001
ACAD
1000
ACAD_MTEXT_DEFINED_HEIGHT_BEGIN
1070
    46
1040
0.0
1000
ACAD_MTEXT_DEFINED_HEIGHT_END
  0
MTEXT
  5
C01F
330
18
100
AcDbEntity
  8
DIM
 62
     3
100
AcDbMText
 10
268.08915008345
 20
200.2125527590794
 30
0.0
 40
6.0
 41
0.0
 71
     5
 72
     1
  1
\A1;26
  7
TXT
 11
0.0000000000000001
 21
1.0
 31
0.0
 73
     1
 44
1.0
  0
MTEXT
  5
C024
330
18
100
AcDbEntity
  8
DIM
100
AcDbMText
 10
16.69527734868882
 20
77.10564542744799
 30
0.0
 40
9.0
 41
0.0
 71
     1
 72
     5
  1
{\Ftxt,bigfont|c128;06.04.13外形寸法を変更する}
  7
JL
 73
     1
 44
1.0
1001
ACAD
1000
ACAD_MTEXT_DEFINED_HEIGHT_BEGIN
1070
    46
1040
0.0
1000
ACAD_MTEXT_DEFINED_HEIGHT_END
  0
MTEXT
  5
C026
330
18
100
AcDbEntity
  8
DIM
100
AcDbMText
 10
9.295675450156352
 20
74.9684306847051
 30
0.0
 40
6.0
 41
0.0
 71
     1
 72
     5
  1
{\Ftxt,bigfont|c128;1}
  7
JL
 73
     1
 44
1.0
1001
ACAD
1000
ACAD_MTEXT_DEFINED_HEIGHT_BEGIN
1070
    46
1040
0.0
1000
ACAD_MTEXT_DEFINED_HEIGHT_END
  0
LWPOLYLINE
  5
C02C
330
18
100
AcDbEntity
  8
DIM
100
AcDbPolyline
 90
        3
 70
     1
 43
0.0
 10
4.680086476104861
 20
68.11040260974886
 10
9.852429613840001
 20
77.06916371848625
 10
15.02477275157508
 20
68.11040260974886
  0
MTEXT
  5
C02D
330
18
100
AcDbEntity
  8
DIM
100
AcDbMText
 10
264.2475468801475
 20
188.5681695708105
 30
0.0
 40
6.0
 41
0.0
 71
     1
 72
     5
  1
{\Ftxt,bigfont|c128;1}
  7
JL
 11
0.0000000000000001
 21
1.0
 31
0.0
 73
     1
 44
1.0
1001
ACAD
1000
ACAD_MTEXT_DEFINED_HEIGHT_BEGIN
1070
    46
1040
0.0
1000
ACAD_MTEXT_DEFINED_HEIGHT_END
  0
LWPOLYLINE
  5
C02E
330
18
100
AcDbEntity
  8
DIM
100
AcDbPolyline
 90
        3
 70
     1
 43
0.0
 10
271.1055749551038
 20
183.9525805967591
 10
262.1468138463664
 20
189.1249237344943
 10
271.1055749551038
 20
194.2972668722292
  0
MTEXT
  5
C02F
330
18
100
AcDbEntity
  8
DIM
100
AcDbMText
 10
98.15387985491282
 20
77.10564542744799
 30
0.0
 40
9.0
 41
0.0
 71
     1
 72
     5
  1
{\Ftxt,bigfont|c128;林}
  7
JL
 73
     1
 44
1.0
1001
ACAD
1000
ACAD_MTEXT_DEFINED_HEIGHT_BEGIN
1070
    46
1040
0.0
1000
ACAD_MTEXT_DEFINED_HEIGHT_END
  0
CIRCLE
  5
C030
330
18
100
AcDbEntity
  8
DIM
100
AcDbCircle
 10
100.0310630093131
 20
72.36985414392887
 30
0.0
 40
5.583885961059526
  0
MTEXT
  5
C0C4
330
18
100
AcDbEntity
  8
0
100
AcDbMText
 10
99.57176122518468
 20
38.74799668632523
 30
0.0
 40
10.0
 41
0.0
 71
     1
 72
     5
  1
{\Ftxt,bigfont|c128;小\~柳}
  7
JL
 73
     1
 44
1.0
1001
ACAD
1000
ACAD_MTEXT_DEFINED_HEIGHT_BEGIN
1070
    46
1040
0.0
1000
ACAD_MTEXT_DEFINED_HEIGHT_END
  0
MTEXT
  5
C0C5
330
18
100
AcDbEntity
  8
DIM
100
AcDbMText
 10
370.4587377165424
 20
10.00217922538611
 30
0.0
 40
6.0
 41
0.0
 71
     1
 72
     5
  1
{\Ftxt,bigfont|c128;1}
  7
JL
 73
     1
 44
1.0
1001
ACAD
1000
ACAD_MTEXT_DEFINED_HEIGHT_BEGIN
1070
    46
1040
0.0
1000
ACAD_MTEXT_DEFINED_HEIGHT_END
  0
LWPOLYLINE
  5
C0C6
330
18
100
AcDbEntity
  8
DIM
100
AcDbPolyline
 90
        3
 70
     1
 43
0.0
 10
365.8431487424909
 20
3.144151150429877
 10
371.0154918802261
 20
12.10291225916727
 10
376.1878350179612
 20
3.144151150429877
  0
ENDSEC
  0
SECTION
  2
OBJECTS
  0
DICTIONARY
  5
C
330
0
100
AcDbDictionary
281
     1
  3
ACAD_COLOR
350
BDEB
  3
ACAD_GROUP
350
D
  3
ACAD_LAYOUT
350
5CF3
  3
ACAD_MATERIAL
350
BDEA
  3
ACAD_MLINESTYLE
350
1B
  3
ACAD_PLOTSETTINGS
350
5CF4
  3
ACAD_PLOTSTYLENAME
350
5CF1
  3
ACAD_TABLESTYLE
350
BDEC
  3
ACDBVARIABLEDICTIONARY
350
45D
  0
DICTIONARY
  5
45F
330
18
100
AcDbDictionary
280
     1
281
     1
  3
ACAD_LAYOUTSELFREF
360
5D8B
  3
ACAD_SORTENTS
360
460
  0
DICTIONARY
  5
5D89
330
15
100
AcDbDictionary
280
     1
281
     1
  3
ACAD_LAYOUTSELFREF
360
5D8A
  0
DICTIONARY
  5
BDEB
102
{ACAD_REACTORS
330
C
102
}
330
C
100
AcDbDictionary
281
     1
  0
DICTIONARY
  5
D
102
{ACAD_REACTORS
330
C
102
}
330
C
100
AcDbDictionary
281
     1
  0
DICTIONARY
  5
5CF3
102
{ACAD_REACTORS
330
C
102
}
330
C
100
AcDbDictionary
281
     1
  3
Model
350
5CF5
  3
配置1
350
5CF6
  0
DICTIONARY
  5
BDEA
102
{ACAD_REACTORS
330
C
102
}
330
C
100
AcDbDictionary
281
     1
  0
DICTIONARY
  5
1B
102
{ACAD_REACTORS
330
C
102
}
330
C
100
AcDbDictionary
281
     1
  3
STANDARD
350
1C
  0
DICTIONARY
  5
5CF4
102
{ACAD_REACTORS
330
C
102
}
330
C
100
AcDbDictionary
281
     1
  0
ACDBDICTIONARYWDFLT
  5
5CF1
102
{ACAD_REACTORS
330
C
102
}
330
C
100
AcDbDictionary
281
     1
  3
Normal
350
5CF2
100
AcDbDictionaryWithDefault
340
5CF2
  0
DICTIONARY
  5
BDEC
102
{ACAD_REACTORS
330
C
102
}
330
C
100
AcDbDictionary
281
     1
  3
Standard
350
BDED
  0
DICTIONARY
  5
45D
102
{ACAD_REACTORS
330
C
102
}
330
C
100
AcDbDictionary
281
     1
  3
CTABLESTYLE
350
C023
  3
SORTENTS
350
45E
  0
XRECORD
  5
5D8B
102
{ACAD_REACTORS
330
45F
102
}
330
45F
100
AcDbXrecord
280
     1
340
18
  0
SORTENTSTABLE
  5
460
102
{ACAD_REACTORS
330
45F
102
}
330
45F
100
AcDbSortentsTable
330
18
331
BEB2
  5
BEB2
331
BE3C
  5
BE3C
331
BE05
  5
BE05
331
BE7B
  5
BE7B
331
BEBA
  5
BEBA
331
BE44
  5
BE44
331
C0
  5
CB
331
BE0D
  5
BE0D
331
BE83
  5
BE83
331
C01F
  5
C01E
331
BEC2
  5
BEC2
331
BE4C
  5
BE4C
331
BE15
  5
BE15
331
BE8B
  5
BE8B
331
BE54
  5
BE54
331
BECA
  5
BECA
331
BE1D
  5
BE1D
331
BE5C
  5
BE5C
331
BE93
  5
BE93
331
BE64
  5
BE64
331
BE25
  5
BE25
331
BE9B
  5
BE9B
331
BFE8
  5
BFE8
331
BFF0
  5
BFF0
331
BE6C
  5
BE6C
331
BE2D
  5
BE2D
331
BEA3
  5
BEA3
331
BEAB
  5
BEAB
331
BE35
  5
BE35
331
BDFE
  5
BDFE
331
BE74
  5
BE74
331
BEB3
  5
BEB3
331
BE3D
  5
BE3D
331
BE06
  5
BE06
331
BE7C
  5
BE7C
331
BEBB
  5
BEBB
331
BE45
  5
BE45
331
BE0E
  5
BE0E
331
BE84
  5
BE84
331
BEC3
  5
BEC3
331
BE4D
  5
BE4D
331
BE16
  5
BE16
331
BE8C
  5
BE8C
331
BE55
  5
BE55
331
BECB
  5
BECB
331
BE94
  5
BE94
331
BE5D
  5
BE5D
331
BE1E
  5
BE1E
331
BE9C
  5
BE9C
331
BE26
  5
BE26
331
BE65
  5
BE65
331
BEA4
  5
BEA4
331
BE6D
  5
BE6D
331
BDF7
  5
BDF7
331
BE2E
  5
BE2E
331
BEAC
  5
BEAC
331
BE75
  5
BE75
331
BE36
  5
BE36
331
BDFF
  5
BDFF
331
BEB4
  5
BEB4
331
BE7D
  5
BE7D
331
BE3E
  5
BE3E
331
BE07
  5
BE07
331
BEBC
  5
BEBC
331
BE85
  5
BE85
331
BE46
  5
BE46
331
BE0F
  5
BE0F
331
BEC4
  5
BEC4
331
BE8D
  5
BE8D
331
BE4E
  5
BE4E
331
BE17
  5
BE17
331
BECC
  5
BECC
331
BE56
  5
BE56
331
BE95
  5
BE95
331
BE1F
  5
BE1F
331
BE5E
  5
BE5E
331
BE9D
  5
BE9D
331
BE66
  5
BE66
331
BE27
  5
BE27
331
BEA5
  5
BEA5
331
BE6E
  5
BE6E
331
BE2F
  5
BE2F
331
BDF8
  5
BDF8
331
BEAD
  5
BEAD
331
BE76
  5
BE76
331
BE37
  5
BE37
331
BE00
  5
BE00
331
BEB5
  5
BEB5
331
BE7E
  5
BE7E
331
BE3F
  5
BE3F
331
BE08
  5
BE08
331
BEBD
  5
BEBD
331
BE86
  5
BE86
331
BE47
  5
BE47
331
BE10
  5
BE10
331
BEC5
  5
BEC5
331
BE8E
  5
BE8E
331
BE4F
  5
BE4F
331
BECD
  5
BECD
331
BE57
  5
BE57
331
BE18
  5
BE18
331
BE96
  5
BE96
331
BE5F
  5
BE5F
331
BE20
  5
BE20
331
BE9E
  5
BE9E
331
BE28
  5
BE28
331
BE67
  5
BE67
331
BEA6
  5
BEA6
331
BE6F
  5
BE6F
331
BE30
  5
BE30
331
BDF9
  5
BDF9
331
BEAE
  5
BEAE
331
BE77
  5
BE77
331
BE38
  5
BE38
331
BE01
  5
BE01
331
BEB6
  5
BEB6
331
BE7F
  5
BE7F
331
BE40
  5
BE40
331
BE09
  5
BE09
331
BEBE
  5
BEBE
331
BE87
  5
BE87
331
BE48
  5
BE48
331
BE11
  5
BE11
331
BEC6
  5
BEC6
331
BE8F
  5
BE8F
331
BE50
  5
BE50
331
BECE
  5
BECE
331
BE19
  5
BE19
331
BE58
  5
BE58
331
BE97
  5
BE97
331
BE60
  5
BE60
331
BE21
  5
BE21
331
BE9F
  5
BE9F
331
BE68
  5
BE68
331
BE29
  5
BE29
331
BEA7
  5
BEA7
331
BE70
  5
BE70
331
BE31
  5
BE31
331
BDFA
  5
BDFA
331
BEAF
  5
BEAF
331
BE78
  5
BE78
331
BE39
  5
BE39
331
BE02
  5
BE02
331
BEB7
  5
BEB7
331
BE80
  5
BE80
331
BE41
  5
BE41
331
BE0A
  5
BE0A
331
BEBF
  5
BEBF
331
BE88
  5
BE88
331
BE49
  5
BE49
331
BE12
  5
BE12
331
C024
  5
C024
331
BEC7
  5
BEC7
331
BE51
  5
BE51
331
C02C
  5
C02B
331
BECF
  5
BECF
331
BE90
  5
BE90
331
BE59
  5
BE59
331
BE1A
  5
BE1A
331
BE22
  5
BE22
331
BE61
  5
BE61
331
BE98
  5
BE98
331
BE69
  5
BE69
331
BE2A
  5
BE2A
331
BEA0
  5
BEA0
331
BEA8
  5
BEA8
331
BE32
  5
BE32
331
BDFB
  5
BDFB
331
BE71
  5
BE71
331
BEB0
  5
BEB0
331
BE3A
  5
BE3A
331
BE03
  5
BE03
331
BE79
  5
BE79
331
BEB8
  5
BEB8
331
BE42
  5
BE42
331
BE0B
  5
BE0B
331
BE81
  5
BE81
331
BEC0
  5
BEC0
331
BE4A
  5
BE4A
331
BE13
  5
BE13
331
BE89
  5
BE89
331
BE52
  5
BE52
331
BEC8
  5
BEC8
331
BE1B
  5
BE1B
331
BE5A
  5
BE5A
331
BE91
  5
BE91
331
BED0
  5
BED0
331
BE62
  5
BE62
331
BE23
  5
BE23
331
BE99
  5
BE99
331
BE6A
  5
BE6A
331
BE2B
  5
BE2B
331
BEA1
  5
BEA1
331
BEA9
  5
BEA9
331
BE33
  5
BE33
331
BDFC
  5
BDFC
331
BE72
  5
BE72
331
C006
  5
C021
331
BEB1
  5
BEB1
331
BE3B
  5
BE3B
331
BE04
  5
BE04
331
BE7A
  5
BE7A
331
BEB9
  5
BEB9
331
BE43
  5
BE43
331
BE0C
  5
BE0C
331
BE82
  5
BE82
331
BEC1
  5
BEC1
331
BE4B
  5
BE4B
331
BE14
  5
BE14
331
BE8A
  5
BE8A
331
C026
  5
C026
331
BE53
  5
BE53
331
BEC9
  5
BEC9
331
BED1
  5
BED1
331
BE5B
  5
BE5B
331
BE1C
  5
BE1C
331
BE92
  5
BE92
331
BE24
  5
BE24
331
BE63
  5
BE63
331
BE9A
  5
BE9A
331
BE6B
  5
BE6B
331
BE2C
  5
BE2C
331
BEA2
  5
BEA2
331
BEAA
  5
BEAA
331
BE34
  5
BE34
331
BDFD
  5
BDFD
331
BE73
  5
BE73
  0
XRECORD
  5
5D8A
102
{ACAD_REACTORS
330
5D89
102
}
330
5D89
100
AcDbXrecord
280
     1
340
15
  0
LAYOUT
  5
5CF5
102
{ACAD_REACTORS
330
5CF3
102
}
330
5CF3
100
AcDbPlotSettings
  1

  2
EPSON STYLUS COLOR 440
  4

  6

 40
0.0
 41
0.0
 42
0.0
 43
0.0
 44
0.0
 45
0.0
 46
0.0
 47
0.0
 48
0.0
 49
0.0
140
0.0
141
0.0
142
1.0
143
1.0
 70
  1712
 72
     0
 73
     0
 74
     0
  7
a.ctb
 75
     0
147
1.0
 76
     0
 77
     2
 78
   300
148
0.0
149
0.0
100
AcDbLayout
  1
Model
 70
     1
 71
     0
 10
0.0
 20
0.0
 11
12.0
 21
9.0
 12
0.0
 22
0.0
 32
0.0
 14
0.0
 24
0.0
 34
0.0
 15
0.0
 25
0.0
 35
0.0
146
0.0
 13
0.0
 23
0.0
 33
0.0
 16
1.0
 26
0.0
 36
0.0
 17
0.0
 27
1.0
 37
0.0
 76
     0
330
18
  0
LAYOUT
  5
5CF6
102
{ACAD_REACTORS
330
5CF3
102
}
330
5CF3
100
AcDbPlotSettings
  1

  2
EPSON STYLUS COLOR 440
  4

  6

 40
0.0
 41
0.0
 42
0.0
 43
0.0
 44
0.0
 45
0.0
 46
0.0
 47
0.0
 48
0.0
 49
0.0
140
0.0
141
0.0
142
1.0
143
1.0
 70
   688
 72
     0
 73
     0
 74
     5
  7
a.ctb
 75
    16
147
1.0
 76
     0
 77
     2
 78
   300
148
0.0
149
0.0
100
AcDbLayout
  1
ｰtｸm1
 70
     1
 71
     1
 10
0.0
 20
0.0
 11
420.0
 21
297.0
 12
0.0
 22
0.0
 32
0.0
 14
1.000000000000000E+20
 24
1.000000000000000E+20
 34
1.000000000000000E+20
 15
-1.000000000000000E+20
 25
-1.000000000000000E+20
 35
-1.000000000000000E+20
146
0.0
 13
0.0
 23
0.0
 33
0.0
 16
1.0
 26
0.0
 36
0.0
 17
0.0
 27
1.0
 37
0.0
 76
     0
330
15
  0
MLINESTYLE
  5
1C
102
{ACAD_REACTORS
330
1B
102
}
330
1B
100
AcDbMlineStyle
  2
STANDARD
 70
     0
  3

 62
   256
 51
90.0
 52
90.0
 71
     2
 49
0.5
 62
   256
  6
BYLAYER
 49
-0.5
 62
   256
  6
BYLAYER
  0
ACDBPLACEHOLDER
  5
5CF2
102
{ACAD_REACTORS
330
5CF1
102
}
330
5CF1
  0
TABLESTYLE
  5
BDED
102
{ACAD_REACTORS
330
BDEC
102
}
330
BDEC
100
AcDbTableStyle
  3
Standard
 70
     0
 71
     8
 40
1.5
 41
1.5
280
     0
281
     0
  7
STANDARD
140
4.5
170
     2
 62
     0
 63
     7
283
     0
274
    -2
284
     1
 64
     0
275
    -2
285
     1
 65
     0
276
    -2
286
     1
 66
     0
277
    -2
287
     1
 67
     0
278
    -2
288
     1
 68
     0
279
    -2
289
     1
 69
     0
  7
STANDARD
140
6.0
170
     5
 62
     0
 63
     7
283
     0
274
    -2
284
     1
 64
     0
275
    -2
285
     1
 65
     0
276
    -2
286
     1
 66
     0
277
    -2
287
     1
 67
     0
278
    -2
288
     1
 68
     0
279
    -2
289
     1
 69
     0
  7
STANDARD
140
4.5
170
     5
 62
     0
 63
     7
283
     0
274
    -2
284
     1
 64
     0
275
    -2
285
     1
 65
     0
276
    -2
286
     1
 66
     0
277
    -2
287
     1
 67
     0
278
    -2
288
     1
 68
     0
279
    -2
289
     1
 69
     0
  0
DICTIONARYVAR
  5
C023
102
{ACAD_REACTORS
330
45D
102
}
330
45D
100
DictionaryVariables
280
     0
  1
STANDARD
  0
DICTIONARYVAR
  5
45E
102
{ACAD_REACTORS
330
45D
102
}
330
45D
100
DictionaryVariables
280
     0
  1
127
  0
ENDSEC
  0
EOF
