  0
SECTION
  2
HEADER
  9
$ACADVER
  1
AC1018
  9
$ACADMAINTVER
 70
    76
  9
$DWGCODEPAGE
  3
ANSI_932
  9
$INSBASE
 10
0.0
 20
0.0
 30
0.0
  9
$EXTMIN
 10
210.006196569778
 20
73.8811280034474
 30
0.0
  9
$EXTMAX
 10
309.006196569778
 20
218.8811280034475
 30
2.0
  9
$LIMMIN
 10
0.0
 20
0.0
  9
$LIMMAX
 10
420.0
 20
297.0
  9
$ORTHOMODE
 70
     1
  9
$REGENMODE
 70
     1
  9
$FILLMODE
 70
     1
  9
$QTEXTMODE
 70
     0
  9
$MIRRTEXT
 70
     1
  9
$LTSCALE
 40
1.0
  9
$ATTMODE
 70
     1
  9
$TEXTSIZE
 40
2.5
  9
$TRACEWID
 40
1.0
  9
$TEXTSTYLE
  7
TXT
  9
$CLAYER
  8
0
  9
$CELTYPE
  6
BYLAYER
  9
$CECOLOR
 62
   256
  9
$CELTSCALE
 40
1.0
  9
$DISPSILH
 70
     0
  9
$DIMSCALE
 40
1.0
  9
$DIMASZ
 40
1.25
  9
$DIMEXO
 40
1.0
  9
$DIMDLI
 40
3.0
  9
$DIMRND
 40
0.0
  9
$DIMDLE
 40
0.0
  9
$DIMEXE
 40
1.0
  9
$DIMTP
 40
0.0
  9
$DIMTM
 40
0.0
  9
$DIMTXT
 40
1.75
  9
$DIMCEN
 40
0.0
  9
$DIMTSZ
 40
0.0
  9
$DIMTOL
 70
     0
  9
$DIMLIM
 70
     0
  9
$DIMTIH
 70
     0
  9
$DIMTOH
 70
     0
  9
$DIMSE1
 70
     0
  9
$DIMSE2
 70
     0
  9
$DIMTAD
 70
     3
  9
$DIMZIN
 70
     8
  9
$DIMBLK
  1

  9
$DIMASO
 70
     1
  9
$DIMSHO
 70
     1
  9
$DIMPOST
  1

  9
$DIMAPOST
  1

  9
$DIMALT
 70
     0
  9
$DIMALTD
 70
     2
  9
$DIMALTF
 40
25.4
  9
$DIMLFAC
 40
1.0
  9
$DIMTOFL
 70
     0
  9
$DIMTVP
 40
0.0
  9
$DIMTIX
 70
     0
  9
$DIMSOXD
 70
     0
  9
$DIMSAH
 70
     0
  9
$DIMBLK1
  1

  9
$DIMBLK2
  1

  9
$DIMSTYLE
  2
A
  9
$DIMCLRD
 70
     6
  9
$DIMCLRE
 70
     6
  9
$DIMCLRT
 70
     3
  9
$DIMTFAC
 40
1.0
  9
$DIMGAP
 40
0.5
  9
$DIMJUST
 70
     0
  9
$DIMSD1
 70
     0
  9
$DIMSD2
 70
     0
  9
$DIMTOLJ
 70
     1
  9
$DIMTZIN
 70
     0
  9
$DIMALTZ
 70
     0
  9
$DIMALTTZ
 70
     0
  9
$DIMUPT
 70
     0
  9
$DIMDEC
 70
     0
  9
$DIMTDEC
 70
     0
  9
$DIMALTU
 70
     2
  9
$DIMALTTD
 70
     2
  9
$DIMTXSTY
  7
TXT
  9
$DIMAUNIT
 70
     0
  9
$DIMADEC
 70
     0
  9
$DIMALTRND
 40
0.0
  9
$DIMAZIN
 70
     0
  9
$DIMDSEP
 70
    46
  9
$DIMATFIT
 70
     3
  9
$DIMFRAC
 70
     0
  9
$DIMLDRBLK
  1

  9
$DIMLUNIT
 70
     2
  9
$DIMLWD
 70
    -2
  9
$DIMLWE
 70
    -2
  9
$DIMTMOVE
 70
     1
  9
$LUNITS
 70
     2
  9
$LUPREC
 70
     2
  9
$SKETCHINC
 40
1.0
  9
$FILLETRAD
 40
1.5
  9
$AUNITS
 70
     0
  9
$AUPREC
 70
     2
  9
$MENU
  1
.
  9
$ELEVATION
 40
0.0
  9
$PELEVATION
 40
0.0
  9
$THICKNESS
 40
0.0
  9
$LIMCHECK
 70
     0
  9
$CHAMFERA
 40
0.0
  9
$CHAMFERB
 40
0.0
  9
$CHAMFERC
 40
1.75
  9
$CHAMFERD
 40
0.0174532925199433
  9
$SKPOLY
 70
     0
  9
$TDCREATE
 40
2451555.620234838
  9
$TDUCREATE
 40
2451555.245234838
  9
$TDUPDATE
 40
2455846.586423889
  9
$TDUUPDATE
 40
2455846.211423889
  9
$TDINDWG
 40
2.4905799769
  9
$TDUSRTIMER
 40
2.4905799769
  9
$USRTIMER
 70
     1
  9
$ANGBASE
 50
0.0
  9
$ANGDIR
 70
     0
  9
$PDMODE
 70
     0
  9
$PDSIZE
 40
0.0
  9
$PLINEWID
 40
0.0
  9
$SPLFRAME
 70
     0
  9
$SPLINETYPE
 70
     6
  9
$SPLINESEGS
 70
     8
  9
$HANDSEED
  5
7F6D
  9
$SURFTAB1
 70
     6
  9
$SURFTAB2
 70
     6
  9
$SURFTYPE
 70
     6
  9
$SURFU
 70
     6
  9
$SURFV
 70
     6
  9
$UCSBASE
  2

  9
$UCSNAME
  2

  9
$UCSORG
 10
0.0
 20
0.0
 30
0.0
  9
$UCSXDIR
 10
1.0
 20
0.0
 30
0.0
  9
$UCSYDIR
 10
0.0
 20
1.0
 30
0.0
  9
$UCSORTHOREF
  2

  9
$UCSORTHOVIEW
 70
     0
  9
$UCSORGTOP
 10
0.0
 20
0.0
 30
0.0
  9
$UCSORGBOTTOM
 10
0.0
 20
0.0
 30
0.0
  9
$UCSORGLEFT
 10
0.0
 20
0.0
 30
0.0
  9
$UCSORGRIGHT
 10
0.0
 20
0.0
 30
0.0
  9
$UCSORGFRONT
 10
0.0
 20
0.0
 30
0.0
  9
$UCSORGBACK
 10
0.0
 20
0.0
 30
0.0
  9
$PUCSBASE
  2

  9
$PUCSNAME
  2

  9
$PUCSORG
 10
0.0
 20
0.0
 30
0.0
  9
$PUCSXDIR
 10
1.0
 20
0.0
 30
0.0
  9
$PUCSYDIR
 10
0.0
 20
1.0
 30
0.0
  9
$PUCSORTHOREF
  2

  9
$PUCSORTHOVIEW
 70
     0
  9
$PUCSORGTOP
 10
0.0
 20
0.0
 30
0.0
  9
$PUCSORGBOTTOM
 10
0.0
 20
0.0
 30
0.0
  9
$PUCSORGLEFT
 10
0.0
 20
0.0
 30
0.0
  9
$PUCSORGRIGHT
 10
0.0
 20
0.0
 30
0.0
  9
$PUCSORGFRONT
 10
0.0
 20
0.0
 30
0.0
  9
$PUCSORGBACK
 10
0.0
 20
0.0
 30
0.0
  9
$USERI1
 70
     0
  9
$USERI2
 70
     0
  9
$USERI3
 70
     0
  9
$USERI4
 70
     0
  9
$USERI5
 70
     0
  9
$USERR1
 40
0.0
  9
$USERR2
 40
0.0
  9
$USERR3
 40
0.0
  9
$USERR4
 40
0.0
  9
$USERR5
 40
0.0
  9
$WORLDVIEW
 70
     1
  9
$SHADEDGE
 70
     3
  9
$SHADEDIF
 70
    70
  9
$TILEMODE
 70
     1
  9
$MAXACTVP
 70
    48
  9
$PINSBASE
 10
0.0
 20
0.0
 30
0.0
  9
$PLIMCHECK
 70
     0
  9
$PEXTMIN
 10
1.000000000000000E+20
 20
1.000000000000000E+20
 30
1.000000000000000E+20
  9
$PEXTMAX
 10
-1.000000000000000E+20
 20
-1.000000000000000E+20
 30
-1.000000000000000E+20
  9
$PLIMMIN
 10
0.0
 20
0.0
  9
$PLIMMAX
 10
420.0
 20
297.0
  9
$UNITMODE
 70
     0
  9
$VISRETAIN
 70
     1
  9
$PLINEGEN
 70
     0
  9
$PSLTSCALE
 70
     1
  9
$TREEDEPTH
 70
  3020
  9
$CMLSTYLE
  2
STANDARD
  9
$CMLJUST
 70
     0
  9
$CMLSCALE
 40
20.0
  9
$PROXYGRAPHICS
 70
     1
  9
$MEASUREMENT
 70
     1
  9
$CELWEIGHT
370
    -1
  9
$ENDCAPS
280
     0
  9
$JOINSTYLE
280
     0
  9
$LWDISPLAY
290
     0
  9
$INSUNITS
 70
     0
  9
$HYPERLINKBASE
  1

  9
$STYLESHEET
  1

  9
$XEDIT
290
     1
  9
$CEPSNTYPE
380
     0
  9
$PSTYLEMODE
290
     1
  9
$FINGERPRINTGUID
  2
{1CF51E8A-A506-11D4-A7D9-AF69F5C20846}
  9
$VERSIONGUID
  2
{B5D871B8-ED86-46F4-8918-22B4B058858C}
  9
$EXTNAMES
290
     1
  9
$PSVPSCALE
 40
0.0
  9
$OLESTARTUP
290
     0
  9
$SORTENTS
280
   127
  9
$INDEXCTL
280
     0
  9
$HIDETEXT
280
     0
  9
$XCLIPFRAME
290
     0
  9
$HALOGAP
280
     0
  9
$OBSCOLOR
 70
   257
  9
$OBSLTYPE
280
     0
  9
$INTERSECTIONDISPLAY
280
     0
  9
$INTERSECTIONCOLOR
 70
   257
  9
$DIMASSOC
280
     1
  9
$PROJECTNAME
  1

  0
ENDSEC
  0
SECTION
  2
CLASSES
  0
CLASS
  1
DICTIONARYVAR
  2
AcDbDictionaryVar
  3
ObjectDBX Classes
 90
        0
 91
        2
280
     0
281
     0
  0
CLASS
  1
SORTENTSTABLE
  2
AcDbSortentsTable
  3
ObjectDBX Classes
 90
        0
 91
        1
280
     0
281
     0
  0
CLASS
  1
ACDBDICTIONARYWDFLT
  2
AcDbDictionaryWithDefault
  3
ObjectDBX Classes
 90
        0
 91
        1
280
     0
281
     0
  0
CLASS
  1
TABLESTYLE
  2
AcDbTableStyle
  3
ObjectDBX Classes
 90
     2047
 91
        1
280
     0
281
     0
  0
ENDSEC
  0
SECTION
  2
TABLES
  0
TABLE
  2
VPORT
  5
8
330
0
100
AcDbSymbolTable
 70
     2
  0
VPORT
  5
7F6C
330
8
100
AcDbSymbolTableRecord
100
AcDbViewportTableRecord
  2
*Active
 70
     0
 10
0.0
 20
0.0
 11
1.0
 21
1.0
 12
313.5179099495652
 22
142.3234612877871
 13
0.0
 23
0.0
 14
10.0
 24
10.0
 15
10.0
 25
10.0
 16
0.0
 26
0.0
 36
1.0
 17
0.0
 27
0.0
 37
0.0
 40
168.9858098966357
 41
2.47104247104247
 42
50.0
 43
0.0
 44
0.0
 50
0.0
 51
0.0
 71
     0
 72
   100
 73
     1
 74
     1
 75
     0
 76
     0
 77
     0
 78
     0
281
     0
 65
     1
110
0.0
120
0.0
130
0.0
111
1.0
121
0.0
131
0.0
112
0.0
122
1.0
132
0.0
 79
     0
146
0.0
  0
ENDTAB
  0
TABLE
  2
LTYPE
  5
5
330
0
100
AcDbSymbolTable
 70
     9
  0
LTYPE
  5
12
330
5
100
AcDbSymbolTableRecord
100
AcDbLinetypeTableRecord
  2
BYBLOCK
 70
     0
  3

 72
    65
 73
     0
 40
0.0
  0
LTYPE
  5
13
330
5
100
AcDbSymbolTableRecord
100
AcDbLinetypeTableRecord
  2
BYLAYER
 70
     0
  3

 72
    65
 73
     0
 40
0.0
  0
LTYPE
  5
14
330
5
100
AcDbSymbolTableRecord
100
AcDbLinetypeTableRecord
  2
CONTINUOUS
 70
     0
  3
Solid line
 72
    65
 73
     0
 40
0.0
  0
LTYPE
  5
9D
330
5
100
AcDbSymbolTableRecord
100
AcDbLinetypeTableRecord
  2
CENTERX2
 70
     0
  3
Center (2x) ________  __  ________  __  _____
 72
    65
 73
     4
 40
101.6
 49
63.5
 74
     0
 49
-12.7
 74
     0
 49
12.7
 74
     0
 49
-12.7
 74
     0
  0
LTYPE
  5
A1
330
5
100
AcDbSymbolTableRecord
100
AcDbLinetypeTableRecord
  2
DASHED
 70
     0
  3
Dashed __ __ __ __ __ __ __ __ __ __ __ __ __ _
 72
    65
 73
     2
 40
19.05
 49
12.7
 74
     0
 49
-6.349999999999999
 74
     0
  0
LTYPE
  5
A2
330
5
100
AcDbSymbolTableRecord
100
AcDbLinetypeTableRecord
  2
DASHED2
 70
     0
  3
Dashed (.5x) _ _ _ _ _ _ _ _ _ _ _ _ _ _ _ _ _
 72
    65
 73
     2
 40
9.524999999999998
 49
6.349999999999999
 74
     0
 49
-3.174999999999999
 74
     0
  0
LTYPE
  5
A5
330
5
100
AcDbSymbolTableRecord
100
AcDbLinetypeTableRecord
  2
DIVIDE2
 70
     0
  3
Divide (.5x) __..__..__..__..__..__..__..__.._
 72
    65
 73
     6
 40
15.875
 49
6.349999999999999
 74
     0
 49
-3.174999999999999
 74
     0
 49
0.0
 74
     0
 49
-3.174999999999999
 74
     0
 49
0.0
 74
     0
 49
-3.174999999999999
 74
     0
  0
LTYPE
  5
650B
330
5
100
AcDbSymbolTableRecord
100
AcDbLinetypeTableRecord
  2
CENTER
 70
     0
  3
Center ____ _ ____ _ ____ _ ____ _ ____ _ ____
 72
    65
 73
     4
 40
50.8
 49
31.75
 74
     0
 49
-6.349999999999999
 74
     0
 49
6.349999999999999
 74
     0
 49
-6.349999999999999
 74
     0
  0
LTYPE
  5
650C
330
5
100
AcDbSymbolTableRecord
100
AcDbLinetypeTableRecord
  2
HIDDEN
 70
     0
  3
Hidden __ __ __ __ __ __ __ __ __ __ __ __ __ _
 72
    65
 73
     2
 40
9.524999999999998
 49
6.349999999999999
 74
     0
 49
-3.174999999999999
 74
     0
  0
LTYPE
  5
6684
330
5
100
AcDbSymbolTableRecord
100
AcDbLinetypeTableRecord
  2
HIDDEN2
 70
     0
  3
Hidden (.5x) _ _ _ _ _ _ _ _ _ _ _ _ _ _ _ _ _
 72
    65
 73
     2
 40
4.762499999999999
 49
3.174999999999999
 74
     0
 49
-1.587499999999999
 74
     0
  0
LTYPE
  5
6AF9
330
5
100
AcDbSymbolTableRecord
100
AcDbLinetypeTableRecord
  2
ACAD_ISO03W100
 70
     0
  3
ISO dash space __    __    __    __    __    __
 72
    65
 73
     2
 40
30.0
 49
12.0
 74
     0
 49
-18.0
 74
     0
  0
ENDTAB
  0
TABLE
  2
LAYER
  5
2
330
0
100
AcDbSymbolTable
 70
    10
  0
LAYER
  5
E
330
2
100
AcDbSymbolTableRecord
100
AcDbLayerTableRecord
  2
0
 70
     0
 62
     7
  6
CONTINUOUS
370
    -3
390
5CF2
  0
LAYER
  5
B9
330
2
100
AcDbSymbolTableRecord
100
AcDbLayerTableRecord
  2
DIM
 70
     0
 62
     3
  6
CONTINUOUS
370
    -3
390
5CF2
  0
LAYER
  5
F2
330
2
100
AcDbSymbolTableRecord
100
AcDbLayerTableRecord
  2
DEFPOINTS
 70
     0
 62
     7
  6
CONTINUOUS
290
     0
370
    -3
390
5CF2
  0
LAYER
  5
5F8B
330
2
100
AcDbSymbolTableRecord
100
AcDbLayerTableRecord
  2
公差
 70
     0
 62
     6
  6
CONTINUOUS
370
    -3
390
5CF2
  0
LAYER
  5
644E
330
2
100
AcDbSymbolTableRecord
100
AcDbLayerTableRecord
  2
図框線
 70
     0
 62
     9
  6
CONTINUOUS
370
    -3
390
5CF2
  0
LAYER
  5
650D
330
2
100
AcDbSymbolTableRecord
100
AcDbLayerTableRecord
  2
中心線
 70
     0
 62
     1
  6
CENTER
370
    -3
390
5CF2
  0
LAYER
  5
650E
330
2
100
AcDbSymbolTableRecord
100
AcDbLayerTableRecord
  2
本体内線
 70
     0
 62
     4
  6
HIDDEN
370
    -3
390
5CF2
  0
LAYER
  5
650F
330
2
100
AcDbSymbolTableRecord
100
AcDbLayerTableRecord
  2
本体外線
 70
     0
 62
     2
  6
CONTINUOUS
370
    -3
390
5CF2
  0
LAYER
  5
6510
330
2
100
AcDbSymbolTableRecord
100
AcDbLayerTableRecord
  2
剖面線
 70
     0
 62
     5
  6
CONTINUOUS
370
    -3
390
5CF2
  0
LAYER
  5
7F3D
330
2
100
AcDbSymbolTableRecord
100
AcDbLayerTableRecord
  2
mark
 70
     0
 62
     6
  6
CONTINUOUS
370
    -3
390
5CF2
  0
ENDTAB
  0
TABLE
  2
STYLE
  5
3
330
0
100
AcDbSymbolTable
 70
     5
  0
STYLE
  5
F
330
3
100
AcDbSymbolTableRecord
100
AcDbTextStyleTableRecord
  2
STANDARD
 70
     0
 40
0.0
 41
1.0
 50
0.0
 71
     0
 42
2.5
  3
txt
  4

  0
STYLE
  5
BE
330
3
100
AcDbSymbolTableRecord
100
AcDbTextStyleTableRecord
  2
ISOCP3
 70
     0
 40
0.0
 41
1.0
 50
0.0
 71
     0
 42
2.5
  3
isocp3.shx
  4

  0
STYLE
  5
2A37
330
3
100
AcDbSymbolTableRecord
100
AcDbTextStyleTableRecord
  2
TXT
 70
     0
 40
0.0
 41
1.0
 50
0.0
 71
     0
 42
2.5
  3
txt.shx
  4
bigfont.shx
  0
STYLE
  5
5DCB
330
3
100
AcDbSymbolTableRecord
100
AcDbTextStyleTableRecord
  2
LKK
 70
     0
 40
50.0
 41
1.5
 50
0.0
 71
     0
 42
50.0
  3
MS PGothic.ttf
  4

1001
ACAD
1000
MS PGothic
1071
    32818
  0
STYLE
  5
5DCC
330
3
100
AcDbSymbolTableRecord
100
AcDbTextStyleTableRecord
  2
JL
 70
     0
 40
10.0
 41
0.5
 50
0.0
 71
     0
 42
5.0
  3
MS Mincho.ttf
  4

1001
ACAD
1000
MS Mincho
1071
    32785
  0
ENDTAB
  0
TABLE
  2
VIEW
  5
6
330
0
100
AcDbSymbolTable
 70
     0
  0
ENDTAB
  0
TABLE
  2
UCS
  5
7
330
0
100
AcDbSymbolTable
 70
     0
  0
ENDTAB
  0
TABLE
  2
APPID
  5
9
330
0
100
AcDbSymbolTable
 70
     6
  0
APPID
  5
10
330
9
100
AcDbSymbolTableRecord
100
AcDbRegAppTableRecord
  2
ACAD
 70
     0
  0
APPID
  5
7F3E
330
9
100
AcDbSymbolTableRecord
100
AcDbRegAppTableRecord
  2
ACAD_DSTYLE_DIMEXT_LENGTH
 70
     0
  0
APPID
  5
7F3F
330
9
100
AcDbSymbolTableRecord
100
AcDbRegAppTableRecord
  2
ACAD_DSTYLE_DIMEXT_ENABLED
 70
     0
  0
APPID
  5
7F40
330
9
100
AcDbSymbolTableRecord
100
AcDbRegAppTableRecord
  2
ACAD_DSTYLE_DIMJOGGED_JOGANGLE_SYMBOL
 70
     0
  0
APPID
  5
7F41
330
9
100
AcDbSymbolTableRecord
100
AcDbRegAppTableRecord
  2
ACAD_DSTYLE_DIMARC_LENGTH_SYMBOL
 70
     0
  0
APPID
  5
7F42
330
9
100
AcDbSymbolTableRecord
100
AcDbRegAppTableRecord
  2
ACAD_PSEXT
 70
     0
  0
ENDTAB
  0
TABLE
  2
DIMSTYLE
  5
A
330
0
100
AcDbSymbolTable
 70
     3
100
AcDbDimStyleTable
 71
     0
  0
DIMSTYLE
105
1D
330
A
100
AcDbSymbolTableRecord
100
AcDbDimStyleTableRecord
  2
STANDARD
 70
     0
 41
3.0
 42
0.06
 77
     3
140
4.0
144
0.3333333333333333
172
     1
340
F
  0
DIMSTYLE
105
1A4
102
{ACAD_REACTORS
330
678A
330
6947
330
6EA2
330
6EAB
330
7064
330
747A
330
747B
330
747F
330
781C
330
7B74
330
7C19
330
7D67
102
}
330
A
100
AcDbSymbolTableRecord
100
AcDbDimStyleTableRecord
  2
A
 70
     0
 41
1.25
 42
1.0
 43
3.0
 44
1.0
 73
     0
 74
     0
 77
     3
 78
     8
140
1.75
141
0.0
147
0.5
176
     6
177
     6
178
     3
271
     0
272
     0
279
     1
340
2A37
  0
DIMSTYLE
105
6006
330
A
100
AcDbSymbolTableRecord
100
AcDbDimStyleTableRecord
  2
ISO-25
 70
     0
 40
0.0
 41
2.0
 42
0.3
 43
1.0
 44
0.3
 73
     0
 74
     0
 77
     1
 78
     8
140
3.0
147
1.0
172
     1
176
     6
177
     6
178
     3
271
     1
272
     2
284
     8
288
     1
289
     2
340
F
  0
ENDTAB
  0
TABLE
  2
BLOCK_RECORD
  5
1
330
0
100
AcDbSymbolTable
 70
    14
  0
BLOCK_RECORD
  5
18
102
{ACAD_XDICTIONARY
360
45F
102
}
330
1
100
AcDbSymbolTableRecord
100
AcDbBlockTableRecord
  2
*MODEL_SPACE
340
5CF5
  0
BLOCK_RECORD
  5
15
102
{ACAD_XDICTIONARY
360
5D89
102
}
330
1
100
AcDbSymbolTableRecord
100
AcDbBlockTableRecord
  2
*PAPER_SPACE
340
5CF6
  0
BLOCK_RECORD
  5
639D
330
1
100
AcDbSymbolTableRecord
100
AcDbBlockTableRecord
  2
A$C255C26A2
340
0
102
{BLKREFS
331
63A3
102
}
  0
BLOCK_RECORD
  5
67DE
330
1
100
AcDbSymbolTableRecord
100
AcDbBlockTableRecord
  2
*D1
340
0
  0
BLOCK_RECORD
  5
6937
330
1
100
AcDbSymbolTableRecord
100
AcDbBlockTableRecord
  2
*D2
340
0
  0
BLOCK_RECORD
  5
6EDF
330
1
100
AcDbSymbolTableRecord
100
AcDbBlockTableRecord
  2
*D3
340
0
  0
BLOCK_RECORD
  5
6EF7
330
1
100
AcDbSymbolTableRecord
100
AcDbBlockTableRecord
  2
*D4
340
0
  0
BLOCK_RECORD
  5
7058
330
1
100
AcDbSymbolTableRecord
100
AcDbBlockTableRecord
  2
*D5
340
0
  0
BLOCK_RECORD
  5
74F4
330
1
100
AcDbSymbolTableRecord
100
AcDbBlockTableRecord
  2
*D6
340
0
  0
BLOCK_RECORD
  5
7500
330
1
100
AcDbSymbolTableRecord
100
AcDbBlockTableRecord
  2
*D7
340
0
  0
BLOCK_RECORD
  5
751A
330
1
100
AcDbSymbolTableRecord
100
AcDbBlockTableRecord
  2
*D8
340
0
  0
BLOCK_RECORD
  5
780C
330
1
100
AcDbSymbolTableRecord
100
AcDbBlockTableRecord
  2
*D9
340
0
  0
BLOCK_RECORD
  5
7B64
330
1
100
AcDbSymbolTableRecord
100
AcDbBlockTableRecord
  2
*D10
340
0
  0
BLOCK_RECORD
  5
7C0B
330
1
100
AcDbSymbolTableRecord
100
AcDbBlockTableRecord
  2
*D11
340
0
  0
BLOCK_RECORD
  5
7D5B
330
1
100
AcDbSymbolTableRecord
100
AcDbBlockTableRecord
  2
*D12
340
0
  0
BLOCK_RECORD
  5
7F37
330
1
100
AcDbSymbolTableRecord
100
AcDbBlockTableRecord
  2
_Open30
340
0
  0
ENDTAB
  0
ENDSEC
  0
SECTION
  2
BLOCKS
  0
BLOCK
  5
19
330
18
100
AcDbEntity
  8
0
100
AcDbBlockBegin
  2
*MODEL_SPACE
 70
     0
 10
0.0
 20
0.0
 30
0.0
  3
*MODEL_SPACE
  1

  0
ENDBLK
  5
1A
330
18
100
AcDbEntity
  8
0
100
AcDbBlockEnd
  0
BLOCK
  5
16
330
15
100
AcDbEntity
 67
     1
  8
0
100
AcDbBlockBegin
  2
*PAPER_SPACE
 70
     0
 10
0.0
 20
0.0
 30
0.0
  3
*PAPER_SPACE
  1

  0
ENDBLK
  5
17
330
15
100
AcDbEntity
 67
     1
  8
0
100
AcDbBlockEnd
  0
BLOCK
  5
63A1
330
639D
100
AcDbEntity
  8
0
100
AcDbBlockBegin
  2
A$C255C26A2
 70
     0
 10
0.0
 20
0.0
 30
0.0
  3
A$C255C26A2
  1

  0
LWPOLYLINE
  5
639E
330
639D
100
AcDbEntity
  8
0
100
AcDbPolyline
 90
        3
 70
     1
 43
0.0
 10
7.014806023851633
 20
0.0000006939811783
 10
5.611844869720698
 20
2.430000693981241
 10
8.417767177982568
 20
2.430000693981241
  0
LWPOLYLINE
  5
639F
330
639D
100
AcDbEntity
  8
0
100
AcDbPolyline
 90
        3
 70
     1
 43
0.0
 10
4.20888371558999
 20
0.0000006939811783
 10
2.805922561459283
 20
2.430000693981241
 10
5.611844869720698
 20
2.430000693981241
  0
LWPOLYLINE
  5
63A0
330
639D
100
AcDbEntity
  8
0
100
AcDbPolyline
 90
        3
 70
     1
 43
0.0
 10
1.402961407328348
 20
0.0000006939811783
 10
0.0000002531974133
 20
2.430000693981241
 10
2.805922561459283
 20
2.430000693981241
  0
ENDBLK
  5
63A2
330
639D
100
AcDbEntity
  8
0
100
AcDbBlockEnd
  0
BLOCK
  5
7D89
330
67DE
100
AcDbEntity
  8
0
100
AcDbBlockBegin
  2
*D1
 70
     1
 10
0.0
 20
0.0
 30
0.0
  3
*D1
  1

  0
LINE
  5
7D8A
330
67DE
100
AcDbEntity
  8
0
  6
ByBlock
 62
     6
100
AcDbLine
 10
237.6571141388387
 20
172.0924874234589
 30
0.0
 11
237.6571141388387
 21
154.7301776296207
 31
0.0
  0
LINE
  5
7D8B
330
67DE
100
AcDbEntity
  8
0
  6
ByBlock
 62
     6
100
AcDbLine
 10
239.6612338134881
 20
172.0924874234589
 30
0.0
 11
239.6612338134881
 21
154.7301776296207
 31
0.0
  0
LINE
  5
7D8C
330
67DE
100
AcDbEntity
  8
0
  6
ByBlock
 62
     6
100
AcDbLine
 10
236.4071141388387
 20
155.7301776296207
 30
0.0
 11
235.1571141388387
 21
155.7301776296207
 31
0.0
  0
LINE
  5
7D8D
330
67DE
100
AcDbEntity
  8
0
  6
ByBlock
 62
     6
100
AcDbLine
 10
240.9112338134881
 20
155.7301776296207
 30
0.0
 11
242.1612338134881
 21
155.7301776296207
 31
0.0
  0
MTEXT
  5
7D8E
330
67DE
100
AcDbEntity
  8
0
  6
ByBlock
 62
     3
100
AcDbMText
 10
238.6591739761634
 20
157.1051776296207
 30
0.0
 40
1.75
 41
0.0
 71
     5
 72
     1
  1
\A1;2
  7
TXT
 73
     1
 44
1.0
  0
LINE
  5
7D8F
330
67DE
100
AcDbEntity
  8
0
  6
ByBlock
 62
     6
100
AcDbLine
 10
237.6571141388387
 20
155.7301776296207
 30
0.0
 11
239.6612338134881
 21
155.7301776296207
 31
0.0
  0
SOLID
  5
7D90
330
67DE
100
AcDbEntity
  8
0
  6
ByBlock
 62
     6
100
AcDbTrace
 10
236.4071141388387
 20
155.938510962954
 30
0.0
 11
236.4071141388387
 21
155.5218442962873
 31
0.0
 12
237.6571141388387
 22
155.7301776296207
 32
0.0
 13
237.6571141388387
 23
155.7301776296207
 33
0.0
  0
SOLID
  5
7D91
330
67DE
100
AcDbEntity
  8
0
  6
ByBlock
 62
     6
100
AcDbTrace
 10
240.9112338134881
 20
155.938510962954
 30
0.0
 11
240.9112338134881
 21
155.5218442962873
 31
0.0
 12
239.6612338134881
 22
155.7301776296207
 32
0.0
 13
239.6612338134881
 23
155.7301776296207
 33
0.0
  0
POINT
  5
7D92
330
67DE
100
AcDbEntity
  8
DEFPOINTS
  6
ByBlock
 62
     0
100
AcDbPoint
 10
237.6571141388387
 20
173.0924874234589
 30
0.0
  0
POINT
  5
7D93
330
67DE
100
AcDbEntity
  8
DEFPOINTS
  6
ByBlock
 62
     0
100
AcDbPoint
 10
239.6612338134881
 20
173.0924874234589
 30
0.0
  0
POINT
  5
7D94
330
67DE
100
AcDbEntity
  8
DEFPOINTS
  6
ByBlock
 62
     0
100
AcDbPoint
 10
239.6612338134881
 20
155.7301776296207
 30
0.0
  0
ENDBLK
  5
7D95
330
67DE
100
AcDbEntity
  8
0
100
AcDbBlockEnd
  0
BLOCK
  5
7D96
330
6937
100
AcDbEntity
  8
0
100
AcDbBlockBegin
  2
*D2
 70
     1
 10
0.0
 20
0.0
 30
0.0
  3
*D2
  1

  0
LINE
  5
7D97
330
6937
100
AcDbEntity
  8
0
  6
ByBlock
 62
     6
100
AcDbLine
 10
236.779290797354
 20
177.0924874234588
 30
0.0
 11
229.3563572233629
 21
177.0924874234589
 31
0.0
  0
LINE
  5
7D98
330
6937
100
AcDbEntity
  8
0
  6
ByBlock
 62
     6
100
AcDbLine
 10
236.6571141388387
 20
173.0924874234589
 30
0.0
 11
229.3563572233629
 21
173.0924874234589
 31
0.0
  0
LINE
  5
7D99
330
6937
100
AcDbEntity
  8
0
  6
ByBlock
 62
     6
100
AcDbLine
 10
230.3563572233628
 20
175.8424874234589
 30
0.0
 11
230.3563572233628
 21
174.3424874234589
 31
0.0
  0
MTEXT
  5
7D9A
330
6937
100
AcDbEntity
  8
0
  6
ByBlock
 62
     3
100
AcDbMText
 10
228.4948528840399
 20
182.2763377324181
 30
0.0
 40
1.75
 41
0.0
 71
     5
 72
     1
  1
\A1;4      (3等分)
  7
TXT
 11
0.0000000000000001
 21
1.0
 31
0.0
 73
     1
 44
1.0
  0
SOLID
  5
7D9B
330
6937
100
AcDbEntity
  8
0
  6
ByBlock
 62
     6
100
AcDbTrace
 10
230.1480238900295
 20
175.8424874234589
 30
0.0
 11
230.5646905566962
 21
175.8424874234589
 31
0.0
 12
230.3563572233628
 22
177.0924874234589
 32
0.0
 13
230.3563572233628
 23
177.0924874234589
 33
0.0
  0
SOLID
  5
7D9C
330
6937
100
AcDbEntity
  8
0
  6
ByBlock
 62
     6
100
AcDbTrace
 10
230.1480238900295
 20
174.3424874234589
 30
0.0
 11
230.5646905566962
 21
174.3424874234589
 31
0.0
 12
230.3563572233628
 22
173.0924874234589
 32
0.0
 13
230.3563572233628
 23
173.0924874234589
 33
0.0
  0
POINT
  5
7D9D
330
6937
100
AcDbEntity
  8
DEFPOINTS
  6
ByBlock
 62
     0
100
AcDbPoint
 10
237.7792907973539
 20
177.0924874234588
 30
0.0
  0
POINT
  5
7D9E
330
6937
100
AcDbEntity
  8
DEFPOINTS
  6
ByBlock
 62
     0
100
AcDbPoint
 10
237.6571141388387
 20
173.0924874234589
 30
0.0
  0
POINT
  5
7D9F
330
6937
100
AcDbEntity
  8
DEFPOINTS
  6
ByBlock
 62
     0
100
AcDbPoint
 10
230.3563572233628
 20
173.0924874234589
 30
0.0
  0
ENDBLK
  5
7DA0
330
6937
100
AcDbEntity
  8
0
100
AcDbBlockEnd
  0
BLOCK
  5
7E5F
330
6EDF
100
AcDbEntity
  8
0
100
AcDbBlockBegin
  2
*D3
 70
     1
 10
0.0
 20
0.0
 30
0.0
  3
*D3
  1

  0
LINE
  5
7E60
330
6EDF
100
AcDbEntity
  8
0
  6
ByBlock
 62
     6
100
AcDbLine
 10
237.6612338134882
 20
129.2720662374014
 30
0.0
 11
237.6612338134882
 21
148.4717483285768
 31
0.0
  0
LINE
  5
7E61
330
6EDF
100
AcDbEntity
  8
0
  6
ByBlock
 62
     6
100
AcDbLine
 10
271.6612338134881
 20
129.2720662374015
 30
0.0
 11
271.6612338134881
 21
148.4717483285768
 31
0.0
  0
LINE
  5
7E62
330
6EDF
100
AcDbEntity
  8
0
  6
ByBlock
 62
     6
100
AcDbLine
 10
238.9112338134881
 20
147.4717483285768
 30
0.0
 11
270.4112338134881
 21
147.4717483285768
 31
0.0
  0
MTEXT
  5
7E63
330
6EDF
100
AcDbEntity
  8
0
  6
ByBlock
 62
     3
100
AcDbMText
 10
250.5915526421079
 20
149.1931801715747
 30
0.0
 40
1.75
 41
0.0
 71
     5
 72
     1
  1
\A1;\U+220534
  7
TXT
 73
     1
 44
1.0
  0
SOLID
  5
7E64
330
6EDF
100
AcDbEntity
  8
0
  6
ByBlock
 62
     6
100
AcDbTrace
 10
238.9112338134881
 20
147.6800816619102
 30
0.0
 11
238.9112338134881
 21
147.2634149952435
 31
0.0
 12
237.6612338134882
 22
147.4717483285768
 32
0.0
 13
237.6612338134882
 23
147.4717483285768
 33
0.0
  0
SOLID
  5
7E65
330
6EDF
100
AcDbEntity
  8
0
  6
ByBlock
 62
     6
100
AcDbTrace
 10
270.4112338134881
 20
147.6800816619102
 30
0.0
 11
270.4112338134881
 21
147.2634149952435
 31
0.0
 12
271.6612338134881
 22
147.4717483285768
 32
0.0
 13
271.6612338134881
 23
147.4717483285768
 33
0.0
  0
POINT
  5
7E66
330
6EDF
100
AcDbEntity
  8
DEFPOINTS
  6
ByBlock
 62
     0
100
AcDbPoint
 10
237.6612338134882
 20
128.2720662374014
 30
0.0
  0
POINT
  5
7E67
330
6EDF
100
AcDbEntity
  8
DEFPOINTS
  6
ByBlock
 62
     0
100
AcDbPoint
 10
271.6612338134881
 20
128.2720662374015
 30
0.0
  0
POINT
  5
7E68
330
6EDF
100
AcDbEntity
  8
DEFPOINTS
  6
ByBlock
 62
     0
100
AcDbPoint
 10
271.6612338134881
 20
147.4717483285768
 30
0.0
  0
ENDBLK
  5
7E69
330
6EDF
100
AcDbEntity
  8
0
100
AcDbBlockEnd
  0
BLOCK
  5
7DAC
330
6EF7
100
AcDbEntity
  8
0
100
AcDbBlockBegin
  2
*D4
 70
     1
 10
0.0
 20
0.0
 30
0.0
  3
*D4
  1

  0
LINE
  5
7DAD
330
6EF7
100
AcDbEntity
  8
0
  6
ByBlock
 62
     6
100
AcDbLine
 10
247.1612338134881
 20
113.7720662374015
 30
0.0
 11
247.1612338134881
 21
103.7927332672329
 31
0.0
  0
LINE
  5
7DAE
330
6EF7
100
AcDbEntity
  8
0
  6
ByBlock
 62
     6
100
AcDbLine
 10
262.1612338134881
 20
113.7720662374012
 30
0.0
 11
262.1612338134881
 21
103.7927332672329
 31
0.0
  0
LINE
  5
7DAF
330
6EF7
100
AcDbEntity
  8
0
  6
ByBlock
 62
     6
100
AcDbLine
 10
248.4112338134881
 20
104.7927332672329
 30
0.0
 11
260.9112338134881
 21
104.7927332672329
 31
0.0
  0
MTEXT
  5
7DB0
330
6EF7
100
AcDbEntity
  8
0
  6
ByBlock
 62
     3
100
AcDbMText
 10
254.661233813488
 20
106.1677332672329
 30
0.0
 40
1.75
 41
0.0
 71
     5
 72
     1
  1
\A1;M15X1.0P
  7
TXT
 73
     1
 44
1.0
  0
SOLID
  5
7DB1
330
6EF7
100
AcDbEntity
  8
0
  6
ByBlock
 62
     6
100
AcDbTrace
 10
248.4112338134881
 20
105.0010666005663
 30
0.0
 11
248.4112338134881
 21
104.5843999338996
 31
0.0
 12
247.1612338134881
 22
104.7927332672329
 32
0.0
 13
247.1612338134881
 23
104.7927332672329
 33
0.0
  0
SOLID
  5
7DB2
330
6EF7
100
AcDbEntity
  8
0
  6
ByBlock
 62
     6
100
AcDbTrace
 10
260.9112338134881
 20
105.0010666005663
 30
0.0
 11
260.9112338134881
 21
104.5843999338996
 31
0.0
 12
262.1612338134881
 22
104.7927332672329
 32
0.0
 13
262.1612338134881
 23
104.7927332672329
 33
0.0
  0
POINT
  5
7DB3
330
6EF7
100
AcDbEntity
  8
DEFPOINTS
  6
ByBlock
 62
     0
100
AcDbPoint
 10
247.1612338134881
 20
114.7720662374015
 30
0.0
  0
POINT
  5
7DB4
330
6EF7
100
AcDbEntity
  8
DEFPOINTS
  6
ByBlock
 62
     0
100
AcDbPoint
 10
262.1612338134881
 20
114.7720662374012
 30
0.0
  0
POINT
  5
7DB5
330
6EF7
100
AcDbEntity
  8
DEFPOINTS
  6
ByBlock
 62
     0
100
AcDbPoint
 10
262.1612338134881
 20
104.7927332672329
 30
0.0
  0
ENDBLK
  5
7DB6
330
6EF7
100
AcDbEntity
  8
0
100
AcDbBlockEnd
  0
BLOCK
  5
7E46
330
7058
100
AcDbEntity
  8
0
100
AcDbBlockBegin
  2
*D5
 70
     1
 10
0.0
 20
0.0
 30
0.0
  3
*D5
  1

  0
LINE
  5
7E47
330
7058
100
AcDbEntity
  8
0
  6
ByBlock
 62
     6
100
AcDbLine
 10
241.6612338134882
 20
130.7720662374014
 30
0.0
 11
241.6612338134882
 21
144.1293533687599
 31
0.0
  0
LINE
  5
7E48
330
7058
100
AcDbEntity
  8
0
  6
ByBlock
 62
     6
100
AcDbLine
 10
267.6612338134881
 20
130.7720662374014
 30
0.0
 11
267.6612338134881
 21
144.1293533687599
 31
0.0
  0
LINE
  5
7E49
330
7058
100
AcDbEntity
  8
0
  6
ByBlock
 62
     6
100
AcDbLine
 10
242.9112338134881
 20
143.1293533687599
 30
0.0
 11
266.4112338134881
 21
143.1293533687599
 31
0.0
  0
SOLID
  5
7E4A
330
7058
100
AcDbEntity
  8
0
  6
ByBlock
 62
     6
100
AcDbTrace
 10
242.9112338134881
 20
143.3376867020932
 30
0.0
 11
242.9112338134881
 21
142.9210200354265
 31
0.0
 12
241.6612338134882
 22
143.1293533687599
 32
0.0
 13
241.6612338134882
 23
143.1293533687599
 33
0.0
  0
SOLID
  5
7E4B
330
7058
100
AcDbEntity
  8
0
  6
ByBlock
 62
     6
100
AcDbTrace
 10
266.4112338134881
 20
143.3376867020932
 30
0.0
 11
266.4112338134881
 21
142.9210200354265
 31
0.0
 12
267.6612338134881
 22
143.1293533687599
 32
0.0
 13
267.6612338134881
 23
143.1293533687599
 33
0.0
  0
MTEXT
  5
7E4C
330
7058
100
AcDbEntity
  8
0
  6
ByBlock
 62
     3
100
AcDbMText
 10
254.6612338134881
 20
144.5043533687599
 30
0.0
 40
1.75
 41
0.0
 71
     5
 72
     1
  1
\A1;\U+220526±0.5
  7
TXT
 73
     1
 44
1.0
  0
POINT
  5
7E4D
330
7058
100
AcDbEntity
  8
DEFPOINTS
  6
ByBlock
 62
     0
100
AcDbPoint
 10
241.6612338134882
 20
129.7720662374014
 30
0.0
  0
POINT
  5
7E4E
330
7058
100
AcDbEntity
  8
DEFPOINTS
  6
ByBlock
 62
     0
100
AcDbPoint
 10
267.6612338134881
 20
129.7720662374014
 30
0.0
  0
POINT
  5
7E4F
330
7058
100
AcDbEntity
  8
DEFPOINTS
  6
ByBlock
 62
     0
100
AcDbPoint
 10
267.6612338134881
 20
143.1293533687599
 30
0.0
  0
ENDBLK
  5
7E50
330
7058
100
AcDbEntity
  8
0
100
AcDbBlockEnd
  0
BLOCK
  5
7DC2
330
74F4
100
AcDbEntity
  8
0
100
AcDbBlockBegin
  2
*D6
 70
     1
 10
0.0
 20
0.0
 30
0.0
  3
*D6
  1

  0
LINE
  5
7DC3
330
74F4
100
AcDbEntity
  8
0
  6
ByBlock
 62
     6
100
AcDbLine
 10
268.6612338134881
 20
129.7720662374014
 30
0.0
 11
278.4867434415135
 21
129.7720662374014
 31
0.0
  0
LINE
  5
7DC4
330
74F4
100
AcDbEntity
  8
0
  6
ByBlock
 62
     6
100
AcDbLine
 10
270.9112338134881
 20
116.8031551506469
 30
0.0
 11
278.4867434415135
 21
116.8031551506469
 31
0.0
  0
LINE
  5
7DC5
330
74F4
100
AcDbEntity
  8
0
  6
ByBlock
 62
     6
100
AcDbLine
 10
277.4867434415134
 20
128.5220662374014
 30
0.0
 11
277.4867434415134
 21
118.0531551506469
 31
0.0
  0
SOLID
  5
7DC6
330
74F4
100
AcDbEntity
  8
0
  6
ByBlock
 62
     6
100
AcDbTrace
 10
277.2784101081801
 20
128.5220662374014
 30
0.0
 11
277.6950767748468
 21
128.5220662374014
 31
0.0
 12
277.4867434415134
 22
129.7720662374014
 32
0.0
 13
277.4867434415134
 23
129.7720662374014
 33
0.0
  0
SOLID
  5
7DC7
330
74F4
100
AcDbEntity
  8
0
  6
ByBlock
 62
     6
100
AcDbTrace
 10
277.2784101081801
 20
118.0531551506469
 30
0.0
 11
277.6950767748468
 21
118.0531551506469
 31
0.0
 12
277.4867434415134
 22
116.8031551506469
 32
0.0
 13
277.4867434415134
 23
116.8031551506469
 33
0.0
  0
MTEXT
  5
7DC8
330
74F4
100
AcDbEntity
  8
0
  6
ByBlock
 62
     3
100
AcDbMText
 10
276.1117434415135
 20
123.2876106940242
 30
0.0
 40
1.75
 41
0.0
 71
     5
 72
     1
  1
\A1;13
  7
TXT
 11
0.0000000000000001
 21
1.0
 31
0.0
 73
     1
 44
1.0
  0
POINT
  5
7DC9
330
74F4
100
AcDbEntity
  8
DEFPOINTS
  6
ByBlock
 62
     0
100
AcDbPoint
 10
267.6612338134881
 20
129.7720662374014
 30
0.0
  0
POINT
  5
7DCA
330
74F4
100
AcDbEntity
  8
DEFPOINTS
  6
ByBlock
 62
     0
100
AcDbPoint
 10
269.9112338134881
 20
116.8031551506469
 30
0.0
  0
POINT
  5
7DCB
330
74F4
100
AcDbEntity
  8
DEFPOINTS
  6
ByBlock
 62
     0
100
AcDbPoint
 10
277.4867434415134
 20
116.8031551506469
 30
0.0
  0
ENDBLK
  5
7DCC
330
74F4
100
AcDbEntity
  8
0
100
AcDbBlockEnd
  0
BLOCK
  5
7DCD
330
7500
100
AcDbEntity
  8
0
100
AcDbBlockBegin
  2
*D7
 70
     1
 10
0.0
 20
0.0
 30
0.0
  3
*D7
  1

  0
LINE
  5
7DCE
330
7500
100
AcDbEntity
  8
0
  6
ByBlock
 62
     6
100
AcDbLine
 10
268.6612338134881
 20
129.7720662374014
 30
0.0
 11
282.3892316710077
 21
129.7720662374014
 31
0.0
  0
LINE
  5
7DCF
330
7500
100
AcDbEntity
  8
0
  6
ByBlock
 62
     6
100
AcDbLine
 10
269.1612338134881
 20
113.7720662374014
 30
0.0
 11
282.3892316710077
 21
113.7720662374014
 31
0.0
  0
LINE
  5
7DD0
330
7500
100
AcDbEntity
  8
0
  6
ByBlock
 62
     6
100
AcDbLine
 10
281.3892316710077
 20
128.5220662374014
 30
0.0
 11
281.3892316710077
 21
115.0220662374014
 31
0.0
  0
MTEXT
  5
7DD1
330
7500
100
AcDbEntity
  8
0
  6
ByBlock
 62
     3
100
AcDbMText
 10
280.0142316710077
 20
121.7720662374014
 30
0.0
 40
1.75
 41
0.0
 71
     5
 72
     1
  1
\A1;16±0.2
  7
TXT
 11
0.0000000000000001
 21
1.0
 31
0.0
 73
     1
 44
1.0
  0
SOLID
  5
7DD2
330
7500
100
AcDbEntity
  8
0
  6
ByBlock
 62
     6
100
AcDbTrace
 10
281.1808983376744
 20
128.5220662374014
 30
0.0
 11
281.597565004341
 21
128.5220662374014
 31
0.0
 12
281.3892316710077
 22
129.7720662374014
 32
0.0
 13
281.3892316710077
 23
129.7720662374014
 33
0.0
  0
SOLID
  5
7DD3
330
7500
100
AcDbEntity
  8
0
  6
ByBlock
 62
     6
100
AcDbTrace
 10
281.1808983376744
 20
115.0220662374014
 30
0.0
 11
281.597565004341
 21
115.0220662374014
 31
0.0
 12
281.3892316710077
 22
113.7720662374014
 32
0.0
 13
281.3892316710077
 23
113.7720662374014
 33
0.0
  0
POINT
  5
7DD4
330
7500
100
AcDbEntity
  8
DEFPOINTS
  6
ByBlock
 62
     0
100
AcDbPoint
 10
267.6612338134881
 20
129.7720662374014
 30
0.0
  0
POINT
  5
7DD5
330
7500
100
AcDbEntity
  8
DEFPOINTS
  6
ByBlock
 62
     0
100
AcDbPoint
 10
268.1612338134881
 20
113.7720662374014
 30
0.0
  0
POINT
  5
7DD6
330
7500
100
AcDbEntity
  8
DEFPOINTS
  6
ByBlock
 62
     0
100
AcDbPoint
 10
281.3892316710077
 20
113.7720662374014
 30
0.0
  0
ENDBLK
  5
7DD7
330
7500
100
AcDbEntity
  8
0
100
AcDbBlockEnd
  0
BLOCK
  5
7DD8
330
751A
100
AcDbEntity
  8
0
100
AcDbBlockBegin
  2
*D8
 70
     1
 10
0.0
 20
0.0
 30
0.0
  3
*D8
  1

  0
LINE
  5
7DD9
330
751A
100
AcDbEntity
  8
0
  6
ByBlock
 62
     6
100
AcDbLine
 10
272.5272592172725
 20
119.3342440638924
 30
0.0
 11
287.7968699174301
 21
110.5183302157355
 31
0.0
  0
LINE
  5
7DDA
330
751A
100
AcDbEntity
  8
0
  6
ByBlock
 62
     6
100
AcDbLine
 10
269.0272592172725
 20
113.2720662374014
 30
0.0
 11
284.2968699174301
 21
104.4561523892445
 31
0.0
  0
LINE
  5
7DDB
330
751A
100
AcDbEntity
  8
0
  6
ByBlock
 62
     6
100
AcDbLine
 10
286.3058445136456
 20
109.935798461005
 30
0.0
 11
284.0558445136456
 21
106.0386841439751
 31
0.0
  0
LINE
  5
7DDC
330
751A
100
AcDbEntity
  8
0
  6
ByBlock
 62
     6
100
AcDbLine
 10
291.7889162910072
 20
119.4327573609421
 30
0.0
 11
286.9308445136456
 21
111.0183302157355
 31
0.0
  0
MTEXT
  5
7DDD
330
751A
100
AcDbEntity
  8
0
  6
ByBlock
 62
     3
100
AcDbMText
 10
288.5835480274703
 20
116.6308966715273
 30
0.0
 40
1.75
 41
0.0
 71
     5
 72
     1
  1
\A1;7±0.5
  7
TXT
 11
0.5000000000000049
 21
0.8660254037844358
 31
0.0
 73
     1
 44
1.0
  0
SOLID
  5
7DDE
330
751A
100
AcDbEntity
  8
0
  6
ByBlock
 62
     6
100
AcDbTrace
 10
286.1254225545239
 20
110.0399651276716
 30
0.0
 11
286.4862664727674
 21
109.8316317943383
 31
0.0
 12
286.9308445136456
 22
111.0183302157355
 32
0.0
 13
286.9308445136456
 23
111.0183302157355
 33
0.0
  0
SOLID
  5
7DDF
330
751A
100
AcDbEntity
  8
0
  6
ByBlock
 62
     6
100
AcDbTrace
 10
283.8754225545239
 20
106.1428508106417
 30
0.0
 11
284.2362664727674
 21
105.9345174773084
 31
0.0
 12
283.4308445136457
 22
104.9561523892445
 32
0.0
 13
283.4308445136457
 23
104.9561523892445
 33
0.0
  0
POINT
  5
7DE0
330
751A
100
AcDbEntity
  8
DEFPOINTS
  6
ByBlock
 62
     0
100
AcDbPoint
 10
271.661233813488
 20
119.8342440638924
 30
0.0
  0
POINT
  5
7DE1
330
751A
100
AcDbEntity
  8
DEFPOINTS
  6
ByBlock
 62
     0
100
AcDbPoint
 10
268.161233813488
 20
113.7720662374014
 30
0.0
  0
POINT
  5
7DE2
330
751A
100
AcDbEntity
  8
DEFPOINTS
  6
ByBlock
 62
     0
100
AcDbPoint
 10
283.4308445136457
 20
104.9561523892445
 30
0.0
  0
ENDBLK
  5
7DE3
330
751A
100
AcDbEntity
  8
0
100
AcDbBlockEnd
  0
BLOCK
  5
7DE4
330
780C
100
AcDbEntity
  8
0
100
AcDbBlockBegin
  2
*D9
 70
     1
 10
0.0
 20
0.0
 30
0.0
  3
*D9
  1

  0
LINE
  5
7DE5
330
780C
100
AcDbEntity
  8
0
  6
ByBlock
 62
     6
100
AcDbLine
 10
255.661233813488
 20
127.7720662374014
 30
0.0
 11
261.5857278735218
 21
127.7720662374014
 31
0.0
  0
LINE
  5
7DE6
330
780C
100
AcDbEntity
  8
0
  6
ByBlock
 62
     6
100
AcDbLine
 10
255.661233813488
 20
129.7720662374014
 30
0.0
 11
261.5857278735218
 21
129.7720662374014
 31
0.0
  0
LINE
  5
7DE7
330
780C
100
AcDbEntity
  8
0
  6
ByBlock
 62
     6
100
AcDbLine
 10
260.5857278735218
 20
126.5220662374014
 30
0.0
 11
260.5857278735218
 21
125.2720662374014
 31
0.0
  0
LINE
  5
7DE8
330
780C
100
AcDbEntity
  8
0
  6
ByBlock
 62
     6
100
AcDbLine
 10
260.5857278735218
 20
131.0220662374014
 30
0.0
 11
260.5857278735218
 21
132.2720662374014
 31
0.0
  0
LINE
  5
7DE9
330
780C
100
AcDbEntity
  8
0
  6
ByBlock
 62
     6
100
AcDbLine
 10
260.5857278735218
 20
134.5516440883334
 30
0.0
 11
260.5857278735218
 21
129.7720662374014
 31
0.0
  0
MTEXT
  5
7DEA
330
780C
100
AcDbEntity
  8
0
  6
ByBlock
 62
     3
100
AcDbMText
 10
259.2107278735218
 20
133.468310755
 30
0.0
 40
1.75
 41
0.0
 71
     5
 72
     1
  1
\A1;2
  7
TXT
 11
0.0000000000000001
 21
1.0
 31
0.0
 73
     1
 44
1.0
  0
LINE
  5
7DEB
330
780C
100
AcDbEntity
  8
0
  6
ByBlock
 62
     6
100
AcDbLine
 10
260.5857278735218
 20
127.7720662374014
 30
0.0
 11
260.5857278735218
 21
129.7720662374014
 31
0.0
  0
SOLID
  5
7DEC
330
780C
100
AcDbEntity
  8
0
  6
ByBlock
 62
     6
100
AcDbTrace
 10
260.3773945401885
 20
126.5220662374014
 30
0.0
 11
260.7940612068551
 21
126.5220662374014
 31
0.0
 12
260.5857278735218
 22
127.7720662374014
 32
0.0
 13
260.5857278735218
 23
127.7720662374014
 33
0.0
  0
SOLID
  5
7DED
330
780C
100
AcDbEntity
  8
0
  6
ByBlock
 62
     6
100
AcDbTrace
 10
260.3773945401885
 20
131.0220662374014
 30
0.0
 11
260.7940612068551
 21
131.0220662374014
 31
0.0
 12
260.5857278735218
 22
129.7720662374014
 32
0.0
 13
260.5857278735218
 23
129.7720662374014
 33
0.0
  0
POINT
  5
7DEE
330
780C
100
AcDbEntity
  8
DEFPOINTS
  6
ByBlock
 62
     0
100
AcDbPoint
 10
254.661233813488
 20
127.7720662374014
 30
0.0
  0
POINT
  5
7DEF
330
780C
100
AcDbEntity
  8
DEFPOINTS
  6
ByBlock
 62
     0
100
AcDbPoint
 10
254.661233813488
 20
129.7720662374014
 30
0.0
  0
POINT
  5
7DF0
330
780C
100
AcDbEntity
  8
DEFPOINTS
  6
ByBlock
 62
     0
100
AcDbPoint
 10
260.5857278735218
 20
129.7720662374014
 30
0.0
  0
ENDBLK
  5
7DF1
330
780C
100
AcDbEntity
  8
0
100
AcDbBlockEnd
  0
BLOCK
  5
7E17
330
7B64
100
AcDbEntity
  8
0
100
AcDbBlockBegin
  2
*D10
 70
     1
 10
0.0
 20
0.0
 30
0.0
  3
*D10
  1

  0
LINE
  5
7E18
330
7B64
100
AcDbEntity
  8
0
  6
ByBlock
 62
     6
100
AcDbLine
 10
237.6612338134881
 20
129.2720662374014
 30
0.0
 11
229.3563572233629
 21
129.2720662374014
 31
0.0
  0
LINE
  5
7E19
330
7B64
100
AcDbEntity
  8
0
  6
ByBlock
 62
     6
100
AcDbLine
 10
240.6612338134881
 20
129.7720662374014
 30
0.0
 11
229.3563572233629
 21
129.7720662374014
 31
0.0
  0
LINE
  5
7E1A
330
7B64
100
AcDbEntity
  8
0
  6
ByBlock
 62
     6
100
AcDbLine
 10
230.3563572233628
 20
128.0220662374014
 30
0.0
 11
230.3563572233628
 21
126.7720662374014
 31
0.0
  0
LINE
  5
7E1B
330
7B64
100
AcDbEntity
  8
0
  6
ByBlock
 62
     6
100
AcDbLine
 10
230.3563572233628
 20
131.0220662374014
 30
0.0
 11
230.3563572233628
 21
132.2720662374014
 31
0.0
  0
LINE
  5
7E1C
330
7B64
100
AcDbEntity
  8
0
  6
ByBlock
 62
     6
100
AcDbLine
 10
230.3563572233628
 20
136.5510014790298
 30
0.0
 11
230.3563572233628
 21
129.7720662374014
 31
0.0
  0
MTEXT
  5
7E1D
330
7B64
100
AcDbEntity
  8
0
  6
ByBlock
 62
     3
100
AcDbMText
 10
228.9813572233629
 20
134.4468348123632
 30
0.0
 40
1.75
 41
0.0
 71
     5
 72
     1
  1
\A1;0.5
  7
TXT
 11
0.0000000000000001
 21
1.0
 31
0.0
 73
     1
 44
1.0
  0
LINE
  5
7E1E
330
7B64
100
AcDbEntity
  8
0
  6
ByBlock
 62
     6
100
AcDbLine
 10
230.3563572233628
 20
129.2720662374014
 30
0.0
 11
230.3563572233628
 21
129.7720662374014
 31
0.0
  0
SOLID
  5
7E1F
330
7B64
100
AcDbEntity
  8
0
  6
ByBlock
 62
     6
100
AcDbTrace
 10
230.1480238900295
 20
128.0220662374014
 30
0.0
 11
230.5646905566962
 21
128.0220662374014
 31
0.0
 12
230.3563572233628
 22
129.2720662374014
 32
0.0
 13
230.3563572233628
 23
129.2720662374014
 33
0.0
  0
SOLID
  5
7E20
330
7B64
100
AcDbEntity
  8
0
  6
ByBlock
 62
     6
100
AcDbTrace
 10
230.1480238900295
 20
131.0220662374014
 30
0.0
 11
230.5646905566962
 21
131.0220662374014
 31
0.0
 12
230.3563572233628
 22
129.7720662374014
 32
0.0
 13
230.3563572233628
 23
129.7720662374014
 33
0.0
  0
POINT
  5
7E21
330
7B64
100
AcDbEntity
  8
DEFPOINTS
  6
ByBlock
 62
     0
100
AcDbPoint
 10
238.6612338134881
 20
129.2720662374014
 30
0.0
  0
POINT
  5
7E22
330
7B64
100
AcDbEntity
  8
DEFPOINTS
  6
ByBlock
 62
     0
100
AcDbPoint
 10
241.6612338134882
 20
129.7720662374014
 30
0.0
  0
POINT
  5
7E23
330
7B64
100
AcDbEntity
  8
DEFPOINTS
  6
ByBlock
 62
     0
100
AcDbPoint
 10
230.3563572233628
 20
129.7720662374014
 30
0.0
  0
ENDBLK
  5
7E24
330
7B64
100
AcDbEntity
  8
0
100
AcDbBlockEnd
  0
BLOCK
  5
7DFF
330
7C0B
100
AcDbEntity
  8
0
100
AcDbBlockBegin
  2
*D11
 70
     1
 10
0.0
 20
0.0
 30
0.0
  3
*D11
  1

  0
LINE
  5
7E00
330
7C0B
100
AcDbEntity
  8
0
  6
ByBlock
 62
     6
100
AcDbLine
 10
271.6609364622341
 20
115.8092556817201
 30
0.0
 11
293.0877413680966
 21
103.6379933063696
 31
0.0
  0
LINE
  5
7E01
330
7C0B
100
AcDbEntity
  8
0
  6
ByBlock
 62
     6
100
AcDbLine
 10
268.661233813488
 20
129.7720662374014
 30
0.0
 11
299.9922386057466
 21
129.7720662374015
 31
0.0
  0
ARC
  5
7E02
330
7C0B
100
AcDbEntity
  8
0
  6
ByBlock
 62
     6
100
AcDbCircle
 10
247.0802143902164
 20
129.7720662374014
 30
0.0
 40
51.91202421553025
100
AcDbArc
 50
331.781402250554
 51
358.6203301484935
  0
SOLID
  5
7E03
330
7C0B
100
AcDbEntity
  8
0
  6
ByBlock
 62
     6
100
AcDbTrace
 10
293.0048691607045
 20
105.1254399465718
 30
0.0
 11
292.640121915284
 21
105.3268612911934
 31
0.0
 12
292.2182315041292
 22
104.1319088826208
 32
0.0
 13
292.2182315041292
 23
104.1319088826208
 33
0.0
  0
SOLID
  5
7E04
330
7C0B
100
AcDbEntity
  8
0
  6
ByBlock
 62
     6
100
AcDbTrace
 10
298.7688708722859
 20
128.5246650856358
 30
0.0
 11
299.1855073395321
 21
128.51964858569
 31
0.0
 12
298.9922386057466
 22
129.7720662374015
 32
0.0
 13
298.9922386057466
 23
129.7720662374015
 33
0.0
  0
MTEXT
  5
7E05
330
7C0B
100
AcDbEntity
  8
0
  6
ByBlock
 62
     3
100
AcDbMText
 10
295.940786552456
 20
116.8633364571457
 30
0.0
 40
1.75
 41
0.0
 71
     5
 72
     1
  1
\A1;30°
  7
TXT
 11
0.2554311414380615
 21
0.9668272503315414
 31
0.0
 73
     1
 44
1.0
  0
POINT
  5
7E06
330
7C0B
100
AcDbEntity
  8
DEFPOINTS
  6
ByBlock
 62
     0
100
AcDbPoint
 10
295.9440204649725
 20
112.2453234127227
 30
0.0
  0
POINT
  5
7E07
330
7C0B
100
AcDbEntity
  8
DEFPOINTS
  6
ByBlock
 62
     0
100
AcDbPoint
 10
241.6612338134882
 20
129.7720662374014
 30
0.0
  0
POINT
  5
7E08
330
7C0B
100
AcDbEntity
  8
DEFPOINTS
  6
ByBlock
 62
     0
100
AcDbPoint
 10
270.7914265982669
 20
116.3031712579714
 30
0.0
  0
POINT
  5
7E09
330
7C0B
100
AcDbEntity
  8
DEFPOINTS
  6
ByBlock
 62
     0
100
AcDbPoint
 10
259.661233813488
 20
122.6255556389815
 30
0.0
  0
POINT
  5
7E0A
330
7C0B
100
AcDbEntity
  8
DEFPOINTS
  6
ByBlock
 62
     0
100
AcDbPoint
 10
267.661233813488
 20
129.7720662374014
 30
0.0
  0
ENDBLK
  5
7E0B
330
7C0B
100
AcDbEntity
  8
0
100
AcDbBlockEnd
  0
BLOCK
  5
7E3B
330
7D5B
100
AcDbEntity
  8
0
100
AcDbBlockBegin
  2
*D12
 70
     1
 10
0.0
 20
0.0
 30
0.0
  3
*D12
  1

  0
LINE
  5
7E3C
330
7D5B
100
AcDbEntity
  8
0
  6
ByBlock
 62
     6
100
AcDbLine
 10
246.6612338134881
 20
130.7720662374014
 30
0.0
 11
246.6612338134881
 21
140.9315193458317
 31
0.0
  0
LINE
  5
7E3D
330
7D5B
100
AcDbEntity
  8
0
  6
ByBlock
 62
     6
100
AcDbLine
 10
262.661233813488
 20
130.7720662374014
 30
0.0
 11
262.661233813488
 21
140.9315193458317
 31
0.0
  0
LINE
  5
7E3E
330
7D5B
100
AcDbEntity
  8
0
  6
ByBlock
 62
     6
100
AcDbLine
 10
247.9112338134881
 20
139.9315193458317
 30
0.0
 11
261.411233813488
 21
139.9315193458317
 31
0.0
  0
SOLID
  5
7E3F
330
7D5B
100
AcDbEntity
  8
0
  6
ByBlock
 62
     6
100
AcDbTrace
 10
247.9112338134881
 20
140.1398526791651
 30
0.0
 11
247.9112338134881
 21
139.7231860124984
 31
0.0
 12
246.6612338134881
 22
139.9315193458317
 32
0.0
 13
246.6612338134881
 23
139.9315193458317
 33
0.0
  0
SOLID
  5
7E40
330
7D5B
100
AcDbEntity
  8
0
  6
ByBlock
 62
     6
100
AcDbTrace
 10
261.411233813488
 20
140.1398526791651
 30
0.0
 11
261.411233813488
 21
139.7231860124984
 31
0.0
 12
262.661233813488
 22
139.9315193458317
 32
0.0
 13
262.661233813488
 23
139.9315193458317
 33
0.0
  0
MTEXT
  5
7E41
330
7D5B
100
AcDbEntity
  8
0
  6
ByBlock
 62
     3
100
AcDbMText
 10
254.661233813488
 20
141.3065193458317
 30
0.0
 40
1.75
 41
0.0
 71
     5
 72
     1
  1
\A1;\U+220516
  7
TXT
 73
     1
 44
1.0
  0
POINT
  5
7E42
330
7D5B
100
AcDbEntity
  8
DEFPOINTS
  6
ByBlock
 62
     0
100
AcDbPoint
 10
246.6612338134881
 20
129.7720662374014
 30
0.0
  0
POINT
  5
7E43
330
7D5B
100
AcDbEntity
  8
DEFPOINTS
  6
ByBlock
 62
     0
100
AcDbPoint
 10
262.661233813488
 20
129.7720662374014
 30
0.0
  0
POINT
  5
7E44
330
7D5B
100
AcDbEntity
  8
DEFPOINTS
  6
ByBlock
 62
     0
100
AcDbPoint
 10
262.661233813488
 20
139.9315193458317
 30
0.0
  0
ENDBLK
  5
7E45
330
7D5B
100
AcDbEntity
  8
0
100
AcDbBlockEnd
  0
BLOCK
  5
7F38
330
7F37
100
AcDbEntity
  8
0
100
AcDbBlockBegin
  2
_Open30
 70
     0
 10
0.0
 20
0.0
 30
0.0
  3
_Open30
  1

  0
LINE
  5
7F39
330
7F37
100
AcDbEntity
  8
0
  6
ByBlock
 62
     0
370
    -2
100
AcDbLine
 10
-1.0
 20
0.26794919
 30
0.0
 11
0.0
 21
0.0
 31
0.0
  0
LINE
  5
7F3A
330
7F37
100
AcDbEntity
  8
0
  6
ByBlock
 62
     0
370
    -2
100
AcDbLine
 10
0.0
 20
0.0
 30
0.0
 11
-1.0
 21
-0.26794919
 31
0.0
  0
LINE
  5
7F3B
330
7F37
100
AcDbEntity
  8
0
  6
ByBlock
 62
     0
370
    -2
100
AcDbLine
 10
0.0
 20
0.0
 30
0.0
 11
-1.0
 21
0.0
 31
0.0
  0
ENDBLK
  5
7F3C
330
7F37
100
AcDbEntity
  8
0
100
AcDbBlockEnd
  0
ENDSEC
  0
SECTION
  2
ENTITIES
  0
MTEXT
  5
C0
330
18
100
AcDbEntity
  8
0
100
AcDbMText
 10
41.26970765600413
 20
233.6950877649332
 30
0.0
 40
2.5
 41
0.0
 71
     1
 72
     5
  1

  7
ISOCP3
 73
     1
 44
1.0
  0
MTEXT
  5
608E
330
18
100
AcDbEntity
  8
0
100
AcDbMText
 10
218.9159379645269
 20
83.56812717502874
 30
0.0
 40
2.5
 41
0.0
 71
     1
 72
     5
  1
\Ftxt.shx,bigfont.shx|c128;呉銘宏
  7
JL
 73
     1
 44
1.0
  0
MTEXT
  5
6095
330
18
100
AcDbEntity
  8
0
100
AcDbMText
 10
250.62378489576
 20
88.49503953014197
 30
0.0
 40
2.25
 41
0.0
 71
     1
 72
     5
  1
\Ftxt.shx,bigfont.shx|c128;2 : 1
  7
JL
 73
     1
 44
1.0
  0
MTEXT
  5
6098
330
18
100
AcDbEntity
  8
0
 48
2.0
370
    25
100
AcDbMText
 10
283.0679100150939
 20
75.69961297086194
 30
0.0
 40
2.25
 41
0.0
 71
     5
 72
     1
  1
\Ftxt.shx,bigfont.shx|c128;N L 4 0 0 6 8
 73
     1
 44
1.0
  0
MTEXT
  5
609C
330
18
100
AcDbEntity
  8
0
 48
2.0
100
AcDbMText
 10
299.0712339196668
 20
84.96887935368665
 30
0.0
 40
2.25
 41
0.0
 71
     5
 72
     1
  1
\P\Ftxt.shx,bigfont.shx|c128;    MF15X1.0P
 73
     1
 44
1.0
  0
MTEXT
  5
635A
330
18
100
AcDbEntity
  8
0
100
AcDbMText
 10
218.0179371153258
 20
88.20409093100721
 30
0.0
 40
2.25
 41
0.0
 71
     1
 72
     5
  1
\Ftxt.shx,bigfont.shx|c128;05.03.01
  7
JL
 73
     1
 44
1.0
  0
INSERT
  5
63A3
330
18
100
AcDbEntity
  8
0
100
AcDbBlockReference
  2
A$C255C26A2
 10
275.2967880448046
 20
129.7720658904108
 30
0.0
 41
0.5
 42
0.5
 43
0.5
  0
MTEXT
  5
63A4
330
18
100
AcDbEntity
  8
0
 62
     7
 48
2.0
100
AcDbMText
 10
277.3436894192327
 20
132.2198413739201
 30
0.0
 40
1.5
 41
0.0
 71
     5
 72
     1
  1
G
 73
     1
 44
1.0
  0
LEADER
  5
63C9
330
18
100
AcDbEntity
  8
DIM
 62
     6
100
AcDbLeader
  3
A
 76
     2
 10
270.9946613687608
 20
170.3787686901546
 30
0.0
 10
277.9474253841187
 20
161.3368974648667
 30
0.0
  0
LEADER
  5
63CA
330
18
100
AcDbEntity
  8
DIM
 62
     6
100
AcDbLeader
  3
A
 76
     2
 10
264.0442022223814
 20
122.2317162345331
 30
0.0
 10
277.9496424801681
 20
143.5566113910598
 30
0.0
  0
LEADER
  5
63CB
330
18
100
AcDbEntity
  8
DIM
 62
     6
100
AcDbLeader
  3
A
 76
     2
 10
269.911233813488
 20
116.803155150647
 30
0.0
 10
272.5849971528581
 20
106.0521762883439
 30
0.0
  0
MTEXT
  5
63CC
330
18
100
AcDbEntity
  8
DIM
100
AcDbMText
 10
277.6369147302252
 20
146.3846735540501
 30
0.0
 40
2.5
 41
1.0
 71
     1
 72
     5
  1
\Ftxt.shx,bigfont.shx|c128;3
 73
     1
 44
1.0
  0
MTEXT
  5
63CD
330
18
100
AcDbEntity
  8
DIM
100
AcDbMText
 10
277.9295696907595
 20
161.081738447059
 30
0.0
 40
2.5
 41
1.0
 71
     1
 72
     5
  1
\Ftxt.shx,bigfont.shx|c128;1
 73
     1
 44
1.0
  0
MTEXT
  5
63CE
330
18
100
AcDbEntity
  8
DIM
100
AcDbMText
 10
271.972732953444
 20
105.5455069839587
 30
0.0
 40
2.5
 41
1.0
 71
     1
 72
     5
  1
\Ftxt.shx,bigfont.shx|c128;2
 73
     1
 44
1.0
  0
LINE
  5
64AF
330
18
100
AcDbEntity
  8
図框線
100
AcDbLine
 10
309.006196569778
 20
218.8811280034474
 30
0.0
 11
309.006196569778
 21
73.8811280034474
 31
0.0
  0
LINE
  5
64B0
330
18
100
AcDbEntity
  8
図框線
370
    30
100
AcDbLine
 10
210.006196569778
 20
73.88112800344742
 30
0.0
 11
210.006196569778
 21
218.8811280034475
 31
0.0
  0
LINE
  5
64B1
330
18
100
AcDbEntity
  8
0
 62
     7
 48
5.0
100
AcDbLine
 39
2.0
 10
234.9799491479497
 20
87.82878999263653
 30
0.0
 11
237.6458510058043
 21
88.49526545710018
 31
0.0
  0
MTEXT
  5
64B2
330
18
100
AcDbEntity
  8
0
100
AcDbMText
 10
217.9955314555718
 20
78.69679805584155
 30
0.0
 40
3.0
 41
0.0
 71
     1
 72
     5
  1
\Ftxt.shx,bigfont.shx|c128;日機株式会社
  7
LKK
 73
     1
 44
1.0
  0
LINE
  5
64B3
330
18
100
AcDbEntity
  8
図框線
100
AcDbLine
 10
210.0061965697781
 20
73.88112800344742
 30
0.0
 11
309.006196569778
 21
73.88112800344742
 31
0.0
  0
LINE
  5
64B7
330
18
100
AcDbEntity
  8
図框線
100
AcDbLine
 10
210.0061965697781
 20
79.88112800344743
 30
0.0
 11
309.006196569778
 21
79.88112800344746
 31
0.0
  0
LINE
  5
64B8
330
18
100
AcDbEntity
  8
図框線
100
AcDbLine
 10
210.0061965697781
 20
84.88112800344742
 30
0.0
 11
258.0061965697781
 21
84.88112800344742
 31
0.0
  0
LINE
  5
64B9
330
18
100
AcDbEntity
  8
図框線
100
AcDbLine
 10
210.0061965697781
 20
89.88112800344742
 30
0.0
 11
309.006196569778
 21
89.88112800344742
 31
0.0
  0
LINE
  5
64BA
330
18
100
AcDbEntity
  8
図框線
100
AcDbLine
 10
216.0061965697781
 20
89.88112800344742
 30
0.0
 11
216.0061965697781
 21
79.88112800344743
 31
0.0
  0
LINE
  5
64BB
330
18
100
AcDbEntity
  8
図框線
100
AcDbLine
 10
226.0061965697781
 20
89.88112800344742
 30
0.0
 11
226.0061965697781
 21
79.88112800344743
 31
0.0
  0
MTEXT
  5
64BC
330
18
100
AcDbEntity
  8
0
100
AcDbMText
 10
211.4809186941885
 20
88.40470317020356
 30
0.0
 40
2.25
 41
0.0
 71
     1
 72
     5
  1
\Ftxt.shx,bigfont.shx|c128;日 付
  7
JL
 73
     1
 44
1.0
  0
MTEXT
  5
64BD
330
18
100
AcDbEntity
  8
0
100
AcDbMText
 10
211.5540527522331
 20
83.80029750080201
 30
0.0
 40
2.25
 41
0.0
 71
     1
 72
     5
  1
\Ftxt.shx,bigfont.shx|c128;製 図
  7
JL
 73
     1
 44
1.0
  0
LINE
  5
64C0
330
18
100
AcDbEntity
  8
0
 62
     7
370
    25
100
AcDbLine
 10
237.6458510058043
 20
85.82936359924559
 30
0.0
 11
237.6458510058043
 21
88.49526545710018
 31
0.0
  0
MTEXT
  5
64C1
330
18
100
AcDbEntity
  8
0
100
AcDbMText
 10
243.3574669064409
 20
88.59228735478666
 30
0.0
 40
2.25
 41
0.0
 71
     1
 72
     5
  1
\Ftxt.shx,bigfont.shx|c128;尺 度
  7
JL
 73
     1
 44
1.0
  0
LINE
  5
64C2
330
18
100
AcDbEntity
  8
図框線
100
AcDbLine
 10
242.0061965697781
 20
89.88112800344742
 30
0.0
 11
242.0061965697781
 21
79.88112800344743
 31
0.0
  0
LINE
  5
64C3
330
18
100
AcDbEntity
  8
0
 62
     7
370
    25
100
AcDbLine
 10
230.647858628936
 20
85.500602362128
 30
0.0
 11
230.647858628936
 21
88.7184617534757
 31
0.0
  0
CIRCLE
  5
64C4
330
18
100
AcDbEntity
  8
0
 62
     7
100
AcDbCircle
 10
230.647858628936
 20
87.16231452817282
 30
0.0
 40
1.33295092892732
  0
LINE
  5
64C6
330
18
100
AcDbEntity
  8
0
 62
     7
370
    25
100
AcDbLine
 10
234.5963479753085
 20
87.16231452817288
 30
0.0
 11
237.8851831792939
 21
87.16231452817288
 31
0.0
  0
LINE
  5
64C7
330
18
100
AcDbEntity
  8
0
 62
     7
100
AcDbLine
 10
234.9799491479497
 20
86.49583906370924
 30
0.0
 11
237.6458510058043
 21
85.82936359924559
 31
0.0
  0
LINE
  5
64C8
330
18
100
AcDbEntity
  8
図框線
100
AcDbLine
 10
232.0061965697781
 20
84.88112800344737
 30
0.0
 11
232.0061965697781
 21
79.88112800344743
 31
0.0
  0
LINE
  5
64C9
330
18
100
AcDbEntity
  8
0
 62
     7
370
    25
100
AcDbLine
 10
228.9820592339978
 20
87.16231452817282
 30
0.0
 11
232.4131545431627
 21
87.16231452817288
 31
0.0
  0
CIRCLE
  5
64CA
330
18
100
AcDbEntity
  8
0
 62
     7
100
AcDbCircle
 10
230.647858628936
 20
87.16231452817282
 30
0.0
 40
0.6664754644636604
  0
MTEXT
  5
64CB
330
18
100
AcDbEntity
  8
0
100
AcDbMText
 10
227.566629159977
 20
83.58103971928768
 30
0.0
 40
2.25
 41
0.0
 71
     1
 72
     5
  1
\Ftxt.shx,bigfont.shx|c128;検 図
  7
JL
 73
     1
 44
1.0
  0
LINE
  5
64CC
330
18
100
AcDbEntity
  8
0
 62
     7
370
    25
100
AcDbLine
 10
234.9799491479497
 20
86.49583906370924
 30
0.0
 11
234.9799491479497
 21
87.82878999263653
 31
0.0
  0
MTEXT
  5
64CD
330
18
100
AcDbEntity
  8
0
100
AcDbMText
 10
243.5037336614656
 20
83.69553826345475
 30
0.0
 40
2.25
 41
0.0
 71
     1
 72
     5
  1
\Ftxt.shx,bigfont.shx|c128;承 認
  7
JL
 73
     1
 44
1.0
  0
LINE
  5
64CE
330
18
100
AcDbEntity
  8
図框線
100
AcDbLine
 10
276.8769738641711
 20
188.397133451475
 30
0.0
 11
306.8769738641711
 21
188.397133451475
 31
0.0
  0
LINE
  5
64CF
330
18
100
AcDbEntity
  8
図框線
100
AcDbLine
 10
276.8769738641711
 20
191.997133451475
 30
0.0
 11
306.8769738641711
 21
191.997133451475
 31
0.0
  0
LINE
  5
64D0
330
18
100
AcDbEntity
  8
図框線
100
AcDbLine
 10
276.8769738641711
 20
195.597133451475
 30
0.0
 11
306.8769738641711
 21
195.597133451475
 31
0.0
  0
LINE
  5
64D1
330
18
100
AcDbEntity
  8
図框線
100
AcDbLine
 10
276.8769738641711
 20
199.197133451475
 30
0.0
 11
306.8769738641711
 21
199.197133451475
 31
0.0
  0
LINE
  5
64D2
330
18
100
AcDbEntity
  8
図框線
100
AcDbLine
 10
276.8769738641711
 20
184.797133451475
 30
0.0
 11
306.8769738641711
 21
184.797133451475
 31
0.0
  0
MTEXT
  5
64D3
330
18
100
AcDbEntity
  8
0
 62
     7
 48
2.0
100
AcDbMText
 10
291.8196738471067
 20
199.5937176567671
 30
0.0
 40
2.4
 41
0.0
 71
     5
 72
     1
  1
\P\Ftxt.shx,bigfont.shx|c128;諸　　　　元
 73
     1
 44
1.0
  0
LINE
  5
64D5
330
18
100
AcDbEntity
  8
図框線
100
AcDbLine
 10
276.8769738641711
 20
199.197133451475
 30
0.0
 11
276.8769738641711
 21
184.797133451475
 31
0.0
  0
MTEXT
  5
64D6
330
18
100
AcDbEntity
  8
0
100
AcDbMText
 10
278.6381917710112
 20
194.8338788679146
 30
0.0
 40
2.2
 41
81.95814342112454
 71
     1
 72
     5
  1
\Ftxt.shx,bigfont.shx|c128;熱　処　理
  7
JL
 73
     1
 44
1.0
  0
LINE
  5
64D7
330
18
100
AcDbEntity
  8
図框線
100
AcDbLine
 10
288.8769738641711
 20
195.597133451475
 30
0.0
 11
288.8769738641711
 21
184.797133451475
 31
0.0
  0
MTEXT
  5
64D8
330
18
100
AcDbEntity
  8
0
100
AcDbMText
 10
258.8347093510972
 20
79.45778872672611
 30
0.0
 40
2.5
 41
0.0
 71
     1
 72
     5
  1
\Ftxt.shx,bigfont.shx|c128;図  面  番  号
  7
JL
 73
     1
 44
1.0
  0
MTEXT
  5
64D9
330
18
100
AcDbEntity
  8
0
 62
     7
 48
2.0
100
AcDbMText
 10
270.9192391024712
 20
85.02691213071523
 30
0.0
 40
2.25
 41
0.0
 71
     5
 72
     1
  1
\P\Ftxt.shx,bigfont.shx|c128;    精密ロックナット
 73
     1
 44
1.0
  0
MTEXT
  5
64DA
330
18
100
AcDbEntity
  8
0
370
    25
100
AcDbMText
 10
259.406342722458
 20
88.78457208046729
 30
0.0
 40
2.5
 41
0.0
 71
     1
 72
     5
  1
\Ftxt.shx,bigfont.shx|c128;品  名
  7
JL
 73
     1
 44
1.0
  0
LINE
  5
64DB
330
18
100
AcDbEntity
  8
図框線
100
AcDbLine
 10
258.0061965697781
 20
89.88112800344742
 30
0.0
 11
258.0061965697781
 21
73.97664880890999
 31
0.0
  0
LINE
  5
64DC
330
18
100
AcDbEntity
  8
図框線
100
AcDbLine
 10
248.0061965697781
 20
89.88112800344742
 30
0.0
 11
248.0061965697781
 21
79.88112800344743
 31
0.0
  0
LINE
  5
64DE
330
18
100
AcDbEntity
  8
図框線
100
AcDbLine
 10
286.6179766652123
 20
89.88112800344742
 30
0.0
 11
286.6179766652123
 21
79.88112800344743
 31
0.0
  0
MTEXT
  5
64DF
330
18
100
AcDbEntity
  8
0
100
AcDbMText
 10
278.4980545873216
 20
191.3327646442845
 30
0.0
 40
2.2
 41
81.80293144248363
 71
     1
 72
     5
  1
\Ftxt.shx,bigfont.shx|c128;表 面 処 理
  7
JL
 73
     1
 44
1.0
  0
MTEXT
  5
64E0
330
18
100
AcDbEntity
  8
0
100
AcDbMText
 10
278.6430875115391
 20
187.6885282174806
 30
0.0
 40
2.2
 41
83.0859
 71
     1
 72
     5
  1
\Ftxt.shx,bigfont.shx|c128;等     　級
  7
JL
 73
     1
 44
1.0
  0
LINE
  5
64E1
330
18
100
AcDbEntity
  8
図框線
100
AcDbLine
 10
306.8769738641711
 20
199.197133451475
 30
0.0
 11
306.8769738641711
 21
184.7971334514751
 31
0.0
  0
MTEXT
  5
64E2
330
18
100
AcDbEntity
  8
0
100
AcDbMText
 10
291.2504755188924
 20
194.7463999142098
 30
0.0
 40
2.2
 41
145.9480028428943
 71
     1
 72
     5
  1
\Ftxt.shx,bigfont.shx|c128;調質　HRC30%%d%%p２%%d
  7
JL
 73
     1
 44
1.0
  0
MTEXT
  5
64E4
330
18
100
AcDbEntity
  8
0
370
    25
100
AcDbMText
 10
288.6309333341493
 20
88.67397682391526
 30
0.0
 40
2.5
 41
0.0
 71
     1
 72
     5
  1
\Ftxt.shx,bigfont.shx|c128;型  番
  7
JL
 73
     1
 44
1.0
  0
MTEXT
  5
64E5
330
18
100
AcDbEntity
  8
0
100
AcDbMText
 10
296.3998291309476
 20
79.49962902040454
 30
0.0
 40
2.5
 41
0.0
 71
     1
 72
     5
  1
\Ftxt.shx,bigfont.shx|c128;変更
  7
JL
 73
     1
 44
1.0
  0
LINE
  5
64E6
330
18
100
AcDbEntity
  8
図框線
100
AcDbLine
 10
295.5061965697781
 20
79.88566314266108
 30
0.0
 11
295.5061965697781
 21
73.88112800344742
 31
0.0
  0
MTEXT
  5
64E7
330
18
100
AcDbEntity
  8
0
100
AcDbMText
 10
291.3807950196106
 20
187.6888335032061
 30
0.0
 40
2.2
 41
145.3916823984455
 71
     1
 72
     5
  1
\Ftxt.shx,bigfont.shx|c128;ＩＳＯ - ４Ｈ
  7
JL
 73
     1
 44
1.0
  0
MTEXT
  5
64E8
330
18
100
AcDbEntity
  8
0
100
AcDbMText
 10
291.4680256186757
 20
191.1563181758071
 30
0.0
 40
2.2
 41
145.7274
 71
     1
 72
     5
  1
\Ftxt.shx,bigfont.shx|c128;黒  　    染
  7
JL
 73
     1
 44
1.0
  0
MTEXT
  5
64EA
330
18
100
AcDbEntity
  8
0
100
AcDbMText
 10
240.0377895735732
 20
208.9290531322199
 30
0.0
 40
2.5
 41
0.0
 71
     1
 72
     5
  1
\Ftxt.shx,bigfont.shx|c128;M6X1.0P-5L
  7
JL
 73
     1
 44
1.0
  0
MTEXT
  5
64EB
330
18
100
AcDbEntity
  8
0
100
AcDbMText
 10
240.0377895735732
 20
204.9290531322199
 30
0.0
 40
2.5
 41
0.0
 71
     1
 72
     5
  1
\Ftxt.shx,bigfont.shx|c128;%%c5.2X5L
  7
JL
 73
     1
 44
1.0
  0
LINE
  5
64EC
330
18
100
AcDbEntity
  8
図框線
100
AcDbLine
 10
210.006196569778
 20
205.8811280034474
 30
0.0
 11
309.006196569778
 21
205.8811280034474
 31
0.0
  0
LINE
  5
64ED
330
18
100
AcDbEntity
  8
図框線
100
AcDbLine
 10
210.006196569778
 20
209.8811280034474
 30
0.0
 11
309.006196569778
 21
209.8811280034474
 31
0.0
  0
LINE
  5
64EE
330
18
100
AcDbEntity
  8
図框線
 62
     9
100
AcDbLine
 10
210.006196569778
 20
213.8811280034474
 30
0.0
 11
309.006196569778
 21
213.8811280034474
 31
0.0
  0
LINE
  5
64EF
330
18
100
AcDbEntity
  8
図框線
100
AcDbLine
 10
210.006196569778
 20
218.8811280034475
 30
0.0
 11
309.006196569778
 21
218.8811280034475
 31
0.0
  0
MTEXT
  5
64F0
330
18
100
AcDbEntity
  8
0
100
AcDbMText
 10
239.7143478681868
 20
217.5389256060026
 30
0.0
 40
2.5
 41
0.0
 71
     1
 72
     5
  1
\Ftxt.shx,bigfont.shx|c128;図    番 / 規　　格
  7
JL
 73
     1
 44
1.0
  0
LINE
  5
64F1
330
18
100
AcDbEntity
  8
図框線
100
AcDbLine
 10
210.006196569778
 20
205.8811280034474
 30
0.0
 11
309.006196569778
 21
205.8811280034474
 31
0.0
  0
LINE
  5
64F2
330
18
100
AcDbEntity
  8
図框線
100
AcDbLine
 10
210.006196569778
 20
201.8811280034474
 30
0.0
 11
309.006196569778
 21
201.8811280034474
 31
0.0
  0
MTEXT
  5
64F3
330
18
100
AcDbEntity
  8
0
100
AcDbMText
 10
221.0133711404843
 20
217.2755292944388
 30
0.0
 40
2.5
 41
0.0
 71
     1
 72
     5
  1
\Ftxt.shx,bigfont.shx|c128;品　          名
  7
JL
 73
     1
 44
1.0
  0
MTEXT
  5
64F4
330
18
100
AcDbEntity
  8
0
100
AcDbMText
 10
219.4387153762992
 20
209.1460554932147
 30
0.0
 40
3.0
 41
0.0
 71
     1
 72
     5
  1
\Ftxt.shx,bigfont.shx|c128;セットスクリュ-
  7
JL
 73
     1
 44
1.0
  0
MTEXT
  5
64F5
330
18
100
AcDbEntity
  8
0
100
AcDbMText
 10
219.3409038648018
 20
213.0641605287176
 30
0.0
 40
3.0
 41
0.0
 71
     1
 72
     5
  1
\Ftxt.shx,bigfont.shx|c128;ロックナット　  
  7
JL
 73
     1
 44
1.0
  0
MTEXT
  5
64F6
330
18
100
AcDbEntity
  8
0
100
AcDbMText
 10
219.4387153762992
 20
205.1460554932147
 30
0.0
 40
3.0
 41
0.0
 71
     1
 72
     5
  1
\Ftxt.shx,bigfont.shx|c128;ロックピン 
  7
JL
 73
     1
 44
1.0
  0
LINE
  5
64F7
330
18
100
AcDbEntity
  8
図框線
100
AcDbLine
 10
217.506196569778
 20
218.8811280034473
 30
0.0
 11
217.5061965697782
 21
201.8811280034474
 31
0.0
  0
LINE
  5
64F8
330
18
100
AcDbEntity
  8
0
100
AcDbLine
 10
217.506196569778
 20
218.8811280034473
 30
0.0
 11
217.506196569778
 21
205.8811280034474
 31
0.0
  0
MTEXT
  5
64F9
330
18
100
AcDbEntity
  8
0
100
AcDbMText
 10
213.1138411134734
 20
205.2529484712671
 30
0.0
 40
2.5
 41
0.0
 71
     1
 72
     5
  1
\Ftxt.shx,bigfont.shx|c128;3
  7
JL
 73
     1
 44
1.0
  0
MTEXT
  5
64FA
330
18
100
AcDbEntity
  8
0
100
AcDbMText
 10
213.5571750831115
 20
213.1710535067701
 30
0.0
 40
2.5
 41
0.0
 71
     1
 72
     5
  1
\Ftxt.shx,bigfont.shx|c128;1
  7
JL
 73
     1
 44
1.0
  0
MTEXT
  5
64FB
330
18
100
AcDbEntity
  8
0
100
AcDbMText
 10
213.1138411134734
 20
209.2529484712671
 30
0.0
 40
2.5
 41
0.0
 71
     1
 72
     5
  1
\Ftxt.shx,bigfont.shx|c128;2
  7
JL
 73
     1
 44
1.0
  0
MTEXT
  5
64FC
330
18
100
AcDbEntity
  8
0
100
AcDbMText
 10
211.1107385656993
 20
217.4253907116503
 30
0.0
 40
2.5
 41
0.0
 71
     1
 72
     5
  1
\Ftxt.shx,bigfont.shx|c128;照   号
  7
JL
 73
     1
 44
1.0
  0
LINE
  5
64FD
330
18
100
AcDbEntity
  8
図框線
 62
     9
100
AcDbLine
 10
237.506196569778
 20
218.8811280034473
 30
0.0
 11
237.506196569778
 21
201.8811280034474
 31
0.0
  0
MTEXT
  5
64FE
330
18
100
AcDbEntity
  8
0
100
AcDbMText
 10
283.173884866047
 20
217.6713304905659
 30
0.0
 40
2.5
 41
0.0
 71
     1
 72
     5
  1
\Ftxt.shx,bigfont.shx|c128;備           考
  7
JL
 73
     1
 44
1.0
  0
LINE
  5
64FF
330
18
100
AcDbEntity
  8
図框線
 62
     9
100
AcDbLine
 10
257.506196569778
 20
218.8811280034474
 30
0.0
 11
257.506196569778
 21
201.8811280034474
 31
0.0
  0
MTEXT
  5
6500
330
18
100
AcDbEntity
  8
0
100
AcDbMText
 10
258.39813171866
 20
205.0641605287176
 30
0.0
 40
2.5
 41
0.0
 71
     1
 72
     5
  1
\Ftxt.shx,bigfont.shx|c128;C3604
  7
JL
 73
     1
 44
1.0
  0
MTEXT
  5
6501
330
18
100
AcDbEntity
  8
0
100
AcDbMText
 10
258.39813171866
 20
213.0641605287176
 30
0.0
 40
2.5
 41
0.0
 71
     1
 72
     5
  1
\Ftxt.shx,bigfont.shx|c128;SCM-440
  7
JL
 73
     1
 44
1.0
  0
MTEXT
  5
6502
330
18
100
AcDbEntity
  8
0
100
AcDbMText
 10
258.39813171866
 20
209.0641605287176
 30
0.0
 40
2.5
 41
0.0
 71
     1
 72
     5
  1
\Ftxt.shx,bigfont.shx|c128;SCM435
  7
JL
 73
     1
 44
1.0
  0
MTEXT
  5
6503
330
18
100
AcDbEntity
  8
0
100
AcDbMText
 10
259.9063590670052
 20
217.6713304905659
 30
0.0
 40
2.5
 41
0.0
 71
     1
 72
     5
  1
\Ftxt.shx,bigfont.shx|c128;材　質
  7
JL
 73
     1
 44
1.0
  0
LINE
  5
6504
330
18
100
AcDbEntity
  8
図框線
 62
     9
100
AcDbLine
 10
267.506196569778
 20
218.8811280034474
 30
0.0
 11
267.506196569778
 21
201.8811280034474
 31
0.0
  0
LINE
  5
6505
330
18
100
AcDbEntity
  8
図框線
100
AcDbLine
 10
275.006196569778
 20
218.8811280034474
 30
0.0
 11
275.006196569778
 21
201.8811280034474
 31
0.0
  0
MTEXT
  5
6506
330
18
100
AcDbEntity
  8
0
100
AcDbMText
 10
270.6138411134733
 20
205.2529484712671
 30
0.0
 40
2.5
 41
0.0
 71
     1
 72
     5
  1
\Ftxt.shx,bigfont.shx|c128;3
  7
JL
 73
     1
 44
1.0
  0
MTEXT
  5
6507
330
18
100
AcDbEntity
  8
0
100
AcDbMText
 10
271.0571750831115
 20
213.1710535067701
 30
0.0
 40
2.5
 41
0.0
 71
     1
 72
     5
  1
\Ftxt.shx,bigfont.shx|c128;1
  7
JL
 73
     1
 44
1.0
  0
MTEXT
  5
6508
330
18
100
AcDbEntity
  8
0
100
AcDbMText
 10
270.6138411134733
 20
209.2529484712671
 30
0.0
 40
2.5
 41
0.0
 71
     1
 72
     5
  1
\Ftxt.shx,bigfont.shx|c128;3
  7
JL
 73
     1
 44
1.0
  0
MTEXT
  5
6509
330
18
100
AcDbEntity
  8
0
100
AcDbMText
 10
268.2230667257367
 20
217.6713304905659
 30
0.0
 40
2.5
 41
0.0
 71
     1
 72
     5
  1
\Ftxt.shx,bigfont.shx|c128;数   量
  7
JL
 73
     1
 44
1.0
  0
MTEXT
  5
6740
330
18
100
AcDbEntity
  8
公差
100
AcDbMText
 10
226.7340207181393
 20
177.5997674566033
 30
0.0
 40
1.25
 41
6.816289586974903
 71
     1
 72
     5
  1
+0.15\P+0
  7
TXT
 11
0.0000000000000001
 21
1.0
 31
0.0
 73
     1
 44
1.0
  0
MTEXT
  5
6741
330
18
100
AcDbEntity
  8
公差
100
AcDbMText
 10
240.7177868078081
 20
159.4018736962613
 30
0.0
 40
1.25
 41
15.60204752540142
 71
     1
 72
     5
  1
+0.15\P+0
  7
TXT
 73
     1
 44
1.0
  0
LINE
  5
6761
330
18
100
AcDbEntity
  8
DIM
100
AcDbLine
 10
247.161233813488
 20
107.2293687742652
 30
0.0
 11
247.1418324691349
 21
97.64087351302615
 31
0.0
  0
LINE
  5
6764
330
18
100
AcDbEntity
  8
0
 62
     6
100
AcDbLine
 10
281.3892316710077
 20
129.713483770984
 30
0.0
 11
281.3892316710077
 21
136.5205246657908
 31
0.0
  0
LINE
  5
6765
330
18
100
AcDbEntity
  8
0
 62
     6
100
AcDbLine
 10
281.3892316710077
 20
136.5205246657908
 30
0.0
 11
291.0778331510179
 21
136.5205246657908
 31
0.0
  0
TOLERANCE
  5
6766
330
18
100
AcDbEntity
  8
0
  6
ByBlock
100
AcDbFcf
  3
A
 10
291.0687539254693
 20
136.5459938838563
 30
0.0
  1
{\Fgdt;h}%%v0.005%%v%%vA%%v%%v
1001
ACAD
1000
DSTYLE
1002
{
1070
   140
1040
1.371999999999999
1070
    40
1040
1.0
1070
   147
1040
0.3429999999999999
1002
}
  0
MTEXT
  5
676D
330
18
100
AcDbEntity
  8
公差
100
AcDbMText
 10
254.2993284654199
 20
151.2002535235593
 30
0.0
 40
1.25
 41
5.603326618818573
 71
     1
 72
     5
  1
+0\P-0.12
  7
TXT
 73
     1
 44
1.0
  0
LINE
  5
6775
330
18
100
AcDbEntity
  8
DIM
100
AcDbLine
 10
247.1626859861875
 20
99.62593839362893
 30
0.0
 11
248.075144334413
 21
98.64806429790386
 31
0.0
  0
HATCH
  5
6776
330
18
100
AcDbEntity
  8
DIM
100
AcDbHatch
 10
0.0
 20
0.0
 30
0.0
210
0.0
220
0.0
230
1.0
  2
SOLID
 70
     1
 71
     0
 91
        1
 92
        7
 72
     0
 73
     1
 93
        3
 10
247.1615618717349
 20
97.6422499986484
 10
248.0802939603349
 20
98.62705779389214
 10
247.1615618717349
 20
99.61186558913588
 97
        0
 75
     0
 76
     1
 47
0.2359147607200769
 98
        1
 10
247.4493778679657
 20
98.83853379958367
450
        0
451
        0
460
0.0
461
0.0
452
        0
462
0.0
453
        0
470

  0
LINE
  5
6777
330
18
100
AcDbEntity
  8
DIM
100
AcDbLine
 10
252.8222371411092
 20
96.83441049374435
 30
0.0
 11
252.8222371411092
 21
100.4807092837655
 31
0.0
  0
LINE
  5
6778
330
18
100
AcDbEntity
  8
DIM
100
AcDbLine
 10
252.8222371411092
 20
100.4807092837655
 30
0.0
 11
256.6308723866198
 21
100.4807092837655
 31
0.0
  0
LINE
  5
6779
330
18
100
AcDbEntity
  8
DIM
100
AcDbLine
 10
256.6308723866198
 20
96.83441049374435
 30
0.0
 11
256.6308723866198
 21
100.4807092837655
 31
0.0
  0
LINE
  5
677A
330
18
100
AcDbEntity
  8
DIM
100
AcDbLine
 10
252.8222371411092
 20
96.83441049374435
 30
0.0
 11
256.6308723866198
 21
96.83441049374435
 31
0.0
  0
LINE
  5
677B
330
18
100
AcDbEntity
  8
DIM
100
AcDbLine
 10
252.8222371411092
 20
98.65755988875491
 30
0.0
 11
248.061443305386
 21
98.65755988875491
 31
0.0
  0
MTEXT
  5
677C
330
18
100
AcDbEntity
  8
DIM
100
AcDbMText
 10
253.8556131730977
 20
100.1445268983118
 30
0.0
 40
3.0
 41
2.354875985554478
 71
     1
 72
     5
  1
A
  7
ISOCP3
 73
     1
 44
1.0
  0
DIMENSION
  5
678A
330
18
100
AcDbEntity
  8
0
100
AcDbDimension
  2
*D1
 10
239.6612338134881
 20
155.7301776296207
 30
0.0
 11
238.6591739761634
 21
155.7301776296207
 31
0.0
 70
   160
 71
     5
 42
-1.0
  3
A
100
AcDbAlignedDimension
 13
237.6571141388387
 23
173.0924874234589
 33
0.0
 14
239.6612338134881
 24
173.0924874234589
 34
0.0
100
AcDbRotatedDimension
1001
ACAD
1000
DSTYLE
1002
{
1070
    40
1040
1.0
1002
}
  0
DIMENSION
  5
6947
330
18
100
AcDbEntity
  8
DIM
100
AcDbDimension
  2
*D2
 10
230.3563572233628
 20
173.0924874234589
 30
0.0
 11
229.8698528840399
 21
182.2763377324181
 31
0.0
 70
   160
  1
<>      (3等分)
 71
     5
 42
-1.0
  3
A
100
AcDbAlignedDimension
 13
237.7792907973539
 23
177.0924874234588
 33
0.0
 14
237.6571141388387
 24
173.0924874234589
 34
0.0
 50
90.0
100
AcDbRotatedDimension
  0
LEADER
  5
699D
330
18
100
AcDbEntity
  8
DIM
 62
     6
100
AcDbLeader
  3
A
 73
     0
 74
     0
 75
     1
 40
1.75
 41
2.333333333333333
 76
     3
 10
247.161233813488
 20
127.2720662374015
 30
0.0
 10
253.3939468493949
 20
136.0237567092547
 30
0.0
 10
254.6439468493949
 20
136.0237567092547
 30
0.0
340
699E
  0
MTEXT
  5
699E
102
{ACAD_REACTORS
330
699D
102
}
330
18
100
AcDbEntity
  8
DIM
 62
     3
100
AcDbMText
 10
255.1439468493949
 20
137.3987567092547
 30
0.0
 40
1.75
 41
0.0
 71
     4
 72
     1
  1
\A1;C1
  7
TXT
 73
     1
 44
1.0
  0
DIMENSION
  5
6EA2
330
18
100
AcDbEntity
  8
0
100
AcDbDimension
  2
*D3
 10
271.6612338134881
 20
147.4717483285768
 30
0.0
 11
250.5915526421079
 21
147.8181801715747
 31
0.0
 70
   160
  1
%%C<>
 71
     5
 42
-1.0
  3
A
100
AcDbAlignedDimension
 13
237.6612338134882
 23
128.2720662374014
 33
0.0
 14
271.6612338134881
 24
128.2720662374015
 34
0.0
100
AcDbRotatedDimension
  0
DIMENSION
  5
6EAB
330
18
100
AcDbEntity
  8
0
100
AcDbDimension
  2
*D4
 10
262.1612338134881
 20
104.7927332672329
 30
0.0
 11
254.661233813488
 21
104.7927332672329
 31
0.0
 70
   160
  1
M15X1.0P
 71
     5
 42
-1.0
  3
A
100
AcDbAlignedDimension
 13
247.1612338134881
 23
114.7720662374015
 33
0.0
 14
262.1612338134881
 24
114.7720662374012
 34
0.0
100
AcDbRotatedDimension
  0
DIMENSION
  5
7064
330
18
100
AcDbEntity
  8
0
100
AcDbDimension
  2
*D5
 10
267.6612338134881
 20
143.1293533687599
 30
0.0
 11
254.6612338134881
 21
144.5043533687599
 31
0.0
 70
    32
  1
%%c<>%%p0.5
 71
     5
 42
-1.0
  3
A
100
AcDbAlignedDimension
 13
241.6612338134882
 23
129.7720662374014
 33
0.0
 14
267.6612338134881
 24
129.7720662374014
 34
0.0
100
AcDbRotatedDimension
  0
LINE
  5
7136
330
18
100
AcDbEntity
  8
DIM
 62
     6
100
AcDbLine
 10
242.1612338134881
 20
155.7301776296207
 30
0.0
 11
245.5124035025322
 21
155.7301776296207
 31
0.0
  0
LINE
  5
715F
330
18
100
AcDbEntity
  8
DIM
 62
     6
100
AcDbLine
 10
230.3563572233628
 20
177.0924874234588
 30
0.0
 11
230.3563572233628
 21
190.2068656896642
 31
0.0
  0
ARC
  5
7419
330
18
100
AcDbEntity
  8
本体外線
100
AcDbCircle
 10
254.6612338134881
 20
175.0924874234588
 30
0.0
 40
17.0
100
AcDbArc
 50
186.7563270305878
 51
293.2436729694122
  0
CIRCLE
  5
741A
330
18
100
AcDbEntity
  8
本体外線
100
AcDbCircle
 10
254.6612338134881
 20
175.0924874234588
 30
0.0
 40
13.0
  0
LINE
  5
741C
102
{ACAD_REACTORS
330
7EFB
102
}
330
18
100
AcDbEntity
  8
本体外線
100
AcDbLine
 10
241.6612338134882
 20
129.7720662374014
 30
0.0
 11
267.6612338134881
 21
129.7720662374014
 31
0.0
1001
ACAD
1000
ASC_BOUNDS
1002
{
1070
    19
1002
}
  0
LINE
  5
741D
102
{ACAD_REACTORS
330
7EFB
102
}
330
18
100
AcDbEntity
  8
本体外線
100
AcDbLine
 10
267.6612338134881
 20
129.7720662374014
 30
0.0
 11
267.6612338134881
 21
129.2720662374014
 31
0.0
1001
ACAD
1000
ASC_BOUNDS
1002
{
1070
    19
1002
}
  0
LINE
  5
741E
102
{ACAD_REACTORS
330
7EFB
102
}
330
18
100
AcDbEntity
  8
本体外線
100
AcDbLine
 10
267.6612338134881
 20
129.2720662374014
 30
0.0
 11
270.6612338134881
 21
129.2720662374014
 31
0.0
1001
ACAD
1000
ASC_BOUNDS
1002
{
1070
    19
1002
}
  0
LINE
  5
7420
102
{ACAD_REACTORS
330
7EFB
102
}
330
18
100
AcDbEntity
  8
0
100
AcDbLine
 10
267.6919623103853
 20
114.5592641514831
 30
0.0
 11
270.6953627886365
 21
119.7613063752911
 31
0.0
1001
ACAD
1000
ASC_BOUNDS
1002
{
1070
    19
1002
}
  0
LINE
  5
7421
330
18
100
AcDbEntity
  8
本体内線
  6
HIDDEN
 48
0.1
100
AcDbLine
 10
268.7955967378087
 20
118.4179674575707
 30
0.0
 11
267.908845391861
 21
117.9060013292834
 31
0.0
  0
LINE
  5
7422
330
18
100
AcDbEntity
  8
本体内線
  6
HIDDEN
 48
0.1
100
AcDbLine
 10
267.9088453918609
 20
117.9060013292832
 30
0.0
 11
267.9088453918607
 21
116.8820690727082
 31
0.0
  0
LINE
  5
7424
330
18
100
AcDbEntity
  8
0
100
AcDbLine
 10
265.8507043007313
 20
120.2411171125213
 30
0.0
 11
268.5827551083002
 21
120.9731679200901
 31
0.0
1001
ACAD
1000
ASC_BOUNDS
1002
{
1070
    19
1002
}
  0
LINE
  5
7425
330
18
100
AcDbEntity
  8
0
100
AcDbLine
 10
264.8507043007314
 20
118.5090663049525
 30
0.0
 11
265.5827551083002
 21
115.7770154973836
 31
0.0
1001
ACAD
1000
ASC_BOUNDS
1002
{
1070
    19
1002
}
  0
LINE
  5
7426
330
18
100
AcDbEntity
  8
0
100
AcDbLine
 10
268.5827551083002
 20
120.9731679200901
 30
0.0
 11
265.5827551083002
 21
115.7770154973836
 31
0.0
  0
LINE
  5
7427
102
{ACAD_REACTORS
330
7EFB
102
}
330
18
100
AcDbEntity
  8
0
100
AcDbLine
 10
269.0776029564404
 20
115.3592641514831
 30
0.0
 11
265.0755754313278
 21
117.6698358204111
 31
0.0
1001
ACAD
1000
ASC_BOUNDS
1002
{
1070
    19
1002
}
  0
LINE
  5
7428
102
{ACAD_REACTORS
330
748E
102
}
330
18
100
AcDbEntity
  8
0
100
AcDbLine
 10
266.6007043007316
 20
121.5401552181978
 30
0.0
 11
264.1007043007316
 21
117.2100281992757
 31
0.0
1001
ACAD
1000
ASC_BOUNDS
1002
{
1070
    19
1002
}
  0
LINE
  5
7429
102
{ACAD_REACTORS
330
748E
102
}
330
18
100
AcDbEntity
  8
中心線
  6
CENTER
 48
0.15
100
AcDbLine
 10
270.7914265982669
 20
116.3031712579714
 30
0.0
 11
259.6612338134881
 21
122.6255556389815
 31
0.0
  0
LWPOLYLINE
  5
742B
102
{ACAD_REACTORS
330
7EFB
102
}
330
18
100
AcDbEntity
  8
本体外線
100
AcDbPolyline
 90
        2
 70
     0
 43
0.0
 10
268.1612338134881
 20
113.7720662374014
 10
271.6612338134881
 20
119.8342440638924
1001
ACAD
1000
ASC_BOUNDS
1002
{
1070
    19
1002
}
  0
LINE
  5
742C
102
{ACAD_REACTORS
330
748E
102
}
330
18
100
AcDbEntity
  8
0
100
AcDbLine
 10
266.6007043007316
 20
121.5401552181977
 30
0.0
 11
261.6612338134881
 21
124.391959833662
 31
0.0
1001
ACAD
1000
ASC_BOUNDS
1002
{
1070
    19
1002
}
  0
LINE
  5
742D
102
{ACAD_REACTORS
330
748E
102
}
330
18
100
AcDbEntity
  8
0
100
AcDbLine
 10
264.1007043007317
 20
117.2100281992756
 30
0.0
 11
261.661233813488
 21
118.6184571417658
 31
0.0
1001
ACAD
1000
ASC_BOUNDS
1002
{
1070
    19
1002
}
  0
LINE
  5
742E
102
{ACAD_REACTORS
330
7EFB
102
}
330
18
100
AcDbEntity
  8
0
100
AcDbLine
 10
267.6919623103852
 20
114.5592641514831
 30
0.0
 11
261.661233813488
 21
118.0411068725762
 31
0.0
1001
ACAD
1000
ASC_BOUNDS
1002
{
1070
    19
1002
}
  0
LINE
  5
742F
102
{ACAD_REACTORS
330
7EFB
102
}
330
18
100
AcDbEntity
  8
0
100
AcDbLine
 10
270.6919623103851
 20
119.7554165741896
 30
0.0
 11
261.661233813488
 21
124.9693101028517
 31
0.0
1001
ACAD
1000
ASC_BOUNDS
1002
{
1070
    19
1002
}
  0
LINE
  5
7430
102
{ACAD_REACTORS
330
7EFB
102
}
330
18
100
AcDbEntity
  8
0
100
AcDbLine
 10
270.6953627886365
 20
118.1613063752915
 30
0.0
 11
270.6953627886365
 21
119.7613063752911
 31
0.0
1001
ACAD
1000
ASC_BOUNDS
1002
{
1070
    19
1002
}
  0
LINE
  5
7431
102
{ACAD_REACTORS
330
7EFB
102
}
330
18
100
AcDbEntity
  8
0
100
AcDbLine
 10
269.0810034346916
 20
115.3651539525846
 30
0.0
 11
267.6953627886366
 21
114.5651539525845
 31
0.0
1001
ACAD
1000
ASC_BOUNDS
1002
{
1070
    19
1002
}
  0
LINE
  5
7432
330
18
100
AcDbEntity
  8
本体内線
  6
HIDDEN
 48
0.1
100
AcDbLine
 10
270.331558784638
 20
117.5311793563686
 30
0.0
 11
268.7955967378087
 21
118.4179674575707
 31
0.0
  0
LINE
  5
7433
330
18
100
AcDbEntity
  8
本体内線
  6
HIDDEN
 48
0.1
100
AcDbLine
 10
269.4448074386901
 20
115.9952809715061
 30
0.0
 11
267.9088453918608
 21
116.8820690727082
 31
0.0
  0
LINE
  5
7436
102
{ACAD_REACTORS
330
748E
330
7EFB
102
}
330
18
100
AcDbEntity
  8
本体外線
100
AcDbLine
 10
261.661233813488
 20
126.7720662374014
 30
0.0
 11
261.661233813488
 21
114.7720662374014
 31
0.0
1001
ACAD
1000
ASC_BOUNDS
1002
{
1070
    19
1002
}
  0
LINE
  5
7437
102
{ACAD_REACTORS
330
7EFB
102
}
330
18
100
AcDbEntity
  8
本体外線
100
AcDbLine
 10
262.661233813488
 20
127.7720662374014
 30
0.0
 11
261.661233813488
 21
126.7720662374014
 31
0.0
1001
ACAD
1000
ASC_BOUNDS
1002
{
1070
    19
1002
}
  0
LINE
  5
7439
102
{ACAD_REACTORS
330
7EFB
102
}
330
18
100
AcDbEntity
  8
本体外線
100
AcDbLine
 10
262.661233813488
 20
113.7720662374014
 30
0.0
 11
261.661233813488
 21
114.7720662374014
 31
0.0
1001
ACAD
1000
ASC_BOUNDS
1002
{
1070
    19
1002
}
  0
LINE
  5
743B
330
18
100
AcDbEntity
  8
本体外線
100
AcDbLine
 10
261.3701545139863
 20
159.4722959062454
 30
0.0
 11
260.4291830059192
 21
161.1021063666923
 31
0.0
  0
LINE
  5
743C
330
18
100
AcDbEntity
  8
本体外線
100
AcDbLine
 10
237.7792907973539
 20
173.0924874234588
 30
0.0
 11
239.6612338134881
 21
173.0924874234588
 31
0.0
  0
LINE
  5
743D
330
18
100
AcDbEntity
  8
本体外線
100
AcDbLine
 10
239.6612338134881
 20
173.0924874234588
 30
0.0
 11
239.6612338134881
 21
177.0924874234588
 31
0.0
  0
LINE
  5
743E
330
18
100
AcDbEntity
  8
本体外線
100
AcDbLine
 10
261.3701545139863
 20
159.4722959062454
 30
0.0
 11
260.4291830059192
 21
161.1021063666923
 31
0.0
  0
LINE
  5
743F
330
18
100
AcDbEntity
  8
本体外線
100
AcDbLine
 10
264.834256129124
 20
161.4722959062454
 30
0.0
 11
263.893284621057
 21
163.1021063666923
 31
0.0
  0
LINE
  5
7440
330
18
100
AcDbEntity
  8
本体外線
100
AcDbLine
 10
263.893284621057
 20
163.1021063666923
 30
0.0
 11
260.4291830059192
 21
161.1021063666923
 31
0.0
  0
LINE
  5
7441
330
18
100
AcDbEntity
  8
本体外線
100
AcDbLine
 10
237.7792907973539
 20
177.0924874234588
 30
0.0
 11
239.6612338134881
 21
177.0924874234588
 31
0.0
  0
LINE
  5
7442
330
18
100
AcDbEntity
  8
本体外線
100
AcDbLine
 10
261.3701545139862
 20
190.7126789406722
 30
0.0
 11
260.4291830059192
 21
189.0828684802254
 31
0.0
  0
LINE
  5
7443
330
18
100
AcDbEntity
  8
本体外線
100
AcDbLine
 10
260.4291830059192
 20
189.0828684802254
 30
0.0
 11
263.893284621057
 21
187.0828684802254
 31
0.0
  0
LINE
  5
7444
330
18
100
AcDbEntity
  8
本体外線
100
AcDbLine
 10
264.834256129124
 20
188.7126789406723
 30
0.0
 11
263.893284621057
 21
187.0828684802254
 31
0.0
  0
ARC
  5
7445
330
18
100
AcDbEntity
  8
本体外線
100
AcDbCircle
 10
254.6612338134881
 20
175.0924874234588
 30
0.0
 40
17.0
100
AcDbArc
 50
306.7563270305878
 51
53.24367296941211
  0
ARC
  5
7446
330
18
100
AcDbEntity
  8
本体外線
100
AcDbCircle
 10
254.6612338134881
 20
175.0924874234588
 30
0.0
 40
17.0
100
AcDbArc
 50
66.7563270305879
 51
173.2436729694122
  0
LINE
  5
7447
102
{ACAD_REACTORS
330
7EFB
102
}
330
18
100
AcDbEntity
  8
本体外線
100
AcDbLine
 10
271.6612338134881
 20
128.2720662374014
 30
0.0
 11
271.6612338134881
 21
119.8342440638924
 31
0.0
1001
ACAD
1000
ASC_BOUNDS
1002
{
1070
    19
1002
}
  0
LINE
  5
7448
330
18
100
AcDbEntity
  8
中心線
  6
CENTER
 48
0.15
100
AcDbLine
 10
254.661233813488
 20
131.0201483527955
 30
0.0
 11
254.661233813488
 21
112.5375162543858
 31
0.0
  0
LINE
  5
744D
330
18
100
AcDbEntity
  8
中心線
  6
CENTER
 48
0.15
100
AcDbLine
 10
254.6612338134881
 20
193.0924874234588
 30
0.0
 11
254.661233813488
 21
157.0924874234588
 31
0.0
  0
LINE
  5
744E
330
18
100
AcDbEntity
  8
中心線
  6
CENTER
 48
0.15
100
AcDbLine
 10
245.661233813488
 20
159.504030155339
 30
0.0
 11
252.161233813488
 21
170.7623604045367
 31
0.0
  0
LINE
  5
744F
330
18
100
AcDbEntity
  8
本体内線
  6
HIDDEN
 48
0.2
100
AcDbLine
 10
260.9857891338248
 20
178.0924874234588
 30
0.0
 11
271.3944343441696
 21
178.0924874234588
 31
0.0
  0
LINE
  5
7450
330
18
100
AcDbEntity
  8
本体内線
  6
HIDDEN
 48
0.2
100
AcDbLine
 10
260.9857891338248
 20
172.0924874234589
 30
0.0
 11
271.3944343441696
 21
172.0924874234588
 31
0.0
  0
LINE
  5
7457
330
18
100
AcDbEntity
  8
中心線
  6
CENTER
 48
0.15
100
AcDbLine
 10
252.161233813488
 20
179.422614442381
 30
0.0
 11
245.661233813488
 21
190.6809446915787
 31
0.0
  0
LINE
  5
7458
330
18
100
AcDbEntity
  8
中心線
  6
CENTER
 48
0.15
100
AcDbLine
 10
236.6612338134881
 20
175.0924874234588
 30
0.0
 11
272.6612338134881
 21
175.0924874234588
 31
0.0
  0
LINE
  5
745A
102
{ACAD_REACTORS
330
7EFB
102
}
330
18
100
AcDbEntity
  8
本体外線
100
AcDbLine
 10
241.6612338134881
 20
129.7720662374014
 30
0.0
 11
241.6612338134881
 21
129.2720662374014
 31
0.0
  0
LINE
  5
745B
102
{ACAD_REACTORS
330
7EFB
102
}
330
18
100
AcDbEntity
  8
本体外線
100
AcDbLine
 10
241.6612338134881
 20
129.2720662374014
 30
0.0
 11
238.6612338134881
 21
129.2720662374014
 31
0.0
  0
LINE
  5
745C
102
{ACAD_REACTORS
330
7EFB
102
}
330
18
100
AcDbEntity
  8
本体外線
100
AcDbLine
 10
268.1612338134881
 20
113.7720662374014
 30
0.0
 11
241.1612338134881
 21
113.7720662374014
 31
0.0
  0
LWPOLYLINE
  5
745D
102
{ACAD_REACTORS
330
7EFB
102
}
330
18
100
AcDbEntity
  8
本体外線
100
AcDbPolyline
 90
        2
 70
     0
 43
0.0
 10
241.1612338134881
 20
113.7720662374014
 10
237.6612338134881
 20
119.8342440638924
  0
LINE
  5
745E
330
18
100
AcDbEntity
  8
本体外線
100
AcDbLine
 10
262.661233813488
 20
127.7720662374014
 30
0.0
 11
246.6612338134881
 21
127.7720662374014
 31
0.0
  0
LINE
  5
745F
330
18
100
AcDbEntity
  8
本体外線
100
AcDbLine
 10
261.661233813488
 20
126.7720662374014
 30
0.0
 11
247.6612338134881
 21
126.7720662374014
 31
0.0
  0
LINE
  5
7460
102
{ACAD_REACTORS
330
7EFB
102
}
330
18
100
AcDbEntity
  8
本体外線
100
AcDbLine
 10
247.6612338134881
 20
126.7720662374014
 30
0.0
 11
247.661233813488
 21
114.7720662374014
 31
0.0
  0
LINE
  5
7461
102
{ACAD_REACTORS
330
7EFB
102
}
330
18
100
AcDbEntity
  8
本体外線
100
AcDbLine
 10
246.6612338134881
 20
127.7720662374014
 30
0.0
 11
247.6612338134881
 21
126.7720662374014
 31
0.0
  0
LINE
  5
7462
330
18
100
AcDbEntity
  8
本体外線
100
AcDbLine
 10
261.661233813488
 20
114.7720662374014
 30
0.0
 11
247.6612338134881
 21
114.7720662374014
 31
0.0
  0
LINE
  5
7463
102
{ACAD_REACTORS
330
7EFB
102
}
330
18
100
AcDbEntity
  8
本体外線
100
AcDbLine
 10
246.6612338134881
 20
113.7720662374014
 30
0.0
 11
247.6612338134881
 21
114.7720662374014
 31
0.0
  0
LINE
  5
7464
330
18
100
AcDbEntity
  8
本体外線
100
AcDbLine
 10
237.6612338134881
 20
128.2720662374014
 30
0.0
 11
237.6612338134881
 21
119.8342440638924
 31
0.0
  0
LINE
  5
7465
102
{ACAD_REACTORS
330
7EFB
102
}
330
18
100
AcDbEntity
  8
本体外線
100
AcDbLine
 10
262.661233813488
 20
127.7720662374014
 30
0.0
 11
262.661233813488
 21
129.7720662374014
 31
0.0
1001
ACAD
1000
ASC_BOUNDS
1002
{
1070
    19
1002
}
  0
LINE
  5
7466
102
{ACAD_REACTORS
330
7EFB
102
}
330
18
100
AcDbEntity
  8
本体外線
100
AcDbLine
 10
246.6612338134881
 20
127.7720662374014
 30
0.0
 11
246.6612338134881
 21
129.7720662374014
 31
0.0
  0
ARC
  5
7467
102
{ACAD_REACTORS
330
7EFB
102
}
330
18
100
AcDbEntity
  8
本体外線
100
AcDbCircle
 10
270.6612338134881
 20
128.2720662374014
 30
0.0
 40
1.0
100
AcDbArc
 50
0.0
 51
90.0000000000001
1001
ACAD
1000
ASC_BOUNDS
1002
{
1070
    19
1002
}
  0
ARC
  5
7468
330
18
100
AcDbEntity
  8
本体外線
100
AcDbCircle
 10
238.6612338134881
 20
128.2720662374014
 30
0.0
 40
1.0
100
AcDbArc
 50
89.99999999999991
 51
180.0
  0
LINE
  5
7469
102
{ACAD_REACTORS
330
7EFB
102
}
330
18
100
AcDbEntity
  8
0
100
AcDbLine
 10
247.161233813488
 20
127.2720662374015
 30
0.0
 11
247.1612338134881
 21
114.2720662374014
 31
0.0
  0
LINE
  5
746A
102
{ACAD_REACTORS
330
7EFB
102
}
330
18
100
AcDbEntity
  8
本体外線
100
AcDbLine
 10
239.6612338134881
 20
129.2720662374014
 30
0.0
 11
239.6612338134881
 21
116.3701424487547
 31
0.0
  0
DIMENSION
  5
747A
330
18
100
AcDbEntity
  8
0
100
AcDbDimension
  2
*D6
 10
277.4867434415134
 20
116.8031551506469
 30
0.0
 11
276.1117434415135
 21
123.2876106940242
 31
0.0
 70
    32
 71
     5
 42
-1.0
  3
A
100
AcDbAlignedDimension
 13
267.6612338134881
 23
129.7720662374014
 33
0.0
 14
269.9112338134881
 24
116.8031551506469
 34
0.0
 50
90.0
100
AcDbRotatedDimension
  0
DIMENSION
  5
747B
330
18
100
AcDbEntity
  8
0
100
AcDbDimension
  2
*D7
 10
281.3892316710077
 20
113.7720662374014
 30
0.0
 11
281.3892316710077
 21
121.7720662374014
 31
0.0
 70
   160
  1
<>%%p0.2
 71
     5
 42
-1.0
  3
A
100
AcDbAlignedDimension
 13
267.6612338134881
 23
129.7720662374014
 33
0.0
 14
268.1612338134881
 24
113.7720662374014
 34
0.0
 50
90.0
100
AcDbRotatedDimension
  0
DIMENSION
  5
747F
330
18
100
AcDbEntity
  8
0
100
AcDbDimension
  2
*D8
 10
283.4308445136457
 20
104.9561523892445
 30
0.0
 11
289.7743329576739
 21
115.9433966715273
 31
0.0
 70
   161
  1
<>%%p0.5
 71
     5
 42
-1.0
  3
A
100
AcDbAlignedDimension
 13
271.6612338134881
 23
119.8342440638924
 33
0.0
 14
268.1612338134881
 24
113.7720662374014
 34
0.0
1001
ACAD
1000
DSTYLE
1002
{
1070
   272
1070
     0
1070
   271
1070
     0
1002
}
  0
LINE
  5
748A
330
18
100
AcDbEntity
  8
0
100
AcDbLine
 10
270.6953627886365
 20
118.1613063752915
 30
0.0
 11
266.693335263524
 21
120.4718780442195
 31
0.0
1001
ACAD
1000
ASC_BOUNDS
1002
{
1070
    19
1002
}
  0
LINE
  5
748B
102
{ACAD_REACTORS
330
7EFB
102
}
330
18
100
AcDbEntity
  8
0
100
AcDbLine
 10
262.1612338134881
 20
127.2720662374015
 30
0.0
 11
262.1612338134881
 21
124.6806349682568
 31
0.0
  0
LINE
  5
748C
102
{ACAD_REACTORS
330
7EFB
102
}
330
18
100
AcDbEntity
  8
0
100
AcDbLine
 10
262.1612338134881
 20
117.7524317379814
 30
0.0
 11
262.1612338134881
 21
114.2720662374013
 31
0.0
  0
HATCH
  5
748E
330
18
100
AcDbEntity
  8
0
 48
4.0
100
AcDbHatch
 10
0.0
 20
0.0
 30
0.0
210
0.0
220
0.0
230
1.0
  2
AR-SAND
 70
     0
 71
     1
 91
        2
 92
        7
 72
     0
 73
     1
 93
        4
 10
265.3588006775207
 20
119.3891150446925
 10
266.6007043007316
 20
121.5401552181978
 10
261.661233813488
 20
124.3919598336621
 10
261.661233813488
 20
121.4894774949163
 97
        4
330
7436
330
7429
330
7428
330
742C
 92
        7
 72
     0
 73
     1
 93
        4
 10
261.661233813488
 20
121.4894774949162
 10
261.661233813488
 20
118.6184571417658
 10
264.1007043007316
 20
117.2100281992756
 10
265.3588006775207
 20
119.3891150446925
 97
        4
330
7436
330
742D
330
7428
330
7429
 75
     0
 76
     1
 52
0.0
 41
0.05
 77
     0
 78
     4
 53
37.5
 43
203.7670678583507
 44
63.57194648719705
 45
-0.0800015647992023
 46
2.447066186646711
 79
     6
 49
0.0
 49
-1.9304
 49
0.0
 49
-2.159
 49
0.0
 49
-2.06375
 53
7.499999999999999
 43
203.7670678583507
 44
63.57194648719705
 45
2.247616415690013
 46
3.584125502841771
 79
     6
 49
0.0
 49
-1.0414
 49
0.0
 49
-1.7399
 49
0.0
 49
-0.6667500000000001
 53
327.5
 43
202.2049678583507
 44
63.57194648719705
 45
3.95496185120729
 46
0.0071859233927285
 79
     6
 49
0.0
 49
-0.635
 49
0.0
 49
-2.286
 49
0.0
 49
-2.9845
 53
317.5
 43
202.2049678583507
 44
63.57194648719705
 45
3.817782262361486
 46
1.114646616286081
 79
     6
 49
0.0
 49
-0.3175
 49
0.0
 49
-1.498599999999999
 49
0.0
 49
-1.7145
 47
0.0416965210549195
 98
        2
 10
263.0628017508503
 20
121.9965233809893
 10
262.8540817453891
 20
120.078483342628
  0
ARC
  5
773A
330
18
100
AcDbEntity
  8
0
100
AcDbCircle
 10
254.6612338134881
 20
175.0924874234588
 30
0.0
 40
7.5
100
AcDbArc
 50
168.2359065418777
 51
102.6024872651663
  0
CIRCLE
  5
773B
330
18
100
AcDbEntity
  8
本体外線
100
AcDbCircle
 10
254.6612338134881
 20
175.0924874234588
 30
0.0
 40
7.0
  0
LINE
  5
773C
330
18
100
AcDbEntity
  8
本体内線
  6
HIDDEN
 48
0.2
100
AcDbLine
 10
261.1995822287991
 20
172.5924874234588
 30
0.0
 11
271.4764055342883
 21
172.5924874234588
 31
0.0
  0
LINE
  5
773D
330
18
100
AcDbEntity
  8
本体内線
  6
HIDDEN
 48
0.2
100
AcDbLine
 10
261.1995822287991
 20
177.5924874234588
 30
0.0
 11
271.4764055342883
 21
177.5924874234588
 31
0.0
  0
LINE
  5
773E
330
18
100
AcDbEntity
  8
本体内線
  6
HIDDEN
 48
0.2
100
AcDbLine
 10
248.9008799419664
 20
179.0697129985104
 30
0.0
 11
243.696557336794
 21
188.0838641696483
 31
0.0
  0
LINE
  5
773F
330
18
100
AcDbEntity
  8
本体内線
  6
HIDDEN
 48
0.2
100
AcDbLine
 10
254.097032364673
 20
182.0697129985104
 30
0.0
 11
248.8927097595007
 21
191.0838641696483
 31
0.0
  0
LINE
  5
7740
330
18
100
AcDbEntity
  8
本体内線
  6
HIDDEN
 48
0.2
100
AcDbLine
 10
253.5571231152937
 20
182.0048632499119
 30
0.0
 11
248.4187114625491
 21
190.9048533026695
 31
0.0
  0
LINE
  5
7741
330
18
100
AcDbEntity
  8
本体内線
  6
HIDDEN
 48
0.2
100
AcDbLine
 10
249.2269960963715
 20
179.5048632499119
 30
0.0
 11
244.0885844436269
 21
188.4048533026695
 31
0.0
  0
LINE
  5
7742
330
18
100
AcDbEntity
  8
本体内線
  6
HIDDEN
 48
0.2
100
AcDbLine
 10
254.097032364673
 20
168.1152618484071
 30
0.0
 11
248.8927097595007
 21
159.1011106772693
 31
0.0
  0
LINE
  5
7743
330
18
100
AcDbEntity
  8
本体内線
  6
HIDDEN
 48
0.2
100
AcDbLine
 10
248.9008799419664
 20
171.1152618484071
 30
0.0
 11
243.696557336794
 21
162.1011106772694
 31
0.0
  0
LINE
  5
7744
330
18
100
AcDbEntity
  8
本体内線
  6
HIDDEN
 48
0.2
100
AcDbLine
 10
249.2269960963715
 20
170.6801115970057
 30
0.0
 11
244.0885844436269
 21
161.7801215442481
 31
0.0
  0
LINE
  5
7745
330
18
100
AcDbEntity
  8
本体内線
  6
HIDDEN
 48
0.2
100
AcDbLine
 10
253.5571231152937
 20
168.1801115970057
 30
0.0
 11
248.418711462549
 21
159.280121544248
 31
0.0
  0
DIMENSION
  5
781C
330
18
100
AcDbEntity
  8
DIM
100
AcDbDimension
  2
*D9
 10
260.5857278735218
 20
129.7720662374014
 30
0.0
 11
260.5857278735218
 21
133.468310755
 31
0.0
 70
   160
 71
     5
 42
-1.0
  3
A
100
AcDbAlignedDimension
 13
254.661233813488
 23
127.7720662374014
 33
0.0
 14
254.661233813488
 24
129.7720662374014
 34
0.0
 50
90.0
100
AcDbRotatedDimension
  0
LEADER
  5
7A94
330
18
100
AcDbEntity
  8
DIM
 62
     6
100
AcDbLeader
  3
A
 73
     0
 75
     1
 40
1.75
 41
2.333333333333333
 76
     3
 10
262.161233813488
 20
114.2720662374014
 30
0.0
 10
256.4807719577566
 20
108.6828090906827
 30
0.0
 10
255.2307719577566
 20
108.6828090906827
 30
0.0
340
7A95
  0
MTEXT
  5
7A95
102
{ACAD_REACTORS
330
7A94
102
}
330
18
100
AcDbEntity
  8
DIM
 62
     3
100
AcDbMText
 10
254.7307719577566
 20
110.0578090906827
 30
0.0
 40
1.75
 41
0.0
 71
     6
 72
     1
  1
\A1;C1
  7
TXT
 73
     1
 44
1.0
  0
DIMENSION
  5
7B74
330
18
100
AcDbEntity
  8
DIM
100
AcDbDimension
  2
*D10
 10
230.3563572233628
 20
129.7720662374014
 30
0.0
 11
230.3563572233628
 21
134.4468348123632
 31
0.0
 70
   160
  1
0.5
 71
     5
 42
-1.0
  3
A
100
AcDbAlignedDimension
 13
238.6612338134881
 23
129.2720662374014
 33
0.0
 14
241.6612338134882
 24
129.7720662374014
 34
0.0
 50
90.0
100
AcDbRotatedDimension
  0
DIMENSION
  5
7C19
330
18
100
AcDbEntity
  8
DIM
100
AcDbDimension
  2
*D11
 10
267.661233813488
 20
129.7720662374014
 30
0.0
 11
295.940786552456
 21
116.8633364571457
 31
0.0
 70
    34
 71
     5
 42
-1.0
  3
A
100
AcDb2LineAngularDimension
 13
270.7914265982669
 23
116.3031712579714
 33
0.0
 14
259.6612338134881
 24
122.6255556389815
 34
0.0
 15
241.6612338134882
 25
129.7720662374014
 35
0.0
 16
295.9440204649725
 26
112.2453234127227
 36
0.0
1001
ACAD
1000
DSTYLE
1002
{
1070
    79
1070
     2
1002
}
  0
LEADER
  5
7C27
330
18
100
AcDbEntity
  8
DIM
 62
     6
100
AcDbLeader
  3
A
 73
     0
 74
     0
 75
     1
 40
1.75
 41
4.666666666666666
 76
     3
 10
271.3683405946746
 20
128.9791730185879
 30
0.0
 10
278.475789485796
 20
139.3152362492876
 30
0.0
 10
279.725789485796
 20
139.3152362492876
 30
0.0
340
7C28
1001
ACAD
1000
DSTYLE
1002
{
1070
    45
1040
0.0
1002
}
  0
MTEXT
  5
7C28
102
{ACAD_REACTORS
330
7C27
102
}
330
18
100
AcDbEntity
  8
DIM
 62
     3
100
AcDbMText
 10
280.225789485796
 20
140.6902362492876
 30
0.0
 40
1.75
 41
0.0
 71
     4
 72
     1
  1
\A1;R1.5
  7
TXT
 73
     1
 44
1.0
  0
DIMENSION
  5
7D67
330
18
100
AcDbEntity
  8
DIM
100
AcDbDimension
  2
*D12
 10
262.661233813488
 20
139.9315193458317
 30
0.0
 11
254.661233813488
 21
141.3065193458317
 31
0.0
 70
    32
  1
%%c<>
 71
     5
 42
-1.0
  3
A
100
AcDbAlignedDimension
 13
246.6612338134881
 23
129.7720662374014
 33
0.0
 14
262.661233813488
 24
129.7720662374014
 34
0.0
100
AcDbRotatedDimension
1001
ACAD
1000
DSTYLE
1002
{
1070
    45
1040
0.0
1002
}
  0
HATCH
  5
7EFB
330
18
100
AcDbEntity
  8
剖面線
100
AcDbHatch
 10
0.0
 20
0.0
 30
0.0
210
0.0
220
0.0
230
1.0
  2
ANSI31
 70
     0
 71
     1
 91
        6
 92
        7
 72
     0
 73
     1
 93
       10
 10
247.161233813488
 20
127.2720662374015
 10
246.6612338134881
 20
127.7720662374014
 10
246.6612338134881
 20
129.7720662374014
 10
241.6612338134881
 20
129.7720662374014
 10
241.6612338134881
 20
129.2720662374014
 10
239.6612338134881
 20
129.2720662374014
 10
239.6612338134881
 20
116.3701424487547
 10
241.161233813488
 20
113.7720662374014
 10
246.6612338134881
 20
113.7720662374014
 10
247.1612338134882
 20
114.2720662374015
 97
       10
330
7461
330
7466
330
741C
330
745A
330
745B
330
746A
330
745D
330
745C
330
7463
330
7469
 92
        7
 72
     0
 73
     1
 93
        4
 10
247.1612338134881
 20
114.2720662374014
 10
247.6612338134881
 20
114.7720662374013
 10
247.6612338134881
 20
126.7720662374014
 10
247.1612338134881
 20
127.2720662374015
 97
        4
330
7461
330
7469
330
7463
330
7460
 92
        7
 72
     1
 73
     1
 93
       12
 10
270.6919623103852
 20
119.7554165741897
 42
0.0
 10
270.6953627886365
 20
119.7613063752912
 42
0.0
 10
270.6953627886365
 20
118.161306375291
 42
0.0
 10
271.6612338134881
 20
119.8342440638924
 42
0.0
 10
271.6612338134881
 20
128.2720662374014
 42
0.4142135623730956
 10
270.6612338134881
 20
129.2720662374014
 42
0.0
 10
267.6612338134881
 20
129.2720662374014
 42
0.0
 10
267.6612338134881
 20
129.7720662374014
 42
0.0
 10
262.661233813488
 20
129.7720662374014
 42
0.0
 10
262.661233813488
 20
127.7720662374014
 42
0.0
 10
262.1612338134881
 20
127.2720662374014
 42
0.0
 10
262.1612338134881
 20
124.6806349682569
 42
0.0
 97
       12
330
7467
330
741E
330
741D
330
741C
330
7465
330
7437
330
748B
330
742F
330
7420
330
7430
330
742B
330
7447
 92
        7
 72
     0
 73
     1
 93
        4
 10
262.1612338134881
 20
127.2720662374014
 10
261.661233813488
 20
126.7720662374014
 10
261.661233813488
 20
124.9693101028517
 10
262.1612338134881
 20
124.6806349682568
 97
        4
330
7437
330
7436
330
742F
330
748B
 92
        7
 72
     0
 73
     1
 93
        4
 10
262.1612338134881
 20
117.7524317379814
 10
261.661233813488
 20
118.0411068725762
 10
261.661233813488
 20
114.7720662374013
 10
262.1612338134881
 20
114.2720662374012
 97
        4
330
742E
330
7436
330
7439
330
748C
 92
        7
 72
     0
 73
     1
 93
        8
 10
262.1612338134881
 20
117.7524317379814
 10
262.1612338134881
 20
114.2720662374013
 10
262.661233813488
 20
113.7720662374014
 10
268.161233813488
 20
113.7720662374014
 10
269.0776029564403
 20
115.3592641514831
 10
269.0742024781888
 20
115.361227418517
 10
267.6953627886367
 20
114.5651539525846
 10
267.6919623103852
 20
114.5592641514831
 97
        8
330
748C
330
7439
330
745C
330
742B
330
7427
330
7431
330
7420
330
742E
 75
     0
 76
     1
 52
0.0
 41
0.5
 77
     0
 78
     1
 53
45.0
 43
0.0
 44
0.0
 45
-1.122532015133643
 46
1.122532015133644
 79
     0
 47
0.0534221724206034
 98
        6
 10
245.6156024140624
 20
124.9158503378569
 10
247.3799473286295
 20
125.1295390048424
 10
267.9639771554848
 20
124.8624279881171
 10
261.9224308975962
 20
125.7171830220461
 10
262.0293604008182
 20
116.9559465776778
 10
262.9382655458844
 20
116.5285692437067
  0
LINE
  5
7F34
330
18
100
AcDbEntity
  8
公差
 62
     1
100
AcDbLine
 10
239.2015981129059
 20
208.2046439528845
 30
0.0
 11
250.9306230648608
 21
208.2046439528845
 31
0.0
  0
LINE
  5
7F35
330
18
100
AcDbEntity
  8
公差
 62
     1
100
AcDbLine
 10
239.2015981129059
 20
207.0218959731435
 30
0.0
 11
250.9306230648608
 21
207.0218959731435
 31
0.0
  0
MTEXT
  5
7F36
330
18
100
AcDbEntity
  8
0
100
AcDbMText
 10
285.9405956560488
 20
208.9290531322199
 30
0.0
 40
2.5
 41
0.0
 71
     1
 72
     5
  1
{\Ftxt,bigfont|c128;M6X1.0P-6L}
  7
JL
 73
     1
 44
1.0
1001
ACAD
1000
ACAD_MTEXT_DEFINED_HEIGHT_BEGIN
1070
    46
1040
0.0
1000
ACAD_MTEXT_DEFINED_HEIGHT_END
  0
MTEXT
  5
7F4D
330
18
100
AcDbEntity
  8
mark
 62
     3
100
AcDbMText
 10
212.9590633493736
 20
92.96961117845256
 30
0.0
 40
1.302083333333335
 41
0.0
 71
     5
 72
     1
  1
1
 73
     1
 44
1.0
1001
ACAD
1000
ACAD_MTEXT_DEFINED_HEIGHT_BEGIN
1070
    46
1040
0.0
1000
ACAD_MTEXT_DEFINED_HEIGHT_END
  0
LWPOLYLINE
  5
7F4E
330
18
100
AcDbEntity
  8
mark
100
AcDbPolyline
 90
        3
 70
     1
 43
0.0
 10
211.6539635038296
 20
92.02131499177264
 10
214.2520397151829
 20
92.02131499177264
 10
212.9530016095062
 20
94.27131499177264
  0
MTEXT
  5
7F4F
330
18
100
AcDbEntity
  8
DIM
100
AcDbMText
 10
215.1848914777754
 20
94.2230616373302
 30
0.0
 40
2.249053030303036
 41
0.0
 71
     1
 72
     5
  1
{\Ftxt,bigfont|c128;07.10.31ネジの長さを変更する  林}
  7
JL
 73
     1
 44
1.0
1001
ACAD
1000
ACAD_MTEXT_DEFINED_HEIGHT_BEGIN
1070
    46
1040
0.0
1000
ACAD_MTEXT_DEFINED_HEIGHT_END
  0
CIRCLE
  5
7F50
330
18
100
AcDbEntity
  8
DIM
100
AcDbCircle
 10
236.9115356057668
 20
93.07129172245419
 30
0.0
 40
1.361884033060021
  0
MTEXT
  5
7F51
330
18
100
AcDbEntity
  8
mark
 62
     3
100
AcDbMText
 10
303.3386945880022
 20
76.11824495199034
 30
0.0
 40
1.302083333333335
 41
0.0
 71
     5
 72
     1
  1
1
 73
     1
 44
1.0
1001
ACAD
1000
ACAD_MTEXT_DEFINED_HEIGHT_BEGIN
1070
    46
1040
0.0
1000
ACAD_MTEXT_DEFINED_HEIGHT_END
  0
LWPOLYLINE
  5
7F52
330
18
100
AcDbEntity
  8
mark
100
AcDbPolyline
 90
        3
 70
     1
 43
0.0
 10
302.0335947424582
 20
75.16994876531041
 10
304.6316709538114
 20
75.16994876531041
 10
303.3326328481348
 20
77.41994876531041
  0
MTEXT
  5
7F53
330
18
100
AcDbEntity
  8
mark
 62
     3
100
AcDbMText
 10
283.9666099014327
 20
207.3807077104486
 30
0.0
 40
1.302083333333335
 41
0.0
 71
     5
 72
     1
  1
1
 73
     1
 44
1.0
1001
ACAD
1000
ACAD_MTEXT_DEFINED_HEIGHT_BEGIN
1070
    46
1040
0.0
1000
ACAD_MTEXT_DEFINED_HEIGHT_END
  0
LWPOLYLINE
  5
7F54
330
18
100
AcDbEntity
  8
mark
100
AcDbPolyline
 90
        3
 70
     1
 43
0.0
 10
282.6615100558886
 20
206.4324115237687
 10
285.2595862672418
 20
206.4324115237687
 10
283.9605481615653
 20
208.6824115237687
  0
MTEXT
  5
7F61
330
18
100
AcDbEntity
  8
0
100
AcDbMText
 10
234.915937964527
 20
83.56812717502874
 30
0.0
 40
2.5
 41
0.0
 71
     1
 72
     5
  1
{\Ftxt,bigfont|c128;小\~柳}
  7
JL
 73
     1
 44
1.0
1001
ACAD
1000
ACAD_MTEXT_DEFINED_HEIGHT_BEGIN
1070
    46
1040
0.0
1000
ACAD_MTEXT_DEFINED_HEIGHT_END
  0
ENDSEC
  0
SECTION
  2
OBJECTS
  0
DICTIONARY
  5
C
330
0
100
AcDbDictionary
281
     1
  3
ACAD_COLOR
350
7F26
  3
ACAD_GROUP
350
D
  3
ACAD_LAYOUT
350
5CF3
  3
ACAD_MATERIAL
350
7F25
  3
ACAD_MLINESTYLE
350
1B
  3
ACAD_PLOTSETTINGS
350
5CF4
  3
ACAD_PLOTSTYLENAME
350
5CF1
  3
ACAD_TABLESTYLE
350
7F27
  3
ACDBVARIABLEDICTIONARY
350
45D
  0
DICTIONARY
  5
45F
330
18
100
AcDbDictionary
280
     1
281
     1
  3
ACAD_LAYOUTSELFREF
360
5D8B
  3
ACAD_SORTENTS
360
460
  0
DICTIONARY
  5
5D89
330
15
100
AcDbDictionary
280
     1
281
     1
  3
ACAD_LAYOUTSELFREF
360
5D8A
  0
DICTIONARY
  5
7F26
102
{ACAD_REACTORS
330
C
102
}
330
C
100
AcDbDictionary
281
     1
  0
DICTIONARY
  5
D
102
{ACAD_REACTORS
330
C
102
}
330
C
100
AcDbDictionary
281
     1
  0
DICTIONARY
  5
5CF3
102
{ACAD_REACTORS
330
C
102
}
330
C
100
AcDbDictionary
281
     1
  3
Model
350
5CF5
  3
配置1
350
5CF6
  0
DICTIONARY
  5
7F25
102
{ACAD_REACTORS
330
C
102
}
330
C
100
AcDbDictionary
281
     1
  0
DICTIONARY
  5
1B
102
{ACAD_REACTORS
330
C
102
}
330
C
100
AcDbDictionary
281
     1
  3
STANDARD
350
1C
  0
DICTIONARY
  5
5CF4
102
{ACAD_REACTORS
330
C
102
}
330
C
100
AcDbDictionary
281
     1
  0
ACDBDICTIONARYWDFLT
  5
5CF1
102
{ACAD_REACTORS
330
C
102
}
330
C
100
AcDbDictionary
281
     1
  3
Normal
350
5CF2
100
AcDbDictionaryWithDefault
340
5CF2
  0
DICTIONARY
  5
7F27
102
{ACAD_REACTORS
330
C
102
}
330
C
100
AcDbDictionary
281
     1
  3
Standard
350
7F28
  0
DICTIONARY
  5
45D
102
{ACAD_REACTORS
330
C
102
}
330
C
100
AcDbDictionary
281
     1
  3
CTABLESTYLE
350
7F33
  3
SORTENTS
350
45E
  0
XRECORD
  5
5D8B
102
{ACAD_REACTORS
330
45F
102
}
330
45F
100
AcDbXrecord
280
     1
340
18
  0
SORTENTSTABLE
  5
460
102
{ACAD_REACTORS
330
45F
102
}
330
45F
100
AcDbSortentsTable
330
18
331
C0
  5
CB
  0
XRECORD
  5
5D8A
102
{ACAD_REACTORS
330
5D89
102
}
330
5D89
100
AcDbXrecord
280
     1
340
15
  0
LAYOUT
  5
5CF5
102
{ACAD_REACTORS
330
5CF3
102
}
330
5CF3
100
AcDbPlotSettings
  1

  2
EPSON STYLUS COLOR 440
  4

  6

 40
0.0
 41
0.0
 42
0.0
 43
0.0
 44
0.0
 45
0.0
 46
0.0
 47
0.0
 48
0.0
 49
0.0
140
0.0
141
0.0
142
1.0
143
1.0
 70
  1712
 72
     0
 73
     0
 74
     0
  7
a.ctb
 75
     0
147
1.0
 76
     0
 77
     2
 78
   300
148
0.0
149
0.0
100
AcDbLayout
  1
Model
 70
     1
 71
     0
 10
0.0
 20
0.0
 11
12.0
 21
9.0
 12
0.0
 22
0.0
 32
0.0
 14
0.0
 24
0.0
 34
0.0
 15
0.0
 25
0.0
 35
0.0
146
0.0
 13
0.0
 23
0.0
 33
0.0
 16
1.0
 26
0.0
 36
0.0
 17
0.0
 27
1.0
 37
0.0
 76
     0
330
18
  0
LAYOUT
  5
5CF6
102
{ACAD_REACTORS
330
5CF3
102
}
330
5CF3
100
AcDbPlotSettings
  1

  2
EPSON STYLUS COLOR 440
  4

  6

 40
0.0
 41
0.0
 42
0.0
 43
0.0
 44
0.0
 45
0.0
 46
0.0
 47
0.0
 48
0.0
 49
0.0
140
0.0
141
0.0
142
1.0
143
1.0
 70
   688
 72
     0
 73
     0
 74
     5
  7
a.ctb
 75
    16
147
1.0
 76
     0
 77
     2
 78
   300
148
0.0
149
0.0
100
AcDbLayout
  1
ｰtｸm1
 70
     1
 71
     1
 10
0.0
 20
0.0
 11
420.0
 21
297.0
 12
0.0
 22
0.0
 32
0.0
 14
1.000000000000000E+20
 24
1.000000000000000E+20
 34
1.000000000000000E+20
 15
-1.000000000000000E+20
 25
-1.000000000000000E+20
 35
-1.000000000000000E+20
146
0.0
 13
0.0
 23
0.0
 33
0.0
 16
1.0
 26
0.0
 36
0.0
 17
0.0
 27
1.0
 37
0.0
 76
     0
330
15
  0
MLINESTYLE
  5
1C
102
{ACAD_REACTORS
330
1B
102
}
330
1B
100
AcDbMlineStyle
  2
STANDARD
 70
     0
  3

 62
   256
 51
90.0
 52
90.0
 71
     2
 49
0.5
 62
   256
  6
BYLAYER
 49
-0.5
 62
   256
  6
BYLAYER
  0
ACDBPLACEHOLDER
  5
5CF2
102
{ACAD_REACTORS
330
5CF1
102
}
330
5CF1
  0
TABLESTYLE
  5
7F28
102
{ACAD_REACTORS
330
7F27
102
}
330
7F27
100
AcDbTableStyle
  3
Standard
 70
     0
 71
     8
 40
1.5
 41
1.5
280
     0
281
     0
  7
STANDARD
140
4.5
170
     2
 62
     0
 63
     7
283
     0
274
    -2
284
     1
 64
     0
275
    -2
285
     1
 65
     0
276
    -2
286
     1
 66
     0
277
    -2
287
     1
 67
     0
278
    -2
288
     1
 68
     0
279
    -2
289
     1
 69
     0
  7
STANDARD
140
6.0
170
     5
 62
     0
 63
     7
283
     0
274
    -2
284
     1
 64
     0
275
    -2
285
     1
 65
     0
276
    -2
286
     1
 66
     0
277
    -2
287
     1
 67
     0
278
    -2
288
     1
 68
     0
279
    -2
289
     1
 69
     0
  7
STANDARD
140
4.5
170
     5
 62
     0
 63
     7
283
     0
274
    -2
284
     1
 64
     0
275
    -2
285
     1
 65
     0
276
    -2
286
     1
 66
     0
277
    -2
287
     1
 67
     0
278
    -2
288
     1
 68
     0
279
    -2
289
     1
 69
     0
  0
DICTIONARYVAR
  5
7F33
102
{ACAD_REACTORS
330
45D
102
}
330
45D
100
DictionaryVariables
280
     0
  1
STANDARD
  0
DICTIONARYVAR
  5
45E
102
{ACAD_REACTORS
330
45D
102
}
330
45D
100
DictionaryVariables
280
     0
  1
127
  0
ENDSEC
  0
EOF
