  0
SECTION
  2
HEADER
  9
$ACADVER
  1
AC1018
  9
$ACADMAINTVER
 70
    76
  9
$DWGCODEPAGE
  3
ANSI_932
  9
$INSBASE
 10
0.0
 20
0.0
 30
0.0
  9
$EXTMIN
 10
210.0000012223609
 20
73.86026078725729
 30
-0.0001525646051803
  9
$EXTMAX
 10
309.0142830752468
 20
218.9024511621129
 30
2.000000009314362
  9
$LIMMIN
 10
0.0
 20
0.0
  9
$LIMMAX
 10
420.0
 20
297.0
  9
$ORTHOMODE
 70
     1
  9
$REGENMODE
 70
     1
  9
$FILLMODE
 70
     1
  9
$QTEXTMODE
 70
     0
  9
$MIRRTEXT
 70
     1
  9
$LTSCALE
 40
1.0
  9
$ATTMODE
 70
     1
  9
$TEXTSIZE
 40
2.5
  9
$TRACEWID
 40
1.0
  9
$TEXTSTYLE
  7
TXT
  9
$CLAYER
  8
0
  9
$CELTYPE
  6
BYLAYER
  9
$CECOLOR
 62
   256
  9
$CELTSCALE
 40
1.0
  9
$DISPSILH
 70
     0
  9
$DIMSCALE
 40
1.0
  9
$DIMASZ
 40
1.25
  9
$DIMEXO
 40
1.0
  9
$DIMDLI
 40
3.0
  9
$DIMRND
 40
0.0
  9
$DIMDLE
 40
0.0
  9
$DIMEXE
 40
1.0
  9
$DIMTP
 40
0.0
  9
$DIMTM
 40
0.0
  9
$DIMTXT
 40
1.75
  9
$DIMCEN
 40
0.0
  9
$DIMTSZ
 40
0.0
  9
$DIMTOL
 70
     0
  9
$DIMLIM
 70
     0
  9
$DIMTIH
 70
     0
  9
$DIMTOH
 70
     0
  9
$DIMSE1
 70
     0
  9
$DIMSE2
 70
     0
  9
$DIMTAD
 70
     3
  9
$DIMZIN
 70
     8
  9
$DIMBLK
  1

  9
$DIMASO
 70
     1
  9
$DIMSHO
 70
     1
  9
$DIMPOST
  1

  9
$DIMAPOST
  1

  9
$DIMALT
 70
     0
  9
$DIMALTD
 70
     2
  9
$DIMALTF
 40
25.4
  9
$DIMLFAC
 40
1.0
  9
$DIMTOFL
 70
     0
  9
$DIMTVP
 40
0.0
  9
$DIMTIX
 70
     0
  9
$DIMSOXD
 70
     0
  9
$DIMSAH
 70
     0
  9
$DIMBLK1
  1

  9
$DIMBLK2
  1

  9
$DIMSTYLE
  2
A
  9
$DIMCLRD
 70
     6
  9
$DIMCLRE
 70
     6
  9
$DIMCLRT
 70
     3
  9
$DIMTFAC
 40
1.0
  9
$DIMGAP
 40
0.5
  9
$DIMJUST
 70
     0
  9
$DIMSD1
 70
     0
  9
$DIMSD2
 70
     0
  9
$DIMTOLJ
 70
     1
  9
$DIMTZIN
 70
     0
  9
$DIMALTZ
 70
     0
  9
$DIMALTTZ
 70
     0
  9
$DIMUPT
 70
     0
  9
$DIMDEC
 70
     0
  9
$DIMTDEC
 70
     0
  9
$DIMALTU
 70
     2
  9
$DIMALTTD
 70
     2
  9
$DIMTXSTY
  7
TXT
  9
$DIMAUNIT
 70
     0
  9
$DIMADEC
 70
     0
  9
$DIMALTRND
 40
0.0
  9
$DIMAZIN
 70
     0
  9
$DIMDSEP
 70
    46
  9
$DIMATFIT
 70
     3
  9
$DIMFRAC
 70
     0
  9
$DIMLDRBLK
  1

  9
$DIMLUNIT
 70
     2
  9
$DIMLWD
 70
    -2
  9
$DIMLWE
 70
    -2
  9
$DIMTMOVE
 70
     1
  9
$LUNITS
 70
     2
  9
$LUPREC
 70
     2
  9
$SKETCHINC
 40
1.0
  9
$FILLETRAD
 40
1.5
  9
$AUNITS
 70
     0
  9
$AUPREC
 70
     2
  9
$MENU
  1
.
  9
$ELEVATION
 40
0.0
  9
$PELEVATION
 40
0.0
  9
$THICKNESS
 40
0.0
  9
$LIMCHECK
 70
     0
  9
$CHAMFERA
 40
0.0
  9
$CHAMFERB
 40
0.0
  9
$CHAMFERC
 40
1.75
  9
$CHAMFERD
 40
0.0174532925199433
  9
$SKPOLY
 70
     0
  9
$TDCREATE
 40
2451555.620234838
  9
$TDUCREATE
 40
2451555.245234838
  9
$TDUPDATE
 40
2455846.595237720
  9
$TDUUPDATE
 40
2455846.220237720
  9
$TDINDWG
 40
2.5211226389
  9
$TDUSRTIMER
 40
2.5211226389
  9
$USRTIMER
 70
     1
  9
$ANGBASE
 50
0.0
  9
$ANGDIR
 70
     0
  9
$PDMODE
 70
     0
  9
$PDSIZE
 40
0.0
  9
$PLINEWID
 40
0.0
  9
$SPLFRAME
 70
     0
  9
$SPLINETYPE
 70
     6
  9
$SPLINESEGS
 70
     8
  9
$HANDSEED
  5
8574
  9
$SURFTAB1
 70
     6
  9
$SURFTAB2
 70
     6
  9
$SURFTYPE
 70
     6
  9
$SURFU
 70
     6
  9
$SURFV
 70
     6
  9
$UCSBASE
  2

  9
$UCSNAME
  2

  9
$UCSORG
 10
0.0
 20
0.0
 30
0.0
  9
$UCSXDIR
 10
1.0
 20
0.0
 30
0.0
  9
$UCSYDIR
 10
0.0
 20
1.0
 30
0.0
  9
$UCSORTHOREF
  2

  9
$UCSORTHOVIEW
 70
     0
  9
$UCSORGTOP
 10
0.0
 20
0.0
 30
0.0
  9
$UCSORGBOTTOM
 10
0.0
 20
0.0
 30
0.0
  9
$UCSORGLEFT
 10
0.0
 20
0.0
 30
0.0
  9
$UCSORGRIGHT
 10
0.0
 20
0.0
 30
0.0
  9
$UCSORGFRONT
 10
0.0
 20
0.0
 30
0.0
  9
$UCSORGBACK
 10
0.0
 20
0.0
 30
0.0
  9
$PUCSBASE
  2

  9
$PUCSNAME
  2

  9
$PUCSORG
 10
0.0
 20
0.0
 30
0.0
  9
$PUCSXDIR
 10
1.0
 20
0.0
 30
0.0
  9
$PUCSYDIR
 10
0.0
 20
1.0
 30
0.0
  9
$PUCSORTHOREF
  2

  9
$PUCSORTHOVIEW
 70
     0
  9
$PUCSORGTOP
 10
0.0
 20
0.0
 30
0.0
  9
$PUCSORGBOTTOM
 10
0.0
 20
0.0
 30
0.0
  9
$PUCSORGLEFT
 10
0.0
 20
0.0
 30
0.0
  9
$PUCSORGRIGHT
 10
0.0
 20
0.0
 30
0.0
  9
$PUCSORGFRONT
 10
0.0
 20
0.0
 30
0.0
  9
$PUCSORGBACK
 10
0.0
 20
0.0
 30
0.0
  9
$USERI1
 70
     0
  9
$USERI2
 70
     0
  9
$USERI3
 70
     0
  9
$USERI4
 70
     0
  9
$USERI5
 70
     0
  9
$USERR1
 40
0.0
  9
$USERR2
 40
0.0
  9
$USERR3
 40
0.0
  9
$USERR4
 40
0.0
  9
$USERR5
 40
0.0
  9
$WORLDVIEW
 70
     1
  9
$SHADEDGE
 70
     3
  9
$SHADEDIF
 70
    70
  9
$TILEMODE
 70
     1
  9
$MAXACTVP
 70
    48
  9
$PINSBASE
 10
0.0
 20
0.0
 30
0.0
  9
$PLIMCHECK
 70
     0
  9
$PEXTMIN
 10
1.000000000000000E+20
 20
1.000000000000000E+20
 30
1.000000000000000E+20
  9
$PEXTMAX
 10
-1.000000000000000E+20
 20
-1.000000000000000E+20
 30
-1.000000000000000E+20
  9
$PLIMMIN
 10
0.0
 20
0.0
  9
$PLIMMAX
 10
420.0
 20
297.0
  9
$UNITMODE
 70
     0
  9
$VISRETAIN
 70
     1
  9
$PLINEGEN
 70
     0
  9
$PSLTSCALE
 70
     1
  9
$TREEDEPTH
 70
  3020
  9
$CMLSTYLE
  2
STANDARD
  9
$CMLJUST
 70
     0
  9
$CMLSCALE
 40
20.0
  9
$PROXYGRAPHICS
 70
     1
  9
$MEASUREMENT
 70
     1
  9
$CELWEIGHT
370
    -1
  9
$ENDCAPS
280
     0
  9
$JOINSTYLE
280
     0
  9
$LWDISPLAY
290
     0
  9
$INSUNITS
 70
     0
  9
$HYPERLINKBASE
  1

  9
$STYLESHEET
  1
LIN.ctb
  9
$XEDIT
290
     1
  9
$CEPSNTYPE
380
     0
  9
$PSTYLEMODE
290
     1
  9
$FINGERPRINTGUID
  2
{1CF51E8A-A506-11D4-A7D9-AF69F5C20846}
  9
$VERSIONGUID
  2
{4128284C-DB14-4D8A-8185-0B212546222E}
  9
$EXTNAMES
290
     1
  9
$PSVPSCALE
 40
0.0
  9
$OLESTARTUP
290
     0
  9
$SORTENTS
280
   127
  9
$INDEXCTL
280
     0
  9
$HIDETEXT
280
     0
  9
$XCLIPFRAME
290
     0
  9
$HALOGAP
280
     0
  9
$OBSCOLOR
 70
   257
  9
$OBSLTYPE
280
     0
  9
$INTERSECTIONDISPLAY
280
     0
  9
$INTERSECTIONCOLOR
 70
   257
  9
$DIMASSOC
280
     1
  9
$PROJECTNAME
  1

  0
ENDSEC
  0
SECTION
  2
CLASSES
  0
CLASS
  1
DICTIONARYVAR
  2
AcDbDictionaryVar
  3
ObjectDBX Classes
 90
        0
 91
        2
280
     0
281
     0
  0
CLASS
  1
SORTENTSTABLE
  2
AcDbSortentsTable
  3
ObjectDBX Classes
 90
        0
 91
        2
280
     0
281
     0
  0
CLASS
  1
ACDBDICTIONARYWDFLT
  2
AcDbDictionaryWithDefault
  3
ObjectDBX Classes
 90
        0
 91
        1
280
     0
281
     0
  0
CLASS
  1
TABLESTYLE
  2
AcDbTableStyle
  3
ObjectDBX Classes
 90
     2047
 91
        1
280
     0
281
     0
  0
ENDSEC
  0
SECTION
  2
TABLES
  0
TABLE
  2
VPORT
  5
8
330
0
100
AcDbSymbolTable
 70
     2
  0
VPORT
  5
8573
330
8
100
AcDbSymbolTableRecord
100
AcDbViewportTableRecord
  2
*Active
 70
     0
 10
0.0
 20
0.0
 11
1.0
 21
1.0
 12
284.8536590009321
 22
148.0806180763039
 13
0.0
 23
0.0
 14
10.0
 24
10.0
 15
10.0
 25
10.0
 16
0.0
 26
0.0
 36
1.0
 17
0.0
 27
0.0
 37
0.0
 40
146.702978745949
 41
2.47104247104247
 42
50.0
 43
0.0
 44
0.0
 50
0.0
 51
0.0
 71
     0
 72
   100
 73
     1
 74
     1
 75
     0
 76
     0
 77
     0
 78
     0
281
     0
 65
     1
110
0.0
120
0.0
130
0.0
111
1.0
121
0.0
131
0.0
112
0.0
122
1.0
132
0.0
 79
     0
146
0.0
  0
ENDTAB
  0
TABLE
  2
LTYPE
  5
5
330
0
100
AcDbSymbolTable
 70
     9
  0
LTYPE
  5
12
330
5
100
AcDbSymbolTableRecord
100
AcDbLinetypeTableRecord
  2
BYBLOCK
 70
     0
  3

 72
    65
 73
     0
 40
0.0
  0
LTYPE
  5
13
330
5
100
AcDbSymbolTableRecord
100
AcDbLinetypeTableRecord
  2
BYLAYER
 70
     0
  3

 72
    65
 73
     0
 40
0.0
  0
LTYPE
  5
14
330
5
100
AcDbSymbolTableRecord
100
AcDbLinetypeTableRecord
  2
CONTINUOUS
 70
     0
  3
Solid line
 72
    65
 73
     0
 40
0.0
  0
LTYPE
  5
9D
330
5
100
AcDbSymbolTableRecord
100
AcDbLinetypeTableRecord
  2
CENTERX2
 70
     0
  3
Center (2x) ________  __  ________  __  _____
 72
    65
 73
     4
 40
101.6
 49
63.5
 74
     0
 49
-12.7
 74
     0
 49
12.7
 74
     0
 49
-12.7
 74
     0
  0
LTYPE
  5
A1
330
5
100
AcDbSymbolTableRecord
100
AcDbLinetypeTableRecord
  2
DASHED
 70
     0
  3
Dashed __ __ __ __ __ __ __ __ __ __ __ __ __ _
 72
    65
 73
     2
 40
19.05
 49
12.7
 74
     0
 49
-6.349999999999999
 74
     0
  0
LTYPE
  5
A2
330
5
100
AcDbSymbolTableRecord
100
AcDbLinetypeTableRecord
  2
DASHED2
 70
     0
  3
Dashed (.5x) _ _ _ _ _ _ _ _ _ _ _ _ _ _ _ _ _
 72
    65
 73
     2
 40
9.524999999999998
 49
6.349999999999999
 74
     0
 49
-3.174999999999999
 74
     0
  0
LTYPE
  5
A5
330
5
100
AcDbSymbolTableRecord
100
AcDbLinetypeTableRecord
  2
DIVIDE2
 70
     0
  3
Divide (.5x) __..__..__..__..__..__..__..__.._
 72
    65
 73
     6
 40
15.875
 49
6.349999999999999
 74
     0
 49
-3.174999999999999
 74
     0
 49
0.0
 74
     0
 49
-3.174999999999999
 74
     0
 49
0.0
 74
     0
 49
-3.174999999999999
 74
     0
  0
LTYPE
  5
650B
330
5
100
AcDbSymbolTableRecord
100
AcDbLinetypeTableRecord
  2
CENTER
 70
     0
  3
Center ____ _ ____ _ ____ _ ____ _ ____ _ ____
 72
    65
 73
     4
 40
50.8
 49
31.75
 74
     0
 49
-6.349999999999999
 74
     0
 49
6.349999999999999
 74
     0
 49
-6.349999999999999
 74
     0
  0
LTYPE
  5
650C
330
5
100
AcDbSymbolTableRecord
100
AcDbLinetypeTableRecord
  2
HIDDEN
 70
     0
  3
Hidden __ __ __ __ __ __ __ __ __ __ __ __ __ _
 72
    65
 73
     2
 40
9.524999999999998
 49
6.349999999999999
 74
     0
 49
-3.174999999999999
 74
     0
  0
LTYPE
  5
6684
330
5
100
AcDbSymbolTableRecord
100
AcDbLinetypeTableRecord
  2
HIDDEN2
 70
     0
  3
Hidden (.5x) _ _ _ _ _ _ _ _ _ _ _ _ _ _ _ _ _
 72
    65
 73
     2
 40
4.762499999999999
 49
3.174999999999999
 74
     0
 49
-1.587499999999999
 74
     0
  0
LTYPE
  5
6AF9
330
5
100
AcDbSymbolTableRecord
100
AcDbLinetypeTableRecord
  2
ACAD_ISO03W100
 70
     0
  3
ISO dash space __    __    __    __    __    __
 72
    65
 73
     2
 40
30.0
 49
12.0
 74
     0
 49
-18.0
 74
     0
  0
ENDTAB
  0
TABLE
  2
LAYER
  5
2
330
0
100
AcDbSymbolTable
 70
     9
  0
LAYER
  5
E
330
2
100
AcDbSymbolTableRecord
100
AcDbLayerTableRecord
  2
0
 70
     0
 62
     7
  6
CONTINUOUS
370
    -3
390
5CF2
  0
LAYER
  5
B9
330
2
100
AcDbSymbolTableRecord
100
AcDbLayerTableRecord
  2
DIM
 70
     0
 62
     3
  6
CONTINUOUS
370
    -3
390
5CF2
  0
LAYER
  5
F2
330
2
100
AcDbSymbolTableRecord
100
AcDbLayerTableRecord
  2
DEFPOINTS
 70
     0
 62
     7
  6
CONTINUOUS
290
     0
370
    -3
390
5CF2
  0
LAYER
  5
5F8B
330
2
100
AcDbSymbolTableRecord
100
AcDbLayerTableRecord
  2
公差
 70
     0
 62
     6
  6
CONTINUOUS
370
    -3
390
5CF2
  0
LAYER
  5
644E
330
2
100
AcDbSymbolTableRecord
100
AcDbLayerTableRecord
  2
図框線
 70
     0
 62
     9
  6
CONTINUOUS
370
    -3
390
5CF2
  0
LAYER
  5
650D
330
2
100
AcDbSymbolTableRecord
100
AcDbLayerTableRecord
  2
中心線
 70
     0
 62
     1
  6
CENTER
370
    -3
390
5CF2
  0
LAYER
  5
650E
330
2
100
AcDbSymbolTableRecord
100
AcDbLayerTableRecord
  2
本体内線
 70
     0
 62
     4
  6
HIDDEN
370
    -3
390
5CF2
  0
LAYER
  5
650F
330
2
100
AcDbSymbolTableRecord
100
AcDbLayerTableRecord
  2
本体外線
 70
     0
 62
     2
  6
CONTINUOUS
370
    -3
390
5CF2
  0
LAYER
  5
6510
330
2
100
AcDbSymbolTableRecord
100
AcDbLayerTableRecord
  2
剖面線
 70
     0
 62
     5
  6
CONTINUOUS
370
    -3
390
5CF2
  0
ENDTAB
  0
TABLE
  2
STYLE
  5
3
330
0
100
AcDbSymbolTable
 70
     6
  0
STYLE
  5
F
330
3
100
AcDbSymbolTableRecord
100
AcDbTextStyleTableRecord
  2
STANDARD
 70
     0
 40
0.0
 41
1.0
 50
0.0
 71
     0
 42
2.5
  3
txt
  4

  0
STYLE
  5
BE
330
3
100
AcDbSymbolTableRecord
100
AcDbTextStyleTableRecord
  2
ISOCP3
 70
     0
 40
0.0
 41
1.0
 50
0.0
 71
     0
 42
2.5
  3
isocp3.shx
  4

  0
STYLE
  5
2A37
330
3
100
AcDbSymbolTableRecord
100
AcDbTextStyleTableRecord
  2
TXT
 70
     0
 40
0.0
 41
1.0
 50
0.0
 71
     0
 42
2.5
  3
txt.shx
  4
bigfont.shx
  0
STYLE
  5
5DCB
330
3
100
AcDbSymbolTableRecord
100
AcDbTextStyleTableRecord
  2
LKK
 70
     0
 40
50.0
 41
1.5
 50
0.0
 71
     0
 42
50.0
  3
MS PGothic.ttf
  4

1001
ACAD
1000
MS PGothic
1071
    32818
  0
STYLE
  5
5DCC
330
3
100
AcDbSymbolTableRecord
100
AcDbTextStyleTableRecord
  2
JL
 70
     0
 40
10.0
 41
0.5
 50
0.0
 71
     0
 42
5.0
  3
MS Mincho.ttf
  4

1001
ACAD
1000
MS Mincho
1071
    32785
  0
ENDTAB
  0
TABLE
  2
VIEW
  5
6
330
0
100
AcDbSymbolTable
 70
     0
  0
ENDTAB
  0
TABLE
  2
UCS
  5
7
330
0
100
AcDbSymbolTable
 70
     0
  0
ENDTAB
  0
TABLE
  2
APPID
  5
9
330
0
100
AcDbSymbolTable
 70
     2
  0
APPID
  5
10
330
9
100
AcDbSymbolTableRecord
100
AcDbRegAppTableRecord
  2
ACAD
 70
     0
  0
APPID
  5
852F
330
9
100
AcDbSymbolTableRecord
100
AcDbRegAppTableRecord
  2
ACAD_PSEXT
 70
     0
  0
ENDTAB
  0
TABLE
  2
DIMSTYLE
  5
A
330
0
100
AcDbSymbolTable
 70
     4
100
AcDbDimStyleTable
 71
     1
340
1A4
  0
DIMSTYLE
105
1D
330
A
100
AcDbSymbolTableRecord
100
AcDbDimStyleTableRecord
  2
STANDARD
 70
     0
 41
3.0
 42
0.06
 77
     3
140
4.0
144
0.3333333333333333
172
     1
340
F
  0
DIMSTYLE
105
1A4
102
{ACAD_REACTORS
330
678A
330
6947
330
6EA2
330
6EAB
330
7064
330
747A
330
747B
330
747F
330
781C
330
7B74
330
7C19
330
7D67
102
}
330
A
100
AcDbSymbolTableRecord
100
AcDbDimStyleTableRecord
  2
A
 70
     0
 41
1.25
 42
1.0
 43
3.0
 44
1.0
 73
     0
 74
     0
 77
     3
 78
     8
140
1.75
141
0.0
147
0.5
176
     6
177
     6
178
     3
271
     0
272
     0
279
     1
340
2A37
  0
DIMSTYLE
105
6006
330
A
100
AcDbSymbolTableRecord
100
AcDbDimStyleTableRecord
  2
ISO-25
 70
     0
 40
0.0
 41
2.0
 42
0.3
 43
1.0
 44
0.3
 73
     0
 74
     0
 77
     1
 78
     8
140
3.0
147
1.0
172
     1
176
     6
177
     6
178
     3
271
     1
272
     2
284
     8
288
     1
289
     2
340
F
  0
ENDTAB
  0
TABLE
  2
BLOCK_RECORD
  5
1
330
0
100
AcDbSymbolTable
 70
    15
  0
BLOCK_RECORD
  5
18
102
{ACAD_XDICTIONARY
360
45F
102
}
330
1
100
AcDbSymbolTableRecord
100
AcDbBlockTableRecord
  2
*MODEL_SPACE
340
5CF5
  0
BLOCK_RECORD
  5
15
102
{ACAD_XDICTIONARY
360
5D89
102
}
330
1
100
AcDbSymbolTableRecord
100
AcDbBlockTableRecord
  2
*PAPER_SPACE
340
5CF6
  0
BLOCK_RECORD
  5
639D
330
1
100
AcDbSymbolTableRecord
100
AcDbBlockTableRecord
  2
A$C255C26A2
340
0
102
{BLKREFS
331
63A3
102
}
  0
BLOCK_RECORD
  5
67DE
330
1
100
AcDbSymbolTableRecord
100
AcDbBlockTableRecord
  2
*D1
340
0
  0
BLOCK_RECORD
  5
6937
330
1
100
AcDbSymbolTableRecord
100
AcDbBlockTableRecord
  2
*D2
340
0
  0
BLOCK_RECORD
  5
6EDF
330
1
100
AcDbSymbolTableRecord
100
AcDbBlockTableRecord
  2
*D3
340
0
  0
BLOCK_RECORD
  5
6EF7
330
1
100
AcDbSymbolTableRecord
100
AcDbBlockTableRecord
  2
*D4
340
0
  0
BLOCK_RECORD
  5
7058
330
1
100
AcDbSymbolTableRecord
100
AcDbBlockTableRecord
  2
*D5
340
0
  0
BLOCK_RECORD
  5
74F4
330
1
100
AcDbSymbolTableRecord
100
AcDbBlockTableRecord
  2
*D6
340
0
  0
BLOCK_RECORD
  5
7500
330
1
100
AcDbSymbolTableRecord
100
AcDbBlockTableRecord
  2
*D7
340
0
  0
BLOCK_RECORD
  5
751A
330
1
100
AcDbSymbolTableRecord
100
AcDbBlockTableRecord
  2
*D8
340
0
  0
BLOCK_RECORD
  5
780C
330
1
100
AcDbSymbolTableRecord
100
AcDbBlockTableRecord
  2
*D9
340
0
  0
BLOCK_RECORD
  5
7B64
330
1
100
AcDbSymbolTableRecord
100
AcDbBlockTableRecord
  2
*D10
340
0
  0
BLOCK_RECORD
  5
7C0B
330
1
100
AcDbSymbolTableRecord
100
AcDbBlockTableRecord
  2
*D11
340
0
  0
BLOCK_RECORD
  5
7D5B
330
1
100
AcDbSymbolTableRecord
100
AcDbBlockTableRecord
  2
*D12
340
0
  0
BLOCK_RECORD
  5
8548
330
1
100
AcDbSymbolTableRecord
100
AcDbBlockTableRecord
  2
_DOTSMALL
340
0
  0
ENDTAB
  0
ENDSEC
  0
SECTION
  2
BLOCKS
  0
BLOCK
  5
19
330
18
100
AcDbEntity
  8
0
100
AcDbBlockBegin
  2
*MODEL_SPACE
 70
     0
 10
0.0
 20
0.0
 30
0.0
  3
*MODEL_SPACE
  1

  0
ENDBLK
  5
1A
330
18
100
AcDbEntity
  8
0
100
AcDbBlockEnd
  0
BLOCK
  5
16
330
15
100
AcDbEntity
 67
     1
  8
0
100
AcDbBlockBegin
  2
*PAPER_SPACE
 70
     0
 10
0.0
 20
0.0
 30
0.0
  3
*PAPER_SPACE
  1

  0
ENDBLK
  5
17
330
15
100
AcDbEntity
 67
     1
  8
0
100
AcDbBlockEnd
  0
BLOCK
  5
63A1
330
639D
100
AcDbEntity
  8
0
100
AcDbBlockBegin
  2
A$C255C26A2
 70
     0
 10
0.0
 20
0.0
 30
0.0
  3
A$C255C26A2
  1

  0
LWPOLYLINE
  5
639E
330
639D
100
AcDbEntity
  8
0
100
AcDbPolyline
 90
        3
 70
     1
 43
0.0
 10
7.014806023851633
 20
0.0000006939811783
 10
5.611844869720698
 20
2.430000693981241
 10
8.417767177982568
 20
2.430000693981241
  0
LWPOLYLINE
  5
639F
330
639D
100
AcDbEntity
  8
0
100
AcDbPolyline
 90
        3
 70
     1
 43
0.0
 10
4.20888371558999
 20
0.0000006939811783
 10
2.805922561459283
 20
2.430000693981241
 10
5.611844869720698
 20
2.430000693981241
  0
LWPOLYLINE
  5
63A0
330
639D
100
AcDbEntity
  8
0
100
AcDbPolyline
 90
        3
 70
     1
 43
0.0
 10
1.402961407328348
 20
0.0000006939811783
 10
0.0000002531974133
 20
2.430000693981241
 10
2.805922561459283
 20
2.430000693981241
  0
ENDBLK
  5
63A2
330
639D
100
AcDbEntity
  8
0
100
AcDbBlockEnd
  0
BLOCK
  5
7D89
330
67DE
100
AcDbEntity
  8
0
100
AcDbBlockBegin
  2
*D1
 70
     1
 10
0.0
 20
0.0
 30
0.0
  3
*D1
  1

  0
LINE
  5
7D8A
330
67DE
100
AcDbEntity
  8
0
  6
ByBlock
 62
     6
100
AcDbLine
 10
237.6571141388387
 20
172.0924874234589
 30
0.0
 11
237.6571141388387
 21
154.7301776296207
 31
0.0
  0
LINE
  5
7D8B
330
67DE
100
AcDbEntity
  8
0
  6
ByBlock
 62
     6
100
AcDbLine
 10
239.6612338134881
 20
172.0924874234589
 30
0.0
 11
239.6612338134881
 21
154.7301776296207
 31
0.0
  0
LINE
  5
7D8C
330
67DE
100
AcDbEntity
  8
0
  6
ByBlock
 62
     6
100
AcDbLine
 10
236.4071141388387
 20
155.7301776296207
 30
0.0
 11
235.1571141388387
 21
155.7301776296207
 31
0.0
  0
LINE
  5
7D8D
330
67DE
100
AcDbEntity
  8
0
  6
ByBlock
 62
     6
100
AcDbLine
 10
240.9112338134881
 20
155.7301776296207
 30
0.0
 11
242.1612338134881
 21
155.7301776296207
 31
0.0
  0
MTEXT
  5
7D8E
330
67DE
100
AcDbEntity
  8
0
  6
ByBlock
 62
     3
100
AcDbMText
 10
238.6591739761634
 20
157.1051776296207
 30
0.0
 40
1.75
 41
0.0
 71
     5
 72
     1
  1
\A1;2
  7
TXT
 73
     1
 44
1.0
  0
LINE
  5
7D8F
330
67DE
100
AcDbEntity
  8
0
  6
ByBlock
 62
     6
100
AcDbLine
 10
237.6571141388387
 20
155.7301776296207
 30
0.0
 11
239.6612338134881
 21
155.7301776296207
 31
0.0
  0
SOLID
  5
7D90
330
67DE
100
AcDbEntity
  8
0
  6
ByBlock
 62
     6
100
AcDbTrace
 10
236.4071141388387
 20
155.938510962954
 30
0.0
 11
236.4071141388387
 21
155.5218442962873
 31
0.0
 12
237.6571141388387
 22
155.7301776296207
 32
0.0
 13
237.6571141388387
 23
155.7301776296207
 33
0.0
  0
SOLID
  5
7D91
330
67DE
100
AcDbEntity
  8
0
  6
ByBlock
 62
     6
100
AcDbTrace
 10
240.9112338134881
 20
155.938510962954
 30
0.0
 11
240.9112338134881
 21
155.5218442962873
 31
0.0
 12
239.6612338134881
 22
155.7301776296207
 32
0.0
 13
239.6612338134881
 23
155.7301776296207
 33
0.0
  0
POINT
  5
7D92
330
67DE
100
AcDbEntity
  8
DEFPOINTS
  6
ByBlock
 62
     0
100
AcDbPoint
 10
237.6571141388387
 20
173.0924874234589
 30
0.0
  0
POINT
  5
7D93
330
67DE
100
AcDbEntity
  8
DEFPOINTS
  6
ByBlock
 62
     0
100
AcDbPoint
 10
239.6612338134881
 20
173.0924874234589
 30
0.0
  0
POINT
  5
7D94
330
67DE
100
AcDbEntity
  8
DEFPOINTS
  6
ByBlock
 62
     0
100
AcDbPoint
 10
239.6612338134881
 20
155.7301776296207
 30
0.0
  0
ENDBLK
  5
7D95
330
67DE
100
AcDbEntity
  8
0
100
AcDbBlockEnd
  0
BLOCK
  5
834D
330
6937
100
AcDbEntity
  8
0
100
AcDbBlockBegin
  2
*D2
 70
     1
 10
0.0
 20
0.0
 30
0.0
  3
*D2
  1

  0
LINE
  5
834E
330
6937
100
AcDbEntity
  8
0
  6
ByBlock
 62
     6
100
AcDbLine
 10
357.1852849529959
 20
175.5669773716742
 30
0.0
 11
349.7059518328465
 21
175.5669773716742
 31
0.0
  0
LINE
  5
834F
330
6937
100
AcDbEntity
  8
0
  6
ByBlock
 62
     6
100
AcDbLine
 10
357.0067087483224
 20
170.5669773716742
 30
0.0
 11
349.7059518328465
 21
170.5669773716742
 31
0.0
  0
LINE
  5
8350
330
6937
100
AcDbEntity
  8
0
  6
ByBlock
 62
     6
100
AcDbLine
 10
350.7059518328465
 20
174.3169773716742
 30
0.0
 11
350.7059518328465
 21
171.8169773716742
 31
0.0
  0
MTEXT
  5
8351
330
6937
100
AcDbEntity
  8
0
  6
ByBlock
 62
     3
100
AcDbMText
 10
348.8444474935235
 20
180.4353128313922
 30
0.0
 40
1.75
 41
0.0
 71
     5
 72
     1
  1
\A1;5      (3等分)
  7
TXT
 11
0.0000000000000001
 21
1.0
 31
0.0
 73
     1
 44
1.0
  0
SOLID
  5
8352
330
6937
100
AcDbEntity
  8
0
  6
ByBlock
 62
     6
100
AcDbTrace
 10
350.4976184995132
 20
174.3169773716742
 30
0.0
 11
350.9142851661798
 21
174.3169773716742
 31
0.0
 12
350.7059518328465
 22
175.5669773716742
 32
0.0
 13
350.7059518328465
 23
175.5669773716742
 33
0.0
  0
SOLID
  5
8353
330
6937
100
AcDbEntity
  8
0
  6
ByBlock
 62
     6
100
AcDbTrace
 10
350.4976184995132
 20
171.8169773716742
 30
0.0
 11
350.9142851661798
 21
171.8169773716742
 31
0.0
 12
350.7059518328465
 22
170.5669773716742
 32
0.0
 13
350.7059518328465
 23
170.5669773716742
 33
0.0
  0
POINT
  5
8354
330
6937
100
AcDbEntity
  8
DEFPOINTS
  6
ByBlock
 62
     0
100
AcDbPoint
 10
358.1852849529959
 20
175.5669773716742
 30
0.0
  0
POINT
  5
8355
330
6937
100
AcDbEntity
  8
DEFPOINTS
  6
ByBlock
 62
     0
100
AcDbPoint
 10
358.0067087483223
 20
170.5669773716742
 30
0.0
  0
POINT
  5
8356
330
6937
100
AcDbEntity
  8
DEFPOINTS
  6
ByBlock
 62
     0
100
AcDbPoint
 10
350.7059518328465
 20
170.5669773716742
 30
0.0
  0
ENDBLK
  5
8357
330
6937
100
AcDbEntity
  8
0
100
AcDbBlockEnd
  0
BLOCK
  5
83C5
330
6EDF
100
AcDbEntity
  8
0
100
AcDbBlockBegin
  2
*D3
 70
     1
 10
0.0
 20
0.0
 30
0.0
  3
*D3
  1

  0
LINE
  5
83C6
330
6EDF
100
AcDbEntity
  8
0
  6
ByBlock
 62
     6
100
AcDbLine
 10
358.0108284229717
 20
132.3450355162248
 30
0.0
 11
358.0108284229717
 21
151.5447176074002
 31
0.0
  0
LINE
  5
83C7
330
6EDF
100
AcDbEntity
  8
0
  6
ByBlock
 62
     6
100
AcDbLine
 10
394.0108284229717
 20
132.3450355162248
 30
0.0
 11
394.0108284229717
 21
151.5447176074002
 31
0.0
  0
LINE
  5
83C8
330
6EDF
100
AcDbEntity
  8
0
  6
ByBlock
 62
     6
100
AcDbLine
 10
359.2608284229717
 20
150.5447176074002
 30
0.0
 11
392.7608284229717
 21
150.5447176074002
 31
0.0
  0
MTEXT
  5
83C9
330
6EDF
100
AcDbEntity
  8
0
  6
ByBlock
 62
     3
100
AcDbMText
 10
371.9411472515915
 20
152.2661494503981
 30
0.0
 40
1.75
 41
0.0
 71
     5
 72
     1
  1
\A1;\U+220536
  7
TXT
 73
     1
 44
1.0
  0
SOLID
  5
83CA
330
6EDF
100
AcDbEntity
  8
0
  6
ByBlock
 62
     6
100
AcDbTrace
 10
359.2608284229717
 20
150.7530509407336
 30
0.0
 11
359.2608284229717
 21
150.3363842740669
 31
0.0
 12
358.0108284229717
 22
150.5447176074002
 32
0.0
 13
358.0108284229717
 23
150.5447176074002
 33
0.0
  0
SOLID
  5
83CB
330
6EDF
100
AcDbEntity
  8
0
  6
ByBlock
 62
     6
100
AcDbTrace
 10
392.7608284229717
 20
150.7530509407336
 30
0.0
 11
392.7608284229717
 21
150.3363842740669
 31
0.0
 12
394.0108284229717
 22
150.5447176074002
 32
0.0
 13
394.0108284229717
 23
150.5447176074002
 33
0.0
  0
POINT
  5
83CC
330
6EDF
100
AcDbEntity
  8
DEFPOINTS
  6
ByBlock
 62
     0
100
AcDbPoint
 10
358.0108284229717
 20
131.3450355162248
 30
0.0
  0
POINT
  5
83CD
330
6EDF
100
AcDbEntity
  8
DEFPOINTS
  6
ByBlock
 62
     0
100
AcDbPoint
 10
394.0108284229717
 20
131.3450355162248
 30
0.0
  0
POINT
  5
83CE
330
6EDF
100
AcDbEntity
  8
DEFPOINTS
  6
ByBlock
 62
     0
100
AcDbPoint
 10
394.0108284229717
 20
150.5447176074002
 30
0.0
  0
ENDBLK
  5
83CF
330
6EDF
100
AcDbEntity
  8
0
100
AcDbBlockEnd
  0
BLOCK
  5
83E6
330
6EF7
100
AcDbEntity
  8
0
100
AcDbBlockBegin
  2
*D4
 70
     1
 10
0.0
 20
0.0
 30
0.0
  3
*D4
  1

  0
LINE
  5
83E7
330
6EF7
100
AcDbEntity
  8
0
  6
ByBlock
 62
     6
100
AcDbLine
 10
367.5108284229716
 20
116.3450355162248
 30
0.0
 11
367.5108284229716
 21
106.8657025460563
 31
0.0
  0
LINE
  5
83E8
330
6EF7
100
AcDbEntity
  8
0
  6
ByBlock
 62
     6
100
AcDbLine
 10
384.5108284229717
 20
116.3450355162248
 30
0.0
 11
384.5108284229717
 21
106.8657025460563
 31
0.0
  0
LINE
  5
83E9
330
6EF7
100
AcDbEntity
  8
0
  6
ByBlock
 62
     6
100
AcDbLine
 10
368.7608284229717
 20
107.8657025460563
 30
0.0
 11
383.2608284229717
 21
107.8657025460563
 31
0.0
  0
MTEXT
  5
83EA
330
6EF7
100
AcDbEntity
  8
0
  6
ByBlock
 62
     3
100
AcDbMText
 10
376.0108284229716
 20
109.2407025460564
 30
0.0
 40
1.75
 41
0.0
 71
     5
 72
     1
  1
\A1;M17X1.0P
  7
TXT
 73
     1
 44
1.0
  0
SOLID
  5
83EB
330
6EF7
100
AcDbEntity
  8
0
  6
ByBlock
 62
     6
100
AcDbTrace
 10
368.7608284229717
 20
108.0740358793897
 30
0.0
 11
368.7608284229717
 21
107.657369212723
 31
0.0
 12
367.5108284229716
 22
107.8657025460563
 32
0.0
 13
367.5108284229716
 23
107.8657025460563
 33
0.0
  0
SOLID
  5
83EC
330
6EF7
100
AcDbEntity
  8
0
  6
ByBlock
 62
     6
100
AcDbTrace
 10
383.2608284229717
 20
108.0740358793897
 30
0.0
 11
383.2608284229717
 21
107.657369212723
 31
0.0
 12
384.5108284229717
 22
107.8657025460563
 32
0.0
 13
384.5108284229717
 23
107.8657025460563
 33
0.0
  0
POINT
  5
83ED
330
6EF7
100
AcDbEntity
  8
DEFPOINTS
  6
ByBlock
 62
     0
100
AcDbPoint
 10
367.5108284229716
 20
117.3450355162248
 30
0.0
  0
POINT
  5
83EE
330
6EF7
100
AcDbEntity
  8
DEFPOINTS
  6
ByBlock
 62
     0
100
AcDbPoint
 10
384.5108284229717
 20
117.3450355162248
 30
0.0
  0
POINT
  5
83EF
330
6EF7
100
AcDbEntity
  8
DEFPOINTS
  6
ByBlock
 62
     0
100
AcDbPoint
 10
384.5108284229717
 20
107.8657025460563
 30
0.0
  0
ENDBLK
  5
83F0
330
6EF7
100
AcDbEntity
  8
0
100
AcDbBlockEnd
  0
BLOCK
  5
83AB
330
7058
100
AcDbEntity
  8
0
100
AcDbBlockBegin
  2
*D5
 70
     1
 10
0.0
 20
0.0
 30
0.0
  3
*D5
  1

  0
LINE
  5
83AC
330
7058
100
AcDbEntity
  8
0
  6
ByBlock
 62
     6
100
AcDbLine
 10
362.0108284229717
 20
133.8450355162248
 30
0.0
 11
362.0108284229717
 21
147.2023226475833
 31
0.0
  0
LINE
  5
83AD
330
7058
100
AcDbEntity
  8
0
  6
ByBlock
 62
     6
100
AcDbLine
 10
390.0108284229717
 20
133.8450355162248
 30
0.0
 11
390.0108284229717
 21
147.2023226475833
 31
0.0
  0
LINE
  5
83AE
330
7058
100
AcDbEntity
  8
0
  6
ByBlock
 62
     6
100
AcDbLine
 10
363.2608284229717
 20
146.2023226475833
 30
0.0
 11
388.7608284229717
 21
146.2023226475833
 31
0.0
  0
SOLID
  5
83AF
330
7058
100
AcDbEntity
  8
0
  6
ByBlock
 62
     6
100
AcDbTrace
 10
363.2608284229717
 20
146.4106559809166
 30
0.0
 11
363.2608284229717
 21
145.99398931425
 31
0.0
 12
362.0108284229717
 22
146.2023226475833
 32
0.0
 13
362.0108284229717
 23
146.2023226475833
 33
0.0
  0
SOLID
  5
83B0
330
7058
100
AcDbEntity
  8
0
  6
ByBlock
 62
     6
100
AcDbTrace
 10
388.7608284229717
 20
146.4106559809166
 30
0.0
 11
388.7608284229717
 21
145.99398931425
 31
0.0
 12
390.0108284229717
 22
146.2023226475833
 32
0.0
 13
390.0108284229717
 23
146.2023226475833
 33
0.0
  0
MTEXT
  5
83B1
330
7058
100
AcDbEntity
  8
0
  6
ByBlock
 62
     3
100
AcDbMText
 10
376.0108284229717
 20
147.5773226475833
 30
0.0
 40
1.75
 41
0.0
 71
     5
 72
     1
  1
\A1;\U+220528±0.5
  7
TXT
 73
     1
 44
1.0
  0
POINT
  5
83B2
330
7058
100
AcDbEntity
  8
DEFPOINTS
  6
ByBlock
 62
     0
100
AcDbPoint
 10
362.0108284229717
 20
132.8450355162248
 30
0.0
  0
POINT
  5
83B3
330
7058
100
AcDbEntity
  8
DEFPOINTS
  6
ByBlock
 62
     0
100
AcDbPoint
 10
390.0108284229717
 20
132.8450355162248
 30
0.0
  0
POINT
  5
83B4
330
7058
100
AcDbEntity
  8
DEFPOINTS
  6
ByBlock
 62
     0
100
AcDbPoint
 10
390.0108284229717
 20
146.2023226475833
 30
0.0
  0
ENDBLK
  5
83B5
330
7058
100
AcDbEntity
  8
0
100
AcDbBlockEnd
  0
BLOCK
  5
7DC2
330
74F4
100
AcDbEntity
  8
0
100
AcDbBlockBegin
  2
*D6
 70
     1
 10
0.0
 20
0.0
 30
0.0
  3
*D6
  1

  0
LINE
  5
7DC3
330
74F4
100
AcDbEntity
  8
0
  6
ByBlock
 62
     6
100
AcDbLine
 10
268.6612338134881
 20
129.7720662374014
 30
0.0
 11
278.4867434415135
 21
129.7720662374014
 31
0.0
  0
LINE
  5
7DC4
330
74F4
100
AcDbEntity
  8
0
  6
ByBlock
 62
     6
100
AcDbLine
 10
270.9112338134881
 20
116.8031551506469
 30
0.0
 11
278.4867434415135
 21
116.8031551506469
 31
0.0
  0
LINE
  5
7DC5
330
74F4
100
AcDbEntity
  8
0
  6
ByBlock
 62
     6
100
AcDbLine
 10
277.4867434415134
 20
128.5220662374014
 30
0.0
 11
277.4867434415134
 21
118.0531551506469
 31
0.0
  0
SOLID
  5
7DC6
330
74F4
100
AcDbEntity
  8
0
  6
ByBlock
 62
     6
100
AcDbTrace
 10
277.2784101081801
 20
128.5220662374014
 30
0.0
 11
277.6950767748468
 21
128.5220662374014
 31
0.0
 12
277.4867434415134
 22
129.7720662374014
 32
0.0
 13
277.4867434415134
 23
129.7720662374014
 33
0.0
  0
SOLID
  5
7DC7
330
74F4
100
AcDbEntity
  8
0
  6
ByBlock
 62
     6
100
AcDbTrace
 10
277.2784101081801
 20
118.0531551506469
 30
0.0
 11
277.6950767748468
 21
118.0531551506469
 31
0.0
 12
277.4867434415134
 22
116.8031551506469
 32
0.0
 13
277.4867434415134
 23
116.8031551506469
 33
0.0
  0
MTEXT
  5
7DC8
330
74F4
100
AcDbEntity
  8
0
  6
ByBlock
 62
     3
100
AcDbMText
 10
276.1117434415135
 20
123.2876106940242
 30
0.0
 40
1.75
 41
0.0
 71
     5
 72
     1
  1
\A1;13
  7
TXT
 11
0.0000000000000001
 21
1.0
 31
0.0
 73
     1
 44
1.0
  0
POINT
  5
7DC9
330
74F4
100
AcDbEntity
  8
DEFPOINTS
  6
ByBlock
 62
     0
100
AcDbPoint
 10
267.6612338134881
 20
129.7720662374014
 30
0.0
  0
POINT
  5
7DCA
330
74F4
100
AcDbEntity
  8
DEFPOINTS
  6
ByBlock
 62
     0
100
AcDbPoint
 10
269.9112338134881
 20
116.8031551506469
 30
0.0
  0
POINT
  5
7DCB
330
74F4
100
AcDbEntity
  8
DEFPOINTS
  6
ByBlock
 62
     0
100
AcDbPoint
 10
277.4867434415134
 20
116.8031551506469
 30
0.0
  0
ENDBLK
  5
7DCC
330
74F4
100
AcDbEntity
  8
0
100
AcDbBlockEnd
  0
BLOCK
  5
7DCD
330
7500
100
AcDbEntity
  8
0
100
AcDbBlockBegin
  2
*D7
 70
     1
 10
0.0
 20
0.0
 30
0.0
  3
*D7
  1

  0
LINE
  5
7DCE
330
7500
100
AcDbEntity
  8
0
  6
ByBlock
 62
     6
100
AcDbLine
 10
268.6612338134881
 20
129.7720662374014
 30
0.0
 11
282.3892316710077
 21
129.7720662374014
 31
0.0
  0
LINE
  5
7DCF
330
7500
100
AcDbEntity
  8
0
  6
ByBlock
 62
     6
100
AcDbLine
 10
269.1612338134881
 20
113.7720662374014
 30
0.0
 11
282.3892316710077
 21
113.7720662374014
 31
0.0
  0
LINE
  5
7DD0
330
7500
100
AcDbEntity
  8
0
  6
ByBlock
 62
     6
100
AcDbLine
 10
281.3892316710077
 20
128.5220662374014
 30
0.0
 11
281.3892316710077
 21
115.0220662374014
 31
0.0
  0
MTEXT
  5
7DD1
330
7500
100
AcDbEntity
  8
0
  6
ByBlock
 62
     3
100
AcDbMText
 10
280.0142316710077
 20
121.7720662374014
 30
0.0
 40
1.75
 41
0.0
 71
     5
 72
     1
  1
\A1;16±0.2
  7
TXT
 11
0.0000000000000001
 21
1.0
 31
0.0
 73
     1
 44
1.0
  0
SOLID
  5
7DD2
330
7500
100
AcDbEntity
  8
0
  6
ByBlock
 62
     6
100
AcDbTrace
 10
281.1808983376744
 20
128.5220662374014
 30
0.0
 11
281.597565004341
 21
128.5220662374014
 31
0.0
 12
281.3892316710077
 22
129.7720662374014
 32
0.0
 13
281.3892316710077
 23
129.7720662374014
 33
0.0
  0
SOLID
  5
7DD3
330
7500
100
AcDbEntity
  8
0
  6
ByBlock
 62
     6
100
AcDbTrace
 10
281.1808983376744
 20
115.0220662374014
 30
0.0
 11
281.597565004341
 21
115.0220662374014
 31
0.0
 12
281.3892316710077
 22
113.7720662374014
 32
0.0
 13
281.3892316710077
 23
113.7720662374014
 33
0.0
  0
POINT
  5
7DD4
330
7500
100
AcDbEntity
  8
DEFPOINTS
  6
ByBlock
 62
     0
100
AcDbPoint
 10
267.6612338134881
 20
129.7720662374014
 30
0.0
  0
POINT
  5
7DD5
330
7500
100
AcDbEntity
  8
DEFPOINTS
  6
ByBlock
 62
     0
100
AcDbPoint
 10
268.1612338134881
 20
113.7720662374014
 30
0.0
  0
POINT
  5
7DD6
330
7500
100
AcDbEntity
  8
DEFPOINTS
  6
ByBlock
 62
     0
100
AcDbPoint
 10
281.3892316710077
 20
113.7720662374014
 30
0.0
  0
ENDBLK
  5
7DD7
330
7500
100
AcDbEntity
  8
0
100
AcDbBlockEnd
  0
BLOCK
  5
7DD8
330
751A
100
AcDbEntity
  8
0
100
AcDbBlockBegin
  2
*D8
 70
     1
 10
0.0
 20
0.0
 30
0.0
  3
*D8
  1

  0
LINE
  5
7DD9
330
751A
100
AcDbEntity
  8
0
  6
ByBlock
 62
     6
100
AcDbLine
 10
272.5272592172725
 20
119.3342440638924
 30
0.0
 11
287.7968699174301
 21
110.5183302157355
 31
0.0
  0
LINE
  5
7DDA
330
751A
100
AcDbEntity
  8
0
  6
ByBlock
 62
     6
100
AcDbLine
 10
269.0272592172725
 20
113.2720662374014
 30
0.0
 11
284.2968699174301
 21
104.4561523892445
 31
0.0
  0
LINE
  5
7DDB
330
751A
100
AcDbEntity
  8
0
  6
ByBlock
 62
     6
100
AcDbLine
 10
286.3058445136456
 20
109.935798461005
 30
0.0
 11
284.0558445136456
 21
106.0386841439751
 31
0.0
  0
LINE
  5
7DDC
330
751A
100
AcDbEntity
  8
0
  6
ByBlock
 62
     6
100
AcDbLine
 10
291.7889162910072
 20
119.4327573609421
 30
0.0
 11
286.9308445136456
 21
111.0183302157355
 31
0.0
  0
MTEXT
  5
7DDD
330
751A
100
AcDbEntity
  8
0
  6
ByBlock
 62
     3
100
AcDbMText
 10
288.5835480274703
 20
116.6308966715273
 30
0.0
 40
1.75
 41
0.0
 71
     5
 72
     1
  1
\A1;7±0.5
  7
TXT
 11
0.5000000000000049
 21
0.8660254037844358
 31
0.0
 73
     1
 44
1.0
  0
SOLID
  5
7DDE
330
751A
100
AcDbEntity
  8
0
  6
ByBlock
 62
     6
100
AcDbTrace
 10
286.1254225545239
 20
110.0399651276716
 30
0.0
 11
286.4862664727674
 21
109.8316317943383
 31
0.0
 12
286.9308445136456
 22
111.0183302157355
 32
0.0
 13
286.9308445136456
 23
111.0183302157355
 33
0.0
  0
SOLID
  5
7DDF
330
751A
100
AcDbEntity
  8
0
  6
ByBlock
 62
     6
100
AcDbTrace
 10
283.8754225545239
 20
106.1428508106417
 30
0.0
 11
284.2362664727674
 21
105.9345174773084
 31
0.0
 12
283.4308445136457
 22
104.9561523892445
 32
0.0
 13
283.4308445136457
 23
104.9561523892445
 33
0.0
  0
POINT
  5
7DE0
330
751A
100
AcDbEntity
  8
DEFPOINTS
  6
ByBlock
 62
     0
100
AcDbPoint
 10
271.661233813488
 20
119.8342440638924
 30
0.0
  0
POINT
  5
7DE1
330
751A
100
AcDbEntity
  8
DEFPOINTS
  6
ByBlock
 62
     0
100
AcDbPoint
 10
268.161233813488
 20
113.7720662374014
 30
0.0
  0
POINT
  5
7DE2
330
751A
100
AcDbEntity
  8
DEFPOINTS
  6
ByBlock
 62
     0
100
AcDbPoint
 10
283.4308445136457
 20
104.9561523892445
 30
0.0
  0
ENDBLK
  5
7DE3
330
751A
100
AcDbEntity
  8
0
100
AcDbBlockEnd
  0
BLOCK
  5
7DE4
330
780C
100
AcDbEntity
  8
0
100
AcDbBlockBegin
  2
*D9
 70
     1
 10
0.0
 20
0.0
 30
0.0
  3
*D9
  1

  0
LINE
  5
7DE5
330
780C
100
AcDbEntity
  8
0
  6
ByBlock
 62
     6
100
AcDbLine
 10
255.661233813488
 20
127.7720662374014
 30
0.0
 11
261.5857278735218
 21
127.7720662374014
 31
0.0
  0
LINE
  5
7DE6
330
780C
100
AcDbEntity
  8
0
  6
ByBlock
 62
     6
100
AcDbLine
 10
255.661233813488
 20
129.7720662374014
 30
0.0
 11
261.5857278735218
 21
129.7720662374014
 31
0.0
  0
LINE
  5
7DE7
330
780C
100
AcDbEntity
  8
0
  6
ByBlock
 62
     6
100
AcDbLine
 10
260.5857278735218
 20
126.5220662374014
 30
0.0
 11
260.5857278735218
 21
125.2720662374014
 31
0.0
  0
LINE
  5
7DE8
330
780C
100
AcDbEntity
  8
0
  6
ByBlock
 62
     6
100
AcDbLine
 10
260.5857278735218
 20
131.0220662374014
 30
0.0
 11
260.5857278735218
 21
132.2720662374014
 31
0.0
  0
LINE
  5
7DE9
330
780C
100
AcDbEntity
  8
0
  6
ByBlock
 62
     6
100
AcDbLine
 10
260.5857278735218
 20
134.5516440883334
 30
0.0
 11
260.5857278735218
 21
129.7720662374014
 31
0.0
  0
MTEXT
  5
7DEA
330
780C
100
AcDbEntity
  8
0
  6
ByBlock
 62
     3
100
AcDbMText
 10
259.2107278735218
 20
133.468310755
 30
0.0
 40
1.75
 41
0.0
 71
     5
 72
     1
  1
\A1;2
  7
TXT
 11
0.0000000000000001
 21
1.0
 31
0.0
 73
     1
 44
1.0
  0
LINE
  5
7DEB
330
780C
100
AcDbEntity
  8
0
  6
ByBlock
 62
     6
100
AcDbLine
 10
260.5857278735218
 20
127.7720662374014
 30
0.0
 11
260.5857278735218
 21
129.7720662374014
 31
0.0
  0
SOLID
  5
7DEC
330
780C
100
AcDbEntity
  8
0
  6
ByBlock
 62
     6
100
AcDbTrace
 10
260.3773945401885
 20
126.5220662374014
 30
0.0
 11
260.7940612068551
 21
126.5220662374014
 31
0.0
 12
260.5857278735218
 22
127.7720662374014
 32
0.0
 13
260.5857278735218
 23
127.7720662374014
 33
0.0
  0
SOLID
  5
7DED
330
780C
100
AcDbEntity
  8
0
  6
ByBlock
 62
     6
100
AcDbTrace
 10
260.3773945401885
 20
131.0220662374014
 30
0.0
 11
260.7940612068551
 21
131.0220662374014
 31
0.0
 12
260.5857278735218
 22
129.7720662374014
 32
0.0
 13
260.5857278735218
 23
129.7720662374014
 33
0.0
  0
POINT
  5
7DEE
330
780C
100
AcDbEntity
  8
DEFPOINTS
  6
ByBlock
 62
     0
100
AcDbPoint
 10
254.661233813488
 20
127.7720662374014
 30
0.0
  0
POINT
  5
7DEF
330
780C
100
AcDbEntity
  8
DEFPOINTS
  6
ByBlock
 62
     0
100
AcDbPoint
 10
254.661233813488
 20
129.7720662374014
 30
0.0
  0
POINT
  5
7DF0
330
780C
100
AcDbEntity
  8
DEFPOINTS
  6
ByBlock
 62
     0
100
AcDbPoint
 10
260.5857278735218
 20
129.7720662374014
 30
0.0
  0
ENDBLK
  5
7DF1
330
780C
100
AcDbEntity
  8
0
100
AcDbBlockEnd
  0
BLOCK
  5
837C
330
7B64
100
AcDbEntity
  8
0
100
AcDbBlockBegin
  2
*D10
 70
     1
 10
0.0
 20
0.0
 30
0.0
  3
*D10
  1

  0
LINE
  5
837D
330
7B64
100
AcDbEntity
  8
0
  6
ByBlock
 62
     6
100
AcDbLine
 10
358.0108284229717
 20
132.3450355162248
 30
0.0
 11
350.7059518328465
 21
132.3450355162248
 31
0.0
  0
LINE
  5
837E
330
7B64
100
AcDbEntity
  8
0
  6
ByBlock
 62
     6
100
AcDbLine
 10
361.0108284229717
 20
132.8450355162248
 30
0.0
 11
350.7059518328465
 21
132.8450355162248
 31
0.0
  0
LINE
  5
837F
330
7B64
100
AcDbEntity
  8
0
  6
ByBlock
 62
     6
100
AcDbLine
 10
351.7059518328465
 20
131.0950355162248
 30
0.0
 11
351.7059518328465
 21
129.8450355162248
 31
0.0
  0
LINE
  5
8380
330
7B64
100
AcDbEntity
  8
0
  6
ByBlock
 62
     6
100
AcDbLine
 10
351.7059518328465
 20
134.0950355162248
 30
0.0
 11
351.7059518328465
 21
135.3450355162248
 31
0.0
  0
LINE
  5
8381
330
7B64
100
AcDbEntity
  8
0
  6
ByBlock
 62
     6
100
AcDbLine
 10
351.7059518328465
 20
139.6239707578532
 30
0.0
 11
351.7059518328465
 21
132.8450355162248
 31
0.0
  0
MTEXT
  5
8382
330
7B64
100
AcDbEntity
  8
0
  6
ByBlock
 62
     3
100
AcDbMText
 10
350.3309518328465
 20
137.5198040911866
 30
0.0
 40
1.75
 41
0.0
 71
     5
 72
     1
  1
\A1;0.5
  7
TXT
 11
0.0000000000000001
 21
1.0
 31
0.0
 73
     1
 44
1.0
  0
LINE
  5
8383
330
7B64
100
AcDbEntity
  8
0
  6
ByBlock
 62
     6
100
AcDbLine
 10
351.7059518328465
 20
132.3450355162248
 30
0.0
 11
351.7059518328465
 21
132.8450355162248
 31
0.0
  0
SOLID
  5
8384
330
7B64
100
AcDbEntity
  8
0
  6
ByBlock
 62
     6
100
AcDbTrace
 10
351.4976184995132
 20
131.0950355162248
 30
0.0
 11
351.9142851661798
 21
131.0950355162248
 31
0.0
 12
351.7059518328465
 22
132.3450355162248
 32
0.0
 13
351.7059518328465
 23
132.3450355162248
 33
0.0
  0
SOLID
  5
8385
330
7B64
100
AcDbEntity
  8
0
  6
ByBlock
 62
     6
100
AcDbTrace
 10
351.4976184995132
 20
134.0950355162248
 30
0.0
 11
351.9142851661798
 21
134.0950355162248
 31
0.0
 12
351.7059518328465
 22
132.8450355162248
 32
0.0
 13
351.7059518328465
 23
132.8450355162248
 33
0.0
  0
POINT
  5
8386
330
7B64
100
AcDbEntity
  8
DEFPOINTS
  6
ByBlock
 62
     0
100
AcDbPoint
 10
359.0108284229717
 20
132.3450355162248
 30
0.0
  0
POINT
  5
8387
330
7B64
100
AcDbEntity
  8
DEFPOINTS
  6
ByBlock
 62
     0
100
AcDbPoint
 10
362.0108284229717
 20
132.8450355162248
 30
0.0
  0
POINT
  5
8388
330
7B64
100
AcDbEntity
  8
DEFPOINTS
  6
ByBlock
 62
     0
100
AcDbPoint
 10
351.7059518328465
 20
132.8450355162248
 30
0.0
  0
ENDBLK
  5
8389
330
7B64
100
AcDbEntity
  8
0
100
AcDbBlockEnd
  0
BLOCK
  5
7DFF
330
7C0B
100
AcDbEntity
  8
0
100
AcDbBlockBegin
  2
*D11
 70
     1
 10
0.0
 20
0.0
 30
0.0
  3
*D11
  1

  0
LINE
  5
7E00
330
7C0B
100
AcDbEntity
  8
0
  6
ByBlock
 62
     6
100
AcDbLine
 10
271.6609364622341
 20
115.8092556817201
 30
0.0
 11
293.0877413680966
 21
103.6379933063696
 31
0.0
  0
LINE
  5
7E01
330
7C0B
100
AcDbEntity
  8
0
  6
ByBlock
 62
     6
100
AcDbLine
 10
268.661233813488
 20
129.7720662374014
 30
0.0
 11
299.9922386057466
 21
129.7720662374015
 31
0.0
  0
ARC
  5
7E02
330
7C0B
100
AcDbEntity
  8
0
  6
ByBlock
 62
     6
100
AcDbCircle
 10
247.0802143902164
 20
129.7720662374014
 30
0.0
 40
51.91202421553025
100
AcDbArc
 50
331.781402250554
 51
358.6203301484935
  0
SOLID
  5
7E03
330
7C0B
100
AcDbEntity
  8
0
  6
ByBlock
 62
     6
100
AcDbTrace
 10
293.0048691607045
 20
105.1254399465718
 30
0.0
 11
292.640121915284
 21
105.3268612911934
 31
0.0
 12
292.2182315041292
 22
104.1319088826208
 32
0.0
 13
292.2182315041292
 23
104.1319088826208
 33
0.0
  0
SOLID
  5
7E04
330
7C0B
100
AcDbEntity
  8
0
  6
ByBlock
 62
     6
100
AcDbTrace
 10
298.7688708722859
 20
128.5246650856358
 30
0.0
 11
299.1855073395321
 21
128.51964858569
 31
0.0
 12
298.9922386057466
 22
129.7720662374015
 32
0.0
 13
298.9922386057466
 23
129.7720662374015
 33
0.0
  0
MTEXT
  5
7E05
330
7C0B
100
AcDbEntity
  8
0
  6
ByBlock
 62
     3
100
AcDbMText
 10
295.940786552456
 20
116.8633364571457
 30
0.0
 40
1.75
 41
0.0
 71
     5
 72
     1
  1
\A1;30°
  7
TXT
 11
0.2554311414380615
 21
0.9668272503315414
 31
0.0
 73
     1
 44
1.0
  0
POINT
  5
7E06
330
7C0B
100
AcDbEntity
  8
DEFPOINTS
  6
ByBlock
 62
     0
100
AcDbPoint
 10
295.9440204649725
 20
112.2453234127227
 30
0.0
  0
POINT
  5
7E07
330
7C0B
100
AcDbEntity
  8
DEFPOINTS
  6
ByBlock
 62
     0
100
AcDbPoint
 10
241.6612338134882
 20
129.7720662374014
 30
0.0
  0
POINT
  5
7E08
330
7C0B
100
AcDbEntity
  8
DEFPOINTS
  6
ByBlock
 62
     0
100
AcDbPoint
 10
270.7914265982669
 20
116.3031712579714
 30
0.0
  0
POINT
  5
7E09
330
7C0B
100
AcDbEntity
  8
DEFPOINTS
  6
ByBlock
 62
     0
100
AcDbPoint
 10
259.661233813488
 20
122.6255556389815
 30
0.0
  0
POINT
  5
7E0A
330
7C0B
100
AcDbEntity
  8
DEFPOINTS
  6
ByBlock
 62
     0
100
AcDbPoint
 10
267.661233813488
 20
129.7720662374014
 30
0.0
  0
ENDBLK
  5
7E0B
330
7C0B
100
AcDbEntity
  8
0
100
AcDbBlockEnd
  0
BLOCK
  5
83A0
330
7D5B
100
AcDbEntity
  8
0
100
AcDbBlockBegin
  2
*D12
 70
     1
 10
0.0
 20
0.0
 30
0.0
  3
*D12
  1

  0
LINE
  5
83A1
330
7D5B
100
AcDbEntity
  8
0
  6
ByBlock
 62
     6
100
AcDbLine
 10
367.0108284229717
 20
133.8450355162248
 30
0.0
 11
367.0108284229717
 21
144.0044886246552
 31
0.0
  0
LINE
  5
83A2
330
7D5B
100
AcDbEntity
  8
0
  6
ByBlock
 62
     6
100
AcDbLine
 10
385.0108284229717
 20
133.8450355162248
 30
0.0
 11
385.0108284229717
 21
144.0044886246552
 31
0.0
  0
LINE
  5
83A3
330
7D5B
100
AcDbEntity
  8
0
  6
ByBlock
 62
     6
100
AcDbLine
 10
368.2608284229717
 20
143.0044886246552
 30
0.0
 11
383.7608284229717
 21
143.0044886246552
 31
0.0
  0
SOLID
  5
83A4
330
7D5B
100
AcDbEntity
  8
0
  6
ByBlock
 62
     6
100
AcDbTrace
 10
368.2608284229717
 20
143.2128219579885
 30
0.0
 11
368.2608284229717
 21
142.7961552913218
 31
0.0
 12
367.0108284229717
 22
143.0044886246552
 32
0.0
 13
367.0108284229717
 23
143.0044886246552
 33
0.0
  0
SOLID
  5
83A5
330
7D5B
100
AcDbEntity
  8
0
  6
ByBlock
 62
     6
100
AcDbTrace
 10
383.7608284229717
 20
143.2128219579885
 30
0.0
 11
383.7608284229717
 21
142.7961552913218
 31
0.0
 12
385.0108284229717
 22
143.0044886246552
 32
0.0
 13
385.0108284229717
 23
143.0044886246552
 33
0.0
  0
MTEXT
  5
83A6
330
7D5B
100
AcDbEntity
  8
0
  6
ByBlock
 62
     3
100
AcDbMText
 10
376.0108284229717
 20
144.3794886246552
 30
0.0
 40
1.75
 41
0.0
 71
     5
 72
     1
  1
\A1;\U+220518
  7
TXT
 73
     1
 44
1.0
  0
POINT
  5
83A7
330
7D5B
100
AcDbEntity
  8
DEFPOINTS
  6
ByBlock
 62
     0
100
AcDbPoint
 10
367.0108284229717
 20
132.8450355162248
 30
0.0
  0
POINT
  5
83A8
330
7D5B
100
AcDbEntity
  8
DEFPOINTS
  6
ByBlock
 62
     0
100
AcDbPoint
 10
385.0108284229717
 20
132.8450355162248
 30
0.0
  0
POINT
  5
83A9
330
7D5B
100
AcDbEntity
  8
DEFPOINTS
  6
ByBlock
 62
     0
100
AcDbPoint
 10
385.0108284229717
 20
143.0044886246552
 30
0.0
  0
ENDBLK
  5
83AA
330
7D5B
100
AcDbEntity
  8
0
100
AcDbBlockEnd
  0
BLOCK
  5
8549
330
8548
100
AcDbEntity
  8
0
100
AcDbBlockBegin
  2
_DOTSMALL
 70
     0
 10
0.0
 20
0.0
 30
0.0
  3
_DOTSMALL
  1

  0
LWPOLYLINE
  5
854A
330
8548
100
AcDbEntity
  8
0
  6
ByBlock
 62
     0
100
AcDbPolyline
 90
        2
 70
     1
 43
0.5
 10
-0.0625
 20
0.0
 42
1.0
 10
0.0625
 20
0.0
 42
1.0
  0
ENDBLK
  5
854B
330
8548
100
AcDbEntity
  8
0
100
AcDbBlockEnd
  0
ENDSEC
  0
SECTION
  2
ENTITIES
  0
MTEXT
  5
C0
330
18
100
AcDbEntity
  8
0
100
AcDbMText
 10
41.26970765600413
 20
233.6950877649332
 30
0.0
 40
2.5
 41
0.0
 71
     1
 72
     5
  1

  7
ISOCP3
 73
     1
 44
1.0
  0
MTEXT
  5
608E
330
18
100
AcDbEntity
  8
0
100
AcDbMText
 10
218.9159379645269
 20
83.56812717502874
 30
0.0
 40
2.5
 41
0.0
 71
     1
 72
     5
  1
\Ftxt.shx,bigfont.shx|c128;呉銘宏
  7
JL
 73
     1
 44
1.0
  0
MTEXT
  5
6095
330
18
100
AcDbEntity
  8
0
100
AcDbMText
 10
250.62378489576
 20
88.49503953014197
 30
0.0
 40
2.25
 41
0.0
 71
     1
 72
     5
  1
\Ftxt.shx,bigfont.shx|c128;2 : 1
  7
JL
 73
     1
 44
1.0
  0
MTEXT
  5
6098
330
18
100
AcDbEntity
  8
0
 48
2.0
370
    25
100
AcDbMText
 10
283.0679100150939
 20
75.69961297086194
 30
0.0
 40
2.25
 41
0.0
 71
     5
 72
     1
  1
\Ftxt.shx,bigfont.shx|c128;N L 4 0 0 6 9
 73
     1
 44
1.0
  0
MTEXT
  5
609C
330
18
100
AcDbEntity
  8
0
 48
2.0
100
AcDbMText
 10
299.0712339196668
 20
84.96887935368665
 30
0.0
 40
2.25
 41
0.0
 71
     5
 72
     1
  1
\P\Ftxt.shx,bigfont.shx|c128;    MF17X1.0P
 73
     1
 44
1.0
  0
MTEXT
  5
635A
330
18
100
AcDbEntity
  8
0
100
AcDbMText
 10
218.0179371153258
 20
88.20409093100721
 30
0.0
 40
2.25
 41
0.0
 71
     1
 72
     5
  1
\Ftxt.shx,bigfont.shx|c128;05.03.01
  7
JL
 73
     1
 44
1.0
  0
INSERT
  5
63A3
330
18
100
AcDbEntity
  8
0
100
AcDbBlockReference
  2
A$C255C26A2
 10
276.6680033767424
 20
128.1717836674875
 30
0.0
 41
0.5
 42
0.5
 43
0.5
  0
MTEXT
  5
63A4
330
18
100
AcDbEntity
  8
0
 62
     7
 48
2.0
100
AcDbMText
 10
278.7149047511706
 20
130.6195591509968
 30
0.0
 40
1.5
 41
0.0
 71
     5
 72
     1
  1
G
 73
     1
 44
1.0
  0
LEADER
  5
63C9
330
18
100
AcDbEntity
  8
DIM
 62
     6
100
AcDbLeader
  3
A
 76
     2
 10
271.6592231278005
 20
165.7016110002759
 30
0.0
 10
278.6119871431584
 20
156.6597397749879
 30
0.0
  0
LEADER
  5
63CA
330
18
100
AcDbEntity
  8
DIM
 62
     6
100
AcDbLeader
  3
A
 76
     2
 10
265.4154175543192
 20
120.6314340116098
 30
0.0
 10
279.3208578121059
 20
141.9563291681365
 30
0.0
  0
LEADER
  5
63CB
330
18
100
AcDbEntity
  8
DIM
 62
     6
100
AcDbLeader
  3
A
 76
     2
 10
271.2824491454258
 20
115.2028729277237
 30
0.0
 10
273.9562124847959
 20
104.4518940654206
 30
0.0
  0
MTEXT
  5
63CC
330
18
100
AcDbEntity
  8
DIM
100
AcDbMText
 10
279.008130062163
 20
144.7843913311268
 30
0.0
 40
2.5
 41
1.0
 71
     1
 72
     5
  1
\Ftxt.shx,bigfont.shx|c128;3
 73
     1
 44
1.0
  0
MTEXT
  5
63CD
330
18
100
AcDbEntity
  8
DIM
100
AcDbMText
 10
278.5941314497993
 20
156.4045807571803
 30
0.0
 40
2.5
 41
1.0
 71
     1
 72
     5
  1
\Ftxt.shx,bigfont.shx|c128;1
 73
     1
 44
1.0
  0
MTEXT
  5
63CE
330
18
100
AcDbEntity
  8
DIM
100
AcDbMText
 10
273.3439482853818
 20
103.9452247610354
 30
0.0
 40
2.5
 41
1.0
 71
     1
 72
     5
  1
\Ftxt.shx,bigfont.shx|c128;2
 73
     1
 44
1.0
  0
LINE
  5
64AF
330
18
100
AcDbEntity
  8
図框線
100
AcDbLine
 10
309.006196569778
 20
218.8811280034474
 30
0.0
 11
309.006196569778
 21
73.8811280034474
 31
0.0
  0
LINE
  5
64B0
330
18
100
AcDbEntity
  8
図框線
370
    30
100
AcDbLine
 10
210.006196569778
 20
73.88112800344742
 30
0.0
 11
210.006196569778
 21
218.8811280034475
 31
0.0
  0
LINE
  5
64B1
330
18
100
AcDbEntity
  8
0
 62
     7
 48
5.0
100
AcDbLine
 39
2.0
 10
234.9799491479497
 20
87.82878999263653
 30
0.0
 11
237.6458510058043
 21
88.49526545710018
 31
0.0
  0
MTEXT
  5
64B2
330
18
100
AcDbEntity
  8
0
100
AcDbMText
 10
217.9955314555718
 20
78.69679805584155
 30
0.0
 40
3.0
 41
0.0
 71
     1
 72
     5
  1
\Ftxt.shx,bigfont.shx|c128;日機株式会社
  7
LKK
 73
     1
 44
1.0
  0
LINE
  5
64B3
330
18
100
AcDbEntity
  8
図框線
100
AcDbLine
 10
210.0061965697781
 20
73.88112800344742
 30
0.0
 11
309.006196569778
 21
73.88112800344742
 31
0.0
  0
LINE
  5
64B7
330
18
100
AcDbEntity
  8
図框線
100
AcDbLine
 10
210.0061965697781
 20
79.88112800344743
 30
0.0
 11
309.006196569778
 21
79.88112800344746
 31
0.0
  0
LINE
  5
64B8
330
18
100
AcDbEntity
  8
図框線
100
AcDbLine
 10
210.0061965697781
 20
84.88112800344742
 30
0.0
 11
258.0061965697781
 21
84.88112800344742
 31
0.0
  0
LINE
  5
64B9
330
18
100
AcDbEntity
  8
図框線
100
AcDbLine
 10
210.0061965697781
 20
89.88112800344742
 30
0.0
 11
309.006196569778
 21
89.88112800344742
 31
0.0
  0
LINE
  5
64BA
330
18
100
AcDbEntity
  8
図框線
100
AcDbLine
 10
216.0061965697781
 20
89.88112800344742
 30
0.0
 11
216.0061965697781
 21
79.88112800344743
 31
0.0
  0
LINE
  5
64BB
330
18
100
AcDbEntity
  8
図框線
100
AcDbLine
 10
226.0061965697781
 20
89.88112800344742
 30
0.0
 11
226.0061965697781
 21
79.88112800344743
 31
0.0
  0
MTEXT
  5
64BC
330
18
100
AcDbEntity
  8
0
100
AcDbMText
 10
211.4809186941885
 20
88.40470317020356
 30
0.0
 40
2.25
 41
0.0
 71
     1
 72
     5
  1
\Ftxt.shx,bigfont.shx|c128;日 付
  7
JL
 73
     1
 44
1.0
  0
MTEXT
  5
64BD
330
18
100
AcDbEntity
  8
0
100
AcDbMText
 10
211.5540527522331
 20
83.80029750080201
 30
0.0
 40
2.25
 41
0.0
 71
     1
 72
     5
  1
\Ftxt.shx,bigfont.shx|c128;製 図
  7
JL
 73
     1
 44
1.0
  0
LINE
  5
64C0
330
18
100
AcDbEntity
  8
0
 62
     7
370
    25
100
AcDbLine
 10
237.6458510058043
 20
85.82936359924559
 30
0.0
 11
237.6458510058043
 21
88.49526545710018
 31
0.0
  0
MTEXT
  5
64C1
330
18
100
AcDbEntity
  8
0
100
AcDbMText
 10
243.3574669064409
 20
88.59228735478666
 30
0.0
 40
2.25
 41
0.0
 71
     1
 72
     5
  1
\Ftxt.shx,bigfont.shx|c128;尺 度
  7
JL
 73
     1
 44
1.0
  0
LINE
  5
64C2
330
18
100
AcDbEntity
  8
図框線
100
AcDbLine
 10
242.0061965697781
 20
89.88112800344742
 30
0.0
 11
242.0061965697781
 21
79.88112800344743
 31
0.0
  0
LINE
  5
64C3
330
18
100
AcDbEntity
  8
0
 62
     7
370
    25
100
AcDbLine
 10
230.647858628936
 20
85.500602362128
 30
0.0
 11
230.647858628936
 21
88.7184617534757
 31
0.0
  0
CIRCLE
  5
64C4
330
18
100
AcDbEntity
  8
0
 62
     7
100
AcDbCircle
 10
230.647858628936
 20
87.16231452817282
 30
0.0
 40
1.33295092892732
  0
LINE
  5
64C6
330
18
100
AcDbEntity
  8
0
 62
     7
370
    25
100
AcDbLine
 10
234.5963479753085
 20
87.16231452817288
 30
0.0
 11
237.8851831792939
 21
87.16231452817288
 31
0.0
  0
LINE
  5
64C7
330
18
100
AcDbEntity
  8
0
 62
     7
100
AcDbLine
 10
234.9799491479497
 20
86.49583906370924
 30
0.0
 11
237.6458510058043
 21
85.82936359924559
 31
0.0
  0
LINE
  5
64C8
330
18
100
AcDbEntity
  8
図框線
100
AcDbLine
 10
232.0061965697781
 20
84.88112800344737
 30
0.0
 11
232.0061965697781
 21
79.88112800344743
 31
0.0
  0
LINE
  5
64C9
330
18
100
AcDbEntity
  8
0
 62
     7
370
    25
100
AcDbLine
 10
228.9820592339978
 20
87.16231452817282
 30
0.0
 11
232.4131545431627
 21
87.16231452817288
 31
0.0
  0
CIRCLE
  5
64CA
330
18
100
AcDbEntity
  8
0
 62
     7
100
AcDbCircle
 10
230.647858628936
 20
87.16231452817282
 30
0.0
 40
0.6664754644636604
  0
MTEXT
  5
64CB
330
18
100
AcDbEntity
  8
0
100
AcDbMText
 10
227.566629159977
 20
83.58103971928768
 30
0.0
 40
2.25
 41
0.0
 71
     1
 72
     5
  1
\Ftxt.shx,bigfont.shx|c128;検 図
  7
JL
 73
     1
 44
1.0
  0
LINE
  5
64CC
330
18
100
AcDbEntity
  8
0
 62
     7
370
    25
100
AcDbLine
 10
234.9799491479497
 20
86.49583906370924
 30
0.0
 11
234.9799491479497
 21
87.82878999263653
 31
0.0
  0
MTEXT
  5
64CD
330
18
100
AcDbEntity
  8
0
100
AcDbMText
 10
243.5037336614656
 20
83.69553826345475
 30
0.0
 40
2.25
 41
0.0
 71
     1
 72
     5
  1
\Ftxt.shx,bigfont.shx|c128;承 認
  7
JL
 73
     1
 44
1.0
  0
LINE
  5
64CE
330
18
100
AcDbEntity
  8
図框線
100
AcDbLine
 10
276.8769738641711
 20
188.397133451475
 30
0.0
 11
306.8769738641711
 21
188.397133451475
 31
0.0
  0
LINE
  5
64CF
330
18
100
AcDbEntity
  8
図框線
100
AcDbLine
 10
276.8769738641711
 20
191.997133451475
 30
0.0
 11
306.8769738641711
 21
191.997133451475
 31
0.0
  0
LINE
  5
64D0
330
18
100
AcDbEntity
  8
図框線
100
AcDbLine
 10
276.8769738641711
 20
195.597133451475
 30
0.0
 11
306.8769738641711
 21
195.597133451475
 31
0.0
  0
LINE
  5
64D1
330
18
100
AcDbEntity
  8
図框線
100
AcDbLine
 10
276.8769738641711
 20
199.197133451475
 30
0.0
 11
306.8769738641711
 21
199.197133451475
 31
0.0
  0
LINE
  5
64D2
330
18
100
AcDbEntity
  8
図框線
100
AcDbLine
 10
276.8769738641711
 20
184.797133451475
 30
0.0
 11
306.8769738641711
 21
184.797133451475
 31
0.0
  0
MTEXT
  5
64D3
330
18
100
AcDbEntity
  8
0
 62
     7
 48
2.0
100
AcDbMText
 10
291.8196738471067
 20
199.5937176567671
 30
0.0
 40
2.4
 41
0.0
 71
     5
 72
     1
  1
\P\Ftxt.shx,bigfont.shx|c128;諸　　　　元
 73
     1
 44
1.0
  0
LINE
  5
64D5
330
18
100
AcDbEntity
  8
図框線
100
AcDbLine
 10
276.8769738641711
 20
199.197133451475
 30
0.0
 11
276.8769738641711
 21
184.797133451475
 31
0.0
  0
MTEXT
  5
64D6
330
18
100
AcDbEntity
  8
0
100
AcDbMText
 10
278.6381917710112
 20
194.8338788679146
 30
0.0
 40
2.2
 41
81.95814342112454
 71
     1
 72
     5
  1
\Ftxt.shx,bigfont.shx|c128;熱　処　理
  7
JL
 73
     1
 44
1.0
  0
LINE
  5
64D7
330
18
100
AcDbEntity
  8
図框線
100
AcDbLine
 10
288.8769738641711
 20
195.597133451475
 30
0.0
 11
288.8769738641711
 21
184.797133451475
 31
0.0
  0
MTEXT
  5
64D8
330
18
100
AcDbEntity
  8
0
100
AcDbMText
 10
258.8347093510972
 20
79.45778872672611
 30
0.0
 40
2.5
 41
0.0
 71
     1
 72
     5
  1
\Ftxt.shx,bigfont.shx|c128;図  面  番  号
  7
JL
 73
     1
 44
1.0
  0
MTEXT
  5
64D9
330
18
100
AcDbEntity
  8
0
 62
     7
 48
2.0
100
AcDbMText
 10
270.9192391024712
 20
85.02691213071523
 30
0.0
 40
2.25
 41
0.0
 71
     5
 72
     1
  1
\P\Ftxt.shx,bigfont.shx|c128;    精密ロックナット
 73
     1
 44
1.0
  0
MTEXT
  5
64DA
330
18
100
AcDbEntity
  8
0
370
    25
100
AcDbMText
 10
259.406342722458
 20
88.78457208046729
 30
0.0
 40
2.5
 41
0.0
 71
     1
 72
     5
  1
\Ftxt.shx,bigfont.shx|c128;品  名
  7
JL
 73
     1
 44
1.0
  0
LINE
  5
64DB
330
18
100
AcDbEntity
  8
図框線
100
AcDbLine
 10
258.0061965697781
 20
89.88112800344742
 30
0.0
 11
258.0061965697781
 21
73.97664880890999
 31
0.0
  0
LINE
  5
64DC
330
18
100
AcDbEntity
  8
図框線
100
AcDbLine
 10
248.0061965697781
 20
89.88112800344742
 30
0.0
 11
248.0061965697781
 21
79.88112800344743
 31
0.0
  0
LINE
  5
64DE
330
18
100
AcDbEntity
  8
図框線
100
AcDbLine
 10
286.6179766652123
 20
89.88112800344742
 30
0.0
 11
286.6179766652123
 21
79.88112800344743
 31
0.0
  0
MTEXT
  5
64DF
330
18
100
AcDbEntity
  8
0
100
AcDbMText
 10
278.4980545873216
 20
191.3327646442845
 30
0.0
 40
2.2
 41
81.80293144248363
 71
     1
 72
     5
  1
\Ftxt.shx,bigfont.shx|c128;表 面 処 理
  7
JL
 73
     1
 44
1.0
  0
MTEXT
  5
64E0
330
18
100
AcDbEntity
  8
0
100
AcDbMText
 10
278.6430875115391
 20
187.6885282174806
 30
0.0
 40
2.2
 41
83.0859
 71
     1
 72
     5
  1
\Ftxt.shx,bigfont.shx|c128;等     　級
  7
JL
 73
     1
 44
1.0
  0
LINE
  5
64E1
330
18
100
AcDbEntity
  8
図框線
100
AcDbLine
 10
306.8769738641711
 20
199.197133451475
 30
0.0
 11
306.8769738641711
 21
184.7971334514751
 31
0.0
  0
MTEXT
  5
64E2
330
18
100
AcDbEntity
  8
0
100
AcDbMText
 10
291.2504755188924
 20
194.7463999142098
 30
0.0
 40
2.2
 41
145.9480028428943
 71
     1
 72
     5
  1
\Ftxt.shx,bigfont.shx|c128;調質　HRC30%%d%%p２%%d
  7
JL
 73
     1
 44
1.0
  0
MTEXT
  5
64E4
330
18
100
AcDbEntity
  8
0
370
    25
100
AcDbMText
 10
288.6309333341493
 20
88.67397682391526
 30
0.0
 40
2.5
 41
0.0
 71
     1
 72
     5
  1
\Ftxt.shx,bigfont.shx|c128;型  番
  7
JL
 73
     1
 44
1.0
  0
MTEXT
  5
64E5
330
18
100
AcDbEntity
  8
0
100
AcDbMText
 10
296.3998291309476
 20
79.49962902040454
 30
0.0
 40
2.5
 41
0.0
 71
     1
 72
     5
  1
\Ftxt.shx,bigfont.shx|c128;変更
  7
JL
 73
     1
 44
1.0
  0
LINE
  5
64E6
330
18
100
AcDbEntity
  8
図框線
100
AcDbLine
 10
295.5061965697781
 20
79.88566314266108
 30
0.0
 11
295.5061965697781
 21
73.88112800344742
 31
0.0
  0
MTEXT
  5
64E7
330
18
100
AcDbEntity
  8
0
100
AcDbMText
 10
291.3807950196106
 20
187.6888335032061
 30
0.0
 40
2.2
 41
145.3916823984455
 71
     1
 72
     5
  1
\Ftxt.shx,bigfont.shx|c128;ＩＳＯ - ４Ｈ
  7
JL
 73
     1
 44
1.0
  0
MTEXT
  5
64E8
330
18
100
AcDbEntity
  8
0
100
AcDbMText
 10
291.4680256186757
 20
191.1563181758071
 30
0.0
 40
2.2
 41
145.7274
 71
     1
 72
     5
  1
\Ftxt.shx,bigfont.shx|c128;黒  　    染
  7
JL
 73
     1
 44
1.0
  0
MTEXT
  5
64EA
330
18
100
AcDbEntity
  8
0
100
AcDbMText
 10
240.0377895735732
 20
208.9290531322199
 30
0.0
 40
2.5
 41
0.0
 71
     1
 72
     5
  1
\Ftxt.shx,bigfont.shx|c128;M6X1.0P-5L
  7
JL
 73
     1
 44
1.0
  0
MTEXT
  5
64EB
330
18
100
AcDbEntity
  8
0
100
AcDbMText
 10
240.0377895735732
 20
204.9290531322199
 30
0.0
 40
2.5
 41
0.0
 71
     1
 72
     5
  1
\Ftxt.shx,bigfont.shx|c128;%%c5.2X5L
  7
JL
 73
     1
 44
1.0
  0
LINE
  5
64EC
330
18
100
AcDbEntity
  8
図框線
100
AcDbLine
 10
210.006196569778
 20
205.8811280034474
 30
0.0
 11
309.006196569778
 21
205.8811280034474
 31
0.0
  0
LINE
  5
64ED
330
18
100
AcDbEntity
  8
図框線
100
AcDbLine
 10
210.006196569778
 20
209.8811280034474
 30
0.0
 11
309.006196569778
 21
209.8811280034474
 31
0.0
  0
LINE
  5
64EE
330
18
100
AcDbEntity
  8
図框線
 62
     9
100
AcDbLine
 10
210.006196569778
 20
213.8811280034474
 30
0.0
 11
309.006196569778
 21
213.8811280034474
 31
0.0
  0
LINE
  5
64EF
330
18
100
AcDbEntity
  8
図框線
100
AcDbLine
 10
210.006196569778
 20
218.8811280034475
 30
0.0
 11
309.006196569778
 21
218.8811280034475
 31
0.0
  0
MTEXT
  5
64F0
330
18
100
AcDbEntity
  8
0
100
AcDbMText
 10
239.7143478681868
 20
217.5389256060026
 30
0.0
 40
2.5
 41
0.0
 71
     1
 72
     5
  1
\Ftxt.shx,bigfont.shx|c128;図    番 / 規　　格
  7
JL
 73
     1
 44
1.0
  0
LINE
  5
64F1
330
18
100
AcDbEntity
  8
図框線
100
AcDbLine
 10
210.006196569778
 20
205.8811280034474
 30
0.0
 11
309.006196569778
 21
205.8811280034474
 31
0.0
  0
LINE
  5
64F2
330
18
100
AcDbEntity
  8
図框線
100
AcDbLine
 10
210.006196569778
 20
201.8811280034474
 30
0.0
 11
309.006196569778
 21
201.8811280034474
 31
0.0
  0
MTEXT
  5
64F3
330
18
100
AcDbEntity
  8
0
100
AcDbMText
 10
221.0133711404843
 20
217.2755292944388
 30
0.0
 40
2.5
 41
0.0
 71
     1
 72
     5
  1
\Ftxt.shx,bigfont.shx|c128;品　          名
  7
JL
 73
     1
 44
1.0
  0
MTEXT
  5
64F4
330
18
100
AcDbEntity
  8
0
100
AcDbMText
 10
219.4387153762992
 20
209.1460554932147
 30
0.0
 40
3.0
 41
0.0
 71
     1
 72
     5
  1
\Ftxt.shx,bigfont.shx|c128;セットスクリュ-
  7
JL
 73
     1
 44
1.0
  0
MTEXT
  5
64F5
330
18
100
AcDbEntity
  8
0
100
AcDbMText
 10
219.3409038648018
 20
213.0641605287176
 30
0.0
 40
3.0
 41
0.0
 71
     1
 72
     5
  1
\Ftxt.shx,bigfont.shx|c128;ロックナット　  
  7
JL
 73
     1
 44
1.0
  0
MTEXT
  5
64F6
330
18
100
AcDbEntity
  8
0
100
AcDbMText
 10
219.4387153762992
 20
205.1460554932147
 30
0.0
 40
3.0
 41
0.0
 71
     1
 72
     5
  1
\Ftxt.shx,bigfont.shx|c128;ロックピン 
  7
JL
 73
     1
 44
1.0
  0
LINE
  5
64F7
330
18
100
AcDbEntity
  8
図框線
100
AcDbLine
 10
217.506196569778
 20
218.8811280034473
 30
0.0
 11
217.5061965697782
 21
201.8811280034474
 31
0.0
  0
LINE
  5
64F8
330
18
100
AcDbEntity
  8
0
100
AcDbLine
 10
217.506196569778
 20
218.8811280034473
 30
0.0
 11
217.506196569778
 21
205.8811280034474
 31
0.0
  0
MTEXT
  5
64F9
330
18
100
AcDbEntity
  8
0
100
AcDbMText
 10
213.1138411134734
 20
205.2529484712671
 30
0.0
 40
2.5
 41
0.0
 71
     1
 72
     5
  1
\Ftxt.shx,bigfont.shx|c128;3
  7
JL
 73
     1
 44
1.0
  0
MTEXT
  5
64FA
330
18
100
AcDbEntity
  8
0
100
AcDbMText
 10
213.5571750831115
 20
213.1710535067701
 30
0.0
 40
2.5
 41
0.0
 71
     1
 72
     5
  1
\Ftxt.shx,bigfont.shx|c128;1
  7
JL
 73
     1
 44
1.0
  0
MTEXT
  5
64FB
330
18
100
AcDbEntity
  8
0
100
AcDbMText
 10
213.1138411134734
 20
209.2529484712671
 30
0.0
 40
2.5
 41
0.0
 71
     1
 72
     5
  1
\Ftxt.shx,bigfont.shx|c128;2
  7
JL
 73
     1
 44
1.0
  0
MTEXT
  5
64FC
330
18
100
AcDbEntity
  8
0
100
AcDbMText
 10
211.1107385656993
 20
217.4253907116503
 30
0.0
 40
2.5
 41
0.0
 71
     1
 72
     5
  1
\Ftxt.shx,bigfont.shx|c128;照   号
  7
JL
 73
     1
 44
1.0
  0
LINE
  5
64FD
330
18
100
AcDbEntity
  8
図框線
 62
     9
100
AcDbLine
 10
237.506196569778
 20
218.8811280034473
 30
0.0
 11
237.506196569778
 21
201.8811280034474
 31
0.0
  0
MTEXT
  5
64FE
330
18
100
AcDbEntity
  8
0
100
AcDbMText
 10
283.173884866047
 20
217.6713304905659
 30
0.0
 40
2.5
 41
0.0
 71
     1
 72
     5
  1
\Ftxt.shx,bigfont.shx|c128;備           考
  7
JL
 73
     1
 44
1.0
  0
LINE
  5
64FF
330
18
100
AcDbEntity
  8
図框線
 62
     9
100
AcDbLine
 10
257.506196569778
 20
218.8811280034474
 30
0.0
 11
257.506196569778
 21
201.8811280034474
 31
0.0
  0
MTEXT
  5
6500
330
18
100
AcDbEntity
  8
0
100
AcDbMText
 10
258.39813171866
 20
205.0641605287176
 30
0.0
 40
2.5
 41
0.0
 71
     1
 72
     5
  1
\Ftxt.shx,bigfont.shx|c128;C3604
  7
JL
 73
     1
 44
1.0
  0
MTEXT
  5
6501
330
18
100
AcDbEntity
  8
0
100
AcDbMText
 10
258.39813171866
 20
213.0641605287176
 30
0.0
 40
2.5
 41
0.0
 71
     1
 72
     5
  1
\Ftxt.shx,bigfont.shx|c128;SCM-440
  7
JL
 73
     1
 44
1.0
  0
MTEXT
  5
6502
330
18
100
AcDbEntity
  8
0
100
AcDbMText
 10
258.39813171866
 20
209.0641605287176
 30
0.0
 40
2.5
 41
0.0
 71
     1
 72
     5
  1
\Ftxt.shx,bigfont.shx|c128;SCM435
  7
JL
 73
     1
 44
1.0
  0
MTEXT
  5
6503
330
18
100
AcDbEntity
  8
0
100
AcDbMText
 10
259.9063590670052
 20
217.6713304905659
 30
0.0
 40
2.5
 41
0.0
 71
     1
 72
     5
  1
\Ftxt.shx,bigfont.shx|c128;材　質
  7
JL
 73
     1
 44
1.0
  0
LINE
  5
6504
330
18
100
AcDbEntity
  8
図框線
 62
     9
100
AcDbLine
 10
267.506196569778
 20
218.8811280034474
 30
0.0
 11
267.506196569778
 21
201.8811280034474
 31
0.0
  0
LINE
  5
6505
330
18
100
AcDbEntity
  8
図框線
100
AcDbLine
 10
275.006196569778
 20
218.8811280034474
 30
0.0
 11
275.006196569778
 21
201.8811280034474
 31
0.0
  0
MTEXT
  5
6506
330
18
100
AcDbEntity
  8
0
100
AcDbMText
 10
270.6138411134733
 20
205.2529484712671
 30
0.0
 40
2.5
 41
0.0
 71
     1
 72
     5
  1
\Ftxt.shx,bigfont.shx|c128;3
  7
JL
 73
     1
 44
1.0
  0
MTEXT
  5
6507
330
18
100
AcDbEntity
  8
0
100
AcDbMText
 10
271.0571750831115
 20
213.1710535067701
 30
0.0
 40
2.5
 41
0.0
 71
     1
 72
     5
  1
\Ftxt.shx,bigfont.shx|c128;1
  7
JL
 73
     1
 44
1.0
  0
MTEXT
  5
6508
330
18
100
AcDbEntity
  8
0
100
AcDbMText
 10
270.6138411134733
 20
209.2529484712671
 30
0.0
 40
2.5
 41
0.0
 71
     1
 72
     5
  1
\Ftxt.shx,bigfont.shx|c128;3
  7
JL
 73
     1
 44
1.0
  0
MTEXT
  5
6509
330
18
100
AcDbEntity
  8
0
100
AcDbMText
 10
268.2230667257367
 20
217.6713304905659
 30
0.0
 40
2.5
 41
0.0
 71
     1
 72
     5
  1
\Ftxt.shx,bigfont.shx|c128;数   量
  7
JL
 73
     1
 44
1.0
  0
MTEXT
  5
6740
330
18
100
AcDbEntity
  8
公差
100
AcDbMText
 10
226.1052360500771
 20
175.2026317675838
 30
0.0
 40
1.25
 41
6.816289586974903
 71
     1
 72
     5
  1
+0.15\P+0
  7
TXT
 11
0.0000000000000001
 21
1.0
 31
0.0
 73
     1
 44
1.0
  0
MTEXT
  5
6741
330
18
100
AcDbEntity
  8
公差
100
AcDbMText
 10
240.0890021397458
 20
156.4066761329898
 30
0.0
 40
1.25
 41
15.60204752540142
 71
     1
 72
     5
  1
+0.15\P+0
  7
TXT
 73
     1
 44
1.0
  0
LINE
  5
6761
330
18
100
AcDbEntity
  8
DIM
100
AcDbLine
 10
246.5377148866579
 20
105.7948755944698
 30
0.0
 11
246.5183135423048
 21
96.20638033323073
 31
0.0
  0
LINE
  5
6764
330
18
100
AcDbEntity
  8
0
 62
     6
100
AcDbLine
 10
282.7604470029455
 20
128.1132015480606
 30
0.0
 11
282.7604470029455
 21
134.9202424428675
 31
0.0
  0
LINE
  5
6765
330
18
100
AcDbEntity
  8
0
 62
     6
100
AcDbLine
 10
282.7604470029455
 20
134.9202424428675
 30
0.0
 11
292.4490484829557
 21
134.9202424428675
 31
0.0
  0
TOLERANCE
  5
6766
330
18
100
AcDbEntity
  8
0
  6
ByBlock
100
AcDbFcf
  3
A
 10
292.4399692574072
 20
134.945711660933
 30
0.0
  1
{\Fgdt;h}%%v0.005%%v%%vA%%v%%v
1001
ACAD
1000
DSTYLE
1002
{
1070
   140
1040
1.371999999999999
1070
    40
1040
1.0
1070
   147
1040
0.3429999999999999
1002
}
  0
MTEXT
  5
676D
330
18
100
AcDbEntity
  8
公差
100
AcDbMText
 10
254.6705437973577
 20
149.5999713006359
 30
0.0
 40
1.25
 41
5.603326618818573
 71
     1
 72
     5
  1
+0\P-0.12
  7
TXT
 73
     1
 44
1.0
  0
LINE
  5
6775
330
18
100
AcDbEntity
  8
DIM
100
AcDbLine
 10
246.5391670593573
 20
98.1914452138335
 30
0.0
 11
247.4516254075829
 21
97.21357111810844
 31
0.0
  0
HATCH
  5
6776
330
18
100
AcDbEntity
  8
DIM
100
AcDbHatch
 10
0.0
 20
0.0
 30
0.0
210
0.0
220
0.0
230
1.0
  2
SOLID
 70
     1
 71
     0
 91
        1
 92
        7
 72
     0
 73
     1
 93
        3
 10
246.5380429449048
 20
96.20775681885298
 10
247.4567750335048
 20
97.19256461409671
 10
246.5380429449048
 20
98.17737240934045
 97
        0
 75
     0
 76
     1
 47
0.2359147607200769
 98
        1
 10
246.8258589411356
 20
97.40404061978825
450
        0
451
        0
460
0.0
461
0.0
452
        0
462
0.0
453
        0
470

  0
LINE
  5
6777
330
18
100
AcDbEntity
  8
DIM
100
AcDbLine
 10
252.198718214279
 20
95.39991731394891
 30
0.0
 11
252.198718214279
 21
99.04621610397008
 31
0.0
  0
LINE
  5
6778
330
18
100
AcDbEntity
  8
DIM
100
AcDbLine
 10
252.198718214279
 20
99.04621610397008
 30
0.0
 11
256.0073534597897
 21
99.04621610397008
 31
0.0
  0
LINE
  5
6779
330
18
100
AcDbEntity
  8
DIM
100
AcDbLine
 10
256.0073534597897
 20
95.39991731394891
 30
0.0
 11
256.0073534597897
 21
99.04621610397008
 31
0.0
  0
LINE
  5
677A
330
18
100
AcDbEntity
  8
DIM
100
AcDbLine
 10
252.198718214279
 20
95.39991731394891
 30
0.0
 11
256.0073534597897
 21
95.39991731394891
 31
0.0
  0
LINE
  5
677B
330
18
100
AcDbEntity
  8
DIM
100
AcDbLine
 10
252.198718214279
 20
97.2230667089595
 30
0.0
 11
247.4379243785559
 21
97.2230667089595
 31
0.0
  0
MTEXT
  5
677C
330
18
100
AcDbEntity
  8
DIM
100
AcDbMText
 10
253.261048756763
 20
98.71939293795595
 30
0.0
 40
3.0
 41
2.354875985554478
 71
     1
 72
     5
  1
A
  7
ISOCP3
 73
     1
 44
1.0
  0
DIMENSION
  5
678A
330
18
100
AcDbEntity
  8
0
100
AcDbDimension
  2
*D1
 10
239.0324491454259
 20
152.7349800663492
 30
0.0
 11
238.0303893081012
 21
152.7349800663492
 31
0.0
 12
-0.6287846680622238
 22
-2.99519756327146
 32
0.0
 70
   160
 71
     5
 42
-1.0
  3
A
100
AcDbAlignedDimension
 13
237.0283294707765
 23
170.0972898601874
 33
0.0
 14
239.0324491454259
 24
170.0972898601874
 34
0.0
100
AcDbRotatedDimension
1001
ACAD
1000
DSTYLE
1002
{
1070
    40
1040
1.0
1002
}
  0
DIMENSION
  5
6947
330
18
100
AcDbEntity
  8
DIM
100
AcDbDimension
  2
*D2
 10
229.7275725553006
 20
170.0972898601874
 30
0.0
 11
229.2410682159777
 21
179.9656253199054
 31
0.0
 12
-120.9783792775458
 22
-0.4696875114868249
 32
0.0
 70
   160
  1
<>      (3等分)
 71
     5
 42
-1.0
  3
A
100
AcDbAlignedDimension
 13
237.20690567545
 23
175.0972898601874
 33
0.0
 14
237.0283294707765
 24
170.0972898601874
 34
0.0
 50
90.0
100
AcDbRotatedDimension
  0
LEADER
  5
699D
330
18
100
AcDbEntity
  8
DIM
 62
     6
100
AcDbLeader
  3
A
 73
     0
 74
     0
 75
     1
 40
1.75
 41
2.333333333333333
 76
     3
 10
246.5324491454258
 20
125.671784014478
 30
0.0
 10
252.7651621813325
 20
134.4234744863312
 30
0.0
 10
254.0151621813325
 20
134.4234744863312
 30
0.0
340
699E
  0
MTEXT
  5
699E
102
{ACAD_REACTORS
330
699D
102
}
330
18
100
AcDbEntity
  8
DIM
 62
     3
100
AcDbMText
 10
254.5151621813325
 20
135.7984744863312
 30
0.0
 40
1.75
 41
0.0
 71
     4
 72
     1
  1
\A1;C1
  7
TXT
 73
     1
 44
1.0
  0
DIMENSION
  5
6EA2
330
18
100
AcDbEntity
  8
0
100
AcDbDimension
  2
*D3
 10
273.0324491454259
 20
145.8714661056534
 30
0.0
 11
250.9627679740456
 21
146.2178979486513
 31
0.0
 12
-120.9783792775458
 22
-4.67325150174679
 32
0.0
 70
   160
  1
%%C<>
 71
     5
 42
-1.0
  3
A
100
AcDbAlignedDimension
 13
237.0324491454259
 23
126.671784014478
 33
0.0
 14
273.0324491454259
 24
126.671784014478
 34
0.0
100
AcDbRotatedDimension
  0
DIMENSION
  5
6EAB
330
18
100
AcDbEntity
  8
0
100
AcDbDimension
  2
*D4
 10
263.5324491454259
 20
103.1924510443096
 30
0.0
 11
255.0324491454257
 21
103.1924510443096
 31
0.0
 12
-120.9783792775458
 22
-4.67325150174679
 32
0.0
 70
   160
  1
M<>X1.0P
 71
     5
 42
-1.0
  3
A
100
AcDbAlignedDimension
 13
246.5324491454258
 23
112.671784014478
 33
0.0
 14
263.5324491454259
 24
112.671784014478
 34
0.0
100
AcDbRotatedDimension
  0
DIMENSION
  5
7064
330
18
100
AcDbEntity
  8
0
100
AcDbDimension
  2
*D5
 10
269.0324491454259
 20
141.5290711458365
 30
0.0
 11
255.0324491454258
 21
142.9040711458365
 31
0.0
 12
-120.9783792775458
 22
-4.67325150174679
 32
0.0
 70
    32
  1
%%c<>%%p0.5
 71
     5
 42
-1.0
  3
A
100
AcDbAlignedDimension
 13
241.0324491454259
 23
128.171784014478
 33
0.0
 14
269.0324491454259
 24
128.171784014478
 34
0.0
100
AcDbRotatedDimension
  0
LINE
  5
7136
330
18
100
AcDbEntity
  8
DIM
 62
     6
100
AcDbLine
 10
241.5324491454259
 20
152.7349800663492
 30
0.0
 11
244.88361883447
 21
152.7349800663492
 31
0.0
  0
LINE
  5
715F
330
18
100
AcDbEntity
  8
DIM
 62
     6
100
AcDbLine
 10
229.7275725553006
 20
174.0972898601874
 30
0.0
 11
229.7275725553006
 21
187.2116681263927
 31
0.0
  0
DIMENSION
  5
747A
330
18
100
AcDbEntity
  8
0
100
AcDbDimension
  2
*D6
 10
278.8579587734512
 20
115.2028729277235
 30
0.0
 11
277.4829587734512
 21
121.6873284711008
 31
0.0
 12
1.371215331937776
 22
-1.600282222923368
 32
0.0
 70
    32
 71
     5
 42
-1.0
  3
A
100
AcDbAlignedDimension
 13
269.0324491454259
 23
128.171784014478
 33
0.0
 14
271.2824491454258
 24
115.2028729277235
 34
0.0
 50
90.0
100
AcDbRotatedDimension
  0
DIMENSION
  5
747B
330
18
100
AcDbEntity
  8
0
100
AcDbDimension
  2
*D7
 10
282.7604470029455
 20
112.171784014478
 30
0.0
 11
282.7604470029455
 21
120.171784014478
 31
0.0
 12
1.371215331937776
 22
-1.600282222923368
 32
0.0
 70
   160
  1
<>%%p0.2
 71
     5
 42
-1.0
  3
A
100
AcDbAlignedDimension
 13
269.0324491454259
 23
128.171784014478
 33
0.0
 14
269.5324491454258
 24
112.171784014478
 34
0.0
 50
90.0
100
AcDbRotatedDimension
  0
DIMENSION
  5
747F
330
18
100
AcDbEntity
  8
0
100
AcDbDimension
  2
*D8
 10
284.8020598455834
 20
103.3558701663211
 30
0.0
 11
291.1455482896116
 21
114.3431144486039
 31
0.0
 12
1.371215331937776
 22
-1.600282222923368
 32
0.0
 70
   161
  1
<>%%p0.5
 71
     5
 42
-1.0
  3
A
100
AcDbAlignedDimension
 13
273.0324491454259
 23
118.233961840969
 33
0.0
 14
269.5324491454258
 24
112.171784014478
 34
0.0
1001
ACAD
1000
DSTYLE
1002
{
1070
   272
1070
     0
1070
   271
1070
     0
1002
}
  0
DIMENSION
  5
781C
330
18
100
AcDbEntity
  8
DIM
100
AcDbDimension
  2
*D9
 10
260.9569432054596
 20
128.171784014478
 30
0.0
 11
260.9569432054596
 21
131.8680285320767
 31
0.0
 12
0.3712153319377762
 22
-1.600282222923368
 32
0.0
 70
   160
 71
     5
 42
-1.0
  3
A
100
AcDbAlignedDimension
 13
255.0324491454258
 23
126.171784014478
 33
0.0
 14
255.0324491454258
 24
128.171784014478
 34
0.0
 50
90.0
100
AcDbRotatedDimension
  0
LEADER
  5
7A94
330
18
100
AcDbEntity
  8
DIM
 62
     6
100
AcDbLeader
  3
A
 73
     0
 75
     1
 40
1.75
 41
2.333333333333333
 76
     3
 10
263.5324491454259
 20
112.671784014478
 30
0.0
 10
257.8519872896944
 20
107.0825268677593
 30
0.0
 10
256.6019872896944
 20
107.0825268677593
 30
0.0
340
7A95
  0
MTEXT
  5
7A95
102
{ACAD_REACTORS
330
7A94
102
}
330
18
100
AcDbEntity
  8
DIM
 62
     3
100
AcDbMText
 10
256.1019872896944
 20
108.4575268677594
 30
0.0
 40
1.75
 41
0.0
 71
     6
 72
     1
  1
\A1;C1
  7
TXT
 73
     1
 44
1.0
  0
DIMENSION
  5
7B74
330
18
100
AcDbEntity
  8
DIM
100
AcDbDimension
  2
*D10
 10
230.7275725553006
 20
128.171784014478
 30
0.0
 11
230.7275725553006
 21
132.8465525894398
 31
0.0
 12
-120.9783792775458
 22
-4.67325150174679
 32
0.0
 70
   160
  1
0.5
 71
     5
 42
-1.0
  3
A
100
AcDbAlignedDimension
 13
238.0324491454258
 23
127.671784014478
 33
0.0
 14
241.0324491454259
 24
128.171784014478
 34
0.0
 50
90.0
100
AcDbRotatedDimension
  0
DIMENSION
  5
7C19
330
18
100
AcDbEntity
  8
DIM
100
AcDbDimension
  2
*D11
 10
269.0324491454258
 20
128.171784014478
 30
0.0
 11
297.3120018843937
 21
115.2630542342223
 31
0.0
 12
1.371215331937776
 22
-1.600282222923368
 32
0.0
 70
    34
 71
     5
 42
-1.0
  3
A
100
AcDb2LineAngularDimension
 13
272.1626419302046
 23
114.702889035048
 33
0.0
 14
261.0324491454258
 24
121.0252734160582
 34
0.0
 15
243.0324491454259
 25
128.1717840144781
 35
0.0
 16
297.3152357969103
 26
110.6450411897994
 36
0.0
1001
ACAD
1000
DSTYLE
1002
{
1070
    79
1070
     2
1002
}
  0
LEADER
  5
7C27
330
18
100
AcDbEntity
  8
DIM
 62
     6
100
AcDbLeader
  3
A
 73
     0
 74
     0
 75
     1
 40
1.75
 41
4.666666666666666
 76
     3
 10
272.7395559266124
 20
127.3788907956647
 30
0.0
 10
279.8470048177338
 20
137.7149540263643
 30
0.0
 10
281.0970048177338
 20
137.7149540263643
 30
0.0
340
7C28
1001
ACAD
1000
DSTYLE
1002
{
1070
    45
1040
0.0
1002
}
  0
MTEXT
  5
7C28
102
{ACAD_REACTORS
330
7C27
102
}
330
18
100
AcDbEntity
  8
DIM
 62
     3
100
AcDbMText
 10
281.5970048177338
 20
139.0899540263643
 30
0.0
 40
1.75
 41
0.0
 71
     4
 72
     1
  1
\A1;R1.5
  7
TXT
 73
     1
 44
1.0
  0
DIMENSION
  5
7D67
330
18
100
AcDbEntity
  8
DIM
100
AcDbDimension
  2
*D12
 10
264.0324491454259
 20
138.3312371229084
 30
0.0
 11
255.0324491454258
 21
139.7062371229084
 31
0.0
 12
-120.9783792775458
 22
-4.67325150174679
 32
0.0
 70
    32
  1
%%c<>
 71
     5
 42
-1.0
  3
A
100
AcDbAlignedDimension
 13
246.0324491454259
 23
128.171784014478
 33
0.0
 14
264.0324491454259
 24
128.171784014478
 34
0.0
100
AcDbRotatedDimension
1001
ACAD
1000
DSTYLE
1002
{
1070
    45
1040
0.0
1002
}
  0
LINE
  5
819F
330
18
100
AcDbEntity
  8
中心線
  6
CENTER
 48
0.15
100
AcDbLine
 10
236.0324491454258
 20
172.5972898601874
 30
0.0
 11
274.0324491454259
 21
172.5972898601872
 31
0.0
  0
LINE
  5
81A0
330
18
100
AcDbEntity
  8
中心線
  6
CENTER
 48
0.15
100
AcDbLine
 10
255.0324491454258
 20
191.5972898601873
 30
0.0
 11
255.0324491454258
 21
153.5972898601873
 31
0.0
  0
LINE
  5
81A1
330
18
100
AcDbEntity
  8
中心線
  6
CENTER
 48
0.15
100
AcDbLine
 10
255.0324491454258
 20
130.195007000415
 30
0.0
 11
255.0324491454257
 21
110.2362150293762
 31
0.0
  0
ARC
  5
81A2
330
18
100
AcDbEntity
  8
本体外線
100
AcDbCircle
 10
255.0324491454258
 20
172.5972898601873
 30
0.0
 40
18.0
100
AcDbArc
 50
187.9835561455552
 51
292.0164438544442
  0
CIRCLE
  5
81A3
330
18
100
AcDbEntity
  8
本体外線
100
AcDbCircle
 10
255.0324491454258
 20
172.5972898601874
 30
0.0
 40
14.0
  0
LINE
  5
81A4
102
{ACAD_REACTORS
330
8514
102
}
330
18
100
AcDbEntity
  8
本体外線
100
AcDbLine
 10
241.0324491454259
 20
128.171784014478
 30
0.0
 11
269.0324491454259
 21
128.171784014478
 31
0.0
1001
ACAD
1000
ASC_BOUNDS
1002
{
1070
    19
1005
0
1005
0
1002
}
  0
LINE
  5
81A5
330
18
100
AcDbEntity
  8
本体外線
100
AcDbLine
 10
237.0324491454259
 20
126.671784014478
 30
0.0
 11
237.0324491454259
 21
118.2339618409687
 31
0.0
  0
LINE
  5
81A6
102
{ACAD_REACTORS
330
8514
102
}
330
18
100
AcDbEntity
  8
本体外線
100
AcDbLine
 10
273.0324491454259
 20
126.671784014478
 30
0.0
 11
273.0324491454259
 21
118.2339618409691
 31
0.0
1001
ACAD
1000
ASC_BOUNDS
1002
{
1070
    19
1005
0
1002
}
  0
LINE
  5
81A7
102
{ACAD_REACTORS
330
8514
102
}
330
18
100
AcDbEntity
  8
本体外線
100
AcDbLine
 10
269.5324491454258
 20
112.171784014478
 30
0.0
 11
240.5324491454257
 21
112.171784014478
 31
0.0
1001
ACAD
1000
ASC_BOUNDS
1002
{
1070
    19
1005
0
1005
0
1002
}
  0
LINE
  5
81A8
102
{ACAD_REACTORS
330
8514
102
}
330
18
100
AcDbEntity
  8
本体外線
100
AcDbLine
 10
238.0324491454258
 20
127.671784014478
 30
0.0
 11
241.0324491454259
 21
127.671784014478
 31
0.0
1001
ACAD
1000
ASC_BOUNDS
1002
{
1070
    19
1005
0
1002
}
  0
LINE
  5
81A9
102
{ACAD_REACTORS
330
8514
102
}
330
18
100
AcDbEntity
  8
本体外線
100
AcDbLine
 10
241.0324491454259
 20
128.171784014478
 30
0.0
 11
241.0324491454259
 21
127.671784014478
 31
0.0
1001
ACAD
1000
ASC_BOUNDS
1002
{
1070
    19
1005
0
1002
}
  0
LINE
  5
81AA
102
{ACAD_REACTORS
330
8514
102
}
330
18
100
AcDbEntity
  8
本体外線
100
AcDbLine
 10
269.0324491454259
 20
128.171784014478
 30
0.0
 11
269.0324491454259
 21
127.671784014478
 31
0.0
1001
ACAD
1000
ASC_BOUNDS
1002
{
1070
    19
1005
0
1002
}
  0
LINE
  5
81AB
102
{ACAD_REACTORS
330
8514
102
}
330
18
100
AcDbEntity
  8
本体外線
100
AcDbLine
 10
269.0324491454259
 20
127.671784014478
 30
0.0
 11
272.0324491454259
 21
127.671784014478
 31
0.0
1001
ACAD
1000
ASC_BOUNDS
1002
{
1070
    19
1005
0
1002
}
  0
ARC
  5
81AC
102
{ACAD_REACTORS
330
8514
102
}
330
18
100
AcDbEntity
  8
本体外線
100
AcDbCircle
 10
272.0324491454259
 20
126.671784014478
 30
0.0
 40
1.0
100
AcDbArc
 50
0.0000000000001018
 51
89.9999999999998
1001
ACAD
1000
ASC_BOUNDS
1002
{
1070
    19
1005
0
1002
}
  0
ARC
  5
81AD
330
18
100
AcDbEntity
  8
本体外線
100
AcDbCircle
 10
238.0324491454258
 20
126.671784014478
 30
0.0
 40
1.0
100
AcDbArc
 50
90.0
 51
180.0
  0
LINE
  5
81AF
102
{ACAD_REACTORS
330
8514
102
}
330
18
100
AcDbEntity
  8
本体外線
100
AcDbLine
 10
264.0324491454259
 20
128.171784014478
 30
0.0
 11
264.0324491454259
 21
126.171784014478
 31
0.0
1001
ACAD
1000
ASC_BOUNDS
1002
{
1070
    19
1005
0
1002
}
  0
LINE
  5
81B0
102
{ACAD_REACTORS
330
8514
102
}
330
18
100
AcDbEntity
  8
本体外線
100
AcDbLine
 10
246.0324491454259
 20
128.171784014478
 30
0.0
 11
246.0324491454259
 21
126.171784014478
 31
0.0
1001
ACAD
1000
ASC_BOUNDS
1002
{
1070
    19
1005
0
1002
}
  0
LINE
  5
81B1
330
18
100
AcDbEntity
  8
本体外線
100
AcDbLine
 10
264.0324491454259
 20
126.171784014478
 30
0.0
 11
246.0324491454259
 21
126.171784014478
 31
0.0
  0
LINE
  5
81B2
102
{ACAD_REACTORS
330
8514
102
}
330
18
100
AcDbEntity
  8
本体外線
100
AcDbLine
 10
263.0324491454259
 20
125.1717840144781
 30
0.0
 11
264.0324491454259
 21
126.171784014478
 31
0.0
1001
ACAD
1000
ASC_BOUNDS
1002
{
1070
    19
1005
0
1002
}
  0
LINE
  5
81B3
330
18
100
AcDbEntity
  8
本体外線
100
AcDbLine
 10
263.0324491454259
 20
125.1717840144781
 30
0.0
 11
247.0324491454257
 21
125.171784014478
 31
0.0
  0
LINE
  5
81B4
102
{ACAD_REACTORS
330
8514
102
}
330
18
100
AcDbEntity
  8
本体外線
100
AcDbLine
 10
247.0324491454257
 20
125.171784014478
 30
0.0
 11
246.0324491454258
 21
126.171784014478
 31
0.0
1001
ACAD
1000
ASC_BOUNDS
1002
{
1070
    19
1005
0
1002
}
  0
LINE
  5
81B5
330
18
100
AcDbEntity
  8
本体外線
100
AcDbLine
 10
263.0324491454258
 20
113.171784014478
 30
0.0
 11
247.0324491454258
 21
113.171784014478
 31
0.0
  0
LINE
  5
81B6
102
{ACAD_REACTORS
330
8514
102
}
330
18
100
AcDbEntity
  8
本体外線
100
AcDbLine
 10
263.0324491454259
 20
125.1717840144781
 30
0.0
 11
263.0324491454258
 21
113.171784014478
 31
0.0
1001
ACAD
1000
ASC_BOUNDS
1002
{
1070
    19
1005
0
1005
0
1005
0
1005
0
1002
}
  0
LINE
  5
81B7
102
{ACAD_REACTORS
330
8514
102
}
330
18
100
AcDbEntity
  8
本体外線
100
AcDbLine
 10
247.0324491454257
 20
125.171784014478
 30
0.0
 11
247.0324491454258
 21
113.171784014478
 31
0.0
1001
ACAD
1000
ASC_BOUNDS
1002
{
1070
    19
1005
0
1002
}
  0
LINE
  5
81B8
102
{ACAD_REACTORS
330
8514
102
}
330
18
100
AcDbEntity
  8
本体外線
100
AcDbLine
 10
263.0324491454258
 20
113.171784014478
 30
0.0
 11
264.0324491454259
 21
112.171784014478
 31
0.0
1001
ACAD
1000
ASC_BOUNDS
1002
{
1070
    19
1005
0
1002
}
  0
LINE
  5
81B9
102
{ACAD_REACTORS
330
8514
102
}
330
18
100
AcDbEntity
  8
本体外線
100
AcDbLine
 10
247.0324491454258
 20
113.1717840144781
 30
0.0
 11
246.0324491454258
 21
112.171784014478
 31
0.0
1001
ACAD
1000
ASC_BOUNDS
1002
{
1070
    19
1005
0
1002
}
  0
LINE
  5
81BB
102
{ACAD_REACTORS
330
8514
102
}
330
18
100
AcDbEntity
  8
0
100
AcDbLine
 10
263.5324491454259
 20
125.671784014478
 30
0.0
 11
263.5324491454259
 21
123.0803527453335
 31
0.0
1001
ACAD
1000
ASC_BOUNDS
1002
{
1070
    19
1005
0
1005
0
1005
0
1005
0
1002
}
  0
LINE
  5
81BC
102
{ACAD_REACTORS
330
8514
102
}
330
18
100
AcDbEntity
  8
0
100
AcDbLine
 10
246.5324491454258
 20
125.6717840144779
 30
0.0
 11
246.5324491454258
 21
112.671784014478
 31
0.0
1001
ACAD
1000
ASC_BOUNDS
1002
{
1070
    19
1005
0
1005
0
1002
}
  0
LWPOLYLINE
  5
81BD
102
{ACAD_REACTORS
330
8514
102
}
330
18
100
AcDbEntity
  8
本体外線
100
AcDbPolyline
 90
        2
 70
     0
 43
0.0
 10
269.5324491454258
 20
112.171784014478
 10
273.0324491454259
 20
118.2339618409691
1001
ACAD
1000
ASC_BOUNDS
1002
{
1070
    19
1005
0
1005
0
1002
}
  0
LINE
  5
81BE
102
{ACAD_REACTORS
330
8514
102
}
330
18
100
AcDbEntity
  8
0
100
AcDbLine
 10
272.0665781205744
 20
116.5610241523682
 30
0.0
 11
272.0665781205744
 21
118.1610241523677
 31
0.0
1001
ACAD
1000
ASC_BOUNDS
1002
{
1070
    19
1005
0
1002
}
  0
LINE
  5
81BF
330
18
100
AcDbEntity
  8
0
100
AcDbLine
 10
272.0665781205744
 20
116.5610241523682
 30
0.0
 11
268.0645505954618
 21
118.8715958212962
 31
0.0
  0
LINE
  5
81C0
102
{ACAD_REACTORS
330
8514
102
}
330
18
100
AcDbEntity
  8
0
100
AcDbLine
 10
269.063177642323
 20
112.9589819285597
 30
0.0
 11
272.0665781205744
 21
118.1610241523677
 31
0.0
1001
ACAD
1000
ASC_BOUNDS
1002
{
1070
    19
1005
0
1005
0
1002
}
  0
LINE
  5
81C1
102
{ACAD_REACTORS
330
8514
102
}
330
18
100
AcDbEntity
  8
0
100
AcDbLine
 10
272.0631776423229
 20
118.1551343512663
 30
0.0
 11
263.0324491454258
 21
123.3690278799282
 31
0.0
1001
ACAD
1000
ASC_BOUNDS
1002
{
1070
    19
1005
0
1005
0
1005
0
1005
0
1002
}
  0
LINE
  5
81C2
330
18
100
AcDbEntity
  8
0
100
AcDbLine
 10
269.9539704402379
 20
119.3728856971668
 30
0.0
 11
266.953970440238
 21
114.1767332744602
 31
0.0
  0
LINE
  5
81C3
330
18
100
AcDbEntity
  8
0
100
AcDbLine
 10
267.2219196326691
 20
118.6408348895979
 30
0.0
 11
269.953970440238
 21
119.3728856971668
 31
0.0
1001
ACAD
1000
ASC_BOUNDS
1002
{
1070
    19
1005
0
1002
}
  0
LINE
  5
81C4
330
18
100
AcDbEntity
  8
中心線
  6
CENTER
 48
0.15
100
AcDbLine
 10
272.1626419302047
 20
114.702889035048
 30
0.0
 11
261.1307292923389
 21
120.9694464526066
 31
0.0
  0
LINE
  5
81C5
330
18
100
AcDbEntity
  8
0
 48
0.2
100
AcDbLine
 10
270.1668120697465
 20
116.8176852346473
 30
0.0
 11
269.2800607237988
 21
116.30571910636
 31
0.0
  0
LINE
  5
81C6
330
18
100
AcDbEntity
  8
0
 48
0.2
100
AcDbLine
 10
271.7027741165758
 20
115.9308971334453
 30
0.0
 11
270.1668120697465
 21
116.8176852346473
 31
0.0
  0
LINE
  5
81C7
330
18
100
AcDbEntity
  8
0
 48
0.2
100
AcDbLine
 10
269.2800607237987
 20
116.3057191063598
 30
0.0
 11
269.2800607237986
 21
115.2817868497848
 31
0.0
  0
LINE
  5
81C8
330
18
100
AcDbEntity
  8
0
 48
0.2
100
AcDbLine
 10
270.8160227706279
 20
114.3949987485827
 30
0.0
 11
269.2800607237986
 21
115.2817868497848
 31
0.0
  0
LINE
  5
81C9
102
{ACAD_REACTORS
330
8514
102
}
330
18
100
AcDbEntity
  8
0
100
AcDbLine
 10
270.4488182883781
 20
113.7589819285597
 30
0.0
 11
266.4467907632657
 21
116.0695535974877
 31
0.0
1001
ACAD
1000
ASC_BOUNDS
1002
{
1070
    19
1005
0
1002
}
  0
LINE
  5
81CA
102
{ACAD_REACTORS
330
8514
102
}
330
18
100
AcDbEntity
  8
0
100
AcDbLine
 10
270.4522187666293
 20
113.7648717296612
 30
0.0
 11
269.0665781205744
 21
112.9648717296612
 31
0.0
1001
ACAD
1000
ASC_BOUNDS
1002
{
1070
    19
1005
0
1002
}
  0
LINE
  5
81CB
102
{ACAD_REACTORS
330
8514
102
}
330
18
100
AcDbEntity
  8
0
100
AcDbLine
 10
269.063177642323
 20
112.9589819285597
 30
0.0
 11
263.0324491454259
 21
116.4408246496528
 31
0.0
1001
ACAD
1000
ASC_BOUNDS
1002
{
1070
    19
1005
0
1005
0
1005
0
1005
0
1002
}
  0
LINE
  5
81CC
330
18
100
AcDbEntity
  8
0
100
AcDbLine
 10
266.2219196326692
 20
116.9087840820291
 30
0.0
 11
266.953970440238
 21
114.1767332744602
 31
0.0
1001
ACAD
1000
ASC_BOUNDS
1002
{
1070
    19
1005
0
1002
}
  0
LINE
  5
81CD
330
18
100
AcDbEntity
  8
0
100
AcDbLine
 10
267.9719196326693
 20
119.9398729952744
 30
0.0
 11
265.4719196326694
 21
115.6097459763523
 31
0.0
1001
ACAD
1000
ASC_BOUNDS
1002
{
1070
    19
1005
0
1005
0
1002
}
  0
LINE
  5
81CE
330
18
100
AcDbEntity
  8
0
100
AcDbLine
 10
265.4719196326695
 20
115.6097459763523
 30
0.0
 11
263.0324491454258
 21
117.0181749188425
 31
0.0
1001
ACAD
1000
ASC_BOUNDS
1002
{
1070
    19
1005
0
1005
0
1002
}
  0
LINE
  5
81CF
330
18
100
AcDbEntity
  8
0
100
AcDbLine
 10
267.9719196326694
 20
119.9398729952743
 30
0.0
 11
263.0324491454258
 21
122.7916776107386
 31
0.0
1001
ACAD
1000
ASC_BOUNDS
1002
{
1070
    19
1005
0
1005
0
1002
}
  0
LWPOLYLINE
  5
81D0
102
{ACAD_REACTORS
330
8514
102
}
330
18
100
AcDbEntity
  8
本体外線
100
AcDbPolyline
 90
        2
 70
     0
 43
0.0
 10
240.5324491454256
 20
112.171784014478
 10
237.0324491454256
 20
118.2339618409691
1001
ACAD
1000
ASC_BOUNDS
1002
{
1070
    19
1005
0
1002
}
  0
LINE
  5
81D1
330
18
100
AcDbEntity
  8
本体外線
100
AcDbLine
 10
237.20690567545
 20
175.0972898601874
 30
0.0
 11
239.0324491454259
 21
175.0972898601874
 31
0.0
  0
LINE
  5
81D2
330
18
100
AcDbEntity
  8
本体外線
100
AcDbLine
 10
239.0324491454259
 20
175.0972898601874
 30
0.0
 11
239.0324491454259
 21
170.0972898601874
 31
0.0
  0
LINE
  5
81D3
330
18
100
AcDbEntity
  8
本体外線
100
AcDbLine
 10
237.20690567545
 20
170.0972898601874
 30
0.0
 11
239.0324491454259
 21
170.0972898601874
 31
0.0
  0
LINE
  5
81D4
330
18
100
AcDbEntity
  8
本体外線
100
AcDbLine
 10
266.110284389875
 20
186.7846633414502
 30
0.0
 11
265.197512654887
 21
185.2036963207383
 31
0.0
  0
LINE
  5
81D5
330
18
100
AcDbEntity
  8
本体外線
100
AcDbLine
 10
265.197512654887
 20
185.2036963207383
 30
0.0
 11
260.8673856359648
 21
187.7036963207382
 31
0.0
  0
LINE
  5
81D6
330
18
100
AcDbEntity
  8
本体外線
100
AcDbLine
 10
261.7801573709527
 20
189.2846633414501
 30
0.0
 11
260.8673856359648
 21
187.7036963207382
 31
0.0
  0
LINE
  5
81D7
330
18
100
AcDbEntity
  8
本体外線
100
AcDbLine
 10
261.7801573709526
 20
155.9099163789244
 30
0.0
 11
260.8673856359646
 21
157.4908833996363
 31
0.0
  0
LINE
  5
81D8
330
18
100
AcDbEntity
  8
本体外線
100
AcDbLine
 10
260.8673856359646
 20
157.4908833996363
 30
0.0
 11
265.1975126548868
 21
159.9908833996363
 31
0.0
  0
LINE
  5
81D9
330
18
100
AcDbEntity
  8
本体外線
100
AcDbLine
 10
266.1102843898748
 20
158.4099163789244
 30
0.0
 11
265.1975126548868
 21
159.9908833996363
 31
0.0
  0
ARC
  5
81DA
330
18
100
AcDbEntity
  8
本体外線
100
AcDbCircle
 10
255.0324491454258
 20
172.5972898601873
 30
0.0
 40
18.0
100
AcDbArc
 50
67.98355614555521
 51
172.0164438544443
  0
ARC
  5
81DB
330
18
100
AcDbEntity
  8
本体外線
100
AcDbCircle
 10
255.0324491454258
 20
172.5972898601873
 30
0.0
 40
18.0
100
AcDbArc
 50
307.9835561455549
 51
52.01644385444439
  0
LINE
  5
81DE
330
18
100
AcDbEntity
  8
中心線
  6
CENTER
 48
0.15
100
AcDbLine
 10
252.032449145426
 20
177.7934422828939
 30
0.0
 11
245.5324491454259
 21
189.0517725320916
 31
0.0
  0
LINE
  5
81E3
330
18
100
AcDbEntity
  8
中心線
  6
CENTER
 48
0.15
100
AcDbLine
 10
245.5324491454259
 20
156.142807188283
 30
0.0
 11
252.0324491454258
 21
167.4011374374807
 31
0.0
  0
LINE
  5
81E6
330
18
100
AcDbEntity
  8
本体内線
  6
HIDDEN
 48
0.2
100
AcDbLine
 10
262.6317912222112
 20
170.0972898601874
 30
0.0
 11
272.8579926154018
 21
170.0972898601873
 31
0.0
  0
LINE
  5
81E9
330
18
100
AcDbEntity
  8
本体内線
  6
HIDDEN
 48
0.2
100
AcDbLine
 10
262.6317912222112
 20
175.0972898601873
 30
0.0
 11
272.8579926154018
 21
175.0972898601873
 31
0.0
  0
LINE
  5
81EA
102
{ACAD_REACTORS
330
8514
102
}
330
18
100
AcDbEntity
  8
0
100
AcDbLine
 10
263.5324491454259
 20
116.152149515058
 30
0.0
 11
263.5324491454259
 21
112.671784014478
 31
0.0
1001
ACAD
1000
ASC_BOUNDS
1002
{
1070
    19
1005
0
1005
0
1005
0
1005
0
1002
}
  0
LINE
  5
81F0
102
{ACAD_REACTORS
330
8514
102
}
330
18
100
AcDbEntity
  8
本体外線
100
AcDbLine
 10
239.0324491454259
 20
127.671784014478
 30
0.0
 11
239.0324491454259
 21
114.769860225831
 31
0.0
1001
ACAD
1000
ASC_BOUNDS
1002
{
1070
    19
1005
0
1002
}
  0
LINE
  5
832E
330
18
100
AcDbEntity
  8
本体内線
  6
HIDDEN
 48
0.2
100
AcDbLine
 10
262.4486476325216
 20
175.5972898601873
 30
0.0
 11
272.7806884947247
 21
175.5972898601873
 31
0.0
  0
LINE
  5
832F
330
18
100
AcDbEntity
  8
本体内線
  6
HIDDEN
 48
0.2
100
AcDbLine
 10
262.4486476325215
 20
169.5972898601874
 30
0.0
 11
272.7806884947247
 21
169.5972898601873
 31
0.0
  0
ARC
  5
8338
330
18
100
AcDbEntity
  8
0
100
AcDbCircle
 10
255.0324491454258
 20
172.5972898601874
 30
0.0
 40
8.5
100
AcDbArc
 50
166.8208454591762
 51
104.717829115393
  0
CIRCLE
  5
8339
330
18
100
AcDbEntity
  8
本体外線
100
AcDbCircle
 10
255.0324491454258
 20
172.5972898601874
 30
0.0
 40
8.0
  0
LINE
  5
833A
330
18
100
AcDbEntity
  8
本体内線
  6
HIDDEN
 48
0.2
100
AcDbLine
 10
253.3978416164942
 20
180.4285131507313
 30
0.0
 11
248.2847409198989
 21
189.2846633414503
 31
0.0
  0
LINE
  5
833B
330
18
100
AcDbEntity
  8
本体内線
  6
HIDDEN
 48
0.2
100
AcDbLine
 10
249.067714597572
 20
177.9285131507314
 30
0.0
 11
243.9546139009768
 21
186.7846633414503
 31
0.0
  0
LINE
  5
833C
330
18
100
AcDbEntity
  8
本体内線
  6
HIDDEN
 48
0.2
100
AcDbLine
 10
248.7262736905246
 20
177.5199061495199
 30
0.0
 11
243.5602532594231
 21
186.4677160091267
 31
0.0
  0
LINE
  5
833D
330
18
100
AcDbEntity
  8
本体内線
  6
HIDDEN
 48
0.2
100
AcDbLine
 10
253.9224261132313
 20
180.5199061495198
 30
0.0
 11
248.7564056821297
 21
189.4677160091267
 31
0.0
  0
LINE
  5
833E
330
18
100
AcDbEntity
  8
本体内線
  6
HIDDEN
 48
0.2
100
AcDbLine
 10
249.0677145975721
 20
167.2660665696432
 30
0.0
 11
243.9546139009768
 21
158.4099163789244
 31
0.0
  0
LINE
  5
833F
330
18
100
AcDbEntity
  8
本体内線
  6
HIDDEN
 48
0.2
100
AcDbLine
 10
253.3978416164944
 20
164.7660665696432
 30
0.0
 11
248.2847409198989
 21
155.9099163789244
 31
0.0
  0
LINE
  5
8340
330
18
100
AcDbEntity
  8
本体内線
  6
HIDDEN
 48
0.2
100
AcDbLine
 10
253.9224261132313
 20
164.6746735708547
 30
0.0
 11
248.7564056821298
 21
155.7268637112479
 31
0.0
  0
LINE
  5
8341
330
18
100
AcDbEntity
  8
本体内線
  6
HIDDEN
 48
0.2
100
AcDbLine
 10
248.7262736905247
 20
167.6746735708547
 30
0.0
 11
243.5602532594231
 21
158.726863711248
 31
0.0
  0
HATCH
  5
8514
330
18
100
AcDbEntity
  8
剖面線
100
AcDbHatch
 10
0.0
 20
0.0
 30
0.0
210
0.0
220
0.0
230
1.0
  2
ANSI31
 70
     0
 71
     1
 91
        6
 92
        7
 72
     0
 73
     1
 93
       10
 10
246.5324491454258
 20
125.6717840144779
 10
246.0324491454259
 20
126.1717840144779
 10
246.0324491454259
 20
128.171784014478
 10
241.0324491454259
 20
128.171784014478
 10
241.0324491454259
 20
127.671784014478
 10
239.0324491454258
 20
127.671784014478
 10
239.0324491454259
 20
114.7698602258309
 10
240.5324491454257
 20
112.171784014478
 10
246.0324491454257
 20
112.171784014478
 10
246.5324491454258
 20
112.6717840144781
 97
       10
330
81B4
330
81B0
330
81A4
330
81A9
330
81A8
330
81F0
330
81D0
330
81A7
330
81B9
330
81BC
 92
        7
 72
     0
 73
     1
 93
        4
 10
246.5324491454258
 20
112.6717840144781
 10
247.0324491454258
 20
113.1717840144781
 10
247.0324491454257
 20
125.171784014478
 10
246.5324491454259
 20
125.6717840144779
 97
        4
330
81B4
330
81BC
330
81B9
330
81B7
 92
        7
 72
     1
 73
     1
 93
       12
 10
263.5324491454259
 20
123.0803527453334
 42
0.0
 10
272.063177642323
 20
118.1551343512662
 42
0.0
 10
272.0665781205744
 20
118.1610241523678
 42
0.0
 10
272.0665781205744
 20
116.5610241523677
 42
0.0
 10
273.0324491454259
 20
118.2339618409691
 42
0.0
 10
273.0324491454259
 20
126.671784014478
 42
0.4142135623730934
 10
272.0324491454259
 20
127.671784014478
 42
0.0
 10
269.0324491454259
 20
127.671784014478
 42
0.0
 10
269.0324491454259
 20
128.171784014478
 42
0.0
 10
264.0324491454259
 20
128.171784014478
 42
0.0
 10
264.0324491454259
 20
126.171784014478
 42
0.0
 10
263.5324491454259
 20
125.671784014478
 42
0.0
 97
       12
330
81AC
330
81AB
330
81AA
330
81A4
330
81AF
330
81B2
330
81BB
330
81C1
330
81C0
330
81BE
330
81BD
330
81A6
 92
        7
 72
     0
 73
     1
 93
        4
 10
263.5324491454259
 20
125.671784014478
 10
263.0324491454259
 20
125.1717840144781
 10
263.0324491454259
 20
123.3690278799282
 10
263.5324491454259
 20
123.0803527453334
 97
        4
330
81B2
330
81B6
330
81C1
330
81BB
 92
        7
 72
     0
 73
     1
 93
        8
 10
263.5324491454259
 20
116.152149515058
 10
263.5324491454259
 20
112.671784014478
 10
264.0324491454259
 20
112.171784014478
 10
269.5324491454258
 20
112.171784014478
 10
270.4488182883782
 20
113.7589819285597
 10
270.4454178101266
 20
113.7609451955936
 10
269.0665781205745
 20
112.9648717296612
 10
269.063177642323
 20
112.9589819285597
 97
        8
330
81EA
330
81B8
330
81A7
330
81BD
330
81C9
330
81CA
330
81C0
330
81CB
 92
        7
 72
     0
 73
     1
 93
        4
 10
263.532449145426
 20
116.152149515058
 10
263.0324491454259
 20
116.4408246496528
 10
263.0324491454258
 20
113.171784014478
 10
263.5324491454259
 20
112.671784014478
 97
        4
330
81CB
330
81B6
330
81B8
330
81EA
 75
     0
 76
     1
 52
0.0
 41
0.5
 77
     0
 78
     1
 53
45.0
 43
-120.9783792775458
 44
-4.67325150174679
 45
-1.122532015133643
 46
1.122532015133644
 79
     0
 47
0.0393253747550935
 98
        6
 10
243.4721938876735
 20
121.9408313402882
 10
246.702857095421
 20
121.7256266265275
 10
264.2920222386284
 20
124.666761212831
 10
263.4468507876596
 20
124.2101651792202
 10
264.4371719961577
 20
114.657150283583
 10
263.453249888922
 20
114.4605235044262
  0
MTEXT
  5
851F
330
18
100
AcDbEntity
  8
0
100
AcDbMText
 10
234.915937964527
 20
83.56812717502874
 30
0.0
 40
2.5
 41
0.0
 71
     1
 72
     5
  1
\Ftxt.shx,bigfont.shx|c128;小柳
  7
JL
 73
     1
 44
1.0
  0
LINE
  5
8546
330
18
100
AcDbEntity
  8
0
 62
     1
100
AcDbLine
 10
239.6176010789186
 20
208.2764295205555
 30
0.0
 11
250.9145799573598
 21
208.2764295205555
 31
0.0
  0
LINE
  5
8547
330
18
100
AcDbEntity
  8
0
 62
     1
100
AcDbLine
 10
239.6176010789186
 20
207.0637150272333
 30
0.0
 11
250.9145799573598
 21
207.0637150272333
 31
0.0
  0
MTEXT
  5
8556
330
18
100
AcDbEntity
  8
DIM
100
AcDbMText
 10
214.5697696725482
 20
93.59919230549797
 30
0.0
 40
2.25
 41
0.0
 71
     1
 72
     5
  1
{\Ftxt,bigfont|c128;06.09.11セットスクリュ-長度変更  林}
  7
JL
 73
     1
 44
1.0
1001
ACAD
1000
ACAD_MTEXT_DEFINED_HEIGHT_BEGIN
1070
    46
1040
0.0
1000
ACAD_MTEXT_DEFINED_HEIGHT_END
  0
LWPOLYLINE
  5
8557
330
18
100
AcDbEntity
  8
DIM
100
AcDbPolyline
 90
        3
 70
     1
 43
0.0
 10
211.5540311422348
 20
91.34918314749972
 10
214.1521073535881
 20
91.34918314749972
 10
212.8530692479115
 20
93.59918314749974
  0
MTEXT
  5
8558
330
18
100
AcDbEntity
  8
DIM
100
AcDbMText
 10
212.7205359407364
 20
93.04057446779108
 30
0.0
 40
1.5
 41
0.0
 71
     1
 72
     5
  1
{\Ftxt,bigfont|c128;1}
  7
JL
 73
     1
 44
1.0
1001
ACAD
1000
ACAD_MTEXT_DEFINED_HEIGHT_BEGIN
1070
    46
1040
0.0
1000
ACAD_MTEXT_DEFINED_HEIGHT_END
  0
CIRCLE
  5
8559
330
18
100
AcDbEntity
  8
DIM
100
AcDbCircle
 10
238.7475828864499
 20
92.47798723385512
 30
0.0
 40
1.277157768810441
  0
LWPOLYLINE
  5
855A
330
18
100
AcDbEntity
  8
DIM
100
AcDbPolyline
 90
        3
 70
     1
 43
0.0
 10
301.5281693776837
 20
75.71871761830802
 10
304.126245589037
 20
75.71871761830802
 10
302.8272074833604
 20
77.96871761830802
  0
MTEXT
  5
855B
330
18
100
AcDbEntity
  8
DIM
100
AcDbMText
 10
302.6946741761853
 20
77.41010893859936
 30
0.0
 40
1.5
 41
0.0
 71
     1
 72
     5
  1
{\Ftxt,bigfont|c128;1}
  7
JL
 73
     1
 44
1.0
1001
ACAD
1000
ACAD_MTEXT_DEFINED_HEIGHT_BEGIN
1070
    46
1040
0.0
1000
ACAD_MTEXT_DEFINED_HEIGHT_END
  0
LWPOLYLINE
  5
855C
330
18
100
AcDbEntity
  8
DIM
100
AcDbPolyline
 90
        3
 70
     1
 43
0.0
 10
280.4629342254086
 20
206.4162367061326
 10
283.0610104367618
 20
206.4162367061326
 10
281.7619723310853
 20
208.6662367061326
  0
MTEXT
  5
855D
330
18
100
AcDbEntity
  8
DIM
100
AcDbMText
 10
281.6294390239102
 20
208.1076280264239
 30
0.0
 40
1.5
 41
0.0
 71
     1
 72
     5
  1
{\Ftxt,bigfont|c128;1}
  7
JL
 73
     1
 44
1.0
1001
ACAD
1000
ACAD_MTEXT_DEFINED_HEIGHT_BEGIN
1070
    46
1040
0.0
1000
ACAD_MTEXT_DEFINED_HEIGHT_END
  0
MTEXT
  5
855E
330
18
100
AcDbEntity
  8
0
100
AcDbMText
 10
283.5203886343838
 20
208.9290531322199
 30
0.0
 40
2.5
 41
0.0
 71
     1
 72
     5
  1
{\Ftxt,bigfont|c128;M6X1.0P-6L}
  7
JL
 73
     1
 44
1.0
1001
ACAD
1000
ACAD_MTEXT_DEFINED_HEIGHT_BEGIN
1070
    46
1040
0.0
1000
ACAD_MTEXT_DEFINED_HEIGHT_END
  0
ENDSEC
  0
SECTION
  2
OBJECTS
  0
DICTIONARY
  5
C
330
0
100
AcDbDictionary
281
     1
  3
ACAD_COLOR
350
8523
  3
ACAD_GROUP
350
D
  3
ACAD_LAYOUT
350
5CF3
  3
ACAD_MATERIAL
350
8522
  3
ACAD_MLINESTYLE
350
1B
  3
ACAD_PLOTSETTINGS
350
5CF4
  3
ACAD_PLOTSTYLENAME
350
5CF1
  3
ACAD_TABLESTYLE
350
8524
  3
ACDBVARIABLEDICTIONARY
350
45D
  0
DICTIONARY
  5
45F
330
18
100
AcDbDictionary
280
     1
281
     1
  3
ACAD_LAYOUTSELFREF
360
5D8B
  3
ACAD_SORTENTS
360
460
  0
DICTIONARY
  5
5D89
330
15
100
AcDbDictionary
280
     1
281
     1
  3
ACAD_LAYOUTSELFREF
360
5D8A
  0
DICTIONARY
  5
8523
102
{ACAD_REACTORS
330
C
102
}
330
C
100
AcDbDictionary
281
     1
  0
DICTIONARY
  5
D
102
{ACAD_REACTORS
330
C
102
}
330
C
100
AcDbDictionary
281
     1
  0
DICTIONARY
  5
5CF3
102
{ACAD_REACTORS
330
C
102
}
330
C
100
AcDbDictionary
281
     1
  3
Model
350
5CF5
  3
配置1
350
5CF6
  0
DICTIONARY
  5
8522
102
{ACAD_REACTORS
330
C
102
}
330
C
100
AcDbDictionary
281
     1
  0
DICTIONARY
  5
1B
102
{ACAD_REACTORS
330
C
102
}
330
C
100
AcDbDictionary
281
     1
  3
STANDARD
350
1C
  0
DICTIONARY
  5
5CF4
102
{ACAD_REACTORS
330
C
102
}
330
C
100
AcDbDictionary
281
     1
  0
ACDBDICTIONARYWDFLT
  5
5CF1
102
{ACAD_REACTORS
330
C
102
}
330
C
100
AcDbDictionary
281
     1
  3
Normal
350
5CF2
100
AcDbDictionaryWithDefault
340
5CF2
  0
DICTIONARY
  5
8524
102
{ACAD_REACTORS
330
C
102
}
330
C
100
AcDbDictionary
281
     1
  3
Standard
350
8525
  0
DICTIONARY
  5
45D
102
{ACAD_REACTORS
330
C
102
}
330
C
100
AcDbDictionary
281
     1
  3
CTABLESTYLE
350
8539
  3
SORTENTS
350
45E
  0
XRECORD
  5
5D8B
102
{ACAD_REACTORS
330
45F
102
}
330
45F
100
AcDbXrecord
280
     1
340
18
  0
SORTENTSTABLE
  5
460
102
{ACAD_REACTORS
330
45F
102
}
330
45F
100
AcDbSortentsTable
330
18
331
C0
  5
CB
  0
XRECORD
  5
5D8A
102
{ACAD_REACTORS
330
5D89
102
}
330
5D89
100
AcDbXrecord
280
     1
340
15
  0
LAYOUT
  5
5CF5
102
{ACAD_REACTORS
330
5CF3
102
}
330
5CF3
100
AcDbPlotSettings
  1

  2
hp LaserJet 1300 PCL 6
  4
A4
  6

 40
5.027083396911621
 41
5.069413185119628
 42
5.027084350585937
 43
5.027069091796875
 44
209.9733276367187
 45
296.9683227539062
 46
0.0
 47
0.0
 48
210.006196569778
 49
73.88112800344742
140
309.006196569778
141
218.8811280034475
142
1.0
143
0.5054521899357724
 70
 11952
 72
     1
 73
     0
 74
     4
  7
LIN.ctb
 75
     0
147
1.978426486048205
 76
     0
 77
     2
 78
   300
148
-210.006196569778
149
-73.88112800344742
100
AcDbLayout
  1
Model
 70
     1
 71
     0
 10
0.0
 20
0.0
 11
12.0
 21
9.0
 12
0.0
 22
0.0
 32
0.0
 14
0.0
 24
0.0
 34
0.0
 15
0.0
 25
0.0
 35
0.0
146
0.0
 13
0.0
 23
0.0
 33
0.0
 16
1.0
 26
0.0
 36
0.0
 17
0.0
 27
1.0
 37
0.0
 76
     0
330
18
1001
ACAD_PSEXT
1000
hp LaserJet 1300 PCL 6
1000
hp LaserJet 1300 PCL 6
1000
HP 1300
1000

1070
     0
  0
LAYOUT
  5
5CF6
102
{ACAD_REACTORS
330
5CF3
102
}
330
5CF3
100
AcDbPlotSettings
  1

  2
EPSON STYLUS COLOR 440
  4

  6

 40
0.0
 41
0.0
 42
0.0
 43
0.0
 44
0.0
 45
0.0
 46
0.0
 47
0.0
 48
0.0
 49
0.0
140
0.0
141
0.0
142
1.0
143
1.0
 70
   688
 72
     0
 73
     0
 74
     5
  7
LIN.ctb
 75
    16
147
1.0
 76
     0
 77
     2
 78
   300
148
0.0
149
0.0
100
AcDbLayout
  1
ｰtｸm1
 70
     1
 71
     1
 10
0.0
 20
0.0
 11
420.0
 21
297.0
 12
0.0
 22
0.0
 32
0.0
 14
1.000000000000000E+20
 24
1.000000000000000E+20
 34
1.000000000000000E+20
 15
-1.000000000000000E+20
 25
-1.000000000000000E+20
 35
-1.000000000000000E+20
146
0.0
 13
0.0
 23
0.0
 33
0.0
 16
1.0
 26
0.0
 36
0.0
 17
0.0
 27
1.0
 37
0.0
 76
     0
330
15
  0
MLINESTYLE
  5
1C
102
{ACAD_REACTORS
330
1B
102
}
330
1B
100
AcDbMlineStyle
  2
STANDARD
 70
     0
  3

 62
   256
 51
90.0
 52
90.0
 71
     2
 49
0.5
 62
   256
  6
BYLAYER
 49
-0.5
 62
   256
  6
BYLAYER
  0
ACDBPLACEHOLDER
  5
5CF2
102
{ACAD_REACTORS
330
5CF1
102
}
330
5CF1
  0
TABLESTYLE
  5
8525
102
{ACAD_REACTORS
330
8524
102
}
330
8524
100
AcDbTableStyle
  3
Standard
 70
     0
 71
     8
 40
1.5
 41
1.5
280
     0
281
     0
  7
STANDARD
140
4.5
170
     2
 62
     0
 63
     7
283
     0
274
    -2
284
     1
 64
     0
275
    -2
285
     1
 65
     0
276
    -2
286
     1
 66
     0
277
    -2
287
     1
 67
     0
278
    -2
288
     1
 68
     0
279
    -2
289
     1
 69
     0
  7
STANDARD
140
6.0
170
     5
 62
     0
 63
     7
283
     0
274
    -2
284
     1
 64
     0
275
    -2
285
     1
 65
     0
276
    -2
286
     1
 66
     0
277
    -2
287
     1
 67
     0
278
    -2
288
     1
 68
     0
279
    -2
289
     1
 69
     0
  7
STANDARD
140
4.5
170
     5
 62
     0
 63
     7
283
     0
274
    -2
284
     1
 64
     0
275
    -2
285
     1
 65
     0
276
    -2
286
     1
 66
     0
277
    -2
287
     1
 67
     0
278
    -2
288
     1
 68
     0
279
    -2
289
     1
 69
     0
  0
DICTIONARYVAR
  5
8539
102
{ACAD_REACTORS
330
45D
102
}
330
45D
100
DictionaryVariables
280
     0
  1
STANDARD
  0
DICTIONARYVAR
  5
45E
102
{ACAD_REACTORS
330
45D
102
}
330
45D
100
DictionaryVariables
280
     0
  1
127
  0
ENDSEC
  0
EOF
