  0
SECTION
  2
HEADER
  9
$ACADVER
  1
AC1018
  9
$ACADMAINTVER
 70
    76
  9
$DWGCODEPAGE
  3
ANSI_932
  9
$INSBASE
 10
0.0
 20
0.0
 30
0.0
  9
$EXTMIN
 10
-0.0000000000002274
 20
-0.0000000000000568
 30
0.0
  9
$EXTMAX
 10
197.9999999999997
 20
290.0
 30
4.0
  9
$LIMMIN
 10
0.0
 20
0.0
  9
$LIMMAX
 10
420.0
 20
297.0
  9
$ORTHOMODE
 70
     1
  9
$REGENMODE
 70
     1
  9
$FILLMODE
 70
     1
  9
$QTEXTMODE
 70
     0
  9
$MIRRTEXT
 70
     1
  9
$LTSCALE
 40
1.0
  9
$ATTMODE
 70
     1
  9
$TEXTSIZE
 40
2.5
  9
$TRACEWID
 40
1.0
  9
$TEXTSTYLE
  7
TXT
  9
$CLAYER
  8
DIM
  9
$CELTYPE
  6
BYLAYER
  9
$CECOLOR
 62
   256
  9
$CELTSCALE
 40
1.0
  9
$DISPSILH
 70
     0
  9
$DIMSCALE
 40
1.0
  9
$DIMASZ
 40
2.5
  9
$DIMEXO
 40
1.0
  9
$DIMDLI
 40
6.0
  9
$DIMRND
 40
0.0
  9
$DIMDLE
 40
0.0
  9
$DIMEXE
 40
1.0
  9
$DIMTP
 40
0.0
  9
$DIMTM
 40
0.0
  9
$DIMTXT
 40
3.0
  9
$DIMCEN
 40
0.0
  9
$DIMTSZ
 40
0.0
  9
$DIMTOL
 70
     0
  9
$DIMLIM
 70
     0
  9
$DIMTIH
 70
     0
  9
$DIMTOH
 70
     0
  9
$DIMSE1
 70
     0
  9
$DIMSE2
 70
     0
  9
$DIMTAD
 70
     3
  9
$DIMZIN
 70
     8
  9
$DIMBLK
  1

  9
$DIMASO
 70
     1
  9
$DIMSHO
 70
     1
  9
$DIMPOST
  1

  9
$DIMAPOST
  1

  9
$DIMALT
 70
     0
  9
$DIMALTD
 70
     2
  9
$DIMALTF
 40
25.4
  9
$DIMLFAC
 40
1.0
  9
$DIMTOFL
 70
     0
  9
$DIMTVP
 40
0.0
  9
$DIMTIX
 70
     0
  9
$DIMSOXD
 70
     0
  9
$DIMSAH
 70
     0
  9
$DIMBLK1
  1

  9
$DIMBLK2
  1

  9
$DIMSTYLE
  2
A
  9
$DIMCLRD
 70
     6
  9
$DIMCLRE
 70
     6
  9
$DIMCLRT
 70
     3
  9
$DIMTFAC
 40
1.0
  9
$DIMGAP
 40
1.0
  9
$DIMJUST
 70
     0
  9
$DIMSD1
 70
     0
  9
$DIMSD2
 70
     0
  9
$DIMTOLJ
 70
     1
  9
$DIMTZIN
 70
     0
  9
$DIMALTZ
 70
     0
  9
$DIMALTTZ
 70
     0
  9
$DIMUPT
 70
     0
  9
$DIMDEC
 70
     1
  9
$DIMTDEC
 70
     1
  9
$DIMALTU
 70
     2
  9
$DIMALTTD
 70
     2
  9
$DIMTXSTY
  7
TXT
  9
$DIMAUNIT
 70
     0
  9
$DIMADEC
 70
     0
  9
$DIMALTRND
 40
0.0
  9
$DIMAZIN
 70
     0
  9
$DIMDSEP
 70
    46
  9
$DIMATFIT
 70
     3
  9
$DIMFRAC
 70
     0
  9
$DIMLDRBLK
  1

  9
$DIMLUNIT
 70
     2
  9
$DIMLWD
 70
    -2
  9
$DIMLWE
 70
    -2
  9
$DIMTMOVE
 70
     1
  9
$LUNITS
 70
     2
  9
$LUPREC
 70
     2
  9
$SKETCHINC
 40
1.0
  9
$FILLETRAD
 40
1.5
  9
$AUNITS
 70
     0
  9
$AUPREC
 70
     2
  9
$MENU
  1
.
  9
$ELEVATION
 40
0.0
  9
$PELEVATION
 40
0.0
  9
$THICKNESS
 40
0.0
  9
$LIMCHECK
 70
     0
  9
$CHAMFERA
 40
0.0
  9
$CHAMFERB
 40
0.0
  9
$CHAMFERC
 40
1.75
  9
$CHAMFERD
 40
0.0174532925199433
  9
$SKPOLY
 70
     0
  9
$TDCREATE
 40
2451555.578568171
  9
$TDUCREATE
 40
2451555.203568172
  9
$TDUPDATE
 40
2455846.595785324
  9
$TDUUPDATE
 40
2455846.220785324
  9
$TDINDWG
 40
2.2459493403
  9
$TDUSRTIMER
 40
2.2459493403
  9
$USRTIMER
 70
     1
  9
$ANGBASE
 50
0.0
  9
$ANGDIR
 70
     0
  9
$PDMODE
 70
     0
  9
$PDSIZE
 40
0.0
  9
$PLINEWID
 40
0.0
  9
$SPLFRAME
 70
     0
  9
$SPLINETYPE
 70
     6
  9
$SPLINESEGS
 70
     8
  9
$HANDSEED
  5
77E0
  9
$SURFTAB1
 70
     6
  9
$SURFTAB2
 70
     6
  9
$SURFTYPE
 70
     6
  9
$SURFU
 70
     6
  9
$SURFV
 70
     6
  9
$UCSBASE
  2

  9
$UCSNAME
  2

  9
$UCSORG
 10
0.0
 20
0.0
 30
0.0
  9
$UCSXDIR
 10
1.0
 20
0.0
 30
0.0
  9
$UCSYDIR
 10
0.0
 20
1.0
 30
0.0
  9
$UCSORTHOREF
  2

  9
$UCSORTHOVIEW
 70
     0
  9
$UCSORGTOP
 10
0.0
 20
0.0
 30
0.0
  9
$UCSORGBOTTOM
 10
0.0
 20
0.0
 30
0.0
  9
$UCSORGLEFT
 10
0.0
 20
0.0
 30
0.0
  9
$UCSORGRIGHT
 10
0.0
 20
0.0
 30
0.0
  9
$UCSORGFRONT
 10
0.0
 20
0.0
 30
0.0
  9
$UCSORGBACK
 10
0.0
 20
0.0
 30
0.0
  9
$PUCSBASE
  2

  9
$PUCSNAME
  2

  9
$PUCSORG
 10
0.0
 20
0.0
 30
0.0
  9
$PUCSXDIR
 10
1.0
 20
0.0
 30
0.0
  9
$PUCSYDIR
 10
0.0
 20
1.0
 30
0.0
  9
$PUCSORTHOREF
  2

  9
$PUCSORTHOVIEW
 70
     0
  9
$PUCSORGTOP
 10
0.0
 20
0.0
 30
0.0
  9
$PUCSORGBOTTOM
 10
0.0
 20
0.0
 30
0.0
  9
$PUCSORGLEFT
 10
0.0
 20
0.0
 30
0.0
  9
$PUCSORGRIGHT
 10
0.0
 20
0.0
 30
0.0
  9
$PUCSORGFRONT
 10
0.0
 20
0.0
 30
0.0
  9
$PUCSORGBACK
 10
0.0
 20
0.0
 30
0.0
  9
$USERI1
 70
     0
  9
$USERI2
 70
     0
  9
$USERI3
 70
     0
  9
$USERI4
 70
     0
  9
$USERI5
 70
     0
  9
$USERR1
 40
0.0
  9
$USERR2
 40
0.0
  9
$USERR3
 40
0.0
  9
$USERR4
 40
0.0
  9
$USERR5
 40
0.0
  9
$WORLDVIEW
 70
     1
  9
$SHADEDGE
 70
     3
  9
$SHADEDIF
 70
    70
  9
$TILEMODE
 70
     1
  9
$MAXACTVP
 70
    48
  9
$PINSBASE
 10
0.0
 20
0.0
 30
0.0
  9
$PLIMCHECK
 70
     0
  9
$PEXTMIN
 10
1.000000000000000E+20
 20
1.000000000000000E+20
 30
1.000000000000000E+20
  9
$PEXTMAX
 10
-1.000000000000000E+20
 20
-1.000000000000000E+20
 30
-1.000000000000000E+20
  9
$PLIMMIN
 10
0.0
 20
0.0
  9
$PLIMMAX
 10
420.0
 20
297.0
  9
$UNITMODE
 70
     0
  9
$VISRETAIN
 70
     1
  9
$PLINEGEN
 70
     0
  9
$PSLTSCALE
 70
     1
  9
$TREEDEPTH
 70
  3020
  9
$CMLSTYLE
  2
STANDARD
  9
$CMLJUST
 70
     0
  9
$CMLSCALE
 40
20.0
  9
$PROXYGRAPHICS
 70
     1
  9
$MEASUREMENT
 70
     1
  9
$CELWEIGHT
370
    -1
  9
$ENDCAPS
280
     0
  9
$JOINSTYLE
280
     0
  9
$LWDISPLAY
290
     0
  9
$INSUNITS
 70
     0
  9
$HYPERLINKBASE
  1

  9
$STYLESHEET
  1

  9
$XEDIT
290
     1
  9
$CEPSNTYPE
380
     0
  9
$PSTYLEMODE
290
     1
  9
$FINGERPRINTGUID
  2
{1CF51E8A-A506-11D4-A7D9-AF69F5C20846}
  9
$VERSIONGUID
  2
{45A15739-B1E6-42DA-934A-CC2F5B8400CC}
  9
$EXTNAMES
290
     1
  9
$PSVPSCALE
 40
0.0
  9
$OLESTARTUP
290
     0
  9
$SORTENTS
280
   127
  9
$INDEXCTL
280
     0
  9
$HIDETEXT
280
     0
  9
$XCLIPFRAME
290
     0
  9
$HALOGAP
280
     0
  9
$OBSCOLOR
 70
   257
  9
$OBSLTYPE
280
     0
  9
$INTERSECTIONDISPLAY
280
     0
  9
$INTERSECTIONCOLOR
 70
   257
  9
$DIMASSOC
280
     1
  9
$PROJECTNAME
  1

  0
ENDSEC
  0
SECTION
  2
CLASSES
  0
CLASS
  1
DICTIONARYVAR
  2
AcDbDictionaryVar
  3
ObjectDBX Classes
 90
        0
 91
        2
280
     0
281
     0
  0
CLASS
  1
SORTENTSTABLE
  2
AcDbSortentsTable
  3
ObjectDBX Classes
 90
        0
 91
        1
280
     0
281
     0
  0
CLASS
  1
ACDBDICTIONARYWDFLT
  2
AcDbDictionaryWithDefault
  3
ObjectDBX Classes
 90
        0
 91
        1
280
     0
281
     0
  0
CLASS
  1
TABLESTYLE
  2
AcDbTableStyle
  3
ObjectDBX Classes
 90
     2047
 91
        1
280
     0
281
     0
  0
ENDSEC
  0
SECTION
  2
TABLES
  0
TABLE
  2
VPORT
  5
8
330
0
100
AcDbSymbolTable
 70
     2
  0
VPORT
  5
77DF
330
8
100
AcDbSymbolTableRecord
100
AcDbViewportTableRecord
  2
*Active
 70
     0
 10
0.0
 20
0.0
 11
1.0
 21
1.0
 12
121.3772727102322
 22
126.7866695396206
 13
0.0
 23
0.0
 14
10.0
 24
10.0
 15
10.0
 25
10.0
 16
0.0
 26
0.0
 36
1.0
 17
0.0
 27
0.0
 37
0.0
 40
237.7187980297491
 41
2.47104247104247
 42
50.0
 43
0.0
 44
0.0
 50
0.0
 51
0.0
 71
     0
 72
   100
 73
     1
 74
     1
 75
     0
 76
     0
 77
     0
 78
     0
281
     0
 65
     1
110
0.0
120
0.0
130
0.0
111
1.0
121
0.0
131
0.0
112
0.0
122
1.0
132
0.0
 79
     0
146
0.0
  0
ENDTAB
  0
TABLE
  2
LTYPE
  5
5
330
0
100
AcDbSymbolTable
 70
     7
  0
LTYPE
  5
12
330
5
100
AcDbSymbolTableRecord
100
AcDbLinetypeTableRecord
  2
BYBLOCK
 70
     0
  3

 72
    65
 73
     0
 40
0.0
  0
LTYPE
  5
13
330
5
100
AcDbSymbolTableRecord
100
AcDbLinetypeTableRecord
  2
BYLAYER
 70
     0
  3

 72
    65
 73
     0
 40
0.0
  0
LTYPE
  5
14
330
5
100
AcDbSymbolTableRecord
100
AcDbLinetypeTableRecord
  2
CONTINUOUS
 70
     0
  3
Solid line
 72
    65
 73
     0
 40
0.0
  0
LTYPE
  5
9D
330
5
100
AcDbSymbolTableRecord
100
AcDbLinetypeTableRecord
  2
CENTERX2
 70
     0
  3
Center (2x) ________  __  ________  __  _____
 72
    65
 73
     4
 40
101.6
 49
63.5
 74
     0
 49
-12.7
 74
     0
 49
12.7
 74
     0
 49
-12.7
 74
     0
  0
LTYPE
  5
A1
330
5
100
AcDbSymbolTableRecord
100
AcDbLinetypeTableRecord
  2
DASHED
 70
     0
  3
Dashed __ __ __ __ __ __ __ __ __ __ __ __ __ _
 72
    65
 73
     2
 40
19.05
 49
12.7
 74
     0
 49
-6.349999999999999
 74
     0
  0
LTYPE
  5
A2
330
5
100
AcDbSymbolTableRecord
100
AcDbLinetypeTableRecord
  2
DASHED2
 70
     0
  3
Dashed (.5x) _ _ _ _ _ _ _ _ _ _ _ _ _ _ _ _ _
 72
    65
 73
     2
 40
9.524999999999998
 49
6.349999999999999
 74
     0
 49
-3.174999999999999
 74
     0
  0
LTYPE
  5
A5
330
5
100
AcDbSymbolTableRecord
100
AcDbLinetypeTableRecord
  2
DIVIDE2
 70
     0
  3
Divide (.5x) __..__..__..__..__..__..__..__.._
 72
    65
 73
     6
 40
15.875
 49
6.349999999999999
 74
     0
 49
-3.174999999999999
 74
     0
 49
0.0
 74
     0
 49
-3.174999999999999
 74
     0
 49
0.0
 74
     0
 49
-3.174999999999999
 74
     0
  0
LTYPE
  5
650B
330
5
100
AcDbSymbolTableRecord
100
AcDbLinetypeTableRecord
  2
CENTER
 70
     0
  3
Center ____ _ ____ _ ____ _ ____ _ ____ _ ____
 72
    65
 73
     4
 40
50.8
 49
31.75
 74
     0
 49
-6.349999999999999
 74
     0
 49
6.349999999999999
 74
     0
 49
-6.349999999999999
 74
     0
  0
LTYPE
  5
650C
330
5
100
AcDbSymbolTableRecord
100
AcDbLinetypeTableRecord
  2
HIDDEN
 70
     0
  3
Hidden __ __ __ __ __ __ __ __ __ __ __ __ __ _
 72
    65
 73
     2
 40
9.524999999999998
 49
6.349999999999999
 74
     0
 49
-3.174999999999999
 74
     0
  0
ENDTAB
  0
TABLE
  2
LAYER
  5
2
330
0
100
AcDbSymbolTable
 70
     9
  0
LAYER
  5
E
330
2
100
AcDbSymbolTableRecord
100
AcDbLayerTableRecord
  2
0
 70
     0
 62
     7
  6
CONTINUOUS
370
    -3
390
5CF2
  0
LAYER
  5
B9
330
2
100
AcDbSymbolTableRecord
100
AcDbLayerTableRecord
  2
DIM
 70
     0
 62
     3
  6
CONTINUOUS
370
    -3
390
5CF2
  0
LAYER
  5
F2
330
2
100
AcDbSymbolTableRecord
100
AcDbLayerTableRecord
  2
DEFPOINTS
 70
     0
 62
     4
  6
CONTINUOUS
290
     0
370
    -3
390
5CF2
  0
LAYER
  5
5F8B
330
2
100
AcDbSymbolTableRecord
100
AcDbLayerTableRecord
  2
公差
 70
     0
 62
     6
  6
CONTINUOUS
370
    -3
390
5CF2
  0
LAYER
  5
644E
330
2
100
AcDbSymbolTableRecord
100
AcDbLayerTableRecord
  2
図框線
 70
     0
 62
     9
  6
CONTINUOUS
370
    -3
390
5CF2
  0
LAYER
  5
650D
330
2
100
AcDbSymbolTableRecord
100
AcDbLayerTableRecord
  2
中心線
 70
     0
 62
     1
  6
CENTER
370
    -3
390
5CF2
  0
LAYER
  5
650E
330
2
100
AcDbSymbolTableRecord
100
AcDbLayerTableRecord
  2
本体内線
 70
     0
 62
     4
  6
HIDDEN
370
    -3
390
5CF2
  0
LAYER
  5
650F
330
2
100
AcDbSymbolTableRecord
100
AcDbLayerTableRecord
  2
本体外線
 70
     0
 62
     2
  6
CONTINUOUS
370
    -3
390
5CF2
  0
LAYER
  5
6510
330
2
100
AcDbSymbolTableRecord
100
AcDbLayerTableRecord
  2
剖面線
 70
     0
 62
     5
  6
CONTINUOUS
370
    -3
390
5CF2
  0
ENDTAB
  0
TABLE
  2
STYLE
  5
3
330
0
100
AcDbSymbolTable
 70
     5
  0
STYLE
  5
F
330
3
100
AcDbSymbolTableRecord
100
AcDbTextStyleTableRecord
  2
STANDARD
 70
     0
 40
0.0
 41
1.0
 50
0.0
 71
     0
 42
2.5
  3
txt
  4

  0
STYLE
  5
BE
330
3
100
AcDbSymbolTableRecord
100
AcDbTextStyleTableRecord
  2
ISOCP3
 70
     0
 40
0.0
 41
1.0
 50
0.0
 71
     0
 42
2.5
  3
isocp3.shx
  4

  0
STYLE
  5
2A37
330
3
100
AcDbSymbolTableRecord
100
AcDbTextStyleTableRecord
  2
TXT
 70
     0
 40
0.0
 41
1.0
 50
0.0
 71
     0
 42
2.5
  3
txt.shx
  4
bigfont.shx
  0
STYLE
  5
5DCB
330
3
100
AcDbSymbolTableRecord
100
AcDbTextStyleTableRecord
  2
LKK
 70
     0
 40
50.0
 41
1.5
 50
0.0
 71
     0
 42
50.0
  3
MS PGothic.ttf
  4

1001
ACAD
1000
MS PGothic
1071
    32818
  0
STYLE
  5
5DCC
330
3
100
AcDbSymbolTableRecord
100
AcDbTextStyleTableRecord
  2
JL
 70
     0
 40
10.0
 41
0.5
 50
0.0
 71
     0
 42
5.0
  3
MS Mincho.ttf
  4

1001
ACAD
1000
MS Mincho
1071
    32785
  0
ENDTAB
  0
TABLE
  2
VIEW
  5
6
330
0
100
AcDbSymbolTable
 70
     0
  0
ENDTAB
  0
TABLE
  2
UCS
  5
7
330
0
100
AcDbSymbolTable
 70
     0
  0
ENDTAB
  0
TABLE
  2
APPID
  5
9
330
0
100
AcDbSymbolTable
 70
     1
  0
APPID
  5
10
330
9
100
AcDbSymbolTableRecord
100
AcDbRegAppTableRecord
  2
ACAD
 70
     0
  0
ENDTAB
  0
TABLE
  2
DIMSTYLE
  5
A
330
0
100
AcDbSymbolTable
 70
     3
100
AcDbDimStyleTable
 71
     0
  0
DIMSTYLE
105
1D
330
A
100
AcDbSymbolTableRecord
100
AcDbDimStyleTableRecord
  2
STANDARD
 70
     0
 41
3.0
 42
0.06
 77
     3
140
4.0
144
0.3333333333333333
172
     1
340
F
  0
DIMSTYLE
105
1A4
102
{ACAD_REACTORS
330
6770
330
677F
330
6864
330
6C92
330
6CAA
330
6F74
330
74C6
330
750D
330
7568
330
7575
330
7586
330
75D3
102
}
330
A
100
AcDbSymbolTableRecord
100
AcDbDimStyleTableRecord
  2
A
 70
     0
 41
2.5
 42
1.0
 43
6.0
 44
1.0
 73
     0
 74
     0
 77
     3
 78
     8
140
3.0
141
0.0
147
1.0
176
     6
177
     6
178
     3
271
     1
272
     1
279
     1
340
2A37
  0
DIMSTYLE
105
6006
330
A
100
AcDbSymbolTableRecord
100
AcDbDimStyleTableRecord
  2
ISO-25
 70
     0
 40
0.0
 41
2.0
 42
0.3
 43
1.0
 44
0.3
 73
     0
 74
     0
 77
     1
 78
     8
140
3.0
147
1.0
172
     1
176
     6
177
     6
178
     3
271
     1
272
     2
284
     8
288
     1
289
     2
340
F
  0
ENDTAB
  0
TABLE
  2
BLOCK_RECORD
  5
1
330
0
100
AcDbSymbolTable
 70
    13
  0
BLOCK_RECORD
  5
18
102
{ACAD_XDICTIONARY
360
45F
102
}
330
1
100
AcDbSymbolTableRecord
100
AcDbBlockTableRecord
  2
*MODEL_SPACE
340
5CF5
  0
BLOCK_RECORD
  5
15
102
{ACAD_XDICTIONARY
360
5D89
102
}
330
1
100
AcDbSymbolTableRecord
100
AcDbBlockTableRecord
  2
*PAPER_SPACE
340
5CF6
  0
BLOCK_RECORD
  5
639D
330
1
100
AcDbSymbolTableRecord
100
AcDbBlockTableRecord
  2
A$C255C26A2
340
0
102
{BLKREFS
331
63A3
102
}
  0
BLOCK_RECORD
  5
67BC
330
1
100
AcDbSymbolTableRecord
100
AcDbBlockTableRecord
  2
*D1
340
0
  0
BLOCK_RECORD
  5
67D9
330
1
100
AcDbSymbolTableRecord
100
AcDbBlockTableRecord
  2
*D2
340
0
  0
BLOCK_RECORD
  5
6854
330
1
100
AcDbSymbolTableRecord
100
AcDbBlockTableRecord
  2
*D3
340
0
  0
BLOCK_RECORD
  5
6C86
330
1
100
AcDbSymbolTableRecord
100
AcDbBlockTableRecord
  2
*D4
340
0
  0
BLOCK_RECORD
  5
6C9E
330
1
100
AcDbSymbolTableRecord
100
AcDbBlockTableRecord
  2
*D5
340
0
  0
BLOCK_RECORD
  5
6FE3
330
1
100
AcDbSymbolTableRecord
100
AcDbBlockTableRecord
  2
*D6
340
0
  0
BLOCK_RECORD
  5
74B6
330
1
100
AcDbSymbolTableRecord
100
AcDbBlockTableRecord
  2
*D7
340
0
  0
BLOCK_RECORD
  5
7501
330
1
100
AcDbSymbolTableRecord
100
AcDbBlockTableRecord
  2
*D8
340
0
  0
BLOCK_RECORD
  5
755C
330
1
100
AcDbSymbolTableRecord
100
AcDbBlockTableRecord
  2
*D9
340
0
  0
BLOCK_RECORD
  5
7569
330
1
100
AcDbSymbolTableRecord
100
AcDbBlockTableRecord
  2
*D10
340
0
  0
BLOCK_RECORD
  5
7576
330
1
100
AcDbSymbolTableRecord
100
AcDbBlockTableRecord
  2
*D11
340
0
  0
BLOCK_RECORD
  5
75C5
330
1
100
AcDbSymbolTableRecord
100
AcDbBlockTableRecord
  2
*D12
340
0
  0
ENDTAB
  0
ENDSEC
  0
SECTION
  2
BLOCKS
  0
BLOCK
  5
19
330
18
100
AcDbEntity
  8
0
100
AcDbBlockBegin
  2
*MODEL_SPACE
 70
     0
 10
0.0
 20
0.0
 30
0.0
  3
*MODEL_SPACE
  1

  0
ENDBLK
  5
1A
330
18
100
AcDbEntity
  8
0
100
AcDbBlockEnd
  0
BLOCK
  5
16
330
15
100
AcDbEntity
 67
     1
  8
0
100
AcDbBlockBegin
  2
*PAPER_SPACE
 70
     0
 10
0.0
 20
0.0
 30
0.0
  3
*PAPER_SPACE
  1

  0
ENDBLK
  5
17
330
15
100
AcDbEntity
 67
     1
  8
0
100
AcDbBlockEnd
  0
BLOCK
  5
63A1
330
639D
100
AcDbEntity
  8
0
100
AcDbBlockBegin
  2
A$C255C26A2
 70
     0
 10
0.0
 20
0.0
 30
0.0
  3
A$C255C26A2
  1

  0
LWPOLYLINE
  5
639E
330
639D
100
AcDbEntity
  8
0
100
AcDbPolyline
 90
        3
 70
     1
 43
0.0
 10
7.014806023851633
 20
0.0000006939811783
 10
5.611844869720698
 20
2.430000693981241
 10
8.417767177982568
 20
2.430000693981241
  0
LWPOLYLINE
  5
639F
330
639D
100
AcDbEntity
  8
0
100
AcDbPolyline
 90
        3
 70
     1
 43
0.0
 10
4.20888371558999
 20
0.0000006939811783
 10
2.805922561459283
 20
2.430000693981241
 10
5.611844869720698
 20
2.430000693981241
  0
LWPOLYLINE
  5
63A0
330
639D
100
AcDbEntity
  8
0
100
AcDbPolyline
 90
        3
 70
     1
 43
0.0
 10
1.402961407328348
 20
0.0000006939811783
 10
0.0000002531974133
 20
2.430000693981241
 10
2.805922561459283
 20
2.430000693981241
  0
ENDBLK
  5
63A2
330
639D
100
AcDbEntity
  8
0
100
AcDbBlockEnd
  0
BLOCK
  5
7551
330
67BC
100
AcDbEntity
  8
0
100
AcDbBlockBegin
  2
*D1
 70
     1
 10
0.0
 20
0.0
 30
0.0
  3
*D1
  1

  0
LINE
  5
7552
330
67BC
100
AcDbEntity
  8
0
  6
ByBlock
 62
     6
100
AcDbLine
 10
288.5280112732661
 20
109.3282283986601
 30
0.0
 11
288.5280112732661
 21
88.86568944296175
 31
0.0
  0
LINE
  5
7553
330
67BC
100
AcDbEntity
  8
0
  6
ByBlock
 62
     6
100
AcDbLine
 10
308.5280112732661
 20
109.3282283986602
 30
0.0
 11
308.5280112732661
 21
88.86568944296175
 31
0.0
  0
LINE
  5
7554
330
67BC
100
AcDbEntity
  8
0
  6
ByBlock
 62
     6
100
AcDbLine
 10
291.0280112732661
 20
89.86568944296175
 30
0.0
 11
306.0280112732661
 21
89.86568944296175
 31
0.0
  0
MTEXT
  5
7555
330
67BC
100
AcDbEntity
  8
0
  6
ByBlock
 62
     3
100
AcDbMText
 10
298.5280112732661
 20
92.36568944296175
 30
0.0
 40
3.0
 41
0.0
 71
     5
 72
     1
  1
\A1;M20X1.0P
  7
TXT
 73
     1
 44
1.0
  0
SOLID
  5
7556
330
67BC
100
AcDbEntity
  8
0
  6
ByBlock
 62
     6
100
AcDbTrace
 10
291.0280112732661
 20
90.28235610962843
 30
0.0
 11
291.0280112732661
 21
89.44902277629507
 31
0.0
 12
288.5280112732661
 22
89.86568944296175
 32
0.0
 13
288.5280112732661
 23
89.86568944296175
 33
0.0
  0
SOLID
  5
7557
330
67BC
100
AcDbEntity
  8
0
  6
ByBlock
 62
     6
100
AcDbTrace
 10
306.0280112732661
 20
90.28235610962843
 30
0.0
 11
306.0280112732661
 21
89.44902277629507
 31
0.0
 12
308.5280112732661
 22
89.86568944296175
 32
0.0
 13
308.5280112732661
 23
89.86568944296175
 33
0.0
  0
POINT
  5
7558
330
67BC
100
AcDbEntity
  8
DEFPOINTS
  6
ByBlock
 62
     0
100
AcDbPoint
 10
288.5280112732661
 20
110.3282283986601
 30
0.0
  0
POINT
  5
7559
330
67BC
100
AcDbEntity
  8
DEFPOINTS
  6
ByBlock
 62
     0
100
AcDbPoint
 10
308.5280112732661
 20
110.3282283986602
 30
0.0
  0
POINT
  5
755A
330
67BC
100
AcDbEntity
  8
DEFPOINTS
  6
ByBlock
 62
     0
100
AcDbPoint
 10
308.5280112732661
 20
89.86568944296175
 30
0.0
  0
ENDBLK
  5
755B
330
67BC
100
AcDbEntity
  8
0
100
AcDbBlockEnd
  0
BLOCK
  5
6C2B
330
67D9
100
AcDbEntity
  8
0
100
AcDbBlockBegin
  2
*D2
 70
     1
 10
0.0
 20
0.0
 30
0.0
  3
*D2
  1

  0
LINE
  5
6C2C
330
67D9
100
AcDbEntity
  8
0
  6
ByBlock
 62
     6
100
AcDbLine
 10
79.68718311844742
 20
199.7871061742178
 30
0.0
 11
79.68718311844742
 21
174.5091432966803
 31
0.0
  0
LINE
  5
6C2D
330
67D9
100
AcDbEntity
  8
0
  6
ByBlock
 62
     6
100
AcDbLine
 10
81.67252176916111
 20
199.7871061742177
 30
0.0
 11
81.67252176916111
 21
174.5091432966803
 31
0.0
  0
LINE
  5
6C2E
330
67D9
100
AcDbEntity
  8
0
  6
ByBlock
 62
     6
100
AcDbLine
 10
77.18718311844742
 20
175.5091432966803
 30
0.0
 11
74.68718311844742
 21
175.5091432966803
 31
0.0
  0
LINE
  5
6C2F
330
67D9
100
AcDbEntity
  8
0
  6
ByBlock
 62
     6
100
AcDbLine
 10
84.17252176916111
 20
175.5091432966803
 30
0.0
 11
86.67252176916111
 21
175.5091432966803
 31
0.0
  0
MTEXT
  5
6C30
330
67D9
100
AcDbEntity
  8
0
  6
ByBlock
 62
     3
100
AcDbMText
 10
86.67252176916111
 20
178.0091432966803
 30
0.0
 40
3.0
 41
0.0
 71
     5
 72
     1
  1
\A1;2
  7
TXT
 73
     1
 44
1.0
  0
LINE
  5
6C31
330
67D9
100
AcDbEntity
  8
0
  6
ByBlock
 62
     6
100
AcDbLine
 10
79.68718311844742
 20
175.5091432966803
 30
0.0
 11
81.67252176916111
 21
175.5091432966803
 31
0.0
  0
SOLID
  5
6C32
330
67D9
100
AcDbEntity
  8
0
  6
ByBlock
 62
     6
100
AcDbTrace
 10
77.18718311844742
 20
175.925809963347
 30
0.0
 11
77.18718311844742
 21
175.0924766300137
 31
0.0
 12
79.68718311844742
 22
175.5091432966803
 32
0.0
 13
79.68718311844742
 23
175.5091432966803
 33
0.0
  0
SOLID
  5
6C33
330
67D9
100
AcDbEntity
  8
0
  6
ByBlock
 62
     6
100
AcDbTrace
 10
84.17252176916111
 20
175.925809963347
 30
0.0
 11
84.17252176916111
 21
175.0924766300137
 31
0.0
 12
81.67252176916111
 22
175.5091432966803
 32
0.0
 13
81.67252176916111
 23
175.5091432966803
 33
0.0
  0
POINT
  5
6C34
330
67D9
100
AcDbEntity
  8
DEFPOINTS
  6
ByBlock
 62
     0
100
AcDbPoint
 10
79.68718311844742
 20
200.7871061742178
 30
0.0
  0
POINT
  5
6C35
330
67D9
100
AcDbEntity
  8
DEFPOINTS
  6
ByBlock
 62
     0
100
AcDbPoint
 10
81.67252176916111
 20
200.7871061742178
 30
0.0
  0
POINT
  5
6C36
330
67D9
100
AcDbEntity
  8
DEFPOINTS
  6
ByBlock
 62
     0
100
AcDbPoint
 10
81.67252176916111
 20
175.5091432966803
 30
0.0
  0
ENDBLK
  5
6C37
330
67D9
100
AcDbEntity
  8
0
100
AcDbBlockEnd
  0
BLOCK
  5
70EE
330
6854
100
AcDbEntity
  8
0
100
AcDbBlockBegin
  2
*D3
 70
     1
 10
0.0
 20
0.0
 30
0.0
  3
*D3
  1

  0
LINE
  5
70EF
330
6854
100
AcDbEntity
  8
0
  6
ByBlock
 62
     6
100
AcDbLine
 10
278.5426726225525
 20
192.5609101322956
 30
0.0
 11
266.5791148737775
 21
192.5609101322956
 31
0.0
  0
LINE
  5
70F0
330
6854
100
AcDbEntity
  8
0
  6
ByBlock
 62
     6
100
AcDbLine
 10
278.5426726225526
 20
197.5609101322956
 30
0.0
 11
266.5791148737775
 21
197.5609101322956
 31
0.0
  0
LINE
  5
70F1
330
6854
100
AcDbEntity
  8
0
  6
ByBlock
 62
     6
100
AcDbLine
 10
267.5791148737775
 20
190.0609101322956
 30
0.0
 11
267.5791148737775
 21
187.5609101322956
 31
0.0
  0
LINE
  5
70F2
330
6854
100
AcDbEntity
  8
0
  6
ByBlock
 62
     6
100
AcDbLine
 10
267.5791148737775
 20
200.0609101322956
 30
0.0
 11
267.5791148737775
 21
202.5609101322956
 31
0.0
  0
MTEXT
  5
70F3
330
6854
100
AcDbEntity
  8
0
  6
ByBlock
 62
     3
100
AcDbMText
 10
264.2047108329217
 20
207.2390016986862
 30
0.0
 40
3.0
 41
0.0
 71
     5
 72
     1
  1
\A1;5      (3等分)
  7
TXT
 11
0.0000000000000001
 21
1.0
 31
0.0
 73
     1
 44
1.0
  0
LINE
  5
70F4
330
6854
100
AcDbEntity
  8
0
  6
ByBlock
 62
     6
100
AcDbLine
 10
267.5791148737775
 20
192.5609101322956
 30
0.0
 11
267.5791148737775
 21
197.5609101322956
 31
0.0
  0
SOLID
  5
70F5
330
6854
100
AcDbEntity
  8
0
  6
ByBlock
 62
     6
100
AcDbTrace
 10
267.1624482071108
 20
190.0609101322956
 30
0.0
 11
267.9957815404442
 21
190.0609101322956
 31
0.0
 12
267.5791148737775
 22
192.5609101322956
 32
0.0
 13
267.5791148737775
 23
192.5609101322956
 33
0.0
  0
SOLID
  5
70F6
330
6854
100
AcDbEntity
  8
0
  6
ByBlock
 62
     6
100
AcDbTrace
 10
267.1624482071108
 20
200.0609101322956
 30
0.0
 11
267.9957815404442
 21
200.0609101322956
 31
0.0
 12
267.5791148737775
 22
197.5609101322956
 32
0.0
 13
267.5791148737775
 23
197.5609101322956
 33
0.0
  0
POINT
  5
70F7
330
6854
100
AcDbEntity
  8
DEFPOINTS
  6
ByBlock
 62
     0
100
AcDbPoint
 10
279.5426726225525
 20
192.5609101322956
 30
0.0
  0
POINT
  5
70F8
330
6854
100
AcDbEntity
  8
DEFPOINTS
  6
ByBlock
 62
     0
100
AcDbPoint
 10
279.5426726225526
 20
197.5609101322956
 30
0.0
  0
POINT
  5
70F9
330
6854
100
AcDbEntity
  8
DEFPOINTS
  6
ByBlock
 62
     0
100
AcDbPoint
 10
267.5791148737775
 20
197.5609101322956
 30
0.0
  0
ENDBLK
  5
70FA
330
6854
100
AcDbEntity
  8
0
100
AcDbBlockEnd
  0
BLOCK
  5
7775
330
6C86
100
AcDbEntity
  8
0
100
AcDbBlockBegin
  2
*D4
 70
     1
 10
0.0
 20
0.0
 30
0.0
  3
*D4
  1

  0
LINE
  5
7776
330
6C86
100
AcDbEntity
  8
0
  6
ByBlock
 62
     6
100
AcDbLine
 10
70.81823740955428
 20
136.065128516129
 30
0.0
 11
70.81823740955428
 21
157.4663946199849
 31
0.0
  0
LINE
  5
7777
330
6C86
100
AcDbEntity
  8
0
  6
ByBlock
 62
     6
100
AcDbLine
 10
102.8182374095543
 20
136.065128516129
 30
0.0
 11
102.8182374095543
 21
157.4663946199849
 31
0.0
  0
LINE
  5
7778
330
6C86
100
AcDbEntity
  8
0
  6
ByBlock
 62
     6
100
AcDbLine
 10
73.31823740955428
 20
156.4663946199849
 30
0.0
 11
100.3182374095543
 21
156.4663946199849
 31
0.0
  0
SOLID
  5
7779
330
6C86
100
AcDbEntity
  8
0
  6
ByBlock
 62
     6
100
AcDbTrace
 10
73.31823740955428
 20
156.8830612866516
 30
0.0
 11
73.31823740955428
 21
156.0497279533183
 31
0.0
 12
70.81823740955428
 22
156.4663946199849
 32
0.0
 13
70.81823740955428
 23
156.4663946199849
 33
0.0
  0
SOLID
  5
777A
330
6C86
100
AcDbEntity
  8
0
  6
ByBlock
 62
     6
100
AcDbTrace
 10
100.3182374095543
 20
156.8830612866516
 30
0.0
 11
100.3182374095543
 21
156.0497279533183
 31
0.0
 12
102.8182374095543
 22
156.4663946199849
 32
0.0
 13
102.8182374095543
 23
156.4663946199849
 33
0.0
  0
MTEXT
  5
777B
330
6C86
100
AcDbEntity
  8
0
  6
ByBlock
 62
     3
100
AcDbMText
 10
86.81823740955428
 20
158.9663946199849
 30
0.0
 40
3.0
 41
0.0
 71
     5
 72
     1
  1
\A1;\U+220532±0.5
  7
TXT
 73
     1
 44
1.0
  0
POINT
  5
777C
330
6C86
100
AcDbEntity
  8
DEFPOINTS
  6
ByBlock
 62
     0
100
AcDbPoint
 10
70.81823740955428
 20
135.065128516129
 30
0.0
  0
POINT
  5
777D
330
6C86
100
AcDbEntity
  8
DEFPOINTS
  6
ByBlock
 62
     0
100
AcDbPoint
 10
102.8182374095543
 20
135.065128516129
 30
0.0
  0
POINT
  5
777E
330
6C86
100
AcDbEntity
  8
DEFPOINTS
  6
ByBlock
 62
     0
100
AcDbPoint
 10
102.8182374095543
 20
156.4663946199849
 30
0.0
  0
ENDBLK
  5
777F
330
6C86
100
AcDbEntity
  8
0
100
AcDbBlockEnd
  0
BLOCK
  5
776A
330
6C9E
100
AcDbEntity
  8
0
100
AcDbBlockBegin
  2
*D5
 70
     1
 10
0.0
 20
0.0
 30
0.0
  3
*D5
  1

  0
LINE
  5
776B
330
6C9E
100
AcDbEntity
  8
0
  6
ByBlock
 62
     6
100
AcDbLine
 10
67.81823740955423
 20
134.9292367025156
 30
0.0
 11
67.81823740955423
 21
165.2570227261233
 31
0.0
  0
LINE
  5
776C
330
6C9E
100
AcDbEntity
  8
0
  6
ByBlock
 62
     6
100
AcDbLine
 10
105.8182374095543
 20
134.565128516129
 30
0.0
 11
105.8182374095543
 21
165.2570227261233
 31
0.0
  0
LINE
  5
776D
330
6C9E
100
AcDbEntity
  8
0
  6
ByBlock
 62
     6
100
AcDbLine
 10
70.31823740955423
 20
164.2570227261233
 30
0.0
 11
103.3182374095543
 21
164.2570227261233
 31
0.0
  0
MTEXT
  5
776E
330
6C9E
100
AcDbEntity
  8
0
  6
ByBlock
 62
     3
100
AcDbMText
 10
82.7491812816404
 20
168.1879550667368
 30
0.0
 40
3.0
 41
0.0
 71
     5
 72
     1
  1
\A1;\U+220538
  7
TXT
 73
     1
 44
1.0
  0
SOLID
  5
776F
330
6C9E
100
AcDbEntity
  8
0
  6
ByBlock
 62
     6
100
AcDbTrace
 10
70.31823740955423
 20
164.6736893927899
 30
0.0
 11
70.31823740955423
 21
163.8403560594566
 31
0.0
 12
67.81823740955423
 22
164.2570227261233
 32
0.0
 13
67.81823740955423
 23
164.2570227261233
 33
0.0
  0
SOLID
  5
7770
330
6C9E
100
AcDbEntity
  8
0
  6
ByBlock
 62
     6
100
AcDbTrace
 10
103.3182374095543
 20
164.6736893927899
 30
0.0
 11
103.3182374095543
 21
163.8403560594566
 31
0.0
 12
105.8182374095543
 22
164.2570227261233
 32
0.0
 13
105.8182374095543
 23
164.2570227261233
 33
0.0
  0
POINT
  5
7771
330
6C9E
100
AcDbEntity
  8
DEFPOINTS
  6
ByBlock
 62
     0
100
AcDbPoint
 10
67.81823740955423
 20
133.9292367025156
 30
0.0
  0
POINT
  5
7772
330
6C9E
100
AcDbEntity
  8
DEFPOINTS
  6
ByBlock
 62
     0
100
AcDbPoint
 10
105.8182374095543
 20
133.565128516129
 30
0.0
  0
POINT
  5
7773
330
6C9E
100
AcDbEntity
  8
DEFPOINTS
  6
ByBlock
 62
     0
100
AcDbPoint
 10
105.8182374095543
 20
164.2570227261233
 30
0.0
  0
ENDBLK
  5
7774
330
6C9E
100
AcDbEntity
  8
0
100
AcDbBlockEnd
  0
BLOCK
  5
7739
330
6FE3
100
AcDbEntity
  8
0
100
AcDbBlockBegin
  2
*D6
 70
     1
 10
0.0
 20
0.0
 30
0.0
  3
*D6
  1

  0
LINE
  5
773A
330
6FE3
100
AcDbEntity
  8
0
  6
ByBlock
 62
     6
100
AcDbLine
 10
106.6842628133387
 20
122.62730634262
 30
0.0
 11
135.7132780018724
 21
105.8673966092103
 31
0.0
  0
LINE
  5
773B
330
6FE3
100
AcDbEntity
  8
0
  6
ByBlock
 62
     6
100
AcDbLine
 10
103.1842628133387
 20
116.565128516129
 30
0.0
 11
132.2132780018724
 21
99.80521878271927
 31
0.0
  0
LINE
  5
773C
330
6FE3
100
AcDbEntity
  8
0
  6
ByBlock
 62
     6
100
AcDbLine
 10
136.097252598088
 20
108.5324601186713
 30
0.0
 11
137.347252598088
 21
110.6975236281324
 31
0.0
  0
LINE
  5
773D
330
6FE3
100
AcDbEntity
  8
0
  6
ByBlock
 62
     6
100
AcDbLine
 10
130.097252598088
 20
98.14015527325819
 30
0.0
 11
128.847252598088
 21
95.97509176379707
 31
0.0
  0
LINE
  5
773E
330
6FE3
100
AcDbEntity
  8
0
  6
ByBlock
 62
     6
100
AcDbLine
 10
144.8469859568909
 20
123.6874428487982
 30
0.0
 11
134.847252598088
 21
106.3673966092103
 31
0.0
  0
MTEXT
  5
773F
330
6FE3
100
AcDbEntity
  8
0
  6
ByBlock
 62
     3
100
AcDbMText
 10
139.1569224474298
 20
118.8319637521179
 30
0.0
 40
3.0
 41
0.0
 71
     5
 72
     1
  1
\A1;7±0.5
  7
TXT
 11
0.5000000000000026
 21
0.8660254037844371
 31
0.0
 73
     1
 44
1.0
  0
LINE
  5
7740
330
6FE3
100
AcDbEntity
  8
0
  6
ByBlock
 62
     6
100
AcDbLine
 10
134.847252598088
 20
106.3673966092103
 30
0.0
 11
131.347252598088
 21
100.3052187827192
 31
0.0
  0
SOLID
  5
7741
330
6FE3
100
AcDbEntity
  8
0
  6
ByBlock
 62
     6
100
AcDbTrace
 10
135.7364086798445
 20
108.7407934520047
 30
0.0
 11
136.4580965163315
 21
108.324126785338
 31
0.0
 12
134.847252598088
 22
106.3673966092103
 32
0.0
 13
134.847252598088
 23
106.3673966092103
 33
0.0
  0
SOLID
  5
7742
330
6FE3
100
AcDbEntity
  8
0
  6
ByBlock
 62
     6
100
AcDbTrace
 10
129.7364086798445
 20
98.3484886065915
 30
0.0
 11
130.4580965163315
 21
97.93182193992485
 31
0.0
 12
131.347252598088
 22
100.3052187827192
 32
0.0
 13
131.347252598088
 23
100.3052187827192
 33
0.0
  0
POINT
  5
7743
330
6FE3
100
AcDbEntity
  8
DEFPOINTS
  6
ByBlock
 62
     0
100
AcDbPoint
 10
105.8182374095543
 20
123.1273063426201
 30
0.0
  0
POINT
  5
7744
330
6FE3
100
AcDbEntity
  8
DEFPOINTS
  6
ByBlock
 62
     0
100
AcDbPoint
 10
102.3182374095543
 20
117.065128516129
 30
0.0
  0
POINT
  5
7745
330
6FE3
100
AcDbEntity
  8
DEFPOINTS
  6
ByBlock
 62
     0
100
AcDbPoint
 10
131.347252598088
 20
100.3052187827192
 30
0.0
  0
ENDBLK
  5
7746
330
6FE3
100
AcDbEntity
  8
0
100
AcDbBlockEnd
  0
BLOCK
  5
74C7
330
74B6
100
AcDbEntity
  8
0
100
AcDbBlockBegin
  2
*D7
 70
     1
 10
0.0
 20
0.0
 30
0.0
  3
*D7
  1

  0
LINE
  5
74C8
330
74B6
100
AcDbEntity
  8
0
  6
ByBlock
 62
     6
100
AcDbLine
 10
281.5280112732662
 20
127.8282283986601
 30
0.0
 11
266.5791148737775
 21
127.8282283986601
 31
0.0
  0
LINE
  5
74C9
330
74B6
100
AcDbEntity
  8
0
  6
ByBlock
 62
     6
100
AcDbLine
 10
279.5280112732661
 20
127.3282283986601
 30
0.0
 11
266.5791148737775
 21
127.3282283986601
 31
0.0
  0
LINE
  5
74CA
330
74B6
100
AcDbEntity
  8
0
  6
ByBlock
 62
     6
100
AcDbLine
 10
267.5791148737775
 20
130.3282283986601
 30
0.0
 11
267.5791148737775
 21
132.8282283986601
 31
0.0
  0
LINE
  5
74CB
330
74B6
100
AcDbEntity
  8
0
  6
ByBlock
 62
     6
100
AcDbLine
 10
267.5791148737775
 20
124.8282283986601
 30
0.0
 11
267.5791148737775
 21
122.3282283986601
 31
0.0
  0
LINE
  5
74CC
330
74B6
100
AcDbEntity
  8
0
  6
ByBlock
 62
     6
100
AcDbLine
 10
267.5791148737775
 20
141.7382256598102
 30
0.0
 11
267.5791148737775
 21
127.8282283986601
 31
0.0
  0
MTEXT
  5
74CD
330
74B6
100
AcDbEntity
  8
0
  6
ByBlock
 62
     3
100
AcDbMText
 10
265.0791148737775
 20
137.9882256598103
 30
0.0
 40
3.0
 41
0.0
 71
     5
 72
     1
  1
\A1;0.5
  7
TXT
 11
0.0000000000000001
 21
1.0
 31
0.0
 73
     1
 44
1.0
  0
LINE
  5
74CE
330
74B6
100
AcDbEntity
  8
0
  6
ByBlock
 62
     6
100
AcDbLine
 10
267.5791148737775
 20
127.8282283986601
 30
0.0
 11
267.5791148737775
 21
127.3282283986601
 31
0.0
  0
SOLID
  5
74CF
330
74B6
100
AcDbEntity
  8
0
  6
ByBlock
 62
     6
100
AcDbTrace
 10
267.1624482071108
 20
130.3282283986601
 30
0.0
 11
267.9957815404442
 21
130.3282283986601
 31
0.0
 12
267.5791148737775
 22
127.8282283986601
 32
0.0
 13
267.5791148737775
 23
127.8282283986601
 33
0.0
  0
SOLID
  5
74D0
330
74B6
100
AcDbEntity
  8
0
  6
ByBlock
 62
     6
100
AcDbTrace
 10
267.1624482071108
 20
124.8282283986601
 30
0.0
 11
267.9957815404442
 21
124.8282283986601
 31
0.0
 12
267.5791148737775
 22
127.3282283986601
 32
0.0
 13
267.5791148737775
 23
127.3282283986601
 33
0.0
  0
POINT
  5
74D1
330
74B6
100
AcDbEntity
  8
DEFPOINTS
  6
ByBlock
 62
     0
100
AcDbPoint
 10
282.5280112732662
 20
127.8282283986601
 30
0.0
  0
POINT
  5
74D2
330
74B6
100
AcDbEntity
  8
DEFPOINTS
  6
ByBlock
 62
     0
100
AcDbPoint
 10
280.5280112732662
 20
127.3282283986601
 30
0.0
  0
POINT
  5
74D3
330
74B6
100
AcDbEntity
  8
DEFPOINTS
  6
ByBlock
 62
     0
100
AcDbPoint
 10
267.5791148737775
 20
127.3282283986601
 30
0.0
  0
ENDBLK
  5
74D4
330
74B6
100
AcDbEntity
  8
0
100
AcDbBlockEnd
  0
BLOCK
  5
77B2
330
7501
100
AcDbEntity
  8
0
100
AcDbBlockBegin
  2
*D8
 70
     1
 10
0.0
 20
0.0
 30
0.0
  3
*D8
  1

  0
LINE
  5
77B3
330
7501
100
AcDbEntity
  8
0
  6
ByBlock
 62
     6
100
AcDbLine
 10
76.31823740955423
 20
136.065128516129
 30
0.0
 11
76.31823740955423
 21
149.4132569226559
 31
0.0
  0
LINE
  5
77B4
330
7501
100
AcDbEntity
  8
0
  6
ByBlock
 62
     6
100
AcDbLine
 10
97.31823740955428
 20
136.065128516129
 30
0.0
 11
97.31823740955428
 21
149.4132569226559
 31
0.0
  0
LINE
  5
77B5
330
7501
100
AcDbEntity
  8
0
  6
ByBlock
 62
     6
100
AcDbLine
 10
78.81823740955423
 20
148.4132569226559
 30
0.0
 11
94.81823740955428
 21
148.4132569226559
 31
0.0
  0
SOLID
  5
77B6
330
7501
100
AcDbEntity
  8
0
  6
ByBlock
 62
     6
100
AcDbTrace
 10
78.81823740955423
 20
148.8299235893226
 30
0.0
 11
78.81823740955423
 21
147.9965902559893
 31
0.0
 12
76.31823740955423
 22
148.4132569226559
 32
0.0
 13
76.31823740955423
 23
148.4132569226559
 33
0.0
  0
SOLID
  5
77B7
330
7501
100
AcDbEntity
  8
0
  6
ByBlock
 62
     6
100
AcDbTrace
 10
94.81823740955428
 20
148.8299235893226
 30
0.0
 11
94.81823740955428
 21
147.9965902559893
 31
0.0
 12
97.31823740955428
 22
148.4132569226559
 32
0.0
 13
97.31823740955428
 23
148.4132569226559
 33
0.0
  0
MTEXT
  5
77B8
330
7501
100
AcDbEntity
  8
0
  6
ByBlock
 62
     3
100
AcDbMText
 10
86.81823740955426
 20
150.9132569226559
 30
0.0
 40
3.0
 41
0.0
 71
     5
 72
     1
  1
\A1;\U+220521
  7
TXT
 73
     1
 44
1.0
  0
POINT
  5
77B9
330
7501
100
AcDbEntity
  8
DEFPOINTS
  6
ByBlock
 62
     0
100
AcDbPoint
 10
76.31823740955423
 20
135.065128516129
 30
0.0
  0
POINT
  5
77BA
330
7501
100
AcDbEntity
  8
DEFPOINTS
  6
ByBlock
 62
     0
100
AcDbPoint
 10
97.31823740955428
 20
135.065128516129
 30
0.0
  0
POINT
  5
77BB
330
7501
100
AcDbEntity
  8
DEFPOINTS
  6
ByBlock
 62
     0
100
AcDbPoint
 10
97.31823740955428
 20
148.4132569226559
 30
0.0
  0
ENDBLK
  5
77BC
330
7501
100
AcDbEntity
  8
0
100
AcDbBlockEnd
  0
BLOCK
  5
7752
330
755C
100
AcDbEntity
  8
0
100
AcDbBlockBegin
  2
*D9
 70
     1
 10
0.0
 20
0.0
 30
0.0
  3
*D9
  1

  0
LINE
  5
7753
330
755C
100
AcDbEntity
  8
0
  6
ByBlock
 62
     6
100
AcDbLine
 10
103.8182374095543
 20
135.065128516129
 30
0.0
 11
123.3797949538161
 21
135.065128516129
 31
0.0
  0
LINE
  5
7754
330
755C
100
AcDbEntity
  8
0
  6
ByBlock
 62
     6
100
AcDbLine
 10
105.0682374095543
 20
120.0962174293745
 30
0.0
 11
123.3797949538161
 21
120.0962174293745
 31
0.0
  0
LINE
  5
7755
330
755C
100
AcDbEntity
  8
0
  6
ByBlock
 62
     6
100
AcDbLine
 10
122.3797949538161
 20
132.565128516129
 30
0.0
 11
122.3797949538161
 21
122.5962174293745
 31
0.0
  0
SOLID
  5
7756
330
755C
100
AcDbEntity
  8
0
  6
ByBlock
 62
     6
100
AcDbTrace
 10
121.9631282871495
 20
132.565128516129
 30
0.0
 11
122.7964616204828
 21
132.565128516129
 31
0.0
 12
122.3797949538161
 22
135.065128516129
 32
0.0
 13
122.3797949538161
 23
135.065128516129
 33
0.0
  0
SOLID
  5
7757
330
755C
100
AcDbEntity
  8
0
  6
ByBlock
 62
     6
100
AcDbTrace
 10
121.9631282871495
 20
122.5962174293745
 30
0.0
 11
122.7964616204828
 21
122.5962174293745
 31
0.0
 12
122.3797949538161
 22
120.0962174293745
 32
0.0
 13
122.3797949538161
 23
120.0962174293745
 33
0.0
  0
MTEXT
  5
7758
330
755C
100
AcDbEntity
  8
0
  6
ByBlock
 62
     3
100
AcDbMText
 10
119.8797949538161
 20
127.5806729727517
 30
0.0
 40
3.0
 41
0.0
 71
     5
 72
     1
  1
\A1;15
  7
TXT
 11
0.0000000000000001
 21
1.0
 31
0.0
 73
     1
 44
1.0
  0
POINT
  5
7759
330
755C
100
AcDbEntity
  8
DEFPOINTS
  6
ByBlock
 62
     0
100
AcDbPoint
 10
102.8182374095543
 20
135.065128516129
 30
0.0
  0
POINT
  5
775A
330
755C
100
AcDbEntity
  8
DEFPOINTS
  6
ByBlock
 62
     0
100
AcDbPoint
 10
104.0682374095543
 20
120.0962174293745
 30
0.0
  0
POINT
  5
775B
330
755C
100
AcDbEntity
  8
DEFPOINTS
  6
ByBlock
 62
     0
100
AcDbPoint
 10
122.3797949538161
 20
120.0962174293745
 30
0.0
  0
ENDBLK
  5
775C
330
755C
100
AcDbEntity
  8
0
100
AcDbBlockEnd
  0
BLOCK
  5
7747
330
7569
100
AcDbEntity
  8
0
100
AcDbBlockBegin
  2
*D10
 70
     1
 10
0.0
 20
0.0
 30
0.0
  3
*D10
  1

  0
LINE
  5
7748
330
7569
100
AcDbEntity
  8
0
  6
ByBlock
 62
     6
100
AcDbLine
 10
103.3182374095542
 20
117.065128516129
 30
0.0
 11
131.5481342145826
 21
117.065128516129
 31
0.0
  0
LINE
  5
7749
330
7569
100
AcDbEntity
  8
0
  6
ByBlock
 62
     6
100
AcDbLine
 10
103.3182374095542
 20
135.065128516129
 30
0.0
 11
131.5481342145826
 21
135.065128516129
 31
0.0
  0
LINE
  5
774A
330
7569
100
AcDbEntity
  8
0
  6
ByBlock
 62
     6
100
AcDbLine
 10
130.5481342145826
 20
119.5651285161289
 30
0.0
 11
130.5481342145826
 21
132.565128516129
 31
0.0
  0
SOLID
  5
774B
330
7569
100
AcDbEntity
  8
0
  6
ByBlock
 62
     6
100
AcDbTrace
 10
130.131467547916
 20
119.5651285161289
 30
0.0
 11
130.9648008812493
 21
119.5651285161289
 31
0.0
 12
130.5481342145826
 22
117.065128516129
 32
0.0
 13
130.5481342145826
 23
117.065128516129
 33
0.0
  0
SOLID
  5
774C
330
7569
100
AcDbEntity
  8
0
  6
ByBlock
 62
     6
100
AcDbTrace
 10
130.131467547916
 20
132.565128516129
 30
0.0
 11
130.9648008812493
 21
132.565128516129
 31
0.0
 12
130.5481342145826
 22
135.065128516129
 32
0.0
 13
130.5481342145826
 23
135.065128516129
 33
0.0
  0
MTEXT
  5
774D
330
7569
100
AcDbEntity
  8
0
  6
ByBlock
 62
     3
100
AcDbMText
 10
128.0481342145826
 20
126.065128516129
 30
0.0
 40
3.0
 41
0.0
 71
     5
 72
     1
  1
\A1;18±0.2
  7
TXT
 11
0.0000000000000001
 21
1.0
 31
0.0
 73
     1
 44
1.0
  0
POINT
  5
774E
330
7569
100
AcDbEntity
  8
DEFPOINTS
  6
ByBlock
 62
     0
100
AcDbPoint
 10
102.3182374095542
 20
117.065128516129
 30
0.0
  0
POINT
  5
774F
330
7569
100
AcDbEntity
  8
DEFPOINTS
  6
ByBlock
 62
     0
100
AcDbPoint
 10
102.3182374095542
 20
135.065128516129
 30
0.0
  0
POINT
  5
7750
330
7569
100
AcDbEntity
  8
DEFPOINTS
  6
ByBlock
 62
     0
100
AcDbPoint
 10
130.5481342145826
 20
135.065128516129
 30
0.0
  0
ENDBLK
  5
7751
330
7569
100
AcDbEntity
  8
0
100
AcDbBlockEnd
  0
BLOCK
  5
7799
330
7576
100
AcDbEntity
  8
0
100
AcDbBlockBegin
  2
*D11
 70
     1
 10
0.0
 20
0.0
 30
0.0
  3
*D11
  1

  0
LINE
  5
779A
330
7576
100
AcDbEntity
  8
0
  6
ByBlock
 62
     6
100
AcDbLine
 10
96.31823740955429
 20
133.065128516129
 30
0.0
 11
93.83773202763928
 21
133.065128516129
 31
0.0
  0
LINE
  5
779B
330
7576
100
AcDbEntity
  8
0
  6
ByBlock
 62
     6
100
AcDbLine
 10
101.8182374095543
 20
135.065128516129
 30
0.0
 11
93.83773202763928
 21
135.065128516129
 31
0.0
  0
LINE
  5
779C
330
7576
100
AcDbEntity
  8
0
  6
ByBlock
 62
     6
100
AcDbLine
 10
94.83773202763927
 20
130.565128516129
 30
0.0
 11
94.83773202763927
 21
128.065128516129
 31
0.0
  0
LINE
  5
779D
330
7576
100
AcDbEntity
  8
0
  6
ByBlock
 62
     6
100
AcDbLine
 10
94.83773202763927
 20
137.565128516129
 30
0.0
 11
94.83773202763927
 21
140.065128516129
 31
0.0
  0
LINE
  5
779E
330
7576
100
AcDbEntity
  8
0
  6
ByBlock
 62
     6
100
AcDbLine
 10
94.83773202763927
 20
144.3264541102819
 30
0.0
 11
94.83773202763927
 21
135.065128516129
 31
0.0
  0
MTEXT
  5
779F
330
7576
100
AcDbEntity
  8
0
  6
ByBlock
 62
     3
100
AcDbMText
 10
92.33773202763927
 20
142.3264541102819
 30
0.0
 40
3.0
 41
0.0
 71
     5
 72
     1
  1
\A1;2
  7
TXT
 11
0.0000000000000001
 21
1.0
 31
0.0
 73
     1
 44
1.0
  0
LINE
  5
77A0
330
7576
100
AcDbEntity
  8
0
  6
ByBlock
 62
     6
100
AcDbLine
 10
94.83773202763927
 20
133.065128516129
 30
0.0
 11
94.83773202763927
 21
135.065128516129
 31
0.0
  0
SOLID
  5
77A1
330
7576
100
AcDbEntity
  8
0
  6
ByBlock
 62
     6
100
AcDbTrace
 10
94.42106536097261
 20
130.565128516129
 30
0.0
 11
95.25439869430595
 21
130.565128516129
 31
0.0
 12
94.83773202763927
 22
133.065128516129
 32
0.0
 13
94.83773202763927
 23
133.065128516129
 33
0.0
  0
SOLID
  5
77A2
330
7576
100
AcDbEntity
  8
0
  6
ByBlock
 62
     6
100
AcDbTrace
 10
94.42106536097261
 20
137.565128516129
 30
0.0
 11
95.25439869430595
 21
137.565128516129
 31
0.0
 12
94.83773202763927
 22
135.065128516129
 32
0.0
 13
94.83773202763927
 23
135.065128516129
 33
0.0
  0
POINT
  5
77A3
330
7576
100
AcDbEntity
  8
DEFPOINTS
  6
ByBlock
 62
     0
100
AcDbPoint
 10
97.31823740955428
 20
133.065128516129
 30
0.0
  0
POINT
  5
77A4
330
7576
100
AcDbEntity
  8
DEFPOINTS
  6
ByBlock
 62
     0
100
AcDbPoint
 10
102.8182374095543
 20
135.065128516129
 30
0.0
  0
POINT
  5
77A5
330
7576
100
AcDbEntity
  8
DEFPOINTS
  6
ByBlock
 62
     0
100
AcDbPoint
 10
94.83773202763927
 20
135.065128516129
 30
0.0
  0
ENDBLK
  5
77A6
330
7576
100
AcDbEntity
  8
0
100
AcDbBlockEnd
  0
BLOCK
  5
75EC
330
75C5
100
AcDbEntity
  8
0
100
AcDbBlockBegin
  2
*D12
 70
     1
 10
0.0
 20
0.0
 30
0.0
  3
*D12
  1

  0
LINE
  5
75ED
330
75C5
100
AcDbEntity
  8
0
  6
ByBlock
 62
     6
100
AcDbLine
 10
317.5277139220122
 20
111.8654178429788
 30
0.0
 11
356.8881615071541
 21
89.50714572192518
 31
0.0
  0
LINE
  5
75EE
330
75C5
100
AcDbEntity
  8
0
  6
ByBlock
 62
     6
100
AcDbLine
 10
315.5280112732662
 20
127.8282283986601
 30
0.0
 11
367.0124085077471
 21
127.8282283986599
 31
0.0
  0
ARC
  5
75EF
330
75C5
100
AcDbEntity
  8
0
  6
ByBlock
 62
     6
100
AcDbCircle
 10
289.4261072868198
 20
127.8282283986601
 30
0.0
 40
76.58630122092728
100
AcDbArc
 50
332.272116617284
 51
358.1296157817629
  0
SOLID
  5
75F0
330
75C5
100
AcDbEntity
  8
0
  6
ByBlock
 62
     6
100
AcDbTrace
 10
357.5834033793372
 20
91.99484240836007
 30
0.0
 11
356.8521904929992
 21
92.39455750602058
 31
0.0
 12
356.0186516431867
 22
90.00106129817643
 32
0.0
 13
356.0186516431867
 23
90.00106129817643
 33
0.0
  0
SOLID
  5
75F1
330
75C5
100
AcDbEntity
  8
0
  6
ByBlock
 62
     6
100
AcDbTrace
 10
365.5549937009066
 20
125.3353620152381
 30
0.0
 11
366.3882160310348
 21
125.3217608013127
 31
0.0
 12
366.0124085077471
 22
127.8282283986599
 32
0.0
 13
366.0124085077471
 23
127.8282283986599
 33
0.0
  0
MTEXT
  5
75F2
330
75C5
100
AcDbEntity
  8
0
  6
ByBlock
 62
     3
100
AcDbMText
 10
361.0547621834832
 20
108.9042799128744
 30
0.0
 40
3.0
 41
0.0
 71
     5
 72
     1
  1
\A1;30°
  7
TXT
 11
0.2554311414380615
 21
0.9668272503315414
 31
0.0
 73
     1
 44
1.0
  0
POINT
  5
75F3
330
75C5
100
AcDbEntity
  8
DEFPOINTS
  6
ByBlock
 62
     0
100
AcDbPoint
 10
361.515343401074
 20
101.9708586336218
 30
0.0
  0
POINT
  5
75F4
330
75C5
100
AcDbEntity
  8
DEFPOINTS
  6
ByBlock
 62
     0
100
AcDbPoint
 10
282.5280112732662
 20
127.8282283986601
 30
0.0
  0
POINT
  5
75F5
330
75C5
100
AcDbEntity
  8
DEFPOINTS
  6
ByBlock
 62
     0
100
AcDbPoint
 10
316.6582040580449
 20
112.3593334192301
 30
0.0
  0
POINT
  5
75F6
330
75C5
100
AcDbEntity
  8
DEFPOINTS
  6
ByBlock
 62
     0
100
AcDbPoint
 10
306.2296539891625
 20
118.2831573230041
 30
0.0
  0
POINT
  5
75F7
330
75C5
100
AcDbEntity
  8
DEFPOINTS
  6
ByBlock
 62
     0
100
AcDbPoint
 10
314.5280112732661
 20
127.8282283986601
 30
0.0
  0
ENDBLK
  5
75F8
330
75C5
100
AcDbEntity
  8
0
100
AcDbBlockEnd
  0
ENDSEC
  0
SECTION
  2
ENTITIES
  0
MTEXT
  5
C0
330
18
100
AcDbEntity
  8
0
100
AcDbMText
 10
41.26970765600413
 20
233.6950877649332
 30
0.0
 40
2.5
 41
0.0
 71
     1
 72
     5
  1

  7
ISOCP3
 73
     1
 44
1.0
  0
MTEXT
  5
4FE4
330
18
100
AcDbEntity
  8
公差
100
AcDbMText
 10
77.86408678232806
 20
187.5792198653181
 30
0.0
 40
2.0
 41
9.555074525974475
 71
     1
 72
     5
  1
+0.15\P+0
  7
TXT
 73
     1
 44
1.0
  0
MTEXT
  5
4FE5
330
18
100
AcDbEntity
  8
公差
100
AcDbMText
 10
49.02197870268071
 20
212.7286013113063
 30
0.0
 40
2.0
 41
8.84945634767439
 71
     1
 72
     5
  1
+0.15\P+0
  7
TXT
 11
0.0000000000000001
 21
1.0
 31
0.0
 73
     1
 44
1.0
  0
MTEXT
  5
503F
330
18
100
AcDbEntity
  8
公差
100
AcDbMText
 10
87.93292882568982
 20
170.8007616373122
 30
0.0
 40
2.0
 41
11.48459459716352
 71
     1
 72
     5
  1
+0\P-0.2
  7
TXT
 73
     1
 44
1.0
  0
LINE
  5
5AD6
330
18
100
AcDbEntity
  8
DIM
100
AcDbLine
 10
130.5481342145826
 20
135.065128516129
 30
0.0
 11
130.5481342145826
 21
151.5918549712528
 31
0.0
  0
LINE
  5
5AD7
330
18
100
AcDbEntity
  8
DIM
100
AcDbLine
 10
130.5481342145826
 20
151.5918549712528
 30
0.0
 11
142.6998743408301
 21
151.5918549712528
 31
0.0
  0
LINE
  5
5ADA
330
18
100
AcDbEntity
  8
DIM
100
AcDbLine
 10
76.81823740955417
 20
103.425779001421
 30
0.0
 11
76.81823740955417
 21
92.83237392629798
 31
0.0
  0
TOLERANCE
  5
5E6E
330
18
100
AcDbEntity
  8
DIM
  6
ByBlock
100
AcDbFcf
  3
A
 10
142.6998743408301
 20
151.6427934073838
 30
0.0
  1
{\Fgdt;h}%%v0.005%%v%%vA%%v%%v
1001
ACAD
1000
DSTYLE
1002
{
1070
   140
1040
2.743999999999999
1070
   147
1040
0.6859999999999999
1002
}
  0
MTEXT
  5
608E
330
18
100
AcDbEntity
  8
0
100
AcDbMText
 10
17.81948278949767
 20
19.37399834316261
 30
0.0
 40
5.0
 41
0.0
 71
     1
 72
     5
  1
\Ftxt.shx,bigfont.shx|c128;呉銘宏
  7
JL
 73
     1
 44
1.0
  0
MTEXT
  5
6095
330
18
100
AcDbEntity
  8
0
100
AcDbMText
 10
81.23517665196368
 20
29.2278230533891
 30
0.0
 40
4.5
 41
0.0
 71
     1
 72
     5
  1
\Ftxt.shx,bigfont.shx|c128;1 : 1
  7
JL
 73
     1
 44
1.0
  0
MTEXT
  5
6098
330
18
100
AcDbEntity
  8
0
 48
2.0
370
    25
100
AcDbMText
 10
146.1234268906314
 20
3.636969934829039
 30
0.0
 40
4.5
 41
0.0
 71
     5
 72
     1
  1
\Ftxt.shx,bigfont.shx|c128;N L 4 0 0 0 1
 73
     1
 44
1.0
  0
MTEXT
  5
609C
330
18
100
AcDbEntity
  8
0
 48
2.0
100
AcDbMText
 10
178.1300746997774
 20
22.17550270047843
 30
0.0
 40
4.5
 41
0.0
 71
     5
 72
     1
  1
\P\Ftxt.shx,bigfont.shx|c128;    MF20X1.0P
 73
     1
 44
1.0
  0
MTEXT
  5
635A
330
18
100
AcDbEntity
  8
0
100
AcDbMText
 10
16.02348109109539
 20
28.64592585511957
 30
0.0
 40
4.5
 41
0.0
 71
     1
 72
     5
  1
\Ftxt.shx,bigfont.shx|c128;05.03.01
  7
JL
 73
     1
 44
1.0
  0
INSERT
  5
63A3
330
18
100
AcDbEntity
  8
0
100
AcDbBlockReference
  2
A$C255C26A2
 10
115.6553138353456
 20
135.0651278221478
 30
0.0
  0
MTEXT
  5
63A4
330
18
100
AcDbEntity
  8
0
 62
     7
 48
2.0
100
AcDbMText
 10
119.7491165842018
 20
139.9606787891664
 30
0.0
 40
3.0
 41
0.0
 71
     5
 72
     1
  1
G
 73
     1
 44
1.0
  0
LEADER
  5
63C9
330
18
100
AcDbEntity
  8
DIM
 62
     6
100
AcDbLeader
  3
A
 76
     2
 10
103.2851854385107
 20
218.9082000028195
 30
0.0
 10
115.9354896067629
 20
230.1263495890015
 30
0.0
  0
LEADER
  5
63CA
330
18
100
AcDbEntity
  8
DIM
 62
     6
100
AcDbLeader
  3
A
 76
     2
 10
97.55897073892317
 20
125.1705661973847
 30
0.0
 10
113.1369319439425
 20
153.5296438737116
 30
0.0
  0
LEADER
  5
63CB
330
18
100
AcDbEntity
  8
DIM
 62
     6
100
AcDbLeader
  3
A
 76
     2
 10
104.0682374095543
 20
120.0962174293745
 30
0.0
 10
115.262499786696
 20
97.12710692046858
 30
0.0
  0
MTEXT
  5
63CC
330
18
100
AcDbEntity
  8
DIM
100
AcDbMText
 10
112.4612033505962
 20
159.2782394387283
 30
0.0
 40
5.0
 41
1.0
 71
     1
 72
     5
  1
\Ftxt.shx,bigfont.shx|c128;3
 73
     1
 44
1.0
  0
MTEXT
  5
63CD
330
18
100
AcDbEntity
  8
DIM
100
AcDbMText
 10
118.0815181428738
 20
233.98184462491
 30
0.0
 40
5.0
 41
1.0
 71
     1
 72
     5
  1
\Ftxt.shx,bigfont.shx|c128;1
 73
     1
 44
1.0
  0
MTEXT
  5
63CE
330
18
100
AcDbEntity
  8
DIM
100
AcDbMText
 10
114.3224156855199
 20
95.89925824167467
 30
0.0
 40
5.0
 41
1.0
 71
     1
 72
     5
  1
\Ftxt.shx,bigfont.shx|c128;2
 73
     1
 44
1.0
  0
LINE
  5
63CF
330
18
100
AcDbEntity
  8
DIM
100
AcDbLine
 10
76.81823740955417
 20
92.83237392629798
 30
0.0
 11
77.73069575777975
 21
91.8544998305729
 31
0.0
  0
HATCH
  5
63D0
330
18
100
AcDbEntity
  8
DIM
  6
Continuous
100
AcDbHatch
 10
0.0
 20
0.0
 30
0.0
210
0.0
220
0.0
230
1.0
  2
SOLID
 70
     1
 71
     0
 91
        1
 92
        7
 72
     0
 73
     1
 93
        3
 10
76.81711329510159
 20
90.84868553131746
 10
77.73584538370164
 20
91.83349332656119
 10
76.81711329510159
 20
92.81830112180491
 97
        0
 75
     0
 76
     1
 47
0.2359147607200769
 98
        1
 10
77.10492929133238
 20
92.04496933225271
450
        0
451
        0
460
0.0
461
0.0
452
        0
462
0.0
453
        0
470

  0
LINE
  5
63D1
330
18
100
AcDbEntity
  8
DIM
100
AcDbLine
 10
82.47778856447581
 20
90.0408460264134
 30
0.0
 11
82.47778856447581
 21
93.68714481643454
 31
0.0
  0
LINE
  5
63D2
330
18
100
AcDbEntity
  8
DIM
100
AcDbLine
 10
82.47778856447581
 20
93.68714481643454
 30
0.0
 11
86.2864238099865
 21
93.68714481643454
 31
0.0
  0
LINE
  5
63D3
330
18
100
AcDbEntity
  8
DIM
100
AcDbLine
 10
86.2864238099865
 20
90.0408460264134
 30
0.0
 11
86.2864238099865
 21
93.68714481643454
 31
0.0
  0
LINE
  5
63D4
330
18
100
AcDbEntity
  8
DIM
100
AcDbLine
 10
82.47778856447581
 20
90.0408460264134
 30
0.0
 11
86.2864238099865
 21
90.0408460264134
 31
0.0
  0
LINE
  5
63D5
330
18
100
AcDbEntity
  8
DIM
100
AcDbLine
 10
82.47778856447581
 20
91.86399542142396
 30
0.0
 11
77.71699472875275
 21
91.86399542142396
 31
0.0
  0
MTEXT
  5
63D6
330
18
100
AcDbEntity
  8
DIM
100
AcDbMText
 10
83.43502628691544
 20
93.35581310066102
 30
0.0
 40
3.0
 41
2.354875985554478
 71
     1
 72
     5
  1
A
  7
ISOCP3
 73
     1
 44
1.0
  0
LINE
  5
64AF
330
18
100
AcDbEntity
  8
図框線
100
AcDbLine
 10
197.9999999999997
 20
289.9999999999999
 30
0.0
 11
197.9999999999997
 21
-0.0000000000000568
 31
0.0
  0
LINE
  5
64B0
330
18
100
AcDbEntity
  8
図框線
370
    30
100
AcDbLine
 10
-0.0000000000002274
 20
0.0
 30
0.0
 11
-0.0000000000002274
 21
290.0
 31
0.0
  0
LINE
  5
64B1
330
18
100
AcDbEntity
  8
0
 62
     7
 48
5.0
100
AcDbLine
 39
4.0
 10
49.94750515634314
 20
27.8953239783782
 30
0.0
 11
55.27930887205229
 21
29.22827490730549
 31
0.0
  0
MTEXT
  5
64B2
330
18
100
AcDbEntity
  8
0
100
AcDbMText
 10
15.97866977158742
 20
9.63134010478825
 30
0.0
 40
6.0
 41
0.0
 71
     1
 72
     5
  1
\Ftxt.shx,bigfont.shx|c128;日機株式会社
  7
LKK
 73
     1
 44
1.0
  0
LINE
  5
64B3
330
18
100
AcDbEntity
  8
図框線
100
AcDbLine
 10
0.0
 20
0.0
 30
0.0
 11
197.9999999999997
 21
0.0
 31
0.0
  0
LINE
  5
64B7
330
18
100
AcDbEntity
  8
図框線
100
AcDbLine
 10
0.0
 20
12.0
 30
0.0
 11
197.9999999999997
 21
12.00000000000005
 31
0.0
  0
LINE
  5
64B8
330
18
100
AcDbEntity
  8
図框線
100
AcDbLine
 10
0.0
 20
22.0
 30
0.0
 11
96.0
 21
22.0
 31
0.0
  0
LINE
  5
64B9
330
18
100
AcDbEntity
  8
図框線
100
AcDbLine
 10
0.0
 20
32.0
 30
0.0
 11
197.9999999999997
 21
32.0
 31
0.0
  0
LINE
  5
64BA
330
18
100
AcDbEntity
  8
図框線
100
AcDbLine
 10
12.0
 20
32.0
 30
0.0
 11
12.0
 21
12.0
 31
0.0
  0
LINE
  5
64BB
330
18
100
AcDbEntity
  8
図框線
100
AcDbLine
 10
32.0
 20
32.0
 30
0.0
 11
32.0
 21
12.0
 31
0.0
  0
MTEXT
  5
64BC
330
18
100
AcDbEntity
  8
0
100
AcDbMText
 10
2.949444248820782
 20
29.04715033351227
 30
0.0
 40
4.5
 41
0.0
 71
     1
 72
     5
  1
\Ftxt.shx,bigfont.shx|c128;日 付
  7
JL
 73
     1
 44
1.0
  0
MTEXT
  5
64BD
330
18
100
AcDbEntity
  8
0
100
AcDbMText
 10
3.095712364910014
 20
19.83833899470915
 30
0.0
 40
4.5
 41
0.0
 71
     1
 72
     5
  1
\Ftxt.shx,bigfont.shx|c128;製 図
  7
JL
 73
     1
 44
1.0
  0
LINE
  5
64C0
330
18
100
AcDbEntity
  8
0
 62
     7
370
    25
100
AcDbLine
 10
55.27930887205229
 20
23.89647119159633
 30
0.0
 11
55.27930887205229
 21
29.22827490730549
 31
0.0
  0
MTEXT
  5
64C1
330
18
100
AcDbEntity
  8
0
100
AcDbMText
 10
66.70254067332553
 20
29.42231870267847
 30
0.0
 40
4.5
 41
0.0
 71
     1
 72
     5
  1
\Ftxt.shx,bigfont.shx|c128;尺 度
  7
JL
 73
     1
 44
1.0
  0
LINE
  5
64C2
330
18
100
AcDbEntity
  8
図框線
100
AcDbLine
 10
64.0
 20
32.0
 30
0.0
 11
64.0
 21
12.0
 31
0.0
  0
LINE
  5
64C3
330
18
100
AcDbEntity
  8
0
 62
     7
370
    25
100
AcDbLine
 10
41.2833241183157
 20
23.23894871736115
 30
0.0
 11
41.2833241183157
 21
29.67466750005656
 31
0.0
  0
CIRCLE
  5
64C4
330
18
100
AcDbEntity
  8
0
 62
     7
100
AcDbCircle
 10
41.2833241183157
 20
26.5623730494508
 30
0.0
 40
2.665901857854641
  0
LINE
  5
64C6
330
18
100
AcDbEntity
  8
0
 62
     7
370
    25
100
AcDbLine
 10
49.18030281106076
 20
26.56237304945091
 30
0.0
 11
55.75797321903156
 21
26.56237304945091
 31
0.0
  0
LINE
  5
64C7
330
18
100
AcDbEntity
  8
0
 62
     7
100
AcDbLine
 10
49.94750515634314
 20
25.22942212052362
 30
0.0
 11
55.27930887205229
 21
23.89647119159633
 31
0.0
  0
LINE
  5
64C8
330
18
100
AcDbEntity
  8
図框線
100
AcDbLine
 10
44.0
 20
21.99999999999989
 30
0.0
 11
44.0
 21
12.0
 31
0.0
  0
LINE
  5
64C9
330
18
100
AcDbEntity
  8
0
 62
     7
370
    25
100
AcDbLine
 10
37.95172532843935
 20
26.5623730494508
 30
0.0
 11
44.81391594676916
 21
26.56237304945091
 31
0.0
  0
CIRCLE
  5
64CA
330
18
100
AcDbEntity
  8
0
 62
     7
100
AcDbCircle
 10
41.2833241183157
 20
26.5623730494508
 30
0.0
 40
1.33295092892732
  0
MTEXT
  5
64CB
330
18
100
AcDbEntity
  8
0
100
AcDbMText
 10
35.12086518039769
 20
19.39982343168049
 30
0.0
 40
4.5
 41
0.0
 71
     1
 72
     5
  1
\Ftxt.shx,bigfont.shx|c128;検 図
  7
JL
 73
     1
 44
1.0
  0
LINE
  5
64CC
330
18
100
AcDbEntity
  8
0
 62
     7
370
    25
100
AcDbLine
 10
49.94750515634314
 20
25.22942212052362
 30
0.0
 11
49.94750515634314
 21
27.8953239783782
 31
0.0
  0
MTEXT
  5
64CD
330
18
100
AcDbEntity
  8
0
100
AcDbMText
 10
66.99507418337498
 20
19.62882052001464
 30
0.0
 40
4.5
 41
0.0
 71
     1
 72
     5
  1
\Ftxt.shx,bigfont.shx|c128;承 認
  7
JL
 73
     1
 44
1.0
  0
LINE
  5
64CE
330
18
100
AcDbEntity
  8
図框線
100
AcDbLine
 10
132.615790078639
 20
43.13491348924492
 30
0.0
 11
192.615790078639
 21
43.13491348924481
 31
0.0
  0
LINE
  5
64CF
330
18
100
AcDbEntity
  8
図框線
100
AcDbLine
 10
132.615790078639
 20
50.33491348924497
 30
0.0
 11
192.615790078639
 21
50.33491348924497
 31
0.0
  0
LINE
  5
64D0
330
18
100
AcDbEntity
  8
図框線
100
AcDbLine
 10
132.615790078639
 20
57.5349134892449
 30
0.0
 11
192.615790078639
 21
57.53491348924478
 31
0.0
  0
LINE
  5
64D1
330
18
100
AcDbEntity
  8
図框線
100
AcDbLine
 10
132.615790078639
 20
64.73491348924494
 30
0.0
 11
192.615790078639
 21
64.73491348924483
 31
0.0
  0
LINE
  5
64D2
330
18
100
AcDbEntity
  8
図框線
100
AcDbLine
 10
132.615790078639
 20
35.93491348924488
 30
0.0
 11
192.615790078639
 21
35.93491348924488
 31
0.0
  0
MTEXT
  5
64D3
330
18
100
AcDbEntity
  8
0
 62
     7
 48
2.0
100
AcDbMText
 10
162.5011900445104
 20
65.52808189982909
 30
0.0
 40
4.8
 41
0.0
 71
     5
 72
     1
  1
\P\Ftxt.shx,bigfont.shx|c128;諸　　　　元
 73
     1
 44
1.0
  0
LINE
  5
64D5
330
18
100
AcDbEntity
  8
図框線
100
AcDbLine
 10
132.615790078639
 20
64.73491348924483
 30
0.0
 11
132.615790078639
 21
35.93491348924488
 31
0.0
  0
MTEXT
  5
64D6
330
18
100
AcDbEntity
  8
0
100
AcDbMText
 10
136.1382258923192
 20
56.00840432212407
 30
0.0
 40
4.4
 41
163.916286842249
 71
     1
 72
     5
  1
\Ftxt.shx,bigfont.shx|c128;熱　処　理
  7
JL
 73
     1
 44
1.0
  0
LINE
  5
64D7
330
18
100
AcDbEntity
  8
図框線
100
AcDbLine
 10
156.615790078639
 20
57.53491348924478
 30
0.0
 11
156.615790078639
 21
35.93491348924488
 31
0.0
  0
MTEXT
  5
64D8
330
18
100
AcDbEntity
  8
0
100
AcDbMText
 10
97.65702556263818
 20
11.15332144655735
 30
0.0
 40
5.0
 41
0.0
 71
     1
 72
     5
  1
\Ftxt.shx,bigfont.shx|c128;図  面  番  号
  7
JL
 73
     1
 44
1.0
  0
MTEXT
  5
64D9
330
18
100
AcDbEntity
  8
0
 62
     7
 48
2.0
100
AcDbMText
 10
121.8260850653862
 20
22.29156825453561
 30
0.0
 40
4.5
 41
0.0
 71
     5
 72
     1
  1
\P\Ftxt.shx,bigfont.shx|c128;    精密ロックナット
 73
     1
 44
1.0
  0
MTEXT
  5
64DA
330
18
100
AcDbEntity
  8
0
370
    25
100
AcDbMText
 10
98.8002923053598
 20
29.80688815403971
 30
0.0
 40
5.0
 41
0.0
 71
     1
 72
     5
  1
\Ftxt.shx,bigfont.shx|c128;品  名
  7
JL
 73
     1
 44
1.0
  0
LINE
  5
64DB
330
18
100
AcDbEntity
  8
図框線
100
AcDbLine
 10
96.0
 20
32.0
 30
0.0
 11
96.0
 21
0.19104161092514
 31
0.0
  0
LINE
  5
64DC
330
18
100
AcDbEntity
  8
図框線
100
AcDbLine
 10
76.0
 20
32.0
 30
0.0
 11
76.0
 21
12.0
 31
0.0
  0
LINE
  5
64DE
330
18
100
AcDbEntity
  8
図框線
100
AcDbLine
 10
153.2235601908683
 20
32.0
 30
0.0
 11
153.2235601908683
 21
12.0
 31
0.0
  0
MTEXT
  5
64DF
330
18
100
AcDbEntity
  8
0
100
AcDbMText
 10
135.85795152494
 20
49.00617587486397
 30
0.0
 40
4.4
 41
163.6058628849672
 71
     1
 72
     5
  1
\Ftxt.shx,bigfont.shx|c128;表 面 処 理
  7
JL
 73
     1
 44
1.0
  0
MTEXT
  5
64E0
330
18
100
AcDbEntity
  8
0
100
AcDbMText
 10
136.148017373375
 20
41.71770302125605
 30
0.0
 40
4.4
 41
166.1718
 71
     1
 72
     5
  1
\Ftxt.shx,bigfont.shx|c128;等     　級
  7
JL
 73
     1
 44
1.0
  0
LINE
  5
64E1
330
18
100
AcDbEntity
  8
図框線
100
AcDbLine
 10
192.615790078639
 20
64.73491348924483
 30
0.0
 11
192.615790078639
 21
35.93491348924499
 31
0.0
  0
MTEXT
  5
64E2
330
18
100
AcDbEntity
  8
0
100
AcDbMText
 10
161.3627933880816
 20
55.83344641471445
 30
0.0
 40
4.4
 41
291.8960056857887
 71
     1
 72
     5
  1
\Ftxt.shx,bigfont.shx|c128;調質　HRC30%%d%%p２%%d
  7
JL
 73
     1
 44
1.0
  0
MTEXT
  5
64E4
330
18
100
AcDbEntity
  8
0
370
    25
100
AcDbMText
 10
157.2494735287423
 20
29.58569764093568
 30
0.0
 40
5.0
 41
0.0
 71
     1
 72
     5
  1
\Ftxt.shx,bigfont.shx|c128;型  番
  7
JL
 73
     1
 44
1.0
  0
MTEXT
  5
64E5
330
18
100
AcDbEntity
  8
0
100
AcDbMText
 10
172.787265122339
 20
11.23700203391422
 30
0.0
 40
5.0
 41
0.0
 71
     1
 72
     5
  1
\Ftxt.shx,bigfont.shx|c128;変更
  7
JL
 73
     1
 44
1.0
  0
LINE
  5
64E6
330
18
100
AcDbEntity
  8
図框線
100
AcDbLine
 10
171.0
 20
12.00907027842731
 30
0.0
 11
171.0
 21
0.0
 31
0.0
  0
MTEXT
  5
64E7
330
18
100
AcDbEntity
  8
0
100
AcDbMText
 10
161.623432389518
 20
41.7183135927072
 30
0.0
 40
4.4
 41
290.783364796891
 71
     1
 72
     5
  1
\Ftxt.shx,bigfont.shx|c128;ＩＳＯ - ４Ｈ
  7
JL
 73
     1
 44
1.0
  0
MTEXT
  5
64E8
330
18
100
AcDbEntity
  8
0
100
AcDbMText
 10
161.7978935876483
 20
48.65328293790913
 30
0.0
 40
4.4
 41
291.4548
 71
     1
 72
     5
  1
\Ftxt.shx,bigfont.shx|c128;黒  　    染
  7
JL
 73
     1
 44
1.0
  0
MTEXT
  5
64EA
330
18
100
AcDbEntity
  8
0
100
AcDbMText
 10
60.06318600759005
 20
270.095850257545
 30
0.0
 40
5.0
 41
0.0
 71
     1
 72
     5
  1
\Ftxt.shx,bigfont.shx|c128;M6X1.0P-6L
  7
JL
 73
     1
 44
1.0
  0
MTEXT
  5
64EB
330
18
100
AcDbEntity
  8
0
100
AcDbMText
 10
60.06318600759005
 20
262.095850257545
 30
0.0
 40
5.0
 41
0.0
 71
     1
 72
     5
  1
\Ftxt.shx,bigfont.shx|c128;%%c5.2X5L
  7
JL
 73
     1
 44
1.0
  0
LINE
  5
64EC
330
18
100
AcDbEntity
  8
図框線
100
AcDbLine
 10
-0.0000000000002274
 20
263.9999999999999
 30
0.0
 11
197.9999999999997
 21
263.9999999999999
 31
0.0
  0
LINE
  5
64ED
330
18
100
AcDbEntity
  8
図框線
100
AcDbLine
 10
-0.0000000000002274
 20
271.9999999999999
 30
0.0
 11
197.9999999999997
 21
271.9999999999999
 31
0.0
  0
LINE
  5
64EE
330
18
100
AcDbEntity
  8
図框線
 62
     9
100
AcDbLine
 10
-0.0000000000002274
 20
279.9999999999999
 30
0.0
 11
197.9999999999997
 21
279.9999999999999
 31
0.0
  0
LINE
  5
64EF
330
18
100
AcDbEntity
  8
図框線
100
AcDbLine
 10
-0.0000000000002274
 20
290.0
 30
0.0
 11
197.9999999999997
 21
290.0
 31
0.0
  0
MTEXT
  5
64F0
330
18
100
AcDbEntity
  8
0
100
AcDbMText
 10
59.41630259681733
 20
287.3155952051104
 30
0.0
 40
5.0
 41
0.0
 71
     1
 72
     5
  1
\Ftxt.shx,bigfont.shx|c128;図    番 / 規　　格
  7
JL
 73
     1
 44
1.0
  0
LINE
  5
64F1
330
18
100
AcDbEntity
  8
図框線
100
AcDbLine
 10
-0.0000000000002274
 20
263.9999999999999
 30
0.0
 11
197.9999999999997
 21
263.9999999999999
 31
0.0
  0
LINE
  5
64F2
330
18
100
AcDbEntity
  8
図框線
100
AcDbLine
 10
-0.0000000000002274
 20
255.9999999999999
 30
0.0
 11
197.9999999999997
 21
255.9999999999999
 31
0.0
  0
MTEXT
  5
64F3
330
18
100
AcDbEntity
  8
0
100
AcDbMText
 10
22.01434914141237
 20
286.7888025819827
 30
0.0
 40
5.0
 41
0.0
 71
     1
 72
     5
  1
\Ftxt.shx,bigfont.shx|c128;品　          名
  7
JL
 73
     1
 44
1.0
  0
MTEXT
  5
64F4
330
18
100
AcDbEntity
  8
0
100
AcDbMText
 10
18.8650376130422
 20
270.5298549795346
 30
0.0
 40
6.0
 41
0.0
 71
     1
 72
     5
  1
\Ftxt.shx,bigfont.shx|c128;セットスクリュ-
  7
JL
 73
     1
 44
1.0
  0
MTEXT
  5
64F5
330
18
100
AcDbEntity
  8
0
100
AcDbMText
 10
18.66941459004738
 20
278.3660650505403
 30
0.0
 40
6.0
 41
0.0
 71
     1
 72
     5
  1
\Ftxt.shx,bigfont.shx|c128;ロックナット　  
  7
JL
 73
     1
 44
1.0
  0
MTEXT
  5
64F6
330
18
100
AcDbEntity
  8
0
100
AcDbMText
 10
18.8650376130422
 20
262.5298549795346
 30
0.0
 40
6.0
 41
0.0
 71
     1
 72
     5
  1
\Ftxt.shx,bigfont.shx|c128;ロックピン 
  7
JL
 73
     1
 44
1.0
  0
LINE
  5
64F7
330
18
100
AcDbEntity
  8
図框線
100
AcDbLine
 10
14.99999999999977
 20
289.9999999999998
 30
0.0
 11
15.00000000000011
 21
255.9999999999999
 31
0.0
  0
LINE
  5
64F8
330
18
100
AcDbEntity
  8
0
100
AcDbLine
 10
14.99999999999977
 20
289.9999999999998
 30
0.0
 11
14.99999999999977
 21
263.9999999999999
 31
0.0
  0
MTEXT
  5
64F9
330
18
100
AcDbEntity
  8
0
100
AcDbMText
 10
6.215289087390488
 20
262.7436409356394
 30
0.0
 40
5.0
 41
0.0
 71
     1
 72
     5
  1
\Ftxt.shx,bigfont.shx|c128;3
  7
JL
 73
     1
 44
1.0
  0
MTEXT
  5
64FA
330
18
100
AcDbEntity
  8
0
100
AcDbMText
 10
7.101957026666809
 20
278.5798510066454
 30
0.0
 40
5.0
 41
0.0
 71
     1
 72
     5
  1
\Ftxt.shx,bigfont.shx|c128;1
  7
JL
 73
     1
 44
1.0
  0
MTEXT
  5
64FB
330
18
100
AcDbEntity
  8
0
100
AcDbMText
 10
6.215289087390488
 20
270.7436409356394
 30
0.0
 40
5.0
 41
0.0
 71
     1
 72
     5
  1
\Ftxt.shx,bigfont.shx|c128;2
  7
JL
 73
     1
 44
1.0
  0
MTEXT
  5
64FC
330
18
100
AcDbEntity
  8
0
100
AcDbMText
 10
2.209083991842362
 20
287.0885254164057
 30
0.0
 40
5.0
 41
0.0
 71
     1
 72
     5
  1
\Ftxt.shx,bigfont.shx|c128;照   号
  7
JL
 73
     1
 44
1.0
  0
LINE
  5
64FD
330
18
100
AcDbEntity
  8
図框線
 62
     9
100
AcDbLine
 10
54.99999999999977
 20
289.9999999999998
 30
0.0
 11
54.99999999999977
 21
256.0
 31
0.0
  0
MTEXT
  5
64FE
330
18
100
AcDbEntity
  8
0
100
AcDbMText
 10
146.3353765925378
 20
287.5804049742369
 30
0.0
 40
5.0
 41
0.0
 71
     1
 72
     5
  1
\Ftxt.shx,bigfont.shx|c128;備           考
  7
JL
 73
     1
 44
1.0
  0
LINE
  5
64FF
330
18
100
AcDbEntity
  8
図框線
 62
     9
100
AcDbLine
 10
94.99999999999976
 20
289.9999999999999
 30
0.0
 11
94.99999999999976
 21
255.9999999999999
 31
0.0
  0
MTEXT
  5
6500
330
18
100
AcDbEntity
  8
0
100
AcDbMText
 10
96.78387029776377
 20
262.3660650505403
 30
0.0
 40
5.0
 41
0.0
 71
     1
 72
     5
  1
\Ftxt.shx,bigfont.shx|c128;C3604
  7
JL
 73
     1
 44
1.0
  0
MTEXT
  5
6501
330
18
100
AcDbEntity
  8
0
100
AcDbMText
 10
96.78387029776377
 20
278.3660650505403
 30
0.0
 40
5.0
 41
0.0
 71
     1
 72
     5
  1
\Ftxt.shx,bigfont.shx|c128;SCM-440
  7
JL
 73
     1
 44
1.0
  0
MTEXT
  5
6502
330
18
100
AcDbEntity
  8
0
100
AcDbMText
 10
96.78387029776377
 20
270.3660650505403
 30
0.0
 40
5.0
 41
0.0
 71
     1
 72
     5
  1
\Ftxt.shx,bigfont.shx|c128;SCM435
  7
JL
 73
     1
 44
1.0
  0
MTEXT
  5
6503
330
18
100
AcDbEntity
  8
0
100
AcDbMText
 10
99.80032499445407
 20
287.5804049742369
 30
0.0
 40
5.0
 41
0.0
 71
     1
 72
     5
  1
\Ftxt.shx,bigfont.shx|c128;材　質
  7
JL
 73
     1
 44
1.0
  0
LINE
  5
6504
330
18
100
AcDbEntity
  8
図框線
 62
     9
100
AcDbLine
 10
114.9999999999997
 20
289.9999999999999
 30
0.0
 11
114.9999999999997
 21
255.9999999999999
 31
0.0
  0
LINE
  5
6505
330
18
100
AcDbEntity
  8
図框線
100
AcDbLine
 10
129.9999999999998
 20
289.9999999999999
 30
0.0
 11
129.9999999999998
 21
255.9999999999999
 31
0.0
  0
MTEXT
  5
6506
330
18
100
AcDbEntity
  8
0
100
AcDbMText
 10
121.2152890873904
 20
262.7436409356394
 30
0.0
 40
5.0
 41
0.0
 71
     1
 72
     5
  1
\Ftxt.shx,bigfont.shx|c128;3
  7
JL
 73
     1
 44
1.0
  0
MTEXT
  5
6507
330
18
100
AcDbEntity
  8
0
100
AcDbMText
 10
122.1019570266667
 20
278.5798510066454
 30
0.0
 40
5.0
 41
0.0
 71
     1
 72
     5
  1
\Ftxt.shx,bigfont.shx|c128;1
  7
JL
 73
     1
 44
1.0
  0
MTEXT
  5
6508
330
18
100
AcDbEntity
  8
0
100
AcDbMText
 10
121.2152890873904
 20
270.7436409356394
 30
0.0
 40
5.0
 41
0.0
 71
     1
 72
     5
  1
\Ftxt.shx,bigfont.shx|c128;3
  7
JL
 73
     1
 44
1.0
  0
MTEXT
  5
6509
330
18
100
AcDbEntity
  8
0
100
AcDbMText
 10
116.433740311917
 20
287.5804049742369
 30
0.0
 40
5.0
 41
0.0
 71
     1
 72
     5
  1
\Ftxt.shx,bigfont.shx|c128;数   量
  7
JL
 73
     1
 44
1.0
  0
DIMENSION
  5
6770
330
18
100
AcDbEntity
  8
0
100
AcDbDimension
  2
*D1
 10
96.81823740955417
 20
97.10258956043061
 30
0.0
 11
86.81823740955417
 21
97.10258956043061
 31
0.0
 12
-211.7097738637119
 22
7.236900117468849
 32
0.0
 70
   160
  1
M20X1.0P
 71
     5
 42
-1.0
  3
A
100
AcDbAlignedDimension
 13
76.81823740955417
 23
117.5651285161289
 33
0.0
 14
96.81823740955417
 24
117.5651285161291
 34
0.0
100
AcDbRotatedDimension
  0
DIMENSION
  5
677F
330
18
100
AcDbEntity
  8
0
100
AcDbDimension
  2
*D2
 10
69.81823740955428
 20
181.6518605442611
 30
0.0
 11
74.81823740955428
 21
181.6518605442611
 31
0.0
 12
-11.85428435960682
 22
6.142717247580804
 32
0.0
 70
   160
 71
     5
 42
-1.0
  3
A
100
AcDbAlignedDimension
 13
67.8328987588406
 23
206.9298234217986
 33
0.0
 14
69.81823740955428
 24
206.9298234217986
 34
0.0
100
AcDbRotatedDimension
  0
DIMENSION
  5
6864
330
18
100
AcDbEntity
  8
DIM
100
AcDbDimension
  2
*D3
 10
55.86934101006557
 20
211.9298234217986
 30
0.0
 11
54.99493696920978
 21
221.6079149881891
 31
0.0
 12
-211.7097738637119
 22
14.36891328950298
 32
0.0
 70
   160
  1
<>      (3等分)
 71
     5
 42
-1.0
  3
A
100
AcDbAlignedDimension
 13
67.8328987588406
 23
206.9298234217986
 33
0.0
 14
67.83289875884065
 24
211.9298234217986
 34
0.0
 50
90.0
100
AcDbRotatedDimension
  0
LINE
  5
689B
330
18
100
AcDbEntity
  8
DIM
 62
     6
100
AcDbLine
 10
55.86934101006557
 20
215.9298234217986
 30
0.0
 11
55.86934101006557
 21
235.846132284193
 31
0.0
  0
LINE
  5
6AF0
330
18
100
AcDbEntity
  8
DIM
 62
     6
100
AcDbLine
 10
74.81823740955428
 20
181.6518605442611
 30
0.0
 11
86.62146072038343
 21
181.6518605442611
 31
0.0
  0
LEADER
  5
6B85
330
18
100
AcDbEntity
  8
DIM
 62
     6
100
AcDbLeader
  3
A
 73
     0
 74
     0
 75
     1
 40
3.0
 41
4.0
 76
     3
 10
76.81823740955417
 20
132.565128516129
 30
0.0
 10
80.1882017369644
 20
141.1513551301906
 30
0.0
 10
82.6882017369644
 20
141.1513551301906
 30
0.0
340
6B86
  0
MTEXT
  5
6B86
102
{ACAD_REACTORS
330
6B85
102
}
330
18
100
AcDbEntity
  8
DIM
 62
     3
100
AcDbMText
 10
83.68820173696439
 20
143.6513551301906
 30
0.0
 40
3.0
 41
0.0
 71
     4
 72
     1
  1
\A1;C1
  7
TXT
 73
     1
 44
1.0
  0
DIMENSION
  5
6C92
330
18
100
AcDbEntity
  8
DIM
100
AcDbDimension
  2
*D4
 10
102.8182374095543
 20
156.4663946199849
 30
0.0
 11
86.81823740955428
 21
158.9663946199849
 31
0.0
 70
    32
  1
%%c<>%%p0.5
 71
     5
 42
-1.0
  3
A
100
AcDbAlignedDimension
 13
70.81823740955428
 23
135.065128516129
 33
0.0
 14
102.8182374095543
 24
135.065128516129
 34
0.0
100
AcDbRotatedDimension
  0
DIMENSION
  5
6CAA
330
18
100
AcDbEntity
  8
DIM
100
AcDbDimension
  2
*D5
 10
105.8182374095543
 20
164.2570227261233
 30
0.0
 11
82.7491812816404
 21
165.6879550667367
 31
0.0
 70
   160
  1
%%c<>
 71
     5
 42
-1.0
  3
A
100
AcDbAlignedDimension
 13
67.81823740955423
 23
133.9292367025156
 33
0.0
 14
105.8182374095543
 24
133.565128516129
 34
0.0
100
AcDbRotatedDimension
  0
LINE
  5
6F3F
330
18
100
AcDbEntity
  8
中心線
  6
CENTER
 48
0.15
100
AcDbLine
 10
86.81823740955422
 20
115.065128516129
 30
0.0
 11
86.81823740955428
 21
137.7709046163676
 31
0.0
  0
LINE
  5
6F40
330
18
100
AcDbEntity
  8
中心線
  6
CENTER
 48
0.15
100
AcDbLine
 10
86.81823740955428
 20
230.4298234217986
 30
0.0
 11
86.81823740955428
 21
188.4298234217985
 31
0.0
  0
LINE
  5
6F41
330
18
100
AcDbEntity
  8
中心線
  6
CENTER
 48
0.15
100
AcDbLine
 10
65.81823740955428
 20
209.4298234217986
 30
0.0
 11
107.8182374095543
 21
209.4298234217985
 31
0.0
  0
ARC
  5
6F42
330
18
100
AcDbEntity
  8
本体外線
100
AcDbCircle
 10
86.81823740955428
 20
209.4298234217986
 30
0.0
 40
19.0
100
AcDbArc
 50
187.560843176672
 51
292.4391568233279
  0
CIRCLE
  5
6F43
330
18
100
AcDbEntity
  8
本体外線
100
AcDbCircle
 10
86.81823740955428
 20
209.4298234217986
 30
0.0
 40
16.0
  0
LINE
  5
6F44
102
{ACAD_REACTORS
330
7728
102
}
330
18
100
AcDbEntity
  8
本体外線
100
AcDbLine
 10
70.81823740955428
 20
135.065128516129
 30
0.0
 11
102.8182374095543
 21
135.065128516129
 31
0.0
  0
LINE
  5
6F45
102
{ACAD_REACTORS
330
7728
102
}
330
18
100
AcDbEntity
  8
本体外線
100
AcDbLine
 10
105.8182374095543
 20
133.565128516129
 30
0.0
 11
105.8182374095543
 21
123.1273063426201
 31
0.0
  0
LINE
  5
6F46
330
18
100
AcDbEntity
  8
本体外線
100
AcDbLine
 10
67.81823740955423
 20
133.565128516129
 30
0.0
 11
67.81823740955423
 21
123.12730634262
 31
0.0
  0
LINE
  5
6F47
102
{ACAD_REACTORS
330
7728
102
}
330
18
100
AcDbEntity
  8
本体外線
100
AcDbLine
 10
70.81823740955423
 20
135.065128516129
 30
0.0
 11
70.81823740955423
 21
134.565128516129
 31
0.0
  0
LINE
  5
6F48
102
{ACAD_REACTORS
330
7728
102
}
330
18
100
AcDbEntity
  8
本体外線
100
AcDbLine
 10
102.8182374095543
 20
135.065128516129
 30
0.0
 11
102.8182374095543
 21
134.565128516129
 31
0.0
  0
LINE
  5
6F49
102
{ACAD_REACTORS
330
7728
102
}
330
18
100
AcDbEntity
  8
本体外線
100
AcDbLine
 10
71.31823740955423
 20
117.065128516129
 30
0.0
 11
102.3182374095543
 21
117.065128516129
 31
0.0
  0
LINE
  5
6F4A
102
{ACAD_REACTORS
330
7728
102
}
330
18
100
AcDbEntity
  8
本体外線
100
AcDbLine
 10
104.8182374095543
 20
134.565128516129
 30
0.0
 11
102.8182374095543
 21
134.565128516129
 31
0.0
  0
LINE
  5
6F4B
102
{ACAD_REACTORS
330
7728
102
}
330
18
100
AcDbEntity
  8
本体外線
100
AcDbLine
 10
70.81823740955428
 20
134.565128516129
 30
0.0
 11
68.81823740955423
 21
134.565128516129
 31
0.0
  0
ARC
  5
6F4C
102
{ACAD_REACTORS
330
7728
102
}
330
18
100
AcDbEntity
  8
本体外線
100
AcDbCircle
 10
104.8182374095543
 20
133.565128516129
 30
0.0
 40
1.0
100
AcDbArc
 50
0.0
 51
90.0
  0
ARC
  5
6F4D
330
18
100
AcDbEntity
  8
本体外線
100
AcDbCircle
 10
68.81823740955423
 20
133.565128516129
 30
0.0
 40
1.0
100
AcDbArc
 50
90.0
 51
180.0
  0
LINE
  5
6F4F
102
{ACAD_REACTORS
330
7728
102
}
330
18
100
AcDbEntity
  8
本体外線
100
AcDbLine
 10
97.31823740955428
 20
135.065128516129
 30
0.0
 11
97.31823740955428
 21
133.065128516129
 31
0.0
  0
LINE
  5
6F50
102
{ACAD_REACTORS
330
7728
102
}
330
18
100
AcDbEntity
  8
本体外線
100
AcDbLine
 10
76.31823740955423
 20
135.065128516129
 30
0.0
 11
76.31823740955429
 21
133.065128516129
 31
0.0
  0
LINE
  5
6F51
330
18
100
AcDbEntity
  8
本体外線
100
AcDbLine
 10
76.31823740955429
 20
133.065128516129
 30
0.0
 11
97.31823740955428
 21
133.065128516129
 31
0.0
  0
LINE
  5
6F52
102
{ACAD_REACTORS
330
7728
102
}
330
18
100
AcDbEntity
  8
本体外線
100
AcDbLine
 10
96.31823740955429
 20
132.065128516129
 30
0.0
 11
97.31823740955428
 21
133.065128516129
 31
0.0
  0
LINE
  5
6F53
102
{ACAD_REACTORS
330
7728
102
}
330
18
100
AcDbEntity
  8
本体外線
100
AcDbLine
 10
77.31823740955412
 20
132.065128516129
 30
0.0
 11
76.31823740955417
 21
133.065128516129
 31
0.0
  0
LINE
  5
6F54
330
18
100
AcDbEntity
  8
本体外線
100
AcDbLine
 10
96.31823740955429
 20
132.065128516129
 30
0.0
 11
77.31823740955412
 21
132.065128516129
 31
0.0
  0
LINE
  5
6F55
330
18
100
AcDbEntity
  8
本体外線
100
AcDbLine
 10
77.31823740955423
 20
118.065128516129
 30
0.0
 11
96.31823740955429
 21
118.065128516129
 31
0.0
  0
LINE
  5
6F56
102
{ACAD_REACTORS
330
7728
102
}
330
18
100
AcDbEntity
  8
本体外線
100
AcDbLine
 10
96.31823740955429
 20
132.065128516129
 30
0.0
 11
96.31823740955429
 21
118.065128516129
 31
0.0
  0
LINE
  5
6F57
102
{ACAD_REACTORS
330
7728
102
}
330
18
100
AcDbEntity
  8
本体外線
100
AcDbLine
 10
77.31823740955412
 20
132.065128516129
 30
0.0
 11
77.31823740955423
 21
118.065128516129
 31
0.0
  0
LINE
  5
6F58
102
{ACAD_REACTORS
330
7728
102
}
330
18
100
AcDbEntity
  8
本体外線
100
AcDbLine
 10
77.31823740955423
 20
118.065128516129
 30
0.0
 11
76.31823740955417
 21
117.065128516129
 31
0.0
  0
LINE
  5
6F59
102
{ACAD_REACTORS
330
7728
102
}
330
18
100
AcDbEntity
  8
本体外線
100
AcDbLine
 10
96.31823740955429
 20
118.065128516129
 30
0.0
 11
97.31823740955428
 21
117.065128516129
 31
0.0
  0
LINE
  5
6F5A
102
{ACAD_REACTORS
330
7728
102
}
330
18
100
AcDbEntity
  8
0
100
AcDbLine
 10
96.81823740955429
 20
132.565128516129
 30
0.0
 11
96.81823740955429
 21
127.6850221123896
 31
0.0
  0
LINE
  5
6F5B
102
{ACAD_REACTORS
330
7728
102
}
330
18
100
AcDbEntity
  8
0
100
AcDbLine
 10
76.81823740955422
 20
132.5651285161288
 30
0.0
 11
76.81823740955422
 21
117.5651285161289
 31
0.0
  0
LINE
  5
6F5C
102
{ACAD_REACTORS
330
7728
102
}
330
18
100
AcDbEntity
  8
0
100
AcDbLine
 10
101.8489659064514
 20
117.8523264302107
 30
0.0
 11
104.8523663847027
 21
123.0543686540187
 31
0.0
  0
LINE
  5
6F5D
330
18
100
AcDbEntity
  8
本体内線
  6
HIDDEN
 48
0.1
100
AcDbLine
 10
102.9526003338748
 20
121.7110297362983
 30
0.0
 11
102.0658489879272
 21
121.199063608011
 31
0.0
  0
LINE
  5
6F5E
330
18
100
AcDbEntity
  8
本体内線
  6
HIDDEN
 48
0.1
100
AcDbLine
 10
102.0658489879271
 20
121.1990636080108
 30
0.0
 11
102.0658489879268
 21
120.1751313514358
 31
0.0
  0
LINE
  5
6F60
330
18
100
AcDbEntity
  8
0
100
AcDbLine
 10
100.0077078967974
 20
123.5341793912489
 30
0.0
 11
102.7397587043663
 21
124.2662301988177
 31
0.0
  0
LINE
  5
6F61
330
18
100
AcDbEntity
  8
0
100
AcDbLine
 10
99.00770789679757
 20
121.8021285836801
 30
0.0
 11
99.73975870436641
 21
119.0700777761112
 31
0.0
  0
LINE
  5
6F62
330
18
100
AcDbEntity
  8
0
100
AcDbLine
 10
102.7397587043663
 20
124.2662301988177
 30
0.0
 11
99.73975870436641
 21
119.0700777761112
 31
0.0
  0
LINE
  5
6F63
102
{ACAD_REACTORS
330
7728
102
}
330
18
100
AcDbEntity
  8
0
100
AcDbLine
 10
103.2346065525065
 20
118.6523264302107
 30
0.0
 11
99.23257902739397
 21
120.9628980991387
 31
0.0
  0
LINE
  5
6F64
330
18
100
AcDbEntity
  8
0
100
AcDbLine
 10
100.7577078967978
 20
124.8332174969254
 30
0.0
 11
98.25770789679779
 21
120.5030904780033
 31
0.0
  0
LINE
  5
6F66
330
18
100
AcDbEntity
  8
中心線
  6
CENTER
 48
0.15
100
AcDbLine
 10
104.948430194333
 20
119.5962335366989
 30
0.0
 11
94.51988012545063
 21
125.5200574404729
 31
0.0
  0
LWPOLYLINE
  5
6F68
102
{ACAD_REACTORS
330
7728
102
}
330
18
100
AcDbEntity
  8
本体外線
100
AcDbPolyline
 90
        2
 70
     0
 43
0.0
 10
102.3182374095543
 20
117.065128516129
 10
105.8182374095543
 20
123.12730634262
  0
LINE
  5
6F69
330
18
100
AcDbEntity
  8
0
100
AcDbLine
 10
100.7577078967978
 20
124.8332174969254
 30
0.0
 11
96.31823740955429
 21
127.3963469777949
 31
0.0
  0
LINE
  5
6F6A
330
18
100
AcDbEntity
  8
0
100
AcDbLine
 10
98.25770789679792
 20
120.5030904780033
 30
0.0
 11
96.31823740955423
 21
121.6228442858987
 31
0.0
  0
LINE
  5
6F6B
102
{ACAD_REACTORS
330
7728
102
}
330
18
100
AcDbEntity
  8
0
100
AcDbLine
 10
101.8489659064514
 20
117.8523264302107
 30
0.0
 11
96.31823740955423
 21
121.045494016709
 31
0.0
  0
LINE
  5
6F6C
102
{ACAD_REACTORS
330
7728
102
}
330
18
100
AcDbEntity
  8
0
100
AcDbLine
 10
104.8489659064513
 20
123.0484788529172
 30
0.0
 11
96.31823740955429
 21
127.9736972469845
 31
0.0
  0
LINE
  5
6F6D
102
{ACAD_REACTORS
330
7728
102
}
330
18
100
AcDbEntity
  8
0
100
AcDbLine
 10
104.8523663847027
 20
121.4543686540191
 30
0.0
 11
104.8523663847027
 21
123.0543686540187
 31
0.0
  0
LINE
  5
6F6E
102
{ACAD_REACTORS
330
7728
102
}
330
18
100
AcDbEntity
  8
0
100
AcDbLine
 10
103.2380070307578
 20
118.6582162313122
 30
0.0
 11
101.8523663847028
 21
117.8582162313122
 31
0.0
  0
LINE
  5
6F6F
330
18
100
AcDbEntity
  8
本体内線
  6
HIDDEN
 48
0.1
100
AcDbLine
 10
104.4885623807042
 20
120.8242416350963
 30
0.0
 11
102.9526003338748
 21
121.7110297362983
 31
0.0
  0
LINE
  5
6F70
330
18
100
AcDbEntity
  8
本体内線
  6
HIDDEN
 48
0.1
100
AcDbLine
 10
103.6018110347563
 20
119.2883432502337
 30
0.0
 11
102.065848987927
 21
120.1751313514358
 31
0.0
  0
DIMENSION
  5
6F74
330
18
100
AcDbEntity
  8
0
100
AcDbDimension
  2
*D6
 10
131.347252598088
 20
100.3052187827192
 30
0.0
 11
141.3219859568909
 21
117.5819637521179
 31
0.0
 70
   161
  1
<>%%p0.5
 71
     5
 42
-1.0
  3
A
100
AcDbAlignedDimension
 13
105.8182374095543
 23
123.1273063426201
 33
0.0
 14
102.3182374095543
 24
117.065128516129
 34
0.0
  0
LWPOLYLINE
  5
6F76
102
{ACAD_REACTORS
330
7728
102
}
330
18
100
AcDbEntity
  8
本体外線
100
AcDbPolyline
 90
        2
 70
     0
 43
0.0
 10
71.31823740955417
 20
117.065128516129
 10
67.81823740955417
 20
123.12730634262
  0
LINE
  5
6F86
330
18
100
AcDbEntity
  8
本体外線
100
AcDbLine
 10
67.98342920771688
 20
211.9298234217986
 30
0.0
 11
69.81823740955428
 21
211.9298234217986
 31
0.0
  0
LINE
  5
6F87
330
18
100
AcDbEntity
  8
本体外線
100
AcDbLine
 10
69.81823740955428
 20
211.9298234217986
 30
0.0
 11
69.81823740955428
 21
206.9298234217986
 31
0.0
  0
LINE
  5
6F88
330
18
100
AcDbEntity
  8
本体外線
100
AcDbLine
 10
69.81823740955428
 20
206.9298234217986
 30
0.0
 11
67.98342920771688
 21
206.9298234217986
 31
0.0
  0
LINE
  5
6F89
330
18
100
AcDbEntity
  8
本体外線
100
AcDbLine
 10
98.40070501993409
 20
224.4912457999971
 30
0.0
 11
97.48330091901539
 21
222.9022552861339
 31
0.0
  0
LINE
  5
6F8A
330
18
100
AcDbEntity
  8
本体外線
100
AcDbLine
 10
97.48330091901539
 20
222.9022552861339
 30
0.0
 11
93.15317390009317
 21
225.4022552861339
 31
0.0
  0
LINE
  5
6F8B
330
18
100
AcDbEntity
  8
本体外線
100
AcDbLine
 10
93.15317390009317
 20
225.4022552861339
 30
0.0
 11
94.07057800101188
 21
226.9912457999971
 31
0.0
  0
LINE
  5
6F8C
330
18
100
AcDbEntity
  8
本体外線
100
AcDbLine
 10
94.07057800101176
 20
191.8684010435999
 30
0.0
 11
93.15317390009317
 21
193.457391557463
 31
0.0
  0
LINE
  5
6F8D
330
18
100
AcDbEntity
  8
本体外線
100
AcDbLine
 10
93.15317390009317
 20
193.457391557463
 30
0.0
 11
97.48330091901529
 21
195.957391557463
 31
0.0
  0
LINE
  5
6F8E
330
18
100
AcDbEntity
  8
本体外線
100
AcDbLine
 10
97.48330091901529
 20
195.957391557463
 30
0.0
 11
98.40070501993398
 21
194.3684010435998
 31
0.0
  0
ARC
  5
6F8F
330
18
100
AcDbEntity
  8
本体外線
100
AcDbCircle
 10
86.81823740955428
 20
209.4298234217986
 30
0.0
 40
19.0
100
AcDbArc
 50
307.560843176672
 51
52.43915682332774
  0
ARC
  5
6F90
330
18
100
AcDbEntity
  8
本体外線
100
AcDbCircle
 10
86.81823740955428
 20
209.4298234217986
 30
0.0
 40
19.0
100
AcDbArc
 50
67.56084317667205
 51
172.4391568233278
  0
LINE
  5
6F93
330
18
100
AcDbEntity
  8
中心線
  6
CENTER
 48
0.15
100
AcDbLine
 10
83.56823740955428
 20
215.0589885463974
 30
0.0
 11
76.31823740955429
 21
227.6163569012718
 31
0.0
  0
LINE
  5
6F98
330
18
100
AcDbEntity
  8
中心線
  6
CENTER
 48
0.15
100
AcDbLine
 10
76.31823740955417
 20
191.2432899423253
 30
0.0
 11
83.56823740955418
 21
203.8006582971997
 31
0.0
  0
LINE
  5
6F9B
330
18
100
AcDbEntity
  8
本体内線
  6
HIDDEN
 48
0.2
100
AcDbLine
 10
95.98338879946595
 20
206.9298234217985
 30
0.0
 11
105.6530456113915
 21
206.9298234217985
 31
0.0
  0
LINE
  5
6F9E
330
18
100
AcDbEntity
  8
本体内線
  6
HIDDEN
 48
0.2
100
AcDbLine
 10
95.98338879946595
 20
211.9298234217985
 30
0.0
 11
105.6530456113915
 21
211.9298234217986
 31
0.0
  0
LINE
  5
6FA9
330
18
100
AcDbEntity
  8
0
100
AcDbLine
 10
104.8523663847027
 20
121.4543686540191
 30
0.0
 11
100.8503388595901
 21
123.7649403229472
 31
0.0
  0
LINE
  5
6FAA
102
{ACAD_REACTORS
330
7728
102
}
330
18
100
AcDbEntity
  8
0
100
AcDbLine
 10
96.81823740955429
 20
120.7568188821142
 30
0.0
 11
96.81823740955429
 21
117.565128516129
 31
0.0
  0
LINE
  5
6FAB
102
{ACAD_REACTORS
330
7728
102
}
330
18
100
AcDbEntity
  8
本体外線
100
AcDbLine
 10
69.81823740955423
 20
134.565128516129
 30
0.0
 11
69.81823740955428
 21
119.6632047274822
 31
0.0
  0
LINE
  5
70E2
330
18
100
AcDbEntity
  8
本体内線
  6
HIDDEN
 48
0.2
100
AcDbLine
 10
95.83211559821426
 20
212.4298234217985
 30
0.0
 11
105.5799004488479
 21
212.4298234217985
 31
0.0
  0
LINE
  5
70E3
330
18
100
AcDbEntity
  8
本体内線
  6
HIDDEN
 48
0.2
100
AcDbLine
 10
95.83211559821421
 20
206.4298234217985
 30
0.0
 11
105.5799004488479
 21
206.4298234217985
 31
0.0
  0
LINE
  5
70E4
330
18
100
AcDbEntity
  8
本体内線
  6
HIDDEN
 48
0.2
100
AcDbLine
 10
84.40072522405955
 20
218.6170773549923
 30
0.0
 11
79.56589681809669
 21
226.9912457999971
 31
0.0
  0
LINE
  5
70E5
330
18
100
AcDbEntity
  8
本体内線
  6
HIDDEN
 48
0.2
100
AcDbLine
 10
80.07059820513735
 20
216.1170773549923
 30
0.0
 11
75.23576979917447
 21
224.4912457999971
 31
0.0
  0
LINE
  5
70E6
330
18
100
AcDbEntity
  8
本体内線
  6
HIDDEN
 48
0.2
100
AcDbLine
 10
79.71322210387097
 20
215.7360709197965
 30
0.0
 11
74.83932967855412
 21
224.1779002310704
 31
0.0
  0
LINE
  5
70E7
330
18
100
AcDbEntity
  8
本体内線
  6
HIDDEN
 48
0.2
100
AcDbLine
 10
84.9093745265776
 20
218.7360709197965
 30
0.0
 11
80.03548210126075
 21
227.1779002310704
 31
0.0
  0
LINE
  5
70E8
330
18
100
AcDbEntity
  8
本体内線
  6
HIDDEN
 48
0.2
100
AcDbLine
 10
80.07059820513735
 20
202.7425694886048
 30
0.0
 11
75.23576979917447
 21
194.3684010436
 31
0.0
  0
LINE
  5
70E9
330
18
100
AcDbEntity
  8
本体内線
  6
HIDDEN
 48
0.2
100
AcDbLine
 10
84.40072522405955
 20
200.2425694886048
 30
0.0
 11
79.56589681809669
 21
191.8684010436
 31
0.0
  0
LINE
  5
70EA
330
18
100
AcDbEntity
  8
本体内線
  6
HIDDEN
 48
0.2
100
AcDbLine
 10
84.90937452657766
 20
200.1235759238005
 30
0.0
 11
80.03548210126075
 21
191.6817466125267
 31
0.0
  0
LINE
  5
70EB
330
18
100
AcDbEntity
  8
本体内線
  6
HIDDEN
 48
0.2
100
AcDbLine
 10
79.71322210387097
 20
203.1235759238006
 30
0.0
 11
74.83932967855406
 21
194.6817466125267
 31
0.0
  0
ARC
  5
70EC
330
18
100
AcDbEntity
  8
0
100
AcDbCircle
 10
86.81823740955428
 20
209.4298234217986
 30
0.0
 40
10.0
100
AcDbArc
 50
171.339240080168
 51
98.78071843848173
  0
CIRCLE
  5
70ED
330
18
100
AcDbEntity
  8
本体外線
100
AcDbCircle
 10
86.81823740955428
 20
209.4298234217986
 30
0.0
 40
9.5
  0
MTEXT
  5
72FF
102
{ACAD_REACTORS
330
7300
102
}
330
18
100
AcDbEntity
  8
DIM
 62
     3
100
AcDbMText
 10
85.86869242726221
 20
109.7352706196113
 30
0.0
 40
3.0
 41
0.0
 71
     6
 72
     1
  1
\A1;C1
  7
TXT
 73
     1
 44
1.0
  0
LEADER
  5
7300
330
18
100
AcDbEntity
  8
DIM
 62
     6
100
AcDbLeader
  3
A
 73
     0
 75
     1
 40
3.0
 41
4.0
 76
     3
 10
96.81823740955429
 20
117.565128516129
 30
0.0
 10
89.36869242726221
 20
107.2352706196113
 30
0.0
 10
86.86869242726221
 20
107.2352706196113
 30
0.0
340
72FF
  0
MTEXT
  5
7303
102
{ACAD_REACTORS
330
7304
102
}
330
18
100
AcDbEntity
  8
DIM
 62
     3
100
AcDbMText
 10
120.0381076859239
 20
150.0396418362294
 30
0.0
 40
3.0
 41
0.0
 71
     4
 72
     1
  1
\A1;R1.5
  7
TXT
 73
     1
 44
1.0
  0
LEADER
  5
7304
330
18
100
AcDbEntity
  8
DIM
 62
     6
100
AcDbLeader
  3
A
 73
     0
 74
     0
 75
     1
 40
3.0
 41
8.0
 76
     3
 10
105.5253441907408
 20
134.2722352973155
 30
0.0
 10
116.5381076859239
 20
147.5396418362294
 30
0.0
 10
119.0381076859239
 20
147.5396418362294
 30
0.0
340
7303
1001
ACAD
1000
DSTYLE
1002
{
1070
    45
1040
0.0
1002
}
  0
DIMENSION
  5
74C6
330
18
100
AcDbEntity
  8
0
100
AcDbDimension
  2
*D7
 10
55.86934101006557
 20
134.565128516129
 30
0.0
 11
55.86934101006557
 21
145.2251257772791
 31
0.0
 12
-211.7097738637119
 22
7.236900117468849
 32
0.0
 70
   160
 71
     5
 42
-1.0
  3
A
100
AcDbAlignedDimension
 13
70.81823740955428
 23
135.065128516129
 33
0.0
 14
68.81823740955423
 24
134.565128516129
 34
0.0
 50
90.0
100
AcDbRotatedDimension
  0
DIMENSION
  5
750D
330
18
100
AcDbEntity
  8
DIM
100
AcDbDimension
  2
*D8
 10
97.31823740955428
 20
148.4132569226559
 30
0.0
 11
86.81823740955426
 21
150.9132569226559
 31
0.0
 70
    32
  1
%%c<>
 71
     5
 42
-1.0
  3
A
100
AcDbAlignedDimension
 13
76.31823740955423
 23
135.065128516129
 33
0.0
 14
97.31823740955428
 24
135.065128516129
 34
0.0
100
AcDbRotatedDimension
  0
DIMENSION
  5
7568
330
18
100
AcDbEntity
  8
DIM
100
AcDbDimension
  2
*D9
 10
122.3797949538161
 20
120.0962174293745
 30
0.0
 11
119.8797949538161
 21
127.5806729727517
 31
0.0
 70
    32
 71
     5
 42
-1.0
  3
A
100
AcDbAlignedDimension
 13
102.8182374095543
 23
135.065128516129
 33
0.0
 14
104.0682374095543
 24
120.0962174293745
 34
0.0
 50
90.0
100
AcDbRotatedDimension
  0
DIMENSION
  5
7575
330
18
100
AcDbEntity
  8
DIM
100
AcDbDimension
  2
*D10
 10
130.5481342145826
 20
135.065128516129
 30
0.0
 11
128.0481342145826
 21
126.065128516129
 31
0.0
 70
    32
  1
<>%%p0.2
 71
     5
 42
-1.0
  3
A
100
AcDbAlignedDimension
 13
102.3182374095542
 23
117.065128516129
 33
0.0
 14
102.3182374095542
 24
135.065128516129
 34
0.0
 50
90.0
100
AcDbRotatedDimension
  0
DIMENSION
  5
7586
330
18
100
AcDbEntity
  8
DIM
100
AcDbDimension
  2
*D11
 10
94.83773202763927
 20
135.065128516129
 30
0.0
 11
94.83773202763927
 21
142.3264541102819
 31
0.0
 70
   160
 71
     5
 42
-1.0
  3
A
100
AcDbAlignedDimension
 13
97.31823740955428
 23
133.065128516129
 33
0.0
 14
102.8182374095543
 24
135.065128516129
 34
0.0
 50
90.0
100
AcDbRotatedDimension
  0
DIMENSION
  5
75D3
330
18
100
AcDbEntity
  8
DIM
100
AcDbDimension
  2
*D12
 10
102.8182374095542
 20
135.065128516129
 30
0.0
 11
149.3449883197713
 21
116.1411800303432
 31
0.0
 12
-211.7097738637119
 22
7.236900117468849
 32
0.0
 70
    34
  1
30%%d
 71
     5
 42
-1.0
  3
A
100
AcDb2LineAngularDimension
 13
104.948430194333
 23
119.5962335366989
 33
0.0
 14
94.51988012545063
 24
125.5200574404729
 34
0.0
 15
70.81823740955428
 25
135.065128516129
 35
0.0
 16
149.805569537362
 26
109.2077587510907
 36
0.0
1001
ACAD
1000
DSTYLE
1002
{
1070
    79
1070
     2
1070
   179
1070
     1
1002
}
  0
HATCH
  5
7728
330
18
100
AcDbEntity
  8
剖面線
100
AcDbHatch
 10
0.0
 20
0.0
 30
0.0
210
0.0
220
0.0
230
1.0
  2
ANSI31
 70
     0
 71
     1
 91
        6
 92
        7
 72
     0
 73
     1
 93
       10
 10
69.81823740955428
 20
119.6632047274821
 10
71.31823740955422
 20
117.065128516129
 10
76.31823740955417
 20
117.065128516129
 10
76.81823740955421
 20
117.565128516129
 10
76.81823740955422
 20
132.5651285161289
 10
76.31823740955429
 20
133.0651285161289
 10
76.31823740955423
 20
135.065128516129
 10
70.81823740955423
 20
135.065128516129
 10
70.81823740955423
 20
134.565128516129
 10
69.81823740955423
 20
134.565128516129
 97
       10
330
6F53
330
6F50
330
6F44
330
6F47
330
6F4B
330
6FAB
330
6F76
330
6F49
330
6F58
330
6F5B
 92
        7
 72
     0
 73
     1
 93
        4
 10
76.81823740955422
 20
117.565128516129
 10
77.31823740955424
 20
118.065128516129
 10
77.31823740955409
 20
132.065128516129
 10
76.81823740955422
 20
132.5651285161289
 97
        4
330
6F53
330
6F5B
330
6F58
330
6F57
 92
        7
 72
     1
 73
     1
 93
       12
 10
104.8489659064513
 20
123.0484788529172
 42
0.0
 10
104.8523663847026
 20
123.0543686540187
 42
0.0
 10
104.8523663847027
 20
121.4543686540185
 42
0.0
 10
105.8182374095542
 20
123.12730634262
 42
0.0
 10
105.8182374095543
 20
133.565128516129
 42
0.4142135623730951
 10
104.8182374095543
 20
134.565128516129
 42
0.0
 10
102.8182374095543
 20
134.565128516129
 42
0.0
 10
102.8182374095543
 20
135.065128516129
 42
0.0
 10
97.31823740955428
 20
135.065128516129
 42
0.0
 10
97.31823740955428
 20
133.065128516129
 42
0.0
 10
96.81823740955429
 20
132.565128516129
 42
0.0
 10
96.81823740955429
 20
127.6850221123897
 42
0.0
 97
       12
330
6F4C
330
6F4A
330
6F48
330
6F44
330
6F4F
330
6F52
330
6F5A
330
6F6C
330
6F5C
330
6F6D
330
6F68
330
6F45
 92
        7
 72
     0
 73
     1
 93
        8
 10
96.81823740955428
 20
120.7568188821141
 10
96.81823740955429
 20
117.565128516129
 10
97.31823740955428
 20
117.065128516129
 10
102.3182374095543
 20
117.065128516129
 10
103.2346065525066
 20
118.6523264302107
 10
103.231206074255
 20
118.6542896972446
 10
101.8523663847028
 20
117.8582162313122
 10
101.8489659064514
 20
117.8523264302107
 97
        8
330
6FAA
330
6F59
330
6F49
330
6F68
330
6F63
330
6F6E
330
6F5C
330
6F6B
 92
        7
 72
     0
 73
     1
 93
        4
 10
96.31823740955429
 20
118.065128516129
 10
96.81823740955429
 20
117.565128516129
 10
96.81823740955429
 20
120.7568188821141
 10
96.31823740955429
 20
121.0454940167089
 97
        4
330
6F6B
330
6F56
330
6F59
330
6FAA
 92
        7
 72
     0
 73
     1
 93
        4
 10
96.31823740955427
 20
127.9736972469845
 10
96.81823740955429
 20
127.6850221123897
 10
96.81823740955429
 20
132.565128516129
 10
96.31823740955429
 20
132.065128516129
 97
        4
330
6F52
330
6F56
330
6F6C
330
6F5A
 75
     0
 76
     1
 52
0.0
 41
0.5
 77
     0
 78
     1
 53
45.0
 43
0.0
 44
0.0
 45
-1.122532015133643
 46
1.122532015133644
 79
     0
 47
0.067040114455244
 98
        6
 10
71.76671143897784
 20
130.7448320586652
 10
76.9180145459743
 20
128.294109483989
 10
102.1431338035206
 20
128.7012820376095
 10
99.60584375015697
 20
118.3791675985596
 10
96.50235867519882
 20
119.2444869240229
 10
96.54909351522746
 20
130.9188259564515
  0
MTEXT
  5
77D0
330
18
100
AcDbEntity
  8
0
100
AcDbMText
 10
49.81948278949767
 20
19.37399834316261
 30
0.0
 40
5.0
 41
0.0
 71
     1
 72
     5
  1
\Ftxt.shx,bigfont.shx|c128;小柳
  7
JL
 73
     1
 44
1.0
  0
ENDSEC
  0
SECTION
  2
OBJECTS
  0
DICTIONARY
  5
C
330
0
100
AcDbDictionary
281
     1
  3
ACAD_COLOR
350
77D4
  3
ACAD_GROUP
350
D
  3
ACAD_LAYOUT
350
5CF3
  3
ACAD_MATERIAL
350
77D3
  3
ACAD_MLINESTYLE
350
1B
  3
ACAD_PLOTSETTINGS
350
5CF4
  3
ACAD_PLOTSTYLENAME
350
5CF1
  3
ACAD_TABLESTYLE
350
77D5
  3
ACDBVARIABLEDICTIONARY
350
45D
  0
DICTIONARY
  5
45F
330
18
100
AcDbDictionary
280
     1
281
     1
  3
ACAD_LAYOUTSELFREF
360
5D8B
  3
ACAD_SORTENTS
360
460
  0
DICTIONARY
  5
5D89
330
15
100
AcDbDictionary
280
     1
281
     1
  3
ACAD_LAYOUTSELFREF
360
5D8A
  0
DICTIONARY
  5
77D4
102
{ACAD_REACTORS
330
C
102
}
330
C
100
AcDbDictionary
281
     1
  0
DICTIONARY
  5
D
102
{ACAD_REACTORS
330
C
102
}
330
C
100
AcDbDictionary
281
     1
  0
DICTIONARY
  5
5CF3
102
{ACAD_REACTORS
330
C
102
}
330
C
100
AcDbDictionary
281
     1
  3
Model
350
5CF5
  3
配置1
350
5CF6
  0
DICTIONARY
  5
77D3
102
{ACAD_REACTORS
330
C
102
}
330
C
100
AcDbDictionary
281
     1
  0
DICTIONARY
  5
1B
102
{ACAD_REACTORS
330
C
102
}
330
C
100
AcDbDictionary
281
     1
  3
STANDARD
350
1C
  0
DICTIONARY
  5
5CF4
102
{ACAD_REACTORS
330
C
102
}
330
C
100
AcDbDictionary
281
     1
  0
ACDBDICTIONARYWDFLT
  5
5CF1
102
{ACAD_REACTORS
330
C
102
}
330
C
100
AcDbDictionary
281
     1
  3
Normal
350
5CF2
100
AcDbDictionaryWithDefault
340
5CF2
  0
DICTIONARY
  5
77D5
102
{ACAD_REACTORS
330
C
102
}
330
C
100
AcDbDictionary
281
     1
  3
Standard
350
77D6
  0
DICTIONARY
  5
45D
102
{ACAD_REACTORS
330
C
102
}
330
C
100
AcDbDictionary
281
     1
  3
CTABLESTYLE
350
77DE
  3
SORTENTS
350
45E
  0
XRECORD
  5
5D8B
102
{ACAD_REACTORS
330
45F
102
}
330
45F
100
AcDbXrecord
280
     1
340
18
  0
SORTENTSTABLE
  5
460
102
{ACAD_REACTORS
330
45F
102
}
330
45F
100
AcDbSortentsTable
330
18
331
C0
  5
CB
  0
XRECORD
  5
5D8A
102
{ACAD_REACTORS
330
5D89
102
}
330
5D89
100
AcDbXrecord
280
     1
340
15
  0
LAYOUT
  5
5CF5
102
{ACAD_REACTORS
330
5CF3
102
}
330
5CF3
100
AcDbPlotSettings
  1

  2
EPSON STYLUS COLOR 440
  4

  6

 40
0.0
 41
0.0
 42
0.0
 43
0.0
 44
0.0
 45
0.0
 46
0.0
 47
0.0
 48
0.0
 49
0.0
140
0.0
141
0.0
142
1.0
143
1.0
 70
  1712
 72
     0
 73
     0
 74
     0
  7
a.ctb
 75
     0
147
1.0
 76
     0
 77
     2
 78
   300
148
0.0
149
0.0
100
AcDbLayout
  1
Model
 70
     1
 71
     0
 10
0.0
 20
0.0
 11
12.0
 21
9.0
 12
0.0
 22
0.0
 32
0.0
 14
0.0
 24
0.0
 34
0.0
 15
0.0
 25
0.0
 35
0.0
146
0.0
 13
0.0
 23
0.0
 33
0.0
 16
1.0
 26
0.0
 36
0.0
 17
0.0
 27
1.0
 37
0.0
 76
     0
330
18
  0
LAYOUT
  5
5CF6
102
{ACAD_REACTORS
330
5CF3
102
}
330
5CF3
100
AcDbPlotSettings
  1

  2
EPSON STYLUS COLOR 440
  4

  6

 40
0.0
 41
0.0
 42
0.0
 43
0.0
 44
0.0
 45
0.0
 46
0.0
 47
0.0
 48
0.0
 49
0.0
140
0.0
141
0.0
142
1.0
143
1.0
 70
   688
 72
     0
 73
     0
 74
     5
  7
a.ctb
 75
    16
147
1.0
 76
     0
 77
     2
 78
   300
148
0.0
149
0.0
100
AcDbLayout
  1
ｰtｸm1
 70
     1
 71
     1
 10
0.0
 20
0.0
 11
420.0
 21
297.0
 12
0.0
 22
0.0
 32
0.0
 14
1.000000000000000E+20
 24
1.000000000000000E+20
 34
1.000000000000000E+20
 15
-1.000000000000000E+20
 25
-1.000000000000000E+20
 35
-1.000000000000000E+20
146
0.0
 13
0.0
 23
0.0
 33
0.0
 16
1.0
 26
0.0
 36
0.0
 17
0.0
 27
1.0
 37
0.0
 76
     0
330
15
  0
MLINESTYLE
  5
1C
102
{ACAD_REACTORS
330
1B
102
}
330
1B
100
AcDbMlineStyle
  2
STANDARD
 70
     0
  3

 62
   256
 51
90.0
 52
90.0
 71
     2
 49
0.5
 62
   256
  6
BYLAYER
 49
-0.5
 62
   256
  6
BYLAYER
  0
ACDBPLACEHOLDER
  5
5CF2
102
{ACAD_REACTORS
330
5CF1
102
}
330
5CF1
  0
TABLESTYLE
  5
77D6
102
{ACAD_REACTORS
330
77D5
102
}
330
77D5
100
AcDbTableStyle
  3
Standard
 70
     0
 71
     8
 40
1.5
 41
1.5
280
     0
281
     0
  7
STANDARD
140
4.5
170
     2
 62
     0
 63
     7
283
     0
274
    -2
284
     1
 64
     0
275
    -2
285
     1
 65
     0
276
    -2
286
     1
 66
     0
277
    -2
287
     1
 67
     0
278
    -2
288
     1
 68
     0
279
    -2
289
     1
 69
     0
  7
STANDARD
140
6.0
170
     5
 62
     0
 63
     7
283
     0
274
    -2
284
     1
 64
     0
275
    -2
285
     1
 65
     0
276
    -2
286
     1
 66
     0
277
    -2
287
     1
 67
     0
278
    -2
288
     1
 68
     0
279
    -2
289
     1
 69
     0
  7
STANDARD
140
4.5
170
     5
 62
     0
 63
     7
283
     0
274
    -2
284
     1
 64
     0
275
    -2
285
     1
 65
     0
276
    -2
286
     1
 66
     0
277
    -2
287
     1
 67
     0
278
    -2
288
     1
 68
     0
279
    -2
289
     1
 69
     0
  0
DICTIONARYVAR
  5
77DE
102
{ACAD_REACTORS
330
45D
102
}
330
45D
100
DictionaryVariables
280
     0
  1
STANDARD
  0
DICTIONARYVAR
  5
45E
102
{ACAD_REACTORS
330
45D
102
}
330
45D
100
DictionaryVariables
280
     0
  1
127
  0
ENDSEC
  0
EOF
