  0
SECTION
  2
HEADER
  9
$ACADVER
  1
AC1018
  9
$ACADMAINTVER
 70
    76
  9
$DWGCODEPAGE
  3
ANSI_932
  9
$INSBASE
 10
0.0
 20
0.0
 30
0.0
  9
$EXTMIN
 10
-0.0000000000002274
 20
-0.0000000000000568
 30
0.0
  9
$EXTMAX
 10
197.9999999999997
 20
290.0
 30
4.0
  9
$LIMMIN
 10
0.0
 20
0.0
  9
$LIMMAX
 10
420.0
 20
297.0
  9
$ORTHOMODE
 70
     0
  9
$REGENMODE
 70
     1
  9
$FILLMODE
 70
     1
  9
$QTEXTMODE
 70
     0
  9
$MIRRTEXT
 70
     1
  9
$LTSCALE
 40
1.0
  9
$ATTMODE
 70
     2
  9
$TEXTSIZE
 40
2.5
  9
$TRACEWID
 40
1.0
  9
$TEXTSTYLE
  7
TXT
  9
$CLAYER
  8
DIM
  9
$CELTYPE
  6
BYLAYER
  9
$CECOLOR
 62
   256
  9
$CELTSCALE
 40
1.0
  9
$DISPSILH
 70
     0
  9
$DIMSCALE
 40
1.0
  9
$DIMASZ
 40
2.5
  9
$DIMEXO
 40
1.0
  9
$DIMDLI
 40
6.0
  9
$DIMRND
 40
0.0
  9
$DIMDLE
 40
0.0
  9
$DIMEXE
 40
1.0
  9
$DIMTP
 40
0.0
  9
$DIMTM
 40
0.0
  9
$DIMTXT
 40
3.0
  9
$DIMCEN
 40
0.0
  9
$DIMTSZ
 40
0.0
  9
$DIMTOL
 70
     0
  9
$DIMLIM
 70
     0
  9
$DIMTIH
 70
     0
  9
$DIMTOH
 70
     0
  9
$DIMSE1
 70
     0
  9
$DIMSE2
 70
     0
  9
$DIMTAD
 70
     3
  9
$DIMZIN
 70
     8
  9
$DIMBLK
  1

  9
$DIMASO
 70
     1
  9
$DIMSHO
 70
     1
  9
$DIMPOST
  1

  9
$DIMAPOST
  1

  9
$DIMALT
 70
     0
  9
$DIMALTD
 70
     2
  9
$DIMALTF
 40
25.4
  9
$DIMLFAC
 40
1.0
  9
$DIMTOFL
 70
     0
  9
$DIMTVP
 40
0.0
  9
$DIMTIX
 70
     0
  9
$DIMSOXD
 70
     0
  9
$DIMSAH
 70
     0
  9
$DIMBLK1
  1

  9
$DIMBLK2
  1

  9
$DIMSTYLE
  2
A
  9
$DIMCLRD
 70
     6
  9
$DIMCLRE
 70
     6
  9
$DIMCLRT
 70
     3
  9
$DIMTFAC
 40
1.0
  9
$DIMGAP
 40
1.0
  9
$DIMJUST
 70
     0
  9
$DIMSD1
 70
     0
  9
$DIMSD2
 70
     0
  9
$DIMTOLJ
 70
     1
  9
$DIMTZIN
 70
     0
  9
$DIMALTZ
 70
     0
  9
$DIMALTTZ
 70
     0
  9
$DIMUPT
 70
     0
  9
$DIMDEC
 70
     1
  9
$DIMTDEC
 70
     1
  9
$DIMALTU
 70
     2
  9
$DIMALTTD
 70
     2
  9
$DIMTXSTY
  7
TXT
  9
$DIMAUNIT
 70
     0
  9
$DIMADEC
 70
     0
  9
$DIMALTRND
 40
0.0
  9
$DIMAZIN
 70
     0
  9
$DIMDSEP
 70
    46
  9
$DIMATFIT
 70
     3
  9
$DIMFRAC
 70
     0
  9
$DIMLDRBLK
  1

  9
$DIMLUNIT
 70
     2
  9
$DIMLWD
 70
    -2
  9
$DIMLWE
 70
    -2
  9
$DIMTMOVE
 70
     1
  9
$LUNITS
 70
     2
  9
$LUPREC
 70
     2
  9
$SKETCHINC
 40
1.0
  9
$FILLETRAD
 40
1.5
  9
$AUNITS
 70
     0
  9
$AUPREC
 70
     2
  9
$MENU
  1
.
  9
$ELEVATION
 40
0.0
  9
$PELEVATION
 40
0.0
  9
$THICKNESS
 40
0.0
  9
$LIMCHECK
 70
     0
  9
$CHAMFERA
 40
0.0
  9
$CHAMFERB
 40
0.0
  9
$CHAMFERC
 40
1.75
  9
$CHAMFERD
 40
0.0174532925199433
  9
$SKPOLY
 70
     0
  9
$TDCREATE
 40
2451555.578568171
  9
$TDUCREATE
 40
2451555.203568172
  9
$TDUPDATE
 40
2455846.596016262
  9
$TDUUPDATE
 40
2455846.221016262
  9
$TDINDWG
 40
2.2621377662
  9
$TDUSRTIMER
 40
2.2621377662
  9
$USRTIMER
 70
     1
  9
$ANGBASE
 50
0.0
  9
$ANGDIR
 70
     0
  9
$PDMODE
 70
     0
  9
$PDSIZE
 40
0.0
  9
$PLINEWID
 40
0.0
  9
$SPLFRAME
 70
     0
  9
$SPLINETYPE
 70
     6
  9
$SPLINESEGS
 70
     8
  9
$HANDSEED
  5
7B4F
  9
$SURFTAB1
 70
     6
  9
$SURFTAB2
 70
     6
  9
$SURFTYPE
 70
     6
  9
$SURFU
 70
     6
  9
$SURFV
 70
     6
  9
$UCSBASE
  2

  9
$UCSNAME
  2

  9
$UCSORG
 10
0.0
 20
0.0
 30
0.0
  9
$UCSXDIR
 10
1.0
 20
0.0
 30
0.0
  9
$UCSYDIR
 10
0.0
 20
1.0
 30
0.0
  9
$UCSORTHOREF
  2

  9
$UCSORTHOVIEW
 70
     0
  9
$UCSORGTOP
 10
0.0
 20
0.0
 30
0.0
  9
$UCSORGBOTTOM
 10
0.0
 20
0.0
 30
0.0
  9
$UCSORGLEFT
 10
0.0
 20
0.0
 30
0.0
  9
$UCSORGRIGHT
 10
0.0
 20
0.0
 30
0.0
  9
$UCSORGFRONT
 10
0.0
 20
0.0
 30
0.0
  9
$UCSORGBACK
 10
0.0
 20
0.0
 30
0.0
  9
$PUCSBASE
  2

  9
$PUCSNAME
  2

  9
$PUCSORG
 10
0.0
 20
0.0
 30
0.0
  9
$PUCSXDIR
 10
1.0
 20
0.0
 30
0.0
  9
$PUCSYDIR
 10
0.0
 20
1.0
 30
0.0
  9
$PUCSORTHOREF
  2

  9
$PUCSORTHOVIEW
 70
     0
  9
$PUCSORGTOP
 10
0.0
 20
0.0
 30
0.0
  9
$PUCSORGBOTTOM
 10
0.0
 20
0.0
 30
0.0
  9
$PUCSORGLEFT
 10
0.0
 20
0.0
 30
0.0
  9
$PUCSORGRIGHT
 10
0.0
 20
0.0
 30
0.0
  9
$PUCSORGFRONT
 10
0.0
 20
0.0
 30
0.0
  9
$PUCSORGBACK
 10
0.0
 20
0.0
 30
0.0
  9
$USERI1
 70
     0
  9
$USERI2
 70
     0
  9
$USERI3
 70
     0
  9
$USERI4
 70
     0
  9
$USERI5
 70
     0
  9
$USERR1
 40
0.0
  9
$USERR2
 40
0.0
  9
$USERR3
 40
0.0
  9
$USERR4
 40
0.0
  9
$USERR5
 40
0.0
  9
$WORLDVIEW
 70
     1
  9
$SHADEDGE
 70
     3
  9
$SHADEDIF
 70
    70
  9
$TILEMODE
 70
     1
  9
$MAXACTVP
 70
    48
  9
$PINSBASE
 10
0.0
 20
0.0
 30
0.0
  9
$PLIMCHECK
 70
     0
  9
$PEXTMIN
 10
1.000000000000000E+20
 20
1.000000000000000E+20
 30
1.000000000000000E+20
  9
$PEXTMAX
 10
-1.000000000000000E+20
 20
-1.000000000000000E+20
 30
-1.000000000000000E+20
  9
$PLIMMIN
 10
0.0
 20
0.0
  9
$PLIMMAX
 10
420.0
 20
297.0
  9
$UNITMODE
 70
     0
  9
$VISRETAIN
 70
     1
  9
$PLINEGEN
 70
     0
  9
$PSLTSCALE
 70
     1
  9
$TREEDEPTH
 70
  3020
  9
$CMLSTYLE
  2
STANDARD
  9
$CMLJUST
 70
     0
  9
$CMLSCALE
 40
20.0
  9
$PROXYGRAPHICS
 70
     1
  9
$MEASUREMENT
 70
     1
  9
$CELWEIGHT
370
    -1
  9
$ENDCAPS
280
     0
  9
$JOINSTYLE
280
     0
  9
$LWDISPLAY
290
     0
  9
$INSUNITS
 70
     0
  9
$HYPERLINKBASE
  1

  9
$STYLESHEET
  1

  9
$XEDIT
290
     1
  9
$CEPSNTYPE
380
     0
  9
$PSTYLEMODE
290
     1
  9
$FINGERPRINTGUID
  2
{1CF51E8A-A506-11D4-A7D9-AF69F5C20846}
  9
$VERSIONGUID
  2
{02317C5D-F348-4577-9719-182AF9567C70}
  9
$EXTNAMES
290
     1
  9
$PSVPSCALE
 40
0.0
  9
$OLESTARTUP
290
     0
  9
$SORTENTS
280
   127
  9
$INDEXCTL
280
     0
  9
$HIDETEXT
280
     0
  9
$XCLIPFRAME
290
     0
  9
$HALOGAP
280
     0
  9
$OBSCOLOR
 70
   257
  9
$OBSLTYPE
280
     0
  9
$INTERSECTIONDISPLAY
280
     0
  9
$INTERSECTIONCOLOR
 70
   257
  9
$DIMASSOC
280
     1
  9
$PROJECTNAME
  1

  0
ENDSEC
  0
SECTION
  2
CLASSES
  0
CLASS
  1
DICTIONARYVAR
  2
AcDbDictionaryVar
  3
ObjectDBX Classes
 90
        0
 91
        2
280
     0
281
     0
  0
CLASS
  1
SORTENTSTABLE
  2
AcDbSortentsTable
  3
ObjectDBX Classes
 90
        0
 91
        1
280
     0
281
     0
  0
CLASS
  1
ACDBDICTIONARYWDFLT
  2
AcDbDictionaryWithDefault
  3
ObjectDBX Classes
 90
        0
 91
        1
280
     0
281
     0
  0
CLASS
  1
TABLESTYLE
  2
AcDbTableStyle
  3
ObjectDBX Classes
 90
     2047
 91
        1
280
     0
281
     0
  0
ENDSEC
  0
SECTION
  2
TABLES
  0
TABLE
  2
VPORT
  5
8
330
0
100
AcDbSymbolTable
 70
     2
  0
VPORT
  5
7B4E
330
8
100
AcDbSymbolTableRecord
100
AcDbViewportTableRecord
  2
*Active
 70
     0
 10
0.0
 20
0.0
 11
1.0
 21
1.0
 12
151.260938269694
 22
149.4613835524248
 13
0.0
 23
0.0
 14
10.0
 24
10.0
 15
10.0
 25
10.0
 16
0.0
 26
0.0
 36
1.0
 17
0.0
 27
0.0
 37
0.0
 40
329.0686168377296
 41
2.47104247104247
 42
50.0
 43
0.0
 44
0.0
 50
0.0
 51
0.0
 71
     0
 72
   100
 73
     1
 74
     1
 75
     0
 76
     0
 77
     0
 78
     0
281
     0
 65
     1
110
0.0
120
0.0
130
0.0
111
1.0
121
0.0
131
0.0
112
0.0
122
1.0
132
0.0
 79
     0
146
0.0
  0
ENDTAB
  0
TABLE
  2
LTYPE
  5
5
330
0
100
AcDbSymbolTable
 70
     7
  0
LTYPE
  5
12
330
5
100
AcDbSymbolTableRecord
100
AcDbLinetypeTableRecord
  2
BYBLOCK
 70
     0
  3

 72
    65
 73
     0
 40
0.0
  0
LTYPE
  5
13
330
5
100
AcDbSymbolTableRecord
100
AcDbLinetypeTableRecord
  2
BYLAYER
 70
     0
  3

 72
    65
 73
     0
 40
0.0
  0
LTYPE
  5
14
330
5
100
AcDbSymbolTableRecord
100
AcDbLinetypeTableRecord
  2
CONTINUOUS
 70
     0
  3
Solid line
 72
    65
 73
     0
 40
0.0
  0
LTYPE
  5
9D
330
5
100
AcDbSymbolTableRecord
100
AcDbLinetypeTableRecord
  2
CENTERX2
 70
     0
  3
Center (2x) ________  __  ________  __  _____
 72
    65
 73
     4
 40
101.6
 49
63.5
 74
     0
 49
-12.7
 74
     0
 49
12.7
 74
     0
 49
-12.7
 74
     0
  0
LTYPE
  5
A1
330
5
100
AcDbSymbolTableRecord
100
AcDbLinetypeTableRecord
  2
DASHED
 70
     0
  3
Dashed __ __ __ __ __ __ __ __ __ __ __ __ __ _
 72
    65
 73
     2
 40
19.05
 49
12.7
 74
     0
 49
-6.349999999999999
 74
     0
  0
LTYPE
  5
A2
330
5
100
AcDbSymbolTableRecord
100
AcDbLinetypeTableRecord
  2
DASHED2
 70
     0
  3
Dashed (.5x) _ _ _ _ _ _ _ _ _ _ _ _ _ _ _ _ _
 72
    65
 73
     2
 40
9.524999999999998
 49
6.349999999999999
 74
     0
 49
-3.174999999999999
 74
     0
  0
LTYPE
  5
A5
330
5
100
AcDbSymbolTableRecord
100
AcDbLinetypeTableRecord
  2
DIVIDE2
 70
     0
  3
Divide (.5x) __..__..__..__..__..__..__..__.._
 72
    65
 73
     6
 40
15.875
 49
6.349999999999999
 74
     0
 49
-3.174999999999999
 74
     0
 49
0.0
 74
     0
 49
-3.174999999999999
 74
     0
 49
0.0
 74
     0
 49
-3.174999999999999
 74
     0
  0
LTYPE
  5
650B
330
5
100
AcDbSymbolTableRecord
100
AcDbLinetypeTableRecord
  2
CENTER
 70
     0
  3
Center ____ _ ____ _ ____ _ ____ _ ____ _ ____
 72
    65
 73
     4
 40
50.8
 49
31.75
 74
     0
 49
-6.349999999999999
 74
     0
 49
6.349999999999999
 74
     0
 49
-6.349999999999999
 74
     0
  0
LTYPE
  5
650C
330
5
100
AcDbSymbolTableRecord
100
AcDbLinetypeTableRecord
  2
HIDDEN
 70
     0
  3
Hidden __ __ __ __ __ __ __ __ __ __ __ __ __ _
 72
    65
 73
     2
 40
9.524999999999998
 49
6.349999999999999
 74
     0
 49
-3.174999999999999
 74
     0
  0
ENDTAB
  0
TABLE
  2
LAYER
  5
2
330
0
100
AcDbSymbolTable
 70
     9
  0
LAYER
  5
E
330
2
100
AcDbSymbolTableRecord
100
AcDbLayerTableRecord
  2
0
 70
     0
 62
     7
  6
CONTINUOUS
370
    -3
390
5CF2
  0
LAYER
  5
B9
330
2
100
AcDbSymbolTableRecord
100
AcDbLayerTableRecord
  2
DIM
 70
     0
 62
     3
  6
CONTINUOUS
370
    -3
390
5CF2
  0
LAYER
  5
F2
330
2
100
AcDbSymbolTableRecord
100
AcDbLayerTableRecord
  2
DEFPOINTS
 70
     0
 62
     4
  6
CONTINUOUS
290
     0
370
    -3
390
5CF2
  0
LAYER
  5
5F8B
330
2
100
AcDbSymbolTableRecord
100
AcDbLayerTableRecord
  2
公差
 70
     0
 62
     6
  6
CONTINUOUS
370
    -3
390
5CF2
  0
LAYER
  5
644E
330
2
100
AcDbSymbolTableRecord
100
AcDbLayerTableRecord
  2
図框線
 70
     0
 62
     9
  6
CONTINUOUS
370
    -3
390
5CF2
  0
LAYER
  5
650D
330
2
100
AcDbSymbolTableRecord
100
AcDbLayerTableRecord
  2
中心線
 70
     0
 62
     1
  6
CENTER
370
    -3
390
5CF2
  0
LAYER
  5
650E
330
2
100
AcDbSymbolTableRecord
100
AcDbLayerTableRecord
  2
本体内線
 70
     0
 62
     4
  6
HIDDEN
370
    -3
390
5CF2
  0
LAYER
  5
650F
330
2
100
AcDbSymbolTableRecord
100
AcDbLayerTableRecord
  2
本体外線
 70
     0
 62
     2
  6
CONTINUOUS
370
    -3
390
5CF2
  0
LAYER
  5
6510
330
2
100
AcDbSymbolTableRecord
100
AcDbLayerTableRecord
  2
剖面線
 70
     0
 62
     5
  6
CONTINUOUS
370
    -3
390
5CF2
  0
ENDTAB
  0
TABLE
  2
STYLE
  5
3
330
0
100
AcDbSymbolTable
 70
     5
  0
STYLE
  5
F
330
3
100
AcDbSymbolTableRecord
100
AcDbTextStyleTableRecord
  2
STANDARD
 70
     0
 40
0.0
 41
1.0
 50
0.0
 71
     0
 42
2.5
  3
txt
  4

  0
STYLE
  5
BE
330
3
100
AcDbSymbolTableRecord
100
AcDbTextStyleTableRecord
  2
ISOCP3
 70
     0
 40
0.0
 41
1.0
 50
0.0
 71
     0
 42
2.5
  3
isocp3.shx
  4

  0
STYLE
  5
2A37
330
3
100
AcDbSymbolTableRecord
100
AcDbTextStyleTableRecord
  2
TXT
 70
     0
 40
0.0
 41
1.0
 50
0.0
 71
     0
 42
2.5
  3
txt.shx
  4
bigfont.shx
  0
STYLE
  5
5DCB
330
3
100
AcDbSymbolTableRecord
100
AcDbTextStyleTableRecord
  2
LKK
 70
     0
 40
50.0
 41
1.5
 50
0.0
 71
     0
 42
50.0
  3
MS PGothic.ttf
  4

1001
ACAD
1000
MS PGothic
1071
    32818
  0
STYLE
  5
5DCC
330
3
100
AcDbSymbolTableRecord
100
AcDbTextStyleTableRecord
  2
JL
 70
     0
 40
10.0
 41
0.5
 50
0.0
 71
     0
 42
5.0
  3
MS Mincho.ttf
  4

1001
ACAD
1000
MS Mincho
1071
    32785
  0
ENDTAB
  0
TABLE
  2
VIEW
  5
6
330
0
100
AcDbSymbolTable
 70
     0
  0
ENDTAB
  0
TABLE
  2
UCS
  5
7
330
0
100
AcDbSymbolTable
 70
     0
  0
ENDTAB
  0
TABLE
  2
APPID
  5
9
330
0
100
AcDbSymbolTable
 70
     1
  0
APPID
  5
10
330
9
100
AcDbSymbolTableRecord
100
AcDbRegAppTableRecord
  2
ACAD
 70
     0
  0
ENDTAB
  0
TABLE
  2
DIMSTYLE
  5
A
330
0
100
AcDbSymbolTable
 70
     3
100
AcDbDimStyleTable
 71
     0
  0
DIMSTYLE
105
1D
330
A
100
AcDbSymbolTableRecord
100
AcDbDimStyleTableRecord
  2
STANDARD
 70
     0
 41
3.0
 42
0.06
 77
     3
140
4.0
144
0.3333333333333333
172
     1
340
F
  0
DIMSTYLE
105
1A4
102
{ACAD_REACTORS
330
6770
330
677F
330
6864
330
6C92
330
6CAA
330
6F74
330
74C6
330
750D
330
7568
330
7575
330
75D3
330
7AD6
102
}
330
A
100
AcDbSymbolTableRecord
100
AcDbDimStyleTableRecord
  2
A
 70
     0
 41
2.5
 42
1.0
 43
6.0
 44
1.0
 73
     0
 74
     0
 77
     3
 78
     8
140
3.0
141
0.0
147
1.0
176
     6
177
     6
178
     3
271
     1
272
     1
279
     1
340
2A37
  0
DIMSTYLE
105
6006
330
A
100
AcDbSymbolTableRecord
100
AcDbDimStyleTableRecord
  2
ISO-25
 70
     0
 40
0.0
 41
2.0
 42
0.3
 43
1.0
 44
0.3
 73
     0
 74
     0
 77
     1
 78
     8
140
3.0
147
1.0
172
     1
176
     6
177
     6
178
     3
271
     1
272
     2
284
     8
288
     1
289
     2
340
F
  0
ENDTAB
  0
TABLE
  2
BLOCK_RECORD
  5
1
330
0
100
AcDbSymbolTable
 70
    13
  0
BLOCK_RECORD
  5
18
102
{ACAD_XDICTIONARY
360
45F
102
}
330
1
100
AcDbSymbolTableRecord
100
AcDbBlockTableRecord
  2
*MODEL_SPACE
340
5CF5
  0
BLOCK_RECORD
  5
15
102
{ACAD_XDICTIONARY
360
5D89
102
}
330
1
100
AcDbSymbolTableRecord
100
AcDbBlockTableRecord
  2
*PAPER_SPACE
340
5CF6
  0
BLOCK_RECORD
  5
639D
330
1
100
AcDbSymbolTableRecord
100
AcDbBlockTableRecord
  2
A$C255C26A2
340
0
102
{BLKREFS
331
63A3
102
}
  0
BLOCK_RECORD
  5
67BC
330
1
100
AcDbSymbolTableRecord
100
AcDbBlockTableRecord
  2
*D1
340
0
  0
BLOCK_RECORD
  5
67D9
330
1
100
AcDbSymbolTableRecord
100
AcDbBlockTableRecord
  2
*D2
340
0
  0
BLOCK_RECORD
  5
6854
330
1
100
AcDbSymbolTableRecord
100
AcDbBlockTableRecord
  2
*D3
340
0
  0
BLOCK_RECORD
  5
6C86
330
1
100
AcDbSymbolTableRecord
100
AcDbBlockTableRecord
  2
*D4
340
0
  0
BLOCK_RECORD
  5
6C9E
330
1
100
AcDbSymbolTableRecord
100
AcDbBlockTableRecord
  2
*D5
340
0
  0
BLOCK_RECORD
  5
6FE3
330
1
100
AcDbSymbolTableRecord
100
AcDbBlockTableRecord
  2
*D6
340
0
  0
BLOCK_RECORD
  5
74B6
330
1
100
AcDbSymbolTableRecord
100
AcDbBlockTableRecord
  2
*D7
340
0
  0
BLOCK_RECORD
  5
7501
330
1
100
AcDbSymbolTableRecord
100
AcDbBlockTableRecord
  2
*D8
340
0
  0
BLOCK_RECORD
  5
755C
330
1
100
AcDbSymbolTableRecord
100
AcDbBlockTableRecord
  2
*D9
340
0
  0
BLOCK_RECORD
  5
7569
330
1
100
AcDbSymbolTableRecord
100
AcDbBlockTableRecord
  2
*D10
340
0
  0
BLOCK_RECORD
  5
75C5
330
1
100
AcDbSymbolTableRecord
100
AcDbBlockTableRecord
  2
*D11
340
0
  0
BLOCK_RECORD
  5
7AC6
330
1
100
AcDbSymbolTableRecord
100
AcDbBlockTableRecord
  2
*D12
340
0
  0
ENDTAB
  0
ENDSEC
  0
SECTION
  2
BLOCKS
  0
BLOCK
  5
19
330
18
100
AcDbEntity
  8
0
100
AcDbBlockBegin
  2
*MODEL_SPACE
 70
     0
 10
0.0
 20
0.0
 30
0.0
  3
*MODEL_SPACE
  1

  0
ENDBLK
  5
1A
330
18
100
AcDbEntity
  8
0
100
AcDbBlockEnd
  0
BLOCK
  5
16
330
15
100
AcDbEntity
 67
     1
  8
0
100
AcDbBlockBegin
  2
*PAPER_SPACE
 70
     0
 10
0.0
 20
0.0
 30
0.0
  3
*PAPER_SPACE
  1

  0
ENDBLK
  5
17
330
15
100
AcDbEntity
 67
     1
  8
0
100
AcDbBlockEnd
  0
BLOCK
  5
63A1
330
639D
100
AcDbEntity
  8
0
100
AcDbBlockBegin
  2
A$C255C26A2
 70
     0
 10
0.0
 20
0.0
 30
0.0
  3
A$C255C26A2
  1

  0
LWPOLYLINE
  5
639E
330
639D
100
AcDbEntity
  8
0
100
AcDbPolyline
 90
        3
 70
     1
 43
0.0
 10
7.014806023851633
 20
0.0000006939811783
 10
5.611844869720698
 20
2.430000693981241
 10
8.417767177982568
 20
2.430000693981241
  0
LWPOLYLINE
  5
639F
330
639D
100
AcDbEntity
  8
0
100
AcDbPolyline
 90
        3
 70
     1
 43
0.0
 10
4.20888371558999
 20
0.0000006939811783
 10
2.805922561459283
 20
2.430000693981241
 10
5.611844869720698
 20
2.430000693981241
  0
LWPOLYLINE
  5
63A0
330
639D
100
AcDbEntity
  8
0
100
AcDbPolyline
 90
        3
 70
     1
 43
0.0
 10
1.402961407328348
 20
0.0000006939811783
 10
0.0000002531974133
 20
2.430000693981241
 10
2.805922561459283
 20
2.430000693981241
  0
ENDBLK
  5
63A2
330
639D
100
AcDbEntity
  8
0
100
AcDbBlockEnd
  0
BLOCK
  5
7ABB
330
67BC
100
AcDbEntity
  8
0
100
AcDbBlockBegin
  2
*D1
 70
     1
 10
0.0
 20
0.0
 30
0.0
  3
*D1
  1

  0
LINE
  5
7ABC
330
67BC
100
AcDbEntity
  8
0
  6
ByBlock
 62
     6
100
AcDbLine
 10
270.9767602876278
 20
105.3337221819853
 30
0.0
 11
270.9767602876278
 21
84.87118322628692
 31
0.0
  0
LINE
  5
7ABD
330
67BC
100
AcDbEntity
  8
0
  6
ByBlock
 62
     6
100
AcDbLine
 10
295.9767602876281
 20
105.4337221819851
 30
0.0
 11
295.9767602876281
 21
84.87118322628692
 31
0.0
  0
LINE
  5
7ABE
330
67BC
100
AcDbEntity
  8
0
  6
ByBlock
 62
     6
100
AcDbLine
 10
273.4767602876278
 20
85.87118322628692
 30
0.0
 11
293.4767602876281
 21
85.87118322628692
 31
0.0
  0
MTEXT
  5
7ABF
330
67BC
100
AcDbEntity
  8
0
  6
ByBlock
 62
     3
100
AcDbMText
 10
283.4767602876278
 20
88.37118322628692
 30
0.0
 40
3.0
 41
0.0
 71
     5
 72
     1
  1
\A1;M25X1.5P
  7
TXT
 73
     1
 44
1.0
  0
SOLID
  5
7AC0
330
67BC
100
AcDbEntity
  8
0
  6
ByBlock
 62
     6
100
AcDbTrace
 10
273.4767602876278
 20
86.28784989295359
 30
0.0
 11
273.4767602876278
 21
85.45451655962024
 31
0.0
 12
270.9767602876278
 22
85.87118322628692
 32
0.0
 13
270.9767602876278
 23
85.87118322628692
 33
0.0
  0
SOLID
  5
7AC1
330
67BC
100
AcDbEntity
  8
0
  6
ByBlock
 62
     6
100
AcDbTrace
 10
293.4767602876281
 20
86.28784989295359
 30
0.0
 11
293.4767602876281
 21
85.45451655962024
 31
0.0
 12
295.9767602876281
 22
85.87118322628692
 32
0.0
 13
295.9767602876281
 23
85.87118322628692
 33
0.0
  0
POINT
  5
7AC2
330
67BC
100
AcDbEntity
  8
DEFPOINTS
  6
ByBlock
 62
     0
100
AcDbPoint
 10
270.9767602876278
 20
106.3337221819853
 30
0.0
  0
POINT
  5
7AC3
330
67BC
100
AcDbEntity
  8
DEFPOINTS
  6
ByBlock
 62
     0
100
AcDbPoint
 10
295.9767602876281
 20
106.4337221819851
 30
0.0
  0
POINT
  5
7AC4
330
67BC
100
AcDbEntity
  8
DEFPOINTS
  6
ByBlock
 62
     0
100
AcDbPoint
 10
295.9767602876281
 20
85.87118322628692
 30
0.0
  0
ENDBLK
  5
7AC5
330
67BC
100
AcDbEntity
  8
0
100
AcDbBlockEnd
  0
BLOCK
  5
6C2B
330
67D9
100
AcDbEntity
  8
0
100
AcDbBlockBegin
  2
*D2
 70
     1
 10
0.0
 20
0.0
 30
0.0
  3
*D2
  1

  0
LINE
  5
6C2C
330
67D9
100
AcDbEntity
  8
0
  6
ByBlock
 62
     6
100
AcDbLine
 10
79.68718311844742
 20
199.7871061742178
 30
0.0
 11
79.68718311844742
 21
174.5091432966803
 31
0.0
  0
LINE
  5
6C2D
330
67D9
100
AcDbEntity
  8
0
  6
ByBlock
 62
     6
100
AcDbLine
 10
81.67252176916111
 20
199.7871061742177
 30
0.0
 11
81.67252176916111
 21
174.5091432966803
 31
0.0
  0
LINE
  5
6C2E
330
67D9
100
AcDbEntity
  8
0
  6
ByBlock
 62
     6
100
AcDbLine
 10
77.18718311844742
 20
175.5091432966803
 30
0.0
 11
74.68718311844742
 21
175.5091432966803
 31
0.0
  0
LINE
  5
6C2F
330
67D9
100
AcDbEntity
  8
0
  6
ByBlock
 62
     6
100
AcDbLine
 10
84.17252176916111
 20
175.5091432966803
 30
0.0
 11
86.67252176916111
 21
175.5091432966803
 31
0.0
  0
MTEXT
  5
6C30
330
67D9
100
AcDbEntity
  8
0
  6
ByBlock
 62
     3
100
AcDbMText
 10
86.67252176916111
 20
178.0091432966803
 30
0.0
 40
3.0
 41
0.0
 71
     5
 72
     1
  1
\A1;2
  7
TXT
 73
     1
 44
1.0
  0
LINE
  5
6C31
330
67D9
100
AcDbEntity
  8
0
  6
ByBlock
 62
     6
100
AcDbLine
 10
79.68718311844742
 20
175.5091432966803
 30
0.0
 11
81.67252176916111
 21
175.5091432966803
 31
0.0
  0
SOLID
  5
6C32
330
67D9
100
AcDbEntity
  8
0
  6
ByBlock
 62
     6
100
AcDbTrace
 10
77.18718311844742
 20
175.925809963347
 30
0.0
 11
77.18718311844742
 21
175.0924766300137
 31
0.0
 12
79.68718311844742
 22
175.5091432966803
 32
0.0
 13
79.68718311844742
 23
175.5091432966803
 33
0.0
  0
SOLID
  5
6C33
330
67D9
100
AcDbEntity
  8
0
  6
ByBlock
 62
     6
100
AcDbTrace
 10
84.17252176916111
 20
175.925809963347
 30
0.0
 11
84.17252176916111
 21
175.0924766300137
 31
0.0
 12
81.67252176916111
 22
175.5091432966803
 32
0.0
 13
81.67252176916111
 23
175.5091432966803
 33
0.0
  0
POINT
  5
6C34
330
67D9
100
AcDbEntity
  8
DEFPOINTS
  6
ByBlock
 62
     0
100
AcDbPoint
 10
79.68718311844742
 20
200.7871061742178
 30
0.0
  0
POINT
  5
6C35
330
67D9
100
AcDbEntity
  8
DEFPOINTS
  6
ByBlock
 62
     0
100
AcDbPoint
 10
81.67252176916111
 20
200.7871061742178
 30
0.0
  0
POINT
  5
6C36
330
67D9
100
AcDbEntity
  8
DEFPOINTS
  6
ByBlock
 62
     0
100
AcDbPoint
 10
81.67252176916111
 20
175.5091432966803
 30
0.0
  0
ENDBLK
  5
6C37
330
67D9
100
AcDbEntity
  8
0
100
AcDbBlockEnd
  0
BLOCK
  5
79FF
330
6854
100
AcDbEntity
  8
0
100
AcDbBlockBegin
  2
*D3
 70
     1
 10
0.0
 20
0.0
 30
0.0
  3
*D3
  1

  0
LINE
  5
7A00
330
6854
100
AcDbEntity
  8
0
  6
ByBlock
 62
     6
100
AcDbLine
 10
261.5914216369142
 20
188.0114373377751
 30
0.0
 11
249.6278638881392
 21
188.0114373377751
 31
0.0
  0
LINE
  5
7A01
330
6854
100
AcDbEntity
  8
0
  6
ByBlock
 62
     6
100
AcDbLine
 10
261.5914216369142
 20
193.0114373377751
 30
0.0
 11
249.6278638881392
 21
193.0114373377751
 31
0.0
  0
LINE
  5
7A02
330
6854
100
AcDbEntity
  8
0
  6
ByBlock
 62
     6
100
AcDbLine
 10
250.6278638881391
 20
185.5114373377751
 30
0.0
 11
250.6278638881391
 21
183.0114373377751
 31
0.0
  0
LINE
  5
7A03
330
6854
100
AcDbEntity
  8
0
  6
ByBlock
 62
     6
100
AcDbLine
 10
250.6278638881391
 20
195.5114373377751
 30
0.0
 11
250.6278638881391
 21
198.0114373377751
 31
0.0
  0
MTEXT
  5
7A04
330
6854
100
AcDbEntity
  8
0
  6
ByBlock
 62
     3
100
AcDbMText
 10
247.2534598472833
 20
202.6895289041656
 30
0.0
 40
3.0
 41
0.0
 71
     5
 72
     1
  1
\A1;5      (3等分)
  7
TXT
 11
0.0000000000000001
 21
1.0
 31
0.0
 73
     1
 44
1.0
  0
LINE
  5
7A05
330
6854
100
AcDbEntity
  8
0
  6
ByBlock
 62
     6
100
AcDbLine
 10
250.6278638881391
 20
188.0114373377751
 30
0.0
 11
250.6278638881391
 21
193.0114373377751
 31
0.0
  0
SOLID
  5
7A06
330
6854
100
AcDbEntity
  8
0
  6
ByBlock
 62
     6
100
AcDbTrace
 10
250.2111972214725
 20
185.5114373377751
 30
0.0
 11
251.0445305548058
 21
185.5114373377751
 31
0.0
 12
250.6278638881391
 22
188.0114373377751
 32
0.0
 13
250.6278638881391
 23
188.0114373377751
 33
0.0
  0
SOLID
  5
7A07
330
6854
100
AcDbEntity
  8
0
  6
ByBlock
 62
     6
100
AcDbTrace
 10
250.2111972214725
 20
195.5114373377751
 30
0.0
 11
251.0445305548058
 21
195.5114373377751
 31
0.0
 12
250.6278638881391
 22
193.0114373377751
 32
0.0
 13
250.6278638881391
 23
193.0114373377751
 33
0.0
  0
POINT
  5
7A08
330
6854
100
AcDbEntity
  8
DEFPOINTS
  6
ByBlock
 62
     0
100
AcDbPoint
 10
262.5914216369142
 20
188.0114373377751
 30
0.0
  0
POINT
  5
7A09
330
6854
100
AcDbEntity
  8
DEFPOINTS
  6
ByBlock
 62
     0
100
AcDbPoint
 10
262.5914216369142
 20
193.0114373377751
 30
0.0
  0
POINT
  5
7A0A
330
6854
100
AcDbEntity
  8
DEFPOINTS
  6
ByBlock
 62
     0
100
AcDbPoint
 10
250.6278638881391
 20
193.0114373377751
 30
0.0
  0
ENDBLK
  5
7A0B
330
6854
100
AcDbEntity
  8
0
100
AcDbBlockEnd
  0
BLOCK
  5
7A84
330
6C86
100
AcDbEntity
  8
0
100
AcDbBlockBegin
  2
*D4
 70
     1
 10
0.0
 20
0.0
 30
0.0
  3
*D4
  1

  0
LINE
  5
7A85
330
6C86
100
AcDbEntity
  8
0
  6
ByBlock
 62
     6
100
AcDbLine
 10
265.4767602876279
 20
124.8337221819853
 30
0.0
 11
265.4767602876279
 21
143.0249454001408
 31
0.0
  0
LINE
  5
7A86
330
6C86
100
AcDbEntity
  8
0
  6
ByBlock
 62
     6
100
AcDbLine
 10
301.4767602876279
 20
124.8337221819853
 30
0.0
 11
301.4767602876279
 21
143.0249454001408
 31
0.0
  0
LINE
  5
7A87
330
6C86
100
AcDbEntity
  8
0
  6
ByBlock
 62
     6
100
AcDbLine
 10
267.9767602876279
 20
142.0249454001408
 30
0.0
 11
298.9767602876279
 21
142.0249454001408
 31
0.0
  0
SOLID
  5
7A88
330
6C86
100
AcDbEntity
  8
0
  6
ByBlock
 62
     6
100
AcDbTrace
 10
267.9767602876279
 20
142.4416120668075
 30
0.0
 11
267.9767602876279
 21
141.6082787334742
 31
0.0
 12
265.4767602876279
 22
142.0249454001408
 32
0.0
 13
265.4767602876279
 23
142.0249454001408
 33
0.0
  0
SOLID
  5
7A89
330
6C86
100
AcDbEntity
  8
0
  6
ByBlock
 62
     6
100
AcDbTrace
 10
298.9767602876279
 20
142.4416120668075
 30
0.0
 11
298.9767602876279
 21
141.6082787334742
 31
0.0
 12
301.4767602876279
 22
142.0249454001408
 32
0.0
 13
301.4767602876279
 23
142.0249454001408
 33
0.0
  0
MTEXT
  5
7A8A
330
6C86
100
AcDbEntity
  8
0
  6
ByBlock
 62
     3
100
AcDbMText
 10
283.4767602876279
 20
144.5249454001408
 30
0.0
 40
3.0
 41
0.0
 71
     5
 72
     1
  1
\A1;\U+220536±0.5
  7
TXT
 73
     1
 44
1.0
  0
POINT
  5
7A8B
330
6C86
100
AcDbEntity
  8
DEFPOINTS
  6
ByBlock
 62
     0
100
AcDbPoint
 10
265.4767602876279
 20
123.8337221819853
 30
0.0
  0
POINT
  5
7A8C
330
6C86
100
AcDbEntity
  8
DEFPOINTS
  6
ByBlock
 62
     0
100
AcDbPoint
 10
301.4767602876279
 20
123.8337221819853
 30
0.0
  0
POINT
  5
7A8D
330
6C86
100
AcDbEntity
  8
DEFPOINTS
  6
ByBlock
 62
     0
100
AcDbPoint
 10
301.4767602876279
 20
142.0249454001408
 30
0.0
  0
ENDBLK
  5
7A8E
330
6C86
100
AcDbEntity
  8
0
100
AcDbBlockEnd
  0
BLOCK
  5
7A8F
330
6C9E
100
AcDbEntity
  8
0
100
AcDbBlockBegin
  2
*D5
 70
     1
 10
0.0
 20
0.0
 30
0.0
  3
*D5
  1

  0
LINE
  5
7A90
330
6C9E
100
AcDbEntity
  8
0
  6
ByBlock
 62
     6
100
AcDbLine
 10
262.4767602876279
 20
122.8337221819853
 30
0.0
 11
262.4767602876279
 21
148.5324154905557
 31
0.0
  0
LINE
  5
7A91
330
6C9E
100
AcDbEntity
  8
0
  6
ByBlock
 62
     6
100
AcDbLine
 10
304.4767602876279
 20
122.8337221819853
 30
0.0
 11
304.4767602876279
 21
148.5324154905557
 31
0.0
  0
LINE
  5
7A92
330
6C9E
100
AcDbEntity
  8
0
  6
ByBlock
 62
     6
100
AcDbLine
 10
264.9767602876279
 20
147.5324154905557
 30
0.0
 11
301.9767602876279
 21
147.5324154905557
 31
0.0
  0
MTEXT
  5
7A93
330
6C9E
100
AcDbEntity
  8
0
  6
ByBlock
 62
     3
100
AcDbMText
 10
279.407704159714
 20
150.858536240441
 30
0.0
 40
3.0
 41
0.0
 71
     5
 72
     1
  1
\A1;\U+220542
  7
TXT
 73
     1
 44
1.0
  0
SOLID
  5
7A94
330
6C9E
100
AcDbEntity
  8
0
  6
ByBlock
 62
     6
100
AcDbTrace
 10
264.9767602876279
 20
147.9490821572224
 30
0.0
 11
264.9767602876279
 21
147.1157488238891
 31
0.0
 12
262.4767602876279
 22
147.5324154905557
 32
0.0
 13
262.4767602876279
 23
147.5324154905557
 33
0.0
  0
SOLID
  5
7A95
330
6C9E
100
AcDbEntity
  8
0
  6
ByBlock
 62
     6
100
AcDbTrace
 10
301.9767602876279
 20
147.9490821572224
 30
0.0
 11
301.9767602876279
 21
147.1157488238891
 31
0.0
 12
304.4767602876279
 22
147.5324154905557
 32
0.0
 13
304.4767602876279
 23
147.5324154905557
 33
0.0
  0
POINT
  5
7A96
330
6C9E
100
AcDbEntity
  8
DEFPOINTS
  6
ByBlock
 62
     0
100
AcDbPoint
 10
262.4767602876279
 20
121.8337221819853
 30
0.0
  0
POINT
  5
7A97
330
6C9E
100
AcDbEntity
  8
DEFPOINTS
  6
ByBlock
 62
     0
100
AcDbPoint
 10
304.4767602876279
 20
121.8337221819853
 30
0.0
  0
POINT
  5
7A98
330
6C9E
100
AcDbEntity
  8
DEFPOINTS
  6
ByBlock
 62
     0
100
AcDbPoint
 10
304.4767602876279
 20
147.5324154905557
 30
0.0
  0
ENDBLK
  5
7A99
330
6C9E
100
AcDbEntity
  8
0
100
AcDbBlockEnd
  0
BLOCK
  5
7AF3
330
6FE3
100
AcDbEntity
  8
0
100
AcDbBlockBegin
  2
*D6
 70
     1
 10
0.0
 20
0.0
 30
0.0
  3
*D6
  1

  0
LINE
  5
7AF4
330
6FE3
100
AcDbEntity
  8
0
  6
ByBlock
 62
     6
100
AcDbLine
 10
109.0086061317764
 20
111.3959000084763
 30
0.0
 11
137.7748970357753
 21
94.78767421146542
 31
0.0
  0
LINE
  5
7AF5
330
6FE3
100
AcDbEntity
  8
0
  6
ByBlock
 62
     6
100
AcDbLine
 10
105.5086061317764
 20
105.3337221819853
 30
0.0
 11
134.2748970357753
 21
88.7254963849744
 31
0.0
  0
LINE
  5
7AF6
330
6FE3
100
AcDbEntity
  8
0
  6
ByBlock
 62
     6
100
AcDbLine
 10
138.1588716319908
 20
97.45273772092652
 30
0.0
 11
139.4088716319908
 21
99.61780123038762
 31
0.0
  0
LINE
  5
7AF7
330
6FE3
100
AcDbEntity
  8
0
  6
ByBlock
 62
     6
100
AcDbLine
 10
132.1588716319908
 20
87.06043287551333
 30
0.0
 11
130.9088716319908
 21
84.89536936605222
 31
0.0
  0
LINE
  5
7AF8
330
6FE3
100
AcDbEntity
  8
0
  6
ByBlock
 62
     6
100
AcDbLine
 10
146.8468933051792
 20
112.5008326761483
 30
0.0
 11
136.9088716319908
 21
95.28767421146543
 31
0.0
  0
MTEXT
  5
7AF9
330
6FE3
100
AcDbEntity
  8
0
  6
ByBlock
 62
     3
100
AcDbMText
 10
141.1568297957181
 20
107.645353579468
 30
0.0
 40
3.0
 41
0.0
 71
     5
 72
     1
  1
\A1;7±0.5
  7
TXT
 11
0.5000000000000026
 21
0.8660254037844371
 31
0.0
 73
     1
 44
1.0
  0
LINE
  5
7AFA
330
6FE3
100
AcDbEntity
  8
0
  6
ByBlock
 62
     6
100
AcDbLine
 10
136.9088716319908
 20
95.28767421146543
 30
0.0
 11
133.4088716319908
 21
89.22549638497441
 31
0.0
  0
SOLID
  5
7AFB
330
6FE3
100
AcDbEntity
  8
0
  6
ByBlock
 62
     6
100
AcDbTrace
 10
137.7980277137473
 20
97.66107105425986
 30
0.0
 11
138.5197155502343
 21
97.24440438759319
 31
0.0
 12
136.9088716319908
 22
95.28767421146543
 32
0.0
 13
136.9088716319908
 23
95.28767421146543
 33
0.0
  0
SOLID
  5
7AFC
330
6FE3
100
AcDbEntity
  8
0
  6
ByBlock
 62
     6
100
AcDbTrace
 10
131.7980277137473
 20
87.26876620884665
 30
0.0
 11
132.5197155502343
 21
86.85209954217999
 31
0.0
 12
133.4088716319908
 22
89.22549638497441
 32
0.0
 13
133.4088716319908
 23
89.22549638497441
 33
0.0
  0
POINT
  5
7AFD
330
6FE3
100
AcDbEntity
  8
DEFPOINTS
  6
ByBlock
 62
     0
100
AcDbPoint
 10
108.1425807279919
 20
111.8959000084764
 30
0.0
  0
POINT
  5
7AFE
330
6FE3
100
AcDbEntity
  8
DEFPOINTS
  6
ByBlock
 62
     0
100
AcDbPoint
 10
104.6425807279919
 20
105.8337221819853
 30
0.0
  0
POINT
  5
7AFF
330
6FE3
100
AcDbEntity
  8
DEFPOINTS
  6
ByBlock
 62
     0
100
AcDbPoint
 10
133.4088716319908
 20
89.22549638497441
 30
0.0
  0
ENDBLK
  5
7B00
330
6FE3
100
AcDbEntity
  8
0
100
AcDbBlockEnd
  0
BLOCK
  5
7A4A
330
74B6
100
AcDbEntity
  8
0
100
AcDbBlockBegin
  2
*D7
 70
     1
 10
0.0
 20
0.0
 30
0.0
  3
*D7
  1

  0
LINE
  5
7A4B
330
74B6
100
AcDbEntity
  8
0
  6
ByBlock
 62
     6
100
AcDbLine
 10
264.4767602876279
 20
123.8337221819853
 30
0.0
 11
250.5278638881392
 21
123.8337221819853
 31
0.0
  0
LINE
  5
7A4C
330
74B6
100
AcDbEntity
  8
0
  6
ByBlock
 62
     6
100
AcDbLine
 10
262.4767602876278
 20
123.3337221819853
 30
0.0
 11
250.5278638881392
 21
123.3337221819853
 31
0.0
  0
LINE
  5
7A4D
330
74B6
100
AcDbEntity
  8
0
  6
ByBlock
 62
     6
100
AcDbLine
 10
251.5278638881392
 20
126.3337221819853
 30
0.0
 11
251.5278638881392
 21
128.8337221819852
 31
0.0
  0
LINE
  5
7A4E
330
74B6
100
AcDbEntity
  8
0
  6
ByBlock
 62
     6
100
AcDbLine
 10
251.5278638881392
 20
120.8337221819853
 30
0.0
 11
251.5278638881392
 21
118.3337221819853
 31
0.0
  0
LINE
  5
7A4F
330
74B6
100
AcDbEntity
  8
0
  6
ByBlock
 62
     6
100
AcDbLine
 10
251.5278638881392
 20
137.7437194431354
 30
0.0
 11
251.5278638881392
 21
123.8337221819853
 31
0.0
  0
MTEXT
  5
7A50
330
74B6
100
AcDbEntity
  8
0
  6
ByBlock
 62
     3
100
AcDbMText
 10
249.0278638881392
 20
133.9937194431354
 30
0.0
 40
3.0
 41
0.0
 71
     5
 72
     1
  1
\A1;0.5
  7
TXT
 11
0.0000000000000001
 21
1.0
 31
0.0
 73
     1
 44
1.0
  0
LINE
  5
7A51
330
74B6
100
AcDbEntity
  8
0
  6
ByBlock
 62
     6
100
AcDbLine
 10
251.5278638881392
 20
123.8337221819853
 30
0.0
 11
251.5278638881392
 21
123.3337221819853
 31
0.0
  0
SOLID
  5
7A52
330
74B6
100
AcDbEntity
  8
0
  6
ByBlock
 62
     6
100
AcDbTrace
 10
251.1111972214725
 20
126.3337221819853
 30
0.0
 11
251.9445305548058
 21
126.3337221819853
 31
0.0
 12
251.5278638881392
 22
123.8337221819853
 32
0.0
 13
251.5278638881392
 23
123.8337221819853
 33
0.0
  0
SOLID
  5
7A53
330
74B6
100
AcDbEntity
  8
0
  6
ByBlock
 62
     6
100
AcDbTrace
 10
251.1111972214725
 20
120.8337221819853
 30
0.0
 11
251.9445305548058
 21
120.8337221819853
 31
0.0
 12
251.5278638881392
 22
123.3337221819853
 32
0.0
 13
251.5278638881392
 23
123.3337221819853
 33
0.0
  0
POINT
  5
7A54
330
74B6
100
AcDbEntity
  8
DEFPOINTS
  6
ByBlock
 62
     0
100
AcDbPoint
 10
265.4767602876279
 20
123.8337221819853
 30
0.0
  0
POINT
  5
7A55
330
74B6
100
AcDbEntity
  8
DEFPOINTS
  6
ByBlock
 62
     0
100
AcDbPoint
 10
263.4767602876278
 20
123.3337221819853
 30
0.0
  0
POINT
  5
7A56
330
74B6
100
AcDbEntity
  8
DEFPOINTS
  6
ByBlock
 62
     0
100
AcDbPoint
 10
251.5278638881392
 20
123.3337221819853
 30
0.0
  0
ENDBLK
  5
7A57
330
74B6
100
AcDbEntity
  8
0
100
AcDbBlockEnd
  0
BLOCK
  5
7A79
330
7501
100
AcDbEntity
  8
0
100
AcDbBlockBegin
  2
*D8
 70
     1
 10
0.0
 20
0.0
 30
0.0
  3
*D8
  1

  0
LINE
  5
7A7A
330
7501
100
AcDbEntity
  8
0
  6
ByBlock
 62
     6
100
AcDbLine
 10
270.4767602876278
 20
124.8337221819851
 30
0.0
 11
270.4767602876278
 21
137.1818505885122
 31
0.0
  0
LINE
  5
7A7B
330
7501
100
AcDbEntity
  8
0
  6
ByBlock
 62
     6
100
AcDbLine
 10
296.4767602876279
 20
124.6068299570467
 30
0.0
 11
296.4767602876279
 21
137.1818505885122
 31
0.0
  0
LINE
  5
7A7C
330
7501
100
AcDbEntity
  8
0
  6
ByBlock
 62
     6
100
AcDbLine
 10
272.9767602876278
 20
136.1818505885122
 30
0.0
 11
293.9767602876279
 21
136.1818505885122
 31
0.0
  0
SOLID
  5
7A7D
330
7501
100
AcDbEntity
  8
0
  6
ByBlock
 62
     6
100
AcDbTrace
 10
272.9767602876278
 20
136.5985172551789
 30
0.0
 11
272.9767602876278
 21
135.7651839218456
 31
0.0
 12
270.4767602876278
 22
136.1818505885122
 32
0.0
 13
270.4767602876278
 23
136.1818505885122
 33
0.0
  0
SOLID
  5
7A7E
330
7501
100
AcDbEntity
  8
0
  6
ByBlock
 62
     6
100
AcDbTrace
 10
293.9767602876279
 20
136.5985172551789
 30
0.0
 11
293.9767602876279
 21
135.7651839218456
 31
0.0
 12
296.4767602876279
 22
136.1818505885122
 32
0.0
 13
296.4767602876279
 23
136.1818505885122
 33
0.0
  0
MTEXT
  5
7A7F
330
7501
100
AcDbEntity
  8
0
  6
ByBlock
 62
     3
100
AcDbMText
 10
283.4767602876279
 20
138.6818505885122
 30
0.0
 40
3.0
 41
0.0
 71
     5
 72
     1
  1
\A1;\U+220526
  7
TXT
 73
     1
 44
1.0
  0
POINT
  5
7A80
330
7501
100
AcDbEntity
  8
DEFPOINTS
  6
ByBlock
 62
     0
100
AcDbPoint
 10
270.4767602876278
 20
123.8337221819851
 30
0.0
  0
POINT
  5
7A81
330
7501
100
AcDbEntity
  8
DEFPOINTS
  6
ByBlock
 62
     0
100
AcDbPoint
 10
296.4767602876279
 20
123.6068299570467
 30
0.0
  0
POINT
  5
7A82
330
7501
100
AcDbEntity
  8
DEFPOINTS
  6
ByBlock
 62
     0
100
AcDbPoint
 10
296.4767602876279
 20
136.1818505885122
 30
0.0
  0
ENDBLK
  5
7A83
330
7501
100
AcDbEntity
  8
0
100
AcDbBlockEnd
  0
BLOCK
  5
7B0C
330
755C
100
AcDbEntity
  8
0
100
AcDbBlockBegin
  2
*D9
 70
     1
 10
0.0
 20
0.0
 30
0.0
  3
*D9
  1

  0
LINE
  5
7B0D
330
755C
100
AcDbEntity
  8
0
  6
ByBlock
 62
     6
100
AcDbLine
 10
106.1425807279919
 20
123.8337221819853
 30
0.0
 11
124.5658566016302
 21
123.8337221819853
 31
0.0
  0
LINE
  5
7B0E
330
755C
100
AcDbEntity
  8
0
  6
ByBlock
 62
     6
100
AcDbLine
 10
107.392580727992
 20
108.8648110952308
 30
0.0
 11
124.5658566016302
 21
108.8648110952308
 31
0.0
  0
LINE
  5
7B0F
330
755C
100
AcDbEntity
  8
0
  6
ByBlock
 62
     6
100
AcDbLine
 10
123.5658566016302
 20
121.3337221819853
 30
0.0
 11
123.5658566016302
 21
111.3648110952308
 31
0.0
  0
SOLID
  5
7B10
330
755C
100
AcDbEntity
  8
0
  6
ByBlock
 62
     6
100
AcDbTrace
 10
123.1491899349635
 20
121.3337221819853
 30
0.0
 11
123.9825232682969
 21
121.3337221819853
 31
0.0
 12
123.5658566016302
 22
123.8337221819853
 32
0.0
 13
123.5658566016302
 23
123.8337221819853
 33
0.0
  0
SOLID
  5
7B11
330
755C
100
AcDbEntity
  8
0
  6
ByBlock
 62
     6
100
AcDbTrace
 10
123.1491899349635
 20
111.3648110952308
 30
0.0
 11
123.9825232682969
 21
111.3648110952308
 31
0.0
 12
123.5658566016302
 22
108.8648110952308
 32
0.0
 13
123.5658566016302
 23
108.8648110952308
 33
0.0
  0
MTEXT
  5
7B12
330
755C
100
AcDbEntity
  8
0
  6
ByBlock
 62
     3
100
AcDbMText
 10
121.0658566016302
 20
116.349266638608
 30
0.0
 40
3.0
 41
0.0
 71
     5
 72
     1
  1
\A1;15
  7
TXT
 11
0.0000000000000001
 21
1.0
 31
0.0
 73
     1
 44
1.0
  0
POINT
  5
7B13
330
755C
100
AcDbEntity
  8
DEFPOINTS
  6
ByBlock
 62
     0
100
AcDbPoint
 10
105.1425807279919
 20
123.8337221819853
 30
0.0
  0
POINT
  5
7B14
330
755C
100
AcDbEntity
  8
DEFPOINTS
  6
ByBlock
 62
     0
100
AcDbPoint
 10
106.392580727992
 20
108.8648110952308
 30
0.0
  0
POINT
  5
7B15
330
755C
100
AcDbEntity
  8
DEFPOINTS
  6
ByBlock
 62
     0
100
AcDbPoint
 10
123.5658566016302
 20
108.8648110952308
 30
0.0
  0
ENDBLK
  5
7B16
330
755C
100
AcDbEntity
  8
0
100
AcDbBlockEnd
  0
BLOCK
  5
7B01
330
7569
100
AcDbEntity
  8
0
100
AcDbBlockBegin
  2
*D10
 70
     1
 10
0.0
 20
0.0
 30
0.0
  3
*D10
  1

  0
LINE
  5
7B02
330
7569
100
AcDbEntity
  8
0
  6
ByBlock
 62
     6
100
AcDbLine
 10
105.6425807279919
 20
105.8337221819853
 30
0.0
 11
134.7148775280184
 21
105.8337221819853
 31
0.0
  0
LINE
  5
7B03
330
7569
100
AcDbEntity
  8
0
  6
ByBlock
 62
     6
100
AcDbLine
 10
105.6425807279919
 20
123.8337221819853
 30
0.0
 11
134.7148775280184
 21
123.8337221819853
 31
0.0
  0
LINE
  5
7B04
330
7569
100
AcDbEntity
  8
0
  6
ByBlock
 62
     6
100
AcDbLine
 10
133.7148775280184
 20
108.3337221819853
 30
0.0
 11
133.7148775280184
 21
121.3337221819853
 31
0.0
  0
SOLID
  5
7B05
330
7569
100
AcDbEntity
  8
0
  6
ByBlock
 62
     6
100
AcDbTrace
 10
133.2982108613517
 20
108.3337221819853
 30
0.0
 11
134.131544194685
 21
108.3337221819853
 31
0.0
 12
133.7148775280184
 22
105.8337221819853
 32
0.0
 13
133.7148775280184
 23
105.8337221819853
 33
0.0
  0
SOLID
  5
7B06
330
7569
100
AcDbEntity
  8
0
  6
ByBlock
 62
     6
100
AcDbTrace
 10
133.2982108613517
 20
121.3337221819853
 30
0.0
 11
134.131544194685
 21
121.3337221819853
 31
0.0
 12
133.7148775280184
 22
123.8337221819853
 32
0.0
 13
133.7148775280184
 23
123.8337221819853
 33
0.0
  0
MTEXT
  5
7B07
330
7569
100
AcDbEntity
  8
0
  6
ByBlock
 62
     3
100
AcDbMText
 10
131.2148775280184
 20
114.8337221819853
 30
0.0
 40
3.0
 41
0.0
 71
     5
 72
     1
  1
\A1;18±0.2
  7
TXT
 11
0.0000000000000001
 21
1.0
 31
0.0
 73
     1
 44
1.0
  0
POINT
  5
7B08
330
7569
100
AcDbEntity
  8
DEFPOINTS
  6
ByBlock
 62
     0
100
AcDbPoint
 10
104.6425807279919
 20
105.8337221819853
 30
0.0
  0
POINT
  5
7B09
330
7569
100
AcDbEntity
  8
DEFPOINTS
  6
ByBlock
 62
     0
100
AcDbPoint
 10
104.6425807279919
 20
123.8337221819853
 30
0.0
  0
POINT
  5
7B0A
330
7569
100
AcDbEntity
  8
DEFPOINTS
  6
ByBlock
 62
     0
100
AcDbPoint
 10
133.7148775280184
 20
123.8337221819853
 30
0.0
  0
ENDBLK
  5
7B0B
330
7569
100
AcDbEntity
  8
0
100
AcDbBlockEnd
  0
BLOCK
  5
75EC
330
75C5
100
AcDbEntity
  8
0
100
AcDbBlockBegin
  2
*D11
 70
     1
 10
0.0
 20
0.0
 30
0.0
  3
*D11
  1

  0
LINE
  5
75ED
330
75C5
100
AcDbEntity
  8
0
  6
ByBlock
 62
     6
100
AcDbLine
 10
317.5277139220122
 20
111.8654178429788
 30
0.0
 11
356.8881615071541
 21
89.50714572192518
 31
0.0
  0
LINE
  5
75EE
330
75C5
100
AcDbEntity
  8
0
  6
ByBlock
 62
     6
100
AcDbLine
 10
315.5280112732662
 20
127.8282283986601
 30
0.0
 11
367.0124085077471
 21
127.8282283986599
 31
0.0
  0
ARC
  5
75EF
330
75C5
100
AcDbEntity
  8
0
  6
ByBlock
 62
     6
100
AcDbCircle
 10
289.4261072868198
 20
127.8282283986601
 30
0.0
 40
76.58630122092728
100
AcDbArc
 50
332.272116617284
 51
358.1296157817629
  0
SOLID
  5
75F0
330
75C5
100
AcDbEntity
  8
0
  6
ByBlock
 62
     6
100
AcDbTrace
 10
357.5834033793372
 20
91.99484240836007
 30
0.0
 11
356.8521904929992
 21
92.39455750602058
 31
0.0
 12
356.0186516431867
 22
90.00106129817643
 32
0.0
 13
356.0186516431867
 23
90.00106129817643
 33
0.0
  0
SOLID
  5
75F1
330
75C5
100
AcDbEntity
  8
0
  6
ByBlock
 62
     6
100
AcDbTrace
 10
365.5549937009066
 20
125.3353620152381
 30
0.0
 11
366.3882160310348
 21
125.3217608013127
 31
0.0
 12
366.0124085077471
 22
127.8282283986599
 32
0.0
 13
366.0124085077471
 23
127.8282283986599
 33
0.0
  0
MTEXT
  5
75F2
330
75C5
100
AcDbEntity
  8
0
  6
ByBlock
 62
     3
100
AcDbMText
 10
361.0547621834832
 20
108.9042799128744
 30
0.0
 40
3.0
 41
0.0
 71
     5
 72
     1
  1
\A1;30°
  7
TXT
 11
0.2554311414380615
 21
0.9668272503315414
 31
0.0
 73
     1
 44
1.0
  0
POINT
  5
75F3
330
75C5
100
AcDbEntity
  8
DEFPOINTS
  6
ByBlock
 62
     0
100
AcDbPoint
 10
361.515343401074
 20
101.9708586336218
 30
0.0
  0
POINT
  5
75F4
330
75C5
100
AcDbEntity
  8
DEFPOINTS
  6
ByBlock
 62
     0
100
AcDbPoint
 10
282.5280112732662
 20
127.8282283986601
 30
0.0
  0
POINT
  5
75F5
330
75C5
100
AcDbEntity
  8
DEFPOINTS
  6
ByBlock
 62
     0
100
AcDbPoint
 10
316.6582040580449
 20
112.3593334192301
 30
0.0
  0
POINT
  5
75F6
330
75C5
100
AcDbEntity
  8
DEFPOINTS
  6
ByBlock
 62
     0
100
AcDbPoint
 10
306.2296539891625
 20
118.2831573230041
 30
0.0
  0
POINT
  5
75F7
330
75C5
100
AcDbEntity
  8
DEFPOINTS
  6
ByBlock
 62
     0
100
AcDbPoint
 10
314.5280112732661
 20
127.8282283986601
 30
0.0
  0
ENDBLK
  5
75F8
330
75C5
100
AcDbEntity
  8
0
100
AcDbBlockEnd
  0
BLOCK
  5
7AD7
330
7AC6
100
AcDbEntity
  8
0
100
AcDbBlockBegin
  2
*D12
 70
     1
 10
0.0
 20
0.0
 30
0.0
  3
*D12
  1

  0
LINE
  5
7AD8
330
7AC6
100
AcDbEntity
  8
0
  6
ByBlock
 62
     6
100
AcDbLine
 10
295.4767602876279
 20
122.8337221819853
 30
0.0
 11
291.6944953941081
 21
122.8337221819853
 31
0.0
  0
LINE
  5
7AD9
330
7AC6
100
AcDbEntity
  8
0
  6
ByBlock
 62
     6
100
AcDbLine
 10
295.4767602876279
 20
123.8337221819853
 30
0.0
 11
291.6944953941081
 21
123.8337221819853
 31
0.0
  0
LINE
  5
7ADA
330
7AC6
100
AcDbEntity
  8
0
  6
ByBlock
 62
     6
100
AcDbLine
 10
292.6944953941081
 20
120.3337221819853
 30
0.0
 11
292.6944953941081
 21
117.8337221819853
 31
0.0
  0
LINE
  5
7ADB
330
7AC6
100
AcDbEntity
  8
0
  6
ByBlock
 62
     6
100
AcDbLine
 10
292.6944953941081
 20
126.3337221819853
 30
0.0
 11
292.6944953941081
 21
128.8337221819852
 31
0.0
  0
LINE
  5
7ADC
330
7AC6
100
AcDbEntity
  8
0
  6
ByBlock
 62
     6
100
AcDbLine
 10
292.6944953941081
 20
132.9195358696576
 30
0.0
 11
292.6944953941081
 21
123.8337221819853
 31
0.0
  0
MTEXT
  5
7ADD
330
7AC6
100
AcDbEntity
  8
0
  6
ByBlock
 62
     3
100
AcDbMText
 10
290.1944953941081
 20
131.4195358696575
 30
0.0
 40
3.0
 41
0.0
 71
     5
 72
     1
  1
\A1;1
  7
TXT
 11
0.0000000000000001
 21
1.0
 31
0.0
 73
     1
 44
1.0
  0
LINE
  5
7ADE
330
7AC6
100
AcDbEntity
  8
0
  6
ByBlock
 62
     6
100
AcDbLine
 10
292.6944953941081
 20
122.8337221819853
 30
0.0
 11
292.6944953941081
 21
123.8337221819853
 31
0.0
  0
SOLID
  5
7ADF
330
7AC6
100
AcDbEntity
  8
0
  6
ByBlock
 62
     6
100
AcDbTrace
 10
292.2778287274415
 20
120.3337221819853
 30
0.0
 11
293.1111620607748
 21
120.3337221819853
 31
0.0
 12
292.6944953941081
 22
122.8337221819853
 32
0.0
 13
292.6944953941081
 23
122.8337221819853
 33
0.0
  0
SOLID
  5
7AE0
330
7AC6
100
AcDbEntity
  8
0
  6
ByBlock
 62
     6
100
AcDbTrace
 10
292.2778287274415
 20
126.3337221819853
 30
0.0
 11
293.1111620607748
 21
126.3337221819853
 31
0.0
 12
292.6944953941081
 22
123.8337221819853
 32
0.0
 13
292.6944953941081
 23
123.8337221819853
 33
0.0
  0
POINT
  5
7AE1
330
7AC6
100
AcDbEntity
  8
DEFPOINTS
  6
ByBlock
 62
     0
100
AcDbPoint
 10
296.4767602876279
 20
122.8337221819853
 30
0.0
  0
POINT
  5
7AE2
330
7AC6
100
AcDbEntity
  8
DEFPOINTS
  6
ByBlock
 62
     0
100
AcDbPoint
 10
296.4767602876279
 20
123.8337221819853
 30
0.0
  0
POINT
  5
7AE3
330
7AC6
100
AcDbEntity
  8
DEFPOINTS
  6
ByBlock
 62
     0
100
AcDbPoint
 10
292.6944953941081
 20
123.8337221819853
 30
0.0
  0
ENDBLK
  5
7AE4
330
7AC6
100
AcDbEntity
  8
0
100
AcDbBlockEnd
  0
ENDSEC
  0
SECTION
  2
ENTITIES
  0
MTEXT
  5
C0
330
18
100
AcDbEntity
  8
0
100
AcDbMText
 10
41.26970765600413
 20
233.6950877649332
 30
0.0
 40
2.5
 41
0.0
 71
     1
 72
     5
  1

  7
ISOCP3
 73
     1
 44
1.0
  0
MTEXT
  5
4FE4
330
18
100
AcDbEntity
  8
公差
100
AcDbMText
 10
76.28843010076571
 20
177.1499506059822
 30
0.0
 40
2.0
 41
9.555074525974475
 71
     1
 72
     5
  1
+0.15\P+0
  7
TXT
 73
     1
 44
1.0
  0
MTEXT
  5
4FE5
330
18
100
AcDbEntity
  8
公差
100
AcDbMText
 10
47.44632202111836
 20
202.2993320519704
 30
0.0
 40
2.0
 41
8.84945634767439
 71
     1
 72
     5
  1
+0.15\P+0
  7
TXT
 11
0.0000000000000001
 21
1.0
 31
0.0
 73
     1
 44
1.0
  0
MTEXT
  5
503F
330
18
100
AcDbEntity
  8
公差
100
AcDbMText
 10
88.25727214412751
 20
154.0046200735155
 30
0.0
 40
2.0
 41
11.48459459716352
 71
     1
 72
     5
  1
+0\P-0.2
  7
TXT
 73
     1
 44
1.0
  0
LINE
  5
5AD6
330
18
100
AcDbEntity
  8
DIM
100
AcDbLine
 10
133.7148775280184
 20
123.8337221819852
 30
0.0
 11
133.7148775280184
 21
140.360448637109
 31
0.0
  0
LINE
  5
5AD7
330
18
100
AcDbEntity
  8
DIM
100
AcDbLine
 10
133.7148775280184
 20
140.360448637109
 30
0.0
 11
145.8666176542658
 21
140.360448637109
 31
0.0
  0
LINE
  5
5ADA
330
18
100
AcDbEntity
  8
DIM
100
AcDbLine
 10
74.64258072799186
 20
92.19437266727737
 30
0.0
 11
74.64258072799186
 21
81.60096759215429
 31
0.0
  0
TOLERANCE
  5
5E6E
330
18
100
AcDbEntity
  8
DIM
  6
ByBlock
100
AcDbFcf
  3
A
 10
145.8666176542658
 20
140.41138707324
 30
0.0
  1
{\Fgdt;h}%%v0.005%%v%%vA%%v%%v
1001
ACAD
1000
DSTYLE
1002
{
1070
   140
1040
2.743999999999999
1070
   147
1040
0.6859999999999999
1002
}
  0
MTEXT
  5
608E
330
18
100
AcDbEntity
  8
0
100
AcDbMText
 10
17.81948278949767
 20
19.37399834316261
 30
0.0
 40
5.0
 41
0.0
 71
     1
 72
     5
  1
\Ftxt.shx,bigfont.shx|c128;呉銘宏
  7
JL
 73
     1
 44
1.0
  0
MTEXT
  5
6095
330
18
100
AcDbEntity
  8
0
100
AcDbMText
 10
81.23517665196368
 20
29.2278230533891
 30
0.0
 40
4.5
 41
0.0
 71
     1
 72
     5
  1
\Ftxt.shx,bigfont.shx|c128;1 : 1
  7
JL
 73
     1
 44
1.0
  0
MTEXT
  5
6098
330
18
100
AcDbEntity
  8
0
 48
2.0
370
    25
100
AcDbMText
 10
146.1234268906314
 20
3.636969934829039
 30
0.0
 40
4.5
 41
0.0
 71
     5
 72
     1
  1
\Ftxt.shx,bigfont.shx|c128;N L 4 0 0 0 2
 73
     1
 44
1.0
  0
MTEXT
  5
609C
330
18
100
AcDbEntity
  8
0
 48
2.0
100
AcDbMText
 10
178.1300746997774
 20
22.17550270047843
 30
0.0
 40
4.5
 41
0.0
 71
     5
 72
     1
  1
\P\Ftxt.shx,bigfont.shx|c128;    MF25X1.5P
 73
     1
 44
1.0
  0
MTEXT
  5
635A
330
18
100
AcDbEntity
  8
0
100
AcDbMText
 10
16.02348109109539
 20
28.64592585511957
 30
0.0
 40
4.5
 41
0.0
 71
     1
 72
     5
  1
\Ftxt.shx,bigfont.shx|c128;05.03.01
  7
JL
 73
     1
 44
1.0
  0
INSERT
  5
63A3
330
18
100
AcDbEntity
  8
0
100
AcDbBlockReference
  2
A$C255C26A2
 10
119.4164136127123
 20
123.8337214880041
 30
0.0
  0
MTEXT
  5
63A4
330
18
100
AcDbEntity
  8
0
 62
     7
 48
2.0
100
AcDbMText
 10
123.5102163615685
 20
128.7292724550227
 30
0.0
 40
3.0
 41
0.0
 71
     5
 72
     1
  1
G
 73
     1
 44
1.0
  0
LEADER
  5
63C9
330
18
100
AcDbEntity
  8
DIM
 62
     6
100
AcDbLeader
  3
A
 76
     2
 10
104.7444503513727
 20
210.4536841172613
 30
0.0
 10
117.3947545196249
 20
221.6718337034433
 30
0.0
  0
LEADER
  5
63CA
330
18
100
AcDbEntity
  8
DIM
 62
     6
100
AcDbLeader
  3
A
 76
     2
 10
99.88331405736085
 20
113.939159863241
 30
0.0
 10
115.4612752623802
 20
142.2982375395679
 30
0.0
  0
LEADER
  5
63CB
330
18
100
AcDbEntity
  8
DIM
 62
     6
100
AcDbLeader
  3
A
 76
     2
 10
106.392580727992
 20
108.8648110952308
 30
0.0
 10
117.5868431051337
 20
85.89570058632489
 30
0.0
  0
MTEXT
  5
63CC
330
18
100
AcDbEntity
  8
DIM
100
AcDbMText
 10
114.7855466690339
 20
148.0468331045846
 30
0.0
 40
5.0
 41
1.0
 71
     1
 72
     5
  1
\Ftxt.shx,bigfont.shx|c128;3
 73
     1
 44
1.0
  0
MTEXT
  5
63CD
330
18
100
AcDbEntity
  8
DIM
100
AcDbMText
 10
119.5407830557358
 20
225.5273287393518
 30
0.0
 40
5.0
 41
1.0
 71
     1
 72
     5
  1
\Ftxt.shx,bigfont.shx|c128;1
 73
     1
 44
1.0
  0
MTEXT
  5
63CE
330
18
100
AcDbEntity
  8
DIM
100
AcDbMText
 10
116.6467590039576
 20
84.66785190753098
 30
0.0
 40
5.0
 41
1.0
 71
     1
 72
     5
  1
\Ftxt.shx,bigfont.shx|c128;2
 73
     1
 44
1.0
  0
LINE
  5
63CF
330
18
100
AcDbEntity
  8
DIM
100
AcDbLine
 10
74.64258072799186
 20
81.60096759215429
 30
0.0
 11
75.55503907621744
 21
80.62309349642921
 31
0.0
  0
HATCH
  5
63D0
330
18
100
AcDbEntity
  8
DIM
  6
Continuous
100
AcDbHatch
 10
0.0
 20
0.0
 30
0.0
210
0.0
220
0.0
230
1.0
  2
SOLID
 70
     1
 71
     0
 91
        1
 92
        7
 72
     0
 73
     1
 93
        3
 10
74.64145661353928
 20
79.61727919717379
 10
75.56018870213932
 20
80.60208699241751
 10
74.64145661353928
 20
81.58689478766124
 97
        0
 75
     0
 76
     1
 47
0.2359147607200769
 98
        1
 10
74.92927260977007
 20
80.81356299810904
450
        0
451
        0
460
0.0
461
0.0
452
        0
462
0.0
453
        0
470

  0
LINE
  5
63D1
330
18
100
AcDbEntity
  8
DIM
100
AcDbLine
 10
80.3021318829135
 20
78.8094396922697
 30
0.0
 11
80.3021318829135
 21
82.45573848229085
 31
0.0
  0
LINE
  5
63D2
330
18
100
AcDbEntity
  8
DIM
100
AcDbLine
 10
80.3021318829135
 20
82.45573848229085
 30
0.0
 11
84.11076712842419
 21
82.45573848229085
 31
0.0
  0
LINE
  5
63D3
330
18
100
AcDbEntity
  8
DIM
100
AcDbLine
 10
84.11076712842419
 20
78.8094396922697
 30
0.0
 11
84.11076712842419
 21
82.45573848229085
 31
0.0
  0
LINE
  5
63D4
330
18
100
AcDbEntity
  8
DIM
100
AcDbLine
 10
80.3021318829135
 20
78.8094396922697
 30
0.0
 11
84.11076712842419
 21
78.8094396922697
 31
0.0
  0
LINE
  5
63D5
330
18
100
AcDbEntity
  8
DIM
100
AcDbLine
 10
80.3021318829135
 20
80.63258908728029
 30
0.0
 11
75.54133804719043
 21
80.63258908728029
 31
0.0
  0
MTEXT
  5
63D6
330
18
100
AcDbEntity
  8
DIM
100
AcDbMText
 10
81.25936960535312
 20
82.12440676651732
 30
0.0
 40
3.0
 41
2.354875985554478
 71
     1
 72
     5
  1
A
  7
ISOCP3
 73
     1
 44
1.0
  0
LINE
  5
64AF
330
18
100
AcDbEntity
  8
図框線
100
AcDbLine
 10
197.9999999999997
 20
289.9999999999999
 30
0.0
 11
197.9999999999997
 21
-0.0000000000000568
 31
0.0
  0
LINE
  5
64B0
330
18
100
AcDbEntity
  8
図框線
370
    30
100
AcDbLine
 10
-0.0000000000002274
 20
0.0
 30
0.0
 11
-0.0000000000002274
 21
290.0
 31
0.0
  0
LINE
  5
64B1
330
18
100
AcDbEntity
  8
0
 62
     7
 48
5.0
100
AcDbLine
 39
4.0
 10
49.94750515634314
 20
27.8953239783782
 30
0.0
 11
55.27930887205229
 21
29.22827490730549
 31
0.0
  0
MTEXT
  5
64B2
330
18
100
AcDbEntity
  8
0
100
AcDbMText
 10
15.97866977158742
 20
9.63134010478825
 30
0.0
 40
6.0
 41
0.0
 71
     1
 72
     5
  1
\Ftxt.shx,bigfont.shx|c128;日機株式会社
  7
LKK
 73
     1
 44
1.0
  0
LINE
  5
64B3
330
18
100
AcDbEntity
  8
図框線
100
AcDbLine
 10
0.0
 20
0.0
 30
0.0
 11
197.9999999999997
 21
0.0
 31
0.0
  0
LINE
  5
64B7
330
18
100
AcDbEntity
  8
図框線
100
AcDbLine
 10
0.0
 20
12.0
 30
0.0
 11
197.9999999999997
 21
12.00000000000005
 31
0.0
  0
LINE
  5
64B8
330
18
100
AcDbEntity
  8
図框線
100
AcDbLine
 10
0.0
 20
22.0
 30
0.0
 11
96.0
 21
22.0
 31
0.0
  0
LINE
  5
64B9
330
18
100
AcDbEntity
  8
図框線
100
AcDbLine
 10
0.0
 20
32.0
 30
0.0
 11
197.9999999999997
 21
32.0
 31
0.0
  0
LINE
  5
64BA
330
18
100
AcDbEntity
  8
図框線
100
AcDbLine
 10
12.0
 20
32.0
 30
0.0
 11
12.0
 21
12.0
 31
0.0
  0
LINE
  5
64BB
330
18
100
AcDbEntity
  8
図框線
100
AcDbLine
 10
32.0
 20
32.0
 30
0.0
 11
32.0
 21
12.0
 31
0.0
  0
MTEXT
  5
64BC
330
18
100
AcDbEntity
  8
0
100
AcDbMText
 10
2.949444248820782
 20
29.04715033351227
 30
0.0
 40
4.5
 41
0.0
 71
     1
 72
     5
  1
\Ftxt.shx,bigfont.shx|c128;日 付
  7
JL
 73
     1
 44
1.0
  0
MTEXT
  5
64BD
330
18
100
AcDbEntity
  8
0
100
AcDbMText
 10
3.095712364910014
 20
19.83833899470915
 30
0.0
 40
4.5
 41
0.0
 71
     1
 72
     5
  1
\Ftxt.shx,bigfont.shx|c128;製 図
  7
JL
 73
     1
 44
1.0
  0
LINE
  5
64C0
330
18
100
AcDbEntity
  8
0
 62
     7
370
    25
100
AcDbLine
 10
55.27930887205229
 20
23.89647119159633
 30
0.0
 11
55.27930887205229
 21
29.22827490730549
 31
0.0
  0
MTEXT
  5
64C1
330
18
100
AcDbEntity
  8
0
100
AcDbMText
 10
66.70254067332553
 20
29.42231870267847
 30
0.0
 40
4.5
 41
0.0
 71
     1
 72
     5
  1
\Ftxt.shx,bigfont.shx|c128;尺 度
  7
JL
 73
     1
 44
1.0
  0
LINE
  5
64C2
330
18
100
AcDbEntity
  8
図框線
100
AcDbLine
 10
64.0
 20
32.0
 30
0.0
 11
64.0
 21
12.0
 31
0.0
  0
LINE
  5
64C3
330
18
100
AcDbEntity
  8
0
 62
     7
370
    25
100
AcDbLine
 10
41.2833241183157
 20
23.23894871736115
 30
0.0
 11
41.2833241183157
 21
29.67466750005656
 31
0.0
  0
CIRCLE
  5
64C4
330
18
100
AcDbEntity
  8
0
 62
     7
100
AcDbCircle
 10
41.2833241183157
 20
26.5623730494508
 30
0.0
 40
2.665901857854641
  0
LINE
  5
64C6
330
18
100
AcDbEntity
  8
0
 62
     7
370
    25
100
AcDbLine
 10
49.18030281106076
 20
26.56237304945091
 30
0.0
 11
55.75797321903156
 21
26.56237304945091
 31
0.0
  0
LINE
  5
64C7
330
18
100
AcDbEntity
  8
0
 62
     7
100
AcDbLine
 10
49.94750515634314
 20
25.22942212052362
 30
0.0
 11
55.27930887205229
 21
23.89647119159633
 31
0.0
  0
LINE
  5
64C8
330
18
100
AcDbEntity
  8
図框線
100
AcDbLine
 10
44.0
 20
21.99999999999989
 30
0.0
 11
44.0
 21
12.0
 31
0.0
  0
LINE
  5
64C9
330
18
100
AcDbEntity
  8
0
 62
     7
370
    25
100
AcDbLine
 10
37.95172532843935
 20
26.5623730494508
 30
0.0
 11
44.81391594676916
 21
26.56237304945091
 31
0.0
  0
CIRCLE
  5
64CA
330
18
100
AcDbEntity
  8
0
 62
     7
100
AcDbCircle
 10
41.2833241183157
 20
26.5623730494508
 30
0.0
 40
1.33295092892732
  0
MTEXT
  5
64CB
330
18
100
AcDbEntity
  8
0
100
AcDbMText
 10
35.12086518039769
 20
19.39982343168049
 30
0.0
 40
4.5
 41
0.0
 71
     1
 72
     5
  1
\Ftxt.shx,bigfont.shx|c128;検 図
  7
JL
 73
     1
 44
1.0
  0
LINE
  5
64CC
330
18
100
AcDbEntity
  8
0
 62
     7
370
    25
100
AcDbLine
 10
49.94750515634314
 20
25.22942212052362
 30
0.0
 11
49.94750515634314
 21
27.8953239783782
 31
0.0
  0
MTEXT
  5
64CD
330
18
100
AcDbEntity
  8
0
100
AcDbMText
 10
66.99507418337498
 20
19.62882052001464
 30
0.0
 40
4.5
 41
0.0
 71
     1
 72
     5
  1
\Ftxt.shx,bigfont.shx|c128;承 認
  7
JL
 73
     1
 44
1.0
  0
LINE
  5
64CE
330
18
100
AcDbEntity
  8
図框線
100
AcDbLine
 10
132.615790078639
 20
43.13491348924492
 30
0.0
 11
192.615790078639
 21
43.13491348924481
 31
0.0
  0
LINE
  5
64CF
330
18
100
AcDbEntity
  8
図框線
100
AcDbLine
 10
132.615790078639
 20
50.33491348924497
 30
0.0
 11
192.615790078639
 21
50.33491348924497
 31
0.0
  0
LINE
  5
64D0
330
18
100
AcDbEntity
  8
図框線
100
AcDbLine
 10
132.615790078639
 20
57.5349134892449
 30
0.0
 11
192.615790078639
 21
57.53491348924478
 31
0.0
  0
LINE
  5
64D1
330
18
100
AcDbEntity
  8
図框線
100
AcDbLine
 10
132.615790078639
 20
64.73491348924494
 30
0.0
 11
192.615790078639
 21
64.73491348924483
 31
0.0
  0
LINE
  5
64D2
330
18
100
AcDbEntity
  8
図框線
100
AcDbLine
 10
132.615790078639
 20
35.93491348924488
 30
0.0
 11
192.615790078639
 21
35.93491348924488
 31
0.0
  0
MTEXT
  5
64D3
330
18
100
AcDbEntity
  8
0
 62
     7
 48
2.0
100
AcDbMText
 10
162.5011900445104
 20
65.52808189982909
 30
0.0
 40
4.8
 41
0.0
 71
     5
 72
     1
  1
\P\Ftxt.shx,bigfont.shx|c128;諸　　　　元
 73
     1
 44
1.0
  0
LINE
  5
64D5
330
18
100
AcDbEntity
  8
図框線
100
AcDbLine
 10
132.615790078639
 20
64.73491348924483
 30
0.0
 11
132.615790078639
 21
35.93491348924488
 31
0.0
  0
MTEXT
  5
64D6
330
18
100
AcDbEntity
  8
0
100
AcDbMText
 10
136.1382258923192
 20
56.00840432212407
 30
0.0
 40
4.4
 41
163.916286842249
 71
     1
 72
     5
  1
\Ftxt.shx,bigfont.shx|c128;熱　処　理
  7
JL
 73
     1
 44
1.0
  0
LINE
  5
64D7
330
18
100
AcDbEntity
  8
図框線
100
AcDbLine
 10
156.615790078639
 20
57.53491348924478
 30
0.0
 11
156.615790078639
 21
35.93491348924488
 31
0.0
  0
MTEXT
  5
64D8
330
18
100
AcDbEntity
  8
0
100
AcDbMText
 10
97.65702556263818
 20
11.15332144655735
 30
0.0
 40
5.0
 41
0.0
 71
     1
 72
     5
  1
\Ftxt.shx,bigfont.shx|c128;図  面  番  号
  7
JL
 73
     1
 44
1.0
  0
MTEXT
  5
64D9
330
18
100
AcDbEntity
  8
0
 62
     7
 48
2.0
100
AcDbMText
 10
121.8260850653862
 20
22.29156825453561
 30
0.0
 40
4.5
 41
0.0
 71
     5
 72
     1
  1
\P\Ftxt.shx,bigfont.shx|c128;    精密ロックナット
 73
     1
 44
1.0
  0
MTEXT
  5
64DA
330
18
100
AcDbEntity
  8
0
370
    25
100
AcDbMText
 10
98.8002923053598
 20
29.80688815403971
 30
0.0
 40
5.0
 41
0.0
 71
     1
 72
     5
  1
\Ftxt.shx,bigfont.shx|c128;品  名
  7
JL
 73
     1
 44
1.0
  0
LINE
  5
64DB
330
18
100
AcDbEntity
  8
図框線
100
AcDbLine
 10
96.0
 20
32.0
 30
0.0
 11
96.0
 21
0.19104161092514
 31
0.0
  0
LINE
  5
64DC
330
18
100
AcDbEntity
  8
図框線
100
AcDbLine
 10
76.0
 20
32.0
 30
0.0
 11
76.0
 21
12.0
 31
0.0
  0
LINE
  5
64DE
330
18
100
AcDbEntity
  8
図框線
100
AcDbLine
 10
153.2235601908683
 20
32.0
 30
0.0
 11
153.2235601908683
 21
12.0
 31
0.0
  0
MTEXT
  5
64DF
330
18
100
AcDbEntity
  8
0
100
AcDbMText
 10
135.85795152494
 20
49.00617587486397
 30
0.0
 40
4.4
 41
163.6058628849672
 71
     1
 72
     5
  1
\Ftxt.shx,bigfont.shx|c128;表 面 処 理
  7
JL
 73
     1
 44
1.0
  0
MTEXT
  5
64E0
330
18
100
AcDbEntity
  8
0
100
AcDbMText
 10
136.148017373375
 20
41.71770302125605
 30
0.0
 40
4.4
 41
166.1718
 71
     1
 72
     5
  1
\Ftxt.shx,bigfont.shx|c128;等     　級
  7
JL
 73
     1
 44
1.0
  0
LINE
  5
64E1
330
18
100
AcDbEntity
  8
図框線
100
AcDbLine
 10
192.615790078639
 20
64.73491348924483
 30
0.0
 11
192.615790078639
 21
35.93491348924499
 31
0.0
  0
MTEXT
  5
64E2
330
18
100
AcDbEntity
  8
0
100
AcDbMText
 10
161.3627933880816
 20
55.83344641471445
 30
0.0
 40
4.4
 41
291.8960056857887
 71
     1
 72
     5
  1
\Ftxt.shx,bigfont.shx|c128;調質　HRC30%%d%%p２%%d
  7
JL
 73
     1
 44
1.0
  0
MTEXT
  5
64E4
330
18
100
AcDbEntity
  8
0
370
    25
100
AcDbMText
 10
157.2494735287423
 20
29.58569764093568
 30
0.0
 40
5.0
 41
0.0
 71
     1
 72
     5
  1
\Ftxt.shx,bigfont.shx|c128;型  番
  7
JL
 73
     1
 44
1.0
  0
MTEXT
  5
64E5
330
18
100
AcDbEntity
  8
0
100
AcDbMText
 10
172.787265122339
 20
11.23700203391422
 30
0.0
 40
5.0
 41
0.0
 71
     1
 72
     5
  1
\Ftxt.shx,bigfont.shx|c128;変更
  7
JL
 73
     1
 44
1.0
  0
LINE
  5
64E6
330
18
100
AcDbEntity
  8
図框線
100
AcDbLine
 10
171.0
 20
12.00907027842731
 30
0.0
 11
171.0
 21
0.0
 31
0.0
  0
MTEXT
  5
64E7
330
18
100
AcDbEntity
  8
0
100
AcDbMText
 10
161.623432389518
 20
41.7183135927072
 30
0.0
 40
4.4
 41
290.783364796891
 71
     1
 72
     5
  1
\Ftxt.shx,bigfont.shx|c128;ＩＳＯ - ４Ｈ
  7
JL
 73
     1
 44
1.0
  0
MTEXT
  5
64E8
330
18
100
AcDbEntity
  8
0
100
AcDbMText
 10
161.7978935876483
 20
48.65328293790913
 30
0.0
 40
4.4
 41
291.4548
 71
     1
 72
     5
  1
\Ftxt.shx,bigfont.shx|c128;黒  　    染
  7
JL
 73
     1
 44
1.0
  0
MTEXT
  5
64EA
330
18
100
AcDbEntity
  8
0
100
AcDbMText
 10
60.06318600759005
 20
270.095850257545
 30
0.0
 40
5.0
 41
0.0
 71
     1
 72
     5
  1
\Ftxt.shx,bigfont.shx|c128;M6X1.0P-5L
  7
JL
 73
     1
 44
1.0
  0
MTEXT
  5
64EB
330
18
100
AcDbEntity
  8
0
100
AcDbMText
 10
60.06318600759005
 20
262.095850257545
 30
0.0
 40
5.0
 41
0.0
 71
     1
 72
     5
  1
\Ftxt.shx,bigfont.shx|c128;%%c5.2X5L
  7
JL
 73
     1
 44
1.0
  0
LINE
  5
64EC
330
18
100
AcDbEntity
  8
図框線
100
AcDbLine
 10
-0.0000000000002274
 20
263.9999999999999
 30
0.0
 11
197.9999999999997
 21
263.9999999999999
 31
0.0
  0
LINE
  5
64ED
330
18
100
AcDbEntity
  8
図框線
100
AcDbLine
 10
-0.0000000000002274
 20
271.9999999999999
 30
0.0
 11
197.9999999999997
 21
271.9999999999999
 31
0.0
  0
LINE
  5
64EE
330
18
100
AcDbEntity
  8
図框線
 62
     9
100
AcDbLine
 10
-0.0000000000002274
 20
279.9999999999999
 30
0.0
 11
197.9999999999997
 21
279.9999999999999
 31
0.0
  0
LINE
  5
64EF
330
18
100
AcDbEntity
  8
図框線
100
AcDbLine
 10
-0.0000000000002274
 20
290.0
 30
0.0
 11
197.9999999999997
 21
290.0
 31
0.0
  0
MTEXT
  5
64F0
330
18
100
AcDbEntity
  8
0
100
AcDbMText
 10
59.41630259681733
 20
287.3155952051104
 30
0.0
 40
5.0
 41
0.0
 71
     1
 72
     5
  1
\Ftxt.shx,bigfont.shx|c128;図    番 / 規　　格
  7
JL
 73
     1
 44
1.0
  0
LINE
  5
64F1
330
18
100
AcDbEntity
  8
図框線
100
AcDbLine
 10
-0.0000000000002274
 20
263.9999999999999
 30
0.0
 11
197.9999999999997
 21
263.9999999999999
 31
0.0
  0
LINE
  5
64F2
330
18
100
AcDbEntity
  8
図框線
100
AcDbLine
 10
-0.0000000000002274
 20
255.9999999999999
 30
0.0
 11
197.9999999999997
 21
255.9999999999999
 31
0.0
  0
MTEXT
  5
64F3
330
18
100
AcDbEntity
  8
0
100
AcDbMText
 10
22.01434914141237
 20
286.7888025819827
 30
0.0
 40
5.0
 41
0.0
 71
     1
 72
     5
  1
\Ftxt.shx,bigfont.shx|c128;品　          名
  7
JL
 73
     1
 44
1.0
  0
MTEXT
  5
64F4
330
18
100
AcDbEntity
  8
0
100
AcDbMText
 10
18.8650376130422
 20
270.5298549795346
 30
0.0
 40
6.0
 41
0.0
 71
     1
 72
     5
  1
\Ftxt.shx,bigfont.shx|c128;セットスクリュ-
  7
JL
 73
     1
 44
1.0
  0
MTEXT
  5
64F5
330
18
100
AcDbEntity
  8
0
100
AcDbMText
 10
18.66941459004738
 20
278.3660650505403
 30
0.0
 40
6.0
 41
0.0
 71
     1
 72
     5
  1
\Ftxt.shx,bigfont.shx|c128;ロックナット　  
  7
JL
 73
     1
 44
1.0
  0
MTEXT
  5
64F6
330
18
100
AcDbEntity
  8
0
100
AcDbMText
 10
18.8650376130422
 20
262.5298549795346
 30
0.0
 40
6.0
 41
0.0
 71
     1
 72
     5
  1
\Ftxt.shx,bigfont.shx|c128;ロックピン 
  7
JL
 73
     1
 44
1.0
  0
LINE
  5
64F7
330
18
100
AcDbEntity
  8
図框線
100
AcDbLine
 10
14.99999999999977
 20
289.9999999999998
 30
0.0
 11
15.00000000000011
 21
255.9999999999999
 31
0.0
  0
LINE
  5
64F8
330
18
100
AcDbEntity
  8
0
100
AcDbLine
 10
14.99999999999977
 20
289.9999999999998
 30
0.0
 11
14.99999999999977
 21
263.9999999999999
 31
0.0
  0
MTEXT
  5
64F9
330
18
100
AcDbEntity
  8
0
100
AcDbMText
 10
6.215289087390488
 20
262.7436409356394
 30
0.0
 40
5.0
 41
0.0
 71
     1
 72
     5
  1
\Ftxt.shx,bigfont.shx|c128;3
  7
JL
 73
     1
 44
1.0
  0
MTEXT
  5
64FA
330
18
100
AcDbEntity
  8
0
100
AcDbMText
 10
7.101957026666809
 20
278.5798510066454
 30
0.0
 40
5.0
 41
0.0
 71
     1
 72
     5
  1
\Ftxt.shx,bigfont.shx|c128;1
  7
JL
 73
     1
 44
1.0
  0
MTEXT
  5
64FB
330
18
100
AcDbEntity
  8
0
100
AcDbMText
 10
6.215289087390488
 20
270.7436409356394
 30
0.0
 40
5.0
 41
0.0
 71
     1
 72
     5
  1
\Ftxt.shx,bigfont.shx|c128;2
  7
JL
 73
     1
 44
1.0
  0
MTEXT
  5
64FC
330
18
100
AcDbEntity
  8
0
100
AcDbMText
 10
2.209083991842362
 20
287.0885254164057
 30
0.0
 40
5.0
 41
0.0
 71
     1
 72
     5
  1
\Ftxt.shx,bigfont.shx|c128;照   号
  7
JL
 73
     1
 44
1.0
  0
LINE
  5
64FD
330
18
100
AcDbEntity
  8
図框線
 62
     9
100
AcDbLine
 10
54.99999999999977
 20
289.9999999999998
 30
0.0
 11
54.99999999999977
 21
256.0
 31
0.0
  0
MTEXT
  5
64FE
330
18
100
AcDbEntity
  8
0
100
AcDbMText
 10
146.3353765925378
 20
287.5804049742369
 30
0.0
 40
5.0
 41
0.0
 71
     1
 72
     5
  1
\Ftxt.shx,bigfont.shx|c128;備           考
  7
JL
 73
     1
 44
1.0
  0
LINE
  5
64FF
330
18
100
AcDbEntity
  8
図框線
 62
     9
100
AcDbLine
 10
94.99999999999976
 20
289.9999999999999
 30
0.0
 11
94.99999999999976
 21
255.9999999999999
 31
0.0
  0
MTEXT
  5
6500
330
18
100
AcDbEntity
  8
0
100
AcDbMText
 10
96.78387029776377
 20
262.3660650505403
 30
0.0
 40
5.0
 41
0.0
 71
     1
 72
     5
  1
\Ftxt.shx,bigfont.shx|c128;C3604
  7
JL
 73
     1
 44
1.0
  0
MTEXT
  5
6501
330
18
100
AcDbEntity
  8
0
100
AcDbMText
 10
96.78387029776377
 20
278.3660650505403
 30
0.0
 40
5.0
 41
0.0
 71
     1
 72
     5
  1
\Ftxt.shx,bigfont.shx|c128;SCM-440
  7
JL
 73
     1
 44
1.0
  0
MTEXT
  5
6502
330
18
100
AcDbEntity
  8
0
100
AcDbMText
 10
96.78387029776377
 20
270.3660650505403
 30
0.0
 40
5.0
 41
0.0
 71
     1
 72
     5
  1
\Ftxt.shx,bigfont.shx|c128;SCM435
  7
JL
 73
     1
 44
1.0
  0
MTEXT
  5
6503
330
18
100
AcDbEntity
  8
0
100
AcDbMText
 10
99.80032499445407
 20
287.5804049742369
 30
0.0
 40
5.0
 41
0.0
 71
     1
 72
     5
  1
\Ftxt.shx,bigfont.shx|c128;材　質
  7
JL
 73
     1
 44
1.0
  0
LINE
  5
6504
330
18
100
AcDbEntity
  8
図框線
 62
     9
100
AcDbLine
 10
114.9999999999997
 20
289.9999999999999
 30
0.0
 11
114.9999999999997
 21
255.9999999999999
 31
0.0
  0
LINE
  5
6505
330
18
100
AcDbEntity
  8
図框線
100
AcDbLine
 10
129.9999999999998
 20
289.9999999999999
 30
0.0
 11
129.9999999999998
 21
255.9999999999999
 31
0.0
  0
MTEXT
  5
6506
330
18
100
AcDbEntity
  8
0
100
AcDbMText
 10
121.2152890873904
 20
262.7436409356394
 30
0.0
 40
5.0
 41
0.0
 71
     1
 72
     5
  1
\Ftxt.shx,bigfont.shx|c128;3
  7
JL
 73
     1
 44
1.0
  0
MTEXT
  5
6507
330
18
100
AcDbEntity
  8
0
100
AcDbMText
 10
122.1019570266667
 20
278.5798510066454
 30
0.0
 40
5.0
 41
0.0
 71
     1
 72
     5
  1
\Ftxt.shx,bigfont.shx|c128;1
  7
JL
 73
     1
 44
1.0
  0
MTEXT
  5
6508
330
18
100
AcDbEntity
  8
0
100
AcDbMText
 10
121.2152890873904
 20
270.7436409356394
 30
0.0
 40
5.0
 41
0.0
 71
     1
 72
     5
  1
\Ftxt.shx,bigfont.shx|c128;3
  7
JL
 73
     1
 44
1.0
  0
MTEXT
  5
6509
330
18
100
AcDbEntity
  8
0
100
AcDbMText
 10
116.433740311917
 20
287.5804049742369
 30
0.0
 40
5.0
 41
0.0
 71
     1
 72
     5
  1
\Ftxt.shx,bigfont.shx|c128;数   量
  7
JL
 73
     1
 44
1.0
  0
DIMENSION
  5
6770
330
18
100
AcDbEntity
  8
0
100
AcDbDimension
  2
*D1
 10
99.64258072799214
 20
85.87118322628692
 30
0.0
 11
87.14258072799191
 21
85.87118322628692
 31
0.0
 12
-196.3341795596359
 22
0.0
 32
0.0
 70
   160
  1
M<>X1.5P
 71
     5
 42
-1.0
  3
A
100
AcDbAlignedDimension
 13
74.64258072799186
 23
106.3337221819853
 33
0.0
 14
99.64258072799214
 24
106.4337221819851
 34
0.0
100
AcDbRotatedDimension
  0
DIMENSION
  5
677F
330
18
100
AcDbEntity
  8
0
100
AcDbDimension
  2
*D2
 10
68.24258072799193
 20
171.2225912849252
 30
0.0
 11
73.24258072799193
 21
171.2225912849252
 31
0.0
 12
-13.42994104116917
 22
-4.286552011755105
 32
0.0
 70
   160
 71
     5
 42
-1.0
  3
A
100
AcDbAlignedDimension
 13
66.25724207727825
 23
196.5005541624627
 33
0.0
 14
68.24258072799193
 24
196.5005541624626
 34
0.0
100
AcDbRotatedDimension
  0
DIMENSION
  5
6864
330
18
100
AcDbEntity
  8
DIM
100
AcDbDimension
  2
*D3
 10
54.29368432850322
 20
201.5005541624627
 30
0.0
 11
53.41928028764744
 21
211.1786457288532
 31
0.0
 12
-196.3341795596359
 22
8.489116824687584
 32
0.0
 70
   160
  1
<>      (3等分)
 71
     5
 42
-1.0
  3
A
100
AcDbAlignedDimension
 13
66.25724207727825
 23
196.5005541624627
 33
0.0
 14
66.25724207727831
 24
201.5005541624627
 34
0.0
 50
90.0
100
AcDbRotatedDimension
  0
LINE
  5
689B
330
18
100
AcDbEntity
  8
DIM
 62
     6
100
AcDbLine
 10
54.29368432850322
 20
205.5005541624627
 30
0.0
 11
54.29368432850322
 21
225.4168630248571
 31
0.0
  0
LINE
  5
6AF0
330
18
100
AcDbEntity
  8
DIM
 62
     6
100
AcDbLine
 10
73.24258072799193
 20
171.2225912849252
 30
0.0
 11
85.04580403882107
 21
171.2225912849252
 31
0.0
  0
LEADER
  5
6B85
330
18
100
AcDbEntity
  8
DIM
 62
     6
100
AcDbLeader
  3
A
 73
     0
 74
     0
 75
     1
 40
3.0
 41
8.0
 76
     3
 10
74.76758072799191
 20
122.0837221819853
 30
0.0
 10
77.34016112384302
 20
129.9199487960469
 30
0.0
 10
79.84016112384302
 20
129.9199487960469
 30
0.0
340
6B86
  0
MTEXT
  5
6B86
102
{ACAD_REACTORS
330
6B85
102
}
330
18
100
AcDbEntity
  8
DIM
 62
     3
100
AcDbMText
 10
80.84016112384302
 20
132.4199487960469
 30
0.0
 40
3.0
 41
0.0
 71
     4
 72
     1
  1
\A1;C1.5
  7
TXT
 73
     1
 44
1.0
  0
DIMENSION
  5
6C92
330
18
100
AcDbEntity
  8
DIM
100
AcDbDimension
  2
*D4
 10
105.1425807279919
 20
142.0249454001408
 30
0.0
 11
87.14258072799196
 21
144.5249454001408
 31
0.0
 12
-196.3341795596359
 22
0.0
 32
0.0
 70
    32
  1
%%c<>%%p0.5
 71
     5
 42
-1.0
  3
A
100
AcDbAlignedDimension
 13
69.14258072799197
 23
123.8337221819853
 33
0.0
 14
105.1425807279919
 24
123.8337221819853
 34
0.0
100
AcDbRotatedDimension
  0
DIMENSION
  5
6CAA
330
18
100
AcDbEntity
  8
DIM
100
AcDbDimension
  2
*D5
 10
108.142580727992
 20
147.5324154905557
 30
0.0
 11
83.07352460007809
 21
148.358536240441
 31
0.0
 12
-196.3341795596359
 22
0.0
 32
0.0
 70
   160
  1
%%c<>
 71
     5
 42
-1.0
  3
A
100
AcDbAlignedDimension
 13
66.14258072799202
 23
121.8337221819853
 33
0.0
 14
108.142580727992
 24
121.8337221819853
 34
0.0
100
AcDbRotatedDimension
  0
DIMENSION
  5
6F74
330
18
100
AcDbEntity
  8
0
100
AcDbDimension
  2
*D6
 10
133.4088716319908
 20
89.22549638497441
 30
0.0
 11
143.3218933051792
 21
106.395353579468
 31
0.0
 70
   161
  1
<>%%p0.5
 71
     5
 42
-1.0
  3
A
100
AcDbAlignedDimension
 13
108.1425807279919
 23
111.8959000084764
 33
0.0
 14
104.6425807279919
 24
105.8337221819853
 34
0.0
  0
MTEXT
  5
72FF
102
{ACAD_REACTORS
330
7300
102
}
330
18
100
AcDbEntity
  8
DIM
 62
     3
100
AcDbMText
 10
88.56803574569983
 20
98.75386428546768
 30
0.0
 40
3.0
 41
0.0
 71
     6
 72
     1
  1
\A1;C1.5
  7
TXT
 73
     1
 44
1.0
  0
LEADER
  5
7300
330
18
100
AcDbEntity
  8
DIM
 62
     6
100
AcDbLeader
  3
A
 73
     0
 75
     1
 40
3.0
 41
8.0
 76
     3
 10
99.51758072799192
 20
106.5837221819853
 30
0.0
 10
92.06803574569983
 20
96.25386428546768
 30
0.0
 10
89.56803574569983
 20
96.25386428546768
 30
0.0
340
72FF
  0
MTEXT
  5
7303
102
{ACAD_REACTORS
330
7304
102
}
330
18
100
AcDbEntity
  8
DIM
 62
     3
100
AcDbMText
 10
120.7052990359445
 20
137.9985956346076
 30
0.0
 40
3.0
 41
0.0
 71
     4
 72
     1
  1
\A1;R1.5
  7
TXT
 73
     1
 44
1.0
  0
LEADER
  5
7304
330
18
100
AcDbEntity
  8
DIM
 62
     6
100
AcDbLeader
  3
A
 73
     0
 74
     0
 75
     1
 40
3.0
 41
8.0
 76
     3
 10
107.7032408997718
 20
122.8943823537651
 30
0.0
 10
117.2052990359445
 20
135.4985956346076
 30
0.0
 10
119.7052990359445
 20
135.4985956346076
 30
0.0
340
7303
1001
ACAD
1000
DSTYLE
1002
{
1070
    45
1040
0.0
1002
}
  0
DIMENSION
  5
74C6
330
18
100
AcDbEntity
  8
0
100
AcDbDimension
  2
*D7
 10
55.19368432850325
 20
123.3337221819853
 30
0.0
 11
55.19368432850325
 21
133.9937194431354
 31
0.0
 12
-196.3341795596359
 22
0.0
 32
0.0
 70
   160
 71
     5
 42
-1.0
  3
A
100
AcDbAlignedDimension
 13
69.14258072799197
 23
123.8337221819853
 33
0.0
 14
67.14258072799191
 24
123.3337221819853
 34
0.0
 50
90.0
100
AcDbRotatedDimension
  0
DIMENSION
  5
750D
330
18
100
AcDbEntity
  8
DIM
100
AcDbDimension
  2
*D8
 10
100.142580727992
 20
136.1818505885122
 30
0.0
 11
87.14258072799196
 21
138.6818505885122
 31
0.0
 12
-196.3341795596359
 22
0.0
 32
0.0
 70
    32
  1
%%c<>
 71
     5
 42
-1.0
  3
A
100
AcDbAlignedDimension
 13
74.14258072799191
 23
123.8337221819851
 33
0.0
 14
100.142580727992
 24
123.6068299570467
 34
0.0
100
AcDbRotatedDimension
  0
DIMENSION
  5
7568
330
18
100
AcDbEntity
  8
DIM
100
AcDbDimension
  2
*D9
 10
123.5658566016302
 20
108.8648110952308
 30
0.0
 11
121.0658566016302
 21
116.349266638608
 31
0.0
 70
    32
 71
     5
 42
-1.0
  3
A
100
AcDbAlignedDimension
 13
105.1425807279919
 23
123.8337221819853
 33
0.0
 14
106.392580727992
 24
108.8648110952308
 34
0.0
 50
90.0
100
AcDbRotatedDimension
  0
DIMENSION
  5
7575
330
18
100
AcDbEntity
  8
DIM
100
AcDbDimension
  2
*D10
 10
133.7148775280184
 20
123.8337221819853
 30
0.0
 11
131.2148775280184
 21
114.8337221819853
 31
0.0
 70
    32
  1
<>%%p0.2
 71
     5
 42
-1.0
  3
A
100
AcDbAlignedDimension
 13
104.6425807279919
 23
105.8337221819853
 33
0.0
 14
104.6425807279919
 24
123.8337221819853
 34
0.0
 50
90.0
100
AcDbRotatedDimension
  0
DIMENSION
  5
75D3
330
18
100
AcDbEntity
  8
DIM
100
AcDbDimension
  2
*D11
 10
105.1425807279919
 20
123.8337221819853
 30
0.0
 11
151.6693316382089
 21
104.9097736961995
 31
0.0
 12
-209.3854305452742
 22
-3.994506216674835
 32
0.0
 70
    34
  1
30%%d
 71
     5
 42
-1.0
  3
A
100
AcDb2LineAngularDimension
 13
107.2727735127707
 23
108.3648272025553
 33
0.0
 14
96.84422344388833
 24
114.2886511063292
 34
0.0
 15
73.14258072799197
 25
123.8337221819853
 35
0.0
 16
152.1299128557997
 26
97.97635241694703
 36
0.0
1001
ACAD
1000
DSTYLE
1002
{
1070
    79
1070
     2
1070
   179
1070
     1
1002
}
  0
LINE
  5
7849
330
18
100
AcDbEntity
  8
中心線
  6
CENTER
 48
0.15
100
AcDbLine
 10
87.14258072799196
 20
222.0005541624626
 30
0.0
 11
87.14258072799196
 21
176.0005541624626
 31
0.0
  0
LINE
  5
784A
330
18
100
AcDbEntity
  8
中心線
  6
CENTER
 48
0.15
100
AcDbLine
 10
87.14258072799196
 20
102.8692812631893
 30
0.0
 11
87.14258072799196
 21
127.1439267888459
 31
0.0
  0
ARC
  5
7850
330
18
100
AcDbEntity
  8
本体外線
100
AcDbCircle
 10
87.14258072799202
 20
199.0005541624626
 30
0.0
 40
21.0
100
AcDbArc
 50
66.83714116813611
 51
173.1628588318638
  0
CIRCLE
  5
7851
330
18
100
AcDbEntity
  8
本体外線
100
AcDbCircle
 10
87.14258072799202
 20
199.0005541624626
 30
0.0
 40
18.0
  0
ARC
  5
7852
330
18
100
AcDbEntity
  8
0
100
AcDbCircle
 10
87.14258072799202
 20
199.0005541624626
 30
0.0
 40
12.5
100
AcDbArc
 50
167.4319574777133
 51
103.7407577614643
  0
CIRCLE
  5
7853
330
18
100
AcDbEntity
  8
本体外線
100
AcDbCircle
 10
87.14258072799202
 20
199.0005541624626
 30
0.0
 40
11.75
  0
LINE
  5
7854
330
18
100
AcDbEntity
  8
本体外線
 48
0.08
100
AcDbLine
 10
99.73297396844959
 20
215.807754942207
 30
0.0
 11
98.75764423745307
 21
214.1184342939885
 31
0.0
  0
LINE
  5
7855
330
18
100
AcDbEntity
  8
本体外線
 48
0.08
100
AcDbLine
 10
95.40284694952744
 20
218.307754942207
 30
0.0
 11
94.42751721853097
 21
216.6184342939885
 31
0.0
  0
LINE
  5
7856
330
18
100
AcDbEntity
  8
本体外線
100
AcDbLine
 10
94.4275172185309
 20
216.6184342939886
 30
0.0
 11
98.75764423745312
 21
214.1184342939885
 31
0.0
  0
LINE
  5
7857
330
18
100
AcDbEntity
  8
中心線
  6
CENTER
 48
0.15
100
AcDbLine
 10
64.14258072799197
 20
199.0005541624626
 30
0.0
 11
110.142580727992
 21
199.0005541624626
 31
0.0
  0
LINE
  5
7858
330
18
100
AcDbEntity
  8
本体外線
 48
0.08
100
AcDbLine
 10
66.29192126599895
 20
201.5005541624626
 30
0.0
 11
68.24258072799199
 21
201.5005541624626
 31
0.0
  0
LINE
  5
7859
330
18
100
AcDbEntity
  8
本体外線
 48
0.08
100
AcDbLine
 10
66.29192126599895
 20
196.5005541624626
 30
0.0
 11
68.24258072799193
 21
196.5005541624626
 31
0.0
  0
LINE
  5
785A
330
18
100
AcDbEntity
  8
本体外線
100
AcDbLine
 10
68.24258072799193
 20
196.5005541624626
 30
0.0
 11
68.24258072799199
 21
201.5005541624627
 31
0.0
  0
LINE
  5
785B
330
18
100
AcDbEntity
  8
中心線
  6
CENTER
 48
0.15
100
AcDbLine
 10
76.64258072799203
 20
180.8140206829894
 30
0.0
 11
81.26758072799203
 21
188.8247556679955
 31
0.0
  0
LINE
  5
785C
330
18
100
AcDbEntity
  8
本体外線
 48
0.08
100
AcDbLine
 10
95.40284694952736
 20
179.6933533827182
 30
0.0
 11
94.42751721853085
 21
181.3826740309367
 31
0.0
  0
LINE
  5
785D
330
18
100
AcDbEntity
  8
本体外線
 48
0.08
100
AcDbLine
 10
99.73297396844959
 20
182.1933533827182
 30
0.0
 11
98.75764423745307
 21
183.8826740309366
 31
0.0
  0
LINE
  5
785E
330
18
100
AcDbEntity
  8
本体外線
100
AcDbLine
 10
98.75764423745307
 20
183.8826740309366
 30
0.0
 11
94.42751721853085
 21
181.3826740309367
 31
0.0
  0
ARC
  5
785F
330
18
100
AcDbEntity
  8
本体外線
100
AcDbCircle
 10
87.14258072799202
 20
199.0005541624626
 30
0.0
 40
21.0
100
AcDbArc
 50
186.8371411681361
 51
293.1628588318638
  0
ARC
  5
7860
330
18
100
AcDbEntity
  8
本体外線
100
AcDbCircle
 10
87.14258072799202
 20
199.0005541624626
 30
0.0
 40
21.0
100
AcDbArc
 50
306.837141168136
 51
53.16285883186389
  0
LINE
  5
7861
330
18
100
AcDbEntity
  8
本体内線
  6
HIDDEN
 48
0.2
100
AcDbLine
 10
98.62354323119701
 20
201.5005541624626
 30
0.0
 11
107.993240189985
 21
201.5005541624626
 31
0.0
  0
LINE
  5
7862
330
18
100
AcDbEntity
  8
本体内線
  6
HIDDEN
 48
0.2
100
AcDbLine
 10
98.62354323119701
 20
196.5005541624626
 30
0.0
 11
107.993240189985
 21
196.5005541624626
 31
0.0
  0
LINE
  5
7869
330
18
100
AcDbEntity
  8
中心線
  6
CENTER
 48
0.15
100
AcDbLine
 10
81.26758072799203
 20
209.1763526569298
 30
0.0
 11
76.64258072799197
 21
217.1870876419358
 31
0.0
  0
LINE
  5
786B
102
{ACAD_REACTORS
330
7A3B
102
}
330
18
100
AcDbEntity
  8
本体外線
100
AcDbLine
 10
69.14258072799197
 20
123.8337221819853
 30
0.0
 11
105.1425807279919
 21
123.8337221819853
 31
0.0
  0
LINE
  5
786C
330
18
100
AcDbEntity
  8
本体外線
100
AcDbLine
 10
66.14258072799202
 20
121.8337221819853
 30
0.0
 11
66.14258072799202
 21
111.8959000084763
 31
0.0
  0
LINE
  5
786D
102
{ACAD_REACTORS
330
7A3B
102
}
330
18
100
AcDbEntity
  8
本体外線
100
AcDbLine
 10
108.142580727992
 20
121.8337221819853
 30
0.0
 11
108.1425807279919
 21
113.3337221819853
 31
0.0
  0
LINE
  5
786E
102
{ACAD_REACTORS
330
7A3B
102
}
330
18
100
AcDbEntity
  8
本体外線
100
AcDbLine
 10
69.64258072799196
 20
105.8337221819853
 30
0.0
 11
104.6425807279919
 21
105.8337221819853
 31
0.0
  0
LINE
  5
786F
102
{ACAD_REACTORS
330
7A3B
102
}
330
18
100
AcDbEntity
  8
本体外線
100
AcDbLine
 10
69.14258072799197
 20
123.8337221819853
 30
0.0
 11
69.14258072799197
 21
123.3337221819853
 31
0.0
  0
LINE
  5
7870
102
{ACAD_REACTORS
330
78B7
330
7A3B
102
}
330
18
100
AcDbEntity
  8
本体外線
100
AcDbLine
 10
98.89258072799202
 20
121.3337221819853
 30
0.0
 11
98.89258072799192
 21
107.3337221819853
 31
0.0
  0
LINE
  5
7871
102
{ACAD_REACTORS
330
7A3B
102
}
330
18
100
AcDbEntity
  8
0
100
AcDbLine
 10
99.64258072799204
 20
122.2337221819853
 30
0.0
 11
99.64258072799209
 21
116.1649406436511
 31
0.0
  0
LINE
  5
7872
102
{ACAD_REACTORS
330
7A3B
102
}
330
18
100
AcDbEntity
  8
本体外線
100
AcDbLine
 10
105.1425807279919
 20
123.8337221819853
 30
0.0
 11
105.1425807279919
 21
123.3337221819853
 31
0.0
  0
LINE
  5
7873
102
{ACAD_REACTORS
330
7A3B
102
}
330
18
100
AcDbEntity
  8
本体外線
100
AcDbLine
 10
67.64258072799202
 20
123.3337221819853
 30
0.0
 11
69.14258072799197
 21
123.3337221819853
 31
0.0
  0
LINE
  5
7874
102
{ACAD_REACTORS
330
7A3B
102
}
330
18
100
AcDbEntity
  8
本体外線
100
AcDbLine
 10
105.1425807279919
 20
123.3337221819853
 30
0.0
 11
106.6425807279919
 21
123.3337221819853
 31
0.0
  0
ARC
  5
7875
330
18
100
AcDbEntity
  8
本体外線
100
AcDbCircle
 10
67.64258072799202
 20
121.8337221819853
 30
0.0
 40
1.5
100
AcDbArc
 50
90.0
 51
180.0
  0
ARC
  5
7876
102
{ACAD_REACTORS
330
7A3B
102
}
330
18
100
AcDbEntity
  8
本体外線
100
AcDbCircle
 10
106.642580727992
 20
121.8337221819853
 30
0.0
 40
1.5
100
AcDbArc
 50
0.0
 51
90.00000000000049
  0
LINE
  5
7877
102
{ACAD_REACTORS
330
7A3B
102
}
330
18
100
AcDbEntity
  8
本体外線
100
AcDbLine
 10
98.89258072799202
 20
121.3337221819853
 30
0.0
 11
100.142580727992
 21
122.8337221819852
 31
0.0
  0
LINE
  5
7878
102
{ACAD_REACTORS
330
7A3B
102
}
330
18
100
AcDbEntity
  8
本体外線
100
AcDbLine
 10
98.89258072799192
 20
107.3337221819853
 30
0.0
 11
100.142580727992
 21
105.8337221819853
 31
0.0
  0
LINE
  5
7879
330
18
100
AcDbEntity
  8
本体外線
100
AcDbLine
 10
74.14258072799197
 20
122.8337221819854
 30
0.0
 11
100.142580727992
 21
122.8337221819853
 31
0.0
  0
POINT
  5
787E
330
18
100
AcDbEntity
  8
本体外線
100
AcDbPoint
 10
105.1425807279919
 20
123.8337221819853
 30
0.0
  0
POINT
  5
788B
330
18
100
AcDbEntity
  8
本体外線
100
AcDbPoint
 10
105.1425807279919
 20
123.8337221819853
 30
0.0
  0
LINE
  5
788E
102
{ACAD_REACTORS
330
7A3B
102
}
330
18
100
AcDbEntity
  8
本体外線
100
AcDbLine
 10
68.24258072799193
 20
123.3337221819853
 30
0.0
 11
68.24258072799193
 21
108.2585933125818
 31
0.0
  0
LINE
  5
788F
102
{ACAD_REACTORS
330
7A3B
102
}
330
18
100
AcDbEntity
  8
本体外線
100
AcDbLine
 10
108.1425807279919
 20
113.3337221819853
 30
0.0
 11
108.1425807279919
 21
111.8959000084763
 31
0.0
  0
LINE
  5
7890
102
{ACAD_REACTORS
330
7A3B
102
}
330
18
100
AcDbEntity
  8
0
100
AcDbLine
 10
104.1733092248892
 20
106.620920096067
 30
0.0
 11
107.1767097031404
 21
111.822962319875
 31
0.0
  0
LINE
  5
7891
330
18
100
AcDbEntity
  8
本体内線
  6
HIDDEN
 48
0.1
100
AcDbLine
 10
105.2769436523125
 20
110.4796234021546
 30
0.0
 11
104.3901923063648
 21
109.9676572738673
 31
0.0
  0
LINE
  5
7892
330
18
100
AcDbEntity
  8
本体内線
  6
HIDDEN
 48
0.1
100
AcDbLine
 10
104.3901923063647
 20
109.9676572738671
 30
0.0
 11
104.3901923063646
 21
108.9437250172921
 31
0.0
  0
LINE
  5
7894
330
18
100
AcDbEntity
  8
0
100
AcDbLine
 10
102.3320512152352
 20
112.3027730571052
 30
0.0
 11
105.064102022804
 21
113.034823864674
 31
0.0
  0
LINE
  5
7895
330
18
100
AcDbEntity
  8
0
100
AcDbLine
 10
101.3320512152352
 20
110.5707222495364
 30
0.0
 11
102.0641020228041
 21
107.8386714419675
 31
0.0
  0
LINE
  5
7896
330
18
100
AcDbEntity
  8
0
100
AcDbLine
 10
105.064102022804
 20
113.034823864674
 30
0.0
 11
102.0641020228041
 21
107.8386714419675
 31
0.0
  0
LINE
  5
7897
102
{ACAD_REACTORS
330
7A3B
102
}
330
18
100
AcDbEntity
  8
0
100
AcDbLine
 10
105.5589498709442
 20
107.420920096067
 30
0.0
 11
101.5569223458317
 21
109.731491764995
 31
0.0
  0
LINE
  5
7898
102
{ACAD_REACTORS
330
78B7
102
}
330
18
100
AcDbEntity
  8
0
100
AcDbLine
 10
103.0820512152355
 20
113.6018111627817
 30
0.0
 11
100.5820512152355
 21
109.2716841438596
 31
0.0
  0
LINE
  5
789A
102
{ACAD_REACTORS
330
78B7
102
}
330
18
100
AcDbEntity
  8
中心線
  6
CENTER
 48
0.15
100
AcDbLine
 10
107.2727735127707
 20
108.3648272025552
 30
0.0
 11
97.57211978978341
 21
113.8751775414711
 31
0.0
  0
LWPOLYLINE
  5
789C
102
{ACAD_REACTORS
330
7A3B
102
}
330
18
100
AcDbEntity
  8
本体外線
100
AcDbPolyline
 90
        2
 70
     0
 43
0.0
 10
104.6425807279919
 20
105.8337221819853
 10
108.1425807279919
 20
111.8959000084763
  0
LINE
  5
789D
102
{ACAD_REACTORS
330
78B7
102
}
330
18
100
AcDbEntity
  8
0
100
AcDbLine
 10
103.0820512152355
 20
113.6018111627816
 30
0.0
 11
98.89258072799202
 21
116.0206030763536
 31
0.0
  0
LINE
  5
789E
102
{ACAD_REACTORS
330
78B7
102
}
330
18
100
AcDbEntity
  8
0
100
AcDbLine
 10
100.5820512152355
 20
109.2716841438595
 30
0.0
 11
98.89258072799192
 21
110.2471003844575
 31
0.0
  0
LINE
  5
789F
102
{ACAD_REACTORS
330
7A3B
102
}
330
18
100
AcDbEntity
  8
0
100
AcDbLine
 10
104.1733092248891
 20
106.620920096067
 30
0.0
 11
98.89258072799187
 21
109.669750115268
 31
0.0
  0
LINE
  5
78A0
102
{ACAD_REACTORS
330
7A3B
102
}
330
18
100
AcDbEntity
  8
0
100
AcDbLine
 10
107.173309224889
 20
111.8170725187735
 30
0.0
 11
98.89258072799192
 21
116.5979533455433
 31
0.0
  0
LINE
  5
78A1
102
{ACAD_REACTORS
330
7A3B
102
}
330
18
100
AcDbEntity
  8
0
100
AcDbLine
 10
107.1767097031404
 20
110.2229623198754
 30
0.0
 11
107.1767097031404
 21
111.822962319875
 31
0.0
  0
LINE
  5
78A2
102
{ACAD_REACTORS
330
7A3B
102
}
330
18
100
AcDbEntity
  8
0
100
AcDbLine
 10
105.5623503491954
 20
107.4268098971685
 30
0.0
 11
104.1767097031405
 21
106.6268098971684
 31
0.0
  0
LINE
  5
78A3
330
18
100
AcDbEntity
  8
本体内線
  6
HIDDEN
 48
0.1
100
AcDbLine
 10
106.8129056991419
 20
109.5928353009526
 30
0.0
 11
105.2769436523125
 21
110.4796234021546
 31
0.0
  0
LINE
  5
78A4
330
18
100
AcDbEntity
  8
本体内線
  6
HIDDEN
 48
0.1
100
AcDbLine
 10
105.9261543531939
 20
108.05693691609
 30
0.0
 11
104.3901923063646
 21
108.9437250172921
 31
0.0
  0
LINE
  5
78AA
330
18
100
AcDbEntity
  8
本体外線
100
AcDbLine
 10
75.39258072799191
 20
121.3337221819854
 30
0.0
 11
98.89258072799202
 21
121.3337221819853
 31
0.0
  0
LINE
  5
78AB
330
18
100
AcDbEntity
  8
本体外線
100
AcDbLine
 10
75.39258072799197
 20
107.3337221819853
 30
0.0
 11
98.89258072799192
 21
107.3337221819853
 31
0.0
  0
LINE
  5
78AC
330
18
100
AcDbEntity
  8
0
100
AcDbLine
 10
107.1767097031404
 20
110.2229623198754
 30
0.0
 11
103.1746821780278
 21
112.5335339888035
 31
0.0
  0
LINE
  5
78AD
102
{ACAD_REACTORS
330
7A3B
102
}
330
18
100
AcDbEntity
  8
本体外線
100
AcDbLine
 10
75.39258072799191
 20
121.3337221819854
 30
0.0
 11
75.39258072799197
 21
107.3337221819853
 31
0.0
  0
LINE
  5
78AE
102
{ACAD_REACTORS
330
7A3B
102
}
330
18
100
AcDbEntity
  8
0
100
AcDbLine
 10
74.64258072799191
 20
122.2337221819854
 30
0.0
 11
74.64258072799186
 21
106.4337221819851
 31
0.0
  0
LINE
  5
78AF
102
{ACAD_REACTORS
330
7A3B
102
}
330
18
100
AcDbEntity
  8
本体外線
100
AcDbLine
 10
75.39258072799191
 20
121.3337221819854
 30
0.0
 11
74.14258072799197
 21
122.8337221819852
 31
0.0
  0
LINE
  5
78B0
102
{ACAD_REACTORS
330
7A3B
102
}
330
18
100
AcDbEntity
  8
本体外線
100
AcDbLine
 10
75.39258072799197
 20
107.3337221819853
 30
0.0
 11
74.14258072799197
 21
105.8337221819853
 31
0.0
  0
LWPOLYLINE
  5
78B1
102
{ACAD_REACTORS
330
7A3B
102
}
330
18
100
AcDbEntity
  8
本体外線
100
AcDbPolyline
 90
        2
 70
     0
 43
0.0
 10
69.64258072799196
 20
105.8337221819853
 10
66.14258072799197
 20
111.8959000084763
  0
LINE
  5
78B6
102
{ACAD_REACTORS
330
7A3B
102
}
330
18
100
AcDbEntity
  8
0
100
AcDbLine
 10
99.64258072799214
 20
109.2367374133756
 30
0.0
 11
99.64258072799214
 21
106.4337221819851
 31
0.0
  0
HATCH
  5
78B7
330
18
100
AcDbEntity
  8
0
100
AcDbHatch
 10
0.0
 20
0.0
 30
0.0
210
0.0
220
0.0
230
1.0
  2
AR-SAND
 70
     0
 71
     1
 91
        2
 92
        7
 72
     0
 73
     1
 93
        4
 10
101.8401475920245
 20
111.4507709892764
 10
103.0820512152355
 20
113.6018111627816
 10
98.89258072799199
 20
116.0206030763536
 10
98.89258072799194
 20
113.1251041354757
 97
        4
330
789D
330
7870
330
789A
330
7898
 92
        7
 72
     0
 73
     1
 93
        4
 10
98.89258072799195
 20
113.1251041354757
 10
98.89258072799194
 20
110.2471003844575
 10
100.5820512152355
 20
109.2716841438595
 10
101.8401475920245
 20
111.4507709892765
 97
        4
330
789A
330
7870
330
789E
330
7898
 75
     0
 76
     1
 52
0.0
 41
0.05
 77
     0
 78
     4
 53
37.5
 43
-11.92513634688069
 44
-17.00046684708206
 45
-0.0800015647992023
 46
2.447066186646711
 79
     6
 49
0.0
 49
-1.9304
 49
0.0
 49
-2.159
 49
0.0
 49
-2.06375
 53
7.499999999999999
 43
-11.92513634688069
 44
-17.00046684708206
 45
2.247616415690013
 46
3.584125502841771
 79
     6
 49
0.0
 49
-1.0414
 49
0.0
 49
-1.7399
 49
0.0
 49
-0.6667500000000001
 53
327.5
 43
-13.4872363468807
 44
-17.00046684708206
 45
3.95496185120729
 46
0.0071859233927285
 79
     6
 49
0.0
 49
-0.635
 49
0.0
 49
-2.286
 49
0.0
 49
-2.9845
 53
317.5
 43
-13.4872363468807
 44
-17.00046684708206
 45
3.817782262361486
 46
1.114646616286081
 79
     6
 49
0.0
 49
-0.3175
 49
0.0
 49
-1.498599999999999
 49
0.0
 49
-1.7145
 47
0.0671953186556691
 98
        2
 10
101.3417355599501
 20
113.0407163555521
 10
100.063571542254
 20
111.4280284419956
  0
LINE
  5
79E8
330
18
100
AcDbEntity
  8
本体内線
  6
HIDDEN
 48
0.2
100
AcDbLine
 10
98.50314849549381
 20
202.0005541624626
 30
0.0
 11
107.9271904188185
 21
202.0005541624626
 31
0.0
  0
LINE
  5
79E9
330
18
100
AcDbEntity
  8
本体内線
  6
HIDDEN
 48
0.2
100
AcDbLine
 10
98.50314849549381
 20
196.0005541624626
 30
0.0
 11
107.9271904188185
 21
196.0005541624626
 31
0.0
  0
LINE
  5
79EA
330
18
100
AcDbEntity
  8
本体内線
  6
HIDDEN
 48
0.2
100
AcDbLine
 10
79.23703596692826
 20
207.6933593501347
 30
0.0
 11
74.5521874875343
 21
215.807754942207
 31
0.0
  0
LINE
  5
79EB
330
18
100
AcDbEntity
  8
本体内線
  6
HIDDEN
 48
0.2
100
AcDbLine
 10
83.56716298585046
 20
210.1933593501347
 30
0.0
 11
78.88231450645645
 21
218.3077549422069
 31
0.0
  0
LINE
  5
79EC
330
18
100
AcDbEntity
  8
本体内線
  6
HIDDEN
 48
0.2
100
AcDbLine
 10
78.86422063288762
 20
207.3390944505339
 30
0.0
 11
74.15219967122528
 21
215.5005541624626
 31
0.0
  0
LINE
  5
79ED
330
18
100
AcDbEntity
  8
本体内線
  6
HIDDEN
 48
0.2
100
AcDbLine
 10
84.06037305559426
 20
210.3390944505338
 30
0.0
 11
79.34835209393191
 21
218.5005541624626
 31
0.0
  0
LINE
  5
79EE
330
18
100
AcDbEntity
  8
本体内線
  6
HIDDEN
 48
0.2
100
AcDbLine
 10
83.56716298585059
 20
187.8077489747904
 30
0.0
 11
78.88231450645651
 21
179.6933533827181
 31
0.0
  0
LINE
  5
79EF
330
18
100
AcDbEntity
  8
本体内線
  6
HIDDEN
 48
0.2
100
AcDbLine
 10
79.23703596692837
 20
190.3077489747904
 30
0.0
 11
74.5521874875343
 21
182.1933533827181
 31
0.0
  0
LINE
  5
79F0
330
18
100
AcDbEntity
  8
本体内線
  6
HIDDEN
 48
0.2
100
AcDbLine
 10
84.06037305559436
 20
187.6620138743913
 30
0.0
 11
79.34835209393202
 21
179.5005541624625
 31
0.0
  0
LINE
  5
79F1
330
18
100
AcDbEntity
  8
本体内線
  6
HIDDEN
 48
0.2
100
AcDbLine
 10
78.86422063288773
 20
190.6620138743912
 30
0.0
 11
74.15219967122538
 21
182.5005541624625
 31
0.0
  0
LINE
  5
7A0D
102
{ACAD_REACTORS
330
7A3B
102
}
330
18
100
AcDbEntity
  8
本体外線
100
AcDbLine
 10
74.14258072799191
 20
123.8337221819853
 30
0.0
 11
74.14258072799197
 21
122.8337221819854
 31
0.0
  0
LINE
  5
7A0E
102
{ACAD_REACTORS
330
7A3B
102
}
330
18
100
AcDbEntity
  8
本体外線
100
AcDbLine
 10
100.142580727992
 20
123.8337221819853
 30
0.0
 11
100.142580727992
 21
122.8337221819853
 31
0.0
  0
HATCH
  5
7A3B
330
18
100
AcDbEntity
  8
剖面線
100
AcDbHatch
 10
0.0
 20
0.0
 30
0.0
210
0.0
220
0.0
230
1.0
  2
ANSI31
 70
     0
 71
     1
 91
        6
 92
        7
 72
     0
 73
     1
 93
       10
 10
68.24258072799193
 20
108.2585933125818
 10
69.64258072799196
 20
105.8337221819853
 10
74.14258072799197
 20
105.8337221819853
 10
74.64258072799184
 20
106.4337221819851
 10
74.64258072799193
 20
122.2337221819854
 10
74.14258072799196
 20
122.8337221819852
 10
74.14258072799191
 20
123.8337221819853
 10
69.14258072799197
 20
123.8337221819853
 10
69.14258072799197
 20
123.3337221819853
 10
68.24258072799192
 20
123.3337221819853
 97
       10
330
78AF
330
7A0D
330
786B
330
786F
330
7873
330
788E
330
78B1
330
786E
330
78B0
330
78AE
 92
        7
 72
     0
 73
     1
 93
        4
 10
75.3925807279919
 20
121.3337221819854
 10
74.64258072799189
 20
122.2337221819853
 10
74.64258072799186
 20
106.4337221819852
 10
75.39258072799197
 20
107.3337221819853
 97
        4
330
78AF
330
78AE
330
78B0
330
78AD
 92
        7
 72
     1
 73
     1
 93
       13
 10
107.173309224889
 20
111.8170725187735
 42
0.0
 10
107.1767097031404
 20
111.822962319875
 42
0.0
 10
107.1767097031404
 20
110.2229623198748
 42
0.0
 10
108.1425807279919
 20
111.8959000084764
 42
0.0
 10
108.1425807279919
 20
113.3337221819853
 42
0.0
 10
108.142580727992
 20
121.8337221819853
 42
0.4142135623730975
 10
106.642580727992
 20
123.3337221819853
 42
0.0
 10
105.1425807279919
 20
123.3337221819853
 42
0.0
 10
105.1425807279919
 20
123.8337221819853
 42
0.0
 10
100.142580727992
 20
123.8337221819853
 42
0.0
 10
100.142580727992
 20
122.8337221819852
 42
0.0
 10
99.64258072799202
 20
122.2337221819853
 42
0.0
 10
99.64258072799209
 20
116.164940643651
 42
0.0
 97
       13
330
7876
330
7874
330
7872
330
786B
330
7A0E
330
7877
330
7871
330
78A0
330
7890
330
78A1
330
789C
330
788F
330
786D
 92
        7
 72
     0
 73
     1
 93
        8
 10
99.64258072799214
 20
109.2367374133756
 10
99.64258072799212
 20
106.4337221819851
 10
100.1425807279919
 20
105.8337221819853
 10
104.642580727992
 20
105.8337221819853
 10
105.5589498709442
 20
107.420920096067
 10
105.5555493926926
 20
107.4228833631009
 10
104.1767097031406
 20
106.6268098971685
 10
104.1733092248892
 20
106.620920096067
 97
        8
330
78B6
330
7878
330
786E
330
789C
330
7897
330
78A2
330
7890
330
789F
 92
        7
 72
     0
 73
     1
 93
        4
 10
98.8925807279919
 20
107.3337221819853
 10
99.64258072799214
 20
106.433722181985
 10
99.64258072799214
 20
109.2367374133756
 10
98.89258072799194
 20
109.6697501152679
 97
        4
330
789F
330
7870
330
7878
330
78B6
 92
        7
 72
     0
 73
     1
 93
        4
 10
98.89258072799197
 20
116.5979533455433
 10
99.64258072799209
 20
116.164940643651
 10
99.64258072799202
 20
122.2337221819853
 10
98.89258072799204
 20
121.3337221819853
 97
        4
330
7877
330
7870
330
78A0
330
7871
 75
     0
 76
     1
 52
0.0
 41
0.5
 77
     0
 78
     1
 53
45.0
 43
-196.3341795596359
 44
0.0
 45
-1.122532015133643
 46
1.122532015133644
 79
     0
 47
0.0587415082887542
 98
        6
 10
71.4406531154159
 20
115.2444550653401
 10
75.13969860937049
 20
113.2315797831226
 10
103.4313573350689
 20
116.3464269962594
 10
102.0204299936197
 20
107.2414926763078
 10
99.08099975896654
 20
107.8289081857808
 10
99.19857646185414
 20
117.8149644195241
  0
DIMENSION
  5
7AD6
330
18
100
AcDbEntity
  8
DIM
100
AcDbDimension
  2
*D12
 10
96.3603158344722
 20
123.8337221819853
 30
0.0
 11
96.3603158344722
 21
131.4195358696575
 31
0.0
 12
-196.3341795596359
 22
0.0
 32
0.0
 70
   160
 71
     5
 42
-1.0
  3
A
100
AcDbAlignedDimension
 13
100.142580727992
 23
122.8337221819853
 33
0.0
 14
100.142580727992
 24
123.8337221819853
 34
0.0
 50
90.0
100
AcDbRotatedDimension
  0
MTEXT
  5
7B2A
330
18
100
AcDbEntity
  8
0
100
AcDbMText
 10
49.81948278949767
 20
19.3739983431626
 30
0.0
 40
5.0
 41
0.0
 71
     1
 72
     5
  1
\Ftxt.shx,bigfont.shx|c128;小柳
  7
JL
 73
     1
 44
1.0
  0
ENDSEC
  0
SECTION
  2
OBJECTS
  0
DICTIONARY
  5
C
330
0
100
AcDbDictionary
281
     1
  3
ACAD_COLOR
350
7B2E
  3
ACAD_GROUP
350
D
  3
ACAD_LAYOUT
350
5CF3
  3
ACAD_MATERIAL
350
7B2D
  3
ACAD_MLINESTYLE
350
1B
  3
ACAD_PLOTSETTINGS
350
5CF4
  3
ACAD_PLOTSTYLENAME
350
5CF1
  3
ACAD_TABLESTYLE
350
7B2F
  3
ACDBVARIABLEDICTIONARY
350
45D
  0
DICTIONARY
  5
45F
330
18
100
AcDbDictionary
280
     1
281
     1
  3
ACAD_LAYOUTSELFREF
360
5D8B
  3
ACAD_SORTENTS
360
460
  0
DICTIONARY
  5
5D89
330
15
100
AcDbDictionary
280
     1
281
     1
  3
ACAD_LAYOUTSELFREF
360
5D8A
  0
DICTIONARY
  5
7B2E
102
{ACAD_REACTORS
330
C
102
}
330
C
100
AcDbDictionary
281
     1
  0
DICTIONARY
  5
D
102
{ACAD_REACTORS
330
C
102
}
330
C
100
AcDbDictionary
281
     1
  0
DICTIONARY
  5
5CF3
102
{ACAD_REACTORS
330
C
102
}
330
C
100
AcDbDictionary
281
     1
  3
Model
350
5CF5
  3
配置1
350
5CF6
  0
DICTIONARY
  5
7B2D
102
{ACAD_REACTORS
330
C
102
}
330
C
100
AcDbDictionary
281
     1
  0
DICTIONARY
  5
1B
102
{ACAD_REACTORS
330
C
102
}
330
C
100
AcDbDictionary
281
     1
  3
STANDARD
350
1C
  0
DICTIONARY
  5
5CF4
102
{ACAD_REACTORS
330
C
102
}
330
C
100
AcDbDictionary
281
     1
  0
ACDBDICTIONARYWDFLT
  5
5CF1
102
{ACAD_REACTORS
330
C
102
}
330
C
100
AcDbDictionary
281
     1
  3
Normal
350
5CF2
100
AcDbDictionaryWithDefault
340
5CF2
  0
DICTIONARY
  5
7B2F
102
{ACAD_REACTORS
330
C
102
}
330
C
100
AcDbDictionary
281
     1
  3
Standard
350
7B30
  0
DICTIONARY
  5
45D
102
{ACAD_REACTORS
330
C
102
}
330
C
100
AcDbDictionary
281
     1
  3
CTABLESTYLE
350
7B44
  3
SORTENTS
350
45E
  0
XRECORD
  5
5D8B
102
{ACAD_REACTORS
330
45F
102
}
330
45F
100
AcDbXrecord
280
     1
340
18
  0
SORTENTSTABLE
  5
460
102
{ACAD_REACTORS
330
45F
102
}
330
45F
100
AcDbSortentsTable
330
18
331
C0
  5
CB
  0
XRECORD
  5
5D8A
102
{ACAD_REACTORS
330
5D89
102
}
330
5D89
100
AcDbXrecord
280
     1
340
15
  0
LAYOUT
  5
5CF5
102
{ACAD_REACTORS
330
5CF3
102
}
330
5CF3
100
AcDbPlotSettings
  1

  2
EPSON STYLUS COLOR 440
  4

  6

 40
0.0
 41
0.0
 42
0.0
 43
0.0
 44
0.0
 45
0.0
 46
0.0
 47
0.0
 48
0.0
 49
0.0
140
0.0
141
0.0
142
1.0
143
1.0
 70
  1712
 72
     0
 73
     0
 74
     0
  7
a.ctb
 75
     0
147
1.0
 76
     0
 77
     2
 78
   300
148
0.0
149
0.0
100
AcDbLayout
  1
Model
 70
     1
 71
     0
 10
0.0
 20
0.0
 11
12.0
 21
9.0
 12
0.0
 22
0.0
 32
0.0
 14
0.0
 24
0.0
 34
0.0
 15
0.0
 25
0.0
 35
0.0
146
0.0
 13
0.0
 23
0.0
 33
0.0
 16
1.0
 26
0.0
 36
0.0
 17
0.0
 27
1.0
 37
0.0
 76
     0
330
18
  0
LAYOUT
  5
5CF6
102
{ACAD_REACTORS
330
5CF3
102
}
330
5CF3
100
AcDbPlotSettings
  1

  2
EPSON STYLUS COLOR 440
  4

  6

 40
0.0
 41
0.0
 42
0.0
 43
0.0
 44
0.0
 45
0.0
 46
0.0
 47
0.0
 48
0.0
 49
0.0
140
0.0
141
0.0
142
1.0
143
1.0
 70
   688
 72
     0
 73
     0
 74
     5
  7
a.ctb
 75
    16
147
1.0
 76
     0
 77
     2
 78
   300
148
0.0
149
0.0
100
AcDbLayout
  1
ｰtｸm1
 70
     1
 71
     1
 10
0.0
 20
0.0
 11
420.0
 21
297.0
 12
0.0
 22
0.0
 32
0.0
 14
1.000000000000000E+20
 24
1.000000000000000E+20
 34
1.000000000000000E+20
 15
-1.000000000000000E+20
 25
-1.000000000000000E+20
 35
-1.000000000000000E+20
146
0.0
 13
0.0
 23
0.0
 33
0.0
 16
1.0
 26
0.0
 36
0.0
 17
0.0
 27
1.0
 37
0.0
 76
     0
330
15
  0
MLINESTYLE
  5
1C
102
{ACAD_REACTORS
330
1B
102
}
330
1B
100
AcDbMlineStyle
  2
STANDARD
 70
     0
  3

 62
   256
 51
90.0
 52
90.0
 71
     2
 49
0.5
 62
   256
  6
BYLAYER
 49
-0.5
 62
   256
  6
BYLAYER
  0
ACDBPLACEHOLDER
  5
5CF2
102
{ACAD_REACTORS
330
5CF1
102
}
330
5CF1
  0
TABLESTYLE
  5
7B30
102
{ACAD_REACTORS
330
7B2F
102
}
330
7B2F
100
AcDbTableStyle
  3
Standard
 70
     0
 71
     8
 40
1.5
 41
1.5
280
     0
281
     0
  7
STANDARD
140
4.5
170
     2
 62
     0
 63
     7
283
     0
274
    -2
284
     1
 64
     0
275
    -2
285
     1
 65
     0
276
    -2
286
     1
 66
     0
277
    -2
287
     1
 67
     0
278
    -2
288
     1
 68
     0
279
    -2
289
     1
 69
     0
  7
STANDARD
140
6.0
170
     5
 62
     0
 63
     7
283
     0
274
    -2
284
     1
 64
     0
275
    -2
285
     1
 65
     0
276
    -2
286
     1
 66
     0
277
    -2
287
     1
 67
     0
278
    -2
288
     1
 68
     0
279
    -2
289
     1
 69
     0
  7
STANDARD
140
4.5
170
     5
 62
     0
 63
     7
283
     0
274
    -2
284
     1
 64
     0
275
    -2
285
     1
 65
     0
276
    -2
286
     1
 66
     0
277
    -2
287
     1
 67
     0
278
    -2
288
     1
 68
     0
279
    -2
289
     1
 69
     0
  0
DICTIONARYVAR
  5
7B44
102
{ACAD_REACTORS
330
45D
102
}
330
45D
100
DictionaryVariables
280
     0
  1
STANDARD
  0
DICTIONARYVAR
  5
45E
102
{ACAD_REACTORS
330
45D
102
}
330
45D
100
DictionaryVariables
280
     0
  1
127
  0
ENDSEC
  0
EOF
