  0
SECTION
  2
HEADER
  9
$ACADVER
  1
AC1018
  9
$ACADMAINTVER
 70
    76
  9
$DWGCODEPAGE
  3
ANSI_932
  9
$INSBASE
 10
0.0
 20
0.0
 30
0.0
  9
$EXTMIN
 10
-0.0000000000002274
 20
-0.0000000000000568
 30
0.0
  9
$EXTMAX
 10
197.9999999999997
 20
290.0
 30
4.0
  9
$LIMMIN
 10
0.0
 20
0.0
  9
$LIMMAX
 10
420.0
 20
297.0
  9
$ORTHOMODE
 70
     1
  9
$REGENMODE
 70
     1
  9
$FILLMODE
 70
     1
  9
$QTEXTMODE
 70
     0
  9
$MIRRTEXT
 70
     1
  9
$LTSCALE
 40
1.0
  9
$ATTMODE
 70
     1
  9
$TEXTSIZE
 40
2.5
  9
$TRACEWID
 40
1.0
  9
$TEXTSTYLE
  7
TXT
  9
$CLAYER
  8
0
  9
$CELTYPE
  6
BYLAYER
  9
$CECOLOR
 62
   256
  9
$CELTSCALE
 40
1.0
  9
$DISPSILH
 70
     0
  9
$DIMSCALE
 40
1.0
  9
$DIMASZ
 40
2.5
  9
$DIMEXO
 40
1.0
  9
$DIMDLI
 40
6.0
  9
$DIMRND
 40
0.0
  9
$DIMDLE
 40
0.0
  9
$DIMEXE
 40
1.0
  9
$DIMTP
 40
0.0
  9
$DIMTM
 40
0.0
  9
$DIMTXT
 40
3.0
  9
$DIMCEN
 40
0.0
  9
$DIMTSZ
 40
0.0
  9
$DIMTOL
 70
     0
  9
$DIMLIM
 70
     0
  9
$DIMTIH
 70
     0
  9
$DIMTOH
 70
     0
  9
$DIMSE1
 70
     0
  9
$DIMSE2
 70
     0
  9
$DIMTAD
 70
     3
  9
$DIMZIN
 70
     8
  9
$DIMBLK
  1

  9
$DIMASO
 70
     1
  9
$DIMSHO
 70
     1
  9
$DIMPOST
  1

  9
$DIMAPOST
  1

  9
$DIMALT
 70
     0
  9
$DIMALTD
 70
     2
  9
$DIMALTF
 40
25.4
  9
$DIMLFAC
 40
1.0
  9
$DIMTOFL
 70
     0
  9
$DIMTVP
 40
0.0
  9
$DIMTIX
 70
     0
  9
$DIMSOXD
 70
     0
  9
$DIMSAH
 70
     0
  9
$DIMBLK1
  1

  9
$DIMBLK2
  1

  9
$DIMSTYLE
  2
A
  9
$DIMCLRD
 70
     6
  9
$DIMCLRE
 70
     6
  9
$DIMCLRT
 70
     3
  9
$DIMTFAC
 40
1.0
  9
$DIMGAP
 40
1.0
  9
$DIMJUST
 70
     0
  9
$DIMSD1
 70
     0
  9
$DIMSD2
 70
     0
  9
$DIMTOLJ
 70
     1
  9
$DIMTZIN
 70
     0
  9
$DIMALTZ
 70
     0
  9
$DIMALTTZ
 70
     0
  9
$DIMUPT
 70
     0
  9
$DIMDEC
 70
     1
  9
$DIMTDEC
 70
     1
  9
$DIMALTU
 70
     2
  9
$DIMALTTD
 70
     2
  9
$DIMTXSTY
  7
TXT
  9
$DIMAUNIT
 70
     0
  9
$DIMADEC
 70
     0
  9
$DIMALTRND
 40
0.0
  9
$DIMAZIN
 70
     0
  9
$DIMDSEP
 70
    46
  9
$DIMATFIT
 70
     3
  9
$DIMFRAC
 70
     0
  9
$DIMLDRBLK
  1

  9
$DIMLUNIT
 70
     2
  9
$DIMLWD
 70
    -2
  9
$DIMLWE
 70
    -2
  9
$DIMTMOVE
 70
     1
  9
$LUNITS
 70
     2
  9
$LUPREC
 70
     2
  9
$SKETCHINC
 40
1.0
  9
$FILLETRAD
 40
1.5
  9
$AUNITS
 70
     0
  9
$AUPREC
 70
     2
  9
$MENU
  1
.
  9
$ELEVATION
 40
0.0
  9
$PELEVATION
 40
0.0
  9
$THICKNESS
 40
0.0
  9
$LIMCHECK
 70
     0
  9
$CHAMFERA
 40
0.0
  9
$CHAMFERB
 40
0.0
  9
$CHAMFERC
 40
1.75
  9
$CHAMFERD
 40
0.0174532925199433
  9
$SKPOLY
 70
     0
  9
$TDCREATE
 40
2451555.578568171
  9
$TDUCREATE
 40
2451555.203568172
  9
$TDUPDATE
 40
2455846.596252257
  9
$TDUUPDATE
 40
2455846.221252257
  9
$TDINDWG
 40
2.5786374421
  9
$TDUSRTIMER
 40
2.5786374421
  9
$USRTIMER
 70
     1
  9
$ANGBASE
 50
0.0
  9
$ANGDIR
 70
     0
  9
$PDMODE
 70
     0
  9
$PDSIZE
 40
0.0
  9
$PLINEWID
 40
0.0
  9
$SPLFRAME
 70
     0
  9
$SPLINETYPE
 70
     6
  9
$SPLINESEGS
 70
     8
  9
$HANDSEED
  5
7F46
  9
$SURFTAB1
 70
     6
  9
$SURFTAB2
 70
     6
  9
$SURFTYPE
 70
     6
  9
$SURFU
 70
     6
  9
$SURFV
 70
     6
  9
$UCSBASE
  2

  9
$UCSNAME
  2

  9
$UCSORG
 10
0.0
 20
0.0
 30
0.0
  9
$UCSXDIR
 10
1.0
 20
0.0
 30
0.0
  9
$UCSYDIR
 10
0.0
 20
1.0
 30
0.0
  9
$UCSORTHOREF
  2

  9
$UCSORTHOVIEW
 70
     0
  9
$UCSORGTOP
 10
0.0
 20
0.0
 30
0.0
  9
$UCSORGBOTTOM
 10
0.0
 20
0.0
 30
0.0
  9
$UCSORGLEFT
 10
0.0
 20
0.0
 30
0.0
  9
$UCSORGRIGHT
 10
0.0
 20
0.0
 30
0.0
  9
$UCSORGFRONT
 10
0.0
 20
0.0
 30
0.0
  9
$UCSORGBACK
 10
0.0
 20
0.0
 30
0.0
  9
$PUCSBASE
  2

  9
$PUCSNAME
  2

  9
$PUCSORG
 10
0.0
 20
0.0
 30
0.0
  9
$PUCSXDIR
 10
1.0
 20
0.0
 30
0.0
  9
$PUCSYDIR
 10
0.0
 20
1.0
 30
0.0
  9
$PUCSORTHOREF
  2

  9
$PUCSORTHOVIEW
 70
     0
  9
$PUCSORGTOP
 10
0.0
 20
0.0
 30
0.0
  9
$PUCSORGBOTTOM
 10
0.0
 20
0.0
 30
0.0
  9
$PUCSORGLEFT
 10
0.0
 20
0.0
 30
0.0
  9
$PUCSORGRIGHT
 10
0.0
 20
0.0
 30
0.0
  9
$PUCSORGFRONT
 10
0.0
 20
0.0
 30
0.0
  9
$PUCSORGBACK
 10
0.0
 20
0.0
 30
0.0
  9
$USERI1
 70
     0
  9
$USERI2
 70
     0
  9
$USERI3
 70
     0
  9
$USERI4
 70
     0
  9
$USERI5
 70
     0
  9
$USERR1
 40
0.0
  9
$USERR2
 40
0.0
  9
$USERR3
 40
0.0
  9
$USERR4
 40
0.0
  9
$USERR5
 40
0.0
  9
$WORLDVIEW
 70
     1
  9
$SHADEDGE
 70
     3
  9
$SHADEDIF
 70
    70
  9
$TILEMODE
 70
     1
  9
$MAXACTVP
 70
    48
  9
$PINSBASE
 10
0.0
 20
0.0
 30
0.0
  9
$PLIMCHECK
 70
     0
  9
$PEXTMIN
 10
1.000000000000000E+20
 20
1.000000000000000E+20
 30
1.000000000000000E+20
  9
$PEXTMAX
 10
-1.000000000000000E+20
 20
-1.000000000000000E+20
 30
-1.000000000000000E+20
  9
$PLIMMIN
 10
0.0
 20
0.0
  9
$PLIMMAX
 10
420.0
 20
297.0
  9
$UNITMODE
 70
     0
  9
$VISRETAIN
 70
     1
  9
$PLINEGEN
 70
     0
  9
$PSLTSCALE
 70
     1
  9
$TREEDEPTH
 70
  3020
  9
$CMLSTYLE
  2
STANDARD
  9
$CMLJUST
 70
     0
  9
$CMLSCALE
 40
20.0
  9
$PROXYGRAPHICS
 70
     1
  9
$MEASUREMENT
 70
     1
  9
$CELWEIGHT
370
    -1
  9
$ENDCAPS
280
     0
  9
$JOINSTYLE
280
     0
  9
$LWDISPLAY
290
     0
  9
$INSUNITS
 70
     0
  9
$HYPERLINKBASE
  1

  9
$STYLESHEET
  1

  9
$XEDIT
290
     1
  9
$CEPSNTYPE
380
     0
  9
$PSTYLEMODE
290
     1
  9
$FINGERPRINTGUID
  2
{1CF51E8A-A506-11D4-A7D9-AF69F5C20846}
  9
$VERSIONGUID
  2
{1CF51E8C-A506-11D4-A7D9-AF69F5C20846}
  9
$EXTNAMES
290
     1
  9
$PSVPSCALE
 40
0.0
  9
$OLESTARTUP
290
     0
  9
$SORTENTS
280
   127
  9
$INDEXCTL
280
     0
  9
$HIDETEXT
280
     0
  9
$XCLIPFRAME
290
     0
  9
$HALOGAP
280
     0
  9
$OBSCOLOR
 70
   257
  9
$OBSLTYPE
280
     0
  9
$INTERSECTIONDISPLAY
280
     0
  9
$INTERSECTIONCOLOR
 70
   257
  9
$DIMASSOC
280
     1
  9
$PROJECTNAME
  1

  0
ENDSEC
  0
SECTION
  2
CLASSES
  0
CLASS
  1
DICTIONARYVAR
  2
AcDbDictionaryVar
  3
ObjectDBX Classes
 90
        0
 91
        2
280
     0
281
     0
  0
CLASS
  1
SORTENTSTABLE
  2
AcDbSortentsTable
  3
ObjectDBX Classes
 90
        0
 91
        1
280
     0
281
     0
  0
CLASS
  1
ACDBDICTIONARYWDFLT
  2
AcDbDictionaryWithDefault
  3
ObjectDBX Classes
 90
        0
 91
        1
280
     0
281
     0
  0
CLASS
  1
TABLESTYLE
  2
AcDbTableStyle
  3
ObjectDBX Classes
 90
     2047
 91
        1
280
     0
281
     0
  0
ENDSEC
  0
SECTION
  2
TABLES
  0
TABLE
  2
VPORT
  5
8
330
0
100
AcDbSymbolTable
 70
     2
  0
VPORT
  5
7F45
330
8
100
AcDbSymbolTableRecord
100
AcDbViewportTableRecord
  2
*Active
 70
     0
 10
0.0
 20
0.0
 11
1.0
 21
1.0
 12
192.806231532509
 22
144.9945002215846
 13
0.0
 23
0.0
 14
10.0
 24
10.0
 15
10.0
 25
10.0
 16
0.0
 26
0.0
 36
1.0
 17
0.0
 27
0.0
 37
0.0
 40
293.4642877350121
 41
2.47104247104247
 42
50.0
 43
0.0
 44
0.0
 50
0.0
 51
0.0
 71
     0
 72
   100
 73
     1
 74
     1
 75
     0
 76
     0
 77
     0
 78
     0
281
     0
 65
     1
110
0.0
120
0.0
130
0.0
111
1.0
121
0.0
131
0.0
112
0.0
122
1.0
132
0.0
 79
     0
146
0.0
  0
ENDTAB
  0
TABLE
  2
LTYPE
  5
5
330
0
100
AcDbSymbolTable
 70
     7
  0
LTYPE
  5
12
330
5
100
AcDbSymbolTableRecord
100
AcDbLinetypeTableRecord
  2
BYBLOCK
 70
     0
  3

 72
    65
 73
     0
 40
0.0
  0
LTYPE
  5
13
330
5
100
AcDbSymbolTableRecord
100
AcDbLinetypeTableRecord
  2
BYLAYER
 70
     0
  3

 72
    65
 73
     0
 40
0.0
  0
LTYPE
  5
14
330
5
100
AcDbSymbolTableRecord
100
AcDbLinetypeTableRecord
  2
CONTINUOUS
 70
     0
  3
Solid line
 72
    65
 73
     0
 40
0.0
  0
LTYPE
  5
9D
330
5
100
AcDbSymbolTableRecord
100
AcDbLinetypeTableRecord
  2
CENTERX2
 70
     0
  3
Center (2x) ________  __  ________  __  _____
 72
    65
 73
     4
 40
101.6
 49
63.5
 74
     0
 49
-12.7
 74
     0
 49
12.7
 74
     0
 49
-12.7
 74
     0
  0
LTYPE
  5
A1
330
5
100
AcDbSymbolTableRecord
100
AcDbLinetypeTableRecord
  2
DASHED
 70
     0
  3
Dashed __ __ __ __ __ __ __ __ __ __ __ __ __ _
 72
    65
 73
     2
 40
19.05
 49
12.7
 74
     0
 49
-6.349999999999999
 74
     0
  0
LTYPE
  5
A2
330
5
100
AcDbSymbolTableRecord
100
AcDbLinetypeTableRecord
  2
DASHED2
 70
     0
  3
Dashed (.5x) _ _ _ _ _ _ _ _ _ _ _ _ _ _ _ _ _
 72
    65
 73
     2
 40
9.524999999999998
 49
6.349999999999999
 74
     0
 49
-3.174999999999999
 74
     0
  0
LTYPE
  5
A5
330
5
100
AcDbSymbolTableRecord
100
AcDbLinetypeTableRecord
  2
DIVIDE2
 70
     0
  3
Divide (.5x) __..__..__..__..__..__..__..__.._
 72
    65
 73
     6
 40
15.875
 49
6.349999999999999
 74
     0
 49
-3.174999999999999
 74
     0
 49
0.0
 74
     0
 49
-3.174999999999999
 74
     0
 49
0.0
 74
     0
 49
-3.174999999999999
 74
     0
  0
LTYPE
  5
650B
330
5
100
AcDbSymbolTableRecord
100
AcDbLinetypeTableRecord
  2
CENTER
 70
     0
  3
Center ____ _ ____ _ ____ _ ____ _ ____ _ ____
 72
    65
 73
     4
 40
50.8
 49
31.75
 74
     0
 49
-6.349999999999999
 74
     0
 49
6.349999999999999
 74
     0
 49
-6.349999999999999
 74
     0
  0
LTYPE
  5
650C
330
5
100
AcDbSymbolTableRecord
100
AcDbLinetypeTableRecord
  2
HIDDEN
 70
     0
  3
Hidden __ __ __ __ __ __ __ __ __ __ __ __ __ _
 72
    65
 73
     2
 40
9.524999999999998
 49
6.349999999999999
 74
     0
 49
-3.174999999999999
 74
     0
  0
ENDTAB
  0
TABLE
  2
LAYER
  5
2
330
0
100
AcDbSymbolTable
 70
     9
  0
LAYER
  5
E
330
2
100
AcDbSymbolTableRecord
100
AcDbLayerTableRecord
  2
0
 70
     0
 62
     7
  6
CONTINUOUS
370
    -3
390
5CF2
  0
LAYER
  5
B9
330
2
100
AcDbSymbolTableRecord
100
AcDbLayerTableRecord
  2
DIM
 70
     0
 62
     3
  6
CONTINUOUS
370
    -3
390
5CF2
  0
LAYER
  5
F2
330
2
100
AcDbSymbolTableRecord
100
AcDbLayerTableRecord
  2
DEFPOINTS
 70
     0
 62
     4
  6
CONTINUOUS
290
     0
370
    -3
390
5CF2
  0
LAYER
  5
5F8B
330
2
100
AcDbSymbolTableRecord
100
AcDbLayerTableRecord
  2
公差
 70
     0
 62
     6
  6
CONTINUOUS
370
    -3
390
5CF2
  0
LAYER
  5
644E
330
2
100
AcDbSymbolTableRecord
100
AcDbLayerTableRecord
  2
図框線
 70
     0
 62
     9
  6
CONTINUOUS
370
    -3
390
5CF2
  0
LAYER
  5
650D
330
2
100
AcDbSymbolTableRecord
100
AcDbLayerTableRecord
  2
中心線
 70
     0
 62
     1
  6
CENTER
370
    -3
390
5CF2
  0
LAYER
  5
650E
330
2
100
AcDbSymbolTableRecord
100
AcDbLayerTableRecord
  2
本体内線
 70
     0
 62
     4
  6
HIDDEN
370
    -3
390
5CF2
  0
LAYER
  5
650F
330
2
100
AcDbSymbolTableRecord
100
AcDbLayerTableRecord
  2
本体外線
 70
     0
 62
     2
  6
CONTINUOUS
370
    -3
390
5CF2
  0
LAYER
  5
6510
330
2
100
AcDbSymbolTableRecord
100
AcDbLayerTableRecord
  2
剖面線
 70
     0
 62
     5
  6
CONTINUOUS
370
    -3
390
5CF2
  0
ENDTAB
  0
TABLE
  2
STYLE
  5
3
330
0
100
AcDbSymbolTable
 70
     5
  0
STYLE
  5
F
330
3
100
AcDbSymbolTableRecord
100
AcDbTextStyleTableRecord
  2
STANDARD
 70
     0
 40
0.0
 41
1.0
 50
0.0
 71
     0
 42
2.5
  3
txt
  4

  0
STYLE
  5
BE
330
3
100
AcDbSymbolTableRecord
100
AcDbTextStyleTableRecord
  2
ISOCP3
 70
     0
 40
0.0
 41
1.0
 50
0.0
 71
     0
 42
2.5
  3
isocp3.shx
  4

  0
STYLE
  5
2A37
330
3
100
AcDbSymbolTableRecord
100
AcDbTextStyleTableRecord
  2
TXT
 70
     0
 40
0.0
 41
1.0
 50
0.0
 71
     0
 42
2.5
  3
txt.shx
  4
bigfont.shx
  0
STYLE
  5
5DCB
330
3
100
AcDbSymbolTableRecord
100
AcDbTextStyleTableRecord
  2
LKK
 70
     0
 40
50.0
 41
1.5
 50
0.0
 71
     0
 42
50.0
  3
MS PGothic.ttf
  4

1001
ACAD
1000
MS PGothic
1071
    32818
  0
STYLE
  5
5DCC
330
3
100
AcDbSymbolTableRecord
100
AcDbTextStyleTableRecord
  2
JL
 70
     0
 40
10.0
 41
0.5
 50
0.0
 71
     0
 42
5.0
  3
MS Mincho.ttf
  4

1001
ACAD
1000
MS Mincho
1071
    32785
  0
ENDTAB
  0
TABLE
  2
VIEW
  5
6
330
0
100
AcDbSymbolTable
 70
     0
  0
ENDTAB
  0
TABLE
  2
UCS
  5
7
330
0
100
AcDbSymbolTable
 70
     0
  0
ENDTAB
  0
TABLE
  2
APPID
  5
9
330
0
100
AcDbSymbolTable
 70
     1
  0
APPID
  5
10
330
9
100
AcDbSymbolTableRecord
100
AcDbRegAppTableRecord
  2
ACAD
 70
     0
  0
ENDTAB
  0
TABLE
  2
DIMSTYLE
  5
A
330
0
100
AcDbSymbolTable
 70
     3
100
AcDbDimStyleTable
 71
     0
  0
DIMSTYLE
105
1D
330
A
100
AcDbSymbolTableRecord
100
AcDbDimStyleTableRecord
  2
STANDARD
 70
     0
 41
3.0
 42
0.06
 77
     3
140
4.0
144
0.3333333333333333
172
     1
340
F
  0
DIMSTYLE
105
1A4
102
{ACAD_REACTORS
330
6770
330
677F
330
6864
330
6C92
330
6CAA
330
6F74
330
74C6
330
750D
330
7568
330
7575
330
75D3
330
7AD6
102
}
330
A
100
AcDbSymbolTableRecord
100
AcDbDimStyleTableRecord
  2
A
 70
     0
 41
2.5
 42
1.0
 43
6.0
 44
1.0
 73
     0
 74
     0
 77
     3
 78
     8
140
3.0
141
0.0
147
1.0
176
     6
177
     6
178
     3
271
     1
272
     1
279
     1
340
2A37
  0
DIMSTYLE
105
6006
330
A
100
AcDbSymbolTableRecord
100
AcDbDimStyleTableRecord
  2
ISO-25
 70
     0
 40
0.0
 41
2.0
 42
0.3
 43
1.0
 44
0.3
 73
     0
 74
     0
 77
     1
 78
     8
140
3.0
147
1.0
172
     1
176
     6
177
     6
178
     3
271
     1
272
     2
284
     8
288
     1
289
     2
340
F
  0
ENDTAB
  0
TABLE
  2
BLOCK_RECORD
  5
1
330
0
100
AcDbSymbolTable
 70
    13
  0
BLOCK_RECORD
  5
18
102
{ACAD_XDICTIONARY
360
45F
102
}
330
1
100
AcDbSymbolTableRecord
100
AcDbBlockTableRecord
  2
*MODEL_SPACE
340
5CF5
  0
BLOCK_RECORD
  5
15
102
{ACAD_XDICTIONARY
360
5D89
102
}
330
1
100
AcDbSymbolTableRecord
100
AcDbBlockTableRecord
  2
*PAPER_SPACE
340
5CF6
  0
BLOCK_RECORD
  5
639D
330
1
100
AcDbSymbolTableRecord
100
AcDbBlockTableRecord
  2
A$C255C26A2
340
0
102
{BLKREFS
331
63A3
102
}
  0
BLOCK_RECORD
  5
67BC
330
1
100
AcDbSymbolTableRecord
100
AcDbBlockTableRecord
  2
*D1
340
0
  0
BLOCK_RECORD
  5
67D9
330
1
100
AcDbSymbolTableRecord
100
AcDbBlockTableRecord
  2
*D2
340
0
  0
BLOCK_RECORD
  5
6854
330
1
100
AcDbSymbolTableRecord
100
AcDbBlockTableRecord
  2
*D3
340
0
  0
BLOCK_RECORD
  5
6C86
330
1
100
AcDbSymbolTableRecord
100
AcDbBlockTableRecord
  2
*D4
340
0
  0
BLOCK_RECORD
  5
6C9E
330
1
100
AcDbSymbolTableRecord
100
AcDbBlockTableRecord
  2
*D5
340
0
  0
BLOCK_RECORD
  5
6FE3
330
1
100
AcDbSymbolTableRecord
100
AcDbBlockTableRecord
  2
*D6
340
0
  0
BLOCK_RECORD
  5
74B6
330
1
100
AcDbSymbolTableRecord
100
AcDbBlockTableRecord
  2
*D7
340
0
  0
BLOCK_RECORD
  5
7501
330
1
100
AcDbSymbolTableRecord
100
AcDbBlockTableRecord
  2
*D8
340
0
  0
BLOCK_RECORD
  5
755C
330
1
100
AcDbSymbolTableRecord
100
AcDbBlockTableRecord
  2
*D9
340
0
  0
BLOCK_RECORD
  5
7569
330
1
100
AcDbSymbolTableRecord
100
AcDbBlockTableRecord
  2
*D10
340
0
  0
BLOCK_RECORD
  5
75C5
330
1
100
AcDbSymbolTableRecord
100
AcDbBlockTableRecord
  2
*D11
340
0
  0
BLOCK_RECORD
  5
7AC6
330
1
100
AcDbSymbolTableRecord
100
AcDbBlockTableRecord
  2
*D12
340
0
  0
ENDTAB
  0
ENDSEC
  0
SECTION
  2
BLOCKS
  0
BLOCK
  5
19
330
18
100
AcDbEntity
  8
0
100
AcDbBlockBegin
  2
*MODEL_SPACE
 70
     0
 10
0.0
 20
0.0
 30
0.0
  3
*MODEL_SPACE
  1

  0
ENDBLK
  5
1A
330
18
100
AcDbEntity
  8
0
100
AcDbBlockEnd
  0
BLOCK
  5
16
330
15
100
AcDbEntity
 67
     1
  8
0
100
AcDbBlockBegin
  2
*PAPER_SPACE
 70
     0
 10
0.0
 20
0.0
 30
0.0
  3
*PAPER_SPACE
  1

  0
ENDBLK
  5
17
330
15
100
AcDbEntity
 67
     1
  8
0
100
AcDbBlockEnd
  0
BLOCK
  5
63A1
330
639D
100
AcDbEntity
  8
0
100
AcDbBlockBegin
  2
A$C255C26A2
 70
     0
 10
0.0
 20
0.0
 30
0.0
  3
A$C255C26A2
  1

  0
LWPOLYLINE
  5
639E
330
639D
100
AcDbEntity
  8
0
100
AcDbPolyline
 90
        3
 70
     1
 43
0.0
 10
7.014806023851633
 20
0.0000006939811783
 10
5.611844869720698
 20
2.430000693981241
 10
8.417767177982568
 20
2.430000693981241
  0
LWPOLYLINE
  5
639F
330
639D
100
AcDbEntity
  8
0
100
AcDbPolyline
 90
        3
 70
     1
 43
0.0
 10
4.20888371558999
 20
0.0000006939811783
 10
2.805922561459283
 20
2.430000693981241
 10
5.611844869720698
 20
2.430000693981241
  0
LWPOLYLINE
  5
63A0
330
639D
100
AcDbEntity
  8
0
100
AcDbPolyline
 90
        3
 70
     1
 43
0.0
 10
1.402961407328348
 20
0.0000006939811783
 10
0.0000002531974133
 20
2.430000693981241
 10
2.805922561459283
 20
2.430000693981241
  0
ENDBLK
  5
63A2
330
639D
100
AcDbEntity
  8
0
100
AcDbBlockEnd
  0
BLOCK
  5
7F1F
330
67BC
100
AcDbEntity
  8
0
100
AcDbBlockBegin
  2
*D1
 70
     1
 10
0.0
 20
0.0
 30
0.0
  3
*D1
  1

  0
LINE
  5
7F20
330
67BC
100
AcDbEntity
  8
0
  6
ByBlock
 62
     6
100
AcDbLine
 10
271.1360220680481
 20
99.89613675354327
 30
0.0
 11
271.1360220680481
 21
79.43359779784488
 31
0.0
  0
LINE
  5
7F21
330
67BC
100
AcDbEntity
  8
0
  6
ByBlock
 62
     6
100
AcDbLine
 10
301.136022068048
 20
99.99613675354304
 30
0.0
 11
301.136022068048
 21
79.43359779784488
 31
0.0
  0
LINE
  5
7F22
330
67BC
100
AcDbEntity
  8
0
  6
ByBlock
 62
     6
100
AcDbLine
 10
273.6360220680481
 20
80.43359779784488
 30
0.0
 11
298.6360220680479
 21
80.43359779784488
 31
0.0
  0
MTEXT
  5
7F23
330
67BC
100
AcDbEntity
  8
0
  6
ByBlock
 62
     3
100
AcDbMText
 10
286.136022068048
 20
82.93359779784488
 30
0.0
 40
3.0
 41
0.0
 71
     5
 72
     1
  1
\A1;M30X1.5P
  7
TXT
 73
     1
 44
1.0
  0
SOLID
  5
7F24
330
67BC
100
AcDbEntity
  8
0
  6
ByBlock
 62
     6
100
AcDbTrace
 10
273.6360220680481
 20
80.85026446451156
 30
0.0
 11
273.6360220680481
 21
80.01693113117822
 31
0.0
 12
271.1360220680481
 22
80.43359779784488
 32
0.0
 13
271.1360220680481
 23
80.43359779784488
 33
0.0
  0
SOLID
  5
7F25
330
67BC
100
AcDbEntity
  8
0
  6
ByBlock
 62
     6
100
AcDbTrace
 10
298.6360220680479
 20
80.85026446451156
 30
0.0
 11
298.6360220680479
 21
80.01693113117822
 31
0.0
 12
301.136022068048
 22
80.43359779784488
 32
0.0
 13
301.136022068048
 23
80.43359779784488
 33
0.0
  0
POINT
  5
7F26
330
67BC
100
AcDbEntity
  8
DEFPOINTS
  6
ByBlock
 62
     0
100
AcDbPoint
 10
271.1360220680481
 20
100.8961367535432
 30
0.0
  0
POINT
  5
7F27
330
67BC
100
AcDbEntity
  8
DEFPOINTS
  6
ByBlock
 62
     0
100
AcDbPoint
 10
301.136022068048
 20
100.996136753543
 30
0.0
  0
POINT
  5
7F28
330
67BC
100
AcDbEntity
  8
DEFPOINTS
  6
ByBlock
 62
     0
100
AcDbPoint
 10
301.136022068048
 20
80.43359779784488
 30
0.0
  0
ENDBLK
  5
7F29
330
67BC
100
AcDbEntity
  8
0
100
AcDbBlockEnd
  0
BLOCK
  5
7E06
330
67D9
100
AcDbEntity
  8
0
100
AcDbBlockBegin
  2
*D2
 70
     1
 10
0.0
 20
0.0
 30
0.0
  3
*D2
  1

  0
LINE
  5
7E07
330
67D9
100
AcDbEntity
  8
0
  6
ByBlock
 62
     6
100
AcDbLine
 10
262.2506834173343
 20
192.6132711069616
 30
0.0
 11
262.2506834173343
 21
163.1172653380804
 31
0.0
  0
LINE
  5
7E08
330
67D9
100
AcDbEntity
  8
0
  6
ByBlock
 62
     6
100
AcDbLine
 10
264.236022068048
 20
192.6132711069616
 30
0.0
 11
264.236022068048
 21
163.1172653380804
 31
0.0
  0
LINE
  5
7E09
330
67D9
100
AcDbEntity
  8
0
  6
ByBlock
 62
     6
100
AcDbLine
 10
259.7506834173343
 20
164.1172653380804
 30
0.0
 11
257.2506834173343
 21
164.1172653380804
 31
0.0
  0
LINE
  5
7E0A
330
67D9
100
AcDbEntity
  8
0
  6
ByBlock
 62
     6
100
AcDbLine
 10
266.736022068048
 20
164.1172653380804
 30
0.0
 11
269.236022068048
 21
164.1172653380804
 31
0.0
  0
MTEXT
  5
7E0B
330
67D9
100
AcDbEntity
  8
0
  6
ByBlock
 62
     3
100
AcDbMText
 10
269.236022068048
 20
166.6172653380804
 30
0.0
 40
3.0
 41
0.0
 71
     5
 72
     1
  1
\A1;2
  7
TXT
 73
     1
 44
1.0
  0
LINE
  5
7E0C
330
67D9
100
AcDbEntity
  8
0
  6
ByBlock
 62
     6
100
AcDbLine
 10
262.2506834173343
 20
164.1172653380804
 30
0.0
 11
264.236022068048
 21
164.1172653380804
 31
0.0
  0
SOLID
  5
7E0D
330
67D9
100
AcDbEntity
  8
0
  6
ByBlock
 62
     6
100
AcDbTrace
 10
259.7506834173343
 20
164.5339320047471
 30
0.0
 11
259.7506834173343
 21
163.7005986714137
 31
0.0
 12
262.2506834173343
 22
164.1172653380804
 32
0.0
 13
262.2506834173343
 23
164.1172653380804
 33
0.0
  0
SOLID
  5
7E0E
330
67D9
100
AcDbEntity
  8
0
  6
ByBlock
 62
     6
100
AcDbTrace
 10
266.736022068048
 20
164.5339320047471
 30
0.0
 11
266.736022068048
 21
163.7005986714137
 31
0.0
 12
264.236022068048
 22
164.1172653380804
 32
0.0
 13
264.236022068048
 23
164.1172653380804
 33
0.0
  0
POINT
  5
7E0F
330
67D9
100
AcDbEntity
  8
DEFPOINTS
  6
ByBlock
 62
     0
100
AcDbPoint
 10
262.2506834173343
 20
193.6132711069616
 30
0.0
  0
POINT
  5
7E10
330
67D9
100
AcDbEntity
  8
DEFPOINTS
  6
ByBlock
 62
     0
100
AcDbPoint
 10
264.236022068048
 20
193.6132711069616
 30
0.0
  0
POINT
  5
7E11
330
67D9
100
AcDbEntity
  8
DEFPOINTS
  6
ByBlock
 62
     0
100
AcDbPoint
 10
264.236022068048
 20
164.1172653380804
 30
0.0
  0
ENDBLK
  5
7E12
330
67D9
100
AcDbEntity
  8
0
100
AcDbBlockEnd
  0
BLOCK
  5
79FF
330
6854
100
AcDbEntity
  8
0
100
AcDbBlockBegin
  2
*D3
 70
     1
 10
0.0
 20
0.0
 30
0.0
  3
*D3
  1

  0
LINE
  5
7A00
330
6854
100
AcDbEntity
  8
0
  6
ByBlock
 62
     6
100
AcDbLine
 10
261.5914216369142
 20
188.0114373377751
 30
0.0
 11
249.6278638881392
 21
188.0114373377751
 31
0.0
  0
LINE
  5
7A01
330
6854
100
AcDbEntity
  8
0
  6
ByBlock
 62
     6
100
AcDbLine
 10
261.5914216369142
 20
193.0114373377751
 30
0.0
 11
249.6278638881392
 21
193.0114373377751
 31
0.0
  0
LINE
  5
7A02
330
6854
100
AcDbEntity
  8
0
  6
ByBlock
 62
     6
100
AcDbLine
 10
250.6278638881391
 20
185.5114373377751
 30
0.0
 11
250.6278638881391
 21
183.0114373377751
 31
0.0
  0
LINE
  5
7A03
330
6854
100
AcDbEntity
  8
0
  6
ByBlock
 62
     6
100
AcDbLine
 10
250.6278638881391
 20
195.5114373377751
 30
0.0
 11
250.6278638881391
 21
198.0114373377751
 31
0.0
  0
MTEXT
  5
7A04
330
6854
100
AcDbEntity
  8
0
  6
ByBlock
 62
     3
100
AcDbMText
 10
247.2534598472833
 20
202.6895289041656
 30
0.0
 40
3.0
 41
0.0
 71
     5
 72
     1
  1
\A1;5      (3等分)
  7
TXT
 11
0.0000000000000001
 21
1.0
 31
0.0
 73
     1
 44
1.0
  0
LINE
  5
7A05
330
6854
100
AcDbEntity
  8
0
  6
ByBlock
 62
     6
100
AcDbLine
 10
250.6278638881391
 20
188.0114373377751
 30
0.0
 11
250.6278638881391
 21
193.0114373377751
 31
0.0
  0
SOLID
  5
7A06
330
6854
100
AcDbEntity
  8
0
  6
ByBlock
 62
     6
100
AcDbTrace
 10
250.2111972214725
 20
185.5114373377751
 30
0.0
 11
251.0445305548058
 21
185.5114373377751
 31
0.0
 12
250.6278638881391
 22
188.0114373377751
 32
0.0
 13
250.6278638881391
 23
188.0114373377751
 33
0.0
  0
SOLID
  5
7A07
330
6854
100
AcDbEntity
  8
0
  6
ByBlock
 62
     6
100
AcDbTrace
 10
250.2111972214725
 20
195.5114373377751
 30
0.0
 11
251.0445305548058
 21
195.5114373377751
 31
0.0
 12
250.6278638881391
 22
193.0114373377751
 32
0.0
 13
250.6278638881391
 23
193.0114373377751
 33
0.0
  0
POINT
  5
7A08
330
6854
100
AcDbEntity
  8
DEFPOINTS
  6
ByBlock
 62
     0
100
AcDbPoint
 10
262.5914216369142
 20
188.0114373377751
 30
0.0
  0
POINT
  5
7A09
330
6854
100
AcDbEntity
  8
DEFPOINTS
  6
ByBlock
 62
     0
100
AcDbPoint
 10
262.5914216369142
 20
193.0114373377751
 30
0.0
  0
POINT
  5
7A0A
330
6854
100
AcDbEntity
  8
DEFPOINTS
  6
ByBlock
 62
     0
100
AcDbPoint
 10
250.6278638881391
 20
193.0114373377751
 30
0.0
  0
ENDBLK
  5
7A0B
330
6854
100
AcDbEntity
  8
0
100
AcDbBlockEnd
  0
BLOCK
  5
7EDB
330
6C86
100
AcDbEntity
  8
0
100
AcDbBlockBegin
  2
*D4
 70
     1
 10
0.0
 20
0.0
 30
0.0
  3
*D4
  1

  0
LINE
  5
7EDC
330
6C86
100
AcDbEntity
  8
0
  6
ByBlock
 62
     6
100
AcDbLine
 10
264.636022068048
 20
119.3961367535433
 30
0.0
 11
264.636022068048
 21
137.5873599716988
 31
0.0
  0
LINE
  5
7EDD
330
6C86
100
AcDbEntity
  8
0
  6
ByBlock
 62
     6
100
AcDbLine
 10
307.636022068048
 20
119.3961367535432
 30
0.0
 11
307.636022068048
 21
137.5873599716988
 31
0.0
  0
LINE
  5
7EDE
330
6C86
100
AcDbEntity
  8
0
  6
ByBlock
 62
     6
100
AcDbLine
 10
267.136022068048
 20
136.5873599716988
 30
0.0
 11
305.136022068048
 21
136.5873599716988
 31
0.0
  0
SOLID
  5
7EDF
330
6C86
100
AcDbEntity
  8
0
  6
ByBlock
 62
     6
100
AcDbTrace
 10
267.136022068048
 20
137.0040266383655
 30
0.0
 11
267.136022068048
 21
136.1706933050321
 31
0.0
 12
264.636022068048
 22
136.5873599716988
 32
0.0
 13
264.636022068048
 23
136.5873599716988
 33
0.0
  0
SOLID
  5
7EE0
330
6C86
100
AcDbEntity
  8
0
  6
ByBlock
 62
     6
100
AcDbTrace
 10
305.136022068048
 20
137.0040266383655
 30
0.0
 11
305.136022068048
 21
136.1706933050321
 31
0.0
 12
307.636022068048
 22
136.5873599716988
 32
0.0
 13
307.636022068048
 23
136.5873599716988
 33
0.0
  0
MTEXT
  5
7EE1
330
6C86
100
AcDbEntity
  8
0
  6
ByBlock
 62
     3
100
AcDbMText
 10
286.136022068048
 20
139.0873599716988
 30
0.0
 40
3.0
 41
0.0
 71
     5
 72
     1
  1
\A1;\U+220543±0.5
  7
TXT
 73
     1
 44
1.0
  0
POINT
  5
7EE2
330
6C86
100
AcDbEntity
  8
DEFPOINTS
  6
ByBlock
 62
     0
100
AcDbPoint
 10
264.636022068048
 20
118.3961367535433
 30
0.0
  0
POINT
  5
7EE3
330
6C86
100
AcDbEntity
  8
DEFPOINTS
  6
ByBlock
 62
     0
100
AcDbPoint
 10
307.636022068048
 20
118.3961367535432
 30
0.0
  0
POINT
  5
7EE4
330
6C86
100
AcDbEntity
  8
DEFPOINTS
  6
ByBlock
 62
     0
100
AcDbPoint
 10
307.636022068048
 20
136.5873599716988
 30
0.0
  0
ENDBLK
  5
7EE5
330
6C86
100
AcDbEntity
  8
0
100
AcDbBlockEnd
  0
BLOCK
  5
7ED0
330
6C9E
100
AcDbEntity
  8
0
100
AcDbBlockBegin
  2
*D5
 70
     1
 10
0.0
 20
0.0
 30
0.0
  3
*D5
  1

  0
LINE
  5
7ED1
330
6C9E
100
AcDbEntity
  8
0
  6
ByBlock
 62
     6
100
AcDbLine
 10
262.1360220680481
 20
117.3961367535432
 30
0.0
 11
262.1360220680481
 21
143.0948300621137
 31
0.0
  0
LINE
  5
7ED2
330
6C9E
100
AcDbEntity
  8
0
  6
ByBlock
 62
     6
100
AcDbLine
 10
310.1360220680481
 20
117.3961367535433
 30
0.0
 11
310.1360220680481
 21
143.0948300621137
 31
0.0
  0
LINE
  5
7ED3
330
6C9E
100
AcDbEntity
  8
0
  6
ByBlock
 62
     6
100
AcDbLine
 10
264.6360220680481
 20
142.0948300621137
 30
0.0
 11
307.6360220680481
 21
142.0948300621137
 31
0.0
  0
MTEXT
  5
7ED4
330
6C9E
100
AcDbEntity
  8
0
  6
ByBlock
 62
     3
100
AcDbMText
 10
282.0669659401342
 20
145.420950811999
 30
0.0
 40
3.0
 41
0.0
 71
     5
 72
     1
  1
\A1;\U+220548
  7
TXT
 73
     1
 44
1.0
  0
SOLID
  5
7ED5
330
6C9E
100
AcDbEntity
  8
0
  6
ByBlock
 62
     6
100
AcDbTrace
 10
264.6360220680481
 20
142.5114967287804
 30
0.0
 11
264.6360220680481
 21
141.6781633954471
 31
0.0
 12
262.1360220680481
 22
142.0948300621137
 32
0.0
 13
262.1360220680481
 23
142.0948300621137
 33
0.0
  0
SOLID
  5
7ED6
330
6C9E
100
AcDbEntity
  8
0
  6
ByBlock
 62
     6
100
AcDbTrace
 10
307.6360220680481
 20
142.5114967287804
 30
0.0
 11
307.6360220680481
 21
141.6781633954471
 31
0.0
 12
310.1360220680481
 22
142.0948300621137
 32
0.0
 13
310.1360220680481
 23
142.0948300621137
 33
0.0
  0
POINT
  5
7ED7
330
6C9E
100
AcDbEntity
  8
DEFPOINTS
  6
ByBlock
 62
     0
100
AcDbPoint
 10
262.1360220680481
 20
116.3961367535432
 30
0.0
  0
POINT
  5
7ED8
330
6C9E
100
AcDbEntity
  8
DEFPOINTS
  6
ByBlock
 62
     0
100
AcDbPoint
 10
310.1360220680481
 20
116.3961367535433
 30
0.0
  0
POINT
  5
7ED9
330
6C9E
100
AcDbEntity
  8
DEFPOINTS
  6
ByBlock
 62
     0
100
AcDbPoint
 10
310.1360220680481
 20
142.0948300621137
 30
0.0
  0
ENDBLK
  5
7EDA
330
6C9E
100
AcDbEntity
  8
0
100
AcDbBlockEnd
  0
BLOCK
  5
7AF3
330
6FE3
100
AcDbEntity
  8
0
100
AcDbBlockBegin
  2
*D6
 70
     1
 10
0.0
 20
0.0
 30
0.0
  3
*D6
  1

  0
LINE
  5
7AF4
330
6FE3
100
AcDbEntity
  8
0
  6
ByBlock
 62
     6
100
AcDbLine
 10
109.0086061317764
 20
111.3959000084763
 30
0.0
 11
137.7748970357753
 21
94.78767421146542
 31
0.0
  0
LINE
  5
7AF5
330
6FE3
100
AcDbEntity
  8
0
  6
ByBlock
 62
     6
100
AcDbLine
 10
105.5086061317764
 20
105.3337221819853
 30
0.0
 11
134.2748970357753
 21
88.7254963849744
 31
0.0
  0
LINE
  5
7AF6
330
6FE3
100
AcDbEntity
  8
0
  6
ByBlock
 62
     6
100
AcDbLine
 10
138.1588716319908
 20
97.45273772092652
 30
0.0
 11
139.4088716319908
 21
99.61780123038762
 31
0.0
  0
LINE
  5
7AF7
330
6FE3
100
AcDbEntity
  8
0
  6
ByBlock
 62
     6
100
AcDbLine
 10
132.1588716319908
 20
87.06043287551333
 30
0.0
 11
130.9088716319908
 21
84.89536936605222
 31
0.0
  0
LINE
  5
7AF8
330
6FE3
100
AcDbEntity
  8
0
  6
ByBlock
 62
     6
100
AcDbLine
 10
146.8468933051792
 20
112.5008326761483
 30
0.0
 11
136.9088716319908
 21
95.28767421146543
 31
0.0
  0
MTEXT
  5
7AF9
330
6FE3
100
AcDbEntity
  8
0
  6
ByBlock
 62
     3
100
AcDbMText
 10
141.1568297957181
 20
107.645353579468
 30
0.0
 40
3.0
 41
0.0
 71
     5
 72
     1
  1
\A1;7±0.5
  7
TXT
 11
0.5000000000000026
 21
0.8660254037844371
 31
0.0
 73
     1
 44
1.0
  0
LINE
  5
7AFA
330
6FE3
100
AcDbEntity
  8
0
  6
ByBlock
 62
     6
100
AcDbLine
 10
136.9088716319908
 20
95.28767421146543
 30
0.0
 11
133.4088716319908
 21
89.22549638497441
 31
0.0
  0
SOLID
  5
7AFB
330
6FE3
100
AcDbEntity
  8
0
  6
ByBlock
 62
     6
100
AcDbTrace
 10
137.7980277137473
 20
97.66107105425986
 30
0.0
 11
138.5197155502343
 21
97.24440438759319
 31
0.0
 12
136.9088716319908
 22
95.28767421146543
 32
0.0
 13
136.9088716319908
 23
95.28767421146543
 33
0.0
  0
SOLID
  5
7AFC
330
6FE3
100
AcDbEntity
  8
0
  6
ByBlock
 62
     6
100
AcDbTrace
 10
131.7980277137473
 20
87.26876620884665
 30
0.0
 11
132.5197155502343
 21
86.85209954217999
 31
0.0
 12
133.4088716319908
 22
89.22549638497441
 32
0.0
 13
133.4088716319908
 23
89.22549638497441
 33
0.0
  0
POINT
  5
7AFD
330
6FE3
100
AcDbEntity
  8
DEFPOINTS
  6
ByBlock
 62
     0
100
AcDbPoint
 10
108.1425807279919
 20
111.8959000084764
 30
0.0
  0
POINT
  5
7AFE
330
6FE3
100
AcDbEntity
  8
DEFPOINTS
  6
ByBlock
 62
     0
100
AcDbPoint
 10
104.6425807279919
 20
105.8337221819853
 30
0.0
  0
POINT
  5
7AFF
330
6FE3
100
AcDbEntity
  8
DEFPOINTS
  6
ByBlock
 62
     0
100
AcDbPoint
 10
133.4088716319908
 20
89.22549638497441
 30
0.0
  0
ENDBLK
  5
7B00
330
6FE3
100
AcDbEntity
  8
0
100
AcDbBlockEnd
  0
BLOCK
  5
7EA1
330
74B6
100
AcDbEntity
  8
0
100
AcDbBlockBegin
  2
*D7
 70
     1
 10
0.0
 20
0.0
 30
0.0
  3
*D7
  1

  0
LINE
  5
7EA2
330
74B6
100
AcDbEntity
  8
0
  6
ByBlock
 62
     6
100
AcDbLine
 10
263.636022068048
 20
118.3961367535432
 30
0.0
 11
250.6871256685593
 21
118.3961367535432
 31
0.0
  0
LINE
  5
7EA3
330
74B6
100
AcDbEntity
  8
0
  6
ByBlock
 62
     6
100
AcDbLine
 10
262.636022068048
 20
117.8961367535433
 30
0.0
 11
250.6871256685593
 21
117.8961367535433
 31
0.0
  0
LINE
  5
7EA4
330
74B6
100
AcDbEntity
  8
0
  6
ByBlock
 62
     6
100
AcDbLine
 10
251.6871256685593
 20
120.8961367535432
 30
0.0
 11
251.6871256685593
 21
123.3961367535432
 31
0.0
  0
LINE
  5
7EA5
330
74B6
100
AcDbEntity
  8
0
  6
ByBlock
 62
     6
100
AcDbLine
 10
251.6871256685593
 20
115.3961367535433
 30
0.0
 11
251.6871256685593
 21
112.8961367535433
 31
0.0
  0
LINE
  5
7EA6
330
74B6
100
AcDbEntity
  8
0
  6
ByBlock
 62
     6
100
AcDbLine
 10
251.6871256685593
 20
132.3061340146934
 30
0.0
 11
251.6871256685593
 21
118.3961367535432
 31
0.0
  0
MTEXT
  5
7EA7
330
74B6
100
AcDbEntity
  8
0
  6
ByBlock
 62
     3
100
AcDbMText
 10
249.1871256685593
 20
128.5561340146934
 30
0.0
 40
3.0
 41
0.0
 71
     5
 72
     1
  1
\A1;0.5
  7
TXT
 11
0.0000000000000001
 21
1.0
 31
0.0
 73
     1
 44
1.0
  0
LINE
  5
7EA8
330
74B6
100
AcDbEntity
  8
0
  6
ByBlock
 62
     6
100
AcDbLine
 10
251.6871256685593
 20
118.3961367535432
 30
0.0
 11
251.6871256685593
 21
117.8961367535433
 31
0.0
  0
SOLID
  5
7EA9
330
74B6
100
AcDbEntity
  8
0
  6
ByBlock
 62
     6
100
AcDbTrace
 10
251.2704590018926
 20
120.8961367535432
 30
0.0
 11
252.103792335226
 21
120.8961367535432
 31
0.0
 12
251.6871256685593
 22
118.3961367535432
 32
0.0
 13
251.6871256685593
 23
118.3961367535432
 33
0.0
  0
SOLID
  5
7EAA
330
74B6
100
AcDbEntity
  8
0
  6
ByBlock
 62
     6
100
AcDbTrace
 10
251.2704590018926
 20
115.3961367535433
 30
0.0
 11
252.103792335226
 21
115.3961367535433
 31
0.0
 12
251.6871256685593
 22
117.8961367535433
 32
0.0
 13
251.6871256685593
 23
117.8961367535433
 33
0.0
  0
POINT
  5
7EAB
330
74B6
100
AcDbEntity
  8
DEFPOINTS
  6
ByBlock
 62
     0
100
AcDbPoint
 10
264.636022068048
 20
118.3961367535432
 30
0.0
  0
POINT
  5
7EAC
330
74B6
100
AcDbEntity
  8
DEFPOINTS
  6
ByBlock
 62
     0
100
AcDbPoint
 10
263.6360220680479
 20
117.8961367535433
 30
0.0
  0
POINT
  5
7EAD
330
74B6
100
AcDbEntity
  8
DEFPOINTS
  6
ByBlock
 62
     0
100
AcDbPoint
 10
251.6871256685593
 20
117.8961367535433
 30
0.0
  0
ENDBLK
  5
7EAE
330
74B6
100
AcDbEntity
  8
0
100
AcDbBlockEnd
  0
BLOCK
  5
7EE6
330
7501
100
AcDbEntity
  8
0
100
AcDbBlockBegin
  2
*D8
 70
     1
 10
0.0
 20
0.0
 30
0.0
  3
*D8
  1

  0
LINE
  5
7EE7
330
7501
100
AcDbEntity
  8
0
  6
ByBlock
 62
     6
100
AcDbLine
 10
270.6360220680481
 20
119.3961367535433
 30
0.0
 11
270.6360220680481
 21
131.7442651600702
 31
0.0
  0
LINE
  5
7EE8
330
7501
100
AcDbEntity
  8
0
  6
ByBlock
 62
     6
100
AcDbLine
 10
301.6360220680481
 20
119.3961367535433
 30
0.0
 11
301.6360220680481
 21
131.7442651600702
 31
0.0
  0
LINE
  5
7EE9
330
7501
100
AcDbEntity
  8
0
  6
ByBlock
 62
     6
100
AcDbLine
 10
273.1360220680481
 20
130.7442651600702
 30
0.0
 11
299.1360220680481
 21
130.7442651600702
 31
0.0
  0
SOLID
  5
7EEA
330
7501
100
AcDbEntity
  8
0
  6
ByBlock
 62
     6
100
AcDbTrace
 10
273.1360220680481
 20
131.1609318267369
 30
0.0
 11
273.1360220680481
 21
130.3275984934035
 31
0.0
 12
270.6360220680481
 22
130.7442651600702
 32
0.0
 13
270.6360220680481
 23
130.7442651600702
 33
0.0
  0
SOLID
  5
7EEB
330
7501
100
AcDbEntity
  8
0
  6
ByBlock
 62
     6
100
AcDbTrace
 10
299.1360220680481
 20
131.1609318267369
 30
0.0
 11
299.1360220680481
 21
130.3275984934035
 31
0.0
 12
301.6360220680481
 22
130.7442651600702
 32
0.0
 13
301.6360220680481
 23
130.7442651600702
 33
0.0
  0
MTEXT
  5
7EEC
330
7501
100
AcDbEntity
  8
0
  6
ByBlock
 62
     3
100
AcDbMText
 10
286.1360220680481
 20
133.2442651600702
 30
0.0
 40
3.0
 41
0.0
 71
     5
 72
     1
  1
\A1;\U+220531
  7
TXT
 73
     1
 44
1.0
  0
POINT
  5
7EED
330
7501
100
AcDbEntity
  8
DEFPOINTS
  6
ByBlock
 62
     0
100
AcDbPoint
 10
270.6360220680481
 20
118.3961367535433
 30
0.0
  0
POINT
  5
7EEE
330
7501
100
AcDbEntity
  8
DEFPOINTS
  6
ByBlock
 62
     0
100
AcDbPoint
 10
301.6360220680481
 20
118.3961367535433
 30
0.0
  0
POINT
  5
7EEF
330
7501
100
AcDbEntity
  8
DEFPOINTS
  6
ByBlock
 62
     0
100
AcDbPoint
 10
301.6360220680481
 20
130.7442651600702
 30
0.0
  0
ENDBLK
  5
7EF0
330
7501
100
AcDbEntity
  8
0
100
AcDbBlockEnd
  0
BLOCK
  5
7EF1
330
755C
100
AcDbEntity
  8
0
100
AcDbBlockBegin
  2
*D9
 70
     1
 10
0.0
 20
0.0
 30
0.0
  3
*D9
  1

  0
LINE
  5
7EF2
330
755C
100
AcDbEntity
  8
0
  6
ByBlock
 62
     6
100
AcDbLine
 10
308.636022068048
 20
118.3961367535432
 30
0.0
 11
326.5592979416863
 21
118.3961367535432
 31
0.0
  0
LINE
  5
7EF3
330
755C
100
AcDbEntity
  8
0
  6
ByBlock
 62
     6
100
AcDbLine
 10
309.3860220680481
 20
103.4272256667888
 30
0.0
 11
326.5592979416863
 21
103.4272256667888
 31
0.0
  0
LINE
  5
7EF4
330
755C
100
AcDbEntity
  8
0
  6
ByBlock
 62
     6
100
AcDbLine
 10
325.5592979416864
 20
115.8961367535432
 30
0.0
 11
325.5592979416864
 21
105.9272256667888
 31
0.0
  0
SOLID
  5
7EF5
330
755C
100
AcDbEntity
  8
0
  6
ByBlock
 62
     6
100
AcDbTrace
 10
325.1426312750197
 20
115.8961367535432
 30
0.0
 11
325.975964608353
 21
115.8961367535432
 31
0.0
 12
325.5592979416864
 22
118.3961367535432
 32
0.0
 13
325.5592979416864
 23
118.3961367535432
 33
0.0
  0
SOLID
  5
7EF6
330
755C
100
AcDbEntity
  8
0
  6
ByBlock
 62
     6
100
AcDbTrace
 10
325.1426312750197
 20
105.9272256667888
 30
0.0
 11
325.975964608353
 21
105.9272256667888
 31
0.0
 12
325.5592979416864
 22
103.4272256667888
 32
0.0
 13
325.5592979416864
 23
103.4272256667888
 33
0.0
  0
MTEXT
  5
7EF7
330
755C
100
AcDbEntity
  8
0
  6
ByBlock
 62
     3
100
AcDbMText
 10
323.0592979416863
 20
110.911681210166
 30
0.0
 40
3.0
 41
0.0
 71
     5
 72
     1
  1
\A1;15
  7
TXT
 11
0.0000000000000001
 21
1.0
 31
0.0
 73
     1
 44
1.0
  0
POINT
  5
7EF8
330
755C
100
AcDbEntity
  8
DEFPOINTS
  6
ByBlock
 62
     0
100
AcDbPoint
 10
307.636022068048
 20
118.3961367535432
 30
0.0
  0
POINT
  5
7EF9
330
755C
100
AcDbEntity
  8
DEFPOINTS
  6
ByBlock
 62
     0
100
AcDbPoint
 10
308.3860220680481
 20
103.4272256667888
 30
0.0
  0
POINT
  5
7EFA
330
755C
100
AcDbEntity
  8
DEFPOINTS
  6
ByBlock
 62
     0
100
AcDbPoint
 10
325.5592979416864
 20
103.4272256667888
 30
0.0
  0
ENDBLK
  5
7EFB
330
755C
100
AcDbEntity
  8
0
100
AcDbBlockEnd
  0
BLOCK
  5
7F09
330
7569
100
AcDbEntity
  8
0
100
AcDbBlockBegin
  2
*D10
 70
     1
 10
0.0
 20
0.0
 30
0.0
  3
*D10
  1

  0
LINE
  5
7F0A
330
7569
100
AcDbEntity
  8
0
  6
ByBlock
 62
     6
100
AcDbLine
 10
307.636022068048
 20
100.3961367535432
 30
0.0
 11
336.7083188680745
 21
100.3961367535432
 31
0.0
  0
LINE
  5
7F0B
330
7569
100
AcDbEntity
  8
0
  6
ByBlock
 62
     6
100
AcDbLine
 10
308.636022068048
 20
118.3961367535432
 30
0.0
 11
336.7083188680745
 21
118.3961367535432
 31
0.0
  0
LINE
  5
7F0C
330
7569
100
AcDbEntity
  8
0
  6
ByBlock
 62
     6
100
AcDbLine
 10
335.7083188680745
 20
102.8961367535432
 30
0.0
 11
335.7083188680745
 21
115.8961367535432
 31
0.0
  0
SOLID
  5
7F0D
330
7569
100
AcDbEntity
  8
0
  6
ByBlock
 62
     6
100
AcDbTrace
 10
335.2916522014078
 20
102.8961367535432
 30
0.0
 11
336.1249855347412
 21
102.8961367535432
 31
0.0
 12
335.7083188680745
 22
100.3961367535432
 32
0.0
 13
335.7083188680745
 23
100.3961367535432
 33
0.0
  0
SOLID
  5
7F0E
330
7569
100
AcDbEntity
  8
0
  6
ByBlock
 62
     6
100
AcDbTrace
 10
335.2916522014078
 20
115.8961367535432
 30
0.0
 11
336.1249855347412
 21
115.8961367535432
 31
0.0
 12
335.7083188680745
 22
118.3961367535432
 32
0.0
 13
335.7083188680745
 23
118.3961367535432
 33
0.0
  0
MTEXT
  5
7F0F
330
7569
100
AcDbEntity
  8
0
  6
ByBlock
 62
     3
100
AcDbMText
 10
333.2083188680745
 20
109.3961367535432
 30
0.0
 40
3.0
 41
0.0
 71
     5
 72
     1
  1
\A1;18±0.2
  7
TXT
 11
0.0000000000000001
 21
1.0
 31
0.0
 73
     1
 44
1.0
  0
POINT
  5
7F10
330
7569
100
AcDbEntity
  8
DEFPOINTS
  6
ByBlock
 62
     0
100
AcDbPoint
 10
306.636022068048
 20
100.3961367535432
 30
0.0
  0
POINT
  5
7F11
330
7569
100
AcDbEntity
  8
DEFPOINTS
  6
ByBlock
 62
     0
100
AcDbPoint
 10
307.636022068048
 20
118.3961367535432
 30
0.0
  0
POINT
  5
7F12
330
7569
100
AcDbEntity
  8
DEFPOINTS
  6
ByBlock
 62
     0
100
AcDbPoint
 10
335.7083188680745
 20
118.3961367535432
 30
0.0
  0
ENDBLK
  5
7F13
330
7569
100
AcDbEntity
  8
0
100
AcDbBlockEnd
  0
BLOCK
  5
7EFC
330
75C5
100
AcDbEntity
  8
0
100
AcDbBlockBegin
  2
*D11
 70
     1
 10
0.0
 20
0.0
 30
0.0
  3
*D11
  1

  0
LINE
  5
7EFD
330
75C5
100
AcDbEntity
  8
0
  6
ByBlock
 62
     6
100
AcDbLine
 10
310.1357247167941
 20
102.433326197862
 30
0.0
 11
349.4961723019358
 21
80.07505407680826
 31
0.0
  0
LINE
  5
7EFE
330
75C5
100
AcDbEntity
  8
0
  6
ByBlock
 62
     6
100
AcDbLine
 10
308.6360220680481
 20
118.3961367535432
 30
0.0
 11
359.620419302529
 21
118.3961367535433
 31
0.0
  0
ARC
  5
7EFF
330
75C5
100
AcDbEntity
  8
0
  6
ByBlock
 62
     6
100
AcDbCircle
 10
282.0341180816018
 20
118.3961367535432
 30
0.0
 40
76.5863012209272
100
AcDbArc
 50
332.2721166172839
 51
358.1296157817631
  0
SOLID
  5
7F00
330
75C5
100
AcDbEntity
  8
0
  6
ByBlock
 62
     6
100
AcDbTrace
 10
350.191414174119
 20
82.56275076324316
 30
0.0
 11
349.4602012877811
 21
82.96246586090367
 31
0.0
 12
348.6266624379685
 22
80.5689696530595
 32
0.0
 13
348.6266624379685
 23
80.5689696530595
 33
0.0
  0
SOLID
  5
7F01
330
75C5
100
AcDbEntity
  8
0
  6
ByBlock
 62
     6
100
AcDbTrace
 10
358.1630044956885
 20
115.9032703701216
 30
0.0
 11
358.9962268258167
 21
115.8896691561961
 31
0.0
 12
358.620419302529
 22
118.3961367535433
 32
0.0
 13
358.620419302529
 23
118.3961367535433
 33
0.0
  0
MTEXT
  5
7F02
330
75C5
100
AcDbEntity
  8
0
  6
ByBlock
 62
     3
100
AcDbMText
 10
353.6627729782651
 20
99.47218826775765
 30
0.0
 40
3.0
 41
0.0
 71
     5
 72
     1
  1
\A1;30°
  7
TXT
 11
0.2554311414380637
 21
0.9668272503315408
 31
0.0
 73
     1
 44
1.0
  0
POINT
  5
7F03
330
75C5
100
AcDbEntity
  8
DEFPOINTS
  6
ByBlock
 62
     0
100
AcDbPoint
 10
354.1233541958559
 20
92.53876698850504
 30
0.0
  0
POINT
  5
7F04
330
75C5
100
AcDbEntity
  8
DEFPOINTS
  6
ByBlock
 62
     0
100
AcDbPoint
 10
275.1360220680481
 20
118.3961367535432
 30
0.0
  0
POINT
  5
7F05
330
75C5
100
AcDbEntity
  8
DEFPOINTS
  6
ByBlock
 62
     0
100
AcDbPoint
 10
309.2662148528268
 20
102.9272417741132
 30
0.0
  0
POINT
  5
7F06
330
75C5
100
AcDbEntity
  8
DEFPOINTS
  6
ByBlock
 62
     0
100
AcDbPoint
 10
298.8376647839444
 20
108.8510656778872
 30
0.0
  0
POINT
  5
7F07
330
75C5
100
AcDbEntity
  8
DEFPOINTS
  6
ByBlock
 62
     0
100
AcDbPoint
 10
307.6360220680481
 20
118.3961367535432
 30
0.0
  0
ENDBLK
  5
7F08
330
75C5
100
AcDbEntity
  8
0
100
AcDbBlockEnd
  0
BLOCK
  5
7AD7
330
7AC6
100
AcDbEntity
  8
0
100
AcDbBlockBegin
  2
*D12
 70
     1
 10
0.0
 20
0.0
 30
0.0
  3
*D12
  1

  0
LINE
  5
7AD8
330
7AC6
100
AcDbEntity
  8
0
  6
ByBlock
 62
     6
100
AcDbLine
 10
295.4767602876279
 20
122.8337221819853
 30
0.0
 11
291.6944953941081
 21
122.8337221819853
 31
0.0
  0
LINE
  5
7AD9
330
7AC6
100
AcDbEntity
  8
0
  6
ByBlock
 62
     6
100
AcDbLine
 10
295.4767602876279
 20
123.8337221819853
 30
0.0
 11
291.6944953941081
 21
123.8337221819853
 31
0.0
  0
LINE
  5
7ADA
330
7AC6
100
AcDbEntity
  8
0
  6
ByBlock
 62
     6
100
AcDbLine
 10
292.6944953941081
 20
120.3337221819853
 30
0.0
 11
292.6944953941081
 21
117.8337221819853
 31
0.0
  0
LINE
  5
7ADB
330
7AC6
100
AcDbEntity
  8
0
  6
ByBlock
 62
     6
100
AcDbLine
 10
292.6944953941081
 20
126.3337221819853
 30
0.0
 11
292.6944953941081
 21
128.8337221819852
 31
0.0
  0
LINE
  5
7ADC
330
7AC6
100
AcDbEntity
  8
0
  6
ByBlock
 62
     6
100
AcDbLine
 10
292.6944953941081
 20
132.9195358696576
 30
0.0
 11
292.6944953941081
 21
123.8337221819853
 31
0.0
  0
MTEXT
  5
7ADD
330
7AC6
100
AcDbEntity
  8
0
  6
ByBlock
 62
     3
100
AcDbMText
 10
290.1944953941081
 20
131.4195358696575
 30
0.0
 40
3.0
 41
0.0
 71
     5
 72
     1
  1
\A1;1
  7
TXT
 11
0.0000000000000001
 21
1.0
 31
0.0
 73
     1
 44
1.0
  0
LINE
  5
7ADE
330
7AC6
100
AcDbEntity
  8
0
  6
ByBlock
 62
     6
100
AcDbLine
 10
292.6944953941081
 20
122.8337221819853
 30
0.0
 11
292.6944953941081
 21
123.8337221819853
 31
0.0
  0
SOLID
  5
7ADF
330
7AC6
100
AcDbEntity
  8
0
  6
ByBlock
 62
     6
100
AcDbTrace
 10
292.2778287274415
 20
120.3337221819853
 30
0.0
 11
293.1111620607748
 21
120.3337221819853
 31
0.0
 12
292.6944953941081
 22
122.8337221819853
 32
0.0
 13
292.6944953941081
 23
122.8337221819853
 33
0.0
  0
SOLID
  5
7AE0
330
7AC6
100
AcDbEntity
  8
0
  6
ByBlock
 62
     6
100
AcDbTrace
 10
292.2778287274415
 20
126.3337221819853
 30
0.0
 11
293.1111620607748
 21
126.3337221819853
 31
0.0
 12
292.6944953941081
 22
123.8337221819853
 32
0.0
 13
292.6944953941081
 23
123.8337221819853
 33
0.0
  0
POINT
  5
7AE1
330
7AC6
100
AcDbEntity
  8
DEFPOINTS
  6
ByBlock
 62
     0
100
AcDbPoint
 10
296.4767602876279
 20
122.8337221819853
 30
0.0
  0
POINT
  5
7AE2
330
7AC6
100
AcDbEntity
  8
DEFPOINTS
  6
ByBlock
 62
     0
100
AcDbPoint
 10
296.4767602876279
 20
123.8337221819853
 30
0.0
  0
POINT
  5
7AE3
330
7AC6
100
AcDbEntity
  8
DEFPOINTS
  6
ByBlock
 62
     0
100
AcDbPoint
 10
292.6944953941081
 20
123.8337221819853
 30
0.0
  0
ENDBLK
  5
7AE4
330
7AC6
100
AcDbEntity
  8
0
100
AcDbBlockEnd
  0
ENDSEC
  0
SECTION
  2
ENTITIES
  0
MTEXT
  5
C0
330
18
100
AcDbEntity
  8
0
100
AcDbMText
 10
41.26970765600413
 20
233.6950877649332
 30
0.0
 40
2.5
 41
0.0
 71
     1
 72
     5
  1

  7
ISOCP3
 73
     1
 44
1.0
  0
MTEXT
  5
4FE4
330
18
100
AcDbEntity
  8
公差
100
AcDbMText
 10
75.70460423685313
 20
170.0446246591374
 30
0.0
 40
2.0
 41
9.555074525974475
 71
     1
 72
     5
  1
+0.15\P+0
  7
TXT
 73
     1
 44
1.0
  0
MTEXT
  5
4FE5
330
18
100
AcDbEntity
  8
公差
100
AcDbMText
 10
46.86249615720578
 20
199.4120489964693
 30
0.0
 40
2.0
 41
8.84945634767439
 71
     1
 72
     5
  1
+0.15\P+0
  7
TXT
 11
0.0000000000000001
 21
1.0
 31
0.0
 73
     1
 44
1.0
  0
MTEXT
  5
503F
330
18
100
AcDbEntity
  8
公差
100
AcDbMText
 10
90.67344628021492
 20
148.5670346450735
 30
0.0
 40
2.0
 41
11.48459459716352
 71
     1
 72
     5
  1
+0\P-0.2
  7
TXT
 73
     1
 44
1.0
  0
LINE
  5
5AD6
330
18
100
AcDbEntity
  8
DIM
100
AcDbLine
 10
139.1310516641059
 20
118.3961367535431
 30
0.0
 11
139.1310516641059
 21
134.9228632086669
 31
0.0
  0
LINE
  5
5AD7
330
18
100
AcDbEntity
  8
DIM
100
AcDbLine
 10
139.1310516641059
 20
134.9228632086669
 30
0.0
 11
151.2827917903534
 21
134.9228632086669
 31
0.0
  0
LINE
  5
5ADA
330
18
100
AcDbEntity
  8
DIM
100
AcDbLine
 10
74.55875486407933
 20
86.75678723883534
 30
0.0
 11
74.55875486407933
 21
76.16338216371225
 31
0.0
  0
TOLERANCE
  5
5E6E
330
18
100
AcDbEntity
  8
DIM
  6
ByBlock
100
AcDbFcf
  3
A
 10
151.2827917903534
 20
134.9738016447979
 30
0.0
  1
{\Fgdt;h}%%v0.005%%v%%vA%%v%%v
1001
ACAD
1000
DSTYLE
1002
{
1070
   140
1040
2.743999999999999
1070
   147
1040
0.6859999999999999
1002
}
  0
MTEXT
  5
608E
330
18
100
AcDbEntity
  8
0
100
AcDbMText
 10
17.81948278949767
 20
19.37399834316261
 30
0.0
 40
5.0
 41
0.0
 71
     1
 72
     5
  1
\Ftxt.shx,bigfont.shx|c128;呉銘宏
  7
JL
 73
     1
 44
1.0
  0
MTEXT
  5
6095
330
18
100
AcDbEntity
  8
0
100
AcDbMText
 10
81.23517665196368
 20
29.2278230533891
 30
0.0
 40
4.5
 41
0.0
 71
     1
 72
     5
  1
\Ftxt.shx,bigfont.shx|c128;1 : 1
  7
JL
 73
     1
 44
1.0
  0
MTEXT
  5
6098
330
18
100
AcDbEntity
  8
0
 48
2.0
370
    25
100
AcDbMText
 10
146.1234268906314
 20
3.636969934829039
 30
0.0
 40
4.5
 41
0.0
 71
     5
 72
     1
  1
\Ftxt.shx,bigfont.shx|c128;N L 4 0 0 0 3
 73
     1
 44
1.0
  0
MTEXT
  5
609C
330
18
100
AcDbEntity
  8
0
 48
2.0
100
AcDbMText
 10
178.1300746997774
 20
22.17550270047843
 30
0.0
 40
4.5
 41
0.0
 71
     5
 72
     1
  1
\P\Ftxt.shx,bigfont.shx|c128;    MF30X1.5P
 73
     1
 44
1.0
  0
MTEXT
  5
635A
330
18
100
AcDbEntity
  8
0
100
AcDbMText
 10
16.02348109109539
 20
28.64592585511957
 30
0.0
 40
4.5
 41
0.0
 71
     1
 72
     5
  1
\Ftxt.shx,bigfont.shx|c128;05.03.02
  7
JL
 73
     1
 44
1.0
  0
INSERT
  5
63A3
330
18
100
AcDbEntity
  8
0
100
AcDbBlockReference
  2
A$C255C26A2
 10
124.8325877487998
 20
118.396136059562
 30
0.0
  0
MTEXT
  5
63A4
330
18
100
AcDbEntity
  8
0
 62
     7
 48
2.0
100
AcDbMText
 10
128.926390497656
 20
123.2916870265807
 30
0.0
 40
3.0
 41
0.0
 71
     5
 72
     1
  1
G
 73
     1
 44
1.0
  0
LEADER
  5
63C9
330
18
100
AcDbEntity
  8
DIM
 62
     6
100
AcDbLeader
  3
A
 76
     2
 10
108.442807823992
 20
210.9251765821938
 30
0.0
 10
121.0931119922442
 20
222.1433261683758
 30
0.0
  0
LEADER
  5
63CA
330
18
100
AcDbEntity
  8
DIM
 62
     6
100
AcDbLeader
  3
A
 76
     2
 10
105.2994881934483
 20
108.5015744347989
 30
0.0
 10
120.8774493984676
 20
136.8606521111259
 30
0.0
  0
LEADER
  5
63CB
330
18
100
AcDbEntity
  8
DIM
 62
     6
100
AcDbLeader
  3
A
 76
     2
 10
111.8087548640794
 20
103.4272256667888
 30
0.0
 10
123.0030172412212
 20
80.45811515788283
 30
0.0
  0
MTEXT
  5
63CC
330
18
100
AcDbEntity
  8
DIM
100
AcDbMText
 10
120.2017208051214
 20
142.6092476761426
 30
0.0
 40
5.0
 41
1.0
 71
     1
 72
     5
  1
\Ftxt.shx,bigfont.shx|c128;3
 73
     1
 44
1.0
  0
MTEXT
  5
63CD
330
18
100
AcDbEntity
  8
DIM
100
AcDbMText
 10
123.2391405283551
 20
225.9988212042842
 30
0.0
 40
5.0
 41
1.0
 71
     1
 72
     5
  1
\Ftxt.shx,bigfont.shx|c128;1
 73
     1
 44
1.0
  0
MTEXT
  5
63CE
330
18
100
AcDbEntity
  8
DIM
100
AcDbMText
 10
122.062933140045
 20
79.23026647908892
 30
0.0
 40
5.0
 41
1.0
 71
     1
 72
     5
  1
\Ftxt.shx,bigfont.shx|c128;2
 73
     1
 44
1.0
  0
LINE
  5
63CF
330
18
100
AcDbEntity
  8
DIM
100
AcDbLine
 10
74.55875486407933
 20
76.16338216371225
 30
0.0
 11
75.47121321230491
 21
75.18550806798718
 31
0.0
  0
HATCH
  5
63D0
330
18
100
AcDbEntity
  8
DIM
  6
Continuous
100
AcDbHatch
 10
0.0
 20
0.0
 30
0.0
210
0.0
220
0.0
230
1.0
  2
SOLID
 70
     1
 71
     0
 91
        1
 92
        7
 72
     0
 73
     1
 93
        3
 10
74.55763074962675
 20
74.17969376873175
 10
75.4763628382268
 20
75.16450156397548
 10
74.55763074962675
 20
76.1493093592192
 97
        0
 75
     0
 76
     1
 47
0.2359147607200769
 98
        1
 10
74.84544674585754
 20
75.375977569667
450
        0
451
        0
460
0.0
461
0.0
452
        0
462
0.0
453
        0
470

  0
LINE
  5
63D1
330
18
100
AcDbEntity
  8
DIM
100
AcDbLine
 10
80.21830601900097
 20
73.37185426382767
 30
0.0
 11
80.21830601900097
 21
77.01815305384882
 31
0.0
  0
LINE
  5
63D2
330
18
100
AcDbEntity
  8
DIM
100
AcDbLine
 10
80.21830601900097
 20
77.01815305384882
 30
0.0
 11
84.02694126451166
 21
77.01815305384882
 31
0.0
  0
LINE
  5
63D3
330
18
100
AcDbEntity
  8
DIM
100
AcDbLine
 10
84.02694126451166
 20
73.37185426382767
 30
0.0
 11
84.02694126451166
 21
77.01815305384882
 31
0.0
  0
LINE
  5
63D4
330
18
100
AcDbEntity
  8
DIM
100
AcDbLine
 10
80.21830601900097
 20
73.37185426382767
 30
0.0
 11
84.02694126451166
 21
73.37185426382767
 31
0.0
  0
LINE
  5
63D5
330
18
100
AcDbEntity
  8
DIM
100
AcDbLine
 10
80.21830601900097
 20
75.19500365883825
 30
0.0
 11
75.45751218327791
 21
75.19500365883825
 31
0.0
  0
MTEXT
  5
63D6
330
18
100
AcDbEntity
  8
DIM
100
AcDbMText
 10
81.17554374144061
 20
76.68682133807529
 30
0.0
 40
3.0
 41
2.354875985554478
 71
     1
 72
     5
  1
A
  7
ISOCP3
 73
     1
 44
1.0
  0
LINE
  5
64AF
330
18
100
AcDbEntity
  8
図框線
100
AcDbLine
 10
197.9999999999997
 20
289.9999999999999
 30
0.0
 11
197.9999999999997
 21
-0.0000000000000568
 31
0.0
  0
LINE
  5
64B0
330
18
100
AcDbEntity
  8
図框線
370
    30
100
AcDbLine
 10
-0.0000000000002274
 20
0.0
 30
0.0
 11
-0.0000000000002274
 21
290.0
 31
0.0
  0
LINE
  5
64B1
330
18
100
AcDbEntity
  8
0
 62
     7
 48
5.0
100
AcDbLine
 39
4.0
 10
49.94750515634314
 20
27.8953239783782
 30
0.0
 11
55.27930887205229
 21
29.22827490730549
 31
0.0
  0
MTEXT
  5
64B2
330
18
100
AcDbEntity
  8
0
100
AcDbMText
 10
15.97866977158742
 20
9.63134010478825
 30
0.0
 40
6.0
 41
0.0
 71
     1
 72
     5
  1
\Ftxt.shx,bigfont.shx|c128;日機株式会社
  7
LKK
 73
     1
 44
1.0
  0
LINE
  5
64B3
330
18
100
AcDbEntity
  8
図框線
100
AcDbLine
 10
0.0
 20
0.0
 30
0.0
 11
197.9999999999997
 21
0.0
 31
0.0
  0
LINE
  5
64B7
330
18
100
AcDbEntity
  8
図框線
100
AcDbLine
 10
0.0
 20
12.0
 30
0.0
 11
197.9999999999997
 21
12.00000000000005
 31
0.0
  0
LINE
  5
64B8
330
18
100
AcDbEntity
  8
図框線
100
AcDbLine
 10
0.0
 20
22.0
 30
0.0
 11
96.0
 21
22.0
 31
0.0
  0
LINE
  5
64B9
330
18
100
AcDbEntity
  8
図框線
100
AcDbLine
 10
0.0
 20
32.0
 30
0.0
 11
197.9999999999997
 21
32.0
 31
0.0
  0
LINE
  5
64BA
330
18
100
AcDbEntity
  8
図框線
100
AcDbLine
 10
12.0
 20
32.0
 30
0.0
 11
12.0
 21
12.0
 31
0.0
  0
LINE
  5
64BB
330
18
100
AcDbEntity
  8
図框線
100
AcDbLine
 10
32.0
 20
32.0
 30
0.0
 11
32.0
 21
12.0
 31
0.0
  0
MTEXT
  5
64BC
330
18
100
AcDbEntity
  8
0
100
AcDbMText
 10
2.949444248820782
 20
29.04715033351227
 30
0.0
 40
4.5
 41
0.0
 71
     1
 72
     5
  1
\Ftxt.shx,bigfont.shx|c128;日 付
  7
JL
 73
     1
 44
1.0
  0
MTEXT
  5
64BD
330
18
100
AcDbEntity
  8
0
100
AcDbMText
 10
3.095712364910014
 20
19.83833899470915
 30
0.0
 40
4.5
 41
0.0
 71
     1
 72
     5
  1
\Ftxt.shx,bigfont.shx|c128;製 図
  7
JL
 73
     1
 44
1.0
  0
LINE
  5
64C0
330
18
100
AcDbEntity
  8
0
 62
     7
370
    25
100
AcDbLine
 10
55.27930887205229
 20
23.89647119159633
 30
0.0
 11
55.27930887205229
 21
29.22827490730549
 31
0.0
  0
MTEXT
  5
64C1
330
18
100
AcDbEntity
  8
0
100
AcDbMText
 10
66.70254067332553
 20
29.42231870267847
 30
0.0
 40
4.5
 41
0.0
 71
     1
 72
     5
  1
\Ftxt.shx,bigfont.shx|c128;尺 度
  7
JL
 73
     1
 44
1.0
  0
LINE
  5
64C2
330
18
100
AcDbEntity
  8
図框線
100
AcDbLine
 10
64.0
 20
32.0
 30
0.0
 11
64.0
 21
12.0
 31
0.0
  0
LINE
  5
64C3
330
18
100
AcDbEntity
  8
0
 62
     7
370
    25
100
AcDbLine
 10
41.2833241183157
 20
23.23894871736115
 30
0.0
 11
41.2833241183157
 21
29.67466750005656
 31
0.0
  0
CIRCLE
  5
64C4
330
18
100
AcDbEntity
  8
0
 62
     7
100
AcDbCircle
 10
41.2833241183157
 20
26.5623730494508
 30
0.0
 40
2.665901857854641
  0
LINE
  5
64C6
330
18
100
AcDbEntity
  8
0
 62
     7
370
    25
100
AcDbLine
 10
49.18030281106076
 20
26.56237304945091
 30
0.0
 11
55.75797321903156
 21
26.56237304945091
 31
0.0
  0
LINE
  5
64C7
330
18
100
AcDbEntity
  8
0
 62
     7
100
AcDbLine
 10
49.94750515634314
 20
25.22942212052362
 30
0.0
 11
55.27930887205229
 21
23.89647119159633
 31
0.0
  0
LINE
  5
64C8
330
18
100
AcDbEntity
  8
図框線
100
AcDbLine
 10
44.0
 20
21.99999999999989
 30
0.0
 11
44.0
 21
12.0
 31
0.0
  0
LINE
  5
64C9
330
18
100
AcDbEntity
  8
0
 62
     7
370
    25
100
AcDbLine
 10
37.95172532843935
 20
26.5623730494508
 30
0.0
 11
44.81391594676916
 21
26.56237304945091
 31
0.0
  0
CIRCLE
  5
64CA
330
18
100
AcDbEntity
  8
0
 62
     7
100
AcDbCircle
 10
41.2833241183157
 20
26.5623730494508
 30
0.0
 40
1.33295092892732
  0
MTEXT
  5
64CB
330
18
100
AcDbEntity
  8
0
100
AcDbMText
 10
35.12086518039769
 20
19.39982343168049
 30
0.0
 40
4.5
 41
0.0
 71
     1
 72
     5
  1
\Ftxt.shx,bigfont.shx|c128;検 図
  7
JL
 73
     1
 44
1.0
  0
LINE
  5
64CC
330
18
100
AcDbEntity
  8
0
 62
     7
370
    25
100
AcDbLine
 10
49.94750515634314
 20
25.22942212052362
 30
0.0
 11
49.94750515634314
 21
27.8953239783782
 31
0.0
  0
MTEXT
  5
64CD
330
18
100
AcDbEntity
  8
0
100
AcDbMText
 10
66.99507418337498
 20
19.62882052001464
 30
0.0
 40
4.5
 41
0.0
 71
     1
 72
     5
  1
\Ftxt.shx,bigfont.shx|c128;承 認
  7
JL
 73
     1
 44
1.0
  0
LINE
  5
64CE
330
18
100
AcDbEntity
  8
図框線
100
AcDbLine
 10
132.615790078639
 20
43.13491348924492
 30
0.0
 11
192.615790078639
 21
43.13491348924481
 31
0.0
  0
LINE
  5
64CF
330
18
100
AcDbEntity
  8
図框線
100
AcDbLine
 10
132.615790078639
 20
50.33491348924497
 30
0.0
 11
192.615790078639
 21
50.33491348924497
 31
0.0
  0
LINE
  5
64D0
330
18
100
AcDbEntity
  8
図框線
100
AcDbLine
 10
132.615790078639
 20
57.5349134892449
 30
0.0
 11
192.615790078639
 21
57.53491348924478
 31
0.0
  0
LINE
  5
64D1
330
18
100
AcDbEntity
  8
図框線
100
AcDbLine
 10
132.615790078639
 20
64.73491348924494
 30
0.0
 11
192.615790078639
 21
64.73491348924483
 31
0.0
  0
LINE
  5
64D2
330
18
100
AcDbEntity
  8
図框線
100
AcDbLine
 10
132.615790078639
 20
35.93491348924488
 30
0.0
 11
192.615790078639
 21
35.93491348924488
 31
0.0
  0
MTEXT
  5
64D3
330
18
100
AcDbEntity
  8
0
 62
     7
 48
2.0
100
AcDbMText
 10
162.5011900445104
 20
65.52808189982909
 30
0.0
 40
4.8
 41
0.0
 71
     5
 72
     1
  1
\P\Ftxt.shx,bigfont.shx|c128;諸　　　　元
 73
     1
 44
1.0
  0
LINE
  5
64D5
330
18
100
AcDbEntity
  8
図框線
100
AcDbLine
 10
132.615790078639
 20
64.73491348924483
 30
0.0
 11
132.615790078639
 21
35.93491348924488
 31
0.0
  0
MTEXT
  5
64D6
330
18
100
AcDbEntity
  8
0
100
AcDbMText
 10
136.1382258923192
 20
56.00840432212407
 30
0.0
 40
4.4
 41
163.916286842249
 71
     1
 72
     5
  1
\Ftxt.shx,bigfont.shx|c128;熱　処　理
  7
JL
 73
     1
 44
1.0
  0
LINE
  5
64D7
330
18
100
AcDbEntity
  8
図框線
100
AcDbLine
 10
156.615790078639
 20
57.53491348924478
 30
0.0
 11
156.615790078639
 21
35.93491348924488
 31
0.0
  0
MTEXT
  5
64D8
330
18
100
AcDbEntity
  8
0
100
AcDbMText
 10
97.65702556263818
 20
11.15332144655735
 30
0.0
 40
5.0
 41
0.0
 71
     1
 72
     5
  1
\Ftxt.shx,bigfont.shx|c128;図  面  番  号
  7
JL
 73
     1
 44
1.0
  0
MTEXT
  5
64D9
330
18
100
AcDbEntity
  8
0
 62
     7
 48
2.0
100
AcDbMText
 10
121.8260850653862
 20
22.29156825453561
 30
0.0
 40
4.5
 41
0.0
 71
     5
 72
     1
  1
\P\Ftxt.shx,bigfont.shx|c128;    精密ロックナット
 73
     1
 44
1.0
  0
MTEXT
  5
64DA
330
18
100
AcDbEntity
  8
0
370
    25
100
AcDbMText
 10
98.8002923053598
 20
29.80688815403971
 30
0.0
 40
5.0
 41
0.0
 71
     1
 72
     5
  1
\Ftxt.shx,bigfont.shx|c128;品  名
  7
JL
 73
     1
 44
1.0
  0
LINE
  5
64DB
330
18
100
AcDbEntity
  8
図框線
100
AcDbLine
 10
96.0
 20
32.0
 30
0.0
 11
96.0
 21
0.19104161092514
 31
0.0
  0
LINE
  5
64DC
330
18
100
AcDbEntity
  8
図框線
100
AcDbLine
 10
76.0
 20
32.0
 30
0.0
 11
76.0
 21
12.0
 31
0.0
  0
LINE
  5
64DE
330
18
100
AcDbEntity
  8
図框線
100
AcDbLine
 10
153.2235601908683
 20
32.0
 30
0.0
 11
153.2235601908683
 21
12.0
 31
0.0
  0
MTEXT
  5
64DF
330
18
100
AcDbEntity
  8
0
100
AcDbMText
 10
135.85795152494
 20
49.00617587486397
 30
0.0
 40
4.4
 41
163.6058628849672
 71
     1
 72
     5
  1
\Ftxt.shx,bigfont.shx|c128;表 面 処 理
  7
JL
 73
     1
 44
1.0
  0
MTEXT
  5
64E0
330
18
100
AcDbEntity
  8
0
100
AcDbMText
 10
136.148017373375
 20
41.71770302125605
 30
0.0
 40
4.4
 41
166.1718
 71
     1
 72
     5
  1
\Ftxt.shx,bigfont.shx|c128;等     　級
  7
JL
 73
     1
 44
1.0
  0
LINE
  5
64E1
330
18
100
AcDbEntity
  8
図框線
100
AcDbLine
 10
192.615790078639
 20
64.73491348924483
 30
0.0
 11
192.615790078639
 21
35.93491348924499
 31
0.0
  0
MTEXT
  5
64E2
330
18
100
AcDbEntity
  8
0
100
AcDbMText
 10
161.3627933880816
 20
55.83344641471445
 30
0.0
 40
4.4
 41
291.8960056857887
 71
     1
 72
     5
  1
\Ftxt.shx,bigfont.shx|c128;調質　HRC30%%d%%p２%%d
  7
JL
 73
     1
 44
1.0
  0
MTEXT
  5
64E4
330
18
100
AcDbEntity
  8
0
370
    25
100
AcDbMText
 10
157.2494735287423
 20
29.58569764093568
 30
0.0
 40
5.0
 41
0.0
 71
     1
 72
     5
  1
\Ftxt.shx,bigfont.shx|c128;型  番
  7
JL
 73
     1
 44
1.0
  0
MTEXT
  5
64E5
330
18
100
AcDbEntity
  8
0
100
AcDbMText
 10
172.787265122339
 20
11.23700203391422
 30
0.0
 40
5.0
 41
0.0
 71
     1
 72
     5
  1
\Ftxt.shx,bigfont.shx|c128;変更
  7
JL
 73
     1
 44
1.0
  0
LINE
  5
64E6
330
18
100
AcDbEntity
  8
図框線
100
AcDbLine
 10
171.0
 20
12.00907027842731
 30
0.0
 11
171.0
 21
0.0
 31
0.0
  0
MTEXT
  5
64E7
330
18
100
AcDbEntity
  8
0
100
AcDbMText
 10
161.623432389518
 20
41.7183135927072
 30
0.0
 40
4.4
 41
290.783364796891
 71
     1
 72
     5
  1
\Ftxt.shx,bigfont.shx|c128;ＩＳＯ - ４Ｈ
  7
JL
 73
     1
 44
1.0
  0
MTEXT
  5
64E8
330
18
100
AcDbEntity
  8
0
100
AcDbMText
 10
161.7978935876483
 20
48.65328293790913
 30
0.0
 40
4.4
 41
291.4548
 71
     1
 72
     5
  1
\Ftxt.shx,bigfont.shx|c128;黒  　    染
  7
JL
 73
     1
 44
1.0
  0
MTEXT
  5
64EA
330
18
100
AcDbEntity
  8
0
100
AcDbMText
 10
60.06318600759005
 20
270.095850257545
 30
0.0
 40
5.0
 41
0.0
 71
     1
 72
     5
  1
\Ftxt.shx,bigfont.shx|c128;M6X1.0P-6L
  7
JL
 73
     1
 44
1.0
  0
MTEXT
  5
64EB
330
18
100
AcDbEntity
  8
0
100
AcDbMText
 10
60.06318600759005
 20
262.095850257545
 30
0.0
 40
5.0
 41
0.0
 71
     1
 72
     5
  1
\Ftxt.shx,bigfont.shx|c128;%%c5.2X5L
  7
JL
 73
     1
 44
1.0
  0
LINE
  5
64EC
330
18
100
AcDbEntity
  8
図框線
100
AcDbLine
 10
-0.0000000000002274
 20
263.9999999999999
 30
0.0
 11
197.9999999999997
 21
263.9999999999999
 31
0.0
  0
LINE
  5
64ED
330
18
100
AcDbEntity
  8
図框線
100
AcDbLine
 10
-0.0000000000002274
 20
271.9999999999999
 30
0.0
 11
197.9999999999997
 21
271.9999999999999
 31
0.0
  0
LINE
  5
64EE
330
18
100
AcDbEntity
  8
図框線
 62
     9
100
AcDbLine
 10
-0.0000000000002274
 20
279.9999999999999
 30
0.0
 11
197.9999999999997
 21
279.9999999999999
 31
0.0
  0
LINE
  5
64EF
330
18
100
AcDbEntity
  8
図框線
100
AcDbLine
 10
-0.0000000000002274
 20
290.0
 30
0.0
 11
197.9999999999997
 21
290.0
 31
0.0
  0
MTEXT
  5
64F0
330
18
100
AcDbEntity
  8
0
100
AcDbMText
 10
59.41630259681733
 20
287.3155952051104
 30
0.0
 40
5.0
 41
0.0
 71
     1
 72
     5
  1
\Ftxt.shx,bigfont.shx|c128;図    番 / 規　　格
  7
JL
 73
     1
 44
1.0
  0
LINE
  5
64F1
330
18
100
AcDbEntity
  8
図框線
100
AcDbLine
 10
-0.0000000000002274
 20
263.9999999999999
 30
0.0
 11
197.9999999999997
 21
263.9999999999999
 31
0.0
  0
LINE
  5
64F2
330
18
100
AcDbEntity
  8
図框線
100
AcDbLine
 10
-0.0000000000002274
 20
255.9999999999999
 30
0.0
 11
197.9999999999997
 21
255.9999999999999
 31
0.0
  0
MTEXT
  5
64F3
330
18
100
AcDbEntity
  8
0
100
AcDbMText
 10
22.01434914141237
 20
286.7888025819827
 30
0.0
 40
5.0
 41
0.0
 71
     1
 72
     5
  1
\Ftxt.shx,bigfont.shx|c128;品　          名
  7
JL
 73
     1
 44
1.0
  0
MTEXT
  5
64F4
330
18
100
AcDbEntity
  8
0
100
AcDbMText
 10
18.8650376130422
 20
270.5298549795346
 30
0.0
 40
6.0
 41
0.0
 71
     1
 72
     5
  1
\Ftxt.shx,bigfont.shx|c128;セットスクリュ-
  7
JL
 73
     1
 44
1.0
  0
MTEXT
  5
64F5
330
18
100
AcDbEntity
  8
0
100
AcDbMText
 10
18.66941459004738
 20
278.3660650505403
 30
0.0
 40
6.0
 41
0.0
 71
     1
 72
     5
  1
\Ftxt.shx,bigfont.shx|c128;ロックナット　  
  7
JL
 73
     1
 44
1.0
  0
MTEXT
  5
64F6
330
18
100
AcDbEntity
  8
0
100
AcDbMText
 10
18.8650376130422
 20
262.5298549795346
 30
0.0
 40
6.0
 41
0.0
 71
     1
 72
     5
  1
\Ftxt.shx,bigfont.shx|c128;ロックピン 
  7
JL
 73
     1
 44
1.0
  0
LINE
  5
64F7
330
18
100
AcDbEntity
  8
図框線
100
AcDbLine
 10
14.99999999999977
 20
289.9999999999998
 30
0.0
 11
15.00000000000011
 21
255.9999999999999
 31
0.0
  0
LINE
  5
64F8
330
18
100
AcDbEntity
  8
0
100
AcDbLine
 10
14.99999999999977
 20
289.9999999999998
 30
0.0
 11
14.99999999999977
 21
263.9999999999999
 31
0.0
  0
MTEXT
  5
64F9
330
18
100
AcDbEntity
  8
0
100
AcDbMText
 10
6.215289087390488
 20
262.7436409356394
 30
0.0
 40
5.0
 41
0.0
 71
     1
 72
     5
  1
\Ftxt.shx,bigfont.shx|c128;3
  7
JL
 73
     1
 44
1.0
  0
MTEXT
  5
64FA
330
18
100
AcDbEntity
  8
0
100
AcDbMText
 10
7.101957026666809
 20
278.5798510066454
 30
0.0
 40
5.0
 41
0.0
 71
     1
 72
     5
  1
\Ftxt.shx,bigfont.shx|c128;1
  7
JL
 73
     1
 44
1.0
  0
MTEXT
  5
64FB
330
18
100
AcDbEntity
  8
0
100
AcDbMText
 10
6.215289087390488
 20
270.7436409356394
 30
0.0
 40
5.0
 41
0.0
 71
     1
 72
     5
  1
\Ftxt.shx,bigfont.shx|c128;2
  7
JL
 73
     1
 44
1.0
  0
MTEXT
  5
64FC
330
18
100
AcDbEntity
  8
0
100
AcDbMText
 10
2.209083991842362
 20
287.0885254164057
 30
0.0
 40
5.0
 41
0.0
 71
     1
 72
     5
  1
\Ftxt.shx,bigfont.shx|c128;照   号
  7
JL
 73
     1
 44
1.0
  0
LINE
  5
64FD
330
18
100
AcDbEntity
  8
図框線
 62
     9
100
AcDbLine
 10
54.99999999999977
 20
289.9999999999998
 30
0.0
 11
54.99999999999977
 21
256.0
 31
0.0
  0
MTEXT
  5
64FE
330
18
100
AcDbEntity
  8
0
100
AcDbMText
 10
146.3353765925378
 20
287.5804049742369
 30
0.0
 40
5.0
 41
0.0
 71
     1
 72
     5
  1
\Ftxt.shx,bigfont.shx|c128;備           考
  7
JL
 73
     1
 44
1.0
  0
LINE
  5
64FF
330
18
100
AcDbEntity
  8
図框線
 62
     9
100
AcDbLine
 10
94.99999999999976
 20
289.9999999999999
 30
0.0
 11
94.99999999999976
 21
255.9999999999999
 31
0.0
  0
MTEXT
  5
6500
330
18
100
AcDbEntity
  8
0
100
AcDbMText
 10
96.78387029776377
 20
262.3660650505403
 30
0.0
 40
5.0
 41
0.0
 71
     1
 72
     5
  1
\Ftxt.shx,bigfont.shx|c128;C3604
  7
JL
 73
     1
 44
1.0
  0
MTEXT
  5
6501
330
18
100
AcDbEntity
  8
0
100
AcDbMText
 10
96.78387029776377
 20
278.3660650505403
 30
0.0
 40
5.0
 41
0.0
 71
     1
 72
     5
  1
\Ftxt.shx,bigfont.shx|c128;SCM-440
  7
JL
 73
     1
 44
1.0
  0
MTEXT
  5
6502
330
18
100
AcDbEntity
  8
0
100
AcDbMText
 10
96.78387029776377
 20
270.3660650505403
 30
0.0
 40
5.0
 41
0.0
 71
     1
 72
     5
  1
\Ftxt.shx,bigfont.shx|c128;SCM435
  7
JL
 73
     1
 44
1.0
  0
MTEXT
  5
6503
330
18
100
AcDbEntity
  8
0
100
AcDbMText
 10
99.80032499445407
 20
287.5804049742369
 30
0.0
 40
5.0
 41
0.0
 71
     1
 72
     5
  1
\Ftxt.shx,bigfont.shx|c128;材　質
  7
JL
 73
     1
 44
1.0
  0
LINE
  5
6504
330
18
100
AcDbEntity
  8
図框線
 62
     9
100
AcDbLine
 10
114.9999999999997
 20
289.9999999999999
 30
0.0
 11
114.9999999999997
 21
255.9999999999999
 31
0.0
  0
LINE
  5
6505
330
18
100
AcDbEntity
  8
図框線
100
AcDbLine
 10
129.9999999999998
 20
289.9999999999999
 30
0.0
 11
129.9999999999998
 21
255.9999999999999
 31
0.0
  0
MTEXT
  5
6506
330
18
100
AcDbEntity
  8
0
100
AcDbMText
 10
121.2152890873904
 20
262.7436409356394
 30
0.0
 40
5.0
 41
0.0
 71
     1
 72
     5
  1
\Ftxt.shx,bigfont.shx|c128;3
  7
JL
 73
     1
 44
1.0
  0
MTEXT
  5
6507
330
18
100
AcDbEntity
  8
0
100
AcDbMText
 10
122.1019570266667
 20
278.5798510066454
 30
0.0
 40
5.0
 41
0.0
 71
     1
 72
     5
  1
\Ftxt.shx,bigfont.shx|c128;1
  7
JL
 73
     1
 44
1.0
  0
MTEXT
  5
6508
330
18
100
AcDbEntity
  8
0
100
AcDbMText
 10
121.2152890873904
 20
270.7436409356394
 30
0.0
 40
5.0
 41
0.0
 71
     1
 72
     5
  1
\Ftxt.shx,bigfont.shx|c128;3
  7
JL
 73
     1
 44
1.0
  0
MTEXT
  5
6509
330
18
100
AcDbEntity
  8
0
100
AcDbMText
 10
116.433740311917
 20
287.5804049742369
 30
0.0
 40
5.0
 41
0.0
 71
     1
 72
     5
  1
\Ftxt.shx,bigfont.shx|c128;数   量
  7
JL
 73
     1
 44
1.0
  0
DIMENSION
  5
6770
330
18
100
AcDbEntity
  8
0
100
AcDbDimension
  2
*D1
 10
104.5587548640793
 20
80.43359779784488
 30
0.0
 11
89.55875486407938
 21
80.43359779784488
 31
0.0
 12
-196.5772672039686
 22
0.0
 32
0.0
 70
   160
  1
M<>X1.5P
 71
     5
 42
-1.0
  3
A
100
AcDbAlignedDimension
 13
74.55875486407944
 23
100.8961367535432
 33
0.0
 14
104.5587548640793
 24
100.996136753543
 34
0.0
100
AcDbRotatedDimension
  0
DIMENSION
  5
677F
330
18
100
AcDbEntity
  8
0
100
AcDbDimension
  2
*D2
 10
67.65875486407935
 20
164.1172653380804
 30
0.0
 11
72.65875486407935
 21
164.1172653380804
 31
0.0
 12
-196.5772672039686
 22
0.0
 32
0.0
 70
   160
 71
     5
 42
-1.0
  3
A
100
AcDbAlignedDimension
 13
65.67341621336566
 23
193.6132711069616
 33
0.0
 14
67.65875486407935
 24
193.6132711069616
 34
0.0
100
AcDbRotatedDimension
  0
DIMENSION
  5
6864
330
18
100
AcDbEntity
  8
DIM
100
AcDbDimension
  2
*D3
 10
53.70985846459063
 20
198.6132711069616
 30
0.0
 11
52.83545442373486
 21
208.2913626733522
 31
0.0
 12
-196.9180054235485
 22
5.601833769186555
 32
0.0
 70
   160
  1
<>      (3等分)
 71
     5
 42
-1.0
  3
A
100
AcDbAlignedDimension
 13
65.67341621336566
 23
193.6132711069616
 33
0.0
 14
65.67341621336573
 24
198.6132711069616
 34
0.0
 50
90.0
100
AcDbRotatedDimension
  0
LINE
  5
689B
330
18
100
AcDbEntity
  8
DIM
 62
     6
100
AcDbLine
 10
53.70985846459063
 20
202.6132711069617
 30
0.0
 11
53.70985846459063
 21
222.5295799693561
 31
0.0
  0
LINE
  5
6AF0
330
18
100
AcDbEntity
  8
DIM
 62
     6
100
AcDbLine
 10
72.65875486407935
 20
164.1172653380804
 30
0.0
 11
84.46197817490849
 21
164.1172653380804
 31
0.0
  0
LEADER
  5
6B85
330
18
100
AcDbEntity
  8
DIM
 62
     6
100
AcDbLeader
  3
A
 73
     0
 74
     0
 75
     1
 40
3.0
 41
8.0
 76
     3
 10
74.68375486407945
 20
116.6461367535433
 30
0.0
 10
77.25633525993055
 20
124.4823633676049
 30
0.0
 10
79.75633525993055
 20
124.4823633676049
 30
0.0
340
6B86
  0
MTEXT
  5
6B86
102
{ACAD_REACTORS
330
6B85
102
}
330
18
100
AcDbEntity
  8
DIM
 62
     3
100
AcDbMText
 10
80.75633525993055
 20
126.9823633676049
 30
0.0
 40
3.0
 41
0.0
 71
     4
 72
     1
  1
\A1;C1.5
  7
TXT
 73
     1
 44
1.0
  0
DIMENSION
  5
6C92
330
18
100
AcDbEntity
  8
DIM
100
AcDbDimension
  2
*D4
 10
111.0587548640794
 20
136.5873599716988
 30
0.0
 11
89.55875486407938
 21
139.0873599716988
 31
0.0
 12
-196.5772672039686
 22
0.0
 32
0.0
 70
    32
  1
%%c<>%%p0.5
 71
     5
 42
-1.0
  3
A
100
AcDbAlignedDimension
 13
68.05875486407939
 23
118.3961367535433
 33
0.0
 14
111.0587548640794
 24
118.3961367535432
 34
0.0
100
AcDbRotatedDimension
  0
DIMENSION
  5
6CAA
330
18
100
AcDbEntity
  8
DIM
100
AcDbDimension
  2
*D5
 10
113.5587548640794
 20
142.0948300621137
 30
0.0
 11
85.48969873616551
 21
142.920950811999
 31
0.0
 12
-196.5772672039686
 22
0.0
 32
0.0
 70
   160
  1
%%c<>
 71
     5
 42
-1.0
  3
A
100
AcDbAlignedDimension
 13
65.55875486407945
 23
116.3961367535432
 33
0.0
 14
113.5587548640794
 24
116.3961367535433
 34
0.0
100
AcDbRotatedDimension
  0
DIMENSION
  5
6F74
330
18
100
AcDbEntity
  8
0
100
AcDbDimension
  2
*D6
 10
138.8250457680783
 20
83.78791095653234
 30
0.0
 11
148.7380674412667
 21
100.9577681510259
 31
0.0
 12
5.416174136087477
 22
-5.437585428442048
 32
0.0
 70
   161
  1
<>%%p0.5
 71
     5
 42
-1.0
  3
A
100
AcDbAlignedDimension
 13
113.5587548640794
 23
106.4583145800343
 33
0.0
 14
110.0587548640794
 24
100.3961367535433
 34
0.0
  0
MTEXT
  5
72FF
102
{ACAD_REACTORS
330
7300
102
}
330
18
100
AcDbEntity
  8
DIM
 62
     3
100
AcDbMText
 10
93.4842098817873
 20
93.31627885702562
 30
0.0
 40
3.0
 41
0.0
 71
     6
 72
     1
  1
\A1;C1.5
  7
TXT
 73
     1
 44
1.0
  0
LEADER
  5
7300
330
18
100
AcDbEntity
  8
DIM
 62
     6
100
AcDbLeader
  3
A
 73
     0
 75
     1
 40
3.0
 41
8.0
 76
     3
 10
104.4337548640794
 20
101.1461367535432
 30
0.0
 10
96.98420988178732
 20
90.81627885702562
 30
0.0
 10
94.4842098817873
 20
90.81627885702562
 30
0.0
340
72FF
  0
MTEXT
  5
7303
102
{ACAD_REACTORS
330
7304
102
}
330
18
100
AcDbEntity
  8
DIM
 62
     3
100
AcDbMText
 10
126.121473172032
 20
132.5610102061655
 30
0.0
 40
3.0
 41
0.0
 71
     4
 72
     1
  1
\A1;R1.5
  7
TXT
 73
     1
 44
1.0
  0
LEADER
  5
7304
330
18
100
AcDbEntity
  8
DIM
 62
     6
100
AcDbLeader
  3
A
 73
     0
 74
     0
 75
     1
 40
3.0
 41
8.0
 76
     3
 10
113.1194150358593
 20
117.456796925323
 30
0.0
 10
122.621473172032
 20
130.0610102061656
 30
0.0
 10
125.121473172032
 20
130.0610102061656
 30
0.0
340
7303
1001
ACAD
1000
DSTYLE
1002
{
1070
    45
1040
0.0
1002
}
  0
DIMENSION
  5
74C6
330
18
100
AcDbEntity
  8
0
100
AcDbDimension
  2
*D7
 10
55.10985846459067
 20
117.8961367535433
 30
0.0
 11
55.10985846459067
 21
128.5561340146934
 31
0.0
 12
-196.5772672039686
 22
0.0
 32
0.0
 70
   160
 71
     5
 42
-1.0
  3
A
100
AcDbAlignedDimension
 13
68.05875486407939
 23
118.3961367535432
 33
0.0
 14
67.05875486407933
 24
117.8961367535433
 34
0.0
 50
90.0
100
AcDbRotatedDimension
  0
DIMENSION
  5
750D
330
18
100
AcDbEntity
  8
DIM
100
AcDbDimension
  2
*D8
 10
105.0587548640794
 20
130.7442651600702
 30
0.0
 11
89.55875486407945
 21
133.2442651600702
 31
0.0
 12
-196.5772672039686
 22
0.0
 32
0.0
 70
    32
  1
%%c<>
 71
     5
 42
-1.0
  3
A
100
AcDbAlignedDimension
 13
74.05875486407945
 23
118.3961367535433
 33
0.0
 14
105.0587548640794
 24
118.3961367535433
 34
0.0
100
AcDbRotatedDimension
  0
DIMENSION
  5
7568
330
18
100
AcDbEntity
  8
DIM
100
AcDbDimension
  2
*D9
 10
128.9820307377177
 20
103.4272256667888
 30
0.0
 11
126.4820307377177
 21
110.911681210166
 31
0.0
 12
-196.5772672039686
 22
0.0
 32
0.0
 70
    32
 71
     5
 42
-1.0
  3
A
100
AcDbAlignedDimension
 13
111.0587548640794
 23
118.3961367535432
 33
0.0
 14
111.8087548640794
 24
103.4272256667888
 34
0.0
 50
90.0
100
AcDbRotatedDimension
  0
DIMENSION
  5
7575
330
18
100
AcDbEntity
  8
DIM
100
AcDbDimension
  2
*D10
 10
139.1310516641059
 20
118.3961367535432
 30
0.0
 11
136.6310516641059
 21
109.3961367535432
 31
0.0
 12
-196.5772672039686
 22
0.0
 32
0.0
 70
    32
  1
<>%%p0.2
 71
     5
 42
-1.0
  3
A
100
AcDbAlignedDimension
 13
110.0587548640794
 23
100.3961367535432
 33
0.0
 14
111.0587548640794
 24
118.3961367535432
 34
0.0
 50
90.0
100
AcDbRotatedDimension
  0
DIMENSION
  5
75D3
330
18
100
AcDbEntity
  8
DIM
100
AcDbDimension
  2
*D11
 10
111.0587548640794
 20
118.3961367535432
 30
0.0
 11
157.0855057742964
 21
99.47218826775761
 31
0.0
 12
-196.5772672039686
 22
0.0
 32
0.0
 70
    34
  1
30%%d
 71
     5
 42
-1.0
  3
A
100
AcDb2LineAngularDimension
 13
112.6889476488581
 23
102.9272417741132
 33
0.0
 14
102.2603975799758
 24
108.8510656778872
 34
0.0
 15
78.55875486407945
 25
118.3961367535432
 35
0.0
 16
157.5460869918872
 26
92.53876698850504
 36
0.0
1001
ACAD
1000
DSTYLE
1002
{
1070
    79
1070
     2
1070
   179
1070
     1
1002
}
  0
DIMENSION
  5
7AD6
330
18
100
AcDbEntity
  8
DIM
100
AcDbDimension
  2
*D12
 10
98.77648997055963
 20
118.3961367535433
 30
0.0
 11
98.77648997055963
 21
125.9819504412155
 31
0.0
 12
-193.9180054235485
 22
-5.437585428442019
 32
0.0
 70
   160
 71
     5
 42
-1.0
  3
A
100
AcDbAlignedDimension
 13
102.5587548640794
 23
117.3961367535433
 33
0.0
 14
102.5587548640794
 24
118.3961367535433
 34
0.0
 50
90.0
100
AcDbRotatedDimension
  0
LINE
  5
7C48
330
18
100
AcDbEntity
  8
中心線
  6
CENTER
 48
0.15
100
AcDbLine
 10
89.55875486407938
 20
222.1132711069616
 30
0.0
 11
89.55875486407933
 21
170.1132711069616
 31
0.0
  0
LINE
  5
7C49
330
18
100
AcDbEntity
  8
中心線
  6
CENTER
 48
0.15
100
AcDbLine
 10
89.55875486407945
 20
98.99650908686991
 30
0.0
 11
89.55875486407938
 21
120.0081601713233
 31
0.0
  0
ARC
  5
7C52
330
18
100
AcDbEntity
  8
本体外線
100
AcDbCircle
 10
89.55875486407933
 20
196.1132711069616
 30
0.0
 40
24.0
100
AcDbArc
 50
65.97915679630126
 51
174.0208432036987
  0
CIRCLE
  5
7C53
330
18
100
AcDbEntity
  8
本体外線
100
AcDbCircle
 10
89.55875486407933
 20
196.1132711069616
 30
0.0
 40
21.5
  0
ARC
  5
7C54
330
18
100
AcDbEntity
  8
0
100
AcDbCircle
 10
89.55875486407933
 20
196.1132711069616
 30
0.0
 40
15.0
100
AcDbArc
 50
166.0712712387816
 51
103.2798697834064
  0
CIRCLE
  5
7C55
330
18
100
AcDbEntity
  8
本体外線
100
AcDbCircle
 10
89.55875486407933
 20
196.1132711069616
 30
0.0
 40
14.25
  0
LINE
  5
7C56
330
18
100
AcDbEntity
  8
本体外線
100
AcDbLine
 10
98.34369135461827
 20
216.3292274498408
 30
0.0
 11
102.6738183735404
 21
213.8292274498408
 31
0.0
  0
LINE
  5
7C57
330
18
100
AcDbEntity
  8
本体外線
 48
0.08
100
AcDbLine
 10
103.6585366358205
 20
215.5348095112507
 30
0.0
 11
102.6738183735405
 21
213.8292274498408
 31
0.0
  0
LINE
  5
7C58
330
18
100
AcDbEntity
  8
本体外線
 48
0.08
100
AcDbLine
 10
99.32840961689828
 20
218.0348095112507
 30
0.0
 11
98.34369135461827
 21
216.3292274498408
 31
0.0
  0
LINE
  5
7C5B
330
18
100
AcDbEntity
  8
本体内線
  6
HIDDEN
 48
0.2
100
AcDbLine
 10
103.5877427106775
 20
198.6132711069616
 30
0.0
 11
113.4281913886394
 21
198.6132711069616
 31
0.0
  0
LINE
  5
7C5C
330
18
100
AcDbEntity
  8
本体内線
  6
HIDDEN
 48
0.2
100
AcDbLine
 10
103.5877427106775
 20
193.6132711069616
 30
0.0
 11
113.4281913886394
 21
193.6132711069616
 31
0.0
  0
LINE
  5
7C63
330
18
100
AcDbEntity
  8
中心線
  6
CENTER
 48
0.15
100
AcDbLine
 10
83.43375486407934
 20
206.722082303321
 30
0.0
 11
76.55875486407939
 21
218.629931605357
 31
0.0
  0
LINE
  5
7C64
330
18
100
AcDbEntity
  8
中心線
  6
CENTER
 48
0.15
100
AcDbLine
 10
63.55875486407938
 20
196.1132711069616
 30
0.0
 11
115.5587548640793
 21
196.1132711069613
 31
0.0
  0
LINE
  5
7C65
330
18
100
AcDbEntity
  8
本体外線
100
AcDbLine
 10
67.65875486407941
 20
193.6132711069616
 30
0.0
 11
67.65875486407935
 21
198.6132711069616
 31
0.0
  0
LINE
  5
7C66
330
18
100
AcDbEntity
  8
本体外線
 48
0.08
100
AcDbLine
 10
65.68931833951933
 20
198.6132711069616
 30
0.0
 11
67.65875486407935
 21
198.6132711069616
 31
0.0
  0
LINE
  5
7C67
330
18
100
AcDbEntity
  8
本体外線
 48
0.08
100
AcDbLine
 10
65.68931833951933
 20
193.6132711069616
 30
0.0
 11
67.65875486407935
 21
193.6132711069616
 31
0.0
  0
LINE
  5
7C68
330
18
100
AcDbEntity
  8
中心線
  6
CENTER
 48
0.15
100
AcDbLine
 10
76.55875486407939
 20
173.5966106085662
 30
0.0
 11
83.43375486407939
 21
185.5044599106022
 31
0.0
  0
LINE
  5
7C69
330
18
100
AcDbEntity
  8
本体外線
100
AcDbLine
 10
102.6738183735404
 20
178.3973147640824
 30
0.0
 11
98.34369135461821
 21
175.8973147640825
 31
0.0
  0
LINE
  5
7C6A
330
18
100
AcDbEntity
  8
本体外線
 48
0.08
100
AcDbLine
 10
99.32840961689828
 20
174.1917327026725
 30
0.0
 11
98.34369135461827
 21
175.8973147640825
 31
0.0
  0
LINE
  5
7C6B
330
18
100
AcDbEntity
  8
本体外線
 48
0.08
100
AcDbLine
 10
103.6585366358204
 20
176.6917327026725
 30
0.0
 11
102.6738183735404
 21
178.3973147640824
 31
0.0
  0
ARC
  5
7C6C
330
18
100
AcDbEntity
  8
本体外線
100
AcDbCircle
 10
89.55875486407933
 20
196.1132711069616
 30
0.0
 40
24.0
100
AcDbArc
 50
185.9791567963012
 51
294.0208432036988
  0
ARC
  5
7C6D
330
18
100
AcDbEntity
  8
本体外線
100
AcDbCircle
 10
89.55875486407933
 20
196.1132711069616
 30
0.0
 40
24.0
100
AcDbArc
 50
305.9791567963013
 51
54.02084320369866
  0
LINE
  5
7C6F
102
{ACAD_REACTORS
330
7EA0
102
}
330
18
100
AcDbEntity
  8
本体外線
100
AcDbLine
 10
69.05875486407945
 20
100.3961367535432
 30
0.0
 11
110.0587548640794
 21
100.3961367535433
 31
0.0
  0
LINE
  5
7C70
330
18
100
AcDbEntity
  8
本体外線
100
AcDbLine
 10
65.55875486407945
 20
116.3961367535432
 30
0.0
 11
65.55875486407945
 21
106.4583145800343
 31
0.0
  0
LINE
  5
7C71
102
{ACAD_REACTORS
330
7EA0
102
}
330
18
100
AcDbEntity
  8
本体外線
100
AcDbLine
 10
113.5587548640794
 20
116.3961367535433
 30
0.0
 11
113.5587548640794
 21
106.4583145800343
 31
0.0
  0
LINE
  5
7C72
102
{ACAD_REACTORS
330
7EA0
102
}
330
18
100
AcDbEntity
  8
本体外線
100
AcDbLine
 10
68.05875486407939
 20
118.3961367535433
 30
0.0
 11
111.0587548640794
 21
118.3961367535432
 31
0.0
  0
LINE
  5
7C73
102
{ACAD_REACTORS
330
7EA0
102
}
330
18
100
AcDbEntity
  8
本体外線
100
AcDbLine
 10
68.05875486407939
 20
118.3961367535432
 30
0.0
 11
68.05875486407939
 21
117.8961367535432
 31
0.0
  0
LINE
  5
7C74
102
{ACAD_REACTORS
330
7EA0
102
}
330
18
100
AcDbEntity
  8
0
100
AcDbLine
 10
74.55875486407944
 20
116.7961367535433
 30
0.0
 11
74.55875486407944
 21
100.9961367535432
 31
0.0
  0
LINE
  5
7C75
102
{ACAD_REACTORS
330
7EA0
102
}
330
18
100
AcDbEntity
  8
本体外線
100
AcDbLine
 10
75.30875486407945
 20
115.8961367535433
 30
0.0
 11
75.30875486407939
 21
101.8961367535432
 31
0.0
  0
LINE
  5
7C76
102
{ACAD_REACTORS
330
7CBA
330
7EA0
102
}
330
18
100
AcDbEntity
  8
本体外線
100
AcDbLine
 10
103.8087548640794
 20
115.8961367535432
 30
0.0
 11
103.8087548640794
 21
101.8961367535432
 31
0.0
  0
LINE
  5
7C77
102
{ACAD_REACTORS
330
7EA0
102
}
330
18
100
AcDbEntity
  8
0
100
AcDbLine
 10
104.5587548640794
 20
116.7961367535432
 30
0.0
 11
104.5587548640794
 21
111.0160303498038
 31
0.0
  0
LINE
  5
7C78
102
{ACAD_REACTORS
330
7EA0
102
}
330
18
100
AcDbEntity
  8
本体外線
100
AcDbLine
 10
111.0587548640794
 20
118.3961367535432
 30
0.0
 11
111.0587548640794
 21
117.8961367535433
 31
0.0
  0
LINE
  5
7C79
102
{ACAD_REACTORS
330
7EA0
102
}
330
18
100
AcDbEntity
  8
本体外線
100
AcDbLine
 10
67.05875486407944
 20
117.8961367535432
 30
0.0
 11
68.05875486407939
 21
117.8961367535432
 31
0.0
  0
LINE
  5
7C7A
102
{ACAD_REACTORS
330
7EA0
102
}
330
18
100
AcDbEntity
  8
本体外線
100
AcDbLine
 10
111.0587548640794
 20
117.8961367535433
 30
0.0
 11
112.0587548640794
 21
117.8961367535433
 31
0.0
  0
ARC
  5
7C7B
330
18
100
AcDbEntity
  8
本体外線
100
AcDbCircle
 10
67.05875486407944
 20
116.3961367535432
 30
0.0
 40
1.5
100
AcDbArc
 50
90.0
 51
179.9999999999999
  0
ARC
  5
7C7C
102
{ACAD_REACTORS
330
7EA0
102
}
330
18
100
AcDbEntity
  8
本体外線
100
AcDbCircle
 10
112.0587548640794
 20
116.3961367535433
 30
0.0
 40
1.5
100
AcDbArc
 50
360.0
 51
89.99999999999934
  0
LINE
  5
7C7D
102
{ACAD_REACTORS
330
7EA0
102
}
330
18
100
AcDbEntity
  8
本体外線
100
AcDbLine
 10
75.30875486407939
 20
101.8961367535432
 30
0.0
 11
74.05875486407945
 21
100.3961367535432
 31
0.0
  0
LINE
  5
7C7E
102
{ACAD_REACTORS
330
7EA0
102
}
330
18
100
AcDbEntity
  8
本体外線
100
AcDbLine
 10
103.8087548640794
 20
101.8961367535432
 30
0.0
 11
105.0587548640794
 21
100.3961367535432
 31
0.0
  0
LINE
  5
7C7F
330
18
100
AcDbEntity
  8
本体外線
100
AcDbLine
 10
75.30875486407939
 20
101.8961367535432
 30
0.0
 11
103.8087548640794
 21
101.8961367535432
 31
0.0
  0
POINT
  5
7C82
330
18
100
AcDbEntity
  8
本体外線
100
AcDbPoint
 10
111.0587548640794
 20
118.3961367535432
 30
0.0
  0
POINT
  5
7C90
330
18
100
AcDbEntity
  8
本体外線
100
AcDbPoint
 10
109.869653695121
 20
118.3961367535432
 30
0.0
  0
LINE
  5
7C95
102
{ACAD_REACTORS
330
7EA0
102
}
330
18
100
AcDbEntity
  8
本体外線
100
AcDbLine
 10
67.65875486407935
 20
117.8961367535432
 30
0.0
 11
67.65875486407935
 21
102.8210078841397
 31
0.0
  0
LINE
  5
7C96
330
18
100
AcDbEntity
  8
本体外線
100
AcDbLine
 10
74.55875486407944
 20
116.6334717355673
 30
0.0
 11
74.5650873730674
 21
116.6398042445553
 31
0.0
  0
LINE
  5
7C97
102
{ACAD_REACTORS
330
7EA0
102
}
330
18
100
AcDbEntity
  8
0
100
AcDbLine
 10
109.5894833609766
 20
101.183334667625
 30
0.0
 11
112.5928838392278
 21
106.385376891433
 31
0.0
  0
LINE
  5
7C98
330
18
100
AcDbEntity
  8
本体内線
  6
HIDDEN
 48
0.1
100
AcDbLine
 10
110.6931177883999
 20
105.0420379737126
 30
0.0
 11
109.8063664424523
 21
104.5300718454253
 31
0.0
  0
LINE
  5
7C99
330
18
100
AcDbEntity
  8
本体内線
  6
HIDDEN
 48
0.1
100
AcDbLine
 10
109.8063664424522
 20
104.530071845425
 30
0.0
 11
109.806366442452
 21
103.50613958885
 31
0.0
  0
LINE
  5
7C9B
330
18
100
AcDbEntity
  8
0
100
AcDbLine
 10
107.7482253513226
 20
106.8651876286632
 30
0.0
 11
110.4802761588914
 21
107.597238436232
 31
0.0
  0
LINE
  5
7C9C
330
18
100
AcDbEntity
  8
0
100
AcDbLine
 10
106.7482253513227
 20
105.1331368210943
 30
0.0
 11
107.4802761588915
 21
102.4010860135255
 31
0.0
  0
LINE
  5
7C9D
330
18
100
AcDbEntity
  8
0
100
AcDbLine
 10
110.4802761588914
 20
107.597238436232
 30
0.0
 11
107.4802761588915
 21
102.4010860135254
 31
0.0
  0
LINE
  5
7C9E
330
18
100
AcDbEntity
  8
0
100
AcDbLine
 10
112.5894833609767
 20
104.7794870903318
 30
0.0
 11
108.587455835863
 21
107.0900587592605
 31
0.0
  0
LINE
  5
7C9F
102
{ACAD_REACTORS
330
7EA0
102
}
330
18
100
AcDbEntity
  8
0
100
AcDbLine
 10
110.9751240070317
 20
101.9833346676249
 30
0.0
 11
106.9730964819191
 21
104.293906336553
 31
0.0
  0
LINE
  5
7CA0
102
{ACAD_REACTORS
330
7CBA
102
}
330
18
100
AcDbEntity
  8
0
100
AcDbLine
 10
108.4982253513229
 20
108.1642257343396
 30
0.0
 11
105.9982253513229
 21
103.8340987154175
 31
0.0
  0
LINE
  5
7CA2
102
{ACAD_REACTORS
330
7CBA
102
}
330
18
100
AcDbEntity
  8
中心線
  6
CENTER
 48
0.15
100
AcDbLine
 10
112.6889476488581
 20
102.9272417741132
 30
0.0
 11
102.9882939258708
 21
108.437592113029
 31
0.0
  0
LINE
  5
7CA4
330
18
100
AcDbEntity
  8
本体外線
100
AcDbLine
 10
74.05875486407945
 20
117.3961367535433
 30
0.0
 11
105.0587548640794
 21
117.3961367535432
 31
0.0
  0
LWPOLYLINE
  5
7CA5
102
{ACAD_REACTORS
330
7EA0
102
}
330
18
100
AcDbEntity
  8
本体外線
100
AcDbPolyline
 90
        2
 70
     0
 43
0.0
 10
110.0587548640794
 20
100.3961367535433
 10
113.5587548640794
 20
106.4583145800343
  0
LINE
  5
7CA6
102
{ACAD_REACTORS
330
7CBA
102
}
330
18
100
AcDbEntity
  8
0
100
AcDbLine
 10
108.4982253513229
 20
108.1642257343396
 30
0.0
 11
103.8087548640795
 21
110.8716927825065
 31
0.0
  0
LINE
  5
7CA7
102
{ACAD_REACTORS
330
7CBA
102
}
330
18
100
AcDbEntity
  8
0
100
AcDbLine
 10
105.998225351323
 20
103.8340987154175
 30
0.0
 11
103.8087548640794
 21
105.0981900906103
 31
0.0
  0
LINE
  5
7CA8
102
{ACAD_REACTORS
330
7EA0
102
}
330
18
100
AcDbEntity
  8
0
100
AcDbLine
 10
109.5894833609766
 20
101.183334667625
 30
0.0
 11
103.8087548640794
 21
104.5208398214206
 31
0.0
  0
LINE
  5
7CA9
102
{ACAD_REACTORS
330
7EA0
102
}
330
18
100
AcDbEntity
  8
0
100
AcDbLine
 10
112.5894833609765
 20
106.3794870903315
 30
0.0
 11
103.8087548640794
 21
111.449043051696
 31
0.0
  0
LINE
  5
7CAA
102
{ACAD_REACTORS
330
7EA0
102
}
330
18
100
AcDbEntity
  8
0
100
AcDbLine
 10
112.5928838392278
 20
104.7853768914334
 30
0.0
 11
112.5928838392278
 21
106.385376891433
 31
0.0
  0
LINE
  5
7CAB
102
{ACAD_REACTORS
330
7EA0
102
}
330
18
100
AcDbEntity
  8
0
100
AcDbLine
 10
110.9785244852829
 20
101.9892244687265
 30
0.0
 11
109.5928838392279
 21
101.1892244687264
 31
0.0
  0
LINE
  5
7CAC
330
18
100
AcDbEntity
  8
本体内線
  6
HIDDEN
 48
0.1
100
AcDbLine
 10
112.2290798352294
 20
104.1552498725105
 30
0.0
 11
110.6931177883999
 21
105.0420379737126
 31
0.0
  0
LINE
  5
7CAD
330
18
100
AcDbEntity
  8
本体内線
  6
HIDDEN
 48
0.1
100
AcDbLine
 10
111.3423284892814
 20
102.619351487648
 30
0.0
 11
109.8063664424521
 21
103.5061395888501
 31
0.0
  0
LINE
  5
7CAE
102
{ACAD_REACTORS
330
7EA0
102
}
330
18
100
AcDbEntity
  8
本体外線
100
AcDbLine
 10
75.30875486407945
 20
115.8961367535433
 30
0.0
 11
74.05875486407945
 21
117.3961367535433
 31
0.0
  0
LINE
  5
7CAF
102
{ACAD_REACTORS
330
7EA0
102
}
330
18
100
AcDbEntity
  8
本体外線
100
AcDbLine
 10
103.8087548640794
 20
115.8961367535432
 30
0.0
 11
105.0587548640794
 21
117.3961367535432
 31
0.0
  0
LINE
  5
7CB0
330
18
100
AcDbEntity
  8
本体外線
100
AcDbLine
 10
75.30875486407945
 20
115.8961367535433
 30
0.0
 11
103.8087548640794
 21
115.8961367535432
 31
0.0
  0
LWPOLYLINE
  5
7CB1
102
{ACAD_REACTORS
330
7EA0
102
}
330
18
100
AcDbEntity
  8
本体外線
100
AcDbPolyline
 90
        2
 70
     0
 43
0.0
 10
69.05875486407945
 20
100.3961367535433
 10
65.55875486407945
 20
106.4583145800343
  0
LINE
  5
7CB9
102
{ACAD_REACTORS
330
7EA0
102
}
330
18
100
AcDbEntity
  8
0
100
AcDbLine
 10
104.5587548640794
 20
104.0878271195285
 30
0.0
 11
104.5587548640793
 21
100.9961367535433
 31
0.0
  0
HATCH
  5
7CBA
330
18
100
AcDbEntity
  8
0
100
AcDbHatch
 10
0.0
 20
0.0
 30
0.0
210
0.0
220
0.0
230
1.0
  2
AR-SAND
 70
     0
 71
     1
 91
        2
 92
        7
 72
     0
 73
     1
 93
        4
 10
103.8087548640794
 20
110.8716927825065
 10
103.8087548640794
 20
107.97153824305
 10
107.256321728112
 20
106.0131855608344
 10
108.4982253513229
 20
108.1642257343396
 97
        4
330
7C76
330
7CA2
330
7CA0
330
7CA6
 92
        7
 72
     0
 73
     1
 93
        4
 10
105.9982253513229
 20
103.8340987154175
 10
107.2563217281119
 20
106.0131855608344
 10
103.8087548640794
 20
107.97153824305
 10
103.8087548640794
 20
105.0981900906103
 97
        4
330
7CA2
330
7C76
330
7CA7
330
7CA0
 75
     0
 76
     1
 52
0.0
 41
0.05
 77
     0
 78
     4
 53
37.5
 43
-17.55060417621306
 44
-3.363258214664142
 45
-0.0800015647992023
 46
2.447066186646711
 79
     6
 49
0.0
 49
-1.9304
 49
0.0
 49
-2.159
 49
0.0
 49
-2.06375
 53
7.499999999999999
 43
-17.55060417621306
 44
-3.363258214664142
 45
2.247616415690013
 46
3.584125502841771
 79
     6
 49
0.0
 49
-1.0414
 49
0.0
 49
-1.7399
 49
0.0
 49
-0.6667500000000001
 53
327.5
 43
-19.11270417621307
 44
-3.363258214664142
 45
3.95496185120729
 46
0.0071859233927285
 79
     6
 49
0.0
 49
-0.635
 49
0.0
 49
-2.286
 49
0.0
 49
-2.9845
 53
317.5
 43
-19.11270417621307
 44
-3.363258214664142
 45
3.817782262361486
 46
1.114646616286081
 79
     6
 49
0.0
 49
-0.3175
 49
0.0
 49
-1.498599999999999
 49
0.0
 49
-1.7145
 47
0.047794592466814
 98
        2
 10
105.883030799624
 20
108.9415889022356
 10
105.3566914139219
 20
105.6437619751069
  0
LINE
  5
7DEA
330
18
100
AcDbEntity
  8
本体内線
  6
HIDDEN
 48
0.2
100
AcDbLine
 10
103.4893865798344
 20
199.1132711069615
 30
0.0
 11
113.3705166636607
 21
199.1132711069616
 31
0.0
  0
LINE
  5
7DEB
330
18
100
AcDbEntity
  8
本体内線
  6
HIDDEN
 48
0.2
100
AcDbLine
 10
103.4893865798343
 20
193.1132711069615
 30
0.0
 11
113.3705166636606
 21
193.1132711069615
 31
0.0
  0
LINE
  5
7DEC
330
18
100
AcDbEntity
  8
本体内線
  6
HIDDEN
 48
0.2
100
AcDbLine
 10
80.3791974313192
 20
207.0127309714986
 30
0.0
 11
75.45897309233817
 21
215.5348095112506
 31
0.0
  0
LINE
  5
7DED
330
18
100
AcDbEntity
  8
本体内線
  6
HIDDEN
 48
0.2
100
AcDbLine
 10
84.70932445024136
 20
209.5127309714986
 30
0.0
 11
79.78910011126038
 21
218.0348095112506
 31
0.0
  0
LINE
  5
7DEE
330
18
100
AcDbEntity
  8
本体内線
  6
HIDDEN
 48
0.2
100
AcDbLine
 10
79.99536279484857
 20
206.6775520635705
 30
0.0
 11
75.05479775293537
 21
215.2348617342627
 31
0.0
  0
LINE
  5
7DEF
330
18
100
AcDbEntity
  8
本体内線
  6
HIDDEN
 48
0.2
100
AcDbLine
 10
85.19151521755521
 20
209.6775520635705
 30
0.0
 11
80.25095017564206
 21
218.2348617342626
 31
0.0
  0
LINE
  5
7DF0
330
18
100
AcDbEntity
  8
本体内線
  6
HIDDEN
 48
0.2
100
AcDbLine
 10
84.70932445024146
 20
182.7138112424242
 30
0.0
 11
79.7891001112605
 21
174.1917327026722
 31
0.0
  0
LINE
  5
7DF1
330
18
100
AcDbEntity
  8
本体内線
  6
HIDDEN
 48
0.2
100
AcDbLine
 10
80.37919743131926
 20
185.2138112424242
 30
0.0
 11
75.45897309233828
 21
176.6917327026722
 31
0.0
  0
LINE
  5
7DF2
330
18
100
AcDbEntity
  8
本体内線
  6
HIDDEN
 48
0.2
100
AcDbLine
 10
85.19151521755526
 20
182.5489901503523
 30
0.0
 11
80.25095017564217
 21
173.9916804796601
 31
0.0
  0
LINE
  5
7DF3
330
18
100
AcDbEntity
  8
本体内線
  6
HIDDEN
 48
0.2
100
AcDbLine
 10
79.99536279484863
 20
185.5489901503524
 30
0.0
 11
75.05479775293554
 21
176.9916804796602
 31
0.0
  0
LINE
  5
7E14
102
{ACAD_REACTORS
330
7EA0
102
}
330
18
100
AcDbEntity
  8
本体外線
100
AcDbLine
 10
74.05875486407945
 20
118.3961367535433
 30
0.0
 11
74.05875486407945
 21
117.3961367535433
 31
0.0
  0
LINE
  5
7E15
102
{ACAD_REACTORS
330
7EA0
102
}
330
18
100
AcDbEntity
  8
本体外線
100
AcDbLine
 10
105.0587548640794
 20
118.3961367535432
 30
0.0
 11
105.0587548640794
 21
117.3961367535432
 31
0.0
  0
HATCH
  5
7EA0
330
18
100
AcDbEntity
  8
剖面線
100
AcDbHatch
 10
0.0
 20
0.0
 30
0.0
210
0.0
220
0.0
230
1.0
  2
ANSI31
 70
     0
 71
     1
 91
        6
 92
        7
 72
     0
 73
     1
 93
       10
 10
67.65875486407935
 20
102.8210078841398
 10
69.05875486407947
 20
100.3961367535432
 10
74.05875486407943
 20
100.3961367535433
 10
74.55875486407944
 20
100.9961367535433
 10
74.55875486407943
 20
116.7961367535433
 10
74.05875486407945
 20
117.3961367535433
 10
74.05875486407945
 20
118.3961367535433
 10
68.05875486407939
 20
118.3961367535433
 10
68.05875486407939
 20
117.8961367535432
 10
67.65875486407935
 20
117.8961367535432
 97
       10
330
7CAE
330
7E14
330
7C72
330
7C73
330
7C79
330
7C95
330
7CB1
330
7C6F
330
7C7D
330
7C74
 92
        7
 72
     0
 73
     1
 93
        4
 10
75.30875486407945
 20
115.8961367535433
 10
74.55875486407944
 20
116.7961367535433
 10
74.55875486407944
 20
100.9961367535432
 10
75.30875486407939
 20
101.8961367535432
 97
        4
330
7CAE
330
7C74
330
7C7D
330
7C75
 92
        7
 72
     1
 73
     1
 93
       12
 10
113.5587548640794
 20
116.3961367535433
 42
0.4142135623730946
 10
112.0587548640794
 20
117.8961367535433
 42
0.0
 10
111.0587548640794
 20
117.8961367535433
 42
0.0
 10
111.0587548640794
 20
118.3961367535432
 42
0.0
 10
105.0587548640794
 20
118.3961367535433
 42
0.0
 10
105.0587548640794
 20
117.3961367535432
 42
0.0
 10
104.5587548640794
 20
116.7961367535433
 42
0.0
 10
104.5587548640794
 20
111.0160303498039
 42
0.0
 10
112.5894833609764
 20
106.3794870903315
 42
0.0
 10
112.5928838392278
 20
106.3853768914329
 42
0.0
 10
112.5928838392278
 20
104.7853768914327
 42
0.0
 10
113.5587548640794
 20
106.4583145800343
 42
0.0
 97
       12
330
7C7C
330
7C7A
330
7C78
330
7C72
330
7E15
330
7CAF
330
7C77
330
7CA9
330
7C97
330
7CAA
330
7CA5
330
7C71
 92
        7
 72
     0
 73
     1
 93
        8
 10
110.0587548640794
 20
100.3961367535433
 10
110.9751240070317
 20
101.9833346676249
 10
110.9717235287801
 20
101.9852979346588
 10
109.592883839228
 20
101.1892244687264
 10
109.5894833609766
 20
101.183334667625
 10
104.5587548640794
 20
104.0878271195285
 10
104.5587548640793
 20
100.9961367535433
 10
105.0587548640794
 20
100.3961367535433
 97
        8
330
7CB9
330
7C7E
330
7C6F
330
7CA5
330
7C9F
330
7CAB
330
7C97
330
7CA8
 92
        7
 72
     0
 73
     1
 93
        4
 10
104.5587548640794
 20
104.0878271195285
 10
103.8087548640794
 20
104.5208398214206
 10
103.8087548640793
 20
101.8961367535432
 10
104.5587548640793
 20
100.9961367535433
 97
        4
330
7CA8
330
7C76
330
7C7E
330
7CB9
 92
        7
 72
     0
 73
     1
 93
        4
 10
103.8087548640794
 20
111.4490430516961
 10
104.5587548640794
 20
111.0160303498039
 10
104.5587548640794
 20
116.7961367535433
 10
103.8087548640794
 20
115.8961367535432
 97
        4
330
7CAF
330
7C76
330
7CA9
330
7C77
 75
     0
 76
     1
 52
0.0
 41
0.5
 77
     0
 78
     1
 53
45.0
 43
-196.5772672039686
 44
0.0
 45
-1.122532015133643
 46
1.122532015133644
 79
     0
 47
0.0695734211539616
 98
        6
 10
69.70677696901361
 20
109.5444623920822
 10
75.06822638378867
 20
110.0314765421674
 10
110.0220903153547
 20
113.3014270937235
 10
106.4013714468999
 20
101.6130923886651
 10
104.2428651878106
 20
102.5175471388847
 10
104.1732362999034
 20
114.1363082939925
  0
MTEXT
  5
7F36
330
18
100
AcDbEntity
  8
0
100
AcDbMText
 10
49.81948278949767
 20
19.37399834316262
 30
0.0
 40
5.0
 41
0.0
 71
     1
 72
     5
  1
\Ftxt.shx,bigfont.shx|c128;小柳
  7
JL
 73
     1
 44
1.0
  0
ENDSEC
  0
SECTION
  2
OBJECTS
  0
DICTIONARY
  5
C
330
0
100
AcDbDictionary
281
     1
  3
ACAD_COLOR
350
7F3A
  3
ACAD_GROUP
350
D
  3
ACAD_LAYOUT
350
5CF3
  3
ACAD_MATERIAL
350
7F39
  3
ACAD_MLINESTYLE
350
1B
  3
ACAD_PLOTSETTINGS
350
5CF4
  3
ACAD_PLOTSTYLENAME
350
5CF1
  3
ACAD_TABLESTYLE
350
7F3B
  3
ACDBVARIABLEDICTIONARY
350
45D
  0
DICTIONARY
  5
45F
330
18
100
AcDbDictionary
280
     1
281
     1
  3
ACAD_LAYOUTSELFREF
360
5D8B
  3
ACAD_SORTENTS
360
460
  0
DICTIONARY
  5
5D89
330
15
100
AcDbDictionary
280
     1
281
     1
  3
ACAD_LAYOUTSELFREF
360
5D8A
  0
DICTIONARY
  5
7F3A
102
{ACAD_REACTORS
330
C
102
}
330
C
100
AcDbDictionary
281
     1
  0
DICTIONARY
  5
D
102
{ACAD_REACTORS
330
C
102
}
330
C
100
AcDbDictionary
281
     1
  0
DICTIONARY
  5
5CF3
102
{ACAD_REACTORS
330
C
102
}
330
C
100
AcDbDictionary
281
     1
  3
Model
350
5CF5
  3
配置1
350
5CF6
  0
DICTIONARY
  5
7F39
102
{ACAD_REACTORS
330
C
102
}
330
C
100
AcDbDictionary
281
     1
  0
DICTIONARY
  5
1B
102
{ACAD_REACTORS
330
C
102
}
330
C
100
AcDbDictionary
281
     1
  3
STANDARD
350
1C
  0
DICTIONARY
  5
5CF4
102
{ACAD_REACTORS
330
C
102
}
330
C
100
AcDbDictionary
281
     1
  0
ACDBDICTIONARYWDFLT
  5
5CF1
102
{ACAD_REACTORS
330
C
102
}
330
C
100
AcDbDictionary
281
     1
  3
Normal
350
5CF2
100
AcDbDictionaryWithDefault
340
5CF2
  0
DICTIONARY
  5
7F3B
102
{ACAD_REACTORS
330
C
102
}
330
C
100
AcDbDictionary
281
     1
  3
Standard
350
7F3C
  0
DICTIONARY
  5
45D
102
{ACAD_REACTORS
330
C
102
}
330
C
100
AcDbDictionary
281
     1
  3
CTABLESTYLE
350
7F44
  3
SORTENTS
350
45E
  0
XRECORD
  5
5D8B
102
{ACAD_REACTORS
330
45F
102
}
330
45F
100
AcDbXrecord
280
     1
340
18
  0
SORTENTSTABLE
  5
460
102
{ACAD_REACTORS
330
45F
102
}
330
45F
100
AcDbSortentsTable
330
18
331
C0
  5
CB
  0
XRECORD
  5
5D8A
102
{ACAD_REACTORS
330
5D89
102
}
330
5D89
100
AcDbXrecord
280
     1
340
15
  0
LAYOUT
  5
5CF5
102
{ACAD_REACTORS
330
5CF3
102
}
330
5CF3
100
AcDbPlotSettings
  1

  2
EPSON STYLUS COLOR 440
  4

  6

 40
0.0
 41
0.0
 42
0.0
 43
0.0
 44
0.0
 45
0.0
 46
0.0
 47
0.0
 48
0.0
 49
0.0
140
0.0
141
0.0
142
1.0
143
1.0
 70
  1712
 72
     0
 73
     0
 74
     0
  7
a.ctb
 75
     0
147
1.0
 76
     0
 77
     2
 78
   300
148
0.0
149
0.0
100
AcDbLayout
  1
Model
 70
     1
 71
     0
 10
0.0
 20
0.0
 11
12.0
 21
9.0
 12
0.0
 22
0.0
 32
0.0
 14
0.0
 24
0.0
 34
0.0
 15
0.0
 25
0.0
 35
0.0
146
0.0
 13
0.0
 23
0.0
 33
0.0
 16
1.0
 26
0.0
 36
0.0
 17
0.0
 27
1.0
 37
0.0
 76
     0
330
18
  0
LAYOUT
  5
5CF6
102
{ACAD_REACTORS
330
5CF3
102
}
330
5CF3
100
AcDbPlotSettings
  1

  2
EPSON STYLUS COLOR 440
  4

  6

 40
0.0
 41
0.0
 42
0.0
 43
0.0
 44
0.0
 45
0.0
 46
0.0
 47
0.0
 48
0.0
 49
0.0
140
0.0
141
0.0
142
1.0
143
1.0
 70
   688
 72
     0
 73
     0
 74
     5
  7
a.ctb
 75
    16
147
1.0
 76
     0
 77
     2
 78
   300
148
0.0
149
0.0
100
AcDbLayout
  1
ｰtｸm1
 70
     1
 71
     1
 10
0.0
 20
0.0
 11
420.0
 21
297.0
 12
0.0
 22
0.0
 32
0.0
 14
1.000000000000000E+20
 24
1.000000000000000E+20
 34
1.000000000000000E+20
 15
-1.000000000000000E+20
 25
-1.000000000000000E+20
 35
-1.000000000000000E+20
146
0.0
 13
0.0
 23
0.0
 33
0.0
 16
1.0
 26
0.0
 36
0.0
 17
0.0
 27
1.0
 37
0.0
 76
     0
330
15
  0
MLINESTYLE
  5
1C
102
{ACAD_REACTORS
330
1B
102
}
330
1B
100
AcDbMlineStyle
  2
STANDARD
 70
     0
  3

 62
   256
 51
90.0
 52
90.0
 71
     2
 49
0.5
 62
   256
  6
BYLAYER
 49
-0.5
 62
   256
  6
BYLAYER
  0
ACDBPLACEHOLDER
  5
5CF2
102
{ACAD_REACTORS
330
5CF1
102
}
330
5CF1
  0
TABLESTYLE
  5
7F3C
102
{ACAD_REACTORS
330
7F3B
102
}
330
7F3B
100
AcDbTableStyle
  3
Standard
 70
     0
 71
     8
 40
1.5
 41
1.5
280
     0
281
     0
  7
STANDARD
140
4.5
170
     2
 62
     0
 63
     7
283
     0
274
    -2
284
     1
 64
     0
275
    -2
285
     1
 65
     0
276
    -2
286
     1
 66
     0
277
    -2
287
     1
 67
     0
278
    -2
288
     1
 68
     0
279
    -2
289
     1
 69
     0
  7
STANDARD
140
6.0
170
     5
 62
     0
 63
     7
283
     0
274
    -2
284
     1
 64
     0
275
    -2
285
     1
 65
     0
276
    -2
286
     1
 66
     0
277
    -2
287
     1
 67
     0
278
    -2
288
     1
 68
     0
279
    -2
289
     1
 69
     0
  7
STANDARD
140
4.5
170
     5
 62
     0
 63
     7
283
     0
274
    -2
284
     1
 64
     0
275
    -2
285
     1
 65
     0
276
    -2
286
     1
 66
     0
277
    -2
287
     1
 67
     0
278
    -2
288
     1
 68
     0
279
    -2
289
     1
 69
     0
  0
DICTIONARYVAR
  5
7F44
102
{ACAD_REACTORS
330
45D
102
}
330
45D
100
DictionaryVariables
280
     0
  1
STANDARD
  0
DICTIONARYVAR
  5
45E
102
{ACAD_REACTORS
330
45D
102
}
330
45D
100
DictionaryVariables
280
     0
  1
127
  0
ENDSEC
  0
EOF
