  0
SECTION
  2
HEADER
  9
$ACADVER
  1
AC1018
  9
$ACADMAINTVER
 70
    76
  9
$DWGCODEPAGE
  3
ANSI_932
  9
$INSBASE
 10
0.0
 20
0.0
 30
0.0
  9
$EXTMIN
 10
-0.0000000000002274
 20
-0.0000000000000568
 30
0.0
  9
$EXTMAX
 10
197.9999999999997
 20
290.0
 30
4.0
  9
$LIMMIN
 10
0.0
 20
0.0
  9
$LIMMAX
 10
420.0
 20
297.0
  9
$ORTHOMODE
 70
     0
  9
$REGENMODE
 70
     1
  9
$FILLMODE
 70
     1
  9
$QTEXTMODE
 70
     0
  9
$MIRRTEXT
 70
     1
  9
$LTSCALE
 40
1.0
  9
$ATTMODE
 70
     1
  9
$TEXTSIZE
 40
2.5
  9
$TRACEWID
 40
1.0
  9
$TEXTSTYLE
  7
TXT
  9
$CLAYER
  8
DIM
  9
$CELTYPE
  6
BYLAYER
  9
$CECOLOR
 62
   256
  9
$CELTSCALE
 40
1.0
  9
$DISPSILH
 70
     0
  9
$DIMSCALE
 40
1.0
  9
$DIMASZ
 40
2.5
  9
$DIMEXO
 40
1.0
  9
$DIMDLI
 40
6.0
  9
$DIMRND
 40
0.0
  9
$DIMDLE
 40
0.0
  9
$DIMEXE
 40
1.0
  9
$DIMTP
 40
0.0
  9
$DIMTM
 40
0.0
  9
$DIMTXT
 40
3.0
  9
$DIMCEN
 40
0.0
  9
$DIMTSZ
 40
0.0
  9
$DIMTOL
 70
     0
  9
$DIMLIM
 70
     0
  9
$DIMTIH
 70
     0
  9
$DIMTOH
 70
     0
  9
$DIMSE1
 70
     0
  9
$DIMSE2
 70
     0
  9
$DIMTAD
 70
     3
  9
$DIMZIN
 70
     8
  9
$DIMBLK
  1

  9
$DIMASO
 70
     1
  9
$DIMSHO
 70
     1
  9
$DIMPOST
  1

  9
$DIMAPOST
  1

  9
$DIMALT
 70
     0
  9
$DIMALTD
 70
     2
  9
$DIMALTF
 40
25.4
  9
$DIMLFAC
 40
1.0
  9
$DIMTOFL
 70
     0
  9
$DIMTVP
 40
0.0
  9
$DIMTIX
 70
     0
  9
$DIMSOXD
 70
     0
  9
$DIMSAH
 70
     0
  9
$DIMBLK1
  1

  9
$DIMBLK2
  1

  9
$DIMSTYLE
  2
A
  9
$DIMCLRD
 70
     6
  9
$DIMCLRE
 70
     6
  9
$DIMCLRT
 70
     3
  9
$DIMTFAC
 40
1.0
  9
$DIMGAP
 40
1.0
  9
$DIMJUST
 70
     0
  9
$DIMSD1
 70
     0
  9
$DIMSD2
 70
     0
  9
$DIMTOLJ
 70
     1
  9
$DIMTZIN
 70
     0
  9
$DIMALTZ
 70
     0
  9
$DIMALTTZ
 70
     0
  9
$DIMUPT
 70
     0
  9
$DIMDEC
 70
     1
  9
$DIMTDEC
 70
     1
  9
$DIMALTU
 70
     2
  9
$DIMALTTD
 70
     2
  9
$DIMTXSTY
  7
TXT
  9
$DIMAUNIT
 70
     0
  9
$DIMADEC
 70
     0
  9
$DIMALTRND
 40
0.0
  9
$DIMAZIN
 70
     0
  9
$DIMDSEP
 70
    46
  9
$DIMATFIT
 70
     3
  9
$DIMFRAC
 70
     0
  9
$DIMLDRBLK
  1

  9
$DIMLUNIT
 70
     2
  9
$DIMLWD
 70
    -2
  9
$DIMLWE
 70
    -2
  9
$DIMTMOVE
 70
     1
  9
$LUNITS
 70
     2
  9
$LUPREC
 70
     2
  9
$SKETCHINC
 40
1.0
  9
$FILLETRAD
 40
1.5
  9
$AUNITS
 70
     0
  9
$AUPREC
 70
     2
  9
$MENU
  1
.
  9
$ELEVATION
 40
0.0
  9
$PELEVATION
 40
0.0
  9
$THICKNESS
 40
0.0
  9
$LIMCHECK
 70
     0
  9
$CHAMFERA
 40
0.0
  9
$CHAMFERB
 40
0.0
  9
$CHAMFERC
 40
1.75
  9
$CHAMFERD
 40
0.0174532925199433
  9
$SKPOLY
 70
     0
  9
$TDCREATE
 40
2451555.578568171
  9
$TDUCREATE
 40
2451555.203568172
  9
$TDUPDATE
 40
2455846.596619734
  9
$TDUUPDATE
 40
2455846.221619734
  9
$TDINDWG
 40
2.6295091319
  9
$TDUSRTIMER
 40
2.6295091319
  9
$USRTIMER
 70
     1
  9
$ANGBASE
 50
0.0
  9
$ANGDIR
 70
     0
  9
$PDMODE
 70
     0
  9
$PDSIZE
 40
0.0
  9
$PLINEWID
 40
0.0
  9
$SPLFRAME
 70
     0
  9
$SPLINETYPE
 70
     6
  9
$SPLINESEGS
 70
     8
  9
$HANDSEED
  5
8650
  9
$SURFTAB1
 70
     6
  9
$SURFTAB2
 70
     6
  9
$SURFTYPE
 70
     6
  9
$SURFU
 70
     6
  9
$SURFV
 70
     6
  9
$UCSBASE
  2

  9
$UCSNAME
  2

  9
$UCSORG
 10
0.0
 20
0.0
 30
0.0
  9
$UCSXDIR
 10
1.0
 20
0.0
 30
0.0
  9
$UCSYDIR
 10
0.0
 20
1.0
 30
0.0
  9
$UCSORTHOREF
  2

  9
$UCSORTHOVIEW
 70
     0
  9
$UCSORGTOP
 10
0.0
 20
0.0
 30
0.0
  9
$UCSORGBOTTOM
 10
0.0
 20
0.0
 30
0.0
  9
$UCSORGLEFT
 10
0.0
 20
0.0
 30
0.0
  9
$UCSORGRIGHT
 10
0.0
 20
0.0
 30
0.0
  9
$UCSORGFRONT
 10
0.0
 20
0.0
 30
0.0
  9
$UCSORGBACK
 10
0.0
 20
0.0
 30
0.0
  9
$PUCSBASE
  2

  9
$PUCSNAME
  2

  9
$PUCSORG
 10
0.0
 20
0.0
 30
0.0
  9
$PUCSXDIR
 10
1.0
 20
0.0
 30
0.0
  9
$PUCSYDIR
 10
0.0
 20
1.0
 30
0.0
  9
$PUCSORTHOREF
  2

  9
$PUCSORTHOVIEW
 70
     0
  9
$PUCSORGTOP
 10
0.0
 20
0.0
 30
0.0
  9
$PUCSORGBOTTOM
 10
0.0
 20
0.0
 30
0.0
  9
$PUCSORGLEFT
 10
0.0
 20
0.0
 30
0.0
  9
$PUCSORGRIGHT
 10
0.0
 20
0.0
 30
0.0
  9
$PUCSORGFRONT
 10
0.0
 20
0.0
 30
0.0
  9
$PUCSORGBACK
 10
0.0
 20
0.0
 30
0.0
  9
$USERI1
 70
     0
  9
$USERI2
 70
     0
  9
$USERI3
 70
     0
  9
$USERI4
 70
     0
  9
$USERI5
 70
     0
  9
$USERR1
 40
0.0
  9
$USERR2
 40
0.0
  9
$USERR3
 40
0.0
  9
$USERR4
 40
0.0
  9
$USERR5
 40
0.0
  9
$WORLDVIEW
 70
     1
  9
$SHADEDGE
 70
     3
  9
$SHADEDIF
 70
    70
  9
$TILEMODE
 70
     1
  9
$MAXACTVP
 70
    48
  9
$PINSBASE
 10
0.0
 20
0.0
 30
0.0
  9
$PLIMCHECK
 70
     0
  9
$PEXTMIN
 10
1.000000000000000E+20
 20
1.000000000000000E+20
 30
1.000000000000000E+20
  9
$PEXTMAX
 10
-1.000000000000000E+20
 20
-1.000000000000000E+20
 30
-1.000000000000000E+20
  9
$PLIMMIN
 10
0.0
 20
0.0
  9
$PLIMMAX
 10
420.0
 20
297.0
  9
$UNITMODE
 70
     0
  9
$VISRETAIN
 70
     1
  9
$PLINEGEN
 70
     0
  9
$PSLTSCALE
 70
     1
  9
$TREEDEPTH
 70
  3020
  9
$CMLSTYLE
  2
STANDARD
  9
$CMLJUST
 70
     0
  9
$CMLSCALE
 40
20.0
  9
$PROXYGRAPHICS
 70
     1
  9
$MEASUREMENT
 70
     1
  9
$CELWEIGHT
370
    -1
  9
$ENDCAPS
280
     0
  9
$JOINSTYLE
280
     0
  9
$LWDISPLAY
290
     0
  9
$INSUNITS
 70
     0
  9
$HYPERLINKBASE
  1

  9
$STYLESHEET
  1

  9
$XEDIT
290
     1
  9
$CEPSNTYPE
380
     0
  9
$PSTYLEMODE
290
     1
  9
$FINGERPRINTGUID
  2
{1CF51E8A-A506-11D4-A7D9-AF69F5C20846}
  9
$VERSIONGUID
  2
{717541B8-DE1F-4888-9E69-61937EF9367E}
  9
$EXTNAMES
290
     1
  9
$PSVPSCALE
 40
0.0
  9
$OLESTARTUP
290
     0
  9
$SORTENTS
280
   127
  9
$INDEXCTL
280
     0
  9
$HIDETEXT
280
     0
  9
$XCLIPFRAME
290
     0
  9
$HALOGAP
280
     0
  9
$OBSCOLOR
 70
   257
  9
$OBSLTYPE
280
     0
  9
$INTERSECTIONDISPLAY
280
     0
  9
$INTERSECTIONCOLOR
 70
   257
  9
$DIMASSOC
280
     1
  9
$PROJECTNAME
  1

  0
ENDSEC
  0
SECTION
  2
CLASSES
  0
CLASS
  1
DICTIONARYVAR
  2
AcDbDictionaryVar
  3
ObjectDBX Classes
 90
        0
 91
        2
280
     0
281
     0
  0
CLASS
  1
SORTENTSTABLE
  2
AcDbSortentsTable
  3
ObjectDBX Classes
 90
        0
 91
        1
280
     0
281
     0
  0
CLASS
  1
ACDBDICTIONARYWDFLT
  2
AcDbDictionaryWithDefault
  3
ObjectDBX Classes
 90
        0
 91
        1
280
     0
281
     0
  0
CLASS
  1
TABLESTYLE
  2
AcDbTableStyle
  3
ObjectDBX Classes
 90
     2047
 91
        1
280
     0
281
     0
  0
ENDSEC
  0
SECTION
  2
TABLES
  0
TABLE
  2
VPORT
  5
8
330
0
100
AcDbSymbolTable
 70
     2
  0
VPORT
  5
864F
330
8
100
AcDbSymbolTableRecord
100
AcDbViewportTableRecord
  2
*Active
 70
     0
 10
0.0
 20
0.0
 11
1.0
 21
1.0
 12
251.3994903005252
 22
167.9040339486074
 13
0.0
 23
0.0
 14
10.0
 24
10.0
 15
10.0
 25
10.0
 16
0.0
 26
0.0
 36
1.0
 17
0.0
 27
0.0
 37
0.0
 40
261.6798192763985
 41
2.47104247104247
 42
50.0
 43
0.0
 44
0.0
 50
0.0
 51
0.0
 71
     0
 72
   100
 73
     1
 74
     1
 75
     0
 76
     0
 77
     0
 78
     0
281
     0
 65
     1
110
0.0
120
0.0
130
0.0
111
1.0
121
0.0
131
0.0
112
0.0
122
1.0
132
0.0
 79
     0
146
0.0
  0
ENDTAB
  0
TABLE
  2
LTYPE
  5
5
330
0
100
AcDbSymbolTable
 70
     7
  0
LTYPE
  5
12
330
5
100
AcDbSymbolTableRecord
100
AcDbLinetypeTableRecord
  2
BYBLOCK
 70
     0
  3

 72
    65
 73
     0
 40
0.0
  0
LTYPE
  5
13
330
5
100
AcDbSymbolTableRecord
100
AcDbLinetypeTableRecord
  2
BYLAYER
 70
     0
  3

 72
    65
 73
     0
 40
0.0
  0
LTYPE
  5
14
330
5
100
AcDbSymbolTableRecord
100
AcDbLinetypeTableRecord
  2
CONTINUOUS
 70
     0
  3
Solid line
 72
    65
 73
     0
 40
0.0
  0
LTYPE
  5
9D
330
5
100
AcDbSymbolTableRecord
100
AcDbLinetypeTableRecord
  2
CENTERX2
 70
     0
  3
Center (2x) ________  __  ________  __  _____
 72
    65
 73
     4
 40
101.6
 49
63.5
 74
     0
 49
-12.7
 74
     0
 49
12.7
 74
     0
 49
-12.7
 74
     0
  0
LTYPE
  5
A1
330
5
100
AcDbSymbolTableRecord
100
AcDbLinetypeTableRecord
  2
DASHED
 70
     0
  3
Dashed __ __ __ __ __ __ __ __ __ __ __ __ __ _
 72
    65
 73
     2
 40
19.05
 49
12.7
 74
     0
 49
-6.349999999999999
 74
     0
  0
LTYPE
  5
A2
330
5
100
AcDbSymbolTableRecord
100
AcDbLinetypeTableRecord
  2
DASHED2
 70
     0
  3
Dashed (.5x) _ _ _ _ _ _ _ _ _ _ _ _ _ _ _ _ _
 72
    65
 73
     2
 40
9.524999999999998
 49
6.349999999999999
 74
     0
 49
-3.174999999999999
 74
     0
  0
LTYPE
  5
A5
330
5
100
AcDbSymbolTableRecord
100
AcDbLinetypeTableRecord
  2
DIVIDE2
 70
     0
  3
Divide (.5x) __..__..__..__..__..__..__..__.._
 72
    65
 73
     6
 40
15.875
 49
6.349999999999999
 74
     0
 49
-3.174999999999999
 74
     0
 49
0.0
 74
     0
 49
-3.174999999999999
 74
     0
 49
0.0
 74
     0
 49
-3.174999999999999
 74
     0
  0
LTYPE
  5
650B
330
5
100
AcDbSymbolTableRecord
100
AcDbLinetypeTableRecord
  2
CENTER
 70
     0
  3
Center ____ _ ____ _ ____ _ ____ _ ____ _ ____
 72
    65
 73
     4
 40
50.8
 49
31.75
 74
     0
 49
-6.349999999999999
 74
     0
 49
6.349999999999999
 74
     0
 49
-6.349999999999999
 74
     0
  0
LTYPE
  5
650C
330
5
100
AcDbSymbolTableRecord
100
AcDbLinetypeTableRecord
  2
HIDDEN
 70
     0
  3
Hidden __ __ __ __ __ __ __ __ __ __ __ __ __ _
 72
    65
 73
     2
 40
9.524999999999998
 49
6.349999999999999
 74
     0
 49
-3.174999999999999
 74
     0
  0
ENDTAB
  0
TABLE
  2
LAYER
  5
2
330
0
100
AcDbSymbolTable
 70
     9
  0
LAYER
  5
E
330
2
100
AcDbSymbolTableRecord
100
AcDbLayerTableRecord
  2
0
 70
     0
 62
     7
  6
CONTINUOUS
370
    -3
390
5CF2
  0
LAYER
  5
B9
330
2
100
AcDbSymbolTableRecord
100
AcDbLayerTableRecord
  2
DIM
 70
     0
 62
     3
  6
CONTINUOUS
370
    -3
390
5CF2
  0
LAYER
  5
F2
330
2
100
AcDbSymbolTableRecord
100
AcDbLayerTableRecord
  2
DEFPOINTS
 70
     0
 62
     4
  6
CONTINUOUS
290
     0
370
    -3
390
5CF2
  0
LAYER
  5
5F8B
330
2
100
AcDbSymbolTableRecord
100
AcDbLayerTableRecord
  2
公差
 70
     0
 62
     6
  6
CONTINUOUS
370
    -3
390
5CF2
  0
LAYER
  5
644E
330
2
100
AcDbSymbolTableRecord
100
AcDbLayerTableRecord
  2
図框線
 70
     0
 62
     9
  6
CONTINUOUS
370
    -3
390
5CF2
  0
LAYER
  5
650D
330
2
100
AcDbSymbolTableRecord
100
AcDbLayerTableRecord
  2
中心線
 70
     0
 62
     1
  6
CENTER
370
    -3
390
5CF2
  0
LAYER
  5
650E
330
2
100
AcDbSymbolTableRecord
100
AcDbLayerTableRecord
  2
本体内線
 70
     0
 62
     4
  6
HIDDEN
370
    -3
390
5CF2
  0
LAYER
  5
650F
330
2
100
AcDbSymbolTableRecord
100
AcDbLayerTableRecord
  2
本体外線
 70
     0
 62
     2
  6
CONTINUOUS
370
    -3
390
5CF2
  0
LAYER
  5
6510
330
2
100
AcDbSymbolTableRecord
100
AcDbLayerTableRecord
  2
剖面線
 70
     0
 62
     5
  6
CONTINUOUS
370
    -3
390
5CF2
  0
ENDTAB
  0
TABLE
  2
STYLE
  5
3
330
0
100
AcDbSymbolTable
 70
     5
  0
STYLE
  5
F
330
3
100
AcDbSymbolTableRecord
100
AcDbTextStyleTableRecord
  2
STANDARD
 70
     0
 40
0.0
 41
1.0
 50
0.0
 71
     0
 42
2.5
  3
txt
  4

  0
STYLE
  5
BE
330
3
100
AcDbSymbolTableRecord
100
AcDbTextStyleTableRecord
  2
ISOCP3
 70
     0
 40
0.0
 41
1.0
 50
0.0
 71
     0
 42
2.5
  3
isocp3.shx
  4

  0
STYLE
  5
2A37
330
3
100
AcDbSymbolTableRecord
100
AcDbTextStyleTableRecord
  2
TXT
 70
     0
 40
0.0
 41
1.0
 50
0.0
 71
     0
 42
2.5
  3
txt.shx
  4
bigfont.shx
  0
STYLE
  5
5DCB
330
3
100
AcDbSymbolTableRecord
100
AcDbTextStyleTableRecord
  2
LKK
 70
     0
 40
50.0
 41
1.5
 50
0.0
 71
     0
 42
50.0
  3
MS PGothic.ttf
  4

1001
ACAD
1000
MS PGothic
1071
    32818
  0
STYLE
  5
5DCC
330
3
100
AcDbSymbolTableRecord
100
AcDbTextStyleTableRecord
  2
JL
 70
     0
 40
10.0
 41
0.5
 50
0.0
 71
     0
 42
5.0
  3
MS Mincho.ttf
  4

1001
ACAD
1000
MS Mincho
1071
    32785
  0
ENDTAB
  0
TABLE
  2
VIEW
  5
6
330
0
100
AcDbSymbolTable
 70
     0
  0
ENDTAB
  0
TABLE
  2
UCS
  5
7
330
0
100
AcDbSymbolTable
 70
     0
  0
ENDTAB
  0
TABLE
  2
APPID
  5
9
330
0
100
AcDbSymbolTable
 70
     1
  0
APPID
  5
10
330
9
100
AcDbSymbolTableRecord
100
AcDbRegAppTableRecord
  2
ACAD
 70
     0
  0
ENDTAB
  0
TABLE
  2
DIMSTYLE
  5
A
330
0
100
AcDbSymbolTable
 70
     3
100
AcDbDimStyleTable
 71
     0
  0
DIMSTYLE
105
1D
330
A
100
AcDbSymbolTableRecord
100
AcDbDimStyleTableRecord
  2
STANDARD
 70
     0
 41
3.0
 42
0.06
 77
     3
140
4.0
144
0.3333333333333333
172
     1
340
F
  0
DIMSTYLE
105
1A4
102
{ACAD_REACTORS
330
6770
330
677F
330
6864
330
6C92
330
6CAA
330
74C6
330
7575
102
}
330
A
100
AcDbSymbolTableRecord
100
AcDbDimStyleTableRecord
  2
A
 70
     0
 41
2.5
 42
1.0
 43
6.0
 44
1.0
 73
     0
 74
     0
 77
     3
 78
     8
140
3.0
141
0.0
147
1.0
176
     6
177
     6
178
     3
271
     1
272
     1
279
     1
340
2A37
  0
DIMSTYLE
105
6006
330
A
100
AcDbSymbolTableRecord
100
AcDbDimStyleTableRecord
  2
ISO-25
 70
     0
 40
0.0
 41
2.0
 42
0.3
 43
1.0
 44
0.3
 73
     0
 74
     0
 77
     1
 78
     8
140
3.0
147
1.0
172
     1
176
     6
177
     6
178
     3
271
     1
272
     2
284
     8
288
     1
289
     2
340
F
  0
ENDTAB
  0
TABLE
  2
BLOCK_RECORD
  5
1
330
0
100
AcDbSymbolTable
 70
    13
  0
BLOCK_RECORD
  5
18
102
{ACAD_XDICTIONARY
360
45F
102
}
330
1
100
AcDbSymbolTableRecord
100
AcDbBlockTableRecord
  2
*MODEL_SPACE
340
5CF5
  0
BLOCK_RECORD
  5
15
102
{ACAD_XDICTIONARY
360
5D89
102
}
330
1
100
AcDbSymbolTableRecord
100
AcDbBlockTableRecord
  2
*PAPER_SPACE
340
5CF6
  0
BLOCK_RECORD
  5
639D
330
1
100
AcDbSymbolTableRecord
100
AcDbBlockTableRecord
  2
A$C255C26A2
340
0
  0
BLOCK_RECORD
  5
67BC
330
1
100
AcDbSymbolTableRecord
100
AcDbBlockTableRecord
  2
*D1
340
0
  0
BLOCK_RECORD
  5
67D9
330
1
100
AcDbSymbolTableRecord
100
AcDbBlockTableRecord
  2
*D2
340
0
  0
BLOCK_RECORD
  5
6854
330
1
100
AcDbSymbolTableRecord
100
AcDbBlockTableRecord
  2
*D3
340
0
  0
BLOCK_RECORD
  5
6C86
330
1
100
AcDbSymbolTableRecord
100
AcDbBlockTableRecord
  2
*D4
340
0
  0
BLOCK_RECORD
  5
6C9E
330
1
100
AcDbSymbolTableRecord
100
AcDbBlockTableRecord
  2
*D5
340
0
  0
BLOCK_RECORD
  5
74B6
330
1
100
AcDbSymbolTableRecord
100
AcDbBlockTableRecord
  2
*D7
340
0
  0
BLOCK_RECORD
  5
7569
330
1
100
AcDbSymbolTableRecord
100
AcDbBlockTableRecord
  2
*D10
340
0
  0
ENDTAB
  0
ENDSEC
  0
SECTION
  2
BLOCKS
  0
BLOCK
  5
19
330
18
100
AcDbEntity
  8
0
100
AcDbBlockBegin
  2
*MODEL_SPACE
 70
     0
 10
0.0
 20
0.0
 30
0.0
  3
*MODEL_SPACE
  1

  0
ENDBLK
  5
1A
330
18
100
AcDbEntity
  8
0
100
AcDbBlockEnd
  0
BLOCK
  5
16
330
15
100
AcDbEntity
 67
     1
  8
0
100
AcDbBlockBegin
  2
*PAPER_SPACE
 70
     0
 10
0.0
 20
0.0
 30
0.0
  3
*PAPER_SPACE
  1

  0
ENDBLK
  5
17
330
15
100
AcDbEntity
 67
     1
  8
0
100
AcDbBlockEnd
  0
BLOCK
  5
63A1
330
639D
100
AcDbEntity
  8
0
100
AcDbBlockBegin
  2
A$C255C26A2
 70
     0
 10
0.0
 20
0.0
 30
0.0
  3
A$C255C26A2
  1

  0
LWPOLYLINE
  5
639E
330
639D
100
AcDbEntity
  8
0
100
AcDbPolyline
 90
        3
 70
     1
 43
0.0
 10
7.014806023851633
 20
0.0000006939811783
 10
5.611844869720698
 20
2.430000693981241
 10
8.417767177982568
 20
2.430000693981241
  0
LWPOLYLINE
  5
639F
330
639D
100
AcDbEntity
  8
0
100
AcDbPolyline
 90
        3
 70
     1
 43
0.0
 10
4.20888371558999
 20
0.0000006939811783
 10
2.805922561459283
 20
2.430000693981241
 10
5.611844869720698
 20
2.430000693981241
  0
LWPOLYLINE
  5
63A0
330
639D
100
AcDbEntity
  8
0
100
AcDbPolyline
 90
        3
 70
     1
 43
0.0
 10
1.402961407328348
 20
0.0000006939811783
 10
0.0000002531974133
 20
2.430000693981241
 10
2.805922561459283
 20
2.430000693981241
  0
ENDBLK
  5
63A2
330
639D
100
AcDbEntity
  8
0
100
AcDbBlockEnd
  0
BLOCK
  5
855F
330
67BC
100
AcDbEntity
  8
0
100
AcDbBlockBegin
  2
*D1
 70
     1
 10
0.0
 20
0.0
 30
0.0
  3
*D1
  1

  0
LINE
  5
85CB
330
67BC
100
AcDbEntity
  8
0
 62
     6
370
    -2
100
AcDbLine
 10
67.01565263915728
 20
109.5076712268012
 30
0.0
 11
67.01565263915728
 21
100.043275050269
 31
0.0
  0
LINE
  5
85CC
330
67BC
100
AcDbEntity
  8
0
 62
     6
370
    -2
100
AcDbLine
 10
107.0156526391571
 20
109.507671226801
 30
0.0
 11
107.0156526391571
 21
100.043275050269
 31
0.0
  0
LINE
  5
85CD
330
67BC
100
AcDbEntity
  8
0
 62
     6
370
    -2
100
AcDbLine
 10
69.51565263915728
 20
101.043275050269
 30
0.0
 11
104.5156526391571
 21
101.043275050269
 31
0.0
  0
MTEXT
  5
85CE
330
67BC
100
AcDbEntity
  8
0
 62
     3
100
AcDbMText
 10
86.94188848040539
 20
103.543275050269
 30
0.0
 40
3.0
 41
0.0
 71
     5
 72
     1
  1
\A1;M40X1.5P
  7
TXT
 73
     1
 44
1.0
  0
SOLID
  5
85CF
330
67BC
100
AcDbEntity
  8
0
 62
     6
100
AcDbTrace
 10
69.51565263915728
 20
101.4599417169357
 30
0.0
 11
69.51565263915728
 21
100.6266083836023
 31
0.0
 12
67.01565263915728
 22
101.043275050269
 32
0.0
 13
67.01565263915728
 23
101.043275050269
 33
0.0
  0
SOLID
  5
85D0
330
67BC
100
AcDbEntity
  8
0
 62
     6
100
AcDbTrace
 10
104.5156526391571
 20
101.4599417169357
 30
0.0
 11
104.5156526391571
 21
100.6266083836023
 31
0.0
 12
107.0156526391571
 22
101.043275050269
 32
0.0
 13
107.0156526391571
 23
101.043275050269
 33
0.0
  0
POINT
  5
85D1
330
67BC
100
AcDbEntity
  8
DEFPOINTS
 62
     0
100
AcDbPoint
 10
67.01565263915728
 20
110.5076712268012
 30
0.0
  0
POINT
  5
85D2
330
67BC
100
AcDbEntity
  8
DEFPOINTS
 62
     0
100
AcDbPoint
 10
107.0156526391571
 20
110.507671226801
 30
0.0
  0
POINT
  5
85D3
330
67BC
100
AcDbEntity
  8
DEFPOINTS
 62
     0
100
AcDbPoint
 10
107.0156526391571
 20
101.043275050269
 30
0.0
  0
ENDBLK
  5
8569
330
67BC
100
AcDbEntity
  8
0
100
AcDbBlockEnd
  0
BLOCK
  5
8326
330
67D9
100
AcDbEntity
  8
0
100
AcDbBlockBegin
  2
*D2
 70
     1
 10
0.0
 20
0.0
 30
0.0
  3
*D2
  1

  0
LINE
  5
8625
330
67D9
100
AcDbEntity
  8
0
 62
     6
370
    -2
100
AcDbLine
 10
58.25400981949633
 20
197.1164944169222
 30
0.0
 11
58.25400981949633
 21
167.2454595223681
 31
0.0
  0
LINE
  5
8626
330
67D9
100
AcDbEntity
  8
0
 62
     6
370
    -2
100
AcDbLine
 10
60.71565263915721
 20
197.1164944169221
 30
0.0
 11
60.71565263915721
 21
167.2454595223681
 31
0.0
  0
LINE
  5
8627
330
67D9
100
AcDbEntity
  8
0
 62
     6
370
    -2
100
AcDbLine
 10
55.75400981949633
 20
168.2454595223681
 30
0.0
 11
53.25400981949633
 21
168.2454595223681
 31
0.0
  0
LINE
  5
8628
330
67D9
100
AcDbEntity
  8
0
 62
     6
370
    -2
100
AcDbLine
 10
63.21565263915721
 20
168.2454595223681
 30
0.0
 11
65.71565263915721
 21
168.2454595223681
 31
0.0
  0
MTEXT
  5
8629
330
67D9
100
AcDbEntity
  8
0
 62
     3
100
AcDbMText
 10
68.47873228110461
 20
171.2205108313011
 30
0.0
 40
3.0
 41
0.0
 71
     5
 72
     1
  1
\A1;2.5
  7
TXT
 73
     1
 44
1.0
  0
SOLID
  5
862A
330
67D9
100
AcDbEntity
  8
0
 62
     6
100
AcDbTrace
 10
55.75400981949633
 20
168.6621261890348
 30
0.0
 11
55.75400981949633
 21
167.8287928557015
 31
0.0
 12
58.25400981949633
 22
168.2454595223681
 32
0.0
 13
58.25400981949633
 23
168.2454595223681
 33
0.0
  0
SOLID
  5
862B
330
67D9
100
AcDbEntity
  8
0
 62
     6
100
AcDbTrace
 10
63.21565263915721
 20
168.6621261890348
 30
0.0
 11
63.21565263915721
 21
167.8287928557015
 31
0.0
 12
60.71565263915721
 22
168.2454595223681
 32
0.0
 13
60.71565263915721
 23
168.2454595223681
 33
0.0
  0
POINT
  5
862C
330
67D9
100
AcDbEntity
  8
DEFPOINTS
 62
     0
100
AcDbPoint
 10
58.25400981949633
 20
198.1164944169222
 30
0.0
  0
POINT
  5
862D
330
67D9
100
AcDbEntity
  8
DEFPOINTS
 62
     0
100
AcDbPoint
 10
60.71565263915721
 20
198.1164944169221
 30
0.0
  0
POINT
  5
862E
330
67D9
100
AcDbEntity
  8
DEFPOINTS
 62
     0
100
AcDbPoint
 10
60.71565263915721
 20
168.2454595223681
 30
0.0
  0
ENDBLK
  5
8332
330
67D9
100
AcDbEntity
  8
0
100
AcDbBlockEnd
  0
BLOCK
  5
835A
330
6854
100
AcDbEntity
  8
0
100
AcDbBlockBegin
  2
*D3
 70
     1
 10
0.0
 20
0.0
 30
0.0
  3
*D3
  1

  0
LINE
  5
8639
330
6854
100
AcDbEntity
  8
DIM
 62
     6
370
    -2
100
AcDbLine
 10
57.17124243544532
 20
198.1164944169222
 30
0.0
 11
47.35804021556555
 21
198.1164944169222
 31
0.0
  0
LINE
  5
863A
330
6854
100
AcDbEntity
  8
DIM
 62
     6
370
    -2
100
AcDbLine
 10
57.17124243544532
 20
204.1164944169222
 30
0.0
 11
47.35804021556555
 21
204.1164944169222
 31
0.0
  0
LINE
  5
863B
330
6854
100
AcDbEntity
  8
DIM
 62
     6
370
    -2
100
AcDbLine
 10
48.35804021556555
 20
195.6164944169222
 30
0.0
 11
48.35804021556555
 21
193.1164944169222
 31
0.0
  0
LINE
  5
863C
330
6854
100
AcDbEntity
  8
DIM
 62
     6
370
    -2
100
AcDbLine
 10
48.35804021556555
 20
206.6164944169222
 30
0.0
 11
48.35804021556556
 21
209.1164944169222
 31
0.0
  0
MTEXT
  5
863D
330
6854
100
AcDbEntity
  8
DIM
 62
     3
100
AcDbMText
 10
45.38274811934229
 20
214.167069672662
 30
0.0
 40
3.0
 41
0.0
 71
     5
 72
     1
  1
\A1;6      (3等分)
  7
TXT
 11
0.0000000000000001
 21
1.0
 31
0.0
 73
     1
 44
1.0
  0
SOLID
  5
863E
330
6854
100
AcDbEntity
  8
DIM
 62
     6
100
AcDbTrace
 10
47.94137354889889
 20
195.6164944169222
 30
0.0
 11
48.77470688223222
 21
195.6164944169222
 31
0.0
 12
48.35804021556555
 22
198.1164944169222
 32
0.0
 13
48.35804021556555
 23
198.1164944169222
 33
0.0
  0
SOLID
  5
863F
330
6854
100
AcDbEntity
  8
DIM
 62
     6
100
AcDbTrace
 10
47.94137354889889
 20
206.6164944169222
 30
0.0
 11
48.77470688223222
 21
206.6164944169222
 31
0.0
 12
48.35804021556555
 22
204.1164944169222
 32
0.0
 13
48.35804021556555
 23
204.1164944169222
 33
0.0
  0
POINT
  5
8640
330
6854
100
AcDbEntity
  8
DEFPOINTS
 62
     0
100
AcDbPoint
 10
58.17124243544532
 20
198.1164944169222
 30
0.0
  0
POINT
  5
8641
330
6854
100
AcDbEntity
  8
DEFPOINTS
 62
     0
100
AcDbPoint
 10
58.17124243544532
 20
204.1164944169222
 30
0.0
  0
POINT
  5
8642
330
6854
100
AcDbEntity
  8
DEFPOINTS
 62
     0
100
AcDbPoint
 10
48.35804021556555
 20
204.1164944169222
 30
0.0
  0
ENDBLK
  5
8366
330
6854
100
AcDbEntity
  8
0
100
AcDbBlockEnd
  0
BLOCK
  5
84CE
330
6C86
100
AcDbEntity
  8
0
100
AcDbBlockBegin
  2
*D4
 70
     1
 10
0.0
 20
0.0
 30
0.0
  3
*D4
  1

  0
LINE
  5
8606
330
6C86
100
AcDbEntity
  8
DIM
 62
     6
370
    -2
100
AcDbLine
 10
61.01565263915722
 20
130.707671226801
 30
0.0
 11
61.01565263915722
 21
139.0193568364205
 31
0.0
  0
LINE
  5
8607
330
6C86
100
AcDbEntity
  8
DIM
 62
     6
370
    -2
100
AcDbLine
 10
113.0156526391572
 20
130.7076712268011
 30
0.0
 11
113.0156526391572
 21
139.0193568364205
 31
0.0
  0
LINE
  5
8608
330
6C86
100
AcDbEntity
  8
DIM
 62
     6
370
    -2
100
AcDbLine
 10
63.51565263915722
 20
138.0193568364205
 30
0.0
 11
110.5156526391572
 21
138.0193568364205
 31
0.0
  0
SOLID
  5
8609
330
6C86
100
AcDbEntity
  8
DIM
 62
     6
100
AcDbTrace
 10
63.51565263915722
 20
138.4360235030872
 30
0.0
 11
63.51565263915722
 21
137.6026901697539
 31
0.0
 12
61.01565263915722
 22
138.0193568364205
 32
0.0
 13
61.01565263915722
 23
138.0193568364205
 33
0.0
  0
SOLID
  5
860A
330
6C86
100
AcDbEntity
  8
DIM
 62
     6
100
AcDbTrace
 10
110.5156526391572
 20
138.4360235030872
 30
0.0
 11
110.5156526391572
 21
137.6026901697539
 31
0.0
 12
113.0156526391572
 22
138.0193568364205
 32
0.0
 13
113.0156526391572
 23
138.0193568364205
 33
0.0
  0
MTEXT
  5
860B
330
6C86
100
AcDbEntity
  8
DIM
 62
     3
100
AcDbMText
 10
87.01565263915723
 20
140.5193568364206
 30
0.0
 40
3.0
 41
0.0
 71
     5
 72
     1
  1
\A1;%%c52
  7
TXT
 73
     1
 44
1.0
  0
POINT
  5
860C
330
6C86
100
AcDbEntity
  8
DEFPOINTS
 62
     0
100
AcDbPoint
 10
61.01565263915722
 20
129.707671226801
 30
0.0
  0
POINT
  5
860D
330
6C86
100
AcDbEntity
  8
DEFPOINTS
 62
     0
100
AcDbPoint
 10
113.0156526391572
 20
129.7076712268011
 30
0.0
  0
POINT
  5
860E
330
6C86
100
AcDbEntity
  8
DEFPOINTS
 62
     0
100
AcDbPoint
 10
113.0156526391572
 20
138.0193568364205
 30
0.0
  0
ENDBLK
  5
84D8
330
6C86
100
AcDbEntity
  8
0
100
AcDbBlockEnd
  0
BLOCK
  5
84C3
330
6C9E
100
AcDbEntity
  8
0
100
AcDbBlockBegin
  2
*D5
 70
     1
 10
0.0
 20
0.0
 30
0.0
  3
*D5
  1

  0
LINE
  5
85FD
330
6C9E
100
AcDbEntity
  8
DIM
 62
     6
370
    -2
100
AcDbLine
 10
58.01565263915716
 20
128.707671226801
 30
0.0
 11
58.01565263915716
 21
145.8432690118526
 31
0.0
  0
LINE
  5
85FE
330
6C9E
100
AcDbEntity
  8
DIM
 62
     6
370
    -2
100
AcDbLine
 10
116.0156526391572
 20
128.707671226801
 30
0.0
 11
116.0156526391572
 21
145.8432690118526
 31
0.0
  0
LINE
  5
85FF
330
6C9E
100
AcDbEntity
  8
DIM
 62
     6
370
    -2
100
AcDbLine
 10
60.51565263915716
 20
144.8432690118526
 30
0.0
 11
113.5156526391572
 21
144.8432690118526
 31
0.0
  0
MTEXT
  5
8600
330
6C9E
100
AcDbEntity
  8
DIM
 62
     3
100
AcDbMText
 10
86.94188848040539
 20
148.1367468498757
 30
0.0
 40
3.0
 41
0.0
 71
     5
 72
     1
  1
\A1;%%c58
  7
TXT
 73
     1
 44
1.0
  0
SOLID
  5
8601
330
6C9E
100
AcDbEntity
  8
DIM
 62
     6
100
AcDbTrace
 10
60.51565263915716
 20
145.2599356785192
 30
0.0
 11
60.51565263915716
 21
144.4266023451859
 31
0.0
 12
58.01565263915716
 22
144.8432690118526
 32
0.0
 13
58.01565263915716
 23
144.8432690118526
 33
0.0
  0
SOLID
  5
8602
330
6C9E
100
AcDbEntity
  8
DIM
 62
     6
100
AcDbTrace
 10
113.5156526391572
 20
145.2599356785192
 30
0.0
 11
113.5156526391572
 21
144.4266023451859
 31
0.0
 12
116.0156526391572
 22
144.8432690118526
 32
0.0
 13
116.0156526391572
 23
144.8432690118526
 33
0.0
  0
POINT
  5
8603
330
6C9E
100
AcDbEntity
  8
DEFPOINTS
 62
     0
100
AcDbPoint
 10
58.01565263915716
 20
127.707671226801
 30
0.0
  0
POINT
  5
8604
330
6C9E
100
AcDbEntity
  8
DEFPOINTS
 62
     0
100
AcDbPoint
 10
116.0156526391572
 20
127.707671226801
 30
0.0
  0
POINT
  5
8605
330
6C9E
100
AcDbEntity
  8
DEFPOINTS
 62
     0
100
AcDbPoint
 10
116.0156526391572
 20
144.8432690118526
 30
0.0
  0
ENDBLK
  5
84CD
330
6C9E
100
AcDbEntity
  8
0
100
AcDbBlockEnd
  0
BLOCK
  5
8494
330
74B6
100
AcDbEntity
  8
0
100
AcDbBlockBegin
  2
*D7
 70
     1
 10
0.0
 20
0.0
 30
0.0
  3
*D7
  1

  0
LINE
  5
85D4
330
74B6
100
AcDbEntity
  8
0
 62
     6
370
    -2
100
AcDbLine
 10
60.01565263915722
 20
129.707671226801
 30
0.0
 11
50.3760473483087
 21
129.707671226801
 31
0.0
  0
LINE
  5
85D5
330
74B6
100
AcDbEntity
  8
0
 62
     6
370
    -2
100
AcDbLine
 10
58.51565263915716
 20
129.2076712268011
 30
0.0
 11
50.3760473483087
 21
129.2076712268011
 31
0.0
  0
LINE
  5
85D6
330
74B6
100
AcDbEntity
  8
0
 62
     6
370
    -2
100
AcDbLine
 10
51.3760473483087
 20
132.207671226801
 30
0.0
 11
51.3760473483087
 21
134.707671226801
 31
0.0
  0
LINE
  5
85D7
330
74B6
100
AcDbEntity
  8
0
 62
     6
370
    -2
100
AcDbLine
 10
51.3760473483087
 20
126.7076712268011
 30
0.0
 11
51.3760473483087
 21
124.207671226801
 31
0.0
  0
LINE
  5
85D8
330
74B6
100
AcDbEntity
  8
0
 62
     6
370
    -2
100
AcDbLine
 10
51.3760473483087
 20
143.6176684879512
 30
0.0
 11
51.3760473483087
 21
129.707671226801
 31
0.0
  0
MTEXT
  5
85D9
330
74B6
100
AcDbEntity
  8
0
 62
     3
100
AcDbMText
 10
48.87604734830868
 20
139.8676684879512
 30
0.0
 40
3.0
 41
0.0
 71
     5
 72
     1
  1
\A1;0.5
  7
TXT
 11
0.0000000000000001
 21
1.0
 31
0.0
 73
     1
 44
1.0
  0
LINE
  5
85DA
330
74B6
100
AcDbEntity
  8
0
 62
     6
370
    -2
100
AcDbLine
 10
51.3760473483087
 20
129.707671226801
 30
0.0
 11
51.3760473483087
 21
129.2076712268011
 31
0.0
  0
SOLID
  5
85DB
330
74B6
100
AcDbEntity
  8
0
 62
     6
100
AcDbTrace
 10
50.95938068164204
 20
132.207671226801
 30
0.0
 11
51.79271401497537
 21
132.207671226801
 31
0.0
 12
51.3760473483087
 22
129.707671226801
 32
0.0
 13
51.3760473483087
 23
129.707671226801
 33
0.0
  0
SOLID
  5
85DC
330
74B6
100
AcDbEntity
  8
0
 62
     6
100
AcDbTrace
 10
50.95938068164204
 20
126.7076712268011
 30
0.0
 11
51.79271401497537
 21
126.7076712268011
 31
0.0
 12
51.3760473483087
 22
129.2076712268011
 32
0.0
 13
51.3760473483087
 23
129.2076712268011
 33
0.0
  0
POINT
  5
85DD
330
74B6
100
AcDbEntity
  8
DEFPOINTS
 62
     0
100
AcDbPoint
 10
61.01565263915722
 20
129.707671226801
 30
0.0
  0
POINT
  5
85DE
330
74B6
100
AcDbEntity
  8
DEFPOINTS
 62
     0
100
AcDbPoint
 10
59.51565263915717
 20
129.2076712268011
 30
0.0
  0
POINT
  5
85DF
330
74B6
100
AcDbEntity
  8
DEFPOINTS
 62
     0
100
AcDbPoint
 10
51.3760473483087
 20
129.2076712268011
 30
0.0
  0
ENDBLK
  5
84A1
330
74B6
100
AcDbEntity
  8
0
100
AcDbBlockEnd
  0
BLOCK
  5
8509
330
7569
100
AcDbEntity
  8
0
100
AcDbBlockBegin
  2
*D10
 70
     1
 10
0.0
 20
0.0
 30
0.0
  3
*D10
  1

  0
LINE
  5
860F
330
7569
100
AcDbEntity
  8
DIM
 62
     6
370
    -2
100
AcDbLine
 10
112.3956526391571
 20
109.707671226801
 30
0.0
 11
132.6269983459956
 21
109.707671226801
 31
0.0
  0
LINE
  5
8610
330
7569
100
AcDbEntity
  8
DIM
 62
     6
370
    -2
100
AcDbLine
 10
113.9787033409812
 20
129.7076712268011
 30
0.0
 11
132.6269983459956
 21
129.7076712268011
 31
0.0
  0
LINE
  5
8611
330
7569
100
AcDbEntity
  8
DIM
 62
     6
370
    -2
100
AcDbLine
 10
131.6269983459956
 20
112.207671226801
 30
0.0
 11
131.6269983459956
 21
127.2076712268011
 31
0.0
  0
SOLID
  5
8612
330
7569
100
AcDbEntity
  8
DIM
 62
     6
100
AcDbTrace
 10
131.2103316793289
 20
112.207671226801
 30
0.0
 11
132.0436650126622
 21
112.207671226801
 31
0.0
 12
131.6269983459956
 22
109.707671226801
 32
0.0
 13
131.6269983459956
 23
109.707671226801
 33
0.0
  0
SOLID
  5
8613
330
7569
100
AcDbEntity
  8
DIM
 62
     6
100
AcDbTrace
 10
131.2103316793289
 20
127.2076712268011
 30
0.0
 11
132.0436650126622
 21
127.2076712268011
 31
0.0
 12
131.6269983459956
 22
129.7076712268011
 32
0.0
 13
131.6269983459956
 23
129.7076712268011
 33
0.0
  0
MTEXT
  5
8614
330
7569
100
AcDbEntity
  8
DIM
 62
     3
100
AcDbMText
 10
129.1269983459956
 20
119.7076712268011
 30
0.0
 40
3.0
 41
0.0
 71
     5
 72
     1
  1
\A1;20%%p0.2
  7
TXT
 11
0.0000000000000001
 21
1.0
 31
0.0
 73
     1
 44
1.0
  0
POINT
  5
8615
330
7569
100
AcDbEntity
  8
DEFPOINTS
 62
     0
100
AcDbPoint
 10
111.3956526391571
 20
109.707671226801
 30
0.0
  0
POINT
  5
8616
330
7569
100
AcDbEntity
  8
DEFPOINTS
 62
     0
100
AcDbPoint
 10
112.9787033409812
 20
129.7076712268011
 30
0.0
  0
POINT
  5
8617
330
7569
100
AcDbEntity
  8
DEFPOINTS
 62
     0
100
AcDbPoint
 10
131.6269983459956
 20
129.7076712268011
 30
0.0
  0
ENDBLK
  5
8513
330
7569
100
AcDbEntity
  8
0
100
AcDbBlockEnd
  0
ENDSEC
  0
SECTION
  2
ENTITIES
  0
MTEXT
  5
C0
330
18
100
AcDbEntity
  8
0
100
AcDbMText
 10
41.26970765600413
 20
233.6950877649332
 30
0.0
 40
2.5
 41
0.0
 71
     1
 72
     5
  1

  7
ISOCP3
 73
     1
 44
1.0
  0
LINE
  5
5AD6
330
18
100
AcDbEntity
  8
DIM
100
AcDbLine
 10
131.6269983459956
 20
129.7076712268011
 30
0.0
 11
131.6269983459956
 21
146.2343976819249
 31
0.0
  0
LINE
  5
5AD7
330
18
100
AcDbEntity
  8
DIM
100
AcDbLine
 10
131.6269983459956
 20
146.2343976819249
 30
0.0
 11
143.778738472243
 21
146.2343976819249
 31
0.0
  0
LINE
  5
5ADA
330
18
100
AcDbEntity
  8
DIM
100
AcDbLine
 10
67.01565263915728
 20
100.0653872772076
 30
0.0
 11
67.01565263915728
 21
89.4719822020845
 31
0.0
  0
TOLERANCE
  5
5E6E
330
18
100
AcDbEntity
  8
DIM
  6
ByBlock
100
AcDbFcf
  3
A
 10
143.778738472243
 20
146.2853361180559
 30
0.0
  1
{\Fgdt;h}%%v0.005%%v%%vA%%v%%v
1001
ACAD
1000
DSTYLE
1002
{
1070
   140
1040
2.743999999999999
1070
   147
1040
0.6859999999999999
1002
}
  0
MTEXT
  5
608E
330
18
100
AcDbEntity
  8
0
100
AcDbMText
 10
17.81948278949767
 20
19.37399834316261
 30
0.0
 40
5.0
 41
0.0
 71
     1
 72
     5
  1
\Ftxt.shx,bigfont.shx|c128;呉銘宏
  7
JL
 73
     1
 44
1.0
  0
MTEXT
  5
6095
330
18
100
AcDbEntity
  8
0
100
AcDbMText
 10
81.23517665196368
 20
29.2278230533891
 30
0.0
 40
4.5
 41
0.0
 71
     1
 72
     5
  1
\Ftxt.shx,bigfont.shx|c128;1 : 1
  7
JL
 73
     1
 44
1.0
  0
MTEXT
  5
6098
330
18
100
AcDbEntity
  8
0
 48
2.0
370
    25
100
AcDbMText
 10
146.1234268906314
 20
3.636969934829039
 30
0.0
 40
4.5
 41
0.0
 71
     5
 72
     1
  1
\Ftxt.shx,bigfont.shx|c128;N L 4 0 0 0 5
 73
     1
 44
1.0
  0
MTEXT
  5
609C
330
18
100
AcDbEntity
  8
0
 48
2.0
100
AcDbMText
 10
178.1300746997774
 20
22.17550270047843
 30
0.0
 40
4.5
 41
0.0
 71
     5
 72
     1
  1
\P\Ftxt.shx,bigfont.shx|c128;    MF40X1.5P
 73
     1
 44
1.0
  0
MTEXT
  5
635A
330
18
100
AcDbEntity
  8
0
100
AcDbMText
 10
16.02348109109539
 20
28.64592585511957
 30
0.0
 40
4.5
 41
0.0
 71
     1
 72
     5
  1
\Ftxt.shx,bigfont.shx|c128;05.03.02
  7
JL
 73
     1
 44
1.0
  0
LEADER
  5
63C9
330
18
100
AcDbEntity
  8
DIM
 62
     6
100
AcDbLeader
  3
A
 76
     2
 10
111.9892827743161
 20
215.8581970957949
 30
0.0
 10
124.6395869425683
 20
227.0763466819769
 30
0.0
  0
LEADER
  5
63CA
330
18
100
AcDbEntity
  8
DIM
 62
     6
100
AcDbLeader
  3
A
 76
     2
 10
107.2194366703501
 20
118.8229823470048
 30
0.0
 10
122.7973978753694
 20
147.1820600233317
 30
0.0
  0
LEADER
  5
63CB
330
18
100
AcDbEntity
  8
DIM
 62
     6
100
AcDbLeader
  3
A
 76
     2
 10
113.7287033409812
 20
113.7486335789946
 30
0.0
 10
122.7081559204259
 20
95.46035649669136
 30
0.0
  0
MTEXT
  5
63CC
330
18
100
AcDbEntity
  8
DIM
100
AcDbMText
 10
122.1216692820231
 20
152.9306555883484
 30
0.0
 40
5.0
 41
1.0
 71
     1
 72
     5
  1
\Ftxt.shx,bigfont.shx|c128;3
 73
     1
 44
1.0
  0
MTEXT
  5
63CD
330
18
100
AcDbEntity
  8
DIM
100
AcDbMText
 10
126.7856154786791
 20
230.9318417178853
 30
0.0
 40
5.0
 41
1.0
 71
     1
 72
     5
  1
\Ftxt.shx,bigfont.shx|c128;1
 73
     1
 44
1.0
  0
MTEXT
  5
63CE
330
18
100
AcDbEntity
  8
DIM
100
AcDbMText
 10
123.1844842448522
 20
94.50818309106365
 30
0.0
 40
5.0
 41
1.0
 71
     1
 72
     5
  1
\Ftxt.shx,bigfont.shx|c128;2
 73
     1
 44
1.0
  0
LINE
  5
63CF
330
18
100
AcDbEntity
  8
DIM
100
AcDbLine
 10
67.01565263915728
 20
89.4719822020845
 30
0.0
 11
67.92811098738287
 21
88.49410810635943
 31
0.0
  0
HATCH
  5
63D0
330
18
100
AcDbEntity
  8
DIM
  6
Continuous
100
AcDbHatch
 10
0.0
 20
0.0
 30
0.0
210
0.0
220
0.0
230
1.0
  2
SOLID
 70
     1
 71
     0
 91
        1
 92
        7
 72
     0
 73
     1
 93
        3
 10
67.0145285247047
 20
87.488293807104
 10
67.93326061330475
 20
88.47310160234773
 10
67.0145285247047
 20
89.45790939759145
 97
        0
 75
     0
 76
     1
 47
0.2359147607200769
 98
        1
 10
67.30234452093549
 20
88.68457760803925
450
        0
451
        0
460
0.0
461
0.0
452
        0
462
0.0
453
        0
470

  0
LINE
  5
63D1
330
18
100
AcDbEntity
  8
DIM
100
AcDbLine
 10
72.67520379407892
 20
86.68045430219992
 30
0.0
 11
72.67520379407892
 21
90.32675309222106
 31
0.0
  0
LINE
  5
63D2
330
18
100
AcDbEntity
  8
DIM
100
AcDbLine
 10
72.67520379407892
 20
90.32675309222106
 30
0.0
 11
76.48383903958961
 21
90.32675309222106
 31
0.0
  0
LINE
  5
63D3
330
18
100
AcDbEntity
  8
DIM
100
AcDbLine
 10
76.48383903958961
 20
86.68045430219992
 30
0.0
 11
76.48383903958961
 21
90.32675309222106
 31
0.0
  0
LINE
  5
63D4
330
18
100
AcDbEntity
  8
DIM
100
AcDbLine
 10
72.67520379407892
 20
86.68045430219992
 30
0.0
 11
76.48383903958961
 21
86.68045430219992
 31
0.0
  0
LINE
  5
63D5
330
18
100
AcDbEntity
  8
DIM
100
AcDbLine
 10
72.67520379407892
 20
88.5036036972105
 30
0.0
 11
67.91440995835586
 21
88.5036036972105
 31
0.0
  0
MTEXT
  5
63D6
330
18
100
AcDbEntity
  8
DIM
100
AcDbMText
 10
73.63244151651855
 20
89.99542137644754
 30
0.0
 40
3.0
 41
2.354875985554478
 71
     1
 72
     5
  1
A
  7
ISOCP3
 73
     1
 44
1.0
  0
LINE
  5
64AF
330
18
100
AcDbEntity
  8
図框線
100
AcDbLine
 10
197.9999999999997
 20
289.9999999999999
 30
0.0
 11
197.9999999999997
 21
-0.0000000000000568
 31
0.0
  0
LINE
  5
64B0
330
18
100
AcDbEntity
  8
図框線
370
    30
100
AcDbLine
 10
-0.0000000000002274
 20
0.0
 30
0.0
 11
-0.0000000000002274
 21
290.0
 31
0.0
  0
LINE
  5
64B1
330
18
100
AcDbEntity
  8
0
 62
     7
 48
5.0
100
AcDbLine
 39
4.0
 10
49.94750515634314
 20
27.8953239783782
 30
0.0
 11
55.27930887205229
 21
29.22827490730549
 31
0.0
  0
MTEXT
  5
64B2
330
18
100
AcDbEntity
  8
0
100
AcDbMText
 10
15.97866977158742
 20
9.63134010478825
 30
0.0
 40
6.0
 41
0.0
 71
     1
 72
     5
  1
\Ftxt.shx,bigfont.shx|c128;日機株式会社
  7
LKK
 73
     1
 44
1.0
  0
LINE
  5
64B3
330
18
100
AcDbEntity
  8
図框線
100
AcDbLine
 10
0.0
 20
0.0
 30
0.0
 11
197.9999999999997
 21
0.0
 31
0.0
  0
LINE
  5
64B7
330
18
100
AcDbEntity
  8
図框線
100
AcDbLine
 10
0.0
 20
12.0
 30
0.0
 11
197.9999999999997
 21
12.00000000000005
 31
0.0
  0
LINE
  5
64B8
330
18
100
AcDbEntity
  8
図框線
100
AcDbLine
 10
0.0
 20
22.0
 30
0.0
 11
96.0
 21
22.0
 31
0.0
  0
LINE
  5
64B9
330
18
100
AcDbEntity
  8
図框線
100
AcDbLine
 10
0.0
 20
32.0
 30
0.0
 11
197.9999999999997
 21
32.0
 31
0.0
  0
LINE
  5
64BA
330
18
100
AcDbEntity
  8
図框線
100
AcDbLine
 10
12.0
 20
32.0
 30
0.0
 11
12.0
 21
12.0
 31
0.0
  0
LINE
  5
64BB
330
18
100
AcDbEntity
  8
図框線
100
AcDbLine
 10
32.0
 20
32.0
 30
0.0
 11
32.0
 21
12.0
 31
0.0
  0
MTEXT
  5
64BC
330
18
100
AcDbEntity
  8
0
100
AcDbMText
 10
2.949444248820782
 20
29.04715033351227
 30
0.0
 40
4.5
 41
0.0
 71
     1
 72
     5
  1
\Ftxt.shx,bigfont.shx|c128;日 付
  7
JL
 73
     1
 44
1.0
  0
MTEXT
  5
64BD
330
18
100
AcDbEntity
  8
0
100
AcDbMText
 10
3.095712364910014
 20
19.83833899470915
 30
0.0
 40
4.5
 41
0.0
 71
     1
 72
     5
  1
\Ftxt.shx,bigfont.shx|c128;製 図
  7
JL
 73
     1
 44
1.0
  0
LINE
  5
64C0
330
18
100
AcDbEntity
  8
0
 62
     7
370
    25
100
AcDbLine
 10
55.27930887205229
 20
23.89647119159633
 30
0.0
 11
55.27930887205229
 21
29.22827490730549
 31
0.0
  0
MTEXT
  5
64C1
330
18
100
AcDbEntity
  8
0
100
AcDbMText
 10
66.70254067332553
 20
29.42231870267847
 30
0.0
 40
4.5
 41
0.0
 71
     1
 72
     5
  1
\Ftxt.shx,bigfont.shx|c128;尺 度
  7
JL
 73
     1
 44
1.0
  0
LINE
  5
64C2
330
18
100
AcDbEntity
  8
図框線
100
AcDbLine
 10
64.0
 20
32.0
 30
0.0
 11
64.0
 21
12.0
 31
0.0
  0
LINE
  5
64C3
330
18
100
AcDbEntity
  8
0
 62
     7
370
    25
100
AcDbLine
 10
41.2833241183157
 20
23.23894871736115
 30
0.0
 11
41.2833241183157
 21
29.67466750005656
 31
0.0
  0
CIRCLE
  5
64C4
330
18
100
AcDbEntity
  8
0
 62
     7
100
AcDbCircle
 10
41.2833241183157
 20
26.5623730494508
 30
0.0
 40
2.665901857854641
  0
LINE
  5
64C6
330
18
100
AcDbEntity
  8
0
 62
     7
370
    25
100
AcDbLine
 10
49.18030281106076
 20
26.56237304945091
 30
0.0
 11
55.75797321903156
 21
26.56237304945091
 31
0.0
  0
LINE
  5
64C7
330
18
100
AcDbEntity
  8
0
 62
     7
100
AcDbLine
 10
49.94750515634314
 20
25.22942212052362
 30
0.0
 11
55.27930887205229
 21
23.89647119159633
 31
0.0
  0
LINE
  5
64C8
330
18
100
AcDbEntity
  8
図框線
100
AcDbLine
 10
44.0
 20
21.99999999999989
 30
0.0
 11
44.0
 21
12.0
 31
0.0
  0
LINE
  5
64C9
330
18
100
AcDbEntity
  8
0
 62
     7
370
    25
100
AcDbLine
 10
37.95172532843935
 20
26.5623730494508
 30
0.0
 11
44.81391594676916
 21
26.56237304945091
 31
0.0
  0
CIRCLE
  5
64CA
330
18
100
AcDbEntity
  8
0
 62
     7
100
AcDbCircle
 10
41.2833241183157
 20
26.5623730494508
 30
0.0
 40
1.33295092892732
  0
MTEXT
  5
64CB
330
18
100
AcDbEntity
  8
0
100
AcDbMText
 10
35.12086518039769
 20
19.39982343168049
 30
0.0
 40
4.5
 41
0.0
 71
     1
 72
     5
  1
\Ftxt.shx,bigfont.shx|c128;検 図
  7
JL
 73
     1
 44
1.0
  0
LINE
  5
64CC
330
18
100
AcDbEntity
  8
0
 62
     7
370
    25
100
AcDbLine
 10
49.94750515634314
 20
25.22942212052362
 30
0.0
 11
49.94750515634314
 21
27.8953239783782
 31
0.0
  0
MTEXT
  5
64CD
330
18
100
AcDbEntity
  8
0
100
AcDbMText
 10
66.99507418337498
 20
19.62882052001464
 30
0.0
 40
4.5
 41
0.0
 71
     1
 72
     5
  1
\Ftxt.shx,bigfont.shx|c128;承 認
  7
JL
 73
     1
 44
1.0
  0
MTEXT
  5
64D8
330
18
100
AcDbEntity
  8
0
100
AcDbMText
 10
97.65702556263818
 20
11.15332144655735
 30
0.0
 40
5.0
 41
0.0
 71
     1
 72
     5
  1
\Ftxt.shx,bigfont.shx|c128;図  面  番  号
  7
JL
 73
     1
 44
1.0
  0
MTEXT
  5
64D9
330
18
100
AcDbEntity
  8
0
 62
     7
 48
2.0
100
AcDbMText
 10
121.8260850653862
 20
22.29156825453561
 30
0.0
 40
4.5
 41
0.0
 71
     5
 72
     1
  1
\P\Ftxt.shx,bigfont.shx|c128;    精密ロックナット
 73
     1
 44
1.0
  0
MTEXT
  5
64DA
330
18
100
AcDbEntity
  8
0
370
    25
100
AcDbMText
 10
98.8002923053598
 20
29.80688815403971
 30
0.0
 40
5.0
 41
0.0
 71
     1
 72
     5
  1
\Ftxt.shx,bigfont.shx|c128;品  名
  7
JL
 73
     1
 44
1.0
  0
LINE
  5
64DB
330
18
100
AcDbEntity
  8
図框線
100
AcDbLine
 10
96.0
 20
32.0
 30
0.0
 11
96.0
 21
0.19104161092514
 31
0.0
  0
LINE
  5
64DC
330
18
100
AcDbEntity
  8
図框線
100
AcDbLine
 10
76.0
 20
32.0
 30
0.0
 11
76.0
 21
12.0
 31
0.0
  0
LINE
  5
64DE
330
18
100
AcDbEntity
  8
図框線
100
AcDbLine
 10
153.2235601908683
 20
32.0
 30
0.0
 11
153.2235601908683
 21
12.0
 31
0.0
  0
MTEXT
  5
64E4
330
18
100
AcDbEntity
  8
0
370
    25
100
AcDbMText
 10
157.2494735287423
 20
29.58569764093568
 30
0.0
 40
5.0
 41
0.0
 71
     1
 72
     5
  1
\Ftxt.shx,bigfont.shx|c128;型  番
  7
JL
 73
     1
 44
1.0
  0
MTEXT
  5
64E5
330
18
100
AcDbEntity
  8
0
100
AcDbMText
 10
172.787265122339
 20
11.23700203391422
 30
0.0
 40
5.0
 41
0.0
 71
     1
 72
     5
  1
\Ftxt.shx,bigfont.shx|c128;変更
  7
JL
 73
     1
 44
1.0
  0
LINE
  5
64E6
330
18
100
AcDbEntity
  8
図框線
100
AcDbLine
 10
171.0
 20
12.00907027842731
 30
0.0
 11
171.0
 21
0.0
 31
0.0
  0
LINE
  5
64EC
330
18
100
AcDbEntity
  8
図框線
100
AcDbLine
 10
-0.0000000000002274
 20
263.9999999999999
 30
0.0
 11
197.9999999999997
 21
263.9999999999999
 31
0.0
  0
LINE
  5
64ED
330
18
100
AcDbEntity
  8
図框線
100
AcDbLine
 10
-0.0000000000002274
 20
271.9999999999999
 30
0.0
 11
197.9999999999997
 21
271.9999999999999
 31
0.0
  0
LINE
  5
64EE
330
18
100
AcDbEntity
  8
図框線
 62
     9
100
AcDbLine
 10
-0.0000000000002274
 20
279.9999999999999
 30
0.0
 11
197.9999999999997
 21
279.9999999999999
 31
0.0
  0
LINE
  5
64EF
330
18
100
AcDbEntity
  8
図框線
100
AcDbLine
 10
-0.0000000000002274
 20
290.0
 30
0.0
 11
197.9999999999997
 21
290.0
 31
0.0
  0
MTEXT
  5
64F0
330
18
100
AcDbEntity
  8
0
100
AcDbMText
 10
59.41630259681733
 20
287.3155952051104
 30
0.0
 40
5.0
 41
0.0
 71
     1
 72
     5
  1
\Ftxt.shx,bigfont.shx|c128;図    番 / 規　　格
  7
JL
 73
     1
 44
1.0
  0
LINE
  5
64F1
330
18
100
AcDbEntity
  8
図框線
100
AcDbLine
 10
-0.0000000000002274
 20
263.9999999999999
 30
0.0
 11
197.9999999999997
 21
263.9999999999999
 31
0.0
  0
LINE
  5
64F2
330
18
100
AcDbEntity
  8
図框線
100
AcDbLine
 10
-0.0000000000002274
 20
255.9999999999999
 30
0.0
 11
197.9999999999997
 21
255.9999999999999
 31
0.0
  0
MTEXT
  5
64F3
330
18
100
AcDbEntity
  8
0
100
AcDbMText
 10
22.01434914141237
 20
286.7888025819827
 30
0.0
 40
5.0
 41
0.0
 71
     1
 72
     5
  1
\Ftxt.shx,bigfont.shx|c128;品　          名
  7
JL
 73
     1
 44
1.0
  0
MTEXT
  5
64F4
330
18
100
AcDbEntity
  8
0
100
AcDbMText
 10
18.8650376130422
 20
270.5298549795346
 30
0.0
 40
6.0
 41
0.0
 71
     1
 72
     5
  1
\Ftxt.shx,bigfont.shx|c128;セットスクリュ-
  7
JL
 73
     1
 44
1.0
  0
MTEXT
  5
64F5
330
18
100
AcDbEntity
  8
0
100
AcDbMText
 10
18.66941459004738
 20
278.3660650505403
 30
0.0
 40
6.0
 41
0.0
 71
     1
 72
     5
  1
\Ftxt.shx,bigfont.shx|c128;ロックナット　  
  7
JL
 73
     1
 44
1.0
  0
MTEXT
  5
64F6
330
18
100
AcDbEntity
  8
0
100
AcDbMText
 10
18.8650376130422
 20
262.5298549795346
 30
0.0
 40
6.0
 41
0.0
 71
     1
 72
     5
  1
\Ftxt.shx,bigfont.shx|c128;ロックピン 
  7
JL
 73
     1
 44
1.0
  0
LINE
  5
64F7
330
18
100
AcDbEntity
  8
図框線
100
AcDbLine
 10
14.99999999999977
 20
289.9999999999998
 30
0.0
 11
15.00000000000011
 21
255.9999999999999
 31
0.0
  0
LINE
  5
64F8
330
18
100
AcDbEntity
  8
0
100
AcDbLine
 10
14.99999999999977
 20
289.9999999999998
 30
0.0
 11
14.99999999999977
 21
263.9999999999999
 31
0.0
  0
MTEXT
  5
64F9
330
18
100
AcDbEntity
  8
0
100
AcDbMText
 10
6.215289087390488
 20
262.7436409356394
 30
0.0
 40
5.0
 41
0.0
 71
     1
 72
     5
  1
\Ftxt.shx,bigfont.shx|c128;3
  7
JL
 73
     1
 44
1.0
  0
MTEXT
  5
64FA
330
18
100
AcDbEntity
  8
0
100
AcDbMText
 10
7.101957026666809
 20
278.5798510066454
 30
0.0
 40
5.0
 41
0.0
 71
     1
 72
     5
  1
\Ftxt.shx,bigfont.shx|c128;1
  7
JL
 73
     1
 44
1.0
  0
MTEXT
  5
64FB
330
18
100
AcDbEntity
  8
0
100
AcDbMText
 10
6.215289087390488
 20
270.7436409356394
 30
0.0
 40
5.0
 41
0.0
 71
     1
 72
     5
  1
\Ftxt.shx,bigfont.shx|c128;2
  7
JL
 73
     1
 44
1.0
  0
MTEXT
  5
64FC
330
18
100
AcDbEntity
  8
0
100
AcDbMText
 10
2.209083991842362
 20
287.0885254164057
 30
0.0
 40
5.0
 41
0.0
 71
     1
 72
     5
  1
\Ftxt.shx,bigfont.shx|c128;照   号
  7
JL
 73
     1
 44
1.0
  0
LINE
  5
64FD
330
18
100
AcDbEntity
  8
図框線
 62
     9
100
AcDbLine
 10
54.99999999999977
 20
289.9999999999998
 30
0.0
 11
54.99999999999977
 21
256.0
 31
0.0
  0
MTEXT
  5
64FE
330
18
100
AcDbEntity
  8
0
100
AcDbMText
 10
146.3353765925378
 20
287.5804049742369
 30
0.0
 40
5.0
 41
0.0
 71
     1
 72
     5
  1
\Ftxt.shx,bigfont.shx|c128;備           考
  7
JL
 73
     1
 44
1.0
  0
LINE
  5
64FF
330
18
100
AcDbEntity
  8
図框線
 62
     9
100
AcDbLine
 10
94.99999999999976
 20
289.9999999999999
 30
0.0
 11
94.99999999999976
 21
255.9999999999999
 31
0.0
  0
MTEXT
  5
6501
330
18
100
AcDbEntity
  8
0
100
AcDbMText
 10
96.78387029776377
 20
278.3660650505403
 30
0.0
 40
5.0
 41
0.0
 71
     1
 72
     5
  1
\Ftxt.shx,bigfont.shx|c128;SCM-440
  7
JL
 73
     1
 44
1.0
  0
MTEXT
  5
6503
330
18
100
AcDbEntity
  8
0
100
AcDbMText
 10
99.80032499445407
 20
287.5804049742369
 30
0.0
 40
5.0
 41
0.0
 71
     1
 72
     5
  1
\Ftxt.shx,bigfont.shx|c128;材　質
  7
JL
 73
     1
 44
1.0
  0
LINE
  5
6504
330
18
100
AcDbEntity
  8
図框線
 62
     9
100
AcDbLine
 10
114.9999999999997
 20
289.9999999999999
 30
0.0
 11
114.9999999999997
 21
255.9999999999999
 31
0.0
  0
LINE
  5
6505
330
18
100
AcDbEntity
  8
図框線
100
AcDbLine
 10
129.9999999999998
 20
289.9999999999999
 30
0.0
 11
129.9999999999998
 21
255.9999999999999
 31
0.0
  0
MTEXT
  5
6507
330
18
100
AcDbEntity
  8
0
100
AcDbMText
 10
122.1019570266667
 20
278.5798510066454
 30
0.0
 40
5.0
 41
0.0
 71
     1
 72
     5
  1
\Ftxt.shx,bigfont.shx|c128;1
  7
JL
 73
     1
 44
1.0
  0
MTEXT
  5
6509
330
18
100
AcDbEntity
  8
0
100
AcDbMText
 10
116.433740311917
 20
287.5804049742369
 30
0.0
 40
5.0
 41
0.0
 71
     1
 72
     5
  1
\Ftxt.shx,bigfont.shx|c128;数   量
  7
JL
 73
     1
 44
1.0
  0
DIMENSION
  5
6770
330
18
100
AcDbEntity
  8
0
100
AcDbDimension
  2
*D1
 10
107.0156526391571
 20
101.043275050269
 30
0.0
 11
86.94188848040539
 21
101.043275050269
 31
0.0
 70
   160
  1
M<>X1.5P
 71
     5
 42
39.99999999999989
  3
A
100
AcDbAlignedDimension
 13
67.01565263915728
 23
110.5076712268012
 33
0.0
 14
107.0156526391571
 24
110.507671226801
 34
0.0
100
AcDbRotatedDimension
  0
DIMENSION
  5
677F
330
18
100
AcDbEntity
  8
0
100
AcDbDimension
  2
*D2
 10
60.71565263915721
 20
168.2454595223681
 30
0.0
 11
68.47873228110461
 21
168.7205108313011
 31
0.0
 70
   160
 71
     5
 42
2.46164281966088
  3
A
100
AcDbAlignedDimension
 13
58.25400981949633
 23
198.1164944169222
 33
0.0
 14
60.71565263915721
 24
198.1164944169221
 34
0.0
100
AcDbRotatedDimension
  0
DIMENSION
  5
6864
330
18
100
AcDbEntity
  8
DIM
100
AcDbDimension
  2
*D3
 10
48.35804021556555
 20
204.1164944169222
 30
0.0
 11
47.88274811934229
 21
214.167069672662
 31
0.0
 70
   160
  1
<>      (3等分)
 71
     5
 42
6.0
  3
A
100
AcDbAlignedDimension
 13
58.17124243544532
 23
198.1164944169222
 33
0.0
 14
58.17124243544532
 24
204.1164944169222
 34
0.0
 50
90.0
100
AcDbRotatedDimension
  0
LINE
  5
689B
330
18
100
AcDbEntity
  8
DIM
 62
     6
100
AcDbLine
 10
48.35804021556555
 20
207.8664944169222
 30
0.0
 11
48.35804021556555
 21
227.7828032793166
 31
0.0
  0
LINE
  5
6AF0
330
18
100
AcDbEntity
  8
DIM
 62
     6
100
AcDbLine
 10
65.71565263915721
 20
168.2454595223681
 30
0.0
 11
77.51887594998635
 21
168.2454595223681
 31
0.0
  0
DIMENSION
  5
6C92
330
18
100
AcDbEntity
  8
DIM
100
AcDbDimension
  2
*D4
 10
113.0156526391572
 20
138.0193568364205
 30
0.0
 11
87.01565263915723
 21
140.5193568364206
 31
0.0
 70
    32
  1
%%c<>
 71
     5
 42
52.0
  3
A
100
AcDbAlignedDimension
 13
61.01565263915722
 23
129.707671226801
 33
0.0
 14
113.0156526391572
 24
129.7076712268011
 34
0.0
100
AcDbRotatedDimension
  0
DIMENSION
  5
6CAA
330
18
100
AcDbEntity
  8
DIM
100
AcDbDimension
  2
*D5
 10
116.0156526391572
 20
144.8432690118526
 30
0.0
 11
86.94188848040539
 21
145.6367468498757
 31
0.0
 70
   160
  1
%%c<>
 71
     5
 42
58.00000000000006
  3
A
100
AcDbAlignedDimension
 13
58.01565263915716
 23
127.707671226801
 33
0.0
 14
116.0156526391572
 24
127.707671226801
 34
0.0
100
AcDbRotatedDimension
  0
DIMENSION
  5
74C6
330
18
100
AcDbEntity
  8
0
100
AcDbDimension
  2
*D7
 10
51.3760473483087
 20
129.2076712268011
 30
0.0
 11
49.06675623966845
 21
139.8676684879512
 31
0.0
 70
   160
 71
     5
 42
0.4999999999999716
  3
A
100
AcDbAlignedDimension
 13
61.01565263915722
 23
129.707671226801
 33
0.0
 14
59.51565263915717
 24
129.2076712268011
 34
0.0
 50
90.0
100
AcDbRotatedDimension
  0
DIMENSION
  5
7575
330
18
100
AcDbEntity
  8
DIM
100
AcDbDimension
  2
*D10
 10
131.6269983459956
 20
129.7076712268011
 30
0.0
 11
129.1269983459956
 21
119.7076712268011
 31
0.0
 70
    32
  1
<>%%p0.2
 71
     5
 42
20.00000000000003
  3
A
100
AcDbAlignedDimension
 13
111.3956526391571
 23
109.707671226801
 33
0.0
 14
112.9787033409812
 24
129.7076712268011
 34
0.0
 50
90.0
100
AcDbRotatedDimension
  0
LINE
  5
8165
330
18
100
AcDbEntity
  8
中心線
  6
CENTER
 48
0.15
100
AcDbLine
 10
87.01565263915716
 20
232.1164944169221
 30
0.0
 11
87.015652639157
 21
170.1164944169221
 31
0.0
  0
LINE
  5
8166
330
18
100
AcDbEntity
  8
中心線
  6
CENTER
 48
0.1
100
AcDbLine
 10
87.01565263915716
 20
105.7538889520317
 30
0.0
 11
87.01565263915716
 21
133.3197407006973
 31
0.0
  0
ARC
  5
816F
330
18
100
AcDbEntity
  8
本体外線
100
AcDbCircle
 10
87.01565263915723
 20
201.1164944169221
 30
0.0
 40
29.0
100
AcDbArc
 50
65.9377724516054
 51
174.0622275483944
  0
CIRCLE
  5
8170
330
18
100
AcDbEntity
  8
本体外線
100
AcDbCircle
 10
87.01565263915723
 20
201.1164944169221
 30
0.0
 40
26.0
  0
ARC
  5
8171
330
18
100
AcDbEntity
  8
0
100
AcDbCircle
 10
87.01565263915723
 20
201.1164944169221
 30
0.0
 40
20.0
100
AcDbArc
 50
166.7386576223711
 51
102.2917100128371
  0
CIRCLE
  5
8172
330
18
100
AcDbEntity
  8
本体外線
100
AcDbCircle
 10
87.01565263915723
 20
201.1164944169221
 30
0.0
 40
19.25
  0
LINE
  5
8173
330
18
100
AcDbEntity
  8
本体外線
 48
0.08
100
AcDbLine
 10
104.0359339523664
 20
224.5964864105157
 30
0.0
 11
102.7637288505105
 21
222.3929625364529
 31
0.0
  0
LINE
  5
8174
330
18
100
AcDbEntity
  8
本体外線
 48
0.08
100
AcDbLine
 10
98.83978152965983
 20
227.5964864105158
 30
0.0
 11
97.56757642780389
 21
225.3929625364529
 31
0.0
  0
LINE
  5
8175
330
18
100
AcDbEntity
  8
本体外線
100
AcDbLine
 10
97.56757642780389
 20
225.3929625364529
 30
0.0
 11
102.7637288505105
 21
222.3929625364529
 31
0.0
  0
LINE
  5
8178
330
18
100
AcDbEntity
  8
中心線
  6
CENTER
 48
0.15
100
AcDbLine
 10
56.01565263915722
 20
201.1164944169221
 30
0.0
 11
118.0156526391572
 21
201.116494416922
 31
0.0
  0
LINE
  5
8179
330
18
100
AcDbEntity
  8
本体外線
 48
0.08
100
AcDbLine
 10
58.17124243544532
 20
204.1164944169222
 30
0.0
 11
60.71565263915721
 21
204.1164944169221
 31
0.0
  0
LINE
  5
817A
330
18
100
AcDbEntity
  8
本体外線
 48
0.08
100
AcDbLine
 10
58.17124243544532
 20
198.1164944169222
 30
0.0
 11
60.71565263915721
 21
198.1164944169221
 31
0.0
  0
LINE
  5
817B
330
18
100
AcDbEntity
  8
本体外線
100
AcDbLine
 10
60.71565263915721
 20
198.1164944169221
 30
0.0
 11
60.71565263915721
 21
204.1164944169221
 31
0.0
  0
LINE
  5
817C
330
18
100
AcDbEntity
  8
中心線
  6
CENTER
 48
0.15
100
AcDbLine
 10
71.51565263915717
 20
174.2697068996046
 30
0.0
 11
78.39065263915722
 21
186.1775562016406
 31
0.0
  0
LINE
  5
817D
330
18
100
AcDbEntity
  8
本体外線
 48
0.08
100
AcDbLine
 10
98.83978152965978
 20
174.6365024233285
 30
0.0
 11
97.56757642780378
 21
176.8400262973914
 31
0.0
  0
LINE
  5
817E
330
18
100
AcDbEntity
  8
本体外線
 48
0.08
100
AcDbLine
 10
104.0359339523664
 20
177.6365024233285
 30
0.0
 11
102.7637288505104
 21
179.8400262973913
 31
0.0
  0
LINE
  5
817F
330
18
100
AcDbEntity
  8
本体外線
100
AcDbLine
 10
102.7637288505104
 20
179.8400262973913
 30
0.0
 11
97.56757642780378
 21
176.8400262973914
 31
0.0
  0
ARC
  5
8180
330
18
100
AcDbEntity
  8
本体外線
100
AcDbCircle
 10
87.01565263915723
 20
201.1164944169221
 30
0.0
 40
29.0
100
AcDbArc
 50
185.9377724516054
 51
294.0622275483946
  0
ARC
  5
8181
330
18
100
AcDbEntity
  8
本体外線
100
AcDbCircle
 10
87.01565263915723
 20
201.1164944169221
 30
0.0
 40
29.0
100
AcDbArc
 50
305.9377724516054
 51
54.06222754839454
  0
LINE
  5
8182
330
18
100
AcDbEntity
  8
本体内線
  6
HIDDEN
 48
0.2
100
AcDbLine
 10
105.8454826968078
 20
205.1164944169221
 30
0.0
 11
115.7384658718473
 21
205.1164944169221
 31
0.0
  0
LINE
  5
8183
330
18
100
AcDbEntity
  8
本体内線
  6
HIDDEN
 48
0.2
100
AcDbLine
 10
105.8454826968078
 20
197.1164944169221
 30
0.0
 11
115.7384658718473
 21
197.1164944169221
 31
0.0
  0
LINE
  5
818A
330
18
100
AcDbEntity
  8
中心線
  6
CENTER
 48
0.15
100
AcDbLine
 10
78.39065263915722
 20
216.0554326322037
 30
0.0
 11
71.51565263915722
 21
227.9632819342397
 31
0.0
  0
LINE
  5
818C
330
18
100
AcDbEntity
  8
本体外線
100
AcDbLine
 10
58.01565263915716
 20
127.707671226801
 30
0.0
 11
58.01565263915723
 21
117.7097459577693
 31
0.0
  0
LINE
  5
818D
102
{ACAD_REACTORS
330
8485
102
}
330
18
100
AcDbEntity
  8
本体外線
100
AcDbLine
 10
116.0156526391572
 20
127.707671226801
 30
0.0
 11
116.0156526391572
 21
117.7097459577693
 31
0.0
  0
LINE
  5
818E
102
{ACAD_REACTORS
330
8485
102
}
330
18
100
AcDbEntity
  8
本体外線
100
AcDbLine
 10
61.01565263915722
 20
129.707671226801
 30
0.0
 11
113.0156526391572
 21
129.7076712268011
 31
0.0
  0
LINE
  5
818F
102
{ACAD_REACTORS
330
8485
102
}
330
18
100
AcDbEntity
  8
本体外線
100
AcDbLine
 10
62.63565263915722
 20
109.7076712268011
 30
0.0
 11
111.3956526391571
 21
109.707671226801
 31
0.0
  0
LINE
  5
8190
102
{ACAD_REACTORS
330
8485
102
}
330
18
100
AcDbEntity
  8
本体外線
100
AcDbLine
 10
61.01565263915716
 20
129.707671226801
 30
0.0
 11
61.01565263915716
 21
129.2076712268011
 31
0.0
  0
LINE
  5
8191
102
{ACAD_REACTORS
330
8485
102
}
330
18
100
AcDbEntity
  8
0
100
AcDbLine
 10
107.0156526391571
 20
127.9079450323157
 30
0.0
 11
107.0156526391571
 21
122.1899840466811
 31
0.0
  0
LINE
  5
8192
102
{ACAD_REACTORS
330
8485
102
}
330
18
100
AcDbEntity
  8
本体外線
100
AcDbLine
 10
106.2656526391571
 20
126.7076712268011
 30
0.0
 11
106.2656526391571
 21
111.707671226801
 31
0.0
  0
LINE
  5
8193
102
{ACAD_REACTORS
330
8485
102
}
330
18
100
AcDbEntity
  8
本体外線
100
AcDbLine
 10
113.0156526391572
 20
129.707671226801
 30
0.0
 11
113.0156526391572
 21
129.2076712268011
 31
0.0
  0
LINE
  5
8194
102
{ACAD_REACTORS
330
8485
102
}
330
18
100
AcDbEntity
  8
本体外線
100
AcDbLine
 10
59.51565263915717
 20
129.2076712268011
 30
0.0
 11
61.01565263915722
 21
129.2076712268011
 31
0.0
  0
LINE
  5
8195
102
{ACAD_REACTORS
330
8485
102
}
330
18
100
AcDbEntity
  8
本体外線
100
AcDbLine
 10
113.0156526391572
 20
129.2076712268011
 30
0.0
 11
114.5156526391572
 21
129.2076712268011
 31
0.0
  0
ARC
  5
8196
330
18
100
AcDbEntity
  8
本体外線
100
AcDbCircle
 10
59.51565263915717
 20
127.707671226801
 30
0.0
 40
1.5
100
AcDbArc
 50
90.0
 51
180.0
  0
ARC
  5
8197
102
{ACAD_REACTORS
330
8485
102
}
330
18
100
AcDbEntity
  8
本体外線
100
AcDbCircle
 10
114.5156526391572
 20
127.707671226801
 30
0.0
 40
1.5
100
AcDbArc
 50
0.0
 51
89.99999999999946
  0
LINE
  5
8198
102
{ACAD_REACTORS
330
8485
102
}
330
18
100
AcDbEntity
  8
本体外線
100
AcDbLine
 10
67.76565263915722
 20
111.7076712268012
 30
0.0
 11
66.51565263915728
 21
109.7076712268012
 31
0.0
  0
LINE
  5
8199
102
{ACAD_REACTORS
330
8485
102
}
330
18
100
AcDbEntity
  8
本体外線
100
AcDbLine
 10
67.76565263915734
 20
126.7076712268011
 30
0.0
 11
66.51565263915728
 21
128.7081275693255
 31
0.0
  0
LINE
  5
819A
102
{ACAD_REACTORS
330
8485
102
}
330
18
100
AcDbEntity
  8
本体外線
100
AcDbLine
 10
106.2656526391571
 20
126.7076712268011
 30
0.0
 11
107.5156526391571
 21
128.7081275693256
 31
0.0
  0
LINE
  5
819B
102
{ACAD_REACTORS
330
8485
102
}
330
18
100
AcDbEntity
  8
本体外線
100
AcDbLine
 10
106.2656526391571
 20
111.707671226801
 30
0.0
 11
107.5156526391571
 21
109.707671226801
 31
0.0
  0
LINE
  5
819C
102
{ACAD_REACTORS
330
8485
102
}
330
18
100
AcDbEntity
  8
本体外線
100
AcDbLine
 10
67.76565263915734
 20
126.7076712268011
 30
0.0
 11
67.76565263915722
 21
111.707671226801
 31
0.0
  0
LINE
  5
819D
330
18
100
AcDbEntity
  8
本体外線
100
AcDbLine
 10
67.76565263915734
 20
126.7076712268011
 30
0.0
 11
106.2656526391571
 21
126.7076712268011
 31
0.0
  0
LINE
  5
819E
330
18
100
AcDbEntity
  8
本体外線
100
AcDbLine
 10
67.76565263915722
 20
111.707671226801
 30
0.0
 11
106.2656526391571
 21
111.707671226801
 31
0.0
  0
POINT
  5
81A1
330
18
100
AcDbEntity
  8
本体外線
100
AcDbPoint
 10
113.0156526391572
 20
129.7076712268011
 30
0.0
  0
POINT
  5
81A2
330
18
100
AcDbEntity
  8
0
100
AcDbPoint
 10
113.0156526391572
 20
109.7076712268011
 30
0.0
  0
POINT
  5
81AE
330
18
100
AcDbEntity
  8
本体外線
100
AcDbPoint
 10
113.0156526391572
 20
129.7076712268011
 30
0.0
  0
POINT
  5
81AF
330
18
100
AcDbEntity
  8
0
100
AcDbPoint
 10
112.2960805892879
 20
109.707671226801
 30
0.0
  0
LINE
  5
81B2
102
{ACAD_REACTORS
330
8485
102
}
330
18
100
AcDbEntity
  8
本体外線
100
AcDbLine
 10
60.71565263915715
 20
129.2076712268011
 30
0.0
 11
60.71565263915715
 21
113.0332087773333
 31
0.0
  0
LINE
  5
81B3
330
18
100
AcDbEntity
  8
0
100
AcDbLine
 10
111.0128323161298
 20
110.6446069771478
 30
0.0
 11
115.01283231613
 21
117.5728102074238
 31
0.0
  0
LINE
  5
81B4
330
18
100
AcDbEntity
  8
本体内線
  6
HIDDEN
 48
0.2
100
AcDbLine
 10
113.6130662653017
 20
115.9407961551082
 30
0.0
 11
111.7263149193542
 21
114.8514797576311
 31
0.0
  0
LINE
  5
81B5
330
18
100
AcDbEntity
  8
本体内線
  6
HIDDEN
 48
0.2
100
AcDbLine
 10
111.726314919354
 20
114.8514797576308
 30
0.0
 11
111.7263149193537
 21
112.6728469626767
 31
0.0
  0
LWPOLYLINE
  5
81B6
102
{ACAD_REACTORS
330
8485
102
}
330
18
100
AcDbEntity
  8
本体外線
100
AcDbPolyline
 90
        2
 70
     0
 43
0.0
 10
111.3956526391572
 20
109.7076712268012
 10
116.0156526391572
 20
117.7097459577693
  0
LINE
  5
81B8
330
18
100
AcDbEntity
  8
本体内線
  6
HIDDEN
 48
0.2
100
AcDbLine
 10
114.6490283121312
 20
115.3426831885007
 30
0.0
 11
113.6130662653016
 21
115.9407961551081
 31
0.0
  0
LINE
  5
81B9
330
18
100
AcDbEntity
  8
本体内線
  6
HIDDEN
 48
0.2
100
AcDbLine
 10
112.7622769661832
 20
112.0747339960693
 30
0.0
 11
111.7263149193538
 21
112.6728469626766
 31
0.0
  0
LINE
  5
81BA
330
18
100
AcDbEntity
  8
0
100
AcDbLine
 10
109.9908483643126
 20
119.496186250446
 30
0.0
 11
111.1455489026915
 21
119.8055873272044
 31
0.0
  0
LINE
  5
81BB
330
18
100
AcDbEntity
  8
0
100
AcDbLine
 10
106.8361478259333
 20
114.0320846353081
 30
0.0
 11
107.1455489026915
 21
112.877384096929
 31
0.0
  0
LINE
  5
81BC
330
18
100
AcDbEntity
  8
0
100
AcDbLine
 10
115.01283231613
 20
115.9728102074227
 30
0.0
 11
109.720677772095
 21
119.0282370580142
 31
0.0
  0
LINE
  5
81BD
330
18
100
AcDbEntity
  8
0
100
AcDbLine
 10
112.3984729621847
 20
111.4446069771479
 30
0.0
 11
107.1063184181504
 21
114.5000338277392
 31
0.0
  0
LINE
  5
81BE
330
18
100
AcDbEntity
  8
0
100
AcDbLine
 10
110.1634980951228
 20
119.7952243561224
 30
0.0
 11
106.2656526391571
 21
122.0456464793837
 31
0.0
  0
LWPOLYLINE
  5
81BF
102
{ACAD_REACTORS
330
8485
102
}
330
18
100
AcDbEntity
  8
0
100
AcDbPolyline
 90
        3
 70
     0
 43
0.0
 10
115.01283231613
 20
115.9728102074235
 10
115.01283231613
 20
117.572810207423
 10
106.2656526391571
 20
122.6229967485733
  0
LWPOLYLINE
  5
81C0
102
{ACAD_REACTORS
330
8485
102
}
330
18
100
AcDbEntity
  8
0
100
AcDbPolyline
 90
        3
 70
     0
 43
0.0
 10
112.3984729621847
 20
111.4446069771479
 10
111.0128323161298
 20
110.6446069771478
 10
107.1455489026915
 20
112.8773840969289
  0
LINE
  5
81C4
330
18
100
AcDbEntity
  8
中心線
  6
CENTER
 48
0.1
100
AcDbLine
 10
115.4522966040115
 20
112.7695652613011
 30
0.0
 11
105.8248278782182
 21
118.2383436623241
 31
0.0
  0
LWPOLYLINE
  5
81C6
102
{ACAD_REACTORS
330
8485
102
}
330
18
100
AcDbEntity
  8
本体外線
100
AcDbPolyline
 90
        2
 70
     0
 43
0.0
 10
62.63565263915712
 20
109.7076712268012
 10
58.01565263915711
 20
117.7097459577693
  0
LINE
  5
81C7
102
{ACAD_REACTORS
330
8485
102
}
330
18
100
AcDbEntity
  8
0
100
AcDbLine
 10
67.01565263915728
 20
127.9079450323158
 30
0.0
 11
67.01565263915728
 21
110.5076712268012
 31
0.0
  0
LINE
  5
81CA
102
{ACAD_REACTORS
330
8485
102
}
330
18
100
AcDbEntity
  8
0
100
AcDbLine
 10
107.0156526391571
 20
112.9523797396471
 30
0.0
 11
107.0156526391571
 21
110.507671226801
 31
0.0
  0
LINE
  5
81CC
330
18
100
AcDbEntity
  8
0
100
AcDbLine
 10
110.1634980951228
 20
119.7952243561224
 30
0.0
 11
106.6634980951228
 21
113.7330465296313
 31
0.0
  0
LINE
  5
81CD
330
18
100
AcDbEntity
  8
0
100
AcDbLine
 10
111.1455489026915
 20
119.8055873272044
 30
0.0
 11
107.1455489026915
 21
112.877384096929
 31
0.0
  0
HATCH
  5
81CE
330
18
100
AcDbEntity
  8
0
100
AcDbHatch
 10
0.0
 20
0.0
 30
0.0
210
0.0
220
0.0
230
1.0
  2
AR-SAND
 70
     0
 71
     0
 91
        2
 92
        7
 72
     0
 73
     1
 93
        4
 10
107.0156526391571
 20
117.5619086701668
 10
108.4151251583395
 20
116.7669535990353
 10
110.1634980951228
 20
119.7952243561224
 10
107.0156526391572
 20
121.6126337774915
 97
        0
 92
        7
 72
     0
 73
     1
 93
        3
 10
107.0156526391571
 20
117.5619086701668
 10
107.0156526391571
 20
114.3429960920151
 10
108.4151251583395
 20
116.7669535990353
 97
        0
 75
     0
 76
     1
 52
0.0
 41
0.05
 77
     0
 78
     4
 53
37.5
 43
-28.13535175794371
 44
7.532571384095717
 45
-0.0800015647992023
 46
2.447066186646711
 79
     6
 49
0.0
 49
-1.9304
 49
0.0
 49
-2.159
 49
0.0
 49
-2.06375
 53
7.499999999999999
 43
-28.13535175794371
 44
7.532571384095717
 45
2.247616415690013
 46
3.584125502841771
 79
     6
 49
0.0
 49
-1.0414
 49
0.0
 49
-1.7399
 49
0.0
 49
-0.6667500000000001
 53
327.5
 43
-29.69745175794372
 44
7.532571384095717
 45
3.95496185120729
 46
0.0071859233927285
 79
     6
 49
0.0
 49
-0.635
 49
0.0
 49
-2.286
 49
0.0
 49
-2.9845
 53
317.5
 43
-29.69745175794372
 44
7.532571384095717
 45
3.817782262361486
 46
1.114646616286081
 79
     6
 49
0.0
 49
-0.3175
 49
0.0
 49
-1.498599999999999
 49
0.0
 49
-1.7145
 47
0.0255289362626138
 98
        2
 10
108.1218397097029
 20
119.1217690639773
 10
107.6106880967836
 20
116.7475775357246
  0
LINE
  5
81D0
330
18
100
AcDbEntity
  8
本体外線
100
AcDbLine
 10
66.51565263915728
 20
128.7081275693255
 30
0.0
 11
107.5156526391571
 21
128.7081275693256
 31
0.0
  0
LINE
  5
82FD
330
18
100
AcDbEntity
  8
本体内線
  6
HIDDEN
 48
0.2
100
AcDbLine
 10
105.9630139330155
 20
204.5164944169221
 30
0.0
 11
115.8156526391572
 21
204.5164944169222
 31
0.0
  0
LINE
  5
82FE
330
18
100
AcDbEntity
  8
本体内線
  6
HIDDEN
 48
0.2
100
AcDbLine
 10
105.9630139330155
 20
197.716494416922
 30
0.0
 11
115.8156526391572
 21
197.716494416922
 31
0.0
  0
LINE
  5
82FF
330
18
100
AcDbEntity
  8
本体内線
  6
HIDDEN
 48
0.2
100
AcDbLine
 10
74.13663599519395
 20
215.4236055957914
 30
0.0
 11
69.19014440767421
 21
223.9911803445877
 31
0.0
  0
LINE
  5
8300
330
18
100
AcDbEntity
  8
本体内線
  6
HIDDEN
 48
0.2
100
AcDbLine
 10
81.06483922546955
 20
219.4236055957914
 30
0.0
 11
76.11834763794973
 21
227.9911803445877
 31
0.0
  0
LINE
  5
8301
330
18
100
AcDbEntity
  8
本体内線
  6
HIDDEN
 48
0.2
100
AcDbLine
 10
74.59748561936078
 20
215.8253906320855
 30
0.0
 11
69.6711662662899
 21
224.358026045914
 31
0.0
  0
LINE
  5
8302
330
18
100
AcDbEntity
  8
本体内線
  6
HIDDEN
 48
0.2
100
AcDbLine
 10
80.48645836509502
 20
219.2253906320855
 30
0.0
 11
75.56013901202414
 21
227.7580260459141
 31
0.0
  0
LINE
  5
8303
330
18
100
AcDbEntity
  8
本体内線
  6
HIDDEN
 48
0.2
100
AcDbLine
 10
81.06483922546955
 20
182.8093832380528
 30
0.0
 11
76.1183476379498
 21
174.2418084892564
 31
0.0
  0
LINE
  5
8304
330
18
100
AcDbEntity
  8
本体内線
  6
HIDDEN
 48
0.2
100
AcDbLine
 10
74.13663599519401
 20
186.8093832380528
 30
0.0
 11
69.19014440767421
 21
178.2418084892564
 31
0.0
  0
LINE
  5
8305
330
18
100
AcDbEntity
  8
本体内線
  6
HIDDEN
 48
0.2
100
AcDbLine
 10
80.48645836509502
 20
183.0075982017587
 30
0.0
 11
75.56013901202419
 21
174.4749627879301
 31
0.0
  0
LINE
  5
8306
330
18
100
AcDbEntity
  8
本体内線
  6
HIDDEN
 48
0.2
100
AcDbLine
 10
74.59748561936078
 20
186.4075982017587
 30
0.0
 11
69.6711662662899
 21
177.8749627879301
 31
0.0
  0
LINE
  5
8368
102
{ACAD_REACTORS
330
8485
102
}
330
18
100
AcDbEntity
  8
本体外線
100
AcDbLine
 10
66.51565263915728
 20
129.707671226801
 30
0.0
 11
66.51565263915728
 21
128.7081275693255
 31
0.0
  0
LINE
  5
8369
102
{ACAD_REACTORS
330
8485
102
}
330
18
100
AcDbEntity
  8
本体外線
100
AcDbLine
 10
107.5156526391571
 20
129.7076712268011
 30
0.0
 11
107.5156526391571
 21
128.7081275693256
 31
0.0
  0
LINE
  5
836A
330
18
100
AcDbEntity
  8
0
100
AcDbLine
 10
106.6634980951228
 20
113.7330465296313
 30
0.0
 11
106.2656526391571
 21
113.9627427107289
 31
0.0
  0
LWPOLYLINE
  5
836B
102
{ACAD_REACTORS
330
8485
102
}
330
18
100
AcDbEntity
  8
0
100
AcDbPolyline
 90
        2
 70
     0
 43
0.0
 10
111.01283231613
 20
110.6446069771475
 10
106.2656526391571
 20
113.3853924415393
  0
HATCH
  5
8485
330
18
100
AcDbEntity
  8
剖面線
100
AcDbHatch
 10
0.0
 20
0.0
 30
0.0
210
0.0
220
0.0
230
1.0
  2
ANSI31
 70
     0
 71
     1
 91
        6
 92
        7
 72
     0
 73
     1
 93
       10
 10
67.01565263915728
 20
127.9079450323158
 10
66.51565263915728
 20
128.7081275693255
 10
66.51565263915728
 20
129.7076712268011
 10
61.01565263915716
 20
129.707671226801
 10
61.01565263915716
 20
129.2076712268011
 10
60.71565263915715
 20
129.2076712268011
 10
60.71565263915715
 20
113.0332087773334
 10
62.63565263915718
 20
109.7076712268011
 10
66.51565263915724
 20
109.7076712268011
 10
67.01565263915728
 20
110.5076712268012
 97
       10
330
8199
330
8368
330
818E
330
8190
330
8194
330
81B2
330
81C6
330
818F
330
8198
330
81C7
 92
        7
 72
     0
 73
     1
 93
        4
 10
67.01565263915729
 20
110.5076712268012
 10
67.76565263915722
 20
111.7076712268012
 10
67.76565263915734
 20
126.7076712268011
 10
67.01565263915729
 20
127.9079450323158
 97
        4
330
8199
330
81C7
330
8198
330
819C
 92
        7
 72
     1
 73
     1
 93
       11
 10
113.0156526391572
 20
129.7076712268011
 42
0.0
 10
107.5156526391571
 20
129.7076712268011
 42
0.0
 10
107.5156526391572
 20
128.7081275693256
 42
0.0
 10
107.0156526391571
 20
127.9079450323158
 42
0.0
 10
107.0156526391571
 20
122.1899840466811
 42
0.0
 10
115.01283231613
 20
117.572810207423
 42
0.0
 10
115.01283231613
 20
115.9728102074236
 42
0.0
 10
116.0156526391572
 20
117.7097459577693
 42
0.0
 10
116.0156526391572
 20
127.707671226801
 42
0.4142135623730895
 10
114.5156526391572
 20
129.2076712268011
 42
0.0
 10
113.0156526391572
 20
129.2076712268011
 42
0.0
 97
       10
330
8197
330
8195
330
8193
330
818E
330
8369
330
819A
330
8191
330
81BF
330
81B6
330
818D
 92
        7
 72
     0
 73
     1
 93
        4
 10
106.2656526391571
 20
126.7076712268011
 10
106.2656526391571
 20
122.6229967485733
 10
107.0156526391571
 20
122.1899840466811
 10
107.0156526391571
 20
127.9079450323158
 97
        4
330
819A
330
8192
330
81BF
330
8191
 92
        7
 72
     0
 73
     1
 93
        7
 10
107.5156526391571
 20
109.7076712268011
 10
111.3956526391571
 20
109.707671226801
 10
112.398472962185
 20
111.444606977148
 10
111.0128323161298
 20
110.6446069771478
 10
107.1455489026915
 20
112.8773840969289
 10
107.0156526391571
 20
112.9523797396472
 10
107.0156526391571
 20
110.507671226801
 97
        6
330
81CA
330
819B
330
818F
330
81B6
330
81C0
330
836B
 92
        7
 72
     0
 73
     1
 93
        4
 10
106.2656526391571
 20
113.3853924415393
 10
106.2656526391571
 20
111.707671226801
 10
107.0156526391571
 20
110.507671226801
 10
107.0156526391571
 20
112.9523797396471
 97
        4
330
836B
330
8192
330
819B
330
81CA
 75
     0
 76
     1
 52
0.0
 41
0.5
 77
     0
 78
     1
 53
45.0
 43
-209.2168287583377
 44
20.38084082802163
 45
-1.122532015133643
 46
1.122532015133644
 79
     0
 47
0.0728667947173704
 98
        9
 10
63.88660174013034
 20
124.4790252592141
 10
67.24116224350041
 20
124.5518923806683
 10
68.84551768169081
 20
127.7580310336976
 10
61.04251791288152
 20
118.4310814617187
 10
67.53286269014257
 20
122.5844884962367
 10
111.142149233955
 20
125.1348265540247
 10
106.8395607881684
 20
124.4061588373292
 10
108.370989623869
 20
111.0715350746022
 10
106.6937099685158
 20
111.9459363346368
  0
MTEXT
  5
8575
330
18
100
AcDbEntity
  8
0
100
AcDbMText
 10
17.81948278949767
 20
19.37399834316261
 30
0.0
 40
5.0
 41
0.0
 71
     1
 72
     5
  1
\Ftxt.shx,bigfont.shx|c128;呉銘宏
  7
JL
 73
     1
 44
1.0
  0
LINE
  5
8576
330
18
100
AcDbEntity
  8
図框線
100
AcDbLine
 10
0.0
 20
32.0
 30
0.0
 11
197.9999999999997
 21
32.0
 31
0.0
  0
MTEXT
  5
8577
330
18
100
AcDbEntity
  8
0
100
AcDbMText
 10
49.81948278949767
 20
19.3739983431626
 30
0.0
 40
5.0
 41
0.0
 71
     1
 72
     5
  1
\Ftxt.shx,bigfont.shx|c128;小柳
  7
JL
 73
     1
 44
1.0
  0
LINE
  5
8643
330
18
100
AcDbEntity
  8
DIM
 62
     6
100
AcDbLine
 10
48.35804021556555
 20
204.1164944169222
 30
0.0
 11
48.35804021556555
 21
198.1164944169222
 31
0.0
  0
ENDSEC
  0
SECTION
  2
OBJECTS
  0
DICTIONARY
  5
C
330
0
100
AcDbDictionary
281
     1
  3
ACAD_COLOR
350
857B
  3
ACAD_GROUP
350
D
  3
ACAD_LAYOUT
350
5CF3
  3
ACAD_MATERIAL
350
857A
  3
ACAD_MLINESTYLE
350
1B
  3
ACAD_PLOTSETTINGS
350
5CF4
  3
ACAD_PLOTSTYLENAME
350
5CF1
  3
ACAD_TABLESTYLE
350
857C
  3
ACDBVARIABLEDICTIONARY
350
45D
  0
DICTIONARY
  5
45F
330
18
100
AcDbDictionary
280
     1
281
     1
  3
ACAD_LAYOUTSELFREF
360
5D8B
  3
ACAD_SORTENTS
360
460
  0
DICTIONARY
  5
5D89
330
15
100
AcDbDictionary
280
     1
281
     1
  3
ACAD_LAYOUTSELFREF
360
5D8A
  0
DICTIONARY
  5
857B
102
{ACAD_REACTORS
330
C
102
}
330
C
100
AcDbDictionary
281
     1
  0
DICTIONARY
  5
D
102
{ACAD_REACTORS
330
C
102
}
330
C
100
AcDbDictionary
281
     1
  0
DICTIONARY
  5
5CF3
102
{ACAD_REACTORS
330
C
102
}
330
C
100
AcDbDictionary
281
     1
  3
Model
350
5CF5
  3
配置1
350
5CF6
  0
DICTIONARY
  5
857A
102
{ACAD_REACTORS
330
C
102
}
330
C
100
AcDbDictionary
281
     1
  0
DICTIONARY
  5
1B
102
{ACAD_REACTORS
330
C
102
}
330
C
100
AcDbDictionary
281
     1
  3
STANDARD
350
1C
  0
DICTIONARY
  5
5CF4
102
{ACAD_REACTORS
330
C
102
}
330
C
100
AcDbDictionary
281
     1
  0
ACDBDICTIONARYWDFLT
  5
5CF1
102
{ACAD_REACTORS
330
C
102
}
330
C
100
AcDbDictionary
281
     1
  3
Normal
350
5CF2
100
AcDbDictionaryWithDefault
340
5CF2
  0
DICTIONARY
  5
857C
102
{ACAD_REACTORS
330
C
102
}
330
C
100
AcDbDictionary
281
     1
  3
Standard
350
857D
  0
DICTIONARY
  5
45D
102
{ACAD_REACTORS
330
C
102
}
330
C
100
AcDbDictionary
281
     1
  3
CTABLESTYLE
350
8645
  3
SORTENTS
350
45E
  0
XRECORD
  5
5D8B
102
{ACAD_REACTORS
330
45F
102
}
330
45F
100
AcDbXrecord
280
     1
340
18
  0
SORTENTSTABLE
  5
460
102
{ACAD_REACTORS
330
45F
102
}
330
45F
100
AcDbSortentsTable
330
18
331
C0
  5
CB
  0
XRECORD
  5
5D8A
102
{ACAD_REACTORS
330
5D89
102
}
330
5D89
100
AcDbXrecord
280
     1
340
15
  0
LAYOUT
  5
5CF5
102
{ACAD_REACTORS
330
5CF3
102
}
330
5CF3
100
AcDbPlotSettings
  1

  2
EPSON STYLUS COLOR 440
  4

  6

 40
0.0
 41
0.0
 42
0.0
 43
0.0
 44
0.0
 45
0.0
 46
0.0
 47
0.0
 48
0.0
 49
0.0
140
0.0
141
0.0
142
1.0
143
1.0
 70
  1712
 72
     0
 73
     0
 74
     0
  7
a.ctb
 75
     0
147
1.0
 76
     0
 77
     2
 78
   300
148
0.0
149
0.0
100
AcDbLayout
  1
Model
 70
     1
 71
     0
 10
0.0
 20
0.0
 11
12.0
 21
9.0
 12
0.0
 22
0.0
 32
0.0
 14
0.0
 24
0.0
 34
0.0
 15
0.0
 25
0.0
 35
0.0
146
0.0
 13
0.0
 23
0.0
 33
0.0
 16
1.0
 26
0.0
 36
0.0
 17
0.0
 27
1.0
 37
0.0
 76
     0
330
18
  0
LAYOUT
  5
5CF6
102
{ACAD_REACTORS
330
5CF3
102
}
330
5CF3
100
AcDbPlotSettings
  1

  2
EPSON STYLUS COLOR 440
  4

  6

 40
0.0
 41
0.0
 42
0.0
 43
0.0
 44
0.0
 45
0.0
 46
0.0
 47
0.0
 48
0.0
 49
0.0
140
0.0
141
0.0
142
1.0
143
1.0
 70
   688
 72
     0
 73
     0
 74
     5
  7
a.ctb
 75
    16
147
1.0
 76
     0
 77
     2
 78
   300
148
0.0
149
0.0
100
AcDbLayout
  1
ｰtｸm1
 70
     1
 71
     1
 10
0.0
 20
0.0
 11
420.0
 21
297.0
 12
0.0
 22
0.0
 32
0.0
 14
1.000000000000000E+20
 24
1.000000000000000E+20
 34
1.000000000000000E+20
 15
-1.000000000000000E+20
 25
-1.000000000000000E+20
 35
-1.000000000000000E+20
146
0.0
 13
0.0
 23
0.0
 33
0.0
 16
1.0
 26
0.0
 36
0.0
 17
0.0
 27
1.0
 37
0.0
 76
     0
330
15
  0
MLINESTYLE
  5
1C
102
{ACAD_REACTORS
330
1B
102
}
330
1B
100
AcDbMlineStyle
  2
STANDARD
 70
     0
  3

 62
   256
 51
90.0
 52
90.0
 71
     2
 49
0.5
 62
   256
  6
BYLAYER
 49
-0.5
 62
   256
  6
BYLAYER
  0
ACDBPLACEHOLDER
  5
5CF2
102
{ACAD_REACTORS
330
5CF1
102
}
330
5CF1
  0
TABLESTYLE
  5
857D
102
{ACAD_REACTORS
330
857C
102
}
330
857C
100
AcDbTableStyle
  3
Standard
 70
     0
 71
     8
 40
1.5
 41
1.5
280
     0
281
     0
  7
STANDARD
140
4.5
170
     2
 62
     0
 63
     7
283
     0
274
    -2
284
     1
 64
     0
275
    -2
285
     1
 65
     0
276
    -2
286
     1
 66
     0
277
    -2
287
     1
 67
     0
278
    -2
288
     1
 68
     0
279
    -2
289
     1
 69
     0
  7
STANDARD
140
6.0
170
     5
 62
     0
 63
     7
283
     0
274
    -2
284
     1
 64
     0
275
    -2
285
     1
 65
     0
276
    -2
286
     1
 66
     0
277
    -2
287
     1
 67
     0
278
    -2
288
     1
 68
     0
279
    -2
289
     1
 69
     0
  7
STANDARD
140
4.5
170
     5
 62
     0
 63
     7
283
     0
274
    -2
284
     1
 64
     0
275
    -2
285
     1
 65
     0
276
    -2
286
     1
 66
     0
277
    -2
287
     1
 67
     0
278
    -2
288
     1
 68
     0
279
    -2
289
     1
 69
     0
  0
DICTIONARYVAR
  5
8645
102
{ACAD_REACTORS
330
45D
102
}
330
45D
100
DictionaryVariables
280
     0
  1
STANDARD
  0
DICTIONARYVAR
  5
45E
102
{ACAD_REACTORS
330
45D
102
}
330
45D
100
DictionaryVariables
280
     0
  1
127
  0
ENDSEC
  0
EOF
