  0
SECTION
  2
HEADER
  9
$ACADVER
  1
AC1018
  9
$ACADMAINTVER
 70
    76
  9
$DWGCODEPAGE
  3
ANSI_932
  9
$INSBASE
 10
0.0
 20
0.0
 30
0.0
  9
$EXTMIN
 10
-0.0000000000002274
 20
-0.0000000000000568
 30
0.0
  9
$EXTMAX
 10
197.9999999999997
 20
290.0
 30
4.0
  9
$LIMMIN
 10
0.0
 20
0.0
  9
$LIMMAX
 10
420.0
 20
297.0
  9
$ORTHOMODE
 70
     0
  9
$REGENMODE
 70
     1
  9
$FILLMODE
 70
     1
  9
$QTEXTMODE
 70
     0
  9
$MIRRTEXT
 70
     1
  9
$LTSCALE
 40
1.0
  9
$ATTMODE
 70
     1
  9
$TEXTSIZE
 40
2.5
  9
$TRACEWID
 40
1.0
  9
$TEXTSTYLE
  7
TXT
  9
$CLAYER
  8
0
  9
$CELTYPE
  6
BYLAYER
  9
$CECOLOR
 62
   256
  9
$CELTSCALE
 40
1.0
  9
$DISPSILH
 70
     0
  9
$DIMSCALE
 40
1.0
  9
$DIMASZ
 40
2.5
  9
$DIMEXO
 40
1.0
  9
$DIMDLI
 40
6.0
  9
$DIMRND
 40
0.0
  9
$DIMDLE
 40
0.0
  9
$DIMEXE
 40
1.0
  9
$DIMTP
 40
0.0
  9
$DIMTM
 40
0.0
  9
$DIMTXT
 40
3.0
  9
$DIMCEN
 40
0.0
  9
$DIMTSZ
 40
0.0
  9
$DIMTOL
 70
     0
  9
$DIMLIM
 70
     0
  9
$DIMTIH
 70
     0
  9
$DIMTOH
 70
     0
  9
$DIMSE1
 70
     0
  9
$DIMSE2
 70
     0
  9
$DIMTAD
 70
     3
  9
$DIMZIN
 70
     8
  9
$DIMBLK
  1

  9
$DIMASO
 70
     1
  9
$DIMSHO
 70
     1
  9
$DIMPOST
  1

  9
$DIMAPOST
  1

  9
$DIMALT
 70
     0
  9
$DIMALTD
 70
     2
  9
$DIMALTF
 40
25.4
  9
$DIMLFAC
 40
1.0
  9
$DIMTOFL
 70
     0
  9
$DIMTVP
 40
0.0
  9
$DIMTIX
 70
     0
  9
$DIMSOXD
 70
     0
  9
$DIMSAH
 70
     0
  9
$DIMBLK1
  1

  9
$DIMBLK2
  1

  9
$DIMSTYLE
  2
A
  9
$DIMCLRD
 70
     6
  9
$DIMCLRE
 70
     6
  9
$DIMCLRT
 70
     3
  9
$DIMTFAC
 40
1.0
  9
$DIMGAP
 40
1.0
  9
$DIMJUST
 70
     0
  9
$DIMSD1
 70
     0
  9
$DIMSD2
 70
     0
  9
$DIMTOLJ
 70
     1
  9
$DIMTZIN
 70
     0
  9
$DIMALTZ
 70
     0
  9
$DIMALTTZ
 70
     0
  9
$DIMUPT
 70
     0
  9
$DIMDEC
 70
     1
  9
$DIMTDEC
 70
     1
  9
$DIMALTU
 70
     2
  9
$DIMALTTD
 70
     2
  9
$DIMTXSTY
  7
TXT
  9
$DIMAUNIT
 70
     0
  9
$DIMADEC
 70
     0
  9
$DIMALTRND
 40
0.0
  9
$DIMAZIN
 70
     0
  9
$DIMDSEP
 70
    46
  9
$DIMATFIT
 70
     3
  9
$DIMFRAC
 70
     0
  9
$DIMLDRBLK
  1

  9
$DIMLUNIT
 70
     2
  9
$DIMLWD
 70
    -2
  9
$DIMLWE
 70
    -2
  9
$DIMTMOVE
 70
     1
  9
$LUNITS
 70
     2
  9
$LUPREC
 70
     2
  9
$SKETCHINC
 40
1.0
  9
$FILLETRAD
 40
1.5
  9
$AUNITS
 70
     0
  9
$AUPREC
 70
     2
  9
$MENU
  1
.
  9
$ELEVATION
 40
0.0
  9
$PELEVATION
 40
0.0
  9
$THICKNESS
 40
0.0
  9
$LIMCHECK
 70
     0
  9
$CHAMFERA
 40
0.0
  9
$CHAMFERB
 40
0.0
  9
$CHAMFERC
 40
1.75
  9
$CHAMFERD
 40
0.0174532925199433
  9
$SKPOLY
 70
     0
  9
$TDCREATE
 40
2451555.578568171
  9
$TDUCREATE
 40
2451555.203568172
  9
$TDUPDATE
 40
2455846.596860081
  9
$TDUUPDATE
 40
2455846.221860081
  9
$TDINDWG
 40
2.6531814583
  9
$TDUSRTIMER
 40
2.6531814583
  9
$USRTIMER
 70
     1
  9
$ANGBASE
 50
0.0
  9
$ANGDIR
 70
     0
  9
$PDMODE
 70
     0
  9
$PDSIZE
 40
0.0
  9
$PLINEWID
 40
0.0
  9
$SPLFRAME
 70
     0
  9
$SPLINETYPE
 70
     6
  9
$SPLINESEGS
 70
     8
  9
$HANDSEED
  5
8932
  9
$SURFTAB1
 70
     6
  9
$SURFTAB2
 70
     6
  9
$SURFTYPE
 70
     6
  9
$SURFU
 70
     6
  9
$SURFV
 70
     6
  9
$UCSBASE
  2

  9
$UCSNAME
  2

  9
$UCSORG
 10
0.0
 20
0.0
 30
0.0
  9
$UCSXDIR
 10
1.0
 20
0.0
 30
0.0
  9
$UCSYDIR
 10
0.0
 20
1.0
 30
0.0
  9
$UCSORTHOREF
  2

  9
$UCSORTHOVIEW
 70
     0
  9
$UCSORGTOP
 10
0.0
 20
0.0
 30
0.0
  9
$UCSORGBOTTOM
 10
0.0
 20
0.0
 30
0.0
  9
$UCSORGLEFT
 10
0.0
 20
0.0
 30
0.0
  9
$UCSORGRIGHT
 10
0.0
 20
0.0
 30
0.0
  9
$UCSORGFRONT
 10
0.0
 20
0.0
 30
0.0
  9
$UCSORGBACK
 10
0.0
 20
0.0
 30
0.0
  9
$PUCSBASE
  2

  9
$PUCSNAME
  2

  9
$PUCSORG
 10
0.0
 20
0.0
 30
0.0
  9
$PUCSXDIR
 10
1.0
 20
0.0
 30
0.0
  9
$PUCSYDIR
 10
0.0
 20
1.0
 30
0.0
  9
$PUCSORTHOREF
  2

  9
$PUCSORTHOVIEW
 70
     0
  9
$PUCSORGTOP
 10
0.0
 20
0.0
 30
0.0
  9
$PUCSORGBOTTOM
 10
0.0
 20
0.0
 30
0.0
  9
$PUCSORGLEFT
 10
0.0
 20
0.0
 30
0.0
  9
$PUCSORGRIGHT
 10
0.0
 20
0.0
 30
0.0
  9
$PUCSORGFRONT
 10
0.0
 20
0.0
 30
0.0
  9
$PUCSORGBACK
 10
0.0
 20
0.0
 30
0.0
  9
$USERI1
 70
     0
  9
$USERI2
 70
     0
  9
$USERI3
 70
     0
  9
$USERI4
 70
     0
  9
$USERI5
 70
     0
  9
$USERR1
 40
0.0
  9
$USERR2
 40
0.0
  9
$USERR3
 40
0.0
  9
$USERR4
 40
0.0
  9
$USERR5
 40
0.0
  9
$WORLDVIEW
 70
     1
  9
$SHADEDGE
 70
     3
  9
$SHADEDIF
 70
    70
  9
$TILEMODE
 70
     1
  9
$MAXACTVP
 70
    48
  9
$PINSBASE
 10
0.0
 20
0.0
 30
0.0
  9
$PLIMCHECK
 70
     0
  9
$PEXTMIN
 10
1.000000000000000E+20
 20
1.000000000000000E+20
 30
1.000000000000000E+20
  9
$PEXTMAX
 10
-1.000000000000000E+20
 20
-1.000000000000000E+20
 30
-1.000000000000000E+20
  9
$PLIMMIN
 10
0.0
 20
0.0
  9
$PLIMMAX
 10
420.0
 20
297.0
  9
$UNITMODE
 70
     0
  9
$VISRETAIN
 70
     1
  9
$PLINEGEN
 70
     0
  9
$PSLTSCALE
 70
     1
  9
$TREEDEPTH
 70
  3020
  9
$CMLSTYLE
  2
STANDARD
  9
$CMLJUST
 70
     0
  9
$CMLSCALE
 40
20.0
  9
$PROXYGRAPHICS
 70
     1
  9
$MEASUREMENT
 70
     1
  9
$CELWEIGHT
370
    -1
  9
$ENDCAPS
280
     0
  9
$JOINSTYLE
280
     0
  9
$LWDISPLAY
290
     0
  9
$INSUNITS
 70
     0
  9
$HYPERLINKBASE
  1

  9
$STYLESHEET
  1

  9
$XEDIT
290
     1
  9
$CEPSNTYPE
380
     0
  9
$PSTYLEMODE
290
     1
  9
$FINGERPRINTGUID
  2
{1CF51E8A-A506-11D4-A7D9-AF69F5C20846}
  9
$VERSIONGUID
  2
{1CF51E8C-A506-11D4-A7D9-AF69F5C20846}
  9
$EXTNAMES
290
     1
  9
$PSVPSCALE
 40
0.0
  9
$OLESTARTUP
290
     0
  9
$SORTENTS
280
   127
  9
$INDEXCTL
280
     0
  9
$HIDETEXT
280
     0
  9
$XCLIPFRAME
290
     0
  9
$HALOGAP
280
     0
  9
$OBSCOLOR
 70
   257
  9
$OBSLTYPE
280
     0
  9
$INTERSECTIONDISPLAY
280
     0
  9
$INTERSECTIONCOLOR
 70
   257
  9
$DIMASSOC
280
     1
  9
$PROJECTNAME
  1

  0
ENDSEC
  0
SECTION
  2
CLASSES
  0
CLASS
  1
DICTIONARYVAR
  2
AcDbDictionaryVar
  3
ObjectDBX Classes
 90
        0
 91
        2
280
     0
281
     0
  0
CLASS
  1
SORTENTSTABLE
  2
AcDbSortentsTable
  3
ObjectDBX Classes
 90
        0
 91
        1
280
     0
281
     0
  0
CLASS
  1
ACDBDICTIONARYWDFLT
  2
AcDbDictionaryWithDefault
  3
ObjectDBX Classes
 90
        0
 91
        1
280
     0
281
     0
  0
CLASS
  1
TABLESTYLE
  2
AcDbTableStyle
  3
ObjectDBX Classes
 90
     2047
 91
        1
280
     0
281
     0
  0
ENDSEC
  0
SECTION
  2
TABLES
  0
TABLE
  2
VPORT
  5
8
330
0
100
AcDbSymbolTable
 70
     2
  0
VPORT
  5
8931
330
8
100
AcDbSymbolTableRecord
100
AcDbViewportTableRecord
  2
*Active
 70
     0
 10
0.0
 20
0.0
 11
1.0
 21
1.0
 12
192.8027668408528
 22
144.9921821466202
 13
0.0
 23
0.0
 14
10.0
 24
10.0
 15
10.0
 25
10.0
 16
0.0
 26
0.0
 36
1.0
 17
0.0
 27
0.0
 37
0.0
 40
293.4687630482036
 41
2.47104247104247
 42
50.0
 43
0.0
 44
0.0
 50
0.0
 51
0.0
 71
     0
 72
   100
 73
     1
 74
     1
 75
     0
 76
     0
 77
     0
 78
     0
281
     0
 65
     1
110
0.0
120
0.0
130
0.0
111
1.0
121
0.0
131
0.0
112
0.0
122
1.0
132
0.0
 79
     0
146
0.0
  0
ENDTAB
  0
TABLE
  2
LTYPE
  5
5
330
0
100
AcDbSymbolTable
 70
     7
  0
LTYPE
  5
12
330
5
100
AcDbSymbolTableRecord
100
AcDbLinetypeTableRecord
  2
BYBLOCK
 70
     0
  3

 72
    65
 73
     0
 40
0.0
  0
LTYPE
  5
13
330
5
100
AcDbSymbolTableRecord
100
AcDbLinetypeTableRecord
  2
BYLAYER
 70
     0
  3

 72
    65
 73
     0
 40
0.0
  0
LTYPE
  5
14
330
5
100
AcDbSymbolTableRecord
100
AcDbLinetypeTableRecord
  2
CONTINUOUS
 70
     0
  3
Solid line
 72
    65
 73
     0
 40
0.0
  0
LTYPE
  5
9D
330
5
100
AcDbSymbolTableRecord
100
AcDbLinetypeTableRecord
  2
CENTERX2
 70
     0
  3
Center (2x) ________  __  ________  __  _____
 72
    65
 73
     4
 40
101.6
 49
63.5
 74
     0
 49
-12.7
 74
     0
 49
12.7
 74
     0
 49
-12.7
 74
     0
  0
LTYPE
  5
A1
330
5
100
AcDbSymbolTableRecord
100
AcDbLinetypeTableRecord
  2
DASHED
 70
     0
  3
Dashed __ __ __ __ __ __ __ __ __ __ __ __ __ _
 72
    65
 73
     2
 40
19.05
 49
12.7
 74
     0
 49
-6.349999999999999
 74
     0
  0
LTYPE
  5
A2
330
5
100
AcDbSymbolTableRecord
100
AcDbLinetypeTableRecord
  2
DASHED2
 70
     0
  3
Dashed (.5x) _ _ _ _ _ _ _ _ _ _ _ _ _ _ _ _ _
 72
    65
 73
     2
 40
9.524999999999998
 49
6.349999999999999
 74
     0
 49
-3.174999999999999
 74
     0
  0
LTYPE
  5
A5
330
5
100
AcDbSymbolTableRecord
100
AcDbLinetypeTableRecord
  2
DIVIDE2
 70
     0
  3
Divide (.5x) __..__..__..__..__..__..__..__.._
 72
    65
 73
     6
 40
15.875
 49
6.349999999999999
 74
     0
 49
-3.174999999999999
 74
     0
 49
0.0
 74
     0
 49
-3.174999999999999
 74
     0
 49
0.0
 74
     0
 49
-3.174999999999999
 74
     0
  0
LTYPE
  5
650B
330
5
100
AcDbSymbolTableRecord
100
AcDbLinetypeTableRecord
  2
CENTER
 70
     0
  3
Center ____ _ ____ _ ____ _ ____ _ ____ _ ____
 72
    65
 73
     4
 40
50.8
 49
31.75
 74
     0
 49
-6.349999999999999
 74
     0
 49
6.349999999999999
 74
     0
 49
-6.349999999999999
 74
     0
  0
LTYPE
  5
650C
330
5
100
AcDbSymbolTableRecord
100
AcDbLinetypeTableRecord
  2
HIDDEN
 70
     0
  3
Hidden __ __ __ __ __ __ __ __ __ __ __ __ __ _
 72
    65
 73
     2
 40
9.524999999999998
 49
6.349999999999999
 74
     0
 49
-3.174999999999999
 74
     0
  0
ENDTAB
  0
TABLE
  2
LAYER
  5
2
330
0
100
AcDbSymbolTable
 70
     9
  0
LAYER
  5
E
330
2
100
AcDbSymbolTableRecord
100
AcDbLayerTableRecord
  2
0
 70
     0
 62
     7
  6
CONTINUOUS
370
    -3
390
5CF2
  0
LAYER
  5
B9
330
2
100
AcDbSymbolTableRecord
100
AcDbLayerTableRecord
  2
DIM
 70
     0
 62
     3
  6
CONTINUOUS
370
    -3
390
5CF2
  0
LAYER
  5
F2
330
2
100
AcDbSymbolTableRecord
100
AcDbLayerTableRecord
  2
DEFPOINTS
 70
     0
 62
     4
  6
CONTINUOUS
290
     0
370
    -3
390
5CF2
  0
LAYER
  5
5F8B
330
2
100
AcDbSymbolTableRecord
100
AcDbLayerTableRecord
  2
公差
 70
     0
 62
     6
  6
CONTINUOUS
370
    -3
390
5CF2
  0
LAYER
  5
644E
330
2
100
AcDbSymbolTableRecord
100
AcDbLayerTableRecord
  2
図框線
 70
     0
 62
     9
  6
CONTINUOUS
370
    -3
390
5CF2
  0
LAYER
  5
650D
330
2
100
AcDbSymbolTableRecord
100
AcDbLayerTableRecord
  2
中心線
 70
     0
 62
     1
  6
CENTER
370
    -3
390
5CF2
  0
LAYER
  5
650E
330
2
100
AcDbSymbolTableRecord
100
AcDbLayerTableRecord
  2
本体内線
 70
     0
 62
     4
  6
HIDDEN
370
    -3
390
5CF2
  0
LAYER
  5
650F
330
2
100
AcDbSymbolTableRecord
100
AcDbLayerTableRecord
  2
本体外線
 70
     0
 62
     2
  6
CONTINUOUS
370
    -3
390
5CF2
  0
LAYER
  5
6510
330
2
100
AcDbSymbolTableRecord
100
AcDbLayerTableRecord
  2
剖面線
 70
     0
 62
     5
  6
CONTINUOUS
370
    -3
390
5CF2
  0
ENDTAB
  0
TABLE
  2
STYLE
  5
3
330
0
100
AcDbSymbolTable
 70
     5
  0
STYLE
  5
F
330
3
100
AcDbSymbolTableRecord
100
AcDbTextStyleTableRecord
  2
STANDARD
 70
     0
 40
0.0
 41
1.0
 50
0.0
 71
     0
 42
2.5
  3
txt
  4

  0
STYLE
  5
BE
330
3
100
AcDbSymbolTableRecord
100
AcDbTextStyleTableRecord
  2
ISOCP3
 70
     0
 40
0.0
 41
1.0
 50
0.0
 71
     0
 42
2.5
  3
isocp3.shx
  4

  0
STYLE
  5
2A37
330
3
100
AcDbSymbolTableRecord
100
AcDbTextStyleTableRecord
  2
TXT
 70
     0
 40
0.0
 41
1.0
 50
0.0
 71
     0
 42
2.5
  3
txt.shx
  4
bigfont.shx
  0
STYLE
  5
5DCB
330
3
100
AcDbSymbolTableRecord
100
AcDbTextStyleTableRecord
  2
LKK
 70
     0
 40
50.0
 41
1.5
 50
0.0
 71
     0
 42
50.0
  3
MS PGothic.ttf
  4

1001
ACAD
1000
MS PGothic
1071
    32818
  0
STYLE
  5
5DCC
330
3
100
AcDbSymbolTableRecord
100
AcDbTextStyleTableRecord
  2
JL
 70
     0
 40
10.0
 41
0.5
 50
0.0
 71
     0
 42
5.0
  3
MS Mincho.ttf
  4

1001
ACAD
1000
MS Mincho
1071
    32785
  0
ENDTAB
  0
TABLE
  2
VIEW
  5
6
330
0
100
AcDbSymbolTable
 70
     0
  0
ENDTAB
  0
TABLE
  2
UCS
  5
7
330
0
100
AcDbSymbolTable
 70
     0
  0
ENDTAB
  0
TABLE
  2
APPID
  5
9
330
0
100
AcDbSymbolTable
 70
     1
  0
APPID
  5
10
330
9
100
AcDbSymbolTableRecord
100
AcDbRegAppTableRecord
  2
ACAD
 70
     0
  0
ENDTAB
  0
TABLE
  2
DIMSTYLE
  5
A
330
0
100
AcDbSymbolTable
 70
     3
100
AcDbDimStyleTable
 71
     0
  0
DIMSTYLE
105
1D
330
A
100
AcDbSymbolTableRecord
100
AcDbDimStyleTableRecord
  2
STANDARD
 70
     0
 41
3.0
 42
0.06
 77
     3
140
4.0
144
0.3333333333333333
172
     1
340
F
  0
DIMSTYLE
105
1A4
102
{ACAD_REACTORS
330
6770
330
677F
330
6864
330
6C92
330
6CAA
330
6F74
330
74C6
330
750D
330
7568
330
7575
330
7AD6
330
8546
102
}
330
A
100
AcDbSymbolTableRecord
100
AcDbDimStyleTableRecord
  2
A
 70
     0
 41
2.5
 42
1.0
 43
6.0
 44
1.0
 73
     0
 74
     0
 77
     3
 78
     8
140
3.0
141
0.0
147
1.0
176
     6
177
     6
178
     3
271
     1
272
     1
279
     1
340
2A37
  0
DIMSTYLE
105
6006
330
A
100
AcDbSymbolTableRecord
100
AcDbDimStyleTableRecord
  2
ISO-25
 70
     0
 40
0.0
 41
2.0
 42
0.3
 43
1.0
 44
0.3
 73
     0
 74
     0
 77
     1
 78
     8
140
3.0
147
1.0
172
     1
176
     6
177
     6
178
     3
271
     1
272
     2
284
     8
288
     1
289
     2
340
F
  0
ENDTAB
  0
TABLE
  2
BLOCK_RECORD
  5
1
330
0
100
AcDbSymbolTable
 70
    13
  0
BLOCK_RECORD
  5
18
102
{ACAD_XDICTIONARY
360
45F
102
}
330
1
100
AcDbSymbolTableRecord
100
AcDbBlockTableRecord
  2
*MODEL_SPACE
340
5CF5
  0
BLOCK_RECORD
  5
15
102
{ACAD_XDICTIONARY
360
5D89
102
}
330
1
100
AcDbSymbolTableRecord
100
AcDbBlockTableRecord
  2
*PAPER_SPACE
340
5CF6
  0
BLOCK_RECORD
  5
639D
330
1
100
AcDbSymbolTableRecord
100
AcDbBlockTableRecord
  2
A$C255C26A2
340
0
102
{BLKREFS
331
63A3
102
}
  0
BLOCK_RECORD
  5
67BC
330
1
100
AcDbSymbolTableRecord
100
AcDbBlockTableRecord
  2
*D1
340
0
  0
BLOCK_RECORD
  5
67D9
330
1
100
AcDbSymbolTableRecord
100
AcDbBlockTableRecord
  2
*D2
340
0
  0
BLOCK_RECORD
  5
6854
330
1
100
AcDbSymbolTableRecord
100
AcDbBlockTableRecord
  2
*D3
340
0
  0
BLOCK_RECORD
  5
6C86
330
1
100
AcDbSymbolTableRecord
100
AcDbBlockTableRecord
  2
*D4
340
0
  0
BLOCK_RECORD
  5
6C9E
330
1
100
AcDbSymbolTableRecord
100
AcDbBlockTableRecord
  2
*D5
340
0
  0
BLOCK_RECORD
  5
6FE3
330
1
100
AcDbSymbolTableRecord
100
AcDbBlockTableRecord
  2
*D6
340
0
  0
BLOCK_RECORD
  5
74B6
330
1
100
AcDbSymbolTableRecord
100
AcDbBlockTableRecord
  2
*D7
340
0
  0
BLOCK_RECORD
  5
7501
330
1
100
AcDbSymbolTableRecord
100
AcDbBlockTableRecord
  2
*D8
340
0
  0
BLOCK_RECORD
  5
755C
330
1
100
AcDbSymbolTableRecord
100
AcDbBlockTableRecord
  2
*D9
340
0
  0
BLOCK_RECORD
  5
7569
330
1
100
AcDbSymbolTableRecord
100
AcDbBlockTableRecord
  2
*D10
340
0
  0
BLOCK_RECORD
  5
7AC6
330
1
100
AcDbSymbolTableRecord
100
AcDbBlockTableRecord
  2
*D11
340
0
  0
BLOCK_RECORD
  5
8538
330
1
100
AcDbSymbolTableRecord
100
AcDbBlockTableRecord
  2
*D12
340
0
  0
ENDTAB
  0
ENDSEC
  0
SECTION
  2
BLOCKS
  0
BLOCK
  5
19
330
18
100
AcDbEntity
  8
0
100
AcDbBlockBegin
  2
*MODEL_SPACE
 70
     0
 10
0.0
 20
0.0
 30
0.0
  3
*MODEL_SPACE
  1

  0
ENDBLK
  5
1A
330
18
100
AcDbEntity
  8
0
100
AcDbBlockEnd
  0
BLOCK
  5
16
330
15
100
AcDbEntity
 67
     1
  8
0
100
AcDbBlockBegin
  2
*PAPER_SPACE
 70
     0
 10
0.0
 20
0.0
 30
0.0
  3
*PAPER_SPACE
  1

  0
ENDBLK
  5
17
330
15
100
AcDbEntity
 67
     1
  8
0
100
AcDbBlockEnd
  0
BLOCK
  5
63A1
330
639D
100
AcDbEntity
  8
0
100
AcDbBlockBegin
  2
A$C255C26A2
 70
     0
 10
0.0
 20
0.0
 30
0.0
  3
A$C255C26A2
  1

  0
LWPOLYLINE
  5
639E
330
639D
100
AcDbEntity
  8
0
100
AcDbPolyline
 90
        3
 70
     1
 43
0.0
 10
7.014806023851633
 20
0.0000006939811783
 10
5.611844869720698
 20
2.430000693981241
 10
8.417767177982568
 20
2.430000693981241
  0
LWPOLYLINE
  5
639F
330
639D
100
AcDbEntity
  8
0
100
AcDbPolyline
 90
        3
 70
     1
 43
0.0
 10
4.20888371558999
 20
0.0000006939811783
 10
2.805922561459283
 20
2.430000693981241
 10
5.611844869720698
 20
2.430000693981241
  0
LWPOLYLINE
  5
63A0
330
639D
100
AcDbEntity
  8
0
100
AcDbPolyline
 90
        3
 70
     1
 43
0.0
 10
1.402961407328348
 20
0.0000006939811783
 10
0.0000002531974133
 20
2.430000693981241
 10
2.805922561459283
 20
2.430000693981241
  0
ENDBLK
  5
63A2
330
639D
100
AcDbEntity
  8
0
100
AcDbBlockEnd
  0
BLOCK
  5
88EF
330
67BC
100
AcDbEntity
  8
0
100
AcDbBlockBegin
  2
*D1
 70
     1
 10
0.0
 20
0.0
 30
0.0
  3
*D1
  1

  0
LINE
  5
88F0
330
67BC
100
AcDbEntity
  8
0
  6
ByBlock
 62
     6
100
AcDbLine
 10
283.4324822786161
 20
82.5486688560796
 30
0.0
 11
283.4324822786161
 21
61.986129900381
 31
0.0
  0
LINE
  5
88F1
330
67BC
100
AcDbEntity
  8
0
  6
ByBlock
 62
     6
100
AcDbLine
 10
328.4324822786163
 20
82.54866885607951
 30
0.0
 11
328.4324822786163
 21
61.986129900381
 31
0.0
  0
LINE
  5
88F2
330
67BC
100
AcDbEntity
  8
0
  6
ByBlock
 62
     6
100
AcDbLine
 10
285.9324822786161
 20
62.986129900381
 30
0.0
 11
325.9324822786163
 21
62.986129900381
 31
0.0
  0
MTEXT
  5
88F3
330
67BC
100
AcDbEntity
  8
0
  6
ByBlock
 62
     3
100
AcDbMText
 10
305.932482278616
 20
65.486129900381
 30
0.0
 40
3.0
 41
0.0
 71
     5
 72
     1
  1
\A1;M45X1.5P
  7
TXT
 73
     1
 44
1.0
  0
SOLID
  5
88F4
330
67BC
100
AcDbEntity
  8
0
  6
ByBlock
 62
     6
100
AcDbTrace
 10
285.9324822786161
 20
63.40279656704766
 30
0.0
 11
285.9324822786161
 21
62.56946323371433
 31
0.0
 12
283.4324822786161
 22
62.986129900381
 32
0.0
 13
283.4324822786161
 23
62.986129900381
 33
0.0
  0
SOLID
  5
88F5
330
67BC
100
AcDbEntity
  8
0
  6
ByBlock
 62
     6
100
AcDbTrace
 10
325.9324822786163
 20
63.40279656704766
 30
0.0
 11
325.9324822786163
 21
62.56946323371433
 31
0.0
 12
328.4324822786163
 22
62.986129900381
 32
0.0
 13
328.4324822786163
 23
62.986129900381
 33
0.0
  0
POINT
  5
88F6
330
67BC
100
AcDbEntity
  8
DEFPOINTS
  6
ByBlock
 62
     0
100
AcDbPoint
 10
283.4324822786161
 20
83.54866885607959
 30
0.0
  0
POINT
  5
88F7
330
67BC
100
AcDbEntity
  8
DEFPOINTS
  6
ByBlock
 62
     0
100
AcDbPoint
 10
328.4324822786163
 20
83.54866885607952
 30
0.0
  0
POINT
  5
88F8
330
67BC
100
AcDbEntity
  8
DEFPOINTS
  6
ByBlock
 62
     0
100
AcDbPoint
 10
328.4324822786163
 20
62.986129900381
 30
0.0
  0
ENDBLK
  5
88F9
330
67BC
100
AcDbEntity
  8
0
100
AcDbBlockEnd
  0
BLOCK
  5
8909
330
67D9
100
AcDbEntity
  8
0
100
AcDbBlockBegin
  2
*D2
 70
     1
 10
0.0
 20
0.0
 30
0.0
  3
*D2
  1

  0
LINE
  5
890A
330
67D9
100
AcDbEntity
  8
0
  6
ByBlock
 62
     6
100
AcDbLine
 10
57.62960487817327
 20
198.7167537529921
 30
0.0
 11
57.62960487817327
 21
160.4315731987266
 31
0.0
  0
LINE
  5
890B
330
67D9
100
AcDbEntity
  8
0
  6
ByBlock
 62
     6
100
AcDbLine
 10
60.09124769783415
 20
198.716753752992
 30
0.0
 11
60.09124769783415
 21
160.4315731987266
 31
0.0
  0
LINE
  5
890C
330
67D9
100
AcDbEntity
  8
0
  6
ByBlock
 62
     6
100
AcDbLine
 10
55.12960487817327
 20
161.4315731987266
 30
0.0
 11
52.62960487817327
 21
161.4315731987266
 31
0.0
  0
LINE
  5
890D
330
67D9
100
AcDbEntity
  8
0
  6
ByBlock
 62
     6
100
AcDbLine
 10
62.59124769783415
 20
161.4315731987266
 30
0.0
 11
65.09124769783415
 21
161.4315731987266
 31
0.0
  0
MTEXT
  5
890E
330
67D9
100
AcDbEntity
  8
0
  6
ByBlock
 62
     3
100
AcDbMText
 10
65.09124769783415
 20
163.9315731987266
 30
0.0
 40
3.0
 41
0.0
 71
     5
 72
     1
  1
\A1;2.5
  7
TXT
 73
     1
 44
1.0
  0
LINE
  5
890F
330
67D9
100
AcDbEntity
  8
0
  6
ByBlock
 62
     6
100
AcDbLine
 10
57.62960487817327
 20
161.4315731987266
 30
0.0
 11
60.09124769783415
 21
161.4315731987266
 31
0.0
  0
SOLID
  5
8910
330
67D9
100
AcDbEntity
  8
0
  6
ByBlock
 62
     6
100
AcDbTrace
 10
55.12960487817327
 20
161.8482398653932
 30
0.0
 11
55.12960487817327
 21
161.0149065320599
 31
0.0
 12
57.62960487817327
 22
161.4315731987266
 32
0.0
 13
57.62960487817327
 23
161.4315731987266
 33
0.0
  0
SOLID
  5
8911
330
67D9
100
AcDbEntity
  8
0
  6
ByBlock
 62
     6
100
AcDbTrace
 10
62.59124769783415
 20
161.8482398653932
 30
0.0
 11
62.59124769783415
 21
161.0149065320599
 31
0.0
 12
60.09124769783415
 22
161.4315731987266
 32
0.0
 13
60.09124769783415
 23
161.4315731987266
 33
0.0
  0
POINT
  5
8912
330
67D9
100
AcDbEntity
  8
DEFPOINTS
  6
ByBlock
 62
     0
100
AcDbPoint
 10
57.62960487817327
 20
199.7167537529921
 30
0.0
  0
POINT
  5
8913
330
67D9
100
AcDbEntity
  8
DEFPOINTS
  6
ByBlock
 62
     0
100
AcDbPoint
 10
60.09124769783415
 20
199.716753752992
 30
0.0
  0
POINT
  5
8914
330
67D9
100
AcDbEntity
  8
DEFPOINTS
  6
ByBlock
 62
     0
100
AcDbPoint
 10
60.09124769783415
 20
161.4315731987266
 30
0.0
  0
ENDBLK
  5
8915
330
67D9
100
AcDbEntity
  8
0
100
AcDbBlockEnd
  0
BLOCK
  5
835A
330
6854
100
AcDbEntity
  8
0
100
AcDbBlockBegin
  2
*D3
 70
     1
 10
0.0
 20
0.0
 30
0.0
  3
*D3
  1

  0
LINE
  5
835B
330
6854
100
AcDbEntity
  8
0
  6
ByBlock
 62
     6
100
AcDbLine
 10
266.388071193783
 20
177.7356535889006
 30
0.0
 11
254.9835849980062
 21
177.7356535889006
 31
0.0
  0
LINE
  5
835C
330
6854
100
AcDbEntity
  8
0
  6
ByBlock
 62
     6
100
AcDbLine
 10
266.388071193783
 20
183.7356535889006
 30
0.0
 11
254.9835849980062
 21
183.7356535889006
 31
0.0
  0
LINE
  5
835D
330
6854
100
AcDbEntity
  8
0
  6
ByBlock
 62
     6
100
AcDbLine
 10
255.9835849980061
 20
175.2356535889006
 30
0.0
 11
255.9835849980061
 21
172.7356535889006
 31
0.0
  0
LINE
  5
835E
330
6854
100
AcDbEntity
  8
0
  6
ByBlock
 62
     6
100
AcDbLine
 10
255.9835849980061
 20
186.2356535889006
 30
0.0
 11
255.9835849980061
 21
188.7356535889006
 31
0.0
  0
MTEXT
  5
835F
330
6854
100
AcDbEntity
  8
0
  6
ByBlock
 62
     3
100
AcDbMText
 10
252.6091809571504
 20
193.4039417004008
 30
0.0
 40
3.0
 41
0.0
 71
     5
 72
     1
  1
\A1;6      (3等分)
  7
TXT
 11
0.0000000000000001
 21
1.0
 31
0.0
 73
     1
 44
1.0
  0
LINE
  5
8360
330
6854
100
AcDbEntity
  8
0
  6
ByBlock
 62
     6
100
AcDbLine
 10
255.9835849980061
 20
177.7356535889006
 30
0.0
 11
255.9835849980061
 21
183.7356535889006
 31
0.0
  0
SOLID
  5
8361
330
6854
100
AcDbEntity
  8
0
  6
ByBlock
 62
     6
100
AcDbTrace
 10
255.5669183313395
 20
175.2356535889006
 30
0.0
 11
256.4002516646728
 21
175.2356535889006
 31
0.0
 12
255.9835849980061
 22
177.7356535889006
 32
0.0
 13
255.9835849980061
 23
177.7356535889006
 33
0.0
  0
SOLID
  5
8362
330
6854
100
AcDbEntity
  8
0
  6
ByBlock
 62
     6
100
AcDbTrace
 10
255.5669183313395
 20
186.2356535889006
 30
0.0
 11
256.4002516646728
 21
186.2356535889006
 31
0.0
 12
255.9835849980061
 22
183.7356535889006
 32
0.0
 13
255.9835849980061
 23
183.7356535889006
 33
0.0
  0
POINT
  5
8363
330
6854
100
AcDbEntity
  8
DEFPOINTS
  6
ByBlock
 62
     0
100
AcDbPoint
 10
267.388071193783
 20
177.7356535889006
 30
0.0
  0
POINT
  5
8364
330
6854
100
AcDbEntity
  8
DEFPOINTS
  6
ByBlock
 62
     0
100
AcDbPoint
 10
267.388071193783
 20
183.7356535889006
 30
0.0
  0
POINT
  5
8365
330
6854
100
AcDbEntity
  8
DEFPOINTS
  6
ByBlock
 62
     0
100
AcDbPoint
 10
255.9835849980061
 20
183.7356535889006
 30
0.0
  0
ENDBLK
  5
8366
330
6854
100
AcDbEntity
  8
0
100
AcDbBlockEnd
  0
BLOCK
  5
88CE
330
6C86
100
AcDbEntity
  8
0
100
AcDbBlockBegin
  2
*D4
 70
     1
 10
0.0
 20
0.0
 30
0.0
  3
*D4
  1

  0
LINE
  5
88CF
330
6C86
100
AcDbEntity
  8
0
  6
ByBlock
 62
     6
100
AcDbLine
 10
276.432482278616
 20
103.9486688560794
 30
0.0
 11
276.432482278616
 21
122.1398920742349
 31
0.0
  0
LINE
  5
88D0
330
6C86
100
AcDbEntity
  8
0
  6
ByBlock
 62
     6
100
AcDbLine
 10
335.4324822786161
 20
103.9486688560794
 30
0.0
 11
335.4324822786161
 21
122.1398920742349
 31
0.0
  0
LINE
  5
88D1
330
6C86
100
AcDbEntity
  8
0
  6
ByBlock
 62
     6
100
AcDbLine
 10
278.932482278616
 20
121.1398920742349
 30
0.0
 11
332.9324822786162
 21
121.1398920742349
 31
0.0
  0
SOLID
  5
88D2
330
6C86
100
AcDbEntity
  8
0
  6
ByBlock
 62
     6
100
AcDbTrace
 10
278.932482278616
 20
121.5565587409016
 30
0.0
 11
278.932482278616
 21
120.7232254075683
 31
0.0
 12
276.432482278616
 22
121.1398920742349
 32
0.0
 13
276.432482278616
 23
121.1398920742349
 33
0.0
  0
SOLID
  5
88D3
330
6C86
100
AcDbEntity
  8
0
  6
ByBlock
 62
     6
100
AcDbTrace
 10
332.9324822786162
 20
121.5565587409016
 30
0.0
 11
332.9324822786162
 21
120.7232254075683
 31
0.0
 12
335.4324822786161
 22
121.1398920742349
 32
0.0
 13
335.4324822786161
 23
121.1398920742349
 33
0.0
  0
MTEXT
  5
88D4
330
6C86
100
AcDbEntity
  8
0
  6
ByBlock
 62
     3
100
AcDbMText
 10
305.932482278616
 20
123.6398920742349
 30
0.0
 40
3.0
 41
0.0
 71
     5
 72
     1
  1
\A1;\U+220559±0.5
  7
TXT
 73
     1
 44
1.0
  0
POINT
  5
88D5
330
6C86
100
AcDbEntity
  8
DEFPOINTS
  6
ByBlock
 62
     0
100
AcDbPoint
 10
276.432482278616
 20
102.9486688560794
 30
0.0
  0
POINT
  5
88D6
330
6C86
100
AcDbEntity
  8
DEFPOINTS
  6
ByBlock
 62
     0
100
AcDbPoint
 10
335.4324822786161
 20
102.9486688560794
 30
0.0
  0
POINT
  5
88D7
330
6C86
100
AcDbEntity
  8
DEFPOINTS
  6
ByBlock
 62
     0
100
AcDbPoint
 10
335.4324822786161
 20
121.1398920742349
 30
0.0
  0
ENDBLK
  5
88D8
330
6C86
100
AcDbEntity
  8
0
100
AcDbBlockEnd
  0
BLOCK
  5
88C3
330
6C9E
100
AcDbEntity
  8
0
100
AcDbBlockBegin
  2
*D5
 70
     1
 10
0.0
 20
0.0
 30
0.0
  3
*D5
  1

  0
LINE
  5
88C4
330
6C9E
100
AcDbEntity
  8
0
  6
ByBlock
 62
     6
100
AcDbLine
 10
273.432482278616
 20
101.9486688560794
 30
0.0
 11
273.432482278616
 21
127.6473621646498
 31
0.0
  0
LINE
  5
88C5
330
6C9E
100
AcDbEntity
  8
0
  6
ByBlock
 62
     6
100
AcDbLine
 10
338.4324822786163
 20
101.9486688560794
 30
0.0
 11
338.4324822786163
 21
127.6473621646498
 31
0.0
  0
LINE
  5
88C6
330
6C9E
100
AcDbEntity
  8
0
  6
ByBlock
 62
     6
100
AcDbLine
 10
275.9324822786159
 20
126.6473621646499
 30
0.0
 11
335.9324822786163
 21
126.6473621646499
 31
0.0
  0
MTEXT
  5
88C7
330
6C9E
100
AcDbEntity
  8
0
  6
ByBlock
 62
     3
100
AcDbMText
 10
301.8634261507022
 20
129.9734829145351
 30
0.0
 40
3.0
 41
0.0
 71
     5
 72
     1
  1
\A1;\U+220565
  7
TXT
 73
     1
 44
1.0
  0
SOLID
  5
88C8
330
6C9E
100
AcDbEntity
  8
0
  6
ByBlock
 62
     6
100
AcDbTrace
 10
275.9324822786159
 20
127.0640288313165
 30
0.0
 11
275.9324822786159
 21
126.2306954979832
 31
0.0
 12
273.432482278616
 22
126.6473621646499
 32
0.0
 13
273.432482278616
 23
126.6473621646499
 33
0.0
  0
SOLID
  5
88C9
330
6C9E
100
AcDbEntity
  8
0
  6
ByBlock
 62
     6
100
AcDbTrace
 10
335.9324822786163
 20
127.0640288313165
 30
0.0
 11
335.9324822786163
 21
126.2306954979832
 31
0.0
 12
338.4324822786163
 22
126.6473621646499
 32
0.0
 13
338.4324822786163
 23
126.6473621646499
 33
0.0
  0
POINT
  5
88CA
330
6C9E
100
AcDbEntity
  8
DEFPOINTS
  6
ByBlock
 62
     0
100
AcDbPoint
 10
273.432482278616
 20
100.9486688560794
 30
0.0
  0
POINT
  5
88CB
330
6C9E
100
AcDbEntity
  8
DEFPOINTS
  6
ByBlock
 62
     0
100
AcDbPoint
 10
338.4324822786163
 20
100.9486688560794
 30
0.0
  0
POINT
  5
88CC
330
6C9E
100
AcDbEntity
  8
DEFPOINTS
  6
ByBlock
 62
     0
100
AcDbPoint
 10
338.4324822786163
 20
126.6473621646499
 30
0.0
  0
ENDBLK
  5
88CD
330
6C9E
100
AcDbEntity
  8
0
100
AcDbBlockEnd
  0
BLOCK
  5
852C
330
6FE3
100
AcDbEntity
  8
0
100
AcDbBlockBegin
  2
*D6
 70
     1
 10
0.0
 20
0.0
 30
0.0
  3
*D6
  1

  0
LINE
  5
852D
330
6FE3
100
AcDbEntity
  8
0
  6
ByBlock
 62
     6
100
AcDbLine
 10
326.0985068012794
 20
96.82890512974775
 30
0.0
 11
354.8647977052782
 21
80.22067933273689
 31
0.0
  0
LINE
  5
852E
330
6FE3
100
AcDbEntity
  8
0
  6
ByBlock
 62
     6
100
AcDbLine
 10
321.4785068012793
 20
88.82683039877946
 30
0.0
 11
350.2447977052782
 21
72.21860460176862
 31
0.0
  0
LINE
  5
852F
330
6FE3
100
AcDbEntity
  8
0
  6
ByBlock
 62
     6
100
AcDbLine
 10
352.7487723014938
 20
78.55561582327578
 30
0.0
 11
350.6287723014937
 21
74.88366811122969
 31
0.0
  0
LINE
  5
8530
330
6FE3
100
AcDbEntity
  8
0
  6
ByBlock
 62
     6
100
AcDbLine
 10
363.3998446765061
 20
97.00381433189049
 30
0.0
 11
353.9987723014938
 21
80.72067933273689
 31
0.0
  0
MTEXT
  5
8531
330
6FE3
100
AcDbEntity
  8
0
  6
ByBlock
 62
     3
100
AcDbMText
 10
357.709781167045
 20
92.1483352352102
 30
0.0
 40
3.0
 41
0.0
 71
     5
 72
     1
  1
\A1;9±0.5
  7
TXT
 11
0.5000000000000011
 21
0.866025403784438
 31
0.0
 73
     1
 44
1.0
  0
SOLID
  5
8532
330
6FE3
100
AcDbEntity
  8
0
  6
ByBlock
 62
     6
100
AcDbTrace
 10
352.3879283832503
 20
78.76394915660913
 30
0.0
 11
353.1096162197373
 21
78.34728248994245
 31
0.0
 12
353.9987723014938
 22
80.72067933273689
 32
0.0
 13
353.9987723014938
 23
80.72067933273689
 33
0.0
  0
SOLID
  5
8533
330
6FE3
100
AcDbEntity
  8
0
  6
ByBlock
 62
     6
100
AcDbTrace
 10
350.2679283832502
 20
75.09200144456305
 30
0.0
 11
350.9896162197372
 21
74.67533477789638
 31
0.0
 12
349.3787723014937
 22
72.71860460176862
 32
0.0
 13
349.3787723014937
 23
72.71860460176862
 33
0.0
  0
POINT
  5
8534
330
6FE3
100
AcDbEntity
  8
DEFPOINTS
  6
ByBlock
 62
     0
100
AcDbPoint
 10
325.2324813974949
 20
97.32890512974776
 30
0.0
  0
POINT
  5
8535
330
6FE3
100
AcDbEntity
  8
DEFPOINTS
  6
ByBlock
 62
     0
100
AcDbPoint
 10
320.6124813974949
 20
89.32683039877947
 30
0.0
  0
POINT
  5
8536
330
6FE3
100
AcDbEntity
  8
DEFPOINTS
  6
ByBlock
 62
     0
100
AcDbPoint
 10
349.3787723014937
 20
72.71860460176862
 30
0.0
  0
ENDBLK
  5
8537
330
6FE3
100
AcDbEntity
  8
0
100
AcDbBlockEnd
  0
BLOCK
  5
8892
330
74B6
100
AcDbEntity
  8
0
100
AcDbBlockBegin
  2
*D7
 70
     1
 10
0.0
 20
0.0
 30
0.0
  3
*D7
  1

  0
LINE
  5
8893
330
74B6
100
AcDbEntity
  8
0
  6
ByBlock
 62
     6
100
AcDbLine
 10
275.432482278616
 20
102.9486688560794
 30
0.0
 11
264.4835858791272
 21
102.9486688560794
 31
0.0
  0
LINE
  5
8894
330
74B6
100
AcDbEntity
  8
0
  6
ByBlock
 62
     6
100
AcDbLine
 10
273.9324822786159
 20
102.4486688560794
 30
0.0
 11
264.4835858791272
 21
102.4486688560794
 31
0.0
  0
LINE
  5
8895
330
74B6
100
AcDbEntity
  8
0
  6
ByBlock
 62
     6
100
AcDbLine
 10
265.4835858791272
 20
105.4486688560794
 30
0.0
 11
265.4835858791272
 21
107.9486688560794
 31
0.0
  0
LINE
  5
8896
330
74B6
100
AcDbEntity
  8
0
  6
ByBlock
 62
     6
100
AcDbLine
 10
265.4835858791272
 20
99.9486688560794
 30
0.0
 11
265.4835858791272
 21
97.4486688560794
 31
0.0
  0
LINE
  5
8897
330
74B6
100
AcDbEntity
  8
0
  6
ByBlock
 62
     6
100
AcDbLine
 10
265.4835858791272
 20
116.8586661172295
 30
0.0
 11
265.4835858791272
 21
102.9486688560794
 31
0.0
  0
MTEXT
  5
8898
330
74B6
100
AcDbEntity
  8
0
  6
ByBlock
 62
     3
100
AcDbMText
 10
262.9835858791272
 20
113.1086661172295
 30
0.0
 40
3.0
 41
0.0
 71
     5
 72
     1
  1
\A1;0.5
  7
TXT
 11
0.0000000000000001
 21
1.0
 31
0.0
 73
     1
 44
1.0
  0
LINE
  5
8899
330
74B6
100
AcDbEntity
  8
0
  6
ByBlock
 62
     6
100
AcDbLine
 10
265.4835858791272
 20
102.9486688560794
 30
0.0
 11
265.4835858791272
 21
102.4486688560794
 31
0.0
  0
SOLID
  5
889A
330
74B6
100
AcDbEntity
  8
0
  6
ByBlock
 62
     6
100
AcDbTrace
 10
265.0669192124605
 20
105.4486688560794
 30
0.0
 11
265.9002525457939
 21
105.4486688560794
 31
0.0
 12
265.4835858791272
 22
102.9486688560794
 32
0.0
 13
265.4835858791272
 23
102.9486688560794
 33
0.0
  0
SOLID
  5
889B
330
74B6
100
AcDbEntity
  8
0
  6
ByBlock
 62
     6
100
AcDbTrace
 10
265.0669192124605
 20
99.9486688560794
 30
0.0
 11
265.9002525457939
 21
99.9486688560794
 31
0.0
 12
265.4835858791272
 22
102.4486688560794
 32
0.0
 13
265.4835858791272
 23
102.4486688560794
 33
0.0
  0
POINT
  5
889C
330
74B6
100
AcDbEntity
  8
DEFPOINTS
  6
ByBlock
 62
     0
100
AcDbPoint
 10
276.432482278616
 20
102.9486688560794
 30
0.0
  0
POINT
  5
889D
330
74B6
100
AcDbEntity
  8
DEFPOINTS
  6
ByBlock
 62
     0
100
AcDbPoint
 10
274.932482278616
 20
102.4486688560794
 30
0.0
  0
POINT
  5
889E
330
74B6
100
AcDbEntity
  8
DEFPOINTS
  6
ByBlock
 62
     0
100
AcDbPoint
 10
265.4835858791272
 20
102.4486688560794
 30
0.0
  0
ENDBLK
  5
889F
330
74B6
100
AcDbEntity
  8
0
100
AcDbBlockEnd
  0
BLOCK
  5
88D9
330
7501
100
AcDbEntity
  8
0
100
AcDbBlockBegin
  2
*D8
 70
     1
 10
0.0
 20
0.0
 30
0.0
  3
*D8
  1

  0
LINE
  5
88DA
330
7501
100
AcDbEntity
  8
0
  6
ByBlock
 62
     6
100
AcDbLine
 10
282.932482278616
 20
103.9486688560794
 30
0.0
 11
282.932482278616
 21
116.2967972626063
 31
0.0
  0
LINE
  5
88DB
330
7501
100
AcDbEntity
  8
0
  6
ByBlock
 62
     6
100
AcDbLine
 10
328.9324822786162
 20
103.9486688560794
 30
0.0
 11
328.9324822786162
 21
116.2967972626063
 31
0.0
  0
LINE
  5
88DC
330
7501
100
AcDbEntity
  8
0
  6
ByBlock
 62
     6
100
AcDbLine
 10
285.432482278616
 20
115.2967972626063
 30
0.0
 11
326.4324822786162
 21
115.2967972626063
 31
0.0
  0
SOLID
  5
88DD
330
7501
100
AcDbEntity
  8
0
  6
ByBlock
 62
     6
100
AcDbTrace
 10
285.432482278616
 20
115.713463929273
 30
0.0
 11
285.432482278616
 21
114.8801305959397
 31
0.0
 12
282.932482278616
 22
115.2967972626063
 32
0.0
 13
282.932482278616
 23
115.2967972626063
 33
0.0
  0
SOLID
  5
88DE
330
7501
100
AcDbEntity
  8
0
  6
ByBlock
 62
     6
100
AcDbTrace
 10
326.4324822786162
 20
115.713463929273
 30
0.0
 11
326.4324822786162
 21
114.8801305959397
 31
0.0
 12
328.9324822786162
 22
115.2967972626063
 32
0.0
 13
328.9324822786162
 23
115.2967972626063
 33
0.0
  0
MTEXT
  5
88DF
330
7501
100
AcDbEntity
  8
0
  6
ByBlock
 62
     3
100
AcDbMText
 10
305.9324822786161
 20
117.7967972626063
 30
0.0
 40
3.0
 41
0.0
 71
     5
 72
     1
  1
\A1;\U+220546
  7
TXT
 73
     1
 44
1.0
  0
POINT
  5
88E0
330
7501
100
AcDbEntity
  8
DEFPOINTS
  6
ByBlock
 62
     0
100
AcDbPoint
 10
282.932482278616
 20
102.9486688560794
 30
0.0
  0
POINT
  5
88E1
330
7501
100
AcDbEntity
  8
DEFPOINTS
  6
ByBlock
 62
     0
100
AcDbPoint
 10
328.9324822786162
 20
102.9486688560794
 30
0.0
  0
POINT
  5
88E2
330
7501
100
AcDbEntity
  8
DEFPOINTS
  6
ByBlock
 62
     0
100
AcDbPoint
 10
328.9324822786162
 20
115.2967972626063
 30
0.0
  0
ENDBLK
  5
88E3
330
7501
100
AcDbEntity
  8
0
100
AcDbBlockEnd
  0
BLOCK
  5
84E6
330
755C
100
AcDbEntity
  8
0
100
AcDbBlockBegin
  2
*D9
 70
     1
 10
0.0
 20
0.0
 30
0.0
  3
*D9
  1

  0
LINE
  5
84E7
330
755C
100
AcDbEntity
  8
0
  6
ByBlock
 62
     6
100
AcDbLine
 10
323.1955320993189
 20
109.3268303987794
 30
0.0
 11
341.1188079729571
 21
109.3268303987794
 31
0.0
  0
LINE
  5
84E8
330
755C
100
AcDbEntity
  8
0
  6
ByBlock
 62
     6
100
AcDbLine
 10
323.9455320993189
 20
93.36779275097297
 30
0.0
 11
341.1188079729571
 21
93.36779275097297
 31
0.0
  0
LINE
  5
84E9
330
755C
100
AcDbEntity
  8
0
  6
ByBlock
 62
     6
100
AcDbLine
 10
340.1188079729572
 20
106.8268303987794
 30
0.0
 11
340.1188079729572
 21
95.86779275097297
 31
0.0
  0
SOLID
  5
84EA
330
755C
100
AcDbEntity
  8
0
  6
ByBlock
 62
     6
100
AcDbTrace
 10
339.7021413062905
 20
106.8268303987794
 30
0.0
 11
340.5354746396238
 21
106.8268303987794
 31
0.0
 12
340.1188079729572
 22
109.3268303987794
 32
0.0
 13
340.1188079729572
 23
109.3268303987794
 33
0.0
  0
SOLID
  5
84EB
330
755C
100
AcDbEntity
  8
0
  6
ByBlock
 62
     6
100
AcDbTrace
 10
339.7021413062905
 20
95.86779275097297
 30
0.0
 11
340.5354746396238
 21
95.86779275097297
 31
0.0
 12
340.1188079729572
 22
93.36779275097297
 32
0.0
 13
340.1188079729572
 23
93.36779275097297
 33
0.0
  0
MTEXT
  5
84EC
330
755C
100
AcDbEntity
  8
0
  6
ByBlock
 62
     3
100
AcDbMText
 10
337.6188079729571
 20
101.3473115748762
 30
0.0
 40
3.0
 41
0.0
 71
     5
 72
     1
  1
\A1;16
  7
TXT
 11
0.0000000000000001
 21
1.0
 31
0.0
 73
     1
 44
1.0
  0
POINT
  5
84ED
330
755C
100
AcDbEntity
  8
DEFPOINTS
  6
ByBlock
 62
     0
100
AcDbPoint
 10
322.1955320993189
 20
109.3268303987794
 30
0.0
  0
POINT
  5
84EE
330
755C
100
AcDbEntity
  8
DEFPOINTS
  6
ByBlock
 62
     0
100
AcDbPoint
 10
322.9455320993189
 20
93.36779275097297
 30
0.0
  0
POINT
  5
84EF
330
755C
100
AcDbEntity
  8
DEFPOINTS
  6
ByBlock
 62
     0
100
AcDbPoint
 10
340.1188079729572
 20
93.36779275097297
 30
0.0
  0
ENDBLK
  5
84F0
330
755C
100
AcDbEntity
  8
0
100
AcDbBlockEnd
  0
BLOCK
  5
8509
330
7569
100
AcDbEntity
  8
0
100
AcDbBlockBegin
  2
*D10
 70
     1
 10
0.0
 20
0.0
 30
0.0
  3
*D10
  1

  0
LINE
  5
850A
330
7569
100
AcDbEntity
  8
0
  6
ByBlock
 62
     6
100
AcDbLine
 10
321.6124813974948
 20
89.32683039877943
 30
0.0
 11
351.2678288993453
 21
89.32683039877941
 31
0.0
  0
LINE
  5
850B
330
7569
100
AcDbEntity
  8
0
  6
ByBlock
 62
     6
100
AcDbLine
 10
323.1955320993189
 20
109.3268303987794
 30
0.0
 11
351.2678288993453
 21
109.3268303987794
 31
0.0
  0
LINE
  5
850C
330
7569
100
AcDbEntity
  8
0
  6
ByBlock
 62
     6
100
AcDbLine
 10
350.2678288993453
 20
91.82683039877941
 30
0.0
 11
350.2678288993453
 21
106.8268303987794
 31
0.0
  0
SOLID
  5
850D
330
7569
100
AcDbEntity
  8
0
  6
ByBlock
 62
     6
100
AcDbTrace
 10
349.8511622326786
 20
91.82683039877941
 30
0.0
 11
350.684495566012
 21
91.82683039877941
 31
0.0
 12
350.2678288993453
 22
89.32683039877941
 32
0.0
 13
350.2678288993453
 23
89.32683039877941
 33
0.0
  0
SOLID
  5
850E
330
7569
100
AcDbEntity
  8
0
  6
ByBlock
 62
     6
100
AcDbTrace
 10
349.8511622326786
 20
106.8268303987794
 30
0.0
 11
350.684495566012
 21
106.8268303987794
 31
0.0
 12
350.2678288993453
 22
109.3268303987794
 32
0.0
 13
350.2678288993453
 23
109.3268303987794
 33
0.0
  0
MTEXT
  5
850F
330
7569
100
AcDbEntity
  8
0
  6
ByBlock
 62
     3
100
AcDbMText
 10
347.7678288993453
 20
99.32683039877945
 30
0.0
 40
3.0
 41
0.0
 71
     5
 72
     1
  1
\A1;20±0.2
  7
TXT
 11
0.0000000000000001
 21
1.0
 31
0.0
 73
     1
 44
1.0
  0
POINT
  5
8510
330
7569
100
AcDbEntity
  8
DEFPOINTS
  6
ByBlock
 62
     0
100
AcDbPoint
 10
320.6124813974948
 20
89.32683039877943
 30
0.0
  0
POINT
  5
8511
330
7569
100
AcDbEntity
  8
DEFPOINTS
  6
ByBlock
 62
     0
100
AcDbPoint
 10
322.1955320993189
 20
109.3268303987794
 30
0.0
  0
POINT
  5
8512
330
7569
100
AcDbEntity
  8
DEFPOINTS
  6
ByBlock
 62
     0
100
AcDbPoint
 10
350.2678288993453
 20
109.3268303987794
 30
0.0
  0
ENDBLK
  5
8513
330
7569
100
AcDbEntity
  8
0
100
AcDbBlockEnd
  0
BLOCK
  5
7AD7
330
7AC6
100
AcDbEntity
  8
0
100
AcDbBlockBegin
  2
*D11
 70
     1
 10
0.0
 20
0.0
 30
0.0
  3
*D11
  1

  0
LINE
  5
7AD8
330
7AC6
100
AcDbEntity
  8
0
  6
ByBlock
 62
     6
100
AcDbLine
 10
295.4767602876279
 20
122.8337221819853
 30
0.0
 11
291.6944953941081
 21
122.8337221819853
 31
0.0
  0
LINE
  5
7AD9
330
7AC6
100
AcDbEntity
  8
0
  6
ByBlock
 62
     6
100
AcDbLine
 10
295.4767602876279
 20
123.8337221819853
 30
0.0
 11
291.6944953941081
 21
123.8337221819853
 31
0.0
  0
LINE
  5
7ADA
330
7AC6
100
AcDbEntity
  8
0
  6
ByBlock
 62
     6
100
AcDbLine
 10
292.6944953941081
 20
120.3337221819853
 30
0.0
 11
292.6944953941081
 21
117.8337221819853
 31
0.0
  0
LINE
  5
7ADB
330
7AC6
100
AcDbEntity
  8
0
  6
ByBlock
 62
     6
100
AcDbLine
 10
292.6944953941081
 20
126.3337221819853
 30
0.0
 11
292.6944953941081
 21
128.8337221819852
 31
0.0
  0
LINE
  5
7ADC
330
7AC6
100
AcDbEntity
  8
0
  6
ByBlock
 62
     6
100
AcDbLine
 10
292.6944953941081
 20
132.9195358696576
 30
0.0
 11
292.6944953941081
 21
123.8337221819853
 31
0.0
  0
MTEXT
  5
7ADD
330
7AC6
100
AcDbEntity
  8
0
  6
ByBlock
 62
     3
100
AcDbMText
 10
290.1944953941081
 20
131.4195358696575
 30
0.0
 40
3.0
 41
0.0
 71
     5
 72
     1
  1
\A1;1
  7
TXT
 11
0.0000000000000001
 21
1.0
 31
0.0
 73
     1
 44
1.0
  0
LINE
  5
7ADE
330
7AC6
100
AcDbEntity
  8
0
  6
ByBlock
 62
     6
100
AcDbLine
 10
292.6944953941081
 20
122.8337221819853
 30
0.0
 11
292.6944953941081
 21
123.8337221819853
 31
0.0
  0
SOLID
  5
7ADF
330
7AC6
100
AcDbEntity
  8
0
  6
ByBlock
 62
     6
100
AcDbTrace
 10
292.2778287274415
 20
120.3337221819853
 30
0.0
 11
293.1111620607748
 21
120.3337221819853
 31
0.0
 12
292.6944953941081
 22
122.8337221819853
 32
0.0
 13
292.6944953941081
 23
122.8337221819853
 33
0.0
  0
SOLID
  5
7AE0
330
7AC6
100
AcDbEntity
  8
0
  6
ByBlock
 62
     6
100
AcDbTrace
 10
292.2778287274415
 20
126.3337221819853
 30
0.0
 11
293.1111620607748
 21
126.3337221819853
 31
0.0
 12
292.6944953941081
 22
123.8337221819853
 32
0.0
 13
292.6944953941081
 23
123.8337221819853
 33
0.0
  0
POINT
  5
7AE1
330
7AC6
100
AcDbEntity
  8
DEFPOINTS
  6
ByBlock
 62
     0
100
AcDbPoint
 10
296.4767602876279
 20
122.8337221819853
 30
0.0
  0
POINT
  5
7AE2
330
7AC6
100
AcDbEntity
  8
DEFPOINTS
  6
ByBlock
 62
     0
100
AcDbPoint
 10
296.4767602876279
 20
123.8337221819853
 30
0.0
  0
POINT
  5
7AE3
330
7AC6
100
AcDbEntity
  8
DEFPOINTS
  6
ByBlock
 62
     0
100
AcDbPoint
 10
292.6944953941081
 20
123.8337221819853
 30
0.0
  0
ENDBLK
  5
7AE4
330
7AC6
100
AcDbEntity
  8
0
100
AcDbBlockEnd
  0
BLOCK
  5
8547
330
8538
100
AcDbEntity
  8
0
100
AcDbBlockBegin
  2
*D12
 70
     1
 10
0.0
 20
0.0
 30
0.0
  3
*D12
  1

  0
LINE
  5
8548
330
8538
100
AcDbEntity
  8
0
  6
ByBlock
 62
     6
100
AcDbLine
 10
325.5386352263165
 20
91.89480885702831
 30
0.0
 11
361.6486933975466
 21
71.38288492239765
 31
0.0
  0
LINE
  5
8549
330
8538
100
AcDbEntity
  8
0
  6
ByBlock
 62
     6
100
AcDbLine
 10
323.2324813974949
 20
109.3268303987794
 30
0.0
 11
371.6733025512215
 21
109.3268303987795
 31
0.0
  0
ARC
  5
854A
330
8538
100
AcDbEntity
  8
0
  6
ByBlock
 62
     6
100
AcDbCircle
 10
294.8505674506738
 20
109.3268303987794
 30
0.0
 40
75.82273510054763
100
AcDbArc
 50
332.2909538536719
 51
358.1107785453751
  0
SOLID
  5
854B
330
8538
100
AcDbEntity
  8
0
  6
ByBlock
 62
     6
100
AcDbTrace
 10
362.3436074990902
 20
73.87083880501272
 30
0.0
 11
361.6123289151068
 21
74.27043369618577
 31
0.0
 12
360.7791835335793
 22
71.87680049864891
 32
0.0
 13
360.7791835335793
 23
71.87680049864891
 33
0.0
  0
SOLID
  5
854C
330
8538
100
AcDbEntity
  8
0
  6
ByBlock
 62
     6
100
AcDbTrace
 10
370.2154779584828
 20
106.8340392415835
 30
0.0
 11
371.0486980415053
 21
106.820301057841
 31
0.0
 12
370.6733025512214
 22
109.3268303987795
 32
0.0
 13
370.6733025512214
 23
109.3268303987795
 33
0.0
  0
MTEXT
  5
854D
330
8538
100
AcDbEntity
  8
0
  6
ByBlock
 62
     3
100
AcDbMText
 10
365.7409858147242
 20
90.59792047868587
 30
0.0
 40
3.0
 41
0.0
 71
     5
 72
     1
  1
\A1;30°
  7
TXT
 11
0.2554311414380637
 21
0.9668272503315408
 31
0.0
 73
     1
 44
1.0
  0
POINT
  5
854E
330
8538
100
AcDbEntity
  8
DEFPOINTS
  6
ByBlock
 62
     0
100
AcDbPoint
 10
366.2210732246011
 20
83.72725884569243
 30
0.0
  0
POINT
  5
854F
330
8538
100
AcDbEntity
  8
DEFPOINTS
  6
ByBlock
 62
     0
100
AcDbPoint
 10
270.2324813974949
 20
109.3268303987794
 30
0.0
  0
POINT
  5
8550
330
8538
100
AcDbEntity
  8
DEFPOINTS
  6
ByBlock
 62
     0
100
AcDbPoint
 10
324.6691253623492
 20
92.38872443327952
 30
0.0
  0
POINT
  5
8551
330
8538
100
AcDbEntity
  8
DEFPOINTS
  6
ByBlock
 62
     0
100
AcDbPoint
 10
315.0416566365559
 20
97.8575028343025
 30
0.0
  0
POINT
  5
8552
330
8538
100
AcDbEntity
  8
DEFPOINTS
  6
ByBlock
 62
     0
100
AcDbPoint
 10
322.2324813974949
 20
109.3268303987794
 30
0.0
  0
ENDBLK
  5
8553
330
8538
100
AcDbEntity
  8
0
100
AcDbBlockEnd
  0
ENDSEC
  0
SECTION
  2
ENTITIES
  0
MTEXT
  5
C0
330
18
100
AcDbEntity
  8
0
100
AcDbMText
 10
41.26970765600413
 20
233.6950877649332
 30
0.0
 40
2.5
 41
0.0
 71
     1
 72
     5
  1

  7
ISOCP3
 73
     1
 44
1.0
  0
MTEXT
  5
4FE4
330
18
100
AcDbEntity
  8
公差
100
AcDbMText
 10
69.82264784734724
 20
167.3589325197836
 30
0.0
 40
2.0
 41
9.555074525974475
 71
     1
 72
     5
  1
+0.15\P+0
  7
TXT
 73
     1
 44
1.0
  0
MTEXT
  5
4FE5
330
18
100
AcDbEntity
  8
公差
100
AcDbMText
 10
39.29498899096058
 20
206.4829392203444
 30
0.0
 40
2.0
 41
8.84945634767439
 71
     1
 72
     5
  1
+0.15\P+0
  7
TXT
 11
0.0000000000000001
 21
1.0
 31
0.0
 73
     1
 44
1.0
  0
MTEXT
  5
503F
330
18
100
AcDbEntity
  8
公差
100
AcDbMText
 10
89.34993891127971
 20
142.8593943036949
 30
0.0
 40
2.0
 41
11.48459459716352
 71
     1
 72
     5
  1
+0\P-0.2
  7
TXT
 73
     1
 44
1.0
  0
LINE
  5
5AD6
330
18
100
AcDbEntity
  8
DIM
100
AcDbLine
 10
145.7705949969948
 20
112.688496412165
 30
0.0
 11
145.7705949969948
 21
129.2152228672888
 31
0.0
  0
LINE
  5
5AD7
330
18
100
AcDbEntity
  8
DIM
100
AcDbLine
 10
145.7705949969948
 20
129.2152228672888
 30
0.0
 11
157.9223351232422
 21
129.2152228672888
 31
0.0
  0
LINE
  5
5ADA
330
18
100
AcDbEntity
  8
DIM
100
AcDbLine
 10
65.73524749514416
 20
79.04914689745675
 30
0.0
 11
65.73524749514416
 21
68.45574182233367
 31
0.0
  0
TOLERANCE
  5
5E6E
330
18
100
AcDbEntity
  8
DIM
  6
ByBlock
100
AcDbFcf
  3
A
 10
157.9223351232422
 20
129.2661613034198
 30
0.0
  1
{\Fgdt;h}%%v0.005%%v%%vA%%v%%v
1001
ACAD
1000
DSTYLE
1002
{
1070
   140
1040
2.743999999999999
1070
   147
1040
0.6859999999999999
1002
}
  0
MTEXT
  5
608E
330
18
100
AcDbEntity
  8
0
100
AcDbMText
 10
17.81948278949767
 20
19.37399834316261
 30
0.0
 40
5.0
 41
0.0
 71
     1
 72
     5
  1
\Ftxt.shx,bigfont.shx|c128;呉銘宏
  7
JL
 73
     1
 44
1.0
  0
MTEXT
  5
6095
330
18
100
AcDbEntity
  8
0
100
AcDbMText
 10
81.23517665196368
 20
29.2278230533891
 30
0.0
 40
4.5
 41
0.0
 71
     1
 72
     5
  1
\Ftxt.shx,bigfont.shx|c128;1 : 1
  7
JL
 73
     1
 44
1.0
  0
MTEXT
  5
6098
330
18
100
AcDbEntity
  8
0
 48
2.0
370
    25
100
AcDbMText
 10
146.1234268906314
 20
3.636969934829039
 30
0.0
 40
4.5
 41
0.0
 71
     5
 72
     1
  1
\Ftxt.shx,bigfont.shx|c128;N L 4 0 0 0 6
 73
     1
 44
1.0
  0
MTEXT
  5
609C
330
18
100
AcDbEntity
  8
0
 48
2.0
100
AcDbMText
 10
178.1300746997774
 20
22.17550270047843
 30
0.0
 40
4.5
 41
0.0
 71
     5
 72
     1
  1
\P\Ftxt.shx,bigfont.shx|c128;    MF45X1.5P
 73
     1
 44
1.0
  0
MTEXT
  5
635A
330
18
100
AcDbEntity
  8
0
100
AcDbMText
 10
16.02348109109539
 20
28.64592585511957
 30
0.0
 40
4.5
 41
0.0
 71
     1
 72
     5
  1
\Ftxt.shx,bigfont.shx|c128;05.03.03
  7
JL
 73
     1
 44
1.0
  0
INSERT
  5
63A3
330
18
100
AcDbEntity
  8
0
100
AcDbBlockReference
  2
A$C255C26A2
 10
131.4126903550166
 20
112.6884957181835
 30
0.0
  0
MTEXT
  5
63A4
330
18
100
AcDbEntity
  8
0
 62
     7
 48
2.0
100
AcDbMText
 10
135.5064931038728
 20
117.5840466852021
 30
0.0
 40
3.0
 41
0.0
 71
     5
 72
     1
  1
G
 73
     1
 44
1.0
  0
LEADER
  5
63C9
330
18
100
AcDbEntity
  8
DIM
 62
     6
100
AcDbLeader
  3
A
 76
     2
 10
116.2837825598885
 20
221.8204866481007
 30
0.0
 10
128.9340867281407
 20
233.0386362342827
 30
0.0
  0
LEADER
  5
63CA
330
18
100
AcDbEntity
  8
DIM
 62
     6
100
AcDbLeader
  3
A
 76
     2
 10
111.9390315263372
 20
101.8038075323684
 30
0.0
 10
127.5169927313565
 20
130.1628852086953
 30
0.0
  0
LEADER
  5
63CB
330
18
100
AcDbEntity
  8
DIM
 62
     6
100
AcDbLeader
  3
A
 76
     2
 10
118.4482981969683
 20
96.72945876435822
 30
0.0
 10
129.64256057411
 20
73.76034825545225
 30
0.0
  0
MTEXT
  5
63CC
330
18
100
AcDbEntity
  8
DIM
100
AcDbMText
 10
126.8412641380102
 20
135.911480773712
 30
0.0
 40
5.0
 41
1.0
 71
     1
 72
     5
  1
\Ftxt.shx,bigfont.shx|c128;3
 73
     1
 44
1.0
  0
MTEXT
  5
63CD
330
18
100
AcDbEntity
  8
DIM
100
AcDbMText
 10
131.0801152642515
 20
236.8941312701911
 30
0.0
 40
5.0
 41
1.0
 71
     1
 72
     5
  1
\Ftxt.shx,bigfont.shx|c128;1
 73
     1
 44
1.0
  0
MTEXT
  5
63CE
330
18
100
AcDbEntity
  8
DIM
100
AcDbMText
 10
128.7024764729339
 20
72.53249957665835
 30
0.0
 40
5.0
 41
1.0
 71
     1
 72
     5
  1
\Ftxt.shx,bigfont.shx|c128;2
 73
     1
 44
1.0
  0
LINE
  5
63CF
330
18
100
AcDbEntity
  8
DIM
100
AcDbLine
 10
65.73524749514416
 20
68.45574182233367
 30
0.0
 11
66.64770584336975
 21
67.47786772660859
 31
0.0
  0
HATCH
  5
63D0
330
18
100
AcDbEntity
  8
DIM
  6
Continuous
100
AcDbHatch
 10
0.0
 20
0.0
 30
0.0
210
0.0
220
0.0
230
1.0
  2
SOLID
 70
     1
 71
     0
 91
        1
 92
        7
 72
     0
 73
     1
 93
        3
 10
65.73412338069158
 20
66.47205342735316
 10
66.65285546929164
 20
67.45686122259688
 10
65.73412338069158
 20
68.44166901784061
 97
        0
 75
     0
 76
     1
 47
0.2359147607200769
 98
        1
 10
66.02193937692238
 20
67.66833722828841
450
        0
451
        0
460
0.0
461
0.0
452
        0
462
0.0
453
        0
470

  0
LINE
  5
63D1
330
18
100
AcDbEntity
  8
DIM
100
AcDbLine
 10
71.39479865006581
 20
65.66421392244908
 30
0.0
 11
71.39479865006581
 21
69.31051271247023
 31
0.0
  0
LINE
  5
63D2
330
18
100
AcDbEntity
  8
DIM
100
AcDbLine
 10
71.39479865006581
 20
69.31051271247023
 30
0.0
 11
75.20343389557649
 21
69.31051271247023
 31
0.0
  0
LINE
  5
63D3
330
18
100
AcDbEntity
  8
DIM
100
AcDbLine
 10
75.20343389557649
 20
65.66421392244908
 30
0.0
 11
75.20343389557649
 21
69.31051271247023
 31
0.0
  0
LINE
  5
63D4
330
18
100
AcDbEntity
  8
DIM
100
AcDbLine
 10
71.39479865006581
 20
65.66421392244908
 30
0.0
 11
75.20343389557649
 21
65.66421392244908
 31
0.0
  0
LINE
  5
63D5
330
18
100
AcDbEntity
  8
DIM
100
AcDbLine
 10
71.39479865006581
 20
67.48736331745965
 30
0.0
 11
66.63400481434274
 21
67.48736331745965
 31
0.0
  0
MTEXT
  5
63D6
330
18
100
AcDbEntity
  8
DIM
100
AcDbMText
 10
72.35203637250544
 20
68.9791809966967
 30
0.0
 40
3.0
 41
2.354875985554478
 71
     1
 72
     5
  1
A
  7
ISOCP3
 73
     1
 44
1.0
  0
LINE
  5
64AF
330
18
100
AcDbEntity
  8
図框線
100
AcDbLine
 10
197.9999999999997
 20
289.9999999999999
 30
0.0
 11
197.9999999999997
 21
-0.0000000000000568
 31
0.0
  0
LINE
  5
64B0
330
18
100
AcDbEntity
  8
図框線
370
    30
100
AcDbLine
 10
-0.0000000000002274
 20
0.0
 30
0.0
 11
-0.0000000000002274
 21
290.0
 31
0.0
  0
LINE
  5
64B1
330
18
100
AcDbEntity
  8
0
 62
     7
 48
5.0
100
AcDbLine
 39
4.0
 10
49.94750515634314
 20
27.8953239783782
 30
0.0
 11
55.27930887205229
 21
29.22827490730549
 31
0.0
  0
MTEXT
  5
64B2
330
18
100
AcDbEntity
  8
0
100
AcDbMText
 10
15.97866977158742
 20
9.63134010478825
 30
0.0
 40
6.0
 41
0.0
 71
     1
 72
     5
  1
\Ftxt.shx,bigfont.shx|c128;日機株式会社
  7
LKK
 73
     1
 44
1.0
  0
LINE
  5
64B3
330
18
100
AcDbEntity
  8
図框線
100
AcDbLine
 10
0.0
 20
0.0
 30
0.0
 11
197.9999999999997
 21
0.0
 31
0.0
  0
LINE
  5
64B7
330
18
100
AcDbEntity
  8
図框線
100
AcDbLine
 10
0.0
 20
12.0
 30
0.0
 11
197.9999999999997
 21
12.00000000000005
 31
0.0
  0
LINE
  5
64B8
330
18
100
AcDbEntity
  8
図框線
100
AcDbLine
 10
0.0
 20
22.0
 30
0.0
 11
96.0
 21
22.0
 31
0.0
  0
LINE
  5
64B9
330
18
100
AcDbEntity
  8
図框線
100
AcDbLine
 10
0.0
 20
32.0
 30
0.0
 11
197.9999999999997
 21
32.0
 31
0.0
  0
LINE
  5
64BA
330
18
100
AcDbEntity
  8
図框線
100
AcDbLine
 10
12.0
 20
32.0
 30
0.0
 11
12.0
 21
12.0
 31
0.0
  0
LINE
  5
64BB
330
18
100
AcDbEntity
  8
図框線
100
AcDbLine
 10
32.0
 20
32.0
 30
0.0
 11
32.0
 21
12.0
 31
0.0
  0
MTEXT
  5
64BC
330
18
100
AcDbEntity
  8
0
100
AcDbMText
 10
2.949444248820782
 20
29.04715033351227
 30
0.0
 40
4.5
 41
0.0
 71
     1
 72
     5
  1
\Ftxt.shx,bigfont.shx|c128;日 付
  7
JL
 73
     1
 44
1.0
  0
MTEXT
  5
64BD
330
18
100
AcDbEntity
  8
0
100
AcDbMText
 10
3.095712364910014
 20
19.83833899470915
 30
0.0
 40
4.5
 41
0.0
 71
     1
 72
     5
  1
\Ftxt.shx,bigfont.shx|c128;製 図
  7
JL
 73
     1
 44
1.0
  0
LINE
  5
64C0
330
18
100
AcDbEntity
  8
0
 62
     7
370
    25
100
AcDbLine
 10
55.27930887205229
 20
23.89647119159633
 30
0.0
 11
55.27930887205229
 21
29.22827490730549
 31
0.0
  0
MTEXT
  5
64C1
330
18
100
AcDbEntity
  8
0
100
AcDbMText
 10
66.70254067332553
 20
29.42231870267847
 30
0.0
 40
4.5
 41
0.0
 71
     1
 72
     5
  1
\Ftxt.shx,bigfont.shx|c128;尺 度
  7
JL
 73
     1
 44
1.0
  0
LINE
  5
64C2
330
18
100
AcDbEntity
  8
図框線
100
AcDbLine
 10
64.0
 20
32.0
 30
0.0
 11
64.0
 21
12.0
 31
0.0
  0
LINE
  5
64C3
330
18
100
AcDbEntity
  8
0
 62
     7
370
    25
100
AcDbLine
 10
41.2833241183157
 20
23.23894871736115
 30
0.0
 11
41.2833241183157
 21
29.67466750005656
 31
0.0
  0
CIRCLE
  5
64C4
330
18
100
AcDbEntity
  8
0
 62
     7
100
AcDbCircle
 10
41.2833241183157
 20
26.5623730494508
 30
0.0
 40
2.665901857854641
  0
LINE
  5
64C6
330
18
100
AcDbEntity
  8
0
 62
     7
370
    25
100
AcDbLine
 10
49.18030281106076
 20
26.56237304945091
 30
0.0
 11
55.75797321903156
 21
26.56237304945091
 31
0.0
  0
LINE
  5
64C7
330
18
100
AcDbEntity
  8
0
 62
     7
100
AcDbLine
 10
49.94750515634314
 20
25.22942212052362
 30
0.0
 11
55.27930887205229
 21
23.89647119159633
 31
0.0
  0
LINE
  5
64C8
330
18
100
AcDbEntity
  8
図框線
100
AcDbLine
 10
44.0
 20
21.99999999999989
 30
0.0
 11
44.0
 21
12.0
 31
0.0
  0
LINE
  5
64C9
330
18
100
AcDbEntity
  8
0
 62
     7
370
    25
100
AcDbLine
 10
37.95172532843935
 20
26.5623730494508
 30
0.0
 11
44.81391594676916
 21
26.56237304945091
 31
0.0
  0
CIRCLE
  5
64CA
330
18
100
AcDbEntity
  8
0
 62
     7
100
AcDbCircle
 10
41.2833241183157
 20
26.5623730494508
 30
0.0
 40
1.33295092892732
  0
MTEXT
  5
64CB
330
18
100
AcDbEntity
  8
0
100
AcDbMText
 10
35.12086518039769
 20
19.39982343168049
 30
0.0
 40
4.5
 41
0.0
 71
     1
 72
     5
  1
\Ftxt.shx,bigfont.shx|c128;検 図
  7
JL
 73
     1
 44
1.0
  0
LINE
  5
64CC
330
18
100
AcDbEntity
  8
0
 62
     7
370
    25
100
AcDbLine
 10
49.94750515634314
 20
25.22942212052362
 30
0.0
 11
49.94750515634314
 21
27.8953239783782
 31
0.0
  0
MTEXT
  5
64CD
330
18
100
AcDbEntity
  8
0
100
AcDbMText
 10
66.99507418337498
 20
19.62882052001464
 30
0.0
 40
4.5
 41
0.0
 71
     1
 72
     5
  1
\Ftxt.shx,bigfont.shx|c128;承 認
  7
JL
 73
     1
 44
1.0
  0
LINE
  5
64CE
330
18
100
AcDbEntity
  8
図框線
100
AcDbLine
 10
132.615790078639
 20
43.13491348924492
 30
0.0
 11
192.615790078639
 21
43.13491348924481
 31
0.0
  0
LINE
  5
64CF
330
18
100
AcDbEntity
  8
図框線
100
AcDbLine
 10
132.615790078639
 20
50.33491348924497
 30
0.0
 11
192.615790078639
 21
50.33491348924497
 31
0.0
  0
LINE
  5
64D0
330
18
100
AcDbEntity
  8
図框線
100
AcDbLine
 10
132.615790078639
 20
57.5349134892449
 30
0.0
 11
192.615790078639
 21
57.53491348924478
 31
0.0
  0
LINE
  5
64D1
330
18
100
AcDbEntity
  8
図框線
100
AcDbLine
 10
132.615790078639
 20
64.73491348924494
 30
0.0
 11
192.615790078639
 21
64.73491348924483
 31
0.0
  0
LINE
  5
64D2
330
18
100
AcDbEntity
  8
図框線
100
AcDbLine
 10
132.615790078639
 20
35.93491348924488
 30
0.0
 11
192.615790078639
 21
35.93491348924488
 31
0.0
  0
MTEXT
  5
64D3
330
18
100
AcDbEntity
  8
0
 62
     7
 48
2.0
100
AcDbMText
 10
162.5011900445104
 20
65.52808189982909
 30
0.0
 40
4.8
 41
0.0
 71
     5
 72
     1
  1
\P\Ftxt.shx,bigfont.shx|c128;諸　　　　元
 73
     1
 44
1.0
  0
LINE
  5
64D5
330
18
100
AcDbEntity
  8
図框線
100
AcDbLine
 10
132.615790078639
 20
64.73491348924483
 30
0.0
 11
132.615790078639
 21
35.93491348924488
 31
0.0
  0
MTEXT
  5
64D6
330
18
100
AcDbEntity
  8
0
100
AcDbMText
 10
136.1382258923192
 20
56.00840432212407
 30
0.0
 40
4.4
 41
163.916286842249
 71
     1
 72
     5
  1
\Ftxt.shx,bigfont.shx|c128;熱　処　理
  7
JL
 73
     1
 44
1.0
  0
LINE
  5
64D7
330
18
100
AcDbEntity
  8
図框線
100
AcDbLine
 10
156.615790078639
 20
57.53491348924478
 30
0.0
 11
156.615790078639
 21
35.93491348924488
 31
0.0
  0
MTEXT
  5
64D8
330
18
100
AcDbEntity
  8
0
100
AcDbMText
 10
97.65702556263818
 20
11.15332144655735
 30
0.0
 40
5.0
 41
0.0
 71
     1
 72
     5
  1
\Ftxt.shx,bigfont.shx|c128;図  面  番  号
  7
JL
 73
     1
 44
1.0
  0
MTEXT
  5
64D9
330
18
100
AcDbEntity
  8
0
 62
     7
 48
2.0
100
AcDbMText
 10
121.8260850653862
 20
22.29156825453561
 30
0.0
 40
4.5
 41
0.0
 71
     5
 72
     1
  1
\P\Ftxt.shx,bigfont.shx|c128;    精密ロックナット
 73
     1
 44
1.0
  0
MTEXT
  5
64DA
330
18
100
AcDbEntity
  8
0
370
    25
100
AcDbMText
 10
98.8002923053598
 20
29.80688815403971
 30
0.0
 40
5.0
 41
0.0
 71
     1
 72
     5
  1
\Ftxt.shx,bigfont.shx|c128;品  名
  7
JL
 73
     1
 44
1.0
  0
LINE
  5
64DB
330
18
100
AcDbEntity
  8
図框線
100
AcDbLine
 10
96.0
 20
32.0
 30
0.0
 11
96.0
 21
0.19104161092514
 31
0.0
  0
LINE
  5
64DC
330
18
100
AcDbEntity
  8
図框線
100
AcDbLine
 10
76.0
 20
32.0
 30
0.0
 11
76.0
 21
12.0
 31
0.0
  0
LINE
  5
64DE
330
18
100
AcDbEntity
  8
図框線
100
AcDbLine
 10
153.2235601908683
 20
32.0
 30
0.0
 11
153.2235601908683
 21
12.0
 31
0.0
  0
MTEXT
  5
64DF
330
18
100
AcDbEntity
  8
0
100
AcDbMText
 10
135.85795152494
 20
49.00617587486397
 30
0.0
 40
4.4
 41
163.6058628849672
 71
     1
 72
     5
  1
\Ftxt.shx,bigfont.shx|c128;表 面 処 理
  7
JL
 73
     1
 44
1.0
  0
MTEXT
  5
64E0
330
18
100
AcDbEntity
  8
0
100
AcDbMText
 10
136.148017373375
 20
41.71770302125605
 30
0.0
 40
4.4
 41
166.1718
 71
     1
 72
     5
  1
\Ftxt.shx,bigfont.shx|c128;等     　級
  7
JL
 73
     1
 44
1.0
  0
LINE
  5
64E1
330
18
100
AcDbEntity
  8
図框線
100
AcDbLine
 10
192.615790078639
 20
64.73491348924483
 30
0.0
 11
192.615790078639
 21
35.93491348924499
 31
0.0
  0
MTEXT
  5
64E2
330
18
100
AcDbEntity
  8
0
100
AcDbMText
 10
161.3627933880816
 20
55.83344641471445
 30
0.0
 40
4.4
 41
291.8960056857887
 71
     1
 72
     5
  1
\Ftxt.shx,bigfont.shx|c128;調質　HRC30%%d%%p２%%d
  7
JL
 73
     1
 44
1.0
  0
MTEXT
  5
64E4
330
18
100
AcDbEntity
  8
0
370
    25
100
AcDbMText
 10
157.2494735287423
 20
29.58569764093568
 30
0.0
 40
5.0
 41
0.0
 71
     1
 72
     5
  1
\Ftxt.shx,bigfont.shx|c128;型  番
  7
JL
 73
     1
 44
1.0
  0
MTEXT
  5
64E5
330
18
100
AcDbEntity
  8
0
100
AcDbMText
 10
172.787265122339
 20
11.23700203391422
 30
0.0
 40
5.0
 41
0.0
 71
     1
 72
     5
  1
\Ftxt.shx,bigfont.shx|c128;変更
  7
JL
 73
     1
 44
1.0
  0
LINE
  5
64E6
330
18
100
AcDbEntity
  8
図框線
100
AcDbLine
 10
171.0
 20
12.00907027842731
 30
0.0
 11
171.0
 21
0.0
 31
0.0
  0
MTEXT
  5
64E7
330
18
100
AcDbEntity
  8
0
100
AcDbMText
 10
161.623432389518
 20
41.7183135927072
 30
0.0
 40
4.4
 41
290.783364796891
 71
     1
 72
     5
  1
\Ftxt.shx,bigfont.shx|c128;ＩＳＯ - ４Ｈ
  7
JL
 73
     1
 44
1.0
  0
MTEXT
  5
64E8
330
18
100
AcDbEntity
  8
0
100
AcDbMText
 10
161.7978935876483
 20
48.65328293790913
 30
0.0
 40
4.4
 41
291.4548
 71
     1
 72
     5
  1
\Ftxt.shx,bigfont.shx|c128;黒  　    染
  7
JL
 73
     1
 44
1.0
  0
MTEXT
  5
64EA
330
18
100
AcDbEntity
  8
0
100
AcDbMText
 10
60.06318600759005
 20
270.095850257545
 30
0.0
 40
5.0
 41
0.0
 71
     1
 72
     5
  1
\Ftxt.shx,bigfont.shx|c128;M8X1.25-5L
  7
JL
 73
     1
 44
1.0
  0
MTEXT
  5
64EB
330
18
100
AcDbEntity
  8
0
100
AcDbMText
 10
60.06318600759005
 20
262.095850257545
 30
0.0
 40
5.0
 41
0.0
 71
     1
 72
     5
  1
\Ftxt.shx,bigfont.shx|c128;%%c7X6L
  7
JL
 73
     1
 44
1.0
  0
LINE
  5
64EC
330
18
100
AcDbEntity
  8
図框線
100
AcDbLine
 10
-0.0000000000002274
 20
263.9999999999999
 30
0.0
 11
197.9999999999997
 21
263.9999999999999
 31
0.0
  0
LINE
  5
64ED
330
18
100
AcDbEntity
  8
図框線
100
AcDbLine
 10
-0.0000000000002274
 20
271.9999999999999
 30
0.0
 11
197.9999999999997
 21
271.9999999999999
 31
0.0
  0
LINE
  5
64EE
330
18
100
AcDbEntity
  8
図框線
 62
     9
100
AcDbLine
 10
-0.0000000000002274
 20
279.9999999999999
 30
0.0
 11
197.9999999999997
 21
279.9999999999999
 31
0.0
  0
LINE
  5
64EF
330
18
100
AcDbEntity
  8
図框線
100
AcDbLine
 10
-0.0000000000002274
 20
290.0
 30
0.0
 11
197.9999999999997
 21
290.0
 31
0.0
  0
MTEXT
  5
64F0
330
18
100
AcDbEntity
  8
0
100
AcDbMText
 10
59.41630259681733
 20
287.3155952051104
 30
0.0
 40
5.0
 41
0.0
 71
     1
 72
     5
  1
\Ftxt.shx,bigfont.shx|c128;図    番 / 規　　格
  7
JL
 73
     1
 44
1.0
  0
LINE
  5
64F1
330
18
100
AcDbEntity
  8
図框線
100
AcDbLine
 10
-0.0000000000002274
 20
263.9999999999999
 30
0.0
 11
197.9999999999997
 21
263.9999999999999
 31
0.0
  0
LINE
  5
64F2
330
18
100
AcDbEntity
  8
図框線
100
AcDbLine
 10
-0.0000000000002274
 20
255.9999999999999
 30
0.0
 11
197.9999999999997
 21
255.9999999999999
 31
0.0
  0
MTEXT
  5
64F3
330
18
100
AcDbEntity
  8
0
100
AcDbMText
 10
22.01434914141237
 20
286.7888025819827
 30
0.0
 40
5.0
 41
0.0
 71
     1
 72
     5
  1
\Ftxt.shx,bigfont.shx|c128;品　          名
  7
JL
 73
     1
 44
1.0
  0
MTEXT
  5
64F4
330
18
100
AcDbEntity
  8
0
100
AcDbMText
 10
18.8650376130422
 20
270.5298549795346
 30
0.0
 40
6.0
 41
0.0
 71
     1
 72
     5
  1
\Ftxt.shx,bigfont.shx|c128;セットスクリュ-
  7
JL
 73
     1
 44
1.0
  0
MTEXT
  5
64F5
330
18
100
AcDbEntity
  8
0
100
AcDbMText
 10
18.66941459004738
 20
278.3660650505403
 30
0.0
 40
6.0
 41
0.0
 71
     1
 72
     5
  1
\Ftxt.shx,bigfont.shx|c128;ロックナット　  
  7
JL
 73
     1
 44
1.0
  0
MTEXT
  5
64F6
330
18
100
AcDbEntity
  8
0
100
AcDbMText
 10
18.8650376130422
 20
262.5298549795346
 30
0.0
 40
6.0
 41
0.0
 71
     1
 72
     5
  1
\Ftxt.shx,bigfont.shx|c128;ロックピン 
  7
JL
 73
     1
 44
1.0
  0
LINE
  5
64F7
330
18
100
AcDbEntity
  8
図框線
100
AcDbLine
 10
14.99999999999977
 20
289.9999999999998
 30
0.0
 11
15.00000000000011
 21
255.9999999999999
 31
0.0
  0
LINE
  5
64F8
330
18
100
AcDbEntity
  8
0
100
AcDbLine
 10
14.99999999999977
 20
289.9999999999998
 30
0.0
 11
14.99999999999977
 21
263.9999999999999
 31
0.0
  0
MTEXT
  5
64F9
330
18
100
AcDbEntity
  8
0
100
AcDbMText
 10
6.215289087390488
 20
262.7436409356394
 30
0.0
 40
5.0
 41
0.0
 71
     1
 72
     5
  1
\Ftxt.shx,bigfont.shx|c128;3
  7
JL
 73
     1
 44
1.0
  0
MTEXT
  5
64FA
330
18
100
AcDbEntity
  8
0
100
AcDbMText
 10
7.101957026666809
 20
278.5798510066454
 30
0.0
 40
5.0
 41
0.0
 71
     1
 72
     5
  1
\Ftxt.shx,bigfont.shx|c128;1
  7
JL
 73
     1
 44
1.0
  0
MTEXT
  5
64FB
330
18
100
AcDbEntity
  8
0
100
AcDbMText
 10
6.215289087390488
 20
270.7436409356394
 30
0.0
 40
5.0
 41
0.0
 71
     1
 72
     5
  1
\Ftxt.shx,bigfont.shx|c128;2
  7
JL
 73
     1
 44
1.0
  0
MTEXT
  5
64FC
330
18
100
AcDbEntity
  8
0
100
AcDbMText
 10
2.209083991842362
 20
287.0885254164057
 30
0.0
 40
5.0
 41
0.0
 71
     1
 72
     5
  1
\Ftxt.shx,bigfont.shx|c128;照   号
  7
JL
 73
     1
 44
1.0
  0
LINE
  5
64FD
330
18
100
AcDbEntity
  8
図框線
 62
     9
100
AcDbLine
 10
54.99999999999977
 20
289.9999999999998
 30
0.0
 11
54.99999999999977
 21
256.0
 31
0.0
  0
MTEXT
  5
64FE
330
18
100
AcDbEntity
  8
0
100
AcDbMText
 10
146.3353765925378
 20
287.5804049742369
 30
0.0
 40
5.0
 41
0.0
 71
     1
 72
     5
  1
\Ftxt.shx,bigfont.shx|c128;備           考
  7
JL
 73
     1
 44
1.0
  0
LINE
  5
64FF
330
18
100
AcDbEntity
  8
図框線
 62
     9
100
AcDbLine
 10
94.99999999999976
 20
289.9999999999999
 30
0.0
 11
94.99999999999976
 21
255.9999999999999
 31
0.0
  0
MTEXT
  5
6500
330
18
100
AcDbEntity
  8
0
100
AcDbMText
 10
96.78387029776377
 20
262.3660650505403
 30
0.0
 40
5.0
 41
0.0
 71
     1
 72
     5
  1
\Ftxt.shx,bigfont.shx|c128;C3604
  7
JL
 73
     1
 44
1.0
  0
MTEXT
  5
6501
330
18
100
AcDbEntity
  8
0
100
AcDbMText
 10
96.78387029776377
 20
278.3660650505403
 30
0.0
 40
5.0
 41
0.0
 71
     1
 72
     5
  1
\Ftxt.shx,bigfont.shx|c128;SCM-440
  7
JL
 73
     1
 44
1.0
  0
MTEXT
  5
6502
330
18
100
AcDbEntity
  8
0
100
AcDbMText
 10
96.78387029776377
 20
270.3660650505403
 30
0.0
 40
5.0
 41
0.0
 71
     1
 72
     5
  1
\Ftxt.shx,bigfont.shx|c128;SCM435
  7
JL
 73
     1
 44
1.0
  0
MTEXT
  5
6503
330
18
100
AcDbEntity
  8
0
100
AcDbMText
 10
99.80032499445407
 20
287.5804049742369
 30
0.0
 40
5.0
 41
0.0
 71
     1
 72
     5
  1
\Ftxt.shx,bigfont.shx|c128;材　質
  7
JL
 73
     1
 44
1.0
  0
LINE
  5
6504
330
18
100
AcDbEntity
  8
図框線
 62
     9
100
AcDbLine
 10
114.9999999999997
 20
289.9999999999999
 30
0.0
 11
114.9999999999997
 21
255.9999999999999
 31
0.0
  0
LINE
  5
6505
330
18
100
AcDbEntity
  8
図框線
100
AcDbLine
 10
129.9999999999998
 20
289.9999999999999
 30
0.0
 11
129.9999999999998
 21
255.9999999999999
 31
0.0
  0
MTEXT
  5
6506
330
18
100
AcDbEntity
  8
0
100
AcDbMText
 10
121.2152890873904
 20
262.7436409356394
 30
0.0
 40
5.0
 41
0.0
 71
     1
 72
     5
  1
\Ftxt.shx,bigfont.shx|c128;3
  7
JL
 73
     1
 44
1.0
  0
MTEXT
  5
6507
330
18
100
AcDbEntity
  8
0
100
AcDbMText
 10
122.1019570266667
 20
278.5798510066454
 30
0.0
 40
5.0
 41
0.0
 71
     1
 72
     5
  1
\Ftxt.shx,bigfont.shx|c128;1
  7
JL
 73
     1
 44
1.0
  0
MTEXT
  5
6508
330
18
100
AcDbEntity
  8
0
100
AcDbMText
 10
121.2152890873904
 20
270.7436409356394
 30
0.0
 40
5.0
 41
0.0
 71
     1
 72
     5
  1
\Ftxt.shx,bigfont.shx|c128;3
  7
JL
 73
     1
 44
1.0
  0
MTEXT
  5
6509
330
18
100
AcDbEntity
  8
0
100
AcDbMText
 10
116.433740311917
 20
287.5804049742369
 30
0.0
 40
5.0
 41
0.0
 71
     1
 72
     5
  1
\Ftxt.shx,bigfont.shx|c128;数   量
  7
JL
 73
     1
 44
1.0
  0
DIMENSION
  5
6770
330
18
100
AcDbEntity
  8
0
100
AcDbDimension
  2
*D1
 10
110.7352474951443
 20
72.72595745646629
 30
0.0
 11
88.2352474951441
 21
72.72595745646629
 31
0.0
 12
-217.6972347834719
 22
9.739827556085288
 32
0.0
 70
   160
  1
M<>X1.5P
 71
     5
 42
-1.0
  3
A
100
AcDbAlignedDimension
 13
65.73524749514416
 23
93.28849641216489
 33
0.0
 14
110.7352474951443
 24
93.2884964121648
 34
0.0
100
AcDbRotatedDimension
  0
DIMENSION
  5
677F
330
18
100
AcDbEntity
  8
0
100
AcDbDimension
  2
*D2
 10
60.09124769783415
 20
161.4315731987266
 30
0.0
 11
65.09124769783415
 21
161.4315731987266
 31
0.0
 70
   160
 71
     5
 42
-1.0
  3
A
100
AcDbAlignedDimension
 13
57.62960487817327
 23
199.7167537529921
 33
0.0
 14
60.09124769783415
 24
199.716753752992
 34
0.0
100
AcDbRotatedDimension
  0
DIMENSION
  5
6864
330
18
100
AcDbEntity
  8
DIM
100
AcDbDimension
  2
*D3
 10
46.14235129834542
 20
205.7167537529921
 30
0.0
 11
45.26794725748965
 21
215.3850418644924
 31
0.0
 12
-209.8412336996607
 22
21.98110016409154
 32
0.0
 70
   160
  1
<>      (3等分)
 71
     5
 42
-1.0
  3
A
100
AcDbAlignedDimension
 13
57.54683749412226
 23
199.7167537529921
 33
0.0
 14
57.54683749412226
 24
205.7167537529921
 34
0.0
 50
90.0
100
AcDbRotatedDimension
  0
LINE
  5
689B
330
18
100
AcDbEntity
  8
DIM
 62
     6
100
AcDbLine
 10
46.14235129834542
 20
208.7167537529921
 30
0.0
 11
46.14235129834542
 21
228.6330626153866
 31
0.0
  0
LINE
  5
6AF0
330
18
100
AcDbEntity
  8
DIM
 62
     6
100
AcDbLine
 10
65.09124769783415
 20
161.4315731987266
 30
0.0
 11
76.89447100866328
 21
161.4315731987266
 31
0.0
  0
LEADER
  5
6B85
330
18
100
AcDbEntity
  8
DIM
 62
     6
100
AcDbLeader
  3
A
 73
     0
 74
     0
 75
     1
 40
3.0
 41
8.0
 76
     3
 10
65.86024749514399
 20
110.9384964121647
 30
0.0
 10
68.4328278909951
 20
118.7747230262263
 30
0.0
 10
70.9328278909951
 20
118.7747230262263
 30
0.0
340
6B86
  0
MTEXT
  5
6B86
102
{ACAD_REACTORS
330
6B85
102
}
330
18
100
AcDbEntity
  8
DIM
 62
     3
100
AcDbMText
 10
71.9328278909951
 20
121.2747230262263
 30
0.0
 40
3.0
 41
0.0
 71
     4
 72
     1
  1
\A1;C1.5
  7
TXT
 73
     1
 44
1.0
  0
DIMENSION
  5
6C92
330
18
100
AcDbEntity
  8
DIM
100
AcDbDimension
  2
*D4
 10
117.7352474951442
 20
130.8797196303202
 30
0.0
 11
88.2352474951441
 21
133.3797196303202
 31
0.0
 12
-217.6972347834719
 22
9.739827556085288
 32
0.0
 70
    32
  1
%%c<>%%p0.5
 71
     5
 42
-1.0
  3
A
100
AcDbAlignedDimension
 13
58.73524749514405
 23
112.6884964121646
 33
0.0
 14
117.7352474951442
 24
112.6884964121647
 34
0.0
100
AcDbRotatedDimension
  0
DIMENSION
  5
6CAA
330
18
100
AcDbEntity
  8
DIM
100
AcDbDimension
  2
*D5
 10
120.7352474951443
 20
136.3871897207351
 30
0.0
 11
84.16619136723028
 21
137.2133104706204
 31
0.0
 12
-217.6972347834719
 22
9.739827556085288
 32
0.0
 70
   160
  1
%%c<>
 71
     5
 42
-1.0
  3
A
100
AcDbAlignedDimension
 13
55.73524749514405
 23
110.6884964121647
 33
0.0
 14
120.7352474951443
 24
110.6884964121647
 34
0.0
100
AcDbRotatedDimension
  0
DIMENSION
  5
6F74
330
18
100
AcDbEntity
  8
0
100
AcDbDimension
  2
*D6
 10
144.8815383991431
 20
76.08027061515385
 30
0.0
 11
155.3776107741555
 21
94.26000124859543
 31
0.0
 12
-204.4972339023506
 22
3.361666013385217
 32
0.0
 70
   161
  1
9%%p0.5
 71
     5
 42
-1.0
  3
A
100
AcDbAlignedDimension
 13
120.7352474951443
 23
100.690571143133
 33
0.0
 14
116.1152474951443
 24
92.68849641216467
 34
0.0
  0
MTEXT
  5
72FF
102
{ACAD_REACTORS
330
7300
102
}
330
18
100
AcDbEntity
  8
DIM
 62
     3
100
AcDbMText
 10
99.66070251285225
 20
85.60863851564713
 30
0.0
 40
3.0
 41
0.0
 71
     6
 72
     1
  1
\A1;C1.5
  7
TXT
 73
     1
 44
1.0
  0
LEADER
  5
7300
330
18
100
AcDbEntity
  8
DIM
 62
     6
100
AcDbLeader
  3
A
 73
     0
 75
     1
 40
3.0
 41
8.0
 76
     3
 10
110.6102474951443
 20
93.43849641216477
 30
0.0
 10
103.1607025128522
 20
83.10863851564713
 30
0.0
 10
100.6607025128522
 20
83.10863851564713
 30
0.0
340
72FF
  0
MTEXT
  5
7303
102
{ACAD_REACTORS
330
7304
102
}
330
18
100
AcDbEntity
  8
DIM
 62
     3
100
AcDbMText
 10
133.2979658030968
 20
126.853369864787
 30
0.0
 40
3.0
 41
0.0
 71
     4
 72
     1
  1
\A1;R1.5
  7
TXT
 73
     1
 44
1.0
  0
LEADER
  5
7304
330
18
100
AcDbEntity
  8
DIM
 62
     6
100
AcDbLeader
  3
A
 73
     0
 74
     0
 75
     1
 40
3.0
 41
8.0
 76
     3
 10
120.2959076669241
 20
111.7491565839444
 30
0.0
 10
129.7979658030969
 20
124.353369864787
 30
0.0
 10
132.2979658030968
 20
124.353369864787
 30
0.0
340
7303
1001
ACAD
1000
DSTYLE
1002
{
1070
    45
1040
0.0
1002
}
  0
DIMENSION
  5
74C6
330
18
100
AcDbEntity
  8
0
100
AcDbDimension
  2
*D7
 10
47.78635109565527
 20
112.1884964121647
 30
0.0
 11
47.78635109565527
 21
122.8484936733148
 31
0.0
 12
-217.6972347834719
 22
9.739827556085288
 32
0.0
 70
   160
 71
     5
 42
-1.0
  3
A
100
AcDbAlignedDimension
 13
58.73524749514405
 23
112.6884964121646
 33
0.0
 14
57.23524749514405
 24
112.1884964121647
 34
0.0
 50
90.0
100
AcDbRotatedDimension
  0
DIMENSION
  5
750D
330
18
100
AcDbEntity
  8
DIM
100
AcDbDimension
  2
*D8
 10
111.2352474951443
 20
125.0366248186916
 30
0.0
 11
88.23524749514417
 21
127.5366248186916
 31
0.0
 12
-217.6972347834719
 22
9.739827556085288
 32
0.0
 70
    32
  1
%%c<>
 71
     5
 42
-1.0
  3
A
100
AcDbAlignedDimension
 13
65.23524749514405
 23
112.6884964121646
 33
0.0
 14
111.2352474951443
 24
112.6884964121646
 34
0.0
100
AcDbRotatedDimension
  0
DIMENSION
  5
7568
330
18
100
AcDbEntity
  8
DIM
100
AcDbDimension
  2
*D9
 10
135.6215740706065
 20
96.72945876435822
 30
0.0
 11
133.1215740706066
 21
104.7089775882614
 31
0.0
 12
-204.4972339023506
 22
3.361666013385217
 32
0.0
 70
    32
 71
     5
 42
-1.0
  3
A
100
AcDbAlignedDimension
 13
117.6982981969683
 23
112.6884964121647
 33
0.0
 14
118.4482981969683
 24
96.72945876435822
 34
0.0
 50
90.0
100
AcDbRotatedDimension
  0
DIMENSION
  5
7575
330
18
100
AcDbEntity
  8
DIM
100
AcDbDimension
  2
*D10
 10
145.7705949969947
 20
112.6884964121647
 30
0.0
 11
143.2705949969947
 21
102.6884964121647
 31
0.0
 12
-204.4972339023506
 22
3.361666013385217
 32
0.0
 70
    32
  1
<>%%p0.2
 71
     5
 42
-1.0
  3
A
100
AcDbAlignedDimension
 13
116.1152474951443
 23
92.68849641216467
 33
0.0
 14
117.6982981969683
 24
112.6884964121647
 34
0.0
 50
90.0
100
AcDbRotatedDimension
  0
DIMENSION
  5
7AD6
330
18
100
AcDbEntity
  8
DIM
100
AcDbDimension
  2
*D11
 10
97.4529826016244
 20
112.6884964121647
 30
0.0
 11
97.4529826016244
 21
120.274310099837
 31
0.0
 12
-195.2415127924837
 22
-11.1452257698206
 32
0.0
 70
   160
 71
     5
 42
-1.0
  3
A
100
AcDbAlignedDimension
 13
101.2352474951441
 23
111.6884964121647
 33
0.0
 14
101.2352474951441
 24
112.6884964121647
 34
0.0
 50
90.0
100
AcDbRotatedDimension
  0
LINE
  5
8182
330
18
100
AcDbEntity
  8
本体内線
  6
HIDDEN
 48
0.2
100
AcDbLine
 10
111.3702677876325
 20
206.7167537529917
 30
0.0
 11
122.2441545435745
 21
206.7167537529918
 31
0.0
  0
LINE
  5
8183
330
18
100
AcDbEntity
  8
本体内線
  6
HIDDEN
 48
0.2
100
AcDbLine
 10
111.3702677876324
 20
198.7167537529917
 30
0.0
 11
122.2441545435744
 21
198.7167537529917
 31
0.0
  0
LINE
  5
82FD
330
18
100
AcDbEntity
  8
本体内線
  6
HIDDEN
 48
0.2
100
AcDbLine
 10
111.4738569434543
 20
206.1167537529918
 30
0.0
 11
122.31291225893
 21
206.1167537529918
 31
0.0
  0
LINE
  5
82FE
330
18
100
AcDbEntity
  8
本体内線
  6
HIDDEN
 48
0.2
100
AcDbLine
 10
111.4738569434542
 20
199.3167537529917
 30
0.0
 11
122.31291225893
 21
199.3167537529917
 31
0.0
  0
DIMENSION
  5
8546
330
18
100
AcDbEntity
  8
DIM
100
AcDbDimension
  2
*D12
 10
117.7352474951443
 20
112.6884964121647
 30
0.0
 11
161.2437519123737
 21
93.95958649207111
 31
0.0
 12
-204.4972339023506
 22
3.361666013385217
 32
0.0
 70
    34
  1
30%%d
 71
     5
 42
-1.0
  3
A
100
AcDb2LineAngularDimension
 13
120.1718914599986
 23
95.75039044666473
 33
0.0
 14
110.5444227342053
 24
101.2191688476877
 34
0.0
 15
65.73524749514433
 25
112.6884964121646
 35
0.0
 16
161.7238393222505
 26
87.08892485907766
 36
0.0
1001
ACAD
1000
DSTYLE
1002
{
1070
    79
1070
     2
1070
   179
1070
     1
1002
}
  0
LINE
  5
8691
330
18
100
AcDbEntity
  8
中心線
  6
CENTER
 48
0.15
100
AcDbLine
 10
89.9912476978343
 20
237.216753752992
 30
0.0
 11
89.99124769783367
 21
168.2167537529919
 31
0.0
  0
LINE
  5
8692
330
18
100
AcDbEntity
  8
中心線
  6
CENTER
 48
0.15
100
AcDbLine
 10
88.23524749514417
 20
90.06638957117164
 30
0.0
 11
88.23524749514417
 21
115.9417898604599
 31
0.0
  0
ARC
  5
869C
330
18
100
AcDbEntity
  8
本体外線
100
AcDbCircle
 10
89.99124769783419
 20
202.716753752992
 30
0.0
 40
32.5
100
AcDbArc
 50
65.29638091185204
 51
174.7036190881473
  0
CIRCLE
  5
869D
330
18
100
AcDbEntity
  8
本体外線
100
AcDbCircle
 10
89.99124769783419
 20
202.716753752992
 30
0.0
 40
29.5
  0
ARC
  5
869E
330
18
100
AcDbEntity
  8
0
100
AcDbCircle
 10
89.99124769783419
 20
202.716753752992
 30
0.0
 40
22.5
100
AcDbArc
 50
168.9536153043181
 51
102.3298464934006
  0
CIRCLE
  5
869F
330
18
100
AcDbEntity
  8
本体外線
100
AcDbCircle
 10
89.99124769783419
 20
202.716753752992
 30
0.0
 40
21.75
  0
LINE
  5
86A0
330
18
100
AcDbEntity
  8
本体外線
100
AcDbLine
 10
102.3431714864809
 20
230.1109133261467
 30
0.0
 11
107.5393239091876
 21
227.1109133261466
 31
0.0
  0
LINE
  5
86A1
330
18
100
AcDbEntity
  8
本体外線
 48
0.08
100
AcDbLine
 10
103.5737926117654
 20
232.2424116400068
 30
0.0
 11
102.3431714864809
 21
230.1109133261467
 31
0.0
  0
LINE
  5
86A2
330
18
100
AcDbEntity
  8
本体外線
 48
0.08
100
AcDbLine
 10
108.769945034472
 20
229.2424116400068
 30
0.0
 11
107.5393239091876
 21
227.1109133261466
 31
0.0
  0
LINE
  5
86A5
330
18
100
AcDbEntity
  8
中心線
  6
CENTER
 48
0.15
100
AcDbLine
 10
55.49124769783412
 20
202.7167537529921
 30
0.0
 11
124.4912476978342
 21
202.7167537529916
 31
0.0
  0
LINE
  5
86A6
330
18
100
AcDbEntity
  8
本体外線
100
AcDbLine
 10
60.09124769783415
 20
199.716753752992
 30
0.0
 11
60.09124769783415
 21
205.7167537529921
 31
0.0
  0
LINE
  5
86A7
330
18
100
AcDbEntity
  8
本体外線
 48
0.08
100
AcDbLine
 10
57.63000544726537
 20
199.716753752992
 30
0.0
 11
60.09124769783415
 21
199.716753752992
 31
0.0
  0
LINE
  5
86A8
330
18
100
AcDbEntity
  8
本体外線
 48
0.08
100
AcDbLine
 10
57.63000544726532
 20
205.7167537529921
 30
0.0
 11
60.09124769783415
 21
205.716753752992
 31
0.0
  0
LINE
  5
86A9
330
18
100
AcDbEntity
  8
中心線
  6
CENTER
 48
0.15
100
AcDbLine
 10
72.74124769783395
 20
172.8388773224289
 30
0.0
 11
80.11624769783407
 21
185.6127520282493
 31
0.0
  0
LINE
  5
86AA
330
18
100
AcDbEntity
  8
本体外線
100
AcDbLine
 10
107.5393239091873
 20
178.3225941798372
 30
0.0
 11
102.3431714864807
 21
175.3225941798372
 31
0.0
  0
LINE
  5
86AB
330
18
100
AcDbEntity
  8
本体外線
 48
0.08
100
AcDbLine
 10
108.7699450344717
 20
176.191095865977
 30
0.0
 11
107.5393239091873
 21
178.3225941798371
 31
0.0
  0
LINE
  5
86AC
330
18
100
AcDbEntity
  8
本体外線
 48
0.08
100
AcDbLine
 10
103.573792611765
 20
173.191095865977
 30
0.0
 11
102.3431714864807
 21
175.3225941798371
 31
0.0
  0
ARC
  5
86AD
330
18
100
AcDbEntity
  8
本体外線
100
AcDbCircle
 10
89.99124769783419
 20
202.716753752992
 30
0.0
 40
32.5
100
AcDbArc
 50
185.296380911852
 51
294.7036190881476
  0
ARC
  5
86AE
330
18
100
AcDbEntity
  8
本体外線
100
AcDbCircle
 10
89.99124769783419
 20
202.716753752992
 30
0.0
 40
32.5
100
AcDbArc
 50
305.2963809118521
 51
54.70361908814744
  0
LINE
  5
86B7
330
18
100
AcDbEntity
  8
中心線
  6
CENTER
 48
0.15
100
AcDbLine
 10
80.11624769783423
 20
219.8207554777347
 30
0.0
 11
72.74124769783435
 21
232.5946301835552
 31
0.0
  0
LINE
  5
86B9
330
18
100
AcDbEntity
  8
本体外線
100
AcDbLine
 10
60.35524749514411
 20
92.68849641216467
 30
0.0
 11
116.1152474951442
 21
92.68849641216469
 31
0.0
  0
LINE
  5
86BA
330
18
100
AcDbEntity
  8
本体外線
100
AcDbLine
 10
58.73524749514405
 20
112.6884964121646
 30
0.0
 11
117.7352474951442
 21
112.6884964121646
 31
0.0
  0
LINE
  5
86BB
330
18
100
AcDbEntity
  8
本体外線
100
AcDbLine
 10
55.73524749514405
 20
110.6884964121647
 30
0.0
 11
55.73524749514405
 21
100.6905711431329
 31
0.0
  0
LINE
  5
86BC
330
18
100
AcDbEntity
  8
本体外線
100
AcDbLine
 10
58.73524749514405
 20
112.6884964121646
 30
0.0
 11
58.73524749514405
 21
112.1884964121647
 31
0.0
  0
LINE
  5
86BE
330
18
100
AcDbEntity
  8
本体外線
100
AcDbLine
 10
66.48524749514399
 20
110.1884964121647
 30
0.0
 11
66.48524749514416
 21
94.18849641216471
 31
0.0
  0
LINE
  5
86BF
330
18
100
AcDbEntity
  8
本体外線
100
AcDbLine
 10
120.7352474951443
 20
110.6884964121647
 30
0.0
 11
120.7352474951443
 21
100.690571143133
 31
0.0
  0
LINE
  5
86C0
330
18
100
AcDbEntity
  8
本体外線
100
AcDbLine
 10
109.9852474951444
 20
110.1884964121647
 30
0.0
 11
109.9852474951443
 21
94.18849641216469
 31
0.0
  0
LINE
  5
86C1
330
18
100
AcDbEntity
  8
本体外線
100
AcDbLine
 10
57.23524749514405
 20
112.1884964121647
 30
0.0
 11
58.73524749514405
 21
112.1884964121647
 31
0.0
  0
LINE
  5
86C2
330
18
100
AcDbEntity
  8
本体外線
100
AcDbLine
 10
117.7378292748377
 20
112.1884964121647
 30
0.0
 11
119.2352474951443
 21
112.1884964121647
 31
0.0
  0
ARC
  5
86C3
330
18
100
AcDbEntity
  8
本体外線
100
AcDbCircle
 10
57.23524749514405
 20
110.6884964121647
 30
0.0
 40
1.5
100
AcDbArc
 50
90.0
 51
180.0
  0
LINE
  5
86C4
330
18
100
AcDbEntity
  8
本体外線
100
AcDbLine
 10
66.48524749514399
 20
110.1884964121647
 30
0.0
 11
65.23524749514405
 21
111.6884964121647
 31
0.0
  0
LINE
  5
86C6
330
18
100
AcDbEntity
  8
本体外線
100
AcDbLine
 10
66.48524749514399
 20
110.1884964121647
 30
0.0
 11
109.9852474951444
 21
110.1884964121647
 31
0.0
  0
LINE
  5
86C7
330
18
100
AcDbEntity
  8
本体外線
100
AcDbLine
 10
66.48524749514416
 20
94.18849641216471
 30
0.0
 11
109.9852474951443
 21
94.18849641216469
 31
0.0
  0
LINE
  5
86CA
330
18
100
AcDbEntity
  8
本体外線
100
AcDbLine
 10
117.7352474951442
 20
112.6884964121646
 30
0.0
 11
117.7352474951442
 21
112.1884964121647
 31
0.0
  0
ARC
  5
86CB
330
18
100
AcDbEntity
  8
本体外線
100
AcDbCircle
 10
119.2352474951443
 20
110.6884964121647
 30
0.0
 40
1.5
100
AcDbArc
 50
0.0
 51
90.0
  0
POINT
  5
86CF
330
18
100
AcDbEntity
  8
本体外線
100
AcDbPoint
 10
117.2037438904294
 20
112.6884964121646
 30
0.0
  0
POINT
  5
86DA
330
18
100
AcDbEntity
  8
本体外線
100
AcDbPoint
 10
117.2037438904294
 20
112.6884964121646
 30
0.0
  0
LINE
  5
86DF
330
18
100
AcDbEntity
  8
本体外線
100
AcDbLine
 10
58.33524749514407
 20
112.1884964121647
 30
0.0
 11
58.33524749514407
 21
96.18723904345388
 31
0.0
  0
LINE
  5
86E1
330
18
100
AcDbEntity
  8
0
100
AcDbLine
 10
115.7324271721169
 20
93.62543216251141
 30
0.0
 11
119.7324271721171
 21
100.5536353927874
 31
0.0
  0
LINE
  5
86E2
330
18
100
AcDbEntity
  8
本体内線
  6
HIDDEN
 48
0.1
100
AcDbLine
 10
118.3326611212889
 20
98.92162134047183
 30
0.0
 11
116.4459097753412
 21
97.83230494299466
 31
0.0
  0
LINE
  5
86E3
330
18
100
AcDbEntity
  8
本体内線
  6
HIDDEN
 48
0.1
100
AcDbLine
 10
116.4459097753411
 20
97.83230494299445
 30
0.0
 11
116.4459097753408
 21
95.65367214804032
 31
0.0
  0
LWPOLYLINE
  5
86E4
330
18
100
AcDbEntity
  8
本体外線
100
AcDbPolyline
 90
        2
 70
     0
 43
0.0
 10
116.1152474951443
 20
92.68849641216482
 10
120.7352474951443
 20
100.690571143133
  0
LINE
  5
86E6
330
18
100
AcDbEntity
  8
本体内線
  6
HIDDEN
 48
0.1
100
AcDbLine
 10
119.3686231681183
 20
98.32350837386435
 30
0.0
 11
118.3326611212886
 21
98.92162134047172
 31
0.0
  0
LINE
  5
86E7
330
18
100
AcDbEntity
  8
本体内線
  6
HIDDEN
 48
0.1
100
AcDbLine
 10
117.4818718221703
 20
95.05555918143297
 30
0.0
 11
116.4459097753408
 21
95.65367214804025
 31
0.0
  0
LINE
  5
86E8
330
18
100
AcDbEntity
  8
0
100
AcDbLine
 10
115.731169162463
 20
100.5543617049992
 30
0.0
 11
118.4632199700319
 21
101.286412512568
 31
0.0
  0
LINE
  5
86E9
330
18
100
AcDbEntity
  8
0
100
AcDbLine
 10
113.7311691624631
 20
97.0902600898615
 30
0.0
 11
114.4632199700319
 21
94.3582092822926
 31
0.0
  0
LINE
  5
86EA
330
18
100
AcDbEntity
  8
0
100
AcDbLine
 10
118.4632199700319
 20
101.286412512568
 30
0.0
 11
114.4632199700319
 21
94.3582092822926
 31
0.0
  0
LINE
  5
86EB
330
18
100
AcDbEntity
  8
0
100
AcDbLine
 10
119.7324271721171
 20
98.9536353927863
 30
0.0
 11
116.5703996470037
 21
100.7792328355954
 31
0.0
  0
LINE
  5
86EC
330
18
100
AcDbEntity
  8
0
100
AcDbLine
 10
117.1180678181719
 20
94.42543216251149
 30
0.0
 11
113.9560402930595
 21
96.25102960532009
 31
0.0
  0
LINE
  5
86ED
330
18
100
AcDbEntity
  8
0
100
AcDbLine
 10
116.4811691624633
 20
101.8533998106755
 30
0.0
 11
112.9811691624633
 21
95.79122198418463
 31
0.0
  0
LINE
  5
86EE
330
18
100
AcDbEntity
  8
0
100
AcDbLine
 10
116.4811691624633
 20
101.8533998106755
 30
0.0
 11
109.9852474951444
 21
105.6038219339368
 31
0.0
  0
LINE
  5
86EF
330
18
100
AcDbEntity
  8
0
100
AcDbLine
 10
112.9811691624633
 20
95.79122198418463
 30
0.0
 11
109.9852474951444
 21
97.52091816528219
 31
0.0
  0
LWPOLYLINE
  5
86F0
330
18
100
AcDbEntity
  8
0
100
AcDbPolyline
 90
        3
 70
     0
 43
0.0
 10
119.7324271721171
 20
98.9536353927871
 10
119.7324271721171
 20
100.5536353927866
 10
109.9852474951443
 20
106.1811722031265
  0
LWPOLYLINE
  5
86F1
330
18
100
AcDbEntity
  8
0
100
AcDbPolyline
 90
        3
 70
     0
 43
0.0
 10
117.1180678181719
 20
94.42543216251149
 10
115.7324271721169
 20
93.62543216251141
 10
109.9852474951443
 20
96.9435678960926
  0
LINE
  5
86F5
330
18
100
AcDbEntity
  8
中心線
  6
CENTER
 48
0.15
100
AcDbLine
 10
120.1718914599986
 20
95.75039044666473
 30
0.0
 11
109.4701443052836
 21
101.8294009695571
 31
0.0
  0
LINE
  5
86F8
330
18
100
AcDbEntity
  8
本体外線
100
AcDbLine
 10
109.9852474951444
 20
110.1884964121647
 30
0.0
 11
111.2352474951443
 21
111.6884964121646
 31
0.0
  0
LINE
  5
86F9
330
18
100
AcDbEntity
  8
本体外線
100
AcDbLine
 10
65.23524749514405
 20
111.6884964121647
 30
0.0
 11
111.2352474951443
 21
111.6884964121647
 31
0.0
  0
LWPOLYLINE
  5
86FA
330
18
100
AcDbEntity
  8
本体外線
100
AcDbPolyline
 90
        2
 70
     0
 43
0.0
 10
60.35524749514405
 20
92.68849641216482
 10
55.73524749514405
 20
100.690571143133
  0
HATCH
  5
8700
330
18
100
AcDbEntity
  8
0
100
AcDbHatch
 10
0.0
 20
0.0
 30
0.0
210
0.0
220
0.0
230
1.0
  2
AR-SAND
 70
     0
 71
     0
 91
        2
 92
        7
 72
     0
 73
     1
 93
        4
 10
114.7392655392523
 20
98.83633423338594
 10
116.4811691624633
 20
101.8533998106756
 10
110.4852474951443
 20
105.3151467993421
 10
110.4852474951443
 20
101.2527826955712
 97
        0
 92
        7
 72
     0
 73
     1
 93
        4
 10
110.4852474951443
 20
101.2527826955712
 10
110.4852474951443
 20
97.23224303068738
 10
112.9811691624633
 20
95.79122198418458
 10
114.7392655392523
 20
98.83633423338597
 97
        0
 75
     0
 76
     1
 52
0.0
 41
0.05
 77
     0
 78
     4
 53
37.5
 43
-28.53256585269472
 44
3.487762841151948
 45
-0.0800015647992023
 46
2.447066186646711
 79
     6
 49
0.0
 49
-1.9304
 49
0.0
 49
-2.159
 49
0.0
 49
-2.06375
 53
7.499999999999999
 43
-28.53256585269472
 44
3.487762841151948
 45
2.247616415690013
 46
3.584125502841771
 79
     6
 49
0.0
 49
-1.0414
 49
0.0
 49
-1.7399
 49
0.0
 49
-0.6667500000000001
 53
327.5
 43
-30.09466585269473
 44
3.487762841151948
 45
3.95496185120729
 46
0.0071859233927285
 79
     6
 49
0.0
 49
-0.635
 49
0.0
 49
-2.286
 49
0.0
 49
-2.9845
 53
317.5
 43
-30.09466585269473
 44
3.487762841151948
 45
3.817782262361486
 46
1.114646616286081
 79
     6
 49
0.0
 49
-0.3175
 49
0.0
 49
-1.498599999999999
 49
0.0
 49
-1.7145
 47
0.0507145400303697
 98
        2
 10
113.690902583829
 20
101.3906594156539
 10
112.5231391518148
 20
98.85493269658173
  0
HATCH
  5
8702
330
18
100
AcDbEntity
  8
0
100
AcDbHatch
 10
0.0
 20
0.0
 30
0.0
210
0.0
220
0.0
230
1.0
  2
AR-SAND
 70
     0
 71
     0
 91
        2
 92
        7
 72
     0
 73
     1
 93
        4
 10
114.7392655392523
 20
98.83633423338594
 10
116.4811691624633
 20
101.8533998106756
 10
110.4852474951443
 20
105.3151467993421
 10
110.4852474951443
 20
101.2527826955712
 97
        0
 92
        7
 72
     0
 73
     1
 93
        4
 10
110.4852474951444
 20
101.2527826955711
 10
110.4852474951443
 20
97.23224303068738
 10
112.9811691624634
 20
95.79122198418462
 10
114.7392655392523
 20
98.83633423338595
 97
        0
 75
     0
 76
     1
 52
0.0
 41
0.05
 77
     0
 78
     4
 53
37.5
 43
-28.53256585269472
 44
3.487762841151948
 45
-0.0800015647992023
 46
2.447066186646711
 79
     6
 49
0.0
 49
-1.9304
 49
0.0
 49
-2.159
 49
0.0
 49
-2.06375
 53
7.499999999999999
 43
-28.53256585269472
 44
3.487762841151948
 45
2.247616415690013
 46
3.584125502841771
 79
     6
 49
0.0
 49
-1.0414
 49
0.0
 49
-1.7399
 49
0.0
 49
-0.6667500000000001
 53
327.5
 43
-30.09466585269473
 44
3.487762841151948
 45
3.95496185120729
 46
0.0071859233927285
 79
     6
 49
0.0
 49
-0.635
 49
0.0
 49
-2.286
 49
0.0
 49
-2.9845
 53
317.5
 43
-30.09466585269473
 44
3.487762841151948
 45
3.817782262361486
 46
1.114646616286081
 79
     6
 49
0.0
 49
-0.3175
 49
0.0
 49
-1.498599999999999
 49
0.0
 49
-1.7145
 47
0.0281192095393499
 98
        2
 10
113.6066668562478
 20
100.7203106918949
 10
113.0718014683209
 20
99.061277436458
  0
HATCH
  5
8703
330
18
100
AcDbEntity
  8
0
100
AcDbHatch
 10
0.0
 20
0.0
 30
0.0
210
0.0
220
0.0
230
1.0
  2
AR-SAND
 70
     0
 71
     0
 91
        2
 92
        7
 72
     0
 73
     1
 93
        4
 10
110.4852474951443
 20
105.3151467993421
 10
110.4852474951443
 20
101.2527826955712
 10
114.7392655392524
 20
98.83633423338594
 10
116.4811691624633
 20
101.8533998106756
 97
        0
 92
        7
 72
     0
 73
     1
 93
        4
 10
110.4852474951443
 20
101.2527826955711
 10
110.4852474951443
 20
97.23224303068739
 10
112.9811691624634
 20
95.79122198418462
 10
114.7392655392523
 20
98.83633423338595
 97
        0
 75
     0
 76
     1
 52
0.0
 41
0.05
 77
     0
 78
     4
 53
37.5
 43
-28.53256585269472
 44
3.487762841151948
 45
-0.0800015647992023
 46
2.447066186646711
 79
     6
 49
0.0
 49
-1.9304
 49
0.0
 49
-2.159
 49
0.0
 49
-2.06375
 53
7.499999999999999
 43
-28.53256585269472
 44
3.487762841151948
 45
2.247616415690013
 46
3.584125502841771
 79
     6
 49
0.0
 49
-1.0414
 49
0.0
 49
-1.7399
 49
0.0
 49
-0.6667500000000001
 53
327.5
 43
-30.09466585269473
 44
3.487762841151948
 45
3.95496185120729
 46
0.0071859233927285
 79
     6
 49
0.0
 49
-0.635
 49
0.0
 49
-2.286
 49
0.0
 49
-2.9845
 53
317.5
 43
-30.09466585269473
 44
3.487762841151948
 45
3.817782262361486
 46
1.114646616286081
 79
     6
 49
0.0
 49
-0.3175
 49
0.0
 49
-1.498599999999999
 49
0.0
 49
-1.7145
 47
0.0281192095393499
 98
        2
 10
114.5074946477382
 20
101.7326026833074
 10
113.5503653216924
 20
98.89256249298682
  0
LINE
  5
8833
330
18
100
AcDbEntity
  8
本体内線
  6
HIDDEN
 48
0.2
100
AcDbLine
 10
75.83763603779721
 20
219.2315282587753
 30
0.0
 11
70.40069265982618
 21
228.6485904272962
 31
0.0
  0
LINE
  5
8834
330
18
100
AcDbEntity
  8
本体内線
  6
HIDDEN
 48
0.2
100
AcDbLine
 10
82.7658392680728
 20
223.2315282587753
 30
0.0
 11
77.32889589010176
 21
232.6485904272962
 31
0.0
  0
LINE
  5
8835
330
18
100
AcDbEntity
  8
本体内線
  6
HIDDEN
 48
0.2
100
AcDbLine
 10
76.30545670215702
 20
219.6212390992735
 30
0.0
 11
70.88592904441907
 21
229.0081363555003
 31
0.0
  0
LINE
  5
8836
330
18
100
AcDbEntity
  8
本体内線
  6
HIDDEN
 48
0.2
100
AcDbLine
 10
82.19442944789125
 20
223.0212390992735
 30
0.0
 11
76.77490179015342
 21
232.4081363555003
 31
0.0
  0
LINE
  5
8837
330
18
100
AcDbEntity
  8
本体内線
  6
HIDDEN
 48
0.2
100
AcDbLine
 10
82.76583926807246
 20
182.2019792472085
 30
0.0
 11
77.32889589010148
 21
172.7849170786876
 31
0.0
  0
LINE
  5
8838
330
18
100
AcDbEntity
  8
本体内線
  6
HIDDEN
 48
0.2
100
AcDbLine
 10
75.83763603779698
 20
186.2019792472086
 30
0.0
 11
70.40069265982594
 21
176.7849170786877
 31
0.0
  0
LINE
  5
8839
330
18
100
AcDbEntity
  8
本体内線
  6
HIDDEN
 48
0.2
100
AcDbLine
 10
82.19442944789092
 20
182.4122684067103
 30
0.0
 11
76.77490179015308
 21
173.0253711504835
 31
0.0
  0
LINE
  5
883A
330
18
100
AcDbEntity
  8
本体内線
  6
HIDDEN
 48
0.2
100
AcDbLine
 10
76.30545670215673
 20
185.8122684067104
 30
0.0
 11
70.88592904441885
 21
176.4253711504836
 31
0.0
  0
LINE
  5
8849
330
18
100
AcDbEntity
  8
0
100
AcDbLine
 10
65.73524749514399
 20
111.0884964121648
 30
0.0
 11
65.73524749514416
 21
93.28849641216489
 31
0.0
  0
LINE
  5
884A
330
18
100
AcDbEntity
  8
0
100
AcDbLine
 10
110.7352474951444
 20
111.0884964121647
 30
0.0
 11
110.7352474951444
 21
105.7481595012343
 31
0.0
  0
LINE
  5
884B
330
18
100
AcDbEntity
  8
本体外線
100
AcDbLine
 10
65.23524749514405
 20
112.6884964121646
 30
0.0
 11
65.23524749514405
 21
111.6884964121647
 31
0.0
  0
LINE
  5
884C
330
18
100
AcDbEntity
  8
本体外線
100
AcDbLine
 10
111.2352474951443
 20
112.6884964121646
 30
0.0
 11
111.2352474951443
 21
111.6884964121647
 31
0.0
  0
LINE
  5
884D
330
18
100
AcDbEntity
  8
本体外線
100
AcDbLine
 10
66.48524749514399
 20
94.18849641216471
 30
0.0
 11
65.23524749514405
 21
92.68849641216474
 31
0.0
  0
LINE
  5
884E
330
18
100
AcDbEntity
  8
本体外線
100
AcDbLine
 10
109.9852474951444
 20
94.18849641216473
 30
0.0
 11
111.2352474951443
 21
92.68849641216482
 31
0.0
  0
LINE
  5
885A
330
18
100
AcDbEntity
  8
0
100
AcDbLine
 10
110.7352474951443
 20
96.5105551942004
 30
0.0
 11
110.7352474951443
 21
93.28849641216471
 31
0.0
  0
HATCH
  5
8883
330
18
100
AcDbEntity
  8
剖面線
100
AcDbHatch
 10
0.0
 20
0.0
 30
0.0
210
0.0
220
0.0
230
1.0
  2
ANSI31
 70
     0
 71
     0
 91
        6
 92
        7
 72
     1
 73
     1
 93
       11
 10
110.7352474951444
 20
105.7481595012342
 42
0.0
 10
119.7324271721171
 20
100.5536353927866
 42
0.0
 10
119.7324271721171
 20
98.95363539278733
 42
0.0
 10
120.7352474951443
 20
100.6905711431329
 42
0.0
 10
120.7352474951443
 20
110.6884964121647
 42
0.4142135623730951
 10
119.2352474951443
 20
112.1884964121647
 42
0.0
 10
117.7352474951442
 20
112.1884964121646
 42
0.0
 10
117.7352474951443
 20
112.6884964121646
 42
0.0
 10
111.2352474951443
 20
112.6884964121646
 42
0.0
 10
111.2352474951444
 20
111.6884964121646
 42
0.0
 10
110.7352474951444
 20
111.0884964121647
 42
0.0
 97
        0
 92
        7
 72
     0
 73
     1
 93
        6
 10
110.7352474951443
 20
93.2884964121648
 10
111.2352474951444
 20
92.68849641216467
 10
116.1152474951442
 20
92.68849641216469
 10
117.1180678181723
 20
94.42543216251165
 10
115.7324271721169
 20
93.62543216251145
 10
110.7352474951443
 20
96.51055519420044
 97
        0
 92
        7
 72
     0
 73
     1
 93
        4
 10
109.9852474951443
 20
94.1884964121648
 10
110.7352474951442
 20
93.28849641216475
 10
110.7352474951442
 20
96.5105551942004
 10
109.9852474951443
 20
96.94356789609258
 97
        0
 92
        7
 72
     0
 73
     1
 93
        4
 10
110.7352474951443
 20
111.0884964121646
 10
109.9852474951444
 20
110.1884964121647
 10
109.9852474951444
 20
106.1811722031265
 10
110.7352474951444
 20
105.7481595012342
 97
        0
 92
        7
 72
     0
 73
     1
 93
       11
 10
65.73524749514405
 20
111.0884964121647
 10
65.23524749514405
 20
111.6884964121647
 10
65.23524749514405
 20
112.6884964121646
 10
58.83207910348
 20
112.6884964121646
 10
58.73524749514405
 20
112.5916648038288
 10
58.73524749514405
 20
112.1884964121647
 10
58.33524749514407
 20
112.1884964121647
 10
58.33524749514407
 20
96.18723904345383
 10
60.35524749514417
 20
92.68849641216467
 10
65.23524749514405
 20
92.68849641216467
 10
65.73524749514416
 20
93.28849641216487
 97
        0
 92
        7
 72
     0
 73
     1
 93
        4
 10
66.48524749514399
 20
110.1884964121647
 10
65.73524749514405
 20
111.0884964121646
 10
65.73524749514416
 20
93.28849641216487
 10
66.48524749514416
 20
94.18849641216493
 97
        0
 75
     0
 76
     1
 52
0.0
 41
0.5
 77
     0
 78
     1
 53
45.0
 43
-217.6972347834719
 44
9.739827556085288
 45
-1.122532015133643
 46
1.122532015133644
 79
     0
 47
0.0917122499474364
 98
        6
 10
112.8184054224142
 20
109.4804623555757
 10
111.6251893134989
 20
94.62307768641982
 10
110.2484033171771
 20
95.17335121840824
 10
110.4319743886609
 20
107.6462170174364
 10
64.72264970884578
 20
107.0959434854479
 10
66.2830079607287
 20
106.4539575823726
  0
MTEXT
  5
8922
330
18
100
AcDbEntity
  8
0
100
AcDbMText
 10
49.81948278949767
 20
19.37399834316263
 30
0.0
 40
5.0
 41
0.0
 71
     1
 72
     5
  1
\Ftxt.shx,bigfont.shx|c128;小柳
  7
JL
 73
     1
 44
1.0
  0
ENDSEC
  0
SECTION
  2
OBJECTS
  0
DICTIONARY
  5
C
330
0
100
AcDbDictionary
281
     1
  3
ACAD_COLOR
350
8926
  3
ACAD_GROUP
350
D
  3
ACAD_LAYOUT
350
5CF3
  3
ACAD_MATERIAL
350
8925
  3
ACAD_MLINESTYLE
350
1B
  3
ACAD_PLOTSETTINGS
350
5CF4
  3
ACAD_PLOTSTYLENAME
350
5CF1
  3
ACAD_TABLESTYLE
350
8927
  3
ACDBVARIABLEDICTIONARY
350
45D
  0
DICTIONARY
  5
45F
330
18
100
AcDbDictionary
280
     1
281
     1
  3
ACAD_LAYOUTSELFREF
360
5D8B
  3
ACAD_SORTENTS
360
460
  0
DICTIONARY
  5
5D89
330
15
100
AcDbDictionary
280
     1
281
     1
  3
ACAD_LAYOUTSELFREF
360
5D8A
  0
DICTIONARY
  5
8926
102
{ACAD_REACTORS
330
C
102
}
330
C
100
AcDbDictionary
281
     1
  0
DICTIONARY
  5
D
102
{ACAD_REACTORS
330
C
102
}
330
C
100
AcDbDictionary
281
     1
  0
DICTIONARY
  5
5CF3
102
{ACAD_REACTORS
330
C
102
}
330
C
100
AcDbDictionary
281
     1
  3
Model
350
5CF5
  3
配置1
350
5CF6
  0
DICTIONARY
  5
8925
102
{ACAD_REACTORS
330
C
102
}
330
C
100
AcDbDictionary
281
     1
  0
DICTIONARY
  5
1B
102
{ACAD_REACTORS
330
C
102
}
330
C
100
AcDbDictionary
281
     1
  3
STANDARD
350
1C
  0
DICTIONARY
  5
5CF4
102
{ACAD_REACTORS
330
C
102
}
330
C
100
AcDbDictionary
281
     1
  0
ACDBDICTIONARYWDFLT
  5
5CF1
102
{ACAD_REACTORS
330
C
102
}
330
C
100
AcDbDictionary
281
     1
  3
Normal
350
5CF2
100
AcDbDictionaryWithDefault
340
5CF2
  0
DICTIONARY
  5
8927
102
{ACAD_REACTORS
330
C
102
}
330
C
100
AcDbDictionary
281
     1
  3
Standard
350
8928
  0
DICTIONARY
  5
45D
102
{ACAD_REACTORS
330
C
102
}
330
C
100
AcDbDictionary
281
     1
  3
CTABLESTYLE
350
8930
  3
SORTENTS
350
45E
  0
XRECORD
  5
5D8B
102
{ACAD_REACTORS
330
45F
102
}
330
45F
100
AcDbXrecord
280
     1
340
18
  0
SORTENTSTABLE
  5
460
102
{ACAD_REACTORS
330
45F
102
}
330
45F
100
AcDbSortentsTable
330
18
331
C0
  5
CB
  0
XRECORD
  5
5D8A
102
{ACAD_REACTORS
330
5D89
102
}
330
5D89
100
AcDbXrecord
280
     1
340
15
  0
LAYOUT
  5
5CF5
102
{ACAD_REACTORS
330
5CF3
102
}
330
5CF3
100
AcDbPlotSettings
  1

  2
EPSON STYLUS COLOR 440
  4

  6

 40
0.0
 41
0.0
 42
0.0
 43
0.0
 44
0.0
 45
0.0
 46
0.0
 47
0.0
 48
0.0
 49
0.0
140
0.0
141
0.0
142
1.0
143
1.0
 70
  1712
 72
     0
 73
     0
 74
     0
  7
a.ctb
 75
     0
147
1.0
 76
     0
 77
     2
 78
   300
148
0.0
149
0.0
100
AcDbLayout
  1
Model
 70
     1
 71
     0
 10
0.0
 20
0.0
 11
12.0
 21
9.0
 12
0.0
 22
0.0
 32
0.0
 14
0.0
 24
0.0
 34
0.0
 15
0.0
 25
0.0
 35
0.0
146
0.0
 13
0.0
 23
0.0
 33
0.0
 16
1.0
 26
0.0
 36
0.0
 17
0.0
 27
1.0
 37
0.0
 76
     0
330
18
  0
LAYOUT
  5
5CF6
102
{ACAD_REACTORS
330
5CF3
102
}
330
5CF3
100
AcDbPlotSettings
  1

  2
EPSON STYLUS COLOR 440
  4

  6

 40
0.0
 41
0.0
 42
0.0
 43
0.0
 44
0.0
 45
0.0
 46
0.0
 47
0.0
 48
0.0
 49
0.0
140
0.0
141
0.0
142
1.0
143
1.0
 70
   688
 72
     0
 73
     0
 74
     5
  7
a.ctb
 75
    16
147
1.0
 76
     0
 77
     2
 78
   300
148
0.0
149
0.0
100
AcDbLayout
  1
ｰtｸm1
 70
     1
 71
     1
 10
0.0
 20
0.0
 11
420.0
 21
297.0
 12
0.0
 22
0.0
 32
0.0
 14
1.000000000000000E+20
 24
1.000000000000000E+20
 34
1.000000000000000E+20
 15
-1.000000000000000E+20
 25
-1.000000000000000E+20
 35
-1.000000000000000E+20
146
0.0
 13
0.0
 23
0.0
 33
0.0
 16
1.0
 26
0.0
 36
0.0
 17
0.0
 27
1.0
 37
0.0
 76
     0
330
15
  0
MLINESTYLE
  5
1C
102
{ACAD_REACTORS
330
1B
102
}
330
1B
100
AcDbMlineStyle
  2
STANDARD
 70
     0
  3

 62
   256
 51
90.0
 52
90.0
 71
     2
 49
0.5
 62
   256
  6
BYLAYER
 49
-0.5
 62
   256
  6
BYLAYER
  0
ACDBPLACEHOLDER
  5
5CF2
102
{ACAD_REACTORS
330
5CF1
102
}
330
5CF1
  0
TABLESTYLE
  5
8928
102
{ACAD_REACTORS
330
8927
102
}
330
8927
100
AcDbTableStyle
  3
Standard
 70
     0
 71
     8
 40
1.5
 41
1.5
280
     0
281
     0
  7
STANDARD
140
4.5
170
     2
 62
     0
 63
     7
283
     0
274
    -2
284
     1
 64
     0
275
    -2
285
     1
 65
     0
276
    -2
286
     1
 66
     0
277
    -2
287
     1
 67
     0
278
    -2
288
     1
 68
     0
279
    -2
289
     1
 69
     0
  7
STANDARD
140
6.0
170
     5
 62
     0
 63
     7
283
     0
274
    -2
284
     1
 64
     0
275
    -2
285
     1
 65
     0
276
    -2
286
     1
 66
     0
277
    -2
287
     1
 67
     0
278
    -2
288
     1
 68
     0
279
    -2
289
     1
 69
     0
  7
STANDARD
140
4.5
170
     5
 62
     0
 63
     7
283
     0
274
    -2
284
     1
 64
     0
275
    -2
285
     1
 65
     0
276
    -2
286
     1
 66
     0
277
    -2
287
     1
 67
     0
278
    -2
288
     1
 68
     0
279
    -2
289
     1
 69
     0
  0
DICTIONARYVAR
  5
8930
102
{ACAD_REACTORS
330
45D
102
}
330
45D
100
DictionaryVariables
280
     0
  1
STANDARD
  0
DICTIONARYVAR
  5
45E
102
{ACAD_REACTORS
330
45D
102
}
330
45D
100
DictionaryVariables
280
     0
  1
127
  0
ENDSEC
  0
EOF
