  0
SECTION
  2
HEADER
  9
$ACADVER
  1
AC1018
  9
$ACADMAINTVER
 70
    76
  9
$DWGCODEPAGE
  3
ANSI_932
  9
$INSBASE
 10
0.0
 20
0.0
 30
0.0
  9
$EXTMIN
 10
-0.0000000000002274
 20
-0.0000000000000568
 30
0.0
  9
$EXTMAX
 10
197.9999999999997
 20
290.0
 30
4.0
  9
$LIMMIN
 10
0.0
 20
0.0
  9
$LIMMAX
 10
420.0
 20
297.0
  9
$ORTHOMODE
 70
     1
  9
$REGENMODE
 70
     1
  9
$FILLMODE
 70
     1
  9
$QTEXTMODE
 70
     0
  9
$MIRRTEXT
 70
     1
  9
$LTSCALE
 40
1.0
  9
$ATTMODE
 70
     1
  9
$TEXTSIZE
 40
2.5
  9
$TRACEWID
 40
1.0
  9
$TEXTSTYLE
  7
TXT
  9
$CLAYER
  8
0
  9
$CELTYPE
  6
BYLAYER
  9
$CECOLOR
 62
   256
  9
$CELTSCALE
 40
1.0
  9
$DISPSILH
 70
     0
  9
$DIMSCALE
 40
1.0
  9
$DIMASZ
 40
2.5
  9
$DIMEXO
 40
1.0
  9
$DIMDLI
 40
6.0
  9
$DIMRND
 40
0.0
  9
$DIMDLE
 40
0.0
  9
$DIMEXE
 40
1.0
  9
$DIMTP
 40
0.0
  9
$DIMTM
 40
0.0
  9
$DIMTXT
 40
3.0
  9
$DIMCEN
 40
0.0
  9
$DIMTSZ
 40
0.0
  9
$DIMTOL
 70
     0
  9
$DIMLIM
 70
     0
  9
$DIMTIH
 70
     0
  9
$DIMTOH
 70
     0
  9
$DIMSE1
 70
     0
  9
$DIMSE2
 70
     0
  9
$DIMTAD
 70
     3
  9
$DIMZIN
 70
     8
  9
$DIMBLK
  1

  9
$DIMASO
 70
     1
  9
$DIMSHO
 70
     1
  9
$DIMPOST
  1

  9
$DIMAPOST
  1

  9
$DIMALT
 70
     0
  9
$DIMALTD
 70
     2
  9
$DIMALTF
 40
25.4
  9
$DIMLFAC
 40
1.0
  9
$DIMTOFL
 70
     0
  9
$DIMTVP
 40
0.0
  9
$DIMTIX
 70
     0
  9
$DIMSOXD
 70
     0
  9
$DIMSAH
 70
     0
  9
$DIMBLK1
  1

  9
$DIMBLK2
  1

  9
$DIMSTYLE
  2
A
  9
$DIMCLRD
 70
     6
  9
$DIMCLRE
 70
     6
  9
$DIMCLRT
 70
     3
  9
$DIMTFAC
 40
1.0
  9
$DIMGAP
 40
1.0
  9
$DIMJUST
 70
     0
  9
$DIMSD1
 70
     0
  9
$DIMSD2
 70
     0
  9
$DIMTOLJ
 70
     1
  9
$DIMTZIN
 70
     0
  9
$DIMALTZ
 70
     0
  9
$DIMALTTZ
 70
     0
  9
$DIMUPT
 70
     0
  9
$DIMDEC
 70
     1
  9
$DIMTDEC
 70
     1
  9
$DIMALTU
 70
     2
  9
$DIMALTTD
 70
     2
  9
$DIMTXSTY
  7
TXT
  9
$DIMAUNIT
 70
     0
  9
$DIMADEC
 70
     0
  9
$DIMALTRND
 40
0.0
  9
$DIMAZIN
 70
     0
  9
$DIMDSEP
 70
    46
  9
$DIMATFIT
 70
     3
  9
$DIMFRAC
 70
     0
  9
$DIMLDRBLK
  1

  9
$DIMLUNIT
 70
     2
  9
$DIMLWD
 70
    -2
  9
$DIMLWE
 70
    -2
  9
$DIMTMOVE
 70
     1
  9
$LUNITS
 70
     2
  9
$LUPREC
 70
     2
  9
$SKETCHINC
 40
1.0
  9
$FILLETRAD
 40
1.5
  9
$AUNITS
 70
     0
  9
$AUPREC
 70
     2
  9
$MENU
  1
.
  9
$ELEVATION
 40
0.0
  9
$PELEVATION
 40
0.0
  9
$THICKNESS
 40
0.0
  9
$LIMCHECK
 70
     0
  9
$CHAMFERA
 40
0.0
  9
$CHAMFERB
 40
0.0
  9
$CHAMFERC
 40
1.75
  9
$CHAMFERD
 40
0.0174532925199433
  9
$SKPOLY
 70
     0
  9
$TDCREATE
 40
2451555.578568171
  9
$TDUCREATE
 40
2451555.203568172
  9
$TDUPDATE
 40
2455846.597102593
  9
$TDUUPDATE
 40
2455846.222102593
  9
$TDINDWG
 40
2.6688637384
  9
$TDUSRTIMER
 40
2.6688637384
  9
$USRTIMER
 70
     1
  9
$ANGBASE
 50
0.0
  9
$ANGDIR
 70
     0
  9
$PDMODE
 70
     0
  9
$PDSIZE
 40
0.0
  9
$PLINEWID
 40
0.0
  9
$SPLFRAME
 70
     0
  9
$SPLINETYPE
 70
     6
  9
$SPLINESEGS
 70
     8
  9
$HANDSEED
  5
8CFD
  9
$SURFTAB1
 70
     6
  9
$SURFTAB2
 70
     6
  9
$SURFTYPE
 70
     6
  9
$SURFU
 70
     6
  9
$SURFV
 70
     6
  9
$UCSBASE
  2

  9
$UCSNAME
  2

  9
$UCSORG
 10
0.0
 20
0.0
 30
0.0
  9
$UCSXDIR
 10
1.0
 20
0.0
 30
0.0
  9
$UCSYDIR
 10
0.0
 20
1.0
 30
0.0
  9
$UCSORTHOREF
  2

  9
$UCSORTHOVIEW
 70
     0
  9
$UCSORGTOP
 10
0.0
 20
0.0
 30
0.0
  9
$UCSORGBOTTOM
 10
0.0
 20
0.0
 30
0.0
  9
$UCSORGLEFT
 10
0.0
 20
0.0
 30
0.0
  9
$UCSORGRIGHT
 10
0.0
 20
0.0
 30
0.0
  9
$UCSORGFRONT
 10
0.0
 20
0.0
 30
0.0
  9
$UCSORGBACK
 10
0.0
 20
0.0
 30
0.0
  9
$PUCSBASE
  2

  9
$PUCSNAME
  2

  9
$PUCSORG
 10
0.0
 20
0.0
 30
0.0
  9
$PUCSXDIR
 10
1.0
 20
0.0
 30
0.0
  9
$PUCSYDIR
 10
0.0
 20
1.0
 30
0.0
  9
$PUCSORTHOREF
  2

  9
$PUCSORTHOVIEW
 70
     0
  9
$PUCSORGTOP
 10
0.0
 20
0.0
 30
0.0
  9
$PUCSORGBOTTOM
 10
0.0
 20
0.0
 30
0.0
  9
$PUCSORGLEFT
 10
0.0
 20
0.0
 30
0.0
  9
$PUCSORGRIGHT
 10
0.0
 20
0.0
 30
0.0
  9
$PUCSORGFRONT
 10
0.0
 20
0.0
 30
0.0
  9
$PUCSORGBACK
 10
0.0
 20
0.0
 30
0.0
  9
$USERI1
 70
     0
  9
$USERI2
 70
     0
  9
$USERI3
 70
     0
  9
$USERI4
 70
     0
  9
$USERI5
 70
     0
  9
$USERR1
 40
0.0
  9
$USERR2
 40
0.0
  9
$USERR3
 40
0.0
  9
$USERR4
 40
0.0
  9
$USERR5
 40
0.0
  9
$WORLDVIEW
 70
     1
  9
$SHADEDGE
 70
     3
  9
$SHADEDIF
 70
    70
  9
$TILEMODE
 70
     1
  9
$MAXACTVP
 70
    48
  9
$PINSBASE
 10
0.0
 20
0.0
 30
0.0
  9
$PLIMCHECK
 70
     0
  9
$PEXTMIN
 10
1.000000000000000E+20
 20
1.000000000000000E+20
 30
1.000000000000000E+20
  9
$PEXTMAX
 10
-1.000000000000000E+20
 20
-1.000000000000000E+20
 30
-1.000000000000000E+20
  9
$PLIMMIN
 10
0.0
 20
0.0
  9
$PLIMMAX
 10
420.0
 20
297.0
  9
$UNITMODE
 70
     0
  9
$VISRETAIN
 70
     1
  9
$PLINEGEN
 70
     0
  9
$PSLTSCALE
 70
     1
  9
$TREEDEPTH
 70
  3020
  9
$CMLSTYLE
  2
STANDARD
  9
$CMLJUST
 70
     0
  9
$CMLSCALE
 40
20.0
  9
$PROXYGRAPHICS
 70
     1
  9
$MEASUREMENT
 70
     1
  9
$CELWEIGHT
370
    -1
  9
$ENDCAPS
280
     0
  9
$JOINSTYLE
280
     0
  9
$LWDISPLAY
290
     0
  9
$INSUNITS
 70
     0
  9
$HYPERLINKBASE
  1

  9
$STYLESHEET
  1

  9
$XEDIT
290
     1
  9
$CEPSNTYPE
380
     0
  9
$PSTYLEMODE
290
     1
  9
$FINGERPRINTGUID
  2
{1CF51E8A-A506-11D4-A7D9-AF69F5C20846}
  9
$VERSIONGUID
  2
{1CF51E8C-A506-11D4-A7D9-AF69F5C20846}
  9
$EXTNAMES
290
     1
  9
$PSVPSCALE
 40
0.0
  9
$OLESTARTUP
290
     0
  9
$SORTENTS
280
   127
  9
$INDEXCTL
280
     0
  9
$HIDETEXT
280
     0
  9
$XCLIPFRAME
290
     0
  9
$HALOGAP
280
     0
  9
$OBSCOLOR
 70
   257
  9
$OBSLTYPE
280
     0
  9
$INTERSECTIONDISPLAY
280
     0
  9
$INTERSECTIONCOLOR
 70
   257
  9
$DIMASSOC
280
     1
  9
$PROJECTNAME
  1

  0
ENDSEC
  0
SECTION
  2
CLASSES
  0
CLASS
  1
DICTIONARYVAR
  2
AcDbDictionaryVar
  3
ObjectDBX Classes
 90
        0
 91
        2
280
     0
281
     0
  0
CLASS
  1
SORTENTSTABLE
  2
AcDbSortentsTable
  3
ObjectDBX Classes
 90
        0
 91
        1
280
     0
281
     0
  0
CLASS
  1
ACDBDICTIONARYWDFLT
  2
AcDbDictionaryWithDefault
  3
ObjectDBX Classes
 90
        0
 91
        1
280
     0
281
     0
  0
CLASS
  1
TABLESTYLE
  2
AcDbTableStyle
  3
ObjectDBX Classes
 90
     2047
 91
        1
280
     0
281
     0
  0
ENDSEC
  0
SECTION
  2
TABLES
  0
TABLE
  2
VPORT
  5
8
330
0
100
AcDbSymbolTable
 70
     2
  0
VPORT
  5
8CFC
330
8
100
AcDbSymbolTableRecord
100
AcDbViewportTableRecord
  2
*Active
 70
     0
 10
0.0
 20
0.0
 11
1.0
 21
1.0
 12
192.8205495912344
 22
144.9988741052226
 13
0.0
 23
0.0
 14
10.0
 24
10.0
 15
10.0
 25
10.0
 16
0.0
 26
0.0
 36
1.0
 17
0.0
 27
0.0
 37
0.0
 40
293.4547885826755
 41
2.47104247104247
 42
50.0
 43
0.0
 44
0.0
 50
0.0
 51
0.0
 71
     0
 72
   100
 73
     1
 74
     1
 75
     0
 76
     0
 77
     0
 78
     0
281
     0
 65
     1
110
0.0
120
0.0
130
0.0
111
1.0
121
0.0
131
0.0
112
0.0
122
1.0
132
0.0
 79
     0
146
0.0
  0
ENDTAB
  0
TABLE
  2
LTYPE
  5
5
330
0
100
AcDbSymbolTable
 70
     7
  0
LTYPE
  5
12
330
5
100
AcDbSymbolTableRecord
100
AcDbLinetypeTableRecord
  2
BYBLOCK
 70
     0
  3

 72
    65
 73
     0
 40
0.0
  0
LTYPE
  5
13
330
5
100
AcDbSymbolTableRecord
100
AcDbLinetypeTableRecord
  2
BYLAYER
 70
     0
  3

 72
    65
 73
     0
 40
0.0
  0
LTYPE
  5
14
330
5
100
AcDbSymbolTableRecord
100
AcDbLinetypeTableRecord
  2
CONTINUOUS
 70
     0
  3
Solid line
 72
    65
 73
     0
 40
0.0
  0
LTYPE
  5
9D
330
5
100
AcDbSymbolTableRecord
100
AcDbLinetypeTableRecord
  2
CENTERX2
 70
     0
  3
Center (2x) ________  __  ________  __  _____
 72
    65
 73
     4
 40
101.6
 49
63.5
 74
     0
 49
-12.7
 74
     0
 49
12.7
 74
     0
 49
-12.7
 74
     0
  0
LTYPE
  5
A1
330
5
100
AcDbSymbolTableRecord
100
AcDbLinetypeTableRecord
  2
DASHED
 70
     0
  3
Dashed __ __ __ __ __ __ __ __ __ __ __ __ __ _
 72
    65
 73
     2
 40
19.05
 49
12.7
 74
     0
 49
-6.349999999999999
 74
     0
  0
LTYPE
  5
A2
330
5
100
AcDbSymbolTableRecord
100
AcDbLinetypeTableRecord
  2
DASHED2
 70
     0
  3
Dashed (.5x) _ _ _ _ _ _ _ _ _ _ _ _ _ _ _ _ _
 72
    65
 73
     2
 40
9.524999999999998
 49
6.349999999999999
 74
     0
 49
-3.174999999999999
 74
     0
  0
LTYPE
  5
A5
330
5
100
AcDbSymbolTableRecord
100
AcDbLinetypeTableRecord
  2
DIVIDE2
 70
     0
  3
Divide (.5x) __..__..__..__..__..__..__..__.._
 72
    65
 73
     6
 40
15.875
 49
6.349999999999999
 74
     0
 49
-3.174999999999999
 74
     0
 49
0.0
 74
     0
 49
-3.174999999999999
 74
     0
 49
0.0
 74
     0
 49
-3.174999999999999
 74
     0
  0
LTYPE
  5
650B
330
5
100
AcDbSymbolTableRecord
100
AcDbLinetypeTableRecord
  2
CENTER
 70
     0
  3
Center ____ _ ____ _ ____ _ ____ _ ____ _ ____
 72
    65
 73
     4
 40
50.8
 49
31.75
 74
     0
 49
-6.349999999999999
 74
     0
 49
6.349999999999999
 74
     0
 49
-6.349999999999999
 74
     0
  0
LTYPE
  5
650C
330
5
100
AcDbSymbolTableRecord
100
AcDbLinetypeTableRecord
  2
HIDDEN
 70
     0
  3
Hidden __ __ __ __ __ __ __ __ __ __ __ __ __ _
 72
    65
 73
     2
 40
9.524999999999998
 49
6.349999999999999
 74
     0
 49
-3.174999999999999
 74
     0
  0
ENDTAB
  0
TABLE
  2
LAYER
  5
2
330
0
100
AcDbSymbolTable
 70
     9
  0
LAYER
  5
E
330
2
100
AcDbSymbolTableRecord
100
AcDbLayerTableRecord
  2
0
 70
     0
 62
     7
  6
CONTINUOUS
370
    -3
390
5CF2
  0
LAYER
  5
B9
330
2
100
AcDbSymbolTableRecord
100
AcDbLayerTableRecord
  2
DIM
 70
     0
 62
     3
  6
CONTINUOUS
370
    -3
390
5CF2
  0
LAYER
  5
F2
330
2
100
AcDbSymbolTableRecord
100
AcDbLayerTableRecord
  2
DEFPOINTS
 70
     0
 62
     4
  6
CONTINUOUS
290
     0
370
    -3
390
5CF2
  0
LAYER
  5
5F8B
330
2
100
AcDbSymbolTableRecord
100
AcDbLayerTableRecord
  2
公差
 70
     0
 62
     6
  6
CONTINUOUS
370
    -3
390
5CF2
  0
LAYER
  5
644E
330
2
100
AcDbSymbolTableRecord
100
AcDbLayerTableRecord
  2
図框線
 70
     0
 62
     9
  6
CONTINUOUS
370
    -3
390
5CF2
  0
LAYER
  5
650D
330
2
100
AcDbSymbolTableRecord
100
AcDbLayerTableRecord
  2
中心線
 70
     0
 62
     1
  6
CENTER
370
    -3
390
5CF2
  0
LAYER
  5
650E
330
2
100
AcDbSymbolTableRecord
100
AcDbLayerTableRecord
  2
本体内線
 70
     0
 62
     4
  6
HIDDEN
370
    -3
390
5CF2
  0
LAYER
  5
650F
330
2
100
AcDbSymbolTableRecord
100
AcDbLayerTableRecord
  2
本体外線
 70
     0
 62
     2
  6
CONTINUOUS
370
    -3
390
5CF2
  0
LAYER
  5
6510
330
2
100
AcDbSymbolTableRecord
100
AcDbLayerTableRecord
  2
剖面線
 70
     0
 62
     5
  6
CONTINUOUS
370
    -3
390
5CF2
  0
ENDTAB
  0
TABLE
  2
STYLE
  5
3
330
0
100
AcDbSymbolTable
 70
     5
  0
STYLE
  5
F
330
3
100
AcDbSymbolTableRecord
100
AcDbTextStyleTableRecord
  2
STANDARD
 70
     0
 40
0.0
 41
1.0
 50
0.0
 71
     0
 42
2.5
  3
txt
  4

  0
STYLE
  5
BE
330
3
100
AcDbSymbolTableRecord
100
AcDbTextStyleTableRecord
  2
ISOCP3
 70
     0
 40
0.0
 41
1.0
 50
0.0
 71
     0
 42
2.5
  3
isocp3.shx
  4

  0
STYLE
  5
2A37
330
3
100
AcDbSymbolTableRecord
100
AcDbTextStyleTableRecord
  2
TXT
 70
     0
 40
0.0
 41
1.0
 50
0.0
 71
     0
 42
2.5
  3
txt.shx
  4
bigfont.shx
  0
STYLE
  5
5DCB
330
3
100
AcDbSymbolTableRecord
100
AcDbTextStyleTableRecord
  2
LKK
 70
     0
 40
50.0
 41
1.5
 50
0.0
 71
     0
 42
50.0
  3
MS PGothic.ttf
  4

1001
ACAD
1000
MS PGothic
1071
    32818
  0
STYLE
  5
5DCC
330
3
100
AcDbSymbolTableRecord
100
AcDbTextStyleTableRecord
  2
JL
 70
     0
 40
10.0
 41
0.5
 50
0.0
 71
     0
 42
5.0
  3
MS Mincho.ttf
  4

1001
ACAD
1000
MS Mincho
1071
    32785
  0
ENDTAB
  0
TABLE
  2
VIEW
  5
6
330
0
100
AcDbSymbolTable
 70
     0
  0
ENDTAB
  0
TABLE
  2
UCS
  5
7
330
0
100
AcDbSymbolTable
 70
     0
  0
ENDTAB
  0
TABLE
  2
APPID
  5
9
330
0
100
AcDbSymbolTable
 70
     1
  0
APPID
  5
10
330
9
100
AcDbSymbolTableRecord
100
AcDbRegAppTableRecord
  2
ACAD
 70
     0
  0
ENDTAB
  0
TABLE
  2
DIMSTYLE
  5
A
330
0
100
AcDbSymbolTable
 70
     3
100
AcDbDimStyleTable
 71
     0
  0
DIMSTYLE
105
1D
330
A
100
AcDbSymbolTableRecord
100
AcDbDimStyleTableRecord
  2
STANDARD
 70
     0
 41
3.0
 42
0.06
 77
     3
140
4.0
144
0.3333333333333333
172
     1
340
F
  0
DIMSTYLE
105
1A4
102
{ACAD_REACTORS
330
6770
330
677F
330
6864
330
6C92
330
6CAA
330
6F74
330
74C6
330
750D
330
7568
330
7575
330
7AD6
330
8546
102
}
330
A
100
AcDbSymbolTableRecord
100
AcDbDimStyleTableRecord
  2
A
 70
     0
 41
2.5
 42
1.0
 43
6.0
 44
1.0
 73
     0
 74
     0
 77
     3
 78
     8
140
3.0
141
0.0
147
1.0
176
     6
177
     6
178
     3
271
     1
272
     1
279
     1
340
2A37
  0
DIMSTYLE
105
6006
330
A
100
AcDbSymbolTableRecord
100
AcDbDimStyleTableRecord
  2
ISO-25
 70
     0
 40
0.0
 41
2.0
 42
0.3
 43
1.0
 44
0.3
 73
     0
 74
     0
 77
     1
 78
     8
140
3.0
147
1.0
172
     1
176
     6
177
     6
178
     3
271
     1
272
     2
284
     8
288
     1
289
     2
340
F
  0
ENDTAB
  0
TABLE
  2
BLOCK_RECORD
  5
1
330
0
100
AcDbSymbolTable
 70
    13
  0
BLOCK_RECORD
  5
18
102
{ACAD_XDICTIONARY
360
45F
102
}
330
1
100
AcDbSymbolTableRecord
100
AcDbBlockTableRecord
  2
*MODEL_SPACE
340
5CF5
  0
BLOCK_RECORD
  5
15
102
{ACAD_XDICTIONARY
360
5D89
102
}
330
1
100
AcDbSymbolTableRecord
100
AcDbBlockTableRecord
  2
*PAPER_SPACE
340
5CF6
  0
BLOCK_RECORD
  5
639D
330
1
100
AcDbSymbolTableRecord
100
AcDbBlockTableRecord
  2
A$C255C26A2
340
0
102
{BLKREFS
331
63A3
102
}
  0
BLOCK_RECORD
  5
67BC
330
1
100
AcDbSymbolTableRecord
100
AcDbBlockTableRecord
  2
*D1
340
0
  0
BLOCK_RECORD
  5
67D9
330
1
100
AcDbSymbolTableRecord
100
AcDbBlockTableRecord
  2
*D2
340
0
  0
BLOCK_RECORD
  5
6854
330
1
100
AcDbSymbolTableRecord
100
AcDbBlockTableRecord
  2
*D3
340
0
  0
BLOCK_RECORD
  5
6C86
330
1
100
AcDbSymbolTableRecord
100
AcDbBlockTableRecord
  2
*D4
340
0
  0
BLOCK_RECORD
  5
6C9E
330
1
100
AcDbSymbolTableRecord
100
AcDbBlockTableRecord
  2
*D5
340
0
  0
BLOCK_RECORD
  5
6FE3
330
1
100
AcDbSymbolTableRecord
100
AcDbBlockTableRecord
  2
*D6
340
0
  0
BLOCK_RECORD
  5
74B6
330
1
100
AcDbSymbolTableRecord
100
AcDbBlockTableRecord
  2
*D7
340
0
  0
BLOCK_RECORD
  5
7501
330
1
100
AcDbSymbolTableRecord
100
AcDbBlockTableRecord
  2
*D8
340
0
  0
BLOCK_RECORD
  5
755C
330
1
100
AcDbSymbolTableRecord
100
AcDbBlockTableRecord
  2
*D9
340
0
  0
BLOCK_RECORD
  5
7569
330
1
100
AcDbSymbolTableRecord
100
AcDbBlockTableRecord
  2
*D10
340
0
  0
BLOCK_RECORD
  5
7AC6
330
1
100
AcDbSymbolTableRecord
100
AcDbBlockTableRecord
  2
*D11
340
0
  0
BLOCK_RECORD
  5
8538
330
1
100
AcDbSymbolTableRecord
100
AcDbBlockTableRecord
  2
*D12
340
0
  0
ENDTAB
  0
ENDSEC
  0
SECTION
  2
BLOCKS
  0
BLOCK
  5
19
330
18
100
AcDbEntity
  8
0
100
AcDbBlockBegin
  2
*MODEL_SPACE
 70
     0
 10
0.0
 20
0.0
 30
0.0
  3
*MODEL_SPACE
  1

  0
ENDBLK
  5
1A
330
18
100
AcDbEntity
  8
0
100
AcDbBlockEnd
  0
BLOCK
  5
16
330
15
100
AcDbEntity
 67
     1
  8
0
100
AcDbBlockBegin
  2
*PAPER_SPACE
 70
     0
 10
0.0
 20
0.0
 30
0.0
  3
*PAPER_SPACE
  1

  0
ENDBLK
  5
17
330
15
100
AcDbEntity
 67
     1
  8
0
100
AcDbBlockEnd
  0
BLOCK
  5
63A1
330
639D
100
AcDbEntity
  8
0
100
AcDbBlockBegin
  2
A$C255C26A2
 70
     0
 10
0.0
 20
0.0
 30
0.0
  3
A$C255C26A2
  1

  0
LWPOLYLINE
  5
639E
330
639D
100
AcDbEntity
  8
0
100
AcDbPolyline
 90
        3
 70
     1
 43
0.0
 10
7.014806023851633
 20
0.0000006939811783
 10
5.611844869720698
 20
2.430000693981241
 10
8.417767177982568
 20
2.430000693981241
  0
LWPOLYLINE
  5
639F
330
639D
100
AcDbEntity
  8
0
100
AcDbPolyline
 90
        3
 70
     1
 43
0.0
 10
4.20888371558999
 20
0.0000006939811783
 10
2.805922561459283
 20
2.430000693981241
 10
5.611844869720698
 20
2.430000693981241
  0
LWPOLYLINE
  5
63A0
330
639D
100
AcDbEntity
  8
0
100
AcDbPolyline
 90
        3
 70
     1
 43
0.0
 10
1.402961407328348
 20
0.0000006939811783
 10
0.0000002531974133
 20
2.430000693981241
 10
2.805922561459283
 20
2.430000693981241
  0
ENDBLK
  5
63A2
330
639D
100
AcDbEntity
  8
0
100
AcDbBlockEnd
  0
BLOCK
  5
8C47
330
67BC
100
AcDbEntity
  8
0
100
AcDbBlockBegin
  2
*D1
 70
     1
 10
0.0
 20
0.0
 30
0.0
  3
*D1
  1

  0
LINE
  5
8C48
330
67BC
100
AcDbEntity
  8
0
  6
ByBlock
 62
     6
100
AcDbLine
 10
262.7120605064666
 20
102.3909279972873
 30
0.0
 11
262.7120605064666
 21
81.8283890415887
 31
0.0
  0
LINE
  5
8C49
330
67BC
100
AcDbEntity
  8
0
  6
ByBlock
 62
     6
100
AcDbLine
 10
312.7120605064666
 20
102.3909279972872
 30
0.0
 11
312.7120605064666
 21
81.8283890415887
 31
0.0
  0
LINE
  5
8C4A
330
67BC
100
AcDbEntity
  8
0
  6
ByBlock
 62
     6
100
AcDbLine
 10
265.2120605064666
 20
82.8283890415887
 30
0.0
 11
310.2120605064666
 21
82.8283890415887
 31
0.0
  0
MTEXT
  5
8C4B
330
67BC
100
AcDbEntity
  8
0
  6
ByBlock
 62
     3
100
AcDbMText
 10
287.7120605064665
 20
85.3283890415887
 30
0.0
 40
3.0
 41
0.0
 71
     5
 72
     1
  1
\A1;M50X1.5P
  7
TXT
 73
     1
 44
1.0
  0
SOLID
  5
8C4C
330
67BC
100
AcDbEntity
  8
0
  6
ByBlock
 62
     6
100
AcDbTrace
 10
265.2120605064666
 20
83.24505570825538
 30
0.0
 11
265.2120605064666
 21
82.41172237492204
 31
0.0
 12
262.7120605064666
 22
82.8283890415887
 32
0.0
 13
262.7120605064666
 23
82.8283890415887
 33
0.0
  0
SOLID
  5
8C4D
330
67BC
100
AcDbEntity
  8
0
  6
ByBlock
 62
     6
100
AcDbTrace
 10
310.2120605064666
 20
83.24505570825538
 30
0.0
 11
310.2120605064666
 21
82.41172237492204
 31
0.0
 12
312.7120605064666
 22
82.8283890415887
 32
0.0
 13
312.7120605064666
 23
82.8283890415887
 33
0.0
  0
POINT
  5
8C4E
330
67BC
100
AcDbEntity
  8
DEFPOINTS
  6
ByBlock
 62
     0
100
AcDbPoint
 10
262.7120605064666
 20
103.3909279972873
 30
0.0
  0
POINT
  5
8C4F
330
67BC
100
AcDbEntity
  8
DEFPOINTS
  6
ByBlock
 62
     0
100
AcDbPoint
 10
312.7120605064666
 20
103.3909279972872
 30
0.0
  0
POINT
  5
8C50
330
67BC
100
AcDbEntity
  8
DEFPOINTS
  6
ByBlock
 62
     0
100
AcDbPoint
 10
312.7120605064666
 20
82.8283890415887
 30
0.0
  0
ENDBLK
  5
8C51
330
67BC
100
AcDbEntity
  8
0
100
AcDbBlockEnd
  0
BLOCK
  5
8909
330
67D9
100
AcDbEntity
  8
0
100
AcDbBlockBegin
  2
*D2
 70
     1
 10
0.0
 20
0.0
 30
0.0
  3
*D2
  1

  0
LINE
  5
890A
330
67D9
100
AcDbEntity
  8
0
  6
ByBlock
 62
     6
100
AcDbLine
 10
57.62960487817327
 20
198.7167537529921
 30
0.0
 11
57.62960487817327
 21
160.4315731987266
 31
0.0
  0
LINE
  5
890B
330
67D9
100
AcDbEntity
  8
0
  6
ByBlock
 62
     6
100
AcDbLine
 10
60.09124769783415
 20
198.716753752992
 30
0.0
 11
60.09124769783415
 21
160.4315731987266
 31
0.0
  0
LINE
  5
890C
330
67D9
100
AcDbEntity
  8
0
  6
ByBlock
 62
     6
100
AcDbLine
 10
55.12960487817327
 20
161.4315731987266
 30
0.0
 11
52.62960487817327
 21
161.4315731987266
 31
0.0
  0
LINE
  5
890D
330
67D9
100
AcDbEntity
  8
0
  6
ByBlock
 62
     6
100
AcDbLine
 10
62.59124769783415
 20
161.4315731987266
 30
0.0
 11
65.09124769783415
 21
161.4315731987266
 31
0.0
  0
MTEXT
  5
890E
330
67D9
100
AcDbEntity
  8
0
  6
ByBlock
 62
     3
100
AcDbMText
 10
65.09124769783415
 20
163.9315731987266
 30
0.0
 40
3.0
 41
0.0
 71
     5
 72
     1
  1
\A1;2.5
  7
TXT
 73
     1
 44
1.0
  0
LINE
  5
890F
330
67D9
100
AcDbEntity
  8
0
  6
ByBlock
 62
     6
100
AcDbLine
 10
57.62960487817327
 20
161.4315731987266
 30
0.0
 11
60.09124769783415
 21
161.4315731987266
 31
0.0
  0
SOLID
  5
8910
330
67D9
100
AcDbEntity
  8
0
  6
ByBlock
 62
     6
100
AcDbTrace
 10
55.12960487817327
 20
161.8482398653932
 30
0.0
 11
55.12960487817327
 21
161.0149065320599
 31
0.0
 12
57.62960487817327
 22
161.4315731987266
 32
0.0
 13
57.62960487817327
 23
161.4315731987266
 33
0.0
  0
SOLID
  5
8911
330
67D9
100
AcDbEntity
  8
0
  6
ByBlock
 62
     6
100
AcDbTrace
 10
62.59124769783415
 20
161.8482398653932
 30
0.0
 11
62.59124769783415
 21
161.0149065320599
 31
0.0
 12
60.09124769783415
 22
161.4315731987266
 32
0.0
 13
60.09124769783415
 23
161.4315731987266
 33
0.0
  0
POINT
  5
8912
330
67D9
100
AcDbEntity
  8
DEFPOINTS
  6
ByBlock
 62
     0
100
AcDbPoint
 10
57.62960487817327
 20
199.7167537529921
 30
0.0
  0
POINT
  5
8913
330
67D9
100
AcDbEntity
  8
DEFPOINTS
  6
ByBlock
 62
     0
100
AcDbPoint
 10
60.09124769783415
 20
199.716753752992
 30
0.0
  0
POINT
  5
8914
330
67D9
100
AcDbEntity
  8
DEFPOINTS
  6
ByBlock
 62
     0
100
AcDbPoint
 10
60.09124769783415
 20
161.4315731987266
 30
0.0
  0
ENDBLK
  5
8915
330
67D9
100
AcDbEntity
  8
0
100
AcDbBlockEnd
  0
BLOCK
  5
835A
330
6854
100
AcDbEntity
  8
0
100
AcDbBlockBegin
  2
*D3
 70
     1
 10
0.0
 20
0.0
 30
0.0
  3
*D3
  1

  0
LINE
  5
835B
330
6854
100
AcDbEntity
  8
0
  6
ByBlock
 62
     6
100
AcDbLine
 10
266.388071193783
 20
177.7356535889006
 30
0.0
 11
254.9835849980062
 21
177.7356535889006
 31
0.0
  0
LINE
  5
835C
330
6854
100
AcDbEntity
  8
0
  6
ByBlock
 62
     6
100
AcDbLine
 10
266.388071193783
 20
183.7356535889006
 30
0.0
 11
254.9835849980062
 21
183.7356535889006
 31
0.0
  0
LINE
  5
835D
330
6854
100
AcDbEntity
  8
0
  6
ByBlock
 62
     6
100
AcDbLine
 10
255.9835849980061
 20
175.2356535889006
 30
0.0
 11
255.9835849980061
 21
172.7356535889006
 31
0.0
  0
LINE
  5
835E
330
6854
100
AcDbEntity
  8
0
  6
ByBlock
 62
     6
100
AcDbLine
 10
255.9835849980061
 20
186.2356535889006
 30
0.0
 11
255.9835849980061
 21
188.7356535889006
 31
0.0
  0
MTEXT
  5
835F
330
6854
100
AcDbEntity
  8
0
  6
ByBlock
 62
     3
100
AcDbMText
 10
252.6091809571504
 20
193.4039417004008
 30
0.0
 40
3.0
 41
0.0
 71
     5
 72
     1
  1
\A1;6      (3等分)
  7
TXT
 11
0.0000000000000001
 21
1.0
 31
0.0
 73
     1
 44
1.0
  0
LINE
  5
8360
330
6854
100
AcDbEntity
  8
0
  6
ByBlock
 62
     6
100
AcDbLine
 10
255.9835849980061
 20
177.7356535889006
 30
0.0
 11
255.9835849980061
 21
183.7356535889006
 31
0.0
  0
SOLID
  5
8361
330
6854
100
AcDbEntity
  8
0
  6
ByBlock
 62
     6
100
AcDbTrace
 10
255.5669183313395
 20
175.2356535889006
 30
0.0
 11
256.4002516646728
 21
175.2356535889006
 31
0.0
 12
255.9835849980061
 22
177.7356535889006
 32
0.0
 13
255.9835849980061
 23
177.7356535889006
 33
0.0
  0
SOLID
  5
8362
330
6854
100
AcDbEntity
  8
0
  6
ByBlock
 62
     6
100
AcDbTrace
 10
255.5669183313395
 20
186.2356535889006
 30
0.0
 11
256.4002516646728
 21
186.2356535889006
 31
0.0
 12
255.9835849980061
 22
183.7356535889006
 32
0.0
 13
255.9835849980061
 23
183.7356535889006
 33
0.0
  0
POINT
  5
8363
330
6854
100
AcDbEntity
  8
DEFPOINTS
  6
ByBlock
 62
     0
100
AcDbPoint
 10
267.388071193783
 20
177.7356535889006
 30
0.0
  0
POINT
  5
8364
330
6854
100
AcDbEntity
  8
DEFPOINTS
  6
ByBlock
 62
     0
100
AcDbPoint
 10
267.388071193783
 20
183.7356535889006
 30
0.0
  0
POINT
  5
8365
330
6854
100
AcDbEntity
  8
DEFPOINTS
  6
ByBlock
 62
     0
100
AcDbPoint
 10
255.9835849980061
 20
183.7356535889006
 30
0.0
  0
ENDBLK
  5
8366
330
6854
100
AcDbEntity
  8
0
100
AcDbBlockEnd
  0
BLOCK
  5
8C26
330
6C86
100
AcDbEntity
  8
0
100
AcDbBlockBegin
  2
*D4
 70
     1
 10
0.0
 20
0.0
 30
0.0
  3
*D4
  1

  0
LINE
  5
8C27
330
6C86
100
AcDbEntity
  8
0
  6
ByBlock
 62
     6
100
AcDbLine
 10
255.7120605064663
 20
123.7909279972871
 30
0.0
 11
255.7120605064663
 21
141.9821512154426
 31
0.0
  0
LINE
  5
8C28
330
6C86
100
AcDbEntity
  8
0
  6
ByBlock
 62
     6
100
AcDbLine
 10
319.7120605064668
 20
123.7909279972871
 30
0.0
 11
319.7120605064668
 21
141.9821512154426
 31
0.0
  0
LINE
  5
8C29
330
6C86
100
AcDbEntity
  8
0
  6
ByBlock
 62
     6
100
AcDbLine
 10
258.2120605064663
 20
140.9821512154426
 30
0.0
 11
317.2120605064669
 21
140.9821512154426
 31
0.0
  0
SOLID
  5
8C2A
330
6C86
100
AcDbEntity
  8
0
  6
ByBlock
 62
     6
100
AcDbTrace
 10
258.2120605064663
 20
141.3988178821093
 30
0.0
 11
258.2120605064663
 21
140.565484548776
 31
0.0
 12
255.7120605064663
 22
140.9821512154426
 32
0.0
 13
255.7120605064663
 23
140.9821512154426
 33
0.0
  0
SOLID
  5
8C2B
330
6C86
100
AcDbEntity
  8
0
  6
ByBlock
 62
     6
100
AcDbTrace
 10
317.2120605064669
 20
141.3988178821093
 30
0.0
 11
317.2120605064669
 21
140.565484548776
 31
0.0
 12
319.7120605064668
 22
140.9821512154426
 32
0.0
 13
319.7120605064668
 23
140.9821512154426
 33
0.0
  0
MTEXT
  5
8C2C
330
6C86
100
AcDbEntity
  8
0
  6
ByBlock
 62
     3
100
AcDbMText
 10
287.7120605064666
 20
143.4821512154426
 30
0.0
 40
3.0
 41
0.0
 71
     5
 72
     1
  1
\A1;\U+220564±0.5
  7
TXT
 73
     1
 44
1.0
  0
POINT
  5
8C2D
330
6C86
100
AcDbEntity
  8
DEFPOINTS
  6
ByBlock
 62
     0
100
AcDbPoint
 10
255.7120605064663
 20
122.7909279972871
 30
0.0
  0
POINT
  5
8C2E
330
6C86
100
AcDbEntity
  8
DEFPOINTS
  6
ByBlock
 62
     0
100
AcDbPoint
 10
319.7120605064668
 20
122.7909279972871
 30
0.0
  0
POINT
  5
8C2F
330
6C86
100
AcDbEntity
  8
DEFPOINTS
  6
ByBlock
 62
     0
100
AcDbPoint
 10
319.7120605064668
 20
140.9821512154426
 30
0.0
  0
ENDBLK
  5
8C30
330
6C86
100
AcDbEntity
  8
0
100
AcDbBlockEnd
  0
BLOCK
  5
8C1B
330
6C9E
100
AcDbEntity
  8
0
100
AcDbBlockBegin
  2
*D5
 70
     1
 10
0.0
 20
0.0
 30
0.0
  3
*D5
  1

  0
LINE
  5
8C1C
330
6C9E
100
AcDbEntity
  8
0
  6
ByBlock
 62
     6
100
AcDbLine
 10
252.7120605064663
 20
121.7909279972871
 30
0.0
 11
252.7120605064663
 21
147.4896213058576
 31
0.0
  0
LINE
  5
8C1D
330
6C9E
100
AcDbEntity
  8
0
  6
ByBlock
 62
     6
100
AcDbLine
 10
322.7120605064668
 20
121.7909279972871
 30
0.0
 11
322.7120605064668
 21
147.4896213058576
 31
0.0
  0
LINE
  5
8C1E
330
6C9E
100
AcDbEntity
  8
0
  6
ByBlock
 62
     6
100
AcDbLine
 10
255.2120605064663
 20
146.4896213058576
 30
0.0
 11
320.2120605064668
 21
146.4896213058576
 31
0.0
  0
MTEXT
  5
8C1F
330
6C9E
100
AcDbEntity
  8
0
  6
ByBlock
 62
     3
100
AcDbMText
 10
283.6430043785527
 20
149.8157420557428
 30
0.0
 40
3.0
 41
0.0
 71
     5
 72
     1
  1
\A1;\U+220570
  7
TXT
 73
     1
 44
1.0
  0
SOLID
  5
8C20
330
6C9E
100
AcDbEntity
  8
0
  6
ByBlock
 62
     6
100
AcDbTrace
 10
255.2120605064663
 20
146.9062879725242
 30
0.0
 11
255.2120605064663
 21
146.0729546391909
 31
0.0
 12
252.7120605064663
 22
146.4896213058576
 32
0.0
 13
252.7120605064663
 23
146.4896213058576
 33
0.0
  0
SOLID
  5
8C21
330
6C9E
100
AcDbEntity
  8
0
  6
ByBlock
 62
     6
100
AcDbTrace
 10
320.2120605064668
 20
146.9062879725242
 30
0.0
 11
320.2120605064668
 21
146.0729546391909
 31
0.0
 12
322.7120605064668
 22
146.4896213058576
 32
0.0
 13
322.7120605064668
 23
146.4896213058576
 33
0.0
  0
POINT
  5
8C22
330
6C9E
100
AcDbEntity
  8
DEFPOINTS
  6
ByBlock
 62
     0
100
AcDbPoint
 10
252.7120605064663
 20
120.7909279972871
 30
0.0
  0
POINT
  5
8C23
330
6C9E
100
AcDbEntity
  8
DEFPOINTS
  6
ByBlock
 62
     0
100
AcDbPoint
 10
322.7120605064668
 20
120.7909279972871
 30
0.0
  0
POINT
  5
8C24
330
6C9E
100
AcDbEntity
  8
DEFPOINTS
  6
ByBlock
 62
     0
100
AcDbPoint
 10
322.7120605064668
 20
146.4896213058576
 30
0.0
  0
ENDBLK
  5
8C25
330
6C9E
100
AcDbEntity
  8
0
100
AcDbBlockEnd
  0
BLOCK
  5
852C
330
6FE3
100
AcDbEntity
  8
0
100
AcDbBlockBegin
  2
*D6
 70
     1
 10
0.0
 20
0.0
 30
0.0
  3
*D6
  1

  0
LINE
  5
852D
330
6FE3
100
AcDbEntity
  8
0
  6
ByBlock
 62
     6
100
AcDbLine
 10
326.0985068012794
 20
96.82890512974775
 30
0.0
 11
354.8647977052782
 21
80.22067933273689
 31
0.0
  0
LINE
  5
852E
330
6FE3
100
AcDbEntity
  8
0
  6
ByBlock
 62
     6
100
AcDbLine
 10
321.4785068012793
 20
88.82683039877946
 30
0.0
 11
350.2447977052782
 21
72.21860460176862
 31
0.0
  0
LINE
  5
852F
330
6FE3
100
AcDbEntity
  8
0
  6
ByBlock
 62
     6
100
AcDbLine
 10
352.7487723014938
 20
78.55561582327578
 30
0.0
 11
350.6287723014937
 21
74.88366811122969
 31
0.0
  0
LINE
  5
8530
330
6FE3
100
AcDbEntity
  8
0
  6
ByBlock
 62
     6
100
AcDbLine
 10
363.3998446765061
 20
97.00381433189049
 30
0.0
 11
353.9987723014938
 21
80.72067933273689
 31
0.0
  0
MTEXT
  5
8531
330
6FE3
100
AcDbEntity
  8
0
  6
ByBlock
 62
     3
100
AcDbMText
 10
357.709781167045
 20
92.1483352352102
 30
0.0
 40
3.0
 41
0.0
 71
     5
 72
     1
  1
\A1;9±0.5
  7
TXT
 11
0.5000000000000011
 21
0.866025403784438
 31
0.0
 73
     1
 44
1.0
  0
SOLID
  5
8532
330
6FE3
100
AcDbEntity
  8
0
  6
ByBlock
 62
     6
100
AcDbTrace
 10
352.3879283832503
 20
78.76394915660913
 30
0.0
 11
353.1096162197373
 21
78.34728248994245
 31
0.0
 12
353.9987723014938
 22
80.72067933273689
 32
0.0
 13
353.9987723014938
 23
80.72067933273689
 33
0.0
  0
SOLID
  5
8533
330
6FE3
100
AcDbEntity
  8
0
  6
ByBlock
 62
     6
100
AcDbTrace
 10
350.2679283832502
 20
75.09200144456305
 30
0.0
 11
350.9896162197372
 21
74.67533477789638
 31
0.0
 12
349.3787723014937
 22
72.71860460176862
 32
0.0
 13
349.3787723014937
 23
72.71860460176862
 33
0.0
  0
POINT
  5
8534
330
6FE3
100
AcDbEntity
  8
DEFPOINTS
  6
ByBlock
 62
     0
100
AcDbPoint
 10
325.2324813974949
 20
97.32890512974776
 30
0.0
  0
POINT
  5
8535
330
6FE3
100
AcDbEntity
  8
DEFPOINTS
  6
ByBlock
 62
     0
100
AcDbPoint
 10
320.6124813974949
 20
89.32683039877947
 30
0.0
  0
POINT
  5
8536
330
6FE3
100
AcDbEntity
  8
DEFPOINTS
  6
ByBlock
 62
     0
100
AcDbPoint
 10
349.3787723014937
 20
72.71860460176862
 30
0.0
  0
ENDBLK
  5
8537
330
6FE3
100
AcDbEntity
  8
0
100
AcDbBlockEnd
  0
BLOCK
  5
8BEC
330
74B6
100
AcDbEntity
  8
0
100
AcDbBlockBegin
  2
*D7
 70
     1
 10
0.0
 20
0.0
 30
0.0
  3
*D7
  1

  0
LINE
  5
8BED
330
74B6
100
AcDbEntity
  8
0
  6
ByBlock
 62
     6
100
AcDbLine
 10
254.7120605064663
 20
122.7909279972871
 30
0.0
 11
244.7631641069775
 21
122.7909279972871
 31
0.0
  0
LINE
  5
8BEE
330
74B6
100
AcDbEntity
  8
0
  6
ByBlock
 62
     6
100
AcDbLine
 10
253.2120605064663
 20
122.2909279972871
 30
0.0
 11
244.7631641069775
 21
122.2909279972871
 31
0.0
  0
LINE
  5
8BEF
330
74B6
100
AcDbEntity
  8
0
  6
ByBlock
 62
     6
100
AcDbLine
 10
245.7631641069775
 20
125.2909279972871
 30
0.0
 11
245.7631641069775
 21
127.7909279972871
 31
0.0
  0
LINE
  5
8BF0
330
74B6
100
AcDbEntity
  8
0
  6
ByBlock
 62
     6
100
AcDbLine
 10
245.7631641069775
 20
119.7909279972871
 30
0.0
 11
245.7631641069775
 21
117.2909279972871
 31
0.0
  0
LINE
  5
8BF1
330
74B6
100
AcDbEntity
  8
0
  6
ByBlock
 62
     6
100
AcDbLine
 10
245.7631641069775
 20
136.7009252584372
 30
0.0
 11
245.7631641069775
 21
122.7909279972871
 31
0.0
  0
MTEXT
  5
8BF2
330
74B6
100
AcDbEntity
  8
0
  6
ByBlock
 62
     3
100
AcDbMText
 10
243.2631641069775
 20
132.9509252584372
 30
0.0
 40
3.0
 41
0.0
 71
     5
 72
     1
  1
\A1;0.5
  7
TXT
 11
0.0000000000000001
 21
1.0
 31
0.0
 73
     1
 44
1.0
  0
LINE
  5
8BF3
330
74B6
100
AcDbEntity
  8
0
  6
ByBlock
 62
     6
100
AcDbLine
 10
245.7631641069775
 20
122.7909279972871
 30
0.0
 11
245.7631641069775
 21
122.2909279972871
 31
0.0
  0
SOLID
  5
8BF4
330
74B6
100
AcDbEntity
  8
0
  6
ByBlock
 62
     6
100
AcDbTrace
 10
245.3464974403109
 20
125.2909279972871
 30
0.0
 11
246.1798307736442
 21
125.2909279972871
 31
0.0
 12
245.7631641069775
 22
122.7909279972871
 32
0.0
 13
245.7631641069775
 23
122.7909279972871
 33
0.0
  0
SOLID
  5
8BF5
330
74B6
100
AcDbEntity
  8
0
  6
ByBlock
 62
     6
100
AcDbTrace
 10
245.3464974403109
 20
119.7909279972871
 30
0.0
 11
246.1798307736442
 21
119.7909279972871
 31
0.0
 12
245.7631641069775
 22
122.2909279972871
 32
0.0
 13
245.7631641069775
 23
122.2909279972871
 33
0.0
  0
POINT
  5
8BF6
330
74B6
100
AcDbEntity
  8
DEFPOINTS
  6
ByBlock
 62
     0
100
AcDbPoint
 10
255.7120605064663
 20
122.7909279972871
 30
0.0
  0
POINT
  5
8BF7
330
74B6
100
AcDbEntity
  8
DEFPOINTS
  6
ByBlock
 62
     0
100
AcDbPoint
 10
254.2120605064663
 20
122.2909279972871
 30
0.0
  0
POINT
  5
8BF8
330
74B6
100
AcDbEntity
  8
DEFPOINTS
  6
ByBlock
 62
     0
100
AcDbPoint
 10
245.7631641069775
 20
122.2909279972871
 30
0.0
  0
ENDBLK
  5
8BF9
330
74B6
100
AcDbEntity
  8
0
100
AcDbBlockEnd
  0
BLOCK
  5
8C31
330
7501
100
AcDbEntity
  8
0
100
AcDbBlockBegin
  2
*D8
 70
     1
 10
0.0
 20
0.0
 30
0.0
  3
*D8
  1

  0
LINE
  5
8C32
330
7501
100
AcDbEntity
  8
0
  6
ByBlock
 62
     6
100
AcDbLine
 10
262.2120605064666
 20
123.7909279972871
 30
0.0
 11
262.2120605064666
 21
136.139056403814
 31
0.0
  0
LINE
  5
8C33
330
7501
100
AcDbEntity
  8
0
  6
ByBlock
 62
     6
100
AcDbLine
 10
313.2120605064666
 20
123.7909279972871
 30
0.0
 11
313.2120605064666
 21
136.139056403814
 31
0.0
  0
LINE
  5
8C34
330
7501
100
AcDbEntity
  8
0
  6
ByBlock
 62
     6
100
AcDbLine
 10
264.7120605064666
 20
135.139056403814
 30
0.0
 11
310.7120605064666
 21
135.139056403814
 31
0.0
  0
SOLID
  5
8C35
330
7501
100
AcDbEntity
  8
0
  6
ByBlock
 62
     6
100
AcDbTrace
 10
264.7120605064666
 20
135.5557230704807
 30
0.0
 11
264.7120605064666
 21
134.7223897371474
 31
0.0
 12
262.2120605064666
 22
135.139056403814
 32
0.0
 13
262.2120605064666
 23
135.139056403814
 33
0.0
  0
SOLID
  5
8C36
330
7501
100
AcDbEntity
  8
0
  6
ByBlock
 62
     6
100
AcDbTrace
 10
310.7120605064666
 20
135.5557230704807
 30
0.0
 11
310.7120605064666
 21
134.7223897371474
 31
0.0
 12
313.2120605064666
 22
135.139056403814
 32
0.0
 13
313.2120605064666
 23
135.139056403814
 33
0.0
  0
MTEXT
  5
8C37
330
7501
100
AcDbEntity
  8
0
  6
ByBlock
 62
     3
100
AcDbMText
 10
287.7120605064666
 20
137.639056403814
 30
0.0
 40
3.0
 41
0.0
 71
     5
 72
     1
  1
\A1;\U+220551
  7
TXT
 73
     1
 44
1.0
  0
POINT
  5
8C38
330
7501
100
AcDbEntity
  8
DEFPOINTS
  6
ByBlock
 62
     0
100
AcDbPoint
 10
262.2120605064666
 20
122.7909279972871
 30
0.0
  0
POINT
  5
8C39
330
7501
100
AcDbEntity
  8
DEFPOINTS
  6
ByBlock
 62
     0
100
AcDbPoint
 10
313.2120605064666
 20
122.7909279972871
 30
0.0
  0
POINT
  5
8C3A
330
7501
100
AcDbEntity
  8
DEFPOINTS
  6
ByBlock
 62
     0
100
AcDbPoint
 10
313.2120605064666
 20
135.139056403814
 30
0.0
  0
ENDBLK
  5
8C3B
330
7501
100
AcDbEntity
  8
0
100
AcDbBlockEnd
  0
BLOCK
  5
84E6
330
755C
100
AcDbEntity
  8
0
100
AcDbBlockBegin
  2
*D9
 70
     1
 10
0.0
 20
0.0
 30
0.0
  3
*D9
  1

  0
LINE
  5
84E7
330
755C
100
AcDbEntity
  8
0
  6
ByBlock
 62
     6
100
AcDbLine
 10
323.1955320993189
 20
109.3268303987794
 30
0.0
 11
341.1188079729571
 21
109.3268303987794
 31
0.0
  0
LINE
  5
84E8
330
755C
100
AcDbEntity
  8
0
  6
ByBlock
 62
     6
100
AcDbLine
 10
323.9455320993189
 20
93.36779275097297
 30
0.0
 11
341.1188079729571
 21
93.36779275097297
 31
0.0
  0
LINE
  5
84E9
330
755C
100
AcDbEntity
  8
0
  6
ByBlock
 62
     6
100
AcDbLine
 10
340.1188079729572
 20
106.8268303987794
 30
0.0
 11
340.1188079729572
 21
95.86779275097297
 31
0.0
  0
SOLID
  5
84EA
330
755C
100
AcDbEntity
  8
0
  6
ByBlock
 62
     6
100
AcDbTrace
 10
339.7021413062905
 20
106.8268303987794
 30
0.0
 11
340.5354746396238
 21
106.8268303987794
 31
0.0
 12
340.1188079729572
 22
109.3268303987794
 32
0.0
 13
340.1188079729572
 23
109.3268303987794
 33
0.0
  0
SOLID
  5
84EB
330
755C
100
AcDbEntity
  8
0
  6
ByBlock
 62
     6
100
AcDbTrace
 10
339.7021413062905
 20
95.86779275097297
 30
0.0
 11
340.5354746396238
 21
95.86779275097297
 31
0.0
 12
340.1188079729572
 22
93.36779275097297
 32
0.0
 13
340.1188079729572
 23
93.36779275097297
 33
0.0
  0
MTEXT
  5
84EC
330
755C
100
AcDbEntity
  8
0
  6
ByBlock
 62
     3
100
AcDbMText
 10
337.6188079729571
 20
101.3473115748762
 30
0.0
 40
3.0
 41
0.0
 71
     5
 72
     1
  1
\A1;16
  7
TXT
 11
0.0000000000000001
 21
1.0
 31
0.0
 73
     1
 44
1.0
  0
POINT
  5
84ED
330
755C
100
AcDbEntity
  8
DEFPOINTS
  6
ByBlock
 62
     0
100
AcDbPoint
 10
322.1955320993189
 20
109.3268303987794
 30
0.0
  0
POINT
  5
84EE
330
755C
100
AcDbEntity
  8
DEFPOINTS
  6
ByBlock
 62
     0
100
AcDbPoint
 10
322.9455320993189
 20
93.36779275097297
 30
0.0
  0
POINT
  5
84EF
330
755C
100
AcDbEntity
  8
DEFPOINTS
  6
ByBlock
 62
     0
100
AcDbPoint
 10
340.1188079729572
 20
93.36779275097297
 30
0.0
  0
ENDBLK
  5
84F0
330
755C
100
AcDbEntity
  8
0
100
AcDbBlockEnd
  0
BLOCK
  5
8509
330
7569
100
AcDbEntity
  8
0
100
AcDbBlockBegin
  2
*D10
 70
     1
 10
0.0
 20
0.0
 30
0.0
  3
*D10
  1

  0
LINE
  5
850A
330
7569
100
AcDbEntity
  8
0
  6
ByBlock
 62
     6
100
AcDbLine
 10
321.6124813974948
 20
89.32683039877943
 30
0.0
 11
351.2678288993453
 21
89.32683039877941
 31
0.0
  0
LINE
  5
850B
330
7569
100
AcDbEntity
  8
0
  6
ByBlock
 62
     6
100
AcDbLine
 10
323.1955320993189
 20
109.3268303987794
 30
0.0
 11
351.2678288993453
 21
109.3268303987794
 31
0.0
  0
LINE
  5
850C
330
7569
100
AcDbEntity
  8
0
  6
ByBlock
 62
     6
100
AcDbLine
 10
350.2678288993453
 20
91.82683039877941
 30
0.0
 11
350.2678288993453
 21
106.8268303987794
 31
0.0
  0
SOLID
  5
850D
330
7569
100
AcDbEntity
  8
0
  6
ByBlock
 62
     6
100
AcDbTrace
 10
349.8511622326786
 20
91.82683039877941
 30
0.0
 11
350.684495566012
 21
91.82683039877941
 31
0.0
 12
350.2678288993453
 22
89.32683039877941
 32
0.0
 13
350.2678288993453
 23
89.32683039877941
 33
0.0
  0
SOLID
  5
850E
330
7569
100
AcDbEntity
  8
0
  6
ByBlock
 62
     6
100
AcDbTrace
 10
349.8511622326786
 20
106.8268303987794
 30
0.0
 11
350.684495566012
 21
106.8268303987794
 31
0.0
 12
350.2678288993453
 22
109.3268303987794
 32
0.0
 13
350.2678288993453
 23
109.3268303987794
 33
0.0
  0
MTEXT
  5
850F
330
7569
100
AcDbEntity
  8
0
  6
ByBlock
 62
     3
100
AcDbMText
 10
347.7678288993453
 20
99.32683039877945
 30
0.0
 40
3.0
 41
0.0
 71
     5
 72
     1
  1
\A1;20±0.2
  7
TXT
 11
0.0000000000000001
 21
1.0
 31
0.0
 73
     1
 44
1.0
  0
POINT
  5
8510
330
7569
100
AcDbEntity
  8
DEFPOINTS
  6
ByBlock
 62
     0
100
AcDbPoint
 10
320.6124813974948
 20
89.32683039877943
 30
0.0
  0
POINT
  5
8511
330
7569
100
AcDbEntity
  8
DEFPOINTS
  6
ByBlock
 62
     0
100
AcDbPoint
 10
322.1955320993189
 20
109.3268303987794
 30
0.0
  0
POINT
  5
8512
330
7569
100
AcDbEntity
  8
DEFPOINTS
  6
ByBlock
 62
     0
100
AcDbPoint
 10
350.2678288993453
 20
109.3268303987794
 30
0.0
  0
ENDBLK
  5
8513
330
7569
100
AcDbEntity
  8
0
100
AcDbBlockEnd
  0
BLOCK
  5
7AD7
330
7AC6
100
AcDbEntity
  8
0
100
AcDbBlockBegin
  2
*D11
 70
     1
 10
0.0
 20
0.0
 30
0.0
  3
*D11
  1

  0
LINE
  5
7AD8
330
7AC6
100
AcDbEntity
  8
0
  6
ByBlock
 62
     6
100
AcDbLine
 10
295.4767602876279
 20
122.8337221819853
 30
0.0
 11
291.6944953941081
 21
122.8337221819853
 31
0.0
  0
LINE
  5
7AD9
330
7AC6
100
AcDbEntity
  8
0
  6
ByBlock
 62
     6
100
AcDbLine
 10
295.4767602876279
 20
123.8337221819853
 30
0.0
 11
291.6944953941081
 21
123.8337221819853
 31
0.0
  0
LINE
  5
7ADA
330
7AC6
100
AcDbEntity
  8
0
  6
ByBlock
 62
     6
100
AcDbLine
 10
292.6944953941081
 20
120.3337221819853
 30
0.0
 11
292.6944953941081
 21
117.8337221819853
 31
0.0
  0
LINE
  5
7ADB
330
7AC6
100
AcDbEntity
  8
0
  6
ByBlock
 62
     6
100
AcDbLine
 10
292.6944953941081
 20
126.3337221819853
 30
0.0
 11
292.6944953941081
 21
128.8337221819852
 31
0.0
  0
LINE
  5
7ADC
330
7AC6
100
AcDbEntity
  8
0
  6
ByBlock
 62
     6
100
AcDbLine
 10
292.6944953941081
 20
132.9195358696576
 30
0.0
 11
292.6944953941081
 21
123.8337221819853
 31
0.0
  0
MTEXT
  5
7ADD
330
7AC6
100
AcDbEntity
  8
0
  6
ByBlock
 62
     3
100
AcDbMText
 10
290.1944953941081
 20
131.4195358696575
 30
0.0
 40
3.0
 41
0.0
 71
     5
 72
     1
  1
\A1;1
  7
TXT
 11
0.0000000000000001
 21
1.0
 31
0.0
 73
     1
 44
1.0
  0
LINE
  5
7ADE
330
7AC6
100
AcDbEntity
  8
0
  6
ByBlock
 62
     6
100
AcDbLine
 10
292.6944953941081
 20
122.8337221819853
 30
0.0
 11
292.6944953941081
 21
123.8337221819853
 31
0.0
  0
SOLID
  5
7ADF
330
7AC6
100
AcDbEntity
  8
0
  6
ByBlock
 62
     6
100
AcDbTrace
 10
292.2778287274415
 20
120.3337221819853
 30
0.0
 11
293.1111620607748
 21
120.3337221819853
 31
0.0
 12
292.6944953941081
 22
122.8337221819853
 32
0.0
 13
292.6944953941081
 23
122.8337221819853
 33
0.0
  0
SOLID
  5
7AE0
330
7AC6
100
AcDbEntity
  8
0
  6
ByBlock
 62
     6
100
AcDbTrace
 10
292.2778287274415
 20
126.3337221819853
 30
0.0
 11
293.1111620607748
 21
126.3337221819853
 31
0.0
 12
292.6944953941081
 22
123.8337221819853
 32
0.0
 13
292.6944953941081
 23
123.8337221819853
 33
0.0
  0
POINT
  5
7AE1
330
7AC6
100
AcDbEntity
  8
DEFPOINTS
  6
ByBlock
 62
     0
100
AcDbPoint
 10
296.4767602876279
 20
122.8337221819853
 30
0.0
  0
POINT
  5
7AE2
330
7AC6
100
AcDbEntity
  8
DEFPOINTS
  6
ByBlock
 62
     0
100
AcDbPoint
 10
296.4767602876279
 20
123.8337221819853
 30
0.0
  0
POINT
  5
7AE3
330
7AC6
100
AcDbEntity
  8
DEFPOINTS
  6
ByBlock
 62
     0
100
AcDbPoint
 10
292.6944953941081
 20
123.8337221819853
 30
0.0
  0
ENDBLK
  5
7AE4
330
7AC6
100
AcDbEntity
  8
0
100
AcDbBlockEnd
  0
BLOCK
  5
8547
330
8538
100
AcDbEntity
  8
0
100
AcDbBlockBegin
  2
*D12
 70
     1
 10
0.0
 20
0.0
 30
0.0
  3
*D12
  1

  0
LINE
  5
8548
330
8538
100
AcDbEntity
  8
0
  6
ByBlock
 62
     6
100
AcDbLine
 10
325.5386352263165
 20
91.89480885702831
 30
0.0
 11
361.6486933975466
 21
71.38288492239765
 31
0.0
  0
LINE
  5
8549
330
8538
100
AcDbEntity
  8
0
  6
ByBlock
 62
     6
100
AcDbLine
 10
323.2324813974949
 20
109.3268303987794
 30
0.0
 11
371.6733025512215
 21
109.3268303987795
 31
0.0
  0
ARC
  5
854A
330
8538
100
AcDbEntity
  8
0
  6
ByBlock
 62
     6
100
AcDbCircle
 10
294.8505674506738
 20
109.3268303987794
 30
0.0
 40
75.82273510054763
100
AcDbArc
 50
332.2909538536719
 51
358.1107785453751
  0
SOLID
  5
854B
330
8538
100
AcDbEntity
  8
0
  6
ByBlock
 62
     6
100
AcDbTrace
 10
362.3436074990902
 20
73.87083880501272
 30
0.0
 11
361.6123289151068
 21
74.27043369618577
 31
0.0
 12
360.7791835335793
 22
71.87680049864891
 32
0.0
 13
360.7791835335793
 23
71.87680049864891
 33
0.0
  0
SOLID
  5
854C
330
8538
100
AcDbEntity
  8
0
  6
ByBlock
 62
     6
100
AcDbTrace
 10
370.2154779584828
 20
106.8340392415835
 30
0.0
 11
371.0486980415053
 21
106.820301057841
 31
0.0
 12
370.6733025512214
 22
109.3268303987795
 32
0.0
 13
370.6733025512214
 23
109.3268303987795
 33
0.0
  0
MTEXT
  5
854D
330
8538
100
AcDbEntity
  8
0
  6
ByBlock
 62
     3
100
AcDbMText
 10
365.7409858147242
 20
90.59792047868587
 30
0.0
 40
3.0
 41
0.0
 71
     5
 72
     1
  1
\A1;30°
  7
TXT
 11
0.2554311414380637
 21
0.9668272503315408
 31
0.0
 73
     1
 44
1.0
  0
POINT
  5
854E
330
8538
100
AcDbEntity
  8
DEFPOINTS
  6
ByBlock
 62
     0
100
AcDbPoint
 10
366.2210732246011
 20
83.72725884569243
 30
0.0
  0
POINT
  5
854F
330
8538
100
AcDbEntity
  8
DEFPOINTS
  6
ByBlock
 62
     0
100
AcDbPoint
 10
270.2324813974949
 20
109.3268303987794
 30
0.0
  0
POINT
  5
8550
330
8538
100
AcDbEntity
  8
DEFPOINTS
  6
ByBlock
 62
     0
100
AcDbPoint
 10
324.6691253623492
 20
92.38872443327952
 30
0.0
  0
POINT
  5
8551
330
8538
100
AcDbEntity
  8
DEFPOINTS
  6
ByBlock
 62
     0
100
AcDbPoint
 10
315.0416566365559
 20
97.8575028343025
 30
0.0
  0
POINT
  5
8552
330
8538
100
AcDbEntity
  8
DEFPOINTS
  6
ByBlock
 62
     0
100
AcDbPoint
 10
322.2324813974949
 20
109.3268303987794
 30
0.0
  0
ENDBLK
  5
8553
330
8538
100
AcDbEntity
  8
0
100
AcDbBlockEnd
  0
ENDSEC
  0
SECTION
  2
ENTITIES
  0
MTEXT
  5
C0
330
18
100
AcDbEntity
  8
0
100
AcDbMText
 10
41.26970765600413
 20
233.6950877649332
 30
0.0
 40
2.5
 41
0.0
 71
     1
 72
     5
  1

  7
ISOCP3
 73
     1
 44
1.0
  0
MTEXT
  5
4FE4
330
18
100
AcDbEntity
  8
公差
100
AcDbMText
 10
69.75062344285885
 20
165.2303433518618
 30
0.0
 40
2.0
 41
9.555074525974475
 71
     1
 72
     5
  1
+0.15\P+0
  7
TXT
 73
     1
 44
1.0
  0
MTEXT
  5
4FE5
330
18
100
AcDbEntity
  8
公差
100
AcDbMText
 10
39.22296458647219
 20
204.3543500524225
 30
0.0
 40
2.0
 41
8.84945634767439
 71
     1
 72
     5
  1
+0.15\P+0
  7
TXT
 11
0.0000000000000001
 21
1.0
 31
0.0
 73
     1
 44
1.0
  0
MTEXT
  5
503F
330
18
100
AcDbEntity
  8
公差
100
AcDbMText
 10
93.53391470948162
 20
152.9618258888173
 30
0.0
 40
2.0
 41
11.48459459716352
 71
     1
 72
     5
  1
+0\P-0.2
  7
TXT
 73
     1
 44
1.0
  0
LINE
  5
5AD6
330
18
100
AcDbEntity
  8
DIM
100
AcDbLine
 10
152.4545707951968
 20
122.7909279972874
 30
0.0
 11
152.4545707951968
 21
139.3176544524112
 31
0.0
  0
LINE
  5
5AD7
330
18
100
AcDbEntity
  8
DIM
100
AcDbLine
 10
152.4545707951968
 20
139.3176544524112
 30
0.0
 11
164.6063109214442
 21
139.3176544524112
 31
0.0
  0
LINE
  5
5ADA
330
18
100
AcDbEntity
  8
DIM
100
AcDbLine
 10
67.41922329334608
 20
89.15157848257917
 30
0.0
 11
67.41922329334608
 21
78.55817340745608
 31
0.0
  0
TOLERANCE
  5
5E6E
330
18
100
AcDbEntity
  8
DIM
  6
ByBlock
100
AcDbFcf
  3
A
 10
164.6063109214442
 20
139.3685928885422
 30
0.0
  1
{\Fgdt;h}%%v0.005%%v%%vA%%v%%v
1001
ACAD
1000
DSTYLE
1002
{
1070
   140
1040
2.743999999999999
1070
   147
1040
0.6859999999999999
1002
}
  0
MTEXT
  5
608E
330
18
100
AcDbEntity
  8
0
100
AcDbMText
 10
17.81948278949767
 20
19.37399834316261
 30
0.0
 40
5.0
 41
0.0
 71
     1
 72
     5
  1
\Ftxt.shx,bigfont.shx|c128;呉銘宏
  7
JL
 73
     1
 44
1.0
  0
MTEXT
  5
6095
330
18
100
AcDbEntity
  8
0
100
AcDbMText
 10
81.23517665196368
 20
29.2278230533891
 30
0.0
 40
4.5
 41
0.0
 71
     1
 72
     5
  1
\Ftxt.shx,bigfont.shx|c128;1 : 1
  7
JL
 73
     1
 44
1.0
  0
MTEXT
  5
6098
330
18
100
AcDbEntity
  8
0
 48
2.0
370
    25
100
AcDbMText
 10
146.1234268906314
 20
3.636969934829039
 30
0.0
 40
4.5
 41
0.0
 71
     5
 72
     1
  1
\Ftxt.shx,bigfont.shx|c128;N L 4 0 0 0 7
 73
     1
 44
1.0
  0
MTEXT
  5
609C
330
18
100
AcDbEntity
  8
0
 48
2.0
100
AcDbMText
 10
178.1300746997774
 20
22.17550270047843
 30
0.0
 40
4.5
 41
0.0
 71
     5
 72
     1
  1
\P\Ftxt.shx,bigfont.shx|c128;    MF50X1.5P
 73
     1
 44
1.0
  0
MTEXT
  5
635A
330
18
100
AcDbEntity
  8
0
100
AcDbMText
 10
16.02348109109539
 20
28.64592585511957
 30
0.0
 40
4.5
 41
0.0
 71
     1
 72
     5
  1
\Ftxt.shx,bigfont.shx|c128;05.03.03
  7
JL
 73
     1
 44
1.0
  0
INSERT
  5
63A3
330
18
100
AcDbEntity
  8
0
100
AcDbBlockReference
  2
A$C255C26A2
 10
138.0966661532185
 20
122.7909273033059
 30
0.0
  0
MTEXT
  5
63A4
330
18
100
AcDbEntity
  8
0
 62
     7
 48
2.0
100
AcDbMText
 10
142.1904689020747
 20
127.6864782703245
 30
0.0
 40
3.0
 41
0.0
 71
     5
 72
     1
  1
G
 73
     1
 44
1.0
  0
LEADER
  5
63C9
330
18
100
AcDbEntity
  8
DIM
 62
     6
100
AcDbLeader
  3
A
 76
     2
 10
119.5724619201698
 20
222.6721323462026
 30
0.0
 10
132.222766088422
 20
233.8902819323846
 30
0.0
  0
LEADER
  5
63CA
330
18
100
AcDbEntity
  8
DIM
 62
     6
100
AcDbLeader
  3
A
 76
     2
 10
118.6230073245392
 20
111.9062391174908
 30
0.0
 10
134.2009685295585
 20
140.2653167938177
 30
0.0
  0
LEADER
  5
63CB
330
18
100
AcDbEntity
  8
DIM
 62
     6
100
AcDbLeader
  3
A
 76
     2
 10
125.1322739951703
 20
106.8318903494806
 30
0.0
 10
136.326536372312
 20
83.86277984057469
 30
0.0
  0
MTEXT
  5
63CC
330
18
100
AcDbEntity
  8
DIM
100
AcDbMText
 10
133.5252399362122
 20
146.0139123588344
 30
0.0
 40
5.0
 41
1.0
 71
     1
 72
     5
  1
\Ftxt.shx,bigfont.shx|c128;3
 73
     1
 44
1.0
  0
MTEXT
  5
63CD
330
18
100
AcDbEntity
  8
DIM
100
AcDbMText
 10
134.3687946245329
 20
237.7457769682931
 30
0.0
 40
5.0
 41
1.0
 71
     1
 72
     5
  1
\Ftxt.shx,bigfont.shx|c128;1
 73
     1
 44
1.0
  0
MTEXT
  5
63CE
330
18
100
AcDbEntity
  8
DIM
100
AcDbMText
 10
135.3864522711359
 20
82.63493116178079
 30
0.0
 40
5.0
 41
1.0
 71
     1
 72
     5
  1
\Ftxt.shx,bigfont.shx|c128;2
 73
     1
 44
1.0
  0
LINE
  5
63CF
330
18
100
AcDbEntity
  8
DIM
100
AcDbLine
 10
67.41922329334608
 20
78.55817340745608
 30
0.0
 11
68.33168164157166
 21
77.58029931173101
 31
0.0
  0
HATCH
  5
63D0
330
18
100
AcDbEntity
  8
DIM
  6
Continuous
100
AcDbHatch
 10
0.0
 20
0.0
 30
0.0
210
0.0
220
0.0
230
1.0
  2
SOLID
 70
     1
 71
     0
 91
        1
 92
        7
 72
     0
 73
     1
 93
        3
 10
67.4180991788935
 20
76.57448501247557
 10
68.33683126749355
 20
77.5592928077193
 10
67.4180991788935
 20
78.54410060296302
 97
        0
 75
     0
 76
     1
 47
0.2359147607200769
 98
        1
 10
67.70591517512428
 20
77.77076881341082
450
        0
451
        0
460
0.0
461
0.0
452
        0
462
0.0
453
        0
470

  0
LINE
  5
63D1
330
18
100
AcDbEntity
  8
DIM
100
AcDbLine
 10
73.07877444826772
 20
75.7666455075715
 30
0.0
 11
73.07877444826772
 21
79.41294429759264
 31
0.0
  0
LINE
  5
63D2
330
18
100
AcDbEntity
  8
DIM
100
AcDbLine
 10
73.07877444826772
 20
79.41294429759264
 30
0.0
 11
76.88740969377841
 21
79.41294429759264
 31
0.0
  0
LINE
  5
63D3
330
18
100
AcDbEntity
  8
DIM
100
AcDbLine
 10
76.88740969377841
 20
75.7666455075715
 30
0.0
 11
76.88740969377841
 21
79.41294429759264
 31
0.0
  0
LINE
  5
63D4
330
18
100
AcDbEntity
  8
DIM
100
AcDbLine
 10
73.07877444826772
 20
75.7666455075715
 30
0.0
 11
76.88740969377841
 21
75.7666455075715
 31
0.0
  0
LINE
  5
63D5
330
18
100
AcDbEntity
  8
DIM
100
AcDbLine
 10
73.07877444826772
 20
77.58979490258207
 30
0.0
 11
68.31798061254466
 21
77.58979490258207
 31
0.0
  0
MTEXT
  5
63D6
330
18
100
AcDbEntity
  8
DIM
100
AcDbMText
 10
74.03601217070735
 20
79.08161258181912
 30
0.0
 40
3.0
 41
2.354875985554478
 71
     1
 72
     5
  1
A
  7
ISOCP3
 73
     1
 44
1.0
  0
LINE
  5
64AF
330
18
100
AcDbEntity
  8
図框線
100
AcDbLine
 10
197.9999999999997
 20
289.9999999999999
 30
0.0
 11
197.9999999999997
 21
-0.0000000000000568
 31
0.0
  0
LINE
  5
64B0
330
18
100
AcDbEntity
  8
図框線
370
    30
100
AcDbLine
 10
-0.0000000000002274
 20
0.0
 30
0.0
 11
-0.0000000000002274
 21
290.0
 31
0.0
  0
LINE
  5
64B1
330
18
100
AcDbEntity
  8
0
 62
     7
 48
5.0
100
AcDbLine
 39
4.0
 10
49.94750515634314
 20
27.8953239783782
 30
0.0
 11
55.27930887205229
 21
29.22827490730549
 31
0.0
  0
MTEXT
  5
64B2
330
18
100
AcDbEntity
  8
0
100
AcDbMText
 10
15.97866977158742
 20
9.63134010478825
 30
0.0
 40
6.0
 41
0.0
 71
     1
 72
     5
  1
\Ftxt.shx,bigfont.shx|c128;日機株式会社
  7
LKK
 73
     1
 44
1.0
  0
LINE
  5
64B3
330
18
100
AcDbEntity
  8
図框線
100
AcDbLine
 10
0.0
 20
0.0
 30
0.0
 11
197.9999999999997
 21
0.0
 31
0.0
  0
LINE
  5
64B7
330
18
100
AcDbEntity
  8
図框線
100
AcDbLine
 10
0.0
 20
12.0
 30
0.0
 11
197.9999999999997
 21
12.00000000000005
 31
0.0
  0
LINE
  5
64B8
330
18
100
AcDbEntity
  8
図框線
100
AcDbLine
 10
0.0
 20
22.0
 30
0.0
 11
96.0
 21
22.0
 31
0.0
  0
LINE
  5
64B9
330
18
100
AcDbEntity
  8
図框線
100
AcDbLine
 10
0.0
 20
32.0
 30
0.0
 11
197.9999999999997
 21
32.0
 31
0.0
  0
LINE
  5
64BA
330
18
100
AcDbEntity
  8
図框線
100
AcDbLine
 10
12.0
 20
32.0
 30
0.0
 11
12.0
 21
12.0
 31
0.0
  0
LINE
  5
64BB
330
18
100
AcDbEntity
  8
図框線
100
AcDbLine
 10
32.0
 20
32.0
 30
0.0
 11
32.0
 21
12.0
 31
0.0
  0
MTEXT
  5
64BC
330
18
100
AcDbEntity
  8
0
100
AcDbMText
 10
2.949444248820782
 20
29.04715033351227
 30
0.0
 40
4.5
 41
0.0
 71
     1
 72
     5
  1
\Ftxt.shx,bigfont.shx|c128;日 付
  7
JL
 73
     1
 44
1.0
  0
MTEXT
  5
64BD
330
18
100
AcDbEntity
  8
0
100
AcDbMText
 10
3.095712364910014
 20
19.83833899470915
 30
0.0
 40
4.5
 41
0.0
 71
     1
 72
     5
  1
\Ftxt.shx,bigfont.shx|c128;製 図
  7
JL
 73
     1
 44
1.0
  0
LINE
  5
64C0
330
18
100
AcDbEntity
  8
0
 62
     7
370
    25
100
AcDbLine
 10
55.27930887205229
 20
23.89647119159633
 30
0.0
 11
55.27930887205229
 21
29.22827490730549
 31
0.0
  0
MTEXT
  5
64C1
330
18
100
AcDbEntity
  8
0
100
AcDbMText
 10
66.70254067332553
 20
29.42231870267847
 30
0.0
 40
4.5
 41
0.0
 71
     1
 72
     5
  1
\Ftxt.shx,bigfont.shx|c128;尺 度
  7
JL
 73
     1
 44
1.0
  0
LINE
  5
64C2
330
18
100
AcDbEntity
  8
図框線
100
AcDbLine
 10
64.0
 20
32.0
 30
0.0
 11
64.0
 21
12.0
 31
0.0
  0
LINE
  5
64C3
330
18
100
AcDbEntity
  8
0
 62
     7
370
    25
100
AcDbLine
 10
41.2833241183157
 20
23.23894871736115
 30
0.0
 11
41.2833241183157
 21
29.67466750005656
 31
0.0
  0
CIRCLE
  5
64C4
330
18
100
AcDbEntity
  8
0
 62
     7
100
AcDbCircle
 10
41.2833241183157
 20
26.5623730494508
 30
0.0
 40
2.665901857854641
  0
LINE
  5
64C6
330
18
100
AcDbEntity
  8
0
 62
     7
370
    25
100
AcDbLine
 10
49.18030281106076
 20
26.56237304945091
 30
0.0
 11
55.75797321903156
 21
26.56237304945091
 31
0.0
  0
LINE
  5
64C7
330
18
100
AcDbEntity
  8
0
 62
     7
100
AcDbLine
 10
49.94750515634314
 20
25.22942212052362
 30
0.0
 11
55.27930887205229
 21
23.89647119159633
 31
0.0
  0
LINE
  5
64C8
330
18
100
AcDbEntity
  8
図框線
100
AcDbLine
 10
44.0
 20
21.99999999999989
 30
0.0
 11
44.0
 21
12.0
 31
0.0
  0
LINE
  5
64C9
330
18
100
AcDbEntity
  8
0
 62
     7
370
    25
100
AcDbLine
 10
37.95172532843935
 20
26.5623730494508
 30
0.0
 11
44.81391594676916
 21
26.56237304945091
 31
0.0
  0
CIRCLE
  5
64CA
330
18
100
AcDbEntity
  8
0
 62
     7
100
AcDbCircle
 10
41.2833241183157
 20
26.5623730494508
 30
0.0
 40
1.33295092892732
  0
MTEXT
  5
64CB
330
18
100
AcDbEntity
  8
0
100
AcDbMText
 10
35.12086518039769
 20
19.39982343168049
 30
0.0
 40
4.5
 41
0.0
 71
     1
 72
     5
  1
\Ftxt.shx,bigfont.shx|c128;検 図
  7
JL
 73
     1
 44
1.0
  0
LINE
  5
64CC
330
18
100
AcDbEntity
  8
0
 62
     7
370
    25
100
AcDbLine
 10
49.94750515634314
 20
25.22942212052362
 30
0.0
 11
49.94750515634314
 21
27.8953239783782
 31
0.0
  0
MTEXT
  5
64CD
330
18
100
AcDbEntity
  8
0
100
AcDbMText
 10
66.99507418337498
 20
19.62882052001464
 30
0.0
 40
4.5
 41
0.0
 71
     1
 72
     5
  1
\Ftxt.shx,bigfont.shx|c128;承 認
  7
JL
 73
     1
 44
1.0
  0
LINE
  5
64CE
330
18
100
AcDbEntity
  8
図框線
100
AcDbLine
 10
132.615790078639
 20
43.13491348924492
 30
0.0
 11
192.615790078639
 21
43.13491348924481
 31
0.0
  0
LINE
  5
64CF
330
18
100
AcDbEntity
  8
図框線
100
AcDbLine
 10
132.615790078639
 20
50.33491348924497
 30
0.0
 11
192.615790078639
 21
50.33491348924497
 31
0.0
  0
LINE
  5
64D0
330
18
100
AcDbEntity
  8
図框線
100
AcDbLine
 10
132.615790078639
 20
57.5349134892449
 30
0.0
 11
192.615790078639
 21
57.53491348924478
 31
0.0
  0
LINE
  5
64D1
330
18
100
AcDbEntity
  8
図框線
100
AcDbLine
 10
132.615790078639
 20
64.73491348924494
 30
0.0
 11
192.615790078639
 21
64.73491348924483
 31
0.0
  0
LINE
  5
64D2
330
18
100
AcDbEntity
  8
図框線
100
AcDbLine
 10
132.615790078639
 20
35.93491348924488
 30
0.0
 11
192.615790078639
 21
35.93491348924488
 31
0.0
  0
MTEXT
  5
64D3
330
18
100
AcDbEntity
  8
0
 62
     7
 48
2.0
100
AcDbMText
 10
162.5011900445104
 20
65.52808189982909
 30
0.0
 40
4.8
 41
0.0
 71
     5
 72
     1
  1
\P\Ftxt.shx,bigfont.shx|c128;諸　　　　元
 73
     1
 44
1.0
  0
LINE
  5
64D5
330
18
100
AcDbEntity
  8
図框線
100
AcDbLine
 10
132.615790078639
 20
64.73491348924483
 30
0.0
 11
132.615790078639
 21
35.93491348924488
 31
0.0
  0
MTEXT
  5
64D6
330
18
100
AcDbEntity
  8
0
100
AcDbMText
 10
136.1382258923192
 20
56.00840432212407
 30
0.0
 40
4.4
 41
163.916286842249
 71
     1
 72
     5
  1
\Ftxt.shx,bigfont.shx|c128;熱　処　理
  7
JL
 73
     1
 44
1.0
  0
LINE
  5
64D7
330
18
100
AcDbEntity
  8
図框線
100
AcDbLine
 10
156.615790078639
 20
57.53491348924478
 30
0.0
 11
156.615790078639
 21
35.93491348924488
 31
0.0
  0
MTEXT
  5
64D8
330
18
100
AcDbEntity
  8
0
100
AcDbMText
 10
97.65702556263818
 20
11.15332144655735
 30
0.0
 40
5.0
 41
0.0
 71
     1
 72
     5
  1
\Ftxt.shx,bigfont.shx|c128;図  面  番  号
  7
JL
 73
     1
 44
1.0
  0
MTEXT
  5
64D9
330
18
100
AcDbEntity
  8
0
 62
     7
 48
2.0
100
AcDbMText
 10
121.8260850653862
 20
22.29156825453561
 30
0.0
 40
4.5
 41
0.0
 71
     5
 72
     1
  1
\P\Ftxt.shx,bigfont.shx|c128;    精密ロックナット
 73
     1
 44
1.0
  0
MTEXT
  5
64DA
330
18
100
AcDbEntity
  8
0
370
    25
100
AcDbMText
 10
98.8002923053598
 20
29.80688815403971
 30
0.0
 40
5.0
 41
0.0
 71
     1
 72
     5
  1
\Ftxt.shx,bigfont.shx|c128;品  名
  7
JL
 73
     1
 44
1.0
  0
LINE
  5
64DB
330
18
100
AcDbEntity
  8
図框線
100
AcDbLine
 10
96.0
 20
32.0
 30
0.0
 11
96.0
 21
0.19104161092514
 31
0.0
  0
LINE
  5
64DC
330
18
100
AcDbEntity
  8
図框線
100
AcDbLine
 10
76.0
 20
32.0
 30
0.0
 11
76.0
 21
12.0
 31
0.0
  0
LINE
  5
64DE
330
18
100
AcDbEntity
  8
図框線
100
AcDbLine
 10
153.2235601908683
 20
32.0
 30
0.0
 11
153.2235601908683
 21
12.0
 31
0.0
  0
MTEXT
  5
64DF
330
18
100
AcDbEntity
  8
0
100
AcDbMText
 10
135.85795152494
 20
49.00617587486397
 30
0.0
 40
4.4
 41
163.6058628849672
 71
     1
 72
     5
  1
\Ftxt.shx,bigfont.shx|c128;表 面 処 理
  7
JL
 73
     1
 44
1.0
  0
MTEXT
  5
64E0
330
18
100
AcDbEntity
  8
0
100
AcDbMText
 10
136.148017373375
 20
41.71770302125605
 30
0.0
 40
4.4
 41
166.1718
 71
     1
 72
     5
  1
\Ftxt.shx,bigfont.shx|c128;等     　級
  7
JL
 73
     1
 44
1.0
  0
LINE
  5
64E1
330
18
100
AcDbEntity
  8
図框線
100
AcDbLine
 10
192.615790078639
 20
64.73491348924483
 30
0.0
 11
192.615790078639
 21
35.93491348924499
 31
0.0
  0
MTEXT
  5
64E2
330
18
100
AcDbEntity
  8
0
100
AcDbMText
 10
161.3627933880816
 20
55.83344641471445
 30
0.0
 40
4.4
 41
291.8960056857887
 71
     1
 72
     5
  1
\Ftxt.shx,bigfont.shx|c128;調質　HRC30%%d%%p２%%d
  7
JL
 73
     1
 44
1.0
  0
MTEXT
  5
64E4
330
18
100
AcDbEntity
  8
0
370
    25
100
AcDbMText
 10
157.2494735287423
 20
29.58569764093568
 30
0.0
 40
5.0
 41
0.0
 71
     1
 72
     5
  1
\Ftxt.shx,bigfont.shx|c128;型  番
  7
JL
 73
     1
 44
1.0
  0
MTEXT
  5
64E5
330
18
100
AcDbEntity
  8
0
100
AcDbMText
 10
172.787265122339
 20
11.23700203391422
 30
0.0
 40
5.0
 41
0.0
 71
     1
 72
     5
  1
\Ftxt.shx,bigfont.shx|c128;変更
  7
JL
 73
     1
 44
1.0
  0
LINE
  5
64E6
330
18
100
AcDbEntity
  8
図框線
100
AcDbLine
 10
171.0
 20
12.00907027842731
 30
0.0
 11
171.0
 21
0.0
 31
0.0
  0
MTEXT
  5
64E7
330
18
100
AcDbEntity
  8
0
100
AcDbMText
 10
161.623432389518
 20
41.7183135927072
 30
0.0
 40
4.4
 41
290.783364796891
 71
     1
 72
     5
  1
\Ftxt.shx,bigfont.shx|c128;ＩＳＯ - ４Ｈ
  7
JL
 73
     1
 44
1.0
  0
MTEXT
  5
64E8
330
18
100
AcDbEntity
  8
0
100
AcDbMText
 10
161.7978935876483
 20
48.65328293790913
 30
0.0
 40
4.4
 41
291.4548
 71
     1
 72
     5
  1
\Ftxt.shx,bigfont.shx|c128;黒  　    染
  7
JL
 73
     1
 44
1.0
  0
MTEXT
  5
64EA
330
18
100
AcDbEntity
  8
0
100
AcDbMText
 10
60.06318600759005
 20
270.095850257545
 30
0.0
 40
5.0
 41
0.0
 71
     1
 72
     5
  1
\Ftxt.shx,bigfont.shx|c128;M8X1.25-6L
  7
JL
 73
     1
 44
1.0
  0
MTEXT
  5
64EB
330
18
100
AcDbEntity
  8
0
100
AcDbMText
 10
60.06318600759005
 20
262.095850257545
 30
0.0
 40
5.0
 41
0.0
 71
     1
 72
     5
  1
\Ftxt.shx,bigfont.shx|c128;%%c7X6L
  7
JL
 73
     1
 44
1.0
  0
LINE
  5
64EC
330
18
100
AcDbEntity
  8
図框線
100
AcDbLine
 10
-0.0000000000002274
 20
263.9999999999999
 30
0.0
 11
197.9999999999997
 21
263.9999999999999
 31
0.0
  0
LINE
  5
64ED
330
18
100
AcDbEntity
  8
図框線
100
AcDbLine
 10
-0.0000000000002274
 20
271.9999999999999
 30
0.0
 11
197.9999999999997
 21
271.9999999999999
 31
0.0
  0
LINE
  5
64EE
330
18
100
AcDbEntity
  8
図框線
 62
     9
100
AcDbLine
 10
-0.0000000000002274
 20
279.9999999999999
 30
0.0
 11
197.9999999999997
 21
279.9999999999999
 31
0.0
  0
LINE
  5
64EF
330
18
100
AcDbEntity
  8
図框線
100
AcDbLine
 10
-0.0000000000002274
 20
290.0
 30
0.0
 11
197.9999999999997
 21
290.0
 31
0.0
  0
MTEXT
  5
64F0
330
18
100
AcDbEntity
  8
0
100
AcDbMText
 10
59.41630259681733
 20
287.3155952051104
 30
0.0
 40
5.0
 41
0.0
 71
     1
 72
     5
  1
\Ftxt.shx,bigfont.shx|c128;図    番 / 規　　格
  7
JL
 73
     1
 44
1.0
  0
LINE
  5
64F1
330
18
100
AcDbEntity
  8
図框線
100
AcDbLine
 10
-0.0000000000002274
 20
263.9999999999999
 30
0.0
 11
197.9999999999997
 21
263.9999999999999
 31
0.0
  0
LINE
  5
64F2
330
18
100
AcDbEntity
  8
図框線
100
AcDbLine
 10
-0.0000000000002274
 20
255.9999999999999
 30
0.0
 11
197.9999999999997
 21
255.9999999999999
 31
0.0
  0
MTEXT
  5
64F3
330
18
100
AcDbEntity
  8
0
100
AcDbMText
 10
22.01434914141237
 20
286.7888025819827
 30
0.0
 40
5.0
 41
0.0
 71
     1
 72
     5
  1
\Ftxt.shx,bigfont.shx|c128;品　          名
  7
JL
 73
     1
 44
1.0
  0
MTEXT
  5
64F4
330
18
100
AcDbEntity
  8
0
100
AcDbMText
 10
18.8650376130422
 20
270.5298549795346
 30
0.0
 40
6.0
 41
0.0
 71
     1
 72
     5
  1
\Ftxt.shx,bigfont.shx|c128;セットスクリュ-
  7
JL
 73
     1
 44
1.0
  0
MTEXT
  5
64F5
330
18
100
AcDbEntity
  8
0
100
AcDbMText
 10
18.66941459004738
 20
278.3660650505403
 30
0.0
 40
6.0
 41
0.0
 71
     1
 72
     5
  1
\Ftxt.shx,bigfont.shx|c128;ロックナット　  
  7
JL
 73
     1
 44
1.0
  0
MTEXT
  5
64F6
330
18
100
AcDbEntity
  8
0
100
AcDbMText
 10
18.8650376130422
 20
262.5298549795346
 30
0.0
 40
6.0
 41
0.0
 71
     1
 72
     5
  1
\Ftxt.shx,bigfont.shx|c128;ロックピン 
  7
JL
 73
     1
 44
1.0
  0
LINE
  5
64F7
330
18
100
AcDbEntity
  8
図框線
100
AcDbLine
 10
14.99999999999977
 20
289.9999999999998
 30
0.0
 11
15.00000000000011
 21
255.9999999999999
 31
0.0
  0
LINE
  5
64F8
330
18
100
AcDbEntity
  8
0
100
AcDbLine
 10
14.99999999999977
 20
289.9999999999998
 30
0.0
 11
14.99999999999977
 21
263.9999999999999
 31
0.0
  0
MTEXT
  5
64F9
330
18
100
AcDbEntity
  8
0
100
AcDbMText
 10
6.215289087390488
 20
262.7436409356394
 30
0.0
 40
5.0
 41
0.0
 71
     1
 72
     5
  1
\Ftxt.shx,bigfont.shx|c128;3
  7
JL
 73
     1
 44
1.0
  0
MTEXT
  5
64FA
330
18
100
AcDbEntity
  8
0
100
AcDbMText
 10
7.101957026666809
 20
278.5798510066454
 30
0.0
 40
5.0
 41
0.0
 71
     1
 72
     5
  1
\Ftxt.shx,bigfont.shx|c128;1
  7
JL
 73
     1
 44
1.0
  0
MTEXT
  5
64FB
330
18
100
AcDbEntity
  8
0
100
AcDbMText
 10
6.215289087390488
 20
270.7436409356394
 30
0.0
 40
5.0
 41
0.0
 71
     1
 72
     5
  1
\Ftxt.shx,bigfont.shx|c128;2
  7
JL
 73
     1
 44
1.0
  0
MTEXT
  5
64FC
330
18
100
AcDbEntity
  8
0
100
AcDbMText
 10
2.209083991842362
 20
287.0885254164057
 30
0.0
 40
5.0
 41
0.0
 71
     1
 72
     5
  1
\Ftxt.shx,bigfont.shx|c128;照   号
  7
JL
 73
     1
 44
1.0
  0
LINE
  5
64FD
330
18
100
AcDbEntity
  8
図框線
 62
     9
100
AcDbLine
 10
54.99999999999977
 20
289.9999999999998
 30
0.0
 11
54.99999999999977
 21
256.0
 31
0.0
  0
MTEXT
  5
64FE
330
18
100
AcDbEntity
  8
0
100
AcDbMText
 10
146.3353765925378
 20
287.5804049742369
 30
0.0
 40
5.0
 41
0.0
 71
     1
 72
     5
  1
\Ftxt.shx,bigfont.shx|c128;備           考
  7
JL
 73
     1
 44
1.0
  0
LINE
  5
64FF
330
18
100
AcDbEntity
  8
図框線
 62
     9
100
AcDbLine
 10
94.99999999999976
 20
289.9999999999999
 30
0.0
 11
94.99999999999976
 21
255.9999999999999
 31
0.0
  0
MTEXT
  5
6500
330
18
100
AcDbEntity
  8
0
100
AcDbMText
 10
96.78387029776377
 20
262.3660650505403
 30
0.0
 40
5.0
 41
0.0
 71
     1
 72
     5
  1
\Ftxt.shx,bigfont.shx|c128;C3604
  7
JL
 73
     1
 44
1.0
  0
MTEXT
  5
6501
330
18
100
AcDbEntity
  8
0
100
AcDbMText
 10
96.78387029776377
 20
278.3660650505403
 30
0.0
 40
5.0
 41
0.0
 71
     1
 72
     5
  1
\Ftxt.shx,bigfont.shx|c128;SCM-440
  7
JL
 73
     1
 44
1.0
  0
MTEXT
  5
6502
330
18
100
AcDbEntity
  8
0
100
AcDbMText
 10
96.78387029776377
 20
270.3660650505403
 30
0.0
 40
5.0
 41
0.0
 71
     1
 72
     5
  1
\Ftxt.shx,bigfont.shx|c128;SCM435
  7
JL
 73
     1
 44
1.0
  0
MTEXT
  5
6503
330
18
100
AcDbEntity
  8
0
100
AcDbMText
 10
99.80032499445407
 20
287.5804049742369
 30
0.0
 40
5.0
 41
0.0
 71
     1
 72
     5
  1
\Ftxt.shx,bigfont.shx|c128;材　質
  7
JL
 73
     1
 44
1.0
  0
LINE
  5
6504
330
18
100
AcDbEntity
  8
図框線
 62
     9
100
AcDbLine
 10
114.9999999999997
 20
289.9999999999999
 30
0.0
 11
114.9999999999997
 21
255.9999999999999
 31
0.0
  0
LINE
  5
6505
330
18
100
AcDbEntity
  8
図框線
100
AcDbLine
 10
129.9999999999998
 20
289.9999999999999
 30
0.0
 11
129.9999999999998
 21
255.9999999999999
 31
0.0
  0
MTEXT
  5
6506
330
18
100
AcDbEntity
  8
0
100
AcDbMText
 10
121.2152890873904
 20
262.7436409356394
 30
0.0
 40
5.0
 41
0.0
 71
     1
 72
     5
  1
\Ftxt.shx,bigfont.shx|c128;3
  7
JL
 73
     1
 44
1.0
  0
MTEXT
  5
6507
330
18
100
AcDbEntity
  8
0
100
AcDbMText
 10
122.1019570266667
 20
278.5798510066454
 30
0.0
 40
5.0
 41
0.0
 71
     1
 72
     5
  1
\Ftxt.shx,bigfont.shx|c128;1
  7
JL
 73
     1
 44
1.0
  0
MTEXT
  5
6508
330
18
100
AcDbEntity
  8
0
100
AcDbMText
 10
121.2152890873904
 20
270.7436409356394
 30
0.0
 40
5.0
 41
0.0
 71
     1
 72
     5
  1
\Ftxt.shx,bigfont.shx|c128;3
  7
JL
 73
     1
 44
1.0
  0
MTEXT
  5
6509
330
18
100
AcDbEntity
  8
0
100
AcDbMText
 10
116.433740311917
 20
287.5804049742369
 30
0.0
 40
5.0
 41
0.0
 71
     1
 72
     5
  1
\Ftxt.shx,bigfont.shx|c128;数   量
  7
JL
 73
     1
 44
1.0
  0
DIMENSION
  5
6770
330
18
100
AcDbEntity
  8
0
100
AcDbDimension
  2
*D1
 10
117.4192232933461
 20
82.8283890415887
 30
0.0
 11
92.41922329334602
 21
82.8283890415887
 31
0.0
 12
-195.2928372131205
 22
0.0
 32
0.0
 70
   160
  1
M<>X1.5P
 71
     5
 42
-1.0
  3
A
100
AcDbAlignedDimension
 13
67.41922329334613
 23
103.3909279972873
 33
0.0
 14
117.4192232933461
 24
103.3909279972872
 34
0.0
100
AcDbRotatedDimension
  0
DIMENSION
  5
677F
330
18
100
AcDbEntity
  8
0
100
AcDbDimension
  2
*D2
 10
60.01922329334576
 20
159.3029840308047
 30
0.0
 11
65.01922329334576
 21
159.3029840308047
 31
0.0
 12
-0.0720244044883884
 22
-2.128589167921859
 32
0.0
 70
   160
 71
     5
 42
-1.0
  3
A
100
AcDbAlignedDimension
 13
57.55758047368487
 23
197.5881645850702
 33
0.0
 14
60.01922329334576
 24
197.5881645850702
 34
0.0
100
AcDbRotatedDimension
  0
DIMENSION
  5
6864
330
18
100
AcDbEntity
  8
DIM
100
AcDbDimension
  2
*D3
 10
46.07032689385704
 20
203.5881645850703
 30
0.0
 11
45.19592285300126
 21
213.2564526965706
 31
0.0
 12
-209.9132581041491
 22
19.85251099616968
 32
0.0
 70
   160
  1
<>      (3等分)
 71
     5
 42
-1.0
  3
A
100
AcDbAlignedDimension
 13
57.47481308963386
 23
197.5881645850702
 33
0.0
 14
57.47481308963386
 24
203.5881645850703
 34
0.0
 50
90.0
100
AcDbRotatedDimension
  0
LINE
  5
689B
330
18
100
AcDbEntity
  8
DIM
 62
     6
100
AcDbLine
 10
46.07032689385704
 20
206.5881645850703
 30
0.0
 11
46.07032689385704
 21
226.5044734474647
 31
0.0
  0
LINE
  5
6AF0
330
18
100
AcDbEntity
  8
DIM
 62
     6
100
AcDbLine
 10
65.01922329334576
 20
159.3029840308047
 30
0.0
 11
76.8224466041749
 21
159.3029840308047
 31
0.0
  0
LEADER
  5
6B85
330
18
100
AcDbEntity
  8
DIM
 62
     6
100
AcDbLeader
  3
A
 73
     0
 74
     0
 75
     1
 40
3.0
 41
8.0
 76
     3
 10
67.54422329334613
 20
121.040927997287
 30
0.0
 10
70.11680368919724
 20
128.8771546113486
 30
0.0
 10
72.61680368919724
 20
128.8771546113486
 30
0.0
340
6B86
  0
MTEXT
  5
6B86
102
{ACAD_REACTORS
330
6B85
102
}
330
18
100
AcDbEntity
  8
DIM
 62
     3
100
AcDbMText
 10
73.61680368919724
 20
131.3771546113486
 30
0.0
 40
3.0
 41
0.0
 71
     4
 72
     1
  1
\A1;C1.5
  7
TXT
 73
     1
 44
1.0
  0
DIMENSION
  5
6C92
330
18
100
AcDbEntity
  8
DIM
100
AcDbDimension
  2
*D4
 10
124.4192232933463
 20
140.9821512154426
 30
0.0
 11
92.41922329334608
 21
143.4821512154426
 31
0.0
 12
-195.2928372131205
 22
0.0
 32
0.0
 70
    32
  1
%%c<>%%p0.5
 71
     5
 42
-1.0
  3
A
100
AcDbAlignedDimension
 13
60.41922329334579
 23
122.7909279972871
 33
0.0
 14
124.4192232933463
 24
122.7909279972871
 34
0.0
100
AcDbRotatedDimension
  0
DIMENSION
  5
6CAA
330
18
100
AcDbEntity
  8
DIM
100
AcDbDimension
  2
*D5
 10
127.4192232933463
 20
146.4896213058576
 30
0.0
 11
88.3501671654322
 21
147.3157420557428
 31
0.0
 12
-195.2928372131205
 22
0.0
 32
0.0
 70
   160
  1
%%c<>
 71
     5
 42
-1.0
  3
A
100
AcDbAlignedDimension
 13
57.41922329334579
 23
120.7909279972871
 33
0.0
 14
127.4192232933463
 24
120.7909279972871
 34
0.0
100
AcDbRotatedDimension
  0
DIMENSION
  5
6F74
330
18
100
AcDbEntity
  8
0
100
AcDbDimension
  2
*D6
 10
151.5655141973451
 20
86.18270220027628
 30
0.0
 11
162.0615865723575
 21
104.3624328337178
 31
0.0
 12
-197.8132581041485
 22
13.46409759850763
 32
0.0
 70
   161
  1
9%%p0.5
 71
     5
 42
-1.0
  3
A
100
AcDbAlignedDimension
 13
127.4192232933463
 23
110.7930027282554
 33
0.0
 14
122.7992232933462
 24
102.7909279972871
 34
0.0
  0
MTEXT
  5
72FF
102
{ACAD_REACTORS
330
7300
102
}
330
18
100
AcDbEntity
  8
DIM
 62
     3
100
AcDbMText
 10
106.3446783110542
 20
95.71107010076955
 30
0.0
 40
3.0
 41
0.0
 71
     6
 72
     1
  1
\A1;C1.5
  7
TXT
 73
     1
 44
1.0
  0
LEADER
  5
7300
330
18
100
AcDbEntity
  8
DIM
 62
     6
100
AcDbLeader
  3
A
 73
     0
 75
     1
 40
3.0
 41
8.0
 76
     3
 10
117.2942232933463
 20
103.5409279972872
 30
0.0
 10
109.8446783110542
 20
93.21107010076955
 30
0.0
 10
107.3446783110542
 20
93.21107010076955
 30
0.0
340
72FF
  0
MTEXT
  5
7303
102
{ACAD_REACTORS
330
7304
102
}
330
18
100
AcDbEntity
  8
DIM
 62
     3
100
AcDbMText
 10
139.9819416012988
 20
136.9558014499094
 30
0.0
 40
3.0
 41
0.0
 71
     4
 72
     1
  1
\A1;R1.5
  7
TXT
 73
     1
 44
1.0
  0
LEADER
  5
7304
330
18
100
AcDbEntity
  8
DIM
 62
     6
100
AcDbLeader
  3
A
 73
     0
 74
     0
 75
     1
 40
3.0
 41
8.0
 76
     3
 10
126.9798834651261
 20
121.8515881690669
 30
0.0
 10
136.4819416012988
 20
134.4558014499094
 30
0.0
 10
138.9819416012988
 20
134.4558014499094
 30
0.0
340
7303
1001
ACAD
1000
DSTYLE
1002
{
1070
    45
1040
0.0
1002
}
  0
DIMENSION
  5
74C6
330
18
100
AcDbEntity
  8
0
100
AcDbDimension
  2
*D7
 10
50.47032689385702
 20
122.2909279972871
 30
0.0
 11
50.47032689385702
 21
132.9509252584372
 31
0.0
 12
-195.2928372131205
 22
0.0
 32
0.0
 70
   160
 71
     5
 42
-1.0
  3
A
100
AcDbAlignedDimension
 13
60.41922329334579
 23
122.7909279972871
 33
0.0
 14
58.9192232933458
 24
122.2909279972871
 34
0.0
 50
90.0
100
AcDbRotatedDimension
  0
DIMENSION
  5
750D
330
18
100
AcDbEntity
  8
DIM
100
AcDbDimension
  2
*D8
 10
117.919223293346
 20
135.139056403814
 30
0.0
 11
92.41922329334613
 21
137.639056403814
 31
0.0
 12
-195.2928372131205
 22
0.0
 32
0.0
 70
    32
  1
%%c<>
 71
     5
 42
-1.0
  3
A
100
AcDbAlignedDimension
 13
66.91922329334613
 23
122.7909279972871
 33
0.0
 14
117.919223293346
 24
122.7909279972871
 34
0.0
100
AcDbRotatedDimension
  0
DIMENSION
  5
7568
330
18
100
AcDbEntity
  8
DIM
100
AcDbDimension
  2
*D9
 10
142.3055498688085
 20
106.8318903494806
 30
0.0
 11
139.8055498688085
 21
114.8114091733839
 31
0.0
 12
-197.8132581041485
 22
13.46409759850763
 32
0.0
 70
    32
 71
     5
 42
-1.0
  3
A
100
AcDbAlignedDimension
 13
124.3822739951703
 23
122.7909279972871
 33
0.0
 14
125.1322739951703
 24
106.8318903494806
 34
0.0
 50
90.0
100
AcDbRotatedDimension
  0
DIMENSION
  5
7575
330
18
100
AcDbEntity
  8
DIM
100
AcDbDimension
  2
*D10
 10
152.4545707951967
 20
122.7909279972871
 30
0.0
 11
149.9545707951967
 21
112.7909279972871
 31
0.0
 12
-197.8132581041485
 22
13.46409759850763
 32
0.0
 70
    32
  1
<>%%p0.2
 71
     5
 42
-1.0
  3
A
100
AcDbAlignedDimension
 13
122.7992232933462
 23
102.7909279972871
 33
0.0
 14
124.3822739951703
 24
122.7909279972871
 34
0.0
 50
90.0
100
AcDbRotatedDimension
  0
DIMENSION
  5
7AD6
330
18
100
AcDbEntity
  8
DIM
100
AcDbDimension
  2
*D11
 10
101.6369583998263
 20
122.7909279972871
 30
0.0
 11
101.6369583998263
 21
130.3767416849594
 31
0.0
 12
-191.0575369942818
 22
-1.04279418469818
 32
0.0
 70
   160
 71
     5
 42
-1.0
  3
A
100
AcDbAlignedDimension
 13
105.419223293346
 23
121.7909279972871
 33
0.0
 14
105.419223293346
 24
122.7909279972871
 34
0.0
 50
90.0
100
AcDbRotatedDimension
  0
LINE
  5
8182
330
18
100
AcDbEntity
  8
本体内線
  6
HIDDEN
 48
0.2
100
AcDbLine
 10
116.3370513719988
 20
204.5881645850695
 30
0.0
 11
127.1721301390861
 21
204.5881645850695
 31
0.0
  0
LINE
  5
8183
330
18
100
AcDbEntity
  8
本体内線
  6
HIDDEN
 48
0.2
100
AcDbLine
 10
116.3370513719987
 20
196.5881645850695
 30
0.0
 11
127.1899005947731
 21
196.5881645850695
 31
0.0
  0
LINE
  5
82FD
330
18
100
AcDbEntity
  8
本体内線
  6
HIDDEN
 48
0.2
100
AcDbLine
 10
116.4296897611177
 20
203.9881645850695
 30
0.0
 11
127.2536889846694
 21
203.9881645850696
 31
0.0
  0
LINE
  5
82FE
330
18
100
AcDbEntity
  8
本体内線
  6
HIDDEN
 48
0.2
100
AcDbLine
 10
116.4296897611177
 20
197.1881645850695
 30
0.0
 11
127.2536889846693
 21
197.1881645850694
 31
0.0
  0
DIMENSION
  5
8546
330
18
100
AcDbEntity
  8
DIM
100
AcDbDimension
  2
*D12
 10
124.4192232933463
 20
122.7909279972871
 30
0.0
 11
167.9277277105757
 21
104.0620180771935
 31
0.0
 12
-197.8132581041485
 22
13.46409759850763
 32
0.0
 70
    34
  1
30%%d
 71
     5
 42
-1.0
  3
A
100
AcDb2LineAngularDimension
 13
126.8558672582006
 23
105.8528220317871
 33
0.0
 14
117.2283985324073
 24
111.3216004328101
 34
0.0
 15
72.41922329334631
 25
122.7909279972871
 35
0.0
 16
168.4078151204525
 26
97.1913564442001
 36
0.0
1001
ACAD
1000
DSTYLE
1002
{
1070
    79
1070
     2
1070
   179
1070
     1
1002
}
  0
LINE
  5
8A35
330
18
100
AcDbEntity
  8
中心線
  6
CENTER
 48
0.15
100
AcDbLine
 10
92.41922329334608
 20
99.85148638937268
 30
0.0
 11
92.41922329334608
 21
125.6291933850002
 31
0.0
  0
ARC
  5
8A3E
330
18
100
AcDbEntity
  8
本体外線
100
AcDbCircle
 10
92.41922329334579
 20
200.5881645850699
 30
0.0
 40
35.0
100
AcDbArc
 50
64.91710033552833
 51
175.0828996644706
  0
CIRCLE
  5
8A3F
330
18
100
AcDbEntity
  8
本体外線
100
AcDbCircle
 10
92.41922329334579
 20
200.5881645850699
 30
0.0
 40
32.0
  0
ARC
  5
8A40
330
18
100
AcDbEntity
  8
0
100
AcDbCircle
 10
92.41922329334579
 20
200.5881645850699
 30
0.0
 40
25.0
100
AcDbArc
 50
170.5650933999695
 51
106.6342730297908
  0
CIRCLE
  5
8A41
330
18
100
AcDbEntity
  8
本体外線
100
AcDbCircle
 10
92.41922329334579
 20
200.5881645850699
 30
0.0
 40
24.25
  0
LINE
  5
8A42
330
18
100
AcDbEntity
  8
中心線
  6
CENTER
 48
0.15
100
AcDbLine
 10
92.41922329334608
 20
237.9223532501894
 30
0.0
 11
92.41922329334546
 21
163.5881645850698
 31
0.0
  0
LINE
  5
8A43
330
18
100
AcDbEntity
  8
本体外線
100
AcDbLine
 10
106.0211470819927
 20
230.1473876676856
 30
0.0
 11
111.2172995046993
 21
227.1473876676855
 31
0.0
  0
LINE
  5
8A44
330
18
100
AcDbEntity
  8
本体外線
 48
0.08
100
AcDbLine
 10
112.452895278862
 20
229.2875023261527
 30
0.0
 11
111.2172995046993
 21
227.1473876676856
 31
0.0
  0
LINE
  5
8A45
330
18
100
AcDbEntity
  8
本体外線
 48
0.08
100
AcDbLine
 10
107.2567428561554
 20
232.2875023261528
 30
0.0
 11
106.0211470819927
 21
230.1473876676856
 31
0.0
  0
LINE
  5
8A48
330
18
100
AcDbEntity
  8
中心線
  6
CENTER
 48
0.15
100
AcDbLine
 10
55.41922329334574
 20
200.5881645850702
 30
0.0
 11
129.4192232933458
 21
200.5881645850694
 31
0.0
  0
LINE
  5
8A49
330
18
100
AcDbEntity
  8
本体外線
100
AcDbLine
 10
60.01922329334576
 20
197.5881645850702
 30
0.0
 11
60.01922329334582
 21
203.5881645850702
 31
0.0
  0
LINE
  5
8A4A
330
18
100
AcDbEntity
  8
本体外線
 48
0.08
100
AcDbLine
 10
57.54803174502041
 20
203.5881645850702
 30
0.0
 11
60.01922329334576
 21
203.5881645850702
 31
0.0
  0
LINE
  5
8A4B
330
18
100
AcDbEntity
  8
本体外線
 48
0.08
100
AcDbLine
 10
57.54803174502035
 20
197.5881645850702
 30
0.0
 11
60.01922329334576
 21
197.5881645850702
 31
0.0
  0
LINE
  5
8A4C
330
18
100
AcDbEntity
  8
中心線
  6
CENTER
 48
0.15
100
AcDbLine
 10
73.91922329334557
 20
168.5452246450457
 30
0.0
 11
81.29422329334568
 21
181.3190993508662
 31
0.0
  0
LINE
  5
8A4D
330
18
100
AcDbEntity
  8
本体外線
100
AcDbLine
 10
111.2172995046989
 20
174.0289415024539
 30
0.0
 11
106.0211470819922
 21
171.0289415024539
 31
0.0
  0
LINE
  5
8A4E
330
18
100
AcDbEntity
  8
本体外線
 48
0.08
100
AcDbLine
 10
107.2567428561549
 20
168.8888268439867
 30
0.0
 11
106.0211470819922
 21
171.0289415024539
 31
0.0
  0
LINE
  5
8A4F
330
18
100
AcDbEntity
  8
本体外線
 48
0.08
100
AcDbLine
 10
112.4528952788615
 20
171.8888268439867
 30
0.0
 11
111.2172995046988
 21
174.0289415024539
 31
0.0
  0
ARC
  5
8A50
330
18
100
AcDbEntity
  8
本体外線
100
AcDbCircle
 10
92.41922329334579
 20
200.5881645850699
 30
0.0
 40
35.0
100
AcDbArc
 50
184.9171003355282
 51
295.0828996644707
  0
ARC
  5
8A51
330
18
100
AcDbEntity
  8
本体外線
100
AcDbCircle
 10
92.41922329334579
 20
200.5881645850699
 30
0.0
 40
35.0
100
AcDbArc
 50
304.9171003355283
 51
55.08289966447069
  0
LINE
  5
8A5A
330
18
100
AcDbEntity
  8
中心線
  6
CENTER
 48
0.15
100
AcDbLine
 10
81.29422329334573
 20
219.8572298192736
 30
0.0
 11
73.9192232933459
 21
232.6311045250942
 31
0.0
  0
LINE
  5
8A5B
102
{ACAD_REACTORS
330
8CE1
102
}
330
18
100
AcDbEntity
  8
本体外線
100
AcDbLine
 10
60.41922329334579
 20
122.7909279972871
 30
0.0
 11
124.4192232933463
 21
122.7909279972871
 31
0.0
  0
LINE
  5
8A5C
330
18
100
AcDbEntity
  8
本体外線
100
AcDbLine
 10
57.41922329334579
 20
120.7909279972871
 30
0.0
 11
57.41922329334585
 21
110.7930027282553
 31
0.0
  0
LINE
  5
8A5D
102
{ACAD_REACTORS
330
8CE1
102
}
330
18
100
AcDbEntity
  8
本体外線
100
AcDbLine
 10
62.03922329334591
 20
102.7909279972871
 30
0.0
 11
122.8511848175734
 21
102.7909279972871
 31
0.0
  0
LINE
  5
8A5E
102
{ACAD_REACTORS
330
8CE1
102
}
330
18
100
AcDbEntity
  8
本体外線
100
AcDbLine
 10
60.41922329334579
 20
122.7909279972871
 30
0.0
 11
60.41922329334579
 21
122.290927997287
 31
0.0
  0
LINE
  5
8A5F
102
{ACAD_REACTORS
330
8CE1
102
}
330
18
100
AcDbEntity
  8
本体外線
100
AcDbLine
 10
127.4192232933463
 20
120.7909279972871
 30
0.0
 11
127.4192232933463
 21
110.7930027282554
 31
0.0
  0
LINE
  5
8A60
102
{ACAD_REACTORS
330
8CE1
102
}
330
18
100
AcDbEntity
  8
本体外線
100
AcDbLine
 10
124.4192232933463
 20
122.7909279972871
 30
0.0
 11
124.4192232933463
 21
122.2909279972871
 31
0.0
  0
LINE
  5
8A61
102
{ACAD_REACTORS
330
8CE1
102
}
330
18
100
AcDbEntity
  8
本体外線
100
AcDbLine
 10
116.6692232933461
 20
120.2909279972872
 30
0.0
 11
116.6692232933461
 21
104.2909279972871
 31
0.0
  0
LINE
  5
8A62
102
{ACAD_REACTORS
330
8CE1
102
}
330
18
100
AcDbEntity
  8
本体外線
100
AcDbLine
 10
58.9192232933458
 20
122.2909279972871
 30
0.0
 11
60.41922329334579
 21
122.2909279972871
 31
0.0
  0
ARC
  5
8A64
102
{ACAD_REACTORS
330
8CE1
102
}
330
18
100
AcDbEntity
  8
本体外線
100
AcDbCircle
 10
125.9192232933463
 20
120.7909279972871
 30
0.0
 40
1.5
100
AcDbArc
 50
0.0
 51
90.0
  0
ARC
  5
8A65
330
18
100
AcDbEntity
  8
本体外線
100
AcDbCircle
 10
58.9192232933458
 20
120.7909279972871
 30
0.0
 40
1.5
100
AcDbArc
 50
89.99999999999998
 51
180.0
  0
LINE
  5
8A66
102
{ACAD_REACTORS
330
8CE1
102
}
330
18
100
AcDbEntity
  8
本体外線
100
AcDbLine
 10
68.16922329334613
 20
120.290927997287
 30
0.0
 11
66.91922329334613
 21
121.7909279972871
 31
0.0
  0
LINE
  5
8A69
102
{ACAD_REACTORS
330
8CE1
102
}
330
18
100
AcDbEntity
  8
本体外線
100
AcDbLine
 10
66.91922329334613
 20
122.7909279972871
 30
0.0
 11
66.91922329334613
 21
121.7909279972871
 31
0.0
  0
LINE
  5
8A6A
102
{ACAD_REACTORS
330
8CE1
102
}
330
18
100
AcDbEntity
  8
本体外線
100
AcDbLine
 10
68.16922329334613
 20
120.290927997287
 30
0.0
 11
68.16922329334613
 21
104.2909279972871
 31
0.0
  0
LINE
  5
8A6B
330
18
100
AcDbEntity
  8
本体外線
100
AcDbLine
 10
68.16922329334613
 20
104.2909279972871
 30
0.0
 11
116.6692232933461
 21
104.2909279972871
 31
0.0
  0
LINE
  5
8A6C
102
{ACAD_REACTORS
330
8CE1
102
}
330
18
100
AcDbEntity
  8
本体外線
100
AcDbLine
 10
124.4192232933463
 20
122.2909279972871
 30
0.0
 11
125.9192232933463
 21
122.2909279972871
 31
0.0
  0
POINT
  5
8A6D
330
18
100
AcDbEntity
  8
本体外線
100
AcDbPoint
 10
124.4192232933463
 20
122.7909279972871
 30
0.0
  0
POINT
  5
8A75
330
18
100
AcDbEntity
  8
本体外線
100
AcDbPoint
 10
123.1846931849525
 20
122.7909279972871
 30
0.0
  0
LINE
  5
8A78
102
{ACAD_REACTORS
330
8CE1
102
}
330
18
100
AcDbEntity
  8
本体外線
100
AcDbLine
 10
60.01922329334576
 20
122.2909279972871
 30
0.0
 11
60.01922329334576
 21
106.2896706285764
 31
0.0
  0
LINE
  5
8A79
102
{ACAD_REACTORS
330
8CE1
102
}
330
18
100
AcDbEntity
  8
本体外線
100
AcDbLine
 10
117.919223293346
 20
122.7909279972871
 30
0.0
 11
117.919223293346
 21
121.7909279972871
 31
0.0
  0
LINE
  5
8A7A
330
18
100
AcDbEntity
  8
0
100
AcDbLine
 10
122.4164029703189
 20
103.7278637476338
 30
0.0
 11
126.4164029703191
 21
110.6560669779098
 31
0.0
  0
LINE
  5
8A7B
330
18
100
AcDbEntity
  8
本体内線
 48
0.1
100
AcDbLine
 10
125.0166369194909
 20
109.0240529255942
 30
0.0
 11
123.1298855735432
 21
107.9347365281171
 31
0.0
  0
LINE
  5
8A7C
330
18
100
AcDbEntity
  8
本体内線
 48
0.1
100
AcDbLine
 10
123.1298855735431
 20
107.9347365281168
 30
0.0
 11
123.1298855735428
 21
105.7561037331627
 31
0.0
  0
LWPOLYLINE
  5
8A7D
102
{ACAD_REACTORS
330
8CE1
102
}
330
18
100
AcDbEntity
  8
本体外線
100
AcDbPolyline
 90
        2
 70
     0
 43
0.0
 10
122.7992232933463
 20
102.7909279972872
 10
127.4192232933463
 20
110.7930027282554
  0
LINE
  5
8A7F
330
18
100
AcDbEntity
  8
本体内線
 48
0.1
100
AcDbLine
 10
126.0525989663203
 20
108.4259399589867
 30
0.0
 11
125.0166369194906
 21
109.0240529255941
 31
0.0
  0
LINE
  5
8A80
330
18
100
AcDbEntity
  8
本体内線
 48
0.1
100
AcDbLine
 10
124.1658476203723
 20
105.1579907665554
 30
0.0
 11
123.1298855735428
 21
105.7561037331626
 31
0.0
  0
LINE
  5
8A81
330
18
100
AcDbEntity
  8
0
100
AcDbLine
 10
120.6830941530962
 20
111.6567932901215
 30
0.0
 11
123.4151449606651
 21
112.3888440976904
 31
0.0
  0
LINE
  5
8A82
330
18
100
AcDbEntity
  8
0
100
AcDbLine
 10
118.6830941530962
 20
108.1926916749839
 30
0.0
 11
119.4151449606651
 21
105.460640867415
 31
0.0
  0
LINE
  5
8A83
330
18
100
AcDbEntity
  8
0
100
AcDbLine
 10
126.4164029703191
 20
109.0560669779087
 30
0.0
 11
122.7223246376372
 21
111.18884409769
 31
0.0
  0
LINE
  5
8A84
330
18
100
AcDbEntity
  8
0
100
AcDbLine
 10
123.8020436163738
 20
104.5278637476339
 30
0.0
 11
120.1079652836926
 21
106.660640867415
 31
0.0
  0
LINE
  5
8A85
330
18
100
AcDbEntity
  8
0
100
AcDbLine
 10
121.4330941530965
 20
112.955831395798
 30
0.0
 11
116.6692232933461
 21
115.7062535190594
 31
0.0
  0
LINE
  5
8A86
330
18
100
AcDbEntity
  8
0
100
AcDbLine
 10
117.9330941530964
 20
106.893653569307
 30
0.0
 11
116.6692232933461
 21
107.6233497504046
 31
0.0
  0
LWPOLYLINE
  5
8A87
102
{ACAD_REACTORS
330
8CE1
102
}
330
18
100
AcDbEntity
  8
0
100
AcDbPolyline
 90
        3
 70
     0
 43
0.0
 10
126.4164029703191
 20
109.0560669779095
 10
126.4164029703191
 20
110.6560669779091
 10
116.6692232933461
 20
116.283603788249
  0
LWPOLYLINE
  5
8A88
102
{ACAD_REACTORS
330
8CE1
102
}
330
18
100
AcDbEntity
  8
0
100
AcDbPolyline
 90
        3
 70
     0
 43
0.0
 10
123.8020436163738
 20
104.5278637476339
 10
122.4164029703189
 20
103.7278637476338
 10
116.6692232933461
 20
107.0459994812151
  0
LINE
  5
8A8B
330
18
100
AcDbEntity
  8
中心線
  6
CENTER
 48
0.15
100
AcDbLine
 10
126.8558672582006
 20
105.8528220317871
 30
0.0
 11
116.1541201034856
 21
111.9318325546795
 31
0.0
  0
LINE
  5
8A8C
102
{ACAD_REACTORS
330
8CE1
102
}
330
18
100
AcDbEntity
  8
本体外線
100
AcDbLine
 10
116.6692232933461
 20
120.2909279972872
 30
0.0
 11
117.919223293346
 21
121.7909279972871
 31
0.0
  0
LINE
  5
8A8D
330
18
100
AcDbEntity
  8
本体外線
100
AcDbLine
 10
68.16922329334613
 20
120.290927997287
 30
0.0
 11
116.6692232933461
 21
120.2909279972872
 31
0.0
  0
LWPOLYLINE
  5
8A8E
102
{ACAD_REACTORS
330
8CE1
102
}
330
18
100
AcDbEntity
  8
本体外線
100
AcDbPolyline
 90
        2
 70
     0
 43
0.0
 10
62.0392232933458
 20
102.7909279972872
 10
57.41922329334579
 20
110.7930027282554
  0
LINE
  5
8A92
330
18
100
AcDbEntity
  8
本体外線
100
AcDbLine
 10
66.91922329334613
 20
121.7909279972871
 30
0.0
 11
117.9192232933461
 21
121.7909279972871
 31
0.0
  0
LINE
  5
8A94
330
18
100
AcDbEntity
  8
0
100
AcDbLine
 10
121.4330941530964
 20
112.955831395798
 30
0.0
 11
117.9330941530964
 21
106.893653569307
 31
0.0
  0
HATCH
  5
8A95
330
18
100
AcDbEntity
  8
0
100
AcDbHatch
 10
0.0
 20
0.0
 30
0.0
210
0.0
220
0.0
230
1.0
  2
AR-SAND
 70
     0
 71
     0
 91
        2
 92
        7
 72
     0
 73
     1
 93
        4
 10
117.4192232933461
 20
115.2732408171672
 10
117.4192232933461
 20
111.2132045126856
 10
119.6841788619076
 20
109.9266212533247
 10
121.4330941530964
 20
112.955831395798
 97
        0
 92
        7
 72
     0
 73
     1
 93
        4
 10
117.4192232933461
 20
107.1903370485125
 10
117.9330941530964
 20
106.8936535693069
 10
119.6841788619075
 20
109.9266212533247
 10
117.4192232933461
 20
111.2132045126856
 97
        0
 75
     0
 76
     1
 52
0.0
 41
0.05
 77
     0
 78
     4
 53
37.5
 43
-29.72501661657612
 44
-1.587931969317082
 45
-0.0800015647992023
 46
2.447066186646711
 79
     6
 49
0.0
 49
-1.9304
 49
0.0
 49
-2.159
 49
0.0
 49
-2.06375
 53
7.499999999999999
 43
-29.72501661657612
 44
-1.587931969317082
 45
2.247616415690013
 46
3.584125502841771
 79
     6
 49
0.0
 49
-1.0414
 49
0.0
 49
-1.7399
 49
0.0
 49
-0.6667500000000001
 53
327.5
 43
-31.2871166165761
 44
-1.587931969317082
 45
3.95496185120729
 46
0.0071859233927285
 79
     6
 49
0.0
 49
-0.635
 49
0.0
 49
-2.286
 49
0.0
 49
-2.9845
 53
317.5
 43
-31.2871166165761
 44
-1.587931969317082
 45
3.817782262361486
 46
1.114646616286081
 79
     6
 49
0.0
 49
-0.3175
 49
0.0
 49
-1.498599999999999
 49
0.0
 49
-1.7145
 47
0.0229366583574517
 98
        2
 10
119.3626882709382
 20
112.5486171574833
 10
118.1686414489083
 20
109.7732812877543
  0
LINE
  5
8A96
330
18
100
AcDbEntity
  8
0
100
AcDbLine
 10
123.415144960665
 20
112.3888440976904
 30
0.0
 11
119.4151449606651
 21
105.460640867415
 31
0.0
  0
LINE
  5
8BCC
330
18
100
AcDbEntity
  8
本体内線
  6
HIDDEN
 48
0.2
100
AcDbLine
 10
76.99620763888185
 20
219.3016113045323
 30
0.0
 11
71.57866825533824
 21
228.6850647688352
 31
0.0
  0
LINE
  5
8BCD
330
18
100
AcDbEntity
  8
本体内線
  6
HIDDEN
 48
0.2
100
AcDbLine
 10
83.92441086915743
 20
223.3016113045322
 30
0.0
 11
78.49798625777021
 21
232.700454434897
 31
0.0
  0
LINE
  5
8BCE
330
18
100
AcDbEntity
  8
本体内線
  6
HIDDEN
 48
0.2
100
AcDbLine
 10
77.46950368659304
 20
219.6818385028749
 30
0.0
 11
72.05750407481719
 21
229.0556968010136
 31
0.0
  0
LINE
  5
8BCF
330
18
100
AcDbEntity
  8
本体内線
  6
HIDDEN
 48
0.2
100
AcDbLine
 10
83.35847643232728
 20
223.0818385028749
 30
0.0
 11
77.94647682055154
 21
232.4556968010137
 31
0.0
  0
LINE
  5
8BD0
330
18
100
AcDbEntity
  8
本体内線
  6
HIDDEN
 48
0.2
100
AcDbLine
 10
83.92441086915676
 20
177.8747178656076
 30
0.0
 11
78.50687148561314
 21
168.4912644013046
 31
0.0
  0
LINE
  5
8BD1
330
18
100
AcDbEntity
  8
本体内線
  6
HIDDEN
 48
0.2
100
AcDbLine
 10
76.99620763888129
 20
181.8747178656077
 30
0.0
 11
71.56978302749405
 21
172.4758747352428
 31
0.0
  0
LINE
  5
8BD2
330
18
100
AcDbEntity
  8
本体内線
  6
HIDDEN
 48
0.2
100
AcDbLine
 10
83.35847643232659
 20
178.0944906672649
 30
0.0
 11
77.94647682055085
 21
168.7206323691261
 31
0.0
  0
LINE
  5
8BD3
330
18
100
AcDbEntity
  8
本体内線
  6
HIDDEN
 48
0.2
100
AcDbLine
 10
77.46950368659241
 20
181.494490667265
 30
0.0
 11
72.05750407481656
 21
172.1206323691262
 31
0.0
  0
LINE
  5
8BD7
102
{ACAD_REACTORS
330
8CE1
102
}
330
18
100
AcDbEntity
  8
本体外線
100
AcDbLine
 10
68.16922329334613
 20
104.2909279972871
 30
0.0
 11
66.91922329334613
 21
102.790927997287
 31
0.0
  0
LINE
  5
8BD8
102
{ACAD_REACTORS
330
8CE1
102
}
330
18
100
AcDbEntity
  8
本体外線
100
AcDbLine
 10
116.6692232933461
 20
104.2909279972869
 30
0.0
 11
117.919223293346
 21
102.790927997287
 31
0.0
  0
LINE
  5
8BD9
102
{ACAD_REACTORS
330
8CE1
102
}
330
18
100
AcDbEntity
  8
0
100
AcDbLine
 10
67.41922329334619
 20
121.1909279972869
 30
0.0
 11
67.41922329334613
 21
103.3909279972871
 31
0.0
  0
LINE
  5
8BDA
102
{ACAD_REACTORS
330
8CE1
102
}
330
18
100
AcDbEntity
  8
0
100
AcDbLine
 10
117.4192232933461
 20
121.1909279972872
 30
0.0
 11
117.4192232933461
 21
115.8505910863568
 31
0.0
  0
LINE
  5
8BDB
102
{ACAD_REACTORS
330
8CE1
102
}
330
18
100
AcDbEntity
  8
0
100
AcDbLine
 10
117.4192232933461
 20
106.6129867793229
 30
0.0
 11
117.4192232933461
 21
103.3909279972869
 31
0.0
  0
HATCH
  5
8CE1
330
18
100
AcDbEntity
  8
剖面線
100
AcDbHatch
 10
0.0
 20
0.0
 30
0.0
210
0.0
220
0.0
230
1.0
  2
ANSI31
 70
     0
 71
     1
 91
        6
 92
        7
 72
     0
 73
     1
 93
       10
 10
67.41922329334619
 20
121.190927997287
 10
66.91922329334613
 20
121.7909279972871
 10
66.91922329334613
 20
122.7909279972871
 10
60.41922329334579
 20
122.7909279972871
 10
60.41922329334579
 20
122.2909279972871
 10
60.01922329334576
 20
122.2909279972871
 10
60.01922329334576
 20
106.2896706285764
 10
62.03922329334586
 20
102.7909279972871
 10
66.91922329334616
 20
102.7909279972871
 10
67.41922329334613
 20
103.3909279972871
 97
       10
330
8A66
330
8A69
330
8A5B
330
8A5E
330
8A62
330
8A78
330
8A8E
330
8A5D
330
8BD7
330
8BD9
 92
        7
 72
     0
 73
     1
 93
        4
 10
68.16922329334613
 20
120.290927997287
 10
67.4192232933462
 20
121.1909279972869
 10
67.41922329334613
 20
103.3909279972871
 10
68.16922329334613
 20
104.2909279972871
 97
        4
330
8A66
330
8BD9
330
8BD7
330
8A6A
 92
        7
 72
     1
 73
     1
 93
       11
 10
127.4192232933463
 20
120.7909279972871
 42
0.4142135623731063
 10
125.9192232933463
 20
122.2909279972871
 42
0.0
 10
124.4192232933463
 20
122.2909279972871
 42
0.0
 10
124.4192232933463
 20
122.7909279972871
 42
0.0
 10
117.919223293346
 20
122.7909279972871
 42
0.0
 10
117.9192232933461
 20
121.7909279972871
 42
0.0
 10
117.4192232933461
 20
121.1909279972871
 42
0.0
 10
117.4192232933461
 20
115.8505910863568
 42
0.0
 10
126.4164029703191
 20
110.6560669779091
 42
0.0
 10
126.4164029703191
 20
109.0560669779096
 42
0.0
 10
127.4192232933463
 20
110.7930027282554
 42
0.0
 97
       10
330
8A64
330
8A6C
330
8A60
330
8A5B
330
8A79
330
8A8C
330
8BDA
330
8A87
330
8A7D
330
8A5F
 92
        7
 72
     0
 73
     1
 93
        6
 10
117.4192232933461
 20
106.6129867793229
 10
117.4192232933461
 20
103.390927997287
 10
117.919223293346
 20
102.7909279972871
 10
122.7992232933462
 20
102.7909279972871
 10
123.8020436163741
 20
104.527863747634
 10
122.4164029703188
 20
103.7278637476338
 97
        5
330
8BDB
330
8BD8
330
8A5D
330
8A7D
330
8A88
 92
        7
 72
     0
 73
     1
 93
        4
 10
117.4192232933461
 20
106.6129867793229
 10
116.6692232933461
 20
107.045999481215
 10
116.6692232933461
 20
104.2909279972869
 10
117.4192232933461
 20
103.3909279972869
 97
        4
330
8A88
330
8A61
330
8BD8
330
8BDB
 92
        7
 72
     0
 73
     1
 93
        4
 10
116.6692232933461
 20
116.2836037882491
 10
117.4192232933461
 20
115.8505910863568
 10
117.4192232933461
 20
121.1909279972872
 10
116.6692232933461
 20
120.2909279972872
 97
        4
330
8A8C
330
8A61
330
8A87
330
8BDA
 75
     0
 76
     1
 52
0.0
 41
0.5
 77
     0
 78
     1
 53
45.0
 43
0.0
 44
0.0
 45
-1.122532015133643
 46
1.122532015133644
 79
     0
 47
0.1729115340465637
 98
        6
 10
66.08003421289914
 20
114.4978935010712
 10
67.82113406491271
 20
113.7242817191633
 10
126.814447003796
 20
115.6520192401036
 10
120.9074586048334
 20
104.2565752302823
 10
117.1644168157509
 20
105.1331475867267
 10
116.9889611563212
 20
119.3920625996702
  0
MTEXT
  5
8CED
330
18
100
AcDbEntity
  8
0
100
AcDbMText
 10
49.81948278949767
 20
19.37399834316261
 30
0.0
 40
5.0
 41
0.0
 71
     1
 72
     5
  1
\Ftxt.shx,bigfont.shx|c128;小柳
  7
JL
 73
     1
 44
1.0
  0
ENDSEC
  0
SECTION
  2
OBJECTS
  0
DICTIONARY
  5
C
330
0
100
AcDbDictionary
281
     1
  3
ACAD_COLOR
350
8CF1
  3
ACAD_GROUP
350
D
  3
ACAD_LAYOUT
350
5CF3
  3
ACAD_MATERIAL
350
8CF0
  3
ACAD_MLINESTYLE
350
1B
  3
ACAD_PLOTSETTINGS
350
5CF4
  3
ACAD_PLOTSTYLENAME
350
5CF1
  3
ACAD_TABLESTYLE
350
8CF2
  3
ACDBVARIABLEDICTIONARY
350
45D
  0
DICTIONARY
  5
45F
330
18
100
AcDbDictionary
280
     1
281
     1
  3
ACAD_LAYOUTSELFREF
360
5D8B
  3
ACAD_SORTENTS
360
460
  0
DICTIONARY
  5
5D89
330
15
100
AcDbDictionary
280
     1
281
     1
  3
ACAD_LAYOUTSELFREF
360
5D8A
  0
DICTIONARY
  5
8CF1
102
{ACAD_REACTORS
330
C
102
}
330
C
100
AcDbDictionary
281
     1
  0
DICTIONARY
  5
D
102
{ACAD_REACTORS
330
C
102
}
330
C
100
AcDbDictionary
281
     1
  0
DICTIONARY
  5
5CF3
102
{ACAD_REACTORS
330
C
102
}
330
C
100
AcDbDictionary
281
     1
  3
Model
350
5CF5
  3
配置1
350
5CF6
  0
DICTIONARY
  5
8CF0
102
{ACAD_REACTORS
330
C
102
}
330
C
100
AcDbDictionary
281
     1
  0
DICTIONARY
  5
1B
102
{ACAD_REACTORS
330
C
102
}
330
C
100
AcDbDictionary
281
     1
  3
STANDARD
350
1C
  0
DICTIONARY
  5
5CF4
102
{ACAD_REACTORS
330
C
102
}
330
C
100
AcDbDictionary
281
     1
  0
ACDBDICTIONARYWDFLT
  5
5CF1
102
{ACAD_REACTORS
330
C
102
}
330
C
100
AcDbDictionary
281
     1
  3
Normal
350
5CF2
100
AcDbDictionaryWithDefault
340
5CF2
  0
DICTIONARY
  5
8CF2
102
{ACAD_REACTORS
330
C
102
}
330
C
100
AcDbDictionary
281
     1
  3
Standard
350
8CF3
  0
DICTIONARY
  5
45D
102
{ACAD_REACTORS
330
C
102
}
330
C
100
AcDbDictionary
281
     1
  3
CTABLESTYLE
350
8CFB
  3
SORTENTS
350
45E
  0
XRECORD
  5
5D8B
102
{ACAD_REACTORS
330
45F
102
}
330
45F
100
AcDbXrecord
280
     1
340
18
  0
SORTENTSTABLE
  5
460
102
{ACAD_REACTORS
330
45F
102
}
330
45F
100
AcDbSortentsTable
330
18
331
C0
  5
CB
  0
XRECORD
  5
5D8A
102
{ACAD_REACTORS
330
5D89
102
}
330
5D89
100
AcDbXrecord
280
     1
340
15
  0
LAYOUT
  5
5CF5
102
{ACAD_REACTORS
330
5CF3
102
}
330
5CF3
100
AcDbPlotSettings
  1

  2
EPSON STYLUS COLOR 440
  4

  6

 40
0.0
 41
0.0
 42
0.0
 43
0.0
 44
0.0
 45
0.0
 46
0.0
 47
0.0
 48
0.0
 49
0.0
140
0.0
141
0.0
142
1.0
143
1.0
 70
  1712
 72
     0
 73
     0
 74
     0
  7
a.ctb
 75
     0
147
1.0
 76
     0
 77
     2
 78
   300
148
0.0
149
0.0
100
AcDbLayout
  1
Model
 70
     1
 71
     0
 10
0.0
 20
0.0
 11
12.0
 21
9.0
 12
0.0
 22
0.0
 32
0.0
 14
0.0
 24
0.0
 34
0.0
 15
0.0
 25
0.0
 35
0.0
146
0.0
 13
0.0
 23
0.0
 33
0.0
 16
1.0
 26
0.0
 36
0.0
 17
0.0
 27
1.0
 37
0.0
 76
     0
330
18
  0
LAYOUT
  5
5CF6
102
{ACAD_REACTORS
330
5CF3
102
}
330
5CF3
100
AcDbPlotSettings
  1

  2
EPSON STYLUS COLOR 440
  4

  6

 40
0.0
 41
0.0
 42
0.0
 43
0.0
 44
0.0
 45
0.0
 46
0.0
 47
0.0
 48
0.0
 49
0.0
140
0.0
141
0.0
142
1.0
143
1.0
 70
   688
 72
     0
 73
     0
 74
     5
  7
a.ctb
 75
    16
147
1.0
 76
     0
 77
     2
 78
   300
148
0.0
149
0.0
100
AcDbLayout
  1
ｰtｸm1
 70
     1
 71
     1
 10
0.0
 20
0.0
 11
420.0
 21
297.0
 12
0.0
 22
0.0
 32
0.0
 14
1.000000000000000E+20
 24
1.000000000000000E+20
 34
1.000000000000000E+20
 15
-1.000000000000000E+20
 25
-1.000000000000000E+20
 35
-1.000000000000000E+20
146
0.0
 13
0.0
 23
0.0
 33
0.0
 16
1.0
 26
0.0
 36
0.0
 17
0.0
 27
1.0
 37
0.0
 76
     0
330
15
  0
MLINESTYLE
  5
1C
102
{ACAD_REACTORS
330
1B
102
}
330
1B
100
AcDbMlineStyle
  2
STANDARD
 70
     0
  3

 62
   256
 51
90.0
 52
90.0
 71
     2
 49
0.5
 62
   256
  6
BYLAYER
 49
-0.5
 62
   256
  6
BYLAYER
  0
ACDBPLACEHOLDER
  5
5CF2
102
{ACAD_REACTORS
330
5CF1
102
}
330
5CF1
  0
TABLESTYLE
  5
8CF3
102
{ACAD_REACTORS
330
8CF2
102
}
330
8CF2
100
AcDbTableStyle
  3
Standard
 70
     0
 71
     8
 40
1.5
 41
1.5
280
     0
281
     0
  7
STANDARD
140
4.5
170
     2
 62
     0
 63
     7
283
     0
274
    -2
284
     1
 64
     0
275
    -2
285
     1
 65
     0
276
    -2
286
     1
 66
     0
277
    -2
287
     1
 67
     0
278
    -2
288
     1
 68
     0
279
    -2
289
     1
 69
     0
  7
STANDARD
140
6.0
170
     5
 62
     0
 63
     7
283
     0
274
    -2
284
     1
 64
     0
275
    -2
285
     1
 65
     0
276
    -2
286
     1
 66
     0
277
    -2
287
     1
 67
     0
278
    -2
288
     1
 68
     0
279
    -2
289
     1
 69
     0
  7
STANDARD
140
4.5
170
     5
 62
     0
 63
     7
283
     0
274
    -2
284
     1
 64
     0
275
    -2
285
     1
 65
     0
276
    -2
286
     1
 66
     0
277
    -2
287
     1
 67
     0
278
    -2
288
     1
 68
     0
279
    -2
289
     1
 69
     0
  0
DICTIONARYVAR
  5
8CFB
102
{ACAD_REACTORS
330
45D
102
}
330
45D
100
DictionaryVariables
280
     0
  1
STANDARD
  0
DICTIONARYVAR
  5
45E
102
{ACAD_REACTORS
330
45D
102
}
330
45D
100
DictionaryVariables
280
     0
  1
127
  0
ENDSEC
  0
EOF
