  0
SECTION
  2
HEADER
  9
$ACADVER
  1
AC1018
  9
$ACADMAINTVER
 70
    76
  9
$DWGCODEPAGE
  3
ANSI_932
  9
$INSBASE
 10
0.0
 20
0.0
 30
0.0
  9
$EXTMIN
 10
-0.0000000000002274
 20
-0.0000000000000568
 30
0.0
  9
$EXTMAX
 10
197.9999999999997
 20
290.0
 30
4.0
  9
$LIMMIN
 10
0.0
 20
0.0
  9
$LIMMAX
 10
420.0
 20
297.0
  9
$ORTHOMODE
 70
     0
  9
$REGENMODE
 70
     1
  9
$FILLMODE
 70
     1
  9
$QTEXTMODE
 70
     0
  9
$MIRRTEXT
 70
     1
  9
$LTSCALE
 40
1.0
  9
$ATTMODE
 70
     1
  9
$TEXTSIZE
 40
2.5
  9
$TRACEWID
 40
1.0
  9
$TEXTSTYLE
  7
TXT
  9
$CLAYER
  8
0
  9
$CELTYPE
  6
BYLAYER
  9
$CECOLOR
 62
   256
  9
$CELTSCALE
 40
1.0
  9
$DISPSILH
 70
     0
  9
$DIMSCALE
 40
1.0
  9
$DIMASZ
 40
2.5
  9
$DIMEXO
 40
1.0
  9
$DIMDLI
 40
6.0
  9
$DIMRND
 40
0.0
  9
$DIMDLE
 40
0.0
  9
$DIMEXE
 40
1.0
  9
$DIMTP
 40
0.0
  9
$DIMTM
 40
0.0
  9
$DIMTXT
 40
3.0
  9
$DIMCEN
 40
0.0
  9
$DIMTSZ
 40
0.0
  9
$DIMTOL
 70
     0
  9
$DIMLIM
 70
     0
  9
$DIMTIH
 70
     0
  9
$DIMTOH
 70
     0
  9
$DIMSE1
 70
     0
  9
$DIMSE2
 70
     0
  9
$DIMTAD
 70
     3
  9
$DIMZIN
 70
     8
  9
$DIMBLK
  1

  9
$DIMASO
 70
     1
  9
$DIMSHO
 70
     1
  9
$DIMPOST
  1

  9
$DIMAPOST
  1

  9
$DIMALT
 70
     0
  9
$DIMALTD
 70
     2
  9
$DIMALTF
 40
25.4
  9
$DIMLFAC
 40
1.0
  9
$DIMTOFL
 70
     0
  9
$DIMTVP
 40
0.0
  9
$DIMTIX
 70
     0
  9
$DIMSOXD
 70
     0
  9
$DIMSAH
 70
     0
  9
$DIMBLK1
  1

  9
$DIMBLK2
  1

  9
$DIMSTYLE
  2
A
  9
$DIMCLRD
 70
     6
  9
$DIMCLRE
 70
     6
  9
$DIMCLRT
 70
     3
  9
$DIMTFAC
 40
1.0
  9
$DIMGAP
 40
1.0
  9
$DIMJUST
 70
     0
  9
$DIMSD1
 70
     0
  9
$DIMSD2
 70
     0
  9
$DIMTOLJ
 70
     1
  9
$DIMTZIN
 70
     0
  9
$DIMALTZ
 70
     0
  9
$DIMALTTZ
 70
     0
  9
$DIMUPT
 70
     0
  9
$DIMDEC
 70
     1
  9
$DIMTDEC
 70
     1
  9
$DIMALTU
 70
     2
  9
$DIMALTTD
 70
     2
  9
$DIMTXSTY
  7
TXT
  9
$DIMAUNIT
 70
     0
  9
$DIMADEC
 70
     0
  9
$DIMALTRND
 40
0.0
  9
$DIMAZIN
 70
     0
  9
$DIMDSEP
 70
    46
  9
$DIMATFIT
 70
     3
  9
$DIMFRAC
 70
     0
  9
$DIMLDRBLK
  1

  9
$DIMLUNIT
 70
     2
  9
$DIMLWD
 70
    -2
  9
$DIMLWE
 70
    -2
  9
$DIMTMOVE
 70
     1
  9
$LUNITS
 70
     2
  9
$LUPREC
 70
     2
  9
$SKETCHINC
 40
1.0
  9
$FILLETRAD
 40
1.5
  9
$AUNITS
 70
     0
  9
$AUPREC
 70
     2
  9
$MENU
  1
.
  9
$ELEVATION
 40
0.0
  9
$PELEVATION
 40
0.0
  9
$THICKNESS
 40
0.0
  9
$LIMCHECK
 70
     0
  9
$CHAMFERA
 40
0.0
  9
$CHAMFERB
 40
0.0
  9
$CHAMFERC
 40
1.75
  9
$CHAMFERD
 40
0.0174532925199433
  9
$SKPOLY
 70
     0
  9
$TDCREATE
 40
2451555.578568171
  9
$TDUCREATE
 40
2451555.203568172
  9
$TDUPDATE
 40
2455846.605867604
  9
$TDUUPDATE
 40
2455846.230867604
  9
$TDINDWG
 40
2.7083606134
  9
$TDUSRTIMER
 40
2.7083606134
  9
$USRTIMER
 70
     1
  9
$ANGBASE
 50
0.0
  9
$ANGDIR
 70
     0
  9
$PDMODE
 70
     0
  9
$PDSIZE
 40
0.0
  9
$PLINEWID
 40
0.0
  9
$SPLFRAME
 70
     0
  9
$SPLINETYPE
 70
     6
  9
$SPLINESEGS
 70
     8
  9
$HANDSEED
  5
9598
  9
$SURFTAB1
 70
     6
  9
$SURFTAB2
 70
     6
  9
$SURFTYPE
 70
     6
  9
$SURFU
 70
     6
  9
$SURFV
 70
     6
  9
$UCSBASE
  2

  9
$UCSNAME
  2

  9
$UCSORG
 10
0.0
 20
0.0
 30
0.0
  9
$UCSXDIR
 10
1.0
 20
0.0
 30
0.0
  9
$UCSYDIR
 10
0.0
 20
1.0
 30
0.0
  9
$UCSORTHOREF
  2

  9
$UCSORTHOVIEW
 70
     0
  9
$UCSORGTOP
 10
0.0
 20
0.0
 30
0.0
  9
$UCSORGBOTTOM
 10
0.0
 20
0.0
 30
0.0
  9
$UCSORGLEFT
 10
0.0
 20
0.0
 30
0.0
  9
$UCSORGRIGHT
 10
0.0
 20
0.0
 30
0.0
  9
$UCSORGFRONT
 10
0.0
 20
0.0
 30
0.0
  9
$UCSORGBACK
 10
0.0
 20
0.0
 30
0.0
  9
$PUCSBASE
  2

  9
$PUCSNAME
  2

  9
$PUCSORG
 10
0.0
 20
0.0
 30
0.0
  9
$PUCSXDIR
 10
1.0
 20
0.0
 30
0.0
  9
$PUCSYDIR
 10
0.0
 20
1.0
 30
0.0
  9
$PUCSORTHOREF
  2

  9
$PUCSORTHOVIEW
 70
     0
  9
$PUCSORGTOP
 10
0.0
 20
0.0
 30
0.0
  9
$PUCSORGBOTTOM
 10
0.0
 20
0.0
 30
0.0
  9
$PUCSORGLEFT
 10
0.0
 20
0.0
 30
0.0
  9
$PUCSORGRIGHT
 10
0.0
 20
0.0
 30
0.0
  9
$PUCSORGFRONT
 10
0.0
 20
0.0
 30
0.0
  9
$PUCSORGBACK
 10
0.0
 20
0.0
 30
0.0
  9
$USERI1
 70
     0
  9
$USERI2
 70
     0
  9
$USERI3
 70
     0
  9
$USERI4
 70
     0
  9
$USERI5
 70
     0
  9
$USERR1
 40
0.0
  9
$USERR2
 40
0.0
  9
$USERR3
 40
0.0
  9
$USERR4
 40
0.0
  9
$USERR5
 40
0.0
  9
$WORLDVIEW
 70
     1
  9
$SHADEDGE
 70
     3
  9
$SHADEDIF
 70
    70
  9
$TILEMODE
 70
     1
  9
$MAXACTVP
 70
    48
  9
$PINSBASE
 10
0.0
 20
0.0
 30
0.0
  9
$PLIMCHECK
 70
     0
  9
$PEXTMIN
 10
1.000000000000000E+20
 20
1.000000000000000E+20
 30
1.000000000000000E+20
  9
$PEXTMAX
 10
-1.000000000000000E+20
 20
-1.000000000000000E+20
 30
-1.000000000000000E+20
  9
$PLIMMIN
 10
0.0
 20
0.0
  9
$PLIMMAX
 10
420.0
 20
297.0
  9
$UNITMODE
 70
     0
  9
$VISRETAIN
 70
     1
  9
$PLINEGEN
 70
     0
  9
$PSLTSCALE
 70
     1
  9
$TREEDEPTH
 70
  3020
  9
$CMLSTYLE
  2
STANDARD
  9
$CMLJUST
 70
     0
  9
$CMLSCALE
 40
20.0
  9
$PROXYGRAPHICS
 70
     1
  9
$MEASUREMENT
 70
     1
  9
$CELWEIGHT
370
    -1
  9
$ENDCAPS
280
     0
  9
$JOINSTYLE
280
     0
  9
$LWDISPLAY
290
     0
  9
$INSUNITS
 70
     0
  9
$HYPERLINKBASE
  1

  9
$STYLESHEET
  1

  9
$XEDIT
290
     1
  9
$CEPSNTYPE
380
     0
  9
$PSTYLEMODE
290
     1
  9
$FINGERPRINTGUID
  2
{1CF51E8A-A506-11D4-A7D9-AF69F5C20846}
  9
$VERSIONGUID
  2
{1CF51E8C-A506-11D4-A7D9-AF69F5C20846}
  9
$EXTNAMES
290
     1
  9
$PSVPSCALE
 40
0.0
  9
$OLESTARTUP
290
     0
  9
$SORTENTS
280
   127
  9
$INDEXCTL
280
     0
  9
$HIDETEXT
280
     0
  9
$XCLIPFRAME
290
     0
  9
$HALOGAP
280
     0
  9
$OBSCOLOR
 70
   257
  9
$OBSLTYPE
280
     0
  9
$INTERSECTIONDISPLAY
280
     0
  9
$INTERSECTIONCOLOR
 70
   257
  9
$DIMASSOC
280
     1
  9
$PROJECTNAME
  1

  0
ENDSEC
  0
SECTION
  2
CLASSES
  0
CLASS
  1
DICTIONARYVAR
  2
AcDbDictionaryVar
  3
ObjectDBX Classes
 90
        0
 91
        2
280
     0
281
     0
  0
CLASS
  1
SORTENTSTABLE
  2
AcDbSortentsTable
  3
ObjectDBX Classes
 90
        0
 91
        1
280
     0
281
     0
  0
CLASS
  1
ACDBDICTIONARYWDFLT
  2
AcDbDictionaryWithDefault
  3
ObjectDBX Classes
 90
        0
 91
        1
280
     0
281
     0
  0
CLASS
  1
TABLESTYLE
  2
AcDbTableStyle
  3
ObjectDBX Classes
 90
     2047
 91
        1
280
     0
281
     0
  0
ENDSEC
  0
SECTION
  2
TABLES
  0
TABLE
  2
VPORT
  5
8
330
0
100
AcDbSymbolTable
 70
     2
  0
VPORT
  5
9597
330
8
100
AcDbSymbolTableRecord
100
AcDbViewportTableRecord
  2
*Active
 70
     0
 10
0.0
 20
0.0
 11
1.0
 21
1.0
 12
192.8062349708658
 22
144.9945025220401
 13
0.0
 23
0.0
 14
10.0
 24
10.0
 15
10.0
 25
10.0
 16
0.0
 26
0.0
 36
1.0
 17
0.0
 27
0.0
 37
0.0
 40
293.4642832937157
 41
2.47104247104247
 42
50.0
 43
0.0
 44
0.0
 50
0.0
 51
0.0
 71
     0
 72
   100
 73
     1
 74
     1
 75
     0
 76
     0
 77
     0
 78
     0
281
     0
 65
     1
110
0.0
120
0.0
130
0.0
111
1.0
121
0.0
131
0.0
112
0.0
122
1.0
132
0.0
 79
     0
146
0.0
  0
ENDTAB
  0
TABLE
  2
LTYPE
  5
5
330
0
100
AcDbSymbolTable
 70
     7
  0
LTYPE
  5
12
330
5
100
AcDbSymbolTableRecord
100
AcDbLinetypeTableRecord
  2
BYBLOCK
 70
     0
  3

 72
    65
 73
     0
 40
0.0
  0
LTYPE
  5
13
330
5
100
AcDbSymbolTableRecord
100
AcDbLinetypeTableRecord
  2
BYLAYER
 70
     0
  3

 72
    65
 73
     0
 40
0.0
  0
LTYPE
  5
14
330
5
100
AcDbSymbolTableRecord
100
AcDbLinetypeTableRecord
  2
CONTINUOUS
 70
     0
  3
Solid line
 72
    65
 73
     0
 40
0.0
  0
LTYPE
  5
9D
330
5
100
AcDbSymbolTableRecord
100
AcDbLinetypeTableRecord
  2
CENTERX2
 70
     0
  3
Center (2x) ________  __  ________  __  _____
 72
    65
 73
     4
 40
101.6
 49
63.5
 74
     0
 49
-12.7
 74
     0
 49
12.7
 74
     0
 49
-12.7
 74
     0
  0
LTYPE
  5
A1
330
5
100
AcDbSymbolTableRecord
100
AcDbLinetypeTableRecord
  2
DASHED
 70
     0
  3
Dashed __ __ __ __ __ __ __ __ __ __ __ __ __ _
 72
    65
 73
     2
 40
19.05
 49
12.7
 74
     0
 49
-6.349999999999999
 74
     0
  0
LTYPE
  5
A2
330
5
100
AcDbSymbolTableRecord
100
AcDbLinetypeTableRecord
  2
DASHED2
 70
     0
  3
Dashed (.5x) _ _ _ _ _ _ _ _ _ _ _ _ _ _ _ _ _
 72
    65
 73
     2
 40
9.524999999999998
 49
6.349999999999999
 74
     0
 49
-3.174999999999999
 74
     0
  0
LTYPE
  5
A5
330
5
100
AcDbSymbolTableRecord
100
AcDbLinetypeTableRecord
  2
DIVIDE2
 70
     0
  3
Divide (.5x) __..__..__..__..__..__..__..__.._
 72
    65
 73
     6
 40
15.875
 49
6.349999999999999
 74
     0
 49
-3.174999999999999
 74
     0
 49
0.0
 74
     0
 49
-3.174999999999999
 74
     0
 49
0.0
 74
     0
 49
-3.174999999999999
 74
     0
  0
LTYPE
  5
650B
330
5
100
AcDbSymbolTableRecord
100
AcDbLinetypeTableRecord
  2
CENTER
 70
     0
  3
Center ____ _ ____ _ ____ _ ____ _ ____ _ ____
 72
    65
 73
     4
 40
50.8
 49
31.75
 74
     0
 49
-6.349999999999999
 74
     0
 49
6.349999999999999
 74
     0
 49
-6.349999999999999
 74
     0
  0
LTYPE
  5
650C
330
5
100
AcDbSymbolTableRecord
100
AcDbLinetypeTableRecord
  2
HIDDEN
 70
     0
  3
Hidden __ __ __ __ __ __ __ __ __ __ __ __ __ _
 72
    65
 73
     2
 40
9.524999999999998
 49
6.349999999999999
 74
     0
 49
-3.174999999999999
 74
     0
  0
ENDTAB
  0
TABLE
  2
LAYER
  5
2
330
0
100
AcDbSymbolTable
 70
     9
  0
LAYER
  5
E
330
2
100
AcDbSymbolTableRecord
100
AcDbLayerTableRecord
  2
0
 70
     0
 62
     7
  6
CONTINUOUS
370
    -3
390
5CF2
  0
LAYER
  5
B9
330
2
100
AcDbSymbolTableRecord
100
AcDbLayerTableRecord
  2
DIM
 70
     0
 62
     3
  6
CONTINUOUS
370
    -3
390
5CF2
  0
LAYER
  5
F2
330
2
100
AcDbSymbolTableRecord
100
AcDbLayerTableRecord
  2
DEFPOINTS
 70
     0
 62
     4
  6
CONTINUOUS
290
     0
370
    -3
390
5CF2
  0
LAYER
  5
5F8B
330
2
100
AcDbSymbolTableRecord
100
AcDbLayerTableRecord
  2
公差
 70
     0
 62
     6
  6
CONTINUOUS
370
    -3
390
5CF2
  0
LAYER
  5
644E
330
2
100
AcDbSymbolTableRecord
100
AcDbLayerTableRecord
  2
図框線
 70
     0
 62
     9
  6
CONTINUOUS
370
    -3
390
5CF2
  0
LAYER
  5
650D
330
2
100
AcDbSymbolTableRecord
100
AcDbLayerTableRecord
  2
中心線
 70
     0
 62
     1
  6
CENTER
370
    -3
390
5CF2
  0
LAYER
  5
650E
330
2
100
AcDbSymbolTableRecord
100
AcDbLayerTableRecord
  2
本体内線
 70
     0
 62
     4
  6
HIDDEN
370
    -3
390
5CF2
  0
LAYER
  5
650F
330
2
100
AcDbSymbolTableRecord
100
AcDbLayerTableRecord
  2
本体外線
 70
     0
 62
     2
  6
CONTINUOUS
370
    -3
390
5CF2
  0
LAYER
  5
6510
330
2
100
AcDbSymbolTableRecord
100
AcDbLayerTableRecord
  2
剖面線
 70
     0
 62
     5
  6
CONTINUOUS
370
    -3
390
5CF2
  0
ENDTAB
  0
TABLE
  2
STYLE
  5
3
330
0
100
AcDbSymbolTable
 70
     5
  0
STYLE
  5
F
330
3
100
AcDbSymbolTableRecord
100
AcDbTextStyleTableRecord
  2
STANDARD
 70
     0
 40
0.0
 41
1.0
 50
0.0
 71
     0
 42
2.5
  3
txt
  4

  0
STYLE
  5
BE
330
3
100
AcDbSymbolTableRecord
100
AcDbTextStyleTableRecord
  2
ISOCP3
 70
     0
 40
0.0
 41
1.0
 50
0.0
 71
     0
 42
2.5
  3
isocp3.shx
  4

  0
STYLE
  5
2A37
330
3
100
AcDbSymbolTableRecord
100
AcDbTextStyleTableRecord
  2
TXT
 70
     0
 40
0.0
 41
1.0
 50
0.0
 71
     0
 42
2.5
  3
txt.shx
  4
bigfont.shx
  0
STYLE
  5
5DCB
330
3
100
AcDbSymbolTableRecord
100
AcDbTextStyleTableRecord
  2
LKK
 70
     0
 40
50.0
 41
1.5
 50
0.0
 71
     0
 42
50.0
  3
MS PGothic.ttf
  4

1001
ACAD
1000
MS PGothic
1071
    32818
  0
STYLE
  5
5DCC
330
3
100
AcDbSymbolTableRecord
100
AcDbTextStyleTableRecord
  2
JL
 70
     0
 40
10.0
 41
0.5
 50
0.0
 71
     0
 42
5.0
  3
MS Mincho.ttf
  4

1001
ACAD
1000
MS Mincho
1071
    32785
  0
ENDTAB
  0
TABLE
  2
VIEW
  5
6
330
0
100
AcDbSymbolTable
 70
     0
  0
ENDTAB
  0
TABLE
  2
UCS
  5
7
330
0
100
AcDbSymbolTable
 70
     0
  0
ENDTAB
  0
TABLE
  2
APPID
  5
9
330
0
100
AcDbSymbolTable
 70
     1
  0
APPID
  5
10
330
9
100
AcDbSymbolTableRecord
100
AcDbRegAppTableRecord
  2
ACAD
 70
     0
  0
ENDTAB
  0
TABLE
  2
DIMSTYLE
  5
A
330
0
100
AcDbSymbolTable
 70
     3
100
AcDbDimStyleTable
 71
     0
  0
DIMSTYLE
105
1D
330
A
100
AcDbSymbolTableRecord
100
AcDbDimStyleTableRecord
  2
STANDARD
 70
     0
 41
3.0
 42
0.06
 77
     3
140
4.0
144
0.3333333333333333
172
     1
340
F
  0
DIMSTYLE
105
1A4
102
{ACAD_REACTORS
330
6770
330
677F
330
6864
330
6C92
330
6CAA
330
6F74
330
74C6
330
750D
330
7568
330
7575
330
7AD6
330
90D2
102
}
330
A
100
AcDbSymbolTableRecord
100
AcDbDimStyleTableRecord
  2
A
 70
     0
 41
2.5
 42
1.0
 43
6.0
 44
1.0
 73
     0
 74
     0
 77
     3
 78
     8
140
3.0
141
0.0
147
1.0
176
     6
177
     6
178
     3
271
     1
272
     1
279
     1
340
2A37
  0
DIMSTYLE
105
6006
330
A
100
AcDbSymbolTableRecord
100
AcDbDimStyleTableRecord
  2
ISO-25
 70
     0
 40
0.0
 41
2.0
 42
0.3
 43
1.0
 44
0.3
 73
     0
 74
     0
 77
     1
 78
     8
140
3.0
147
1.0
172
     1
176
     6
177
     6
178
     3
271
     1
272
     2
284
     8
288
     1
289
     2
340
F
  0
ENDTAB
  0
TABLE
  2
BLOCK_RECORD
  5
1
330
0
100
AcDbSymbolTable
 70
    13
  0
BLOCK_RECORD
  5
18
102
{ACAD_XDICTIONARY
360
45F
102
}
330
1
100
AcDbSymbolTableRecord
100
AcDbBlockTableRecord
  2
*MODEL_SPACE
340
5CF5
  0
BLOCK_RECORD
  5
15
102
{ACAD_XDICTIONARY
360
5D89
102
}
330
1
100
AcDbSymbolTableRecord
100
AcDbBlockTableRecord
  2
*PAPER_SPACE
340
5CF6
  0
BLOCK_RECORD
  5
639D
330
1
100
AcDbSymbolTableRecord
100
AcDbBlockTableRecord
  2
A$C255C26A2
340
0
102
{BLKREFS
331
63A3
102
}
  0
BLOCK_RECORD
  5
67BC
330
1
100
AcDbSymbolTableRecord
100
AcDbBlockTableRecord
  2
*D1
340
0
  0
BLOCK_RECORD
  5
67D9
330
1
100
AcDbSymbolTableRecord
100
AcDbBlockTableRecord
  2
*D2
340
0
  0
BLOCK_RECORD
  5
6854
330
1
100
AcDbSymbolTableRecord
100
AcDbBlockTableRecord
  2
*D3
340
0
  0
BLOCK_RECORD
  5
6C86
330
1
100
AcDbSymbolTableRecord
100
AcDbBlockTableRecord
  2
*D4
340
0
  0
BLOCK_RECORD
  5
6C9E
330
1
100
AcDbSymbolTableRecord
100
AcDbBlockTableRecord
  2
*D5
340
0
  0
BLOCK_RECORD
  5
6FE3
330
1
100
AcDbSymbolTableRecord
100
AcDbBlockTableRecord
  2
*D6
340
0
  0
BLOCK_RECORD
  5
74B6
330
1
100
AcDbSymbolTableRecord
100
AcDbBlockTableRecord
  2
*D7
340
0
  0
BLOCK_RECORD
  5
7501
330
1
100
AcDbSymbolTableRecord
100
AcDbBlockTableRecord
  2
*D8
340
0
  0
BLOCK_RECORD
  5
755C
330
1
100
AcDbSymbolTableRecord
100
AcDbBlockTableRecord
  2
*D9
340
0
  0
BLOCK_RECORD
  5
7569
330
1
100
AcDbSymbolTableRecord
100
AcDbBlockTableRecord
  2
*D10
340
0
  0
BLOCK_RECORD
  5
7AC6
330
1
100
AcDbSymbolTableRecord
100
AcDbBlockTableRecord
  2
*D11
340
0
  0
BLOCK_RECORD
  5
90C4
330
1
100
AcDbSymbolTableRecord
100
AcDbBlockTableRecord
  2
*D12
340
0
  0
ENDTAB
  0
ENDSEC
  0
SECTION
  2
BLOCKS
  0
BLOCK
  5
19
330
18
100
AcDbEntity
  8
0
100
AcDbBlockBegin
  2
*MODEL_SPACE
 70
     0
 10
0.0
 20
0.0
 30
0.0
  3
*MODEL_SPACE
  1

  0
ENDBLK
  5
1A
330
18
100
AcDbEntity
  8
0
100
AcDbBlockEnd
  0
BLOCK
  5
16
330
15
100
AcDbEntity
 67
     1
  8
0
100
AcDbBlockBegin
  2
*PAPER_SPACE
 70
     0
 10
0.0
 20
0.0
 30
0.0
  3
*PAPER_SPACE
  1

  0
ENDBLK
  5
17
330
15
100
AcDbEntity
 67
     1
  8
0
100
AcDbBlockEnd
  0
BLOCK
  5
63A1
330
639D
100
AcDbEntity
  8
0
100
AcDbBlockBegin
  2
A$C255C26A2
 70
     0
 10
0.0
 20
0.0
 30
0.0
  3
A$C255C26A2
  1

  0
LWPOLYLINE
  5
639E
330
639D
100
AcDbEntity
  8
0
100
AcDbPolyline
 90
        3
 70
     1
 43
0.0
 10
7.014806023851633
 20
0.0000006939811783
 10
5.611844869720698
 20
2.430000693981241
 10
8.417767177982568
 20
2.430000693981241
  0
LWPOLYLINE
  5
639F
330
639D
100
AcDbEntity
  8
0
100
AcDbPolyline
 90
        3
 70
     1
 43
0.0
 10
4.20888371558999
 20
0.0000006939811783
 10
2.805922561459283
 20
2.430000693981241
 10
5.611844869720698
 20
2.430000693981241
  0
LWPOLYLINE
  5
63A0
330
639D
100
AcDbEntity
  8
0
100
AcDbPolyline
 90
        3
 70
     1
 43
0.0
 10
1.402961407328348
 20
0.0000006939811783
 10
0.0000002531974133
 20
2.430000693981241
 10
2.805922561459283
 20
2.430000693981241
  0
ENDBLK
  5
63A2
330
639D
100
AcDbEntity
  8
0
100
AcDbBlockEnd
  0
BLOCK
  5
94C3
330
67BC
100
AcDbEntity
  8
0
100
AcDbBlockBegin
  2
*D1
 70
     1
 10
0.0
 20
0.0
 30
0.0
  3
*D1
  1

  0
LINE
  5
94C4
330
67BC
100
AcDbEntity
  8
0
  6
ByBlock
 62
     6
100
AcDbLine
 10
279.3020832128186
 20
87.43014991122175
 30
0.0
 11
279.3020832128186
 21
69.81226384446848
 31
0.0
  0
LINE
  5
94C5
330
67BC
100
AcDbEntity
  8
0
  6
ByBlock
 62
     6
100
AcDbLine
 10
339.3020832128186
 20
87.43014991122144
 30
0.0
 11
339.3020832128186
 21
69.81226384446848
 31
0.0
  0
LINE
  5
94C6
330
67BC
100
AcDbEntity
  8
0
  6
ByBlock
 62
     6
100
AcDbLine
 10
281.8020832128186
 20
70.81226384446849
 30
0.0
 11
336.8020832128186
 21
70.81226384446849
 31
0.0
  0
MTEXT
  5
94C7
330
67BC
100
AcDbEntity
  8
0
  6
ByBlock
 62
     3
100
AcDbMText
 10
309.3020832128187
 20
73.31226384446849
 30
0.0
 40
3.0
 41
0.0
 71
     5
 72
     1
  1
\A1;M60X2.0P
  7
TXT
 73
     1
 44
1.0
  0
SOLID
  5
94C8
330
67BC
100
AcDbEntity
  8
0
  6
ByBlock
 62
     6
100
AcDbTrace
 10
281.8020832128186
 20
71.22893051113516
 30
0.0
 11
281.8020832128186
 21
70.39559717780182
 31
0.0
 12
279.3020832128186
 22
70.81226384446849
 32
0.0
 13
279.3020832128186
 23
70.81226384446849
 33
0.0
  0
SOLID
  5
94C9
330
67BC
100
AcDbEntity
  8
0
  6
ByBlock
 62
     6
100
AcDbTrace
 10
336.8020832128186
 20
71.22893051113516
 30
0.0
 11
336.8020832128186
 21
70.39559717780182
 31
0.0
 12
339.3020832128186
 22
70.81226384446849
 32
0.0
 13
339.3020832128186
 23
70.81226384446849
 33
0.0
  0
POINT
  5
94CA
330
67BC
100
AcDbEntity
  8
DEFPOINTS
  6
ByBlock
 62
     0
100
AcDbPoint
 10
279.3020832128186
 20
88.43014991122174
 30
0.0
  0
POINT
  5
94CB
330
67BC
100
AcDbEntity
  8
DEFPOINTS
  6
ByBlock
 62
     0
100
AcDbPoint
 10
339.3020832128186
 20
88.43014991122144
 30
0.0
  0
POINT
  5
94CC
330
67BC
100
AcDbEntity
  8
DEFPOINTS
  6
ByBlock
 62
     0
100
AcDbPoint
 10
339.3020832128186
 20
70.81226384446849
 30
0.0
  0
ENDBLK
  5
94CD
330
67BC
100
AcDbEntity
  8
0
100
AcDbBlockEnd
  0
BLOCK
  5
9444
330
67D9
100
AcDbEntity
  8
0
100
AcDbBlockBegin
  2
*D2
 70
     1
 10
0.0
 20
0.0
 30
0.0
  3
*D2
  1

  0
LINE
  5
9445
330
67D9
100
AcDbEntity
  8
0
  6
ByBlock
 62
     6
100
AcDbLine
 10
269.3552154398872
 20
191.9411399166627
 30
0.0
 11
269.3552154398872
 21
149.114179619748
 31
0.0
  0
LINE
  5
9446
330
67D9
100
AcDbEntity
  8
0
  6
ByBlock
 62
     6
100
AcDbLine
 10
272.3915248450762
 20
191.9411399166627
 30
0.0
 11
272.3915248450762
 21
149.114179619748
 31
0.0
  0
LINE
  5
9447
330
67D9
100
AcDbEntity
  8
0
  6
ByBlock
 62
     6
100
AcDbLine
 10
266.8552154398872
 20
150.114179619748
 30
0.0
 11
264.3552154398872
 21
150.114179619748
 31
0.0
  0
LINE
  5
9448
330
67D9
100
AcDbEntity
  8
0
  6
ByBlock
 62
     6
100
AcDbLine
 10
274.8915248450762
 20
150.114179619748
 30
0.0
 11
277.3915248450762
 21
150.114179619748
 31
0.0
  0
MTEXT
  5
9449
330
67D9
100
AcDbEntity
  8
0
  6
ByBlock
 62
     3
100
AcDbMText
 10
277.3915248450762
 20
152.614179619748
 30
0.0
 40
3.0
 41
0.0
 71
     5
 72
     1
  1
\A1;3
  7
TXT
 73
     1
 44
1.0
  0
LINE
  5
944A
330
67D9
100
AcDbEntity
  8
0
  6
ByBlock
 62
     6
100
AcDbLine
 10
269.3552154398872
 20
150.114179619748
 30
0.0
 11
272.3915248450762
 21
150.114179619748
 31
0.0
  0
SOLID
  5
944B
330
67D9
100
AcDbEntity
  8
0
  6
ByBlock
 62
     6
100
AcDbTrace
 10
266.8552154398872
 20
150.5308462864147
 30
0.0
 11
266.8552154398872
 21
149.6975129530814
 31
0.0
 12
269.3552154398872
 22
150.114179619748
 32
0.0
 13
269.3552154398872
 23
150.114179619748
 33
0.0
  0
SOLID
  5
944C
330
67D9
100
AcDbEntity
  8
0
  6
ByBlock
 62
     6
100
AcDbTrace
 10
274.8915248450762
 20
150.5308462864147
 30
0.0
 11
274.8915248450762
 21
149.6975129530814
 31
0.0
 12
272.3915248450762
 22
150.114179619748
 32
0.0
 13
272.3915248450762
 23
150.114179619748
 33
0.0
  0
POINT
  5
944D
330
67D9
100
AcDbEntity
  8
DEFPOINTS
  6
ByBlock
 62
     0
100
AcDbPoint
 10
269.3552154398872
 20
192.9411399166627
 30
0.0
  0
POINT
  5
944E
330
67D9
100
AcDbEntity
  8
DEFPOINTS
  6
ByBlock
 62
     0
100
AcDbPoint
 10
272.3915248450762
 20
192.9411399166627
 30
0.0
  0
POINT
  5
944F
330
67D9
100
AcDbEntity
  8
DEFPOINTS
  6
ByBlock
 62
     0
100
AcDbPoint
 10
272.3915248450762
 20
150.114179619748
 30
0.0
  0
ENDBLK
  5
9450
330
67D9
100
AcDbEntity
  8
0
100
AcDbBlockEnd
  0
BLOCK
  5
9122
330
6854
100
AcDbEntity
  8
0
100
AcDbBlockBegin
  2
*D3
 70
     1
 10
0.0
 20
0.0
 30
0.0
  3
*D3
  1

  0
LINE
  5
9123
330
6854
100
AcDbEntity
  8
0
  6
ByBlock
 62
     6
100
AcDbLine
 10
51.68062282605183
 20
200.8959092767295
 30
0.0
 11
40.76366541727225
 21
200.8959092767295
 31
0.0
  0
LINE
  5
9124
330
6854
100
AcDbEntity
  8
0
  6
ByBlock
 62
     6
100
AcDbLine
 10
51.67625241157202
 20
207.8959092767295
 30
0.0
 11
40.76366541727225
 21
207.8959092767295
 31
0.0
  0
LINE
  5
9125
330
6854
100
AcDbEntity
  8
0
  6
ByBlock
 62
     6
100
AcDbLine
 10
41.76366541727225
 20
203.3959092767295
 30
0.0
 11
41.76366541727225
 21
205.3959092767295
 31
0.0
  0
MTEXT
  5
9126
330
6854
100
AcDbEntity
  8
0
  6
ByBlock
 62
     3
100
AcDbMText
 10
38.38926137641647
 20
217.2846585650538
 30
0.0
 40
3.0
 41
0.0
 71
     5
 72
     1
  1
\A1;7      (3等分)
  7
TXT
 11
0.0000000000000001
 21
1.0
 31
0.0
 73
     1
 44
1.0
  0
SOLID
  5
9127
330
6854
100
AcDbEntity
  8
0
  6
ByBlock
 62
     6
100
AcDbTrace
 10
41.34699875060558
 20
203.3959092767295
 30
0.0
 11
42.18033208393891
 21
203.3959092767295
 31
0.0
 12
41.76366541727225
 22
200.8959092767295
 32
0.0
 13
41.76366541727225
 23
200.8959092767295
 33
0.0
  0
SOLID
  5
9128
330
6854
100
AcDbEntity
  8
0
  6
ByBlock
 62
     6
100
AcDbTrace
 10
41.34699875060558
 20
205.3959092767295
 30
0.0
 11
42.18033208393891
 21
205.3959092767295
 31
0.0
 12
41.76366541727225
 22
207.8959092767295
 32
0.0
 13
41.76366541727225
 23
207.8959092767295
 33
0.0
  0
POINT
  5
9129
330
6854
100
AcDbEntity
  8
DEFPOINTS
  6
ByBlock
 62
     0
100
AcDbPoint
 10
52.68062282605183
 20
200.8959092767295
 30
0.0
  0
POINT
  5
912A
330
6854
100
AcDbEntity
  8
DEFPOINTS
  6
ByBlock
 62
     0
100
AcDbPoint
 10
52.67625241157202
 20
207.8959092767295
 30
0.0
  0
POINT
  5
912B
330
6854
100
AcDbEntity
  8
DEFPOINTS
  6
ByBlock
 62
     0
100
AcDbPoint
 10
41.76366541727225
 20
207.8959092767295
 30
0.0
  0
ENDBLK
  5
912C
330
6854
100
AcDbEntity
  8
0
100
AcDbBlockEnd
  0
BLOCK
  5
94A2
330
6C86
100
AcDbEntity
  8
0
100
AcDbBlockBegin
  2
*D4
 70
     1
 10
0.0
 20
0.0
 30
0.0
  3
*D4
  1

  0
LINE
  5
94A3
330
6C86
100
AcDbEntity
  8
0
  6
ByBlock
 62
     6
100
AcDbLine
 10
272.8020832128186
 20
110.7634832445547
 30
0.0
 11
272.8020832128186
 21
128.9547064627103
 31
0.0
  0
LINE
  5
94A4
330
6C86
100
AcDbEntity
  8
0
  6
ByBlock
 62
     6
100
AcDbLine
 10
345.8020832128186
 20
110.7634832445547
 30
0.0
 11
345.8020832128186
 21
128.9547064627103
 31
0.0
  0
LINE
  5
94A5
330
6C86
100
AcDbEntity
  8
0
  6
ByBlock
 62
     6
100
AcDbLine
 10
275.3020832128186
 20
127.9547064627103
 30
0.0
 11
343.3020832128186
 21
127.9547064627103
 31
0.0
  0
SOLID
  5
94A6
330
6C86
100
AcDbEntity
  8
0
  6
ByBlock
 62
     6
100
AcDbTrace
 10
275.3020832128186
 20
128.3713731293769
 30
0.0
 11
275.3020832128186
 21
127.5380397960436
 31
0.0
 12
272.8020832128186
 22
127.9547064627103
 32
0.0
 13
272.8020832128186
 23
127.9547064627103
 33
0.0
  0
SOLID
  5
94A7
330
6C86
100
AcDbEntity
  8
0
  6
ByBlock
 62
     6
100
AcDbTrace
 10
343.3020832128186
 20
128.3713731293769
 30
0.0
 11
343.3020832128186
 21
127.5380397960436
 31
0.0
 12
345.8020832128186
 22
127.9547064627103
 32
0.0
 13
345.8020832128186
 23
127.9547064627103
 33
0.0
  0
MTEXT
  5
94A8
330
6C86
100
AcDbEntity
  8
0
  6
ByBlock
 62
     3
100
AcDbMText
 10
309.3020832128186
 20
130.4547064627103
 30
0.0
 40
3.0
 41
0.0
 71
     5
 72
     1
  1
\A1;\U+220573±0.5
  7
TXT
 73
     1
 44
1.0
  0
POINT
  5
94A9
330
6C86
100
AcDbEntity
  8
DEFPOINTS
  6
ByBlock
 62
     0
100
AcDbPoint
 10
272.8020832128186
 20
109.7634832445547
 30
0.0
  0
POINT
  5
94AA
330
6C86
100
AcDbEntity
  8
DEFPOINTS
  6
ByBlock
 62
     0
100
AcDbPoint
 10
345.8020832128186
 20
109.7634832445547
 30
0.0
  0
POINT
  5
94AB
330
6C86
100
AcDbEntity
  8
DEFPOINTS
  6
ByBlock
 62
     0
100
AcDbPoint
 10
345.8020832128186
 20
127.9547064627103
 30
0.0
  0
ENDBLK
  5
94AC
330
6C86
100
AcDbEntity
  8
0
100
AcDbBlockEnd
  0
BLOCK
  5
9497
330
6C9E
100
AcDbEntity
  8
0
100
AcDbBlockBegin
  2
*D5
 70
     1
 10
0.0
 20
0.0
 30
0.0
  3
*D5
  1

  0
LINE
  5
9498
330
6C9E
100
AcDbEntity
  8
0
  6
ByBlock
 62
     6
100
AcDbLine
 10
269.3020832128186
 20
108.2634832445547
 30
0.0
 11
269.3020832128186
 21
134.4621765531252
 31
0.0
  0
LINE
  5
9499
330
6C9E
100
AcDbEntity
  8
0
  6
ByBlock
 62
     6
100
AcDbLine
 10
349.3020832128186
 20
108.2634832445547
 30
0.0
 11
349.3020832128186
 21
134.4621765531252
 31
0.0
  0
LINE
  5
949A
330
6C9E
100
AcDbEntity
  8
0
  6
ByBlock
 62
     6
100
AcDbLine
 10
271.8020832128186
 20
133.4621765531252
 30
0.0
 11
346.8020832128186
 21
133.4621765531252
 31
0.0
  0
MTEXT
  5
949B
330
6C9E
100
AcDbEntity
  8
0
  6
ByBlock
 62
     3
100
AcDbMText
 10
305.2330270849048
 20
136.7882973030105
 30
0.0
 40
3.0
 41
0.0
 71
     5
 72
     1
  1
\A1;\U+220580
  7
TXT
 73
     1
 44
1.0
  0
SOLID
  5
949C
330
6C9E
100
AcDbEntity
  8
0
  6
ByBlock
 62
     6
100
AcDbTrace
 10
271.8020832128186
 20
133.8788432197919
 30
0.0
 11
271.8020832128186
 21
133.0455098864586
 31
0.0
 12
269.3020832128186
 22
133.4621765531252
 32
0.0
 13
269.3020832128186
 23
133.4621765531252
 33
0.0
  0
SOLID
  5
949D
330
6C9E
100
AcDbEntity
  8
0
  6
ByBlock
 62
     6
100
AcDbTrace
 10
346.8020832128186
 20
133.8788432197919
 30
0.0
 11
346.8020832128186
 21
133.0455098864586
 31
0.0
 12
349.3020832128186
 22
133.4621765531252
 32
0.0
 13
349.3020832128186
 23
133.4621765531252
 33
0.0
  0
POINT
  5
949E
330
6C9E
100
AcDbEntity
  8
DEFPOINTS
  6
ByBlock
 62
     0
100
AcDbPoint
 10
269.3020832128186
 20
107.2634832445547
 30
0.0
  0
POINT
  5
949F
330
6C9E
100
AcDbEntity
  8
DEFPOINTS
  6
ByBlock
 62
     0
100
AcDbPoint
 10
349.3020832128186
 20
107.2634832445547
 30
0.0
  0
POINT
  5
94A0
330
6C9E
100
AcDbEntity
  8
DEFPOINTS
  6
ByBlock
 62
     0
100
AcDbPoint
 10
349.3020832128186
 20
133.4621765531252
 30
0.0
  0
ENDBLK
  5
94A1
330
6C9E
100
AcDbEntity
  8
0
100
AcDbBlockEnd
  0
BLOCK
  5
916D
330
6FE3
100
AcDbEntity
  8
0
100
AcDbBlockBegin
  2
*D6
 70
     1
 10
0.0
 20
0.0
 30
0.0
  3
*D6
  1

  0
LINE
  5
916E
330
6FE3
100
AcDbEntity
  8
0
  6
ByBlock
 62
     6
100
AcDbLine
 10
128.3785872205454
 20
100.4987644138218
 30
0.0
 11
157.1448781245442
 21
83.89053861681096
 31
0.0
  0
LINE
  5
916F
330
6FE3
100
AcDbEntity
  8
0
  6
ByBlock
 62
     6
100
AcDbLine
 10
123.7585872205453
 20
92.49668968285352
 30
0.0
 11
152.5248781245441
 21
75.88846388584264
 31
0.0
  0
LINE
  5
9170
330
6FE3
100
AcDbEntity
  8
0
  6
ByBlock
 62
     6
100
AcDbLine
 10
155.0288527207598
 20
82.22547510734985
 30
0.0
 11
152.9088527207597
 21
78.55352739530373
 31
0.0
  0
LINE
  5
9171
330
6FE3
100
AcDbEntity
  8
0
  6
ByBlock
 62
     6
100
AcDbLine
 10
165.6799250957721
 20
100.6736736159645
 30
0.0
 11
156.2788527207598
 21
84.39053861681095
 31
0.0
  0
MTEXT
  5
9172
330
6FE3
100
AcDbEntity
  8
0
  6
ByBlock
 62
     3
100
AcDbMText
 10
159.9898615863111
 20
95.81819451928428
 30
0.0
 40
3.0
 41
0.0
 71
     5
 72
     1
  1
\A1;9±0.5
  7
TXT
 11
0.5000000000000011
 21
0.866025403784438
 31
0.0
 73
     1
 44
1.0
  0
SOLID
  5
9173
330
6FE3
100
AcDbEntity
  8
0
  6
ByBlock
 62
     6
100
AcDbTrace
 10
154.6680088025162
 20
82.43380844068319
 30
0.0
 11
155.3896966390033
 21
82.01714177401653
 31
0.0
 12
156.2788527207598
 22
84.39053861681095
 32
0.0
 13
156.2788527207598
 23
84.39053861681095
 33
0.0
  0
SOLID
  5
9174
330
6FE3
100
AcDbEntity
  8
0
  6
ByBlock
 62
     6
100
AcDbTrace
 10
152.5480088025162
 20
78.76186072863707
 30
0.0
 11
153.2696966390032
 21
78.3451940619704
 31
0.0
 12
151.6588527207597
 22
76.38846388584264
 32
0.0
 13
151.6588527207597
 23
76.38846388584264
 33
0.0
  0
POINT
  5
9175
330
6FE3
100
AcDbEntity
  8
DEFPOINTS
  6
ByBlock
 62
     0
100
AcDbPoint
 10
127.5125618167609
 20
100.9987644138218
 30
0.0
  0
POINT
  5
9176
330
6FE3
100
AcDbEntity
  8
DEFPOINTS
  6
ByBlock
 62
     0
100
AcDbPoint
 10
122.8925618167608
 20
92.99668968285351
 30
0.0
  0
POINT
  5
9177
330
6FE3
100
AcDbEntity
  8
DEFPOINTS
  6
ByBlock
 62
     0
100
AcDbPoint
 10
151.6588527207597
 20
76.38846388584264
 30
0.0
  0
ENDBLK
  5
9178
330
6FE3
100
AcDbEntity
  8
0
100
AcDbBlockEnd
  0
BLOCK
  5
94DE
330
74B6
100
AcDbEntity
  8
0
100
AcDbBlockBegin
  2
*D7
 70
     1
 10
0.0
 20
0.0
 30
0.0
  3
*D7
  1

  0
LINE
  5
94DF
330
74B6
100
AcDbEntity
  8
0
  6
ByBlock
 62
     6
100
AcDbLine
 10
48.72333120553617
 20
115.2000691255242
 30
0.0
 11
34.36387643830505
 21
115.2000691255242
 31
0.0
  0
LINE
  5
94E0
330
74B6
100
AcDbEntity
  8
0
  6
ByBlock
 62
     6
100
AcDbLine
 10
47.22333120553616
 20
114.7000691255242
 30
0.0
 11
34.36387643830505
 21
114.7000691255242
 31
0.0
  0
LINE
  5
94E1
330
74B6
100
AcDbEntity
  8
0
  6
ByBlock
 62
     6
100
AcDbLine
 10
35.36387643830505
 20
117.7000691255242
 30
0.0
 11
35.36387643830505
 21
120.2000691255242
 31
0.0
  0
LINE
  5
94E2
330
74B6
100
AcDbEntity
  8
0
  6
ByBlock
 62
     6
100
AcDbLine
 10
35.36387643830505
 20
112.2000691255242
 30
0.0
 11
35.36387643830505
 21
109.7000691255242
 31
0.0
  0
LINE
  5
94E3
330
74B6
100
AcDbEntity
  8
0
  6
ByBlock
 62
     6
100
AcDbLine
 10
35.36387643830505
 20
131.7710249142912
 30
0.0
 11
35.36387643830505
 21
115.2000691255242
 31
0.0
  0
MTEXT
  5
94E4
330
74B6
100
AcDbEntity
  8
0
  6
ByBlock
 62
     3
100
AcDbMText
 10
32.86387643830505
 20
128.0210249142913
 30
0.0
 40
3.0
 41
0.0
 71
     5
 72
     1
  1
\A1;0.5
  7
TXT
 11
0.0000000000000001
 21
1.0
 31
0.0
 73
     1
 44
1.0
  0
LINE
  5
94E5
330
74B6
100
AcDbEntity
  8
0
  6
ByBlock
 62
     6
100
AcDbLine
 10
35.36387643830505
 20
115.2000691255242
 30
0.0
 11
35.36387643830505
 21
114.7000691255242
 31
0.0
  0
SOLID
  5
94E6
330
74B6
100
AcDbEntity
  8
0
  6
ByBlock
 62
     6
100
AcDbTrace
 10
34.94720977163839
 20
117.7000691255242
 30
0.0
 11
35.78054310497171
 21
117.7000691255242
 31
0.0
 12
35.36387643830505
 22
115.2000691255242
 32
0.0
 13
35.36387643830505
 23
115.2000691255242
 33
0.0
  0
SOLID
  5
94E7
330
74B6
100
AcDbEntity
  8
0
  6
ByBlock
 62
     6
100
AcDbTrace
 10
34.94720977163839
 20
112.2000691255242
 30
0.0
 11
35.78054310497171
 21
112.2000691255242
 31
0.0
 12
35.36387643830505
 22
114.7000691255242
 32
0.0
 13
35.36387643830505
 23
114.7000691255242
 33
0.0
  0
POINT
  5
94E8
330
74B6
100
AcDbEntity
  8
DEFPOINTS
  6
ByBlock
 62
     0
100
AcDbPoint
 10
49.72333120553617
 20
115.2000691255242
 30
0.0
  0
POINT
  5
94E9
330
74B6
100
AcDbEntity
  8
DEFPOINTS
  6
ByBlock
 62
     0
100
AcDbPoint
 10
48.22333120553617
 20
114.7000691255242
 30
0.0
  0
POINT
  5
94EA
330
74B6
100
AcDbEntity
  8
DEFPOINTS
  6
ByBlock
 62
     0
100
AcDbPoint
 10
35.36387643830505
 20
114.7000691255242
 30
0.0
  0
ENDBLK
  5
94EB
330
74B6
100
AcDbEntity
  8
0
100
AcDbBlockEnd
  0
BLOCK
  5
94AD
330
7501
100
AcDbEntity
  8
0
100
AcDbBlockBegin
  2
*D8
 70
     1
 10
0.0
 20
0.0
 30
0.0
  3
*D8
  1

  0
LINE
  5
94AE
330
7501
100
AcDbEntity
  8
0
  6
ByBlock
 62
     6
100
AcDbLine
 10
278.8020832128186
 20
110.7634832445547
 30
0.0
 11
278.8020832128186
 21
123.1116116510817
 31
0.0
  0
LINE
  5
94AF
330
7501
100
AcDbEntity
  8
0
  6
ByBlock
 62
     6
100
AcDbLine
 10
339.8020832128186
 20
110.7634832445547
 30
0.0
 11
339.8020832128186
 21
123.1116116510817
 31
0.0
  0
LINE
  5
94B0
330
7501
100
AcDbEntity
  8
0
  6
ByBlock
 62
     6
100
AcDbLine
 10
281.3020832128186
 20
122.1116116510817
 30
0.0
 11
337.3020832128186
 21
122.1116116510817
 31
0.0
  0
SOLID
  5
94B1
330
7501
100
AcDbEntity
  8
0
  6
ByBlock
 62
     6
100
AcDbTrace
 10
281.3020832128186
 20
122.5282783177484
 30
0.0
 11
281.3020832128186
 21
121.694944984415
 31
0.0
 12
278.8020832128186
 22
122.1116116510817
 32
0.0
 13
278.8020832128186
 23
122.1116116510817
 33
0.0
  0
SOLID
  5
94B2
330
7501
100
AcDbEntity
  8
0
  6
ByBlock
 62
     6
100
AcDbTrace
 10
337.3020832128186
 20
122.5282783177484
 30
0.0
 11
337.3020832128186
 21
121.694944984415
 31
0.0
 12
339.8020832128186
 22
122.1116116510817
 32
0.0
 13
339.8020832128186
 23
122.1116116510817
 33
0.0
  0
MTEXT
  5
94B3
330
7501
100
AcDbEntity
  8
0
  6
ByBlock
 62
     3
100
AcDbMText
 10
309.3020832128186
 20
124.6116116510817
 30
0.0
 40
3.0
 41
0.0
 71
     5
 72
     1
  1
\A1;\U+220561
  7
TXT
 73
     1
 44
1.0
  0
POINT
  5
94B4
330
7501
100
AcDbEntity
  8
DEFPOINTS
  6
ByBlock
 62
     0
100
AcDbPoint
 10
278.8020832128186
 20
109.7634832445547
 30
0.0
  0
POINT
  5
94B5
330
7501
100
AcDbEntity
  8
DEFPOINTS
  6
ByBlock
 62
     0
100
AcDbPoint
 10
339.8020832128186
 20
109.7634832445547
 30
0.0
  0
POINT
  5
94B6
330
7501
100
AcDbEntity
  8
DEFPOINTS
  6
ByBlock
 62
     0
100
AcDbPoint
 10
339.8020832128186
 20
122.1116116510817
 30
0.0
  0
ENDBLK
  5
94B7
330
7501
100
AcDbEntity
  8
0
100
AcDbBlockEnd
  0
BLOCK
  5
9157
330
755C
100
AcDbEntity
  8
0
100
AcDbBlockBegin
  2
*D9
 70
     1
 10
0.0
 20
0.0
 30
0.0
  3
*D9
  1

  0
LINE
  5
9158
330
755C
100
AcDbEntity
  8
0
  6
ByBlock
 62
     6
100
AcDbLine
 10
125.0125618167609
 20
114.9966896828535
 30
0.0
 11
143.3988883922231
 21
114.9966896828535
 31
0.0
  0
LINE
  5
9159
330
755C
100
AcDbEntity
  8
0
  6
ByBlock
 62
     6
100
AcDbLine
 10
126.2256125185849
 20
97.03765203504707
 30
0.0
 11
143.3988883922231
 21
97.03765203504707
 31
0.0
  0
LINE
  5
915A
330
755C
100
AcDbEntity
  8
0
  6
ByBlock
 62
     6
100
AcDbLine
 10
142.3988883922231
 20
112.4966896828535
 30
0.0
 11
142.3988883922231
 21
99.53765203504707
 31
0.0
  0
SOLID
  5
915B
330
755C
100
AcDbEntity
  8
0
  6
ByBlock
 62
     6
100
AcDbTrace
 10
141.9822217255565
 20
112.4966896828535
 30
0.0
 11
142.8155550588898
 21
112.4966896828535
 31
0.0
 12
142.3988883922231
 22
114.9966896828535
 32
0.0
 13
142.3988883922231
 23
114.9966896828535
 33
0.0
  0
SOLID
  5
915C
330
755C
100
AcDbEntity
  8
0
  6
ByBlock
 62
     6
100
AcDbTrace
 10
141.9822217255565
 20
99.53765203504707
 30
0.0
 11
142.8155550588898
 21
99.53765203504707
 31
0.0
 12
142.3988883922231
 22
97.03765203504707
 32
0.0
 13
142.3988883922231
 23
97.03765203504707
 33
0.0
  0
MTEXT
  5
915D
330
755C
100
AcDbEntity
  8
0
  6
ByBlock
 62
     3
100
AcDbMText
 10
139.8988883922231
 20
106.0171708589503
 30
0.0
 40
3.0
 41
0.0
 71
     5
 72
     1
  1
\A1;18
  7
TXT
 11
0.0000000000000001
 21
1.0
 31
0.0
 73
     1
 44
1.0
  0
POINT
  5
915E
330
755C
100
AcDbEntity
  8
DEFPOINTS
  6
ByBlock
 62
     0
100
AcDbPoint
 10
124.0125618167609
 20
114.9966896828535
 30
0.0
  0
POINT
  5
915F
330
755C
100
AcDbEntity
  8
DEFPOINTS
  6
ByBlock
 62
     0
100
AcDbPoint
 10
125.2256125185849
 20
97.03765203504707
 30
0.0
  0
POINT
  5
9160
330
755C
100
AcDbEntity
  8
DEFPOINTS
  6
ByBlock
 62
     0
100
AcDbPoint
 10
142.3988883922231
 20
97.03765203504707
 30
0.0
  0
ENDBLK
  5
9161
330
755C
100
AcDbEntity
  8
0
100
AcDbBlockEnd
  0
BLOCK
  5
9162
330
7569
100
AcDbEntity
  8
0
100
AcDbBlockBegin
  2
*D10
 70
     1
 10
0.0
 20
0.0
 30
0.0
  3
*D10
  1

  0
LINE
  5
9163
330
7569
100
AcDbEntity
  8
0
  6
ByBlock
 62
     6
100
AcDbLine
 10
123.8925618167608
 20
92.99668968285351
 30
0.0
 11
153.5479093186113
 21
92.99668968285351
 31
0.0
  0
LINE
  5
9164
330
7569
100
AcDbEntity
  8
0
  6
ByBlock
 62
     6
100
AcDbLine
 10
125.0125618167609
 20
114.9966896828535
 30
0.0
 11
153.5479093186113
 21
114.9966896828535
 31
0.0
  0
LINE
  5
9165
330
7569
100
AcDbEntity
  8
0
  6
ByBlock
 62
     6
100
AcDbLine
 10
152.5479093186113
 20
95.49668968285351
 30
0.0
 11
152.5479093186113
 21
112.4966896828535
 31
0.0
  0
SOLID
  5
9166
330
7569
100
AcDbEntity
  8
0
  6
ByBlock
 62
     6
100
AcDbTrace
 10
152.1312426519447
 20
95.49668968285351
 30
0.0
 11
152.964575985278
 21
95.49668968285351
 31
0.0
 12
152.5479093186113
 22
92.99668968285351
 32
0.0
 13
152.5479093186113
 23
92.99668968285351
 33
0.0
  0
SOLID
  5
9167
330
7569
100
AcDbEntity
  8
0
  6
ByBlock
 62
     6
100
AcDbTrace
 10
152.1312426519447
 20
112.4966896828535
 30
0.0
 11
152.964575985278
 21
112.4966896828535
 31
0.0
 12
152.5479093186113
 22
114.9966896828535
 32
0.0
 13
152.5479093186113
 23
114.9966896828535
 33
0.0
  0
MTEXT
  5
9168
330
7569
100
AcDbEntity
  8
0
  6
ByBlock
 62
     3
100
AcDbMText
 10
150.0479093186113
 20
103.9966896828535
 30
0.0
 40
3.0
 41
0.0
 71
     5
 72
     1
  1
\A1;22±0.2
  7
TXT
 11
0.0000000000000001
 21
1.0
 31
0.0
 73
     1
 44
1.0
  0
POINT
  5
9169
330
7569
100
AcDbEntity
  8
DEFPOINTS
  6
ByBlock
 62
     0
100
AcDbPoint
 10
122.8925618167608
 20
92.99668968285351
 30
0.0
  0
POINT
  5
916A
330
7569
100
AcDbEntity
  8
DEFPOINTS
  6
ByBlock
 62
     0
100
AcDbPoint
 10
124.0125618167609
 20
114.9966896828535
 30
0.0
  0
POINT
  5
916B
330
7569
100
AcDbEntity
  8
DEFPOINTS
  6
ByBlock
 62
     0
100
AcDbPoint
 10
152.5479093186113
 20
114.9966896828535
 30
0.0
  0
ENDBLK
  5
916C
330
7569
100
AcDbEntity
  8
0
100
AcDbBlockEnd
  0
BLOCK
  5
9065
330
7AC6
100
AcDbEntity
  8
0
100
AcDbBlockBegin
  2
*D11
 70
     1
 10
0.0
 20
0.0
 30
0.0
  3
*D11
  1

  0
LINE
  5
9066
330
7AC6
100
AcDbEntity
  8
0
  6
ByBlock
 62
     6
100
AcDbLine
 10
312.5311849191344
 20
112.9966896828538
 30
0.0
 11
308.7489200256147
 21
112.9966896828538
 31
0.0
  0
LINE
  5
9067
330
7AC6
100
AcDbEntity
  8
0
  6
ByBlock
 62
     6
100
AcDbLine
 10
312.5311849191344
 20
114.9966896828535
 30
0.0
 11
308.7489200256147
 21
114.9966896828535
 31
0.0
  0
LINE
  5
9068
330
7AC6
100
AcDbEntity
  8
0
  6
ByBlock
 62
     6
100
AcDbLine
 10
309.7489200256147
 20
110.4966896828538
 30
0.0
 11
309.7489200256147
 21
107.9966896828538
 31
0.0
  0
LINE
  5
9069
330
7AC6
100
AcDbEntity
  8
0
  6
ByBlock
 62
     6
100
AcDbLine
 10
309.7489200256147
 20
117.4966896828535
 30
0.0
 11
309.7489200256147
 21
119.9966896828535
 31
0.0
  0
LINE
  5
906A
330
7AC6
100
AcDbEntity
  8
0
  6
ByBlock
 62
     6
100
AcDbLine
 10
309.7489200256147
 20
124.5825033705258
 30
0.0
 11
309.7489200256147
 21
114.9966896828535
 31
0.0
  0
MTEXT
  5
906B
330
7AC6
100
AcDbEntity
  8
0
  6
ByBlock
 62
     3
100
AcDbMText
 10
307.2489200256147
 20
122.5825033705258
 30
0.0
 40
3.0
 41
0.0
 71
     5
 72
     1
  1
\A1;2
  7
TXT
 11
0.0000000000000001
 21
1.0
 31
0.0
 73
     1
 44
1.0
  0
LINE
  5
906C
330
7AC6
100
AcDbEntity
  8
0
  6
ByBlock
 62
     6
100
AcDbLine
 10
309.7489200256147
 20
112.9966896828538
 30
0.0
 11
309.7489200256147
 21
114.9966896828535
 31
0.0
  0
SOLID
  5
906D
330
7AC6
100
AcDbEntity
  8
0
  6
ByBlock
 62
     6
100
AcDbTrace
 10
309.332253358948
 20
110.4966896828538
 30
0.0
 11
310.1655866922814
 21
110.4966896828538
 31
0.0
 12
309.7489200256147
 22
112.9966896828538
 32
0.0
 13
309.7489200256147
 23
112.9966896828538
 33
0.0
  0
SOLID
  5
906E
330
7AC6
100
AcDbEntity
  8
0
  6
ByBlock
 62
     6
100
AcDbTrace
 10
309.332253358948
 20
117.4966896828535
 30
0.0
 11
310.1655866922814
 21
117.4966896828535
 31
0.0
 12
309.7489200256147
 22
114.9966896828535
 32
0.0
 13
309.7489200256147
 23
114.9966896828535
 33
0.0
  0
POINT
  5
906F
330
7AC6
100
AcDbEntity
  8
DEFPOINTS
  6
ByBlock
 62
     0
100
AcDbPoint
 10
313.5311849191344
 20
112.9966896828538
 30
0.0
  0
POINT
  5
9070
330
7AC6
100
AcDbEntity
  8
DEFPOINTS
  6
ByBlock
 62
     0
100
AcDbPoint
 10
313.5311849191344
 20
114.9966896828535
 30
0.0
  0
POINT
  5
9071
330
7AC6
100
AcDbEntity
  8
DEFPOINTS
  6
ByBlock
 62
     0
100
AcDbPoint
 10
309.7489200256147
 20
114.9966896828535
 30
0.0
  0
ENDBLK
  5
9072
330
7AC6
100
AcDbEntity
  8
0
100
AcDbBlockEnd
  0
BLOCK
  5
90D3
330
90C4
100
AcDbEntity
  8
0
100
AcDbBlockBegin
  2
*D12
 70
     1
 10
0.0
 20
0.0
 30
0.0
  3
*D12
  1

  0
LINE
  5
90D4
330
90C4
100
AcDbEntity
  8
0
  6
ByBlock
 62
     6
100
AcDbLine
 10
338.3373387479563
 20
95.56466814110235
 30
0.0
 11
374.9252456821531
 21
74.78130743858409
 31
0.0
  0
LINE
  5
90D5
330
90C4
100
AcDbEntity
  8
0
  6
ByBlock
 62
     6
100
AcDbLine
 10
335.5311849191347
 20
114.9966896828535
 30
0.0
 11
385.5499575802708
 21
114.9966896828534
 31
0.0
  0
ARC
  5
90D6
330
90C4
100
AcDbEntity
  8
0
  6
ByBlock
 62
     6
100
AcDbCircle
 10
304.1283864091389
 20
114.9966896828535
 30
0.0
 40
80.42157117113186
100
AcDbArc
 50
332.1829114385338
 51
358.218820960513
  0
SOLID
  5
90D7
330
90C4
100
AcDbEntity
  8
0
  6
ByBlock
 62
     6
100
AcDbTrace
 10
375.6220391629668
 20
77.26778542119534
 30
0.0
 11
374.8911376611862
 21
77.66806961915887
 31
0.0
 12
374.0557358181859
 22
75.2752230148353
 32
0.0
 13
374.0557358181859
 23
75.2752230148353
 33
0.0
  0
SOLID
  5
90D8
330
90C4
100
AcDbEntity
  8
0
  6
ByBlock
 62
     6
100
AcDbTrace
 10
384.0944835136807
 20
112.5034679747465
 30
0.0
 11
384.9277161793689
 21
112.4905153968312
 31
0.0
 12
384.5499575802707
 22
114.9966896828534
 32
0.0
 13
384.5499575802707
 23
114.9966896828534
 33
0.0
  0
MTEXT
  5
90D9
330
90C4
100
AcDbEntity
  8
0
  6
ByBlock
 62
     3
100
AcDbMText
 10
379.4650848060377
 20
95.09309381596384
 30
0.0
 40
3.0
 41
0.0
 71
     5
 72
     1
  1
\A1;30°
  7
TXT
 11
0.255431141438065
 21
0.9668272503315405
 31
0.0
 73
     1
 44
1.0
  0
POINT
  5
90DA
330
90C4
100
AcDbEntity
  8
DEFPOINTS
  6
ByBlock
 62
     0
100
AcDbPoint
 10
379.8276895535873
 20
87.84444091634583
 30
0.0
  0
POINT
  5
90DB
330
90C4
100
AcDbEntity
  8
DEFPOINTS
  6
ByBlock
 62
     0
100
AcDbPoint
 10
337.467828883989
 20
96.05858371735362
 30
0.0
  0
POINT
  5
90DC
330
90C4
100
AcDbEntity
  8
DEFPOINTS
  6
ByBlock
 62
     0
100
AcDbPoint
 10
266.5311849191342
 20
114.9966896828535
 30
0.0
  0
POINT
  5
90DD
330
90C4
100
AcDbEntity
  8
DEFPOINTS
  6
ByBlock
 62
     0
100
AcDbPoint
 10
334.5311849191347
 20
114.9966896828535
 30
0.0
  0
POINT
  5
90DE
330
90C4
100
AcDbEntity
  8
DEFPOINTS
  6
ByBlock
 62
     0
100
AcDbPoint
 10
324.5619034841447
 20
103.3896536052038
 30
0.0
  0
ENDBLK
  5
90DF
330
90C4
100
AcDbEntity
  8
0
100
AcDbBlockEnd
  0
ENDSEC
  0
SECTION
  2
ENTITIES
  0
MTEXT
  5
C0
330
18
100
AcDbEntity
  8
0
100
AcDbMText
 10
41.26970765600413
 20
233.6950877649332
 30
0.0
 40
2.5
 41
0.0
 71
     1
 72
     5
  1

  7
ISOCP3
 73
     1
 44
1.0
  0
MTEXT
  5
4FE4
330
18
100
AcDbEntity
  8
公差
100
AcDbMText
 10
59.04417298730686
 20
161.4781248217745
 30
0.0
 40
2.0
 41
9.555074525974475
 71
     1
 72
     5
  1
+0.15\P+0
  7
TXT
 73
     1
 44
1.0
  0
MTEXT
  5
4FE5
330
18
100
AcDbEntity
  8
公差
100
AcDbMText
 10
28.5165141309202
 20
205.1439112649844
 30
0.0
 40
2.0
 41
8.84945634767439
 71
     1
 72
     5
  1
+0.15\P+0
  7
TXT
 11
0.0000000000000001
 21
1.0
 31
0.0
 73
     1
 44
1.0
  0
MTEXT
  5
503F
330
18
100
AcDbEntity
  8
公差
100
AcDbMText
 10
87.33802262167172
 20
145.3709670170544
 30
0.0
 40
2.0
 41
11.48459459716352
 71
     1
 72
     5
  1
+0\P-0.2
  7
TXT
 73
     1
 44
1.0
  0
LINE
  5
5AD6
330
18
100
AcDbEntity
  8
DIM
100
AcDbLine
 10
151.2586787073866
 20
115.2000691255238
 30
0.0
 11
151.2586787073866
 21
131.7267955806476
 31
0.0
  0
LINE
  5
5AD7
330
18
100
AcDbEntity
  8
DIM
100
AcDbLine
 10
151.2586787073866
 20
131.7267955806476
 30
0.0
 11
163.4104188336341
 21
131.7267955806476
 31
0.0
  0
LINE
  5
5ADA
330
18
100
AcDbEntity
  8
DIM
100
AcDbLine
 10
56.22333120553617
 20
76.24884972543795
 30
0.0
 11
56.22333120553617
 21
68.96731453569319
 31
0.0
  0
TOLERANCE
  5
5E6E
330
18
100
AcDbEntity
  8
DIM
  6
ByBlock
100
AcDbFcf
  3
A
 10
163.4104188336341
 20
131.7777340167786
 30
0.0
  1
{\Fgdt;h}%%v0.005%%v%%vA%%v%%v
1001
ACAD
1000
DSTYLE
1002
{
1070
   140
1040
2.743999999999999
1070
   147
1040
0.6859999999999999
1002
}
  0
MTEXT
  5
608E
330
18
100
AcDbEntity
  8
0
100
AcDbMText
 10
17.81948278949767
 20
19.37399834316261
 30
0.0
 40
5.0
 41
0.0
 71
     1
 72
     5
  1
\Ftxt.shx,bigfont.shx|c128;呉銘宏
  7
JL
 73
     1
 44
1.0
  0
MTEXT
  5
6095
330
18
100
AcDbEntity
  8
0
100
AcDbMText
 10
81.23517665196368
 20
29.2278230533891
 30
0.0
 40
4.5
 41
0.0
 71
     1
 72
     5
  1
\Ftxt.shx,bigfont.shx|c128;1 : 1
  7
JL
 73
     1
 44
1.0
  0
MTEXT
  5
6098
330
18
100
AcDbEntity
  8
0
 48
2.0
370
    25
100
AcDbMText
 10
146.1234268906314
 20
3.636969934829039
 30
0.0
 40
4.5
 41
0.0
 71
     5
 72
     1
  1
\Ftxt.shx,bigfont.shx|c128;N L 4 0 0 0 9
 73
     1
 44
1.0
  0
MTEXT
  5
609C
330
18
100
AcDbEntity
  8
0
 48
2.0
100
AcDbMText
 10
178.1300746997774
 20
22.17550270047843
 30
0.0
 40
4.5
 41
0.0
 71
     5
 72
     1
  1
\P\Ftxt.shx,bigfont.shx|c128;    MF60X2.0P
 73
     1
 44
1.0
  0
MTEXT
  5
635A
330
18
100
AcDbEntity
  8
0
100
AcDbMText
 10
16.02348109109539
 20
28.64592585511957
 30
0.0
 40
4.5
 41
0.0
 71
     1
 72
     5
  1
\Ftxt.shx,bigfont.shx|c128;05.03.03
  7
JL
 73
     1
 44
1.0
  0
INSERT
  5
63A3
330
18
100
AcDbEntity
  8
0
100
AcDbBlockReference
  2
A$C255C26A2
 10
101.9921755562589
 20
115.200068431543
 30
0.0
  0
MTEXT
  5
63A4
330
18
100
AcDbEntity
  8
0
 62
     7
 48
2.0
100
AcDbMText
 10
106.0859783051151
 20
120.0956193985617
 30
0.0
 40
3.0
 41
0.0
 71
     5
 72
     1
  1
G
 73
     1
 44
1.0
  0
LEADER
  5
63C9
330
18
100
AcDbEntity
  8
DIM
 62
     6
100
AcDbLeader
  3
A
 76
     2
 10
115.3809642020534
 20
229.2390814684464
 30
0.0
 10
128.0312683703056
 20
240.4572310546284
 30
0.0
  0
LEADER
  5
63CA
330
18
100
AcDbEntity
  8
DIM
 62
     6
100
AcDbLeader
  3
A
 76
     2
 10
117.1836537401761
 20
103.5136134998311
 30
0.0
 10
133.0050764417483
 20
130.6744579220548
 30
0.0
  0
LEADER
  5
63CB
330
18
100
AcDbEntity
  8
DIM
 62
     6
100
AcDbLeader
  3
A
 76
     2
 10
123.9363819073601
 20
97.24103147771771
 30
0.0
 10
135.1306442845019
 20
74.27192096881175
 30
0.0
  0
MTEXT
  5
63CC
330
18
100
AcDbEntity
  8
DIM
100
AcDbMText
 10
132.3293478484021
 20
136.4230534870715
 30
0.0
 40
5.0
 41
1.0
 71
     1
 72
     5
  1
\Ftxt.shx,bigfont.shx|c128;3
 73
     1
 44
1.0
  0
MTEXT
  5
63CD
330
18
100
AcDbEntity
  8
DIM
100
AcDbMText
 10
130.1772969064165
 20
244.3127260905368
 30
0.0
 40
5.0
 41
1.0
 71
     1
 72
     5
  1
\Ftxt.shx,bigfont.shx|c128;1
 73
     1
 44
1.0
  0
MTEXT
  5
63CE
330
18
100
AcDbEntity
  8
DIM
100
AcDbMText
 10
134.1905601833258
 20
73.04407229001785
 30
0.0
 40
5.0
 41
1.0
 71
     1
 72
     5
  1
\Ftxt.shx,bigfont.shx|c128;2
 73
     1
 44
1.0
  0
LINE
  5
63CF
330
18
100
AcDbEntity
  8
DIM
100
AcDbLine
 10
56.22333120553617
 20
68.96731453569319
 30
0.0
 11
57.13578955376175
 21
67.98944043996812
 31
0.0
  0
HATCH
  5
63D0
330
18
100
AcDbEntity
  8
DIM
  6
Continuous
100
AcDbHatch
 10
0.0
 20
0.0
 30
0.0
210
0.0
220
0.0
230
1.0
  2
SOLID
 70
     1
 71
     0
 91
        1
 92
        7
 72
     0
 73
     1
 93
        3
 10
56.22220709108359
 20
66.98362614071268
 10
57.14093917968364
 20
67.96843393595641
 10
56.22220709108359
 20
68.95324173120013
 97
        0
 75
     0
 76
     1
 47
0.2359147607200769
 98
        1
 10
56.51002308731438
 20
68.17990994164794
450
        0
451
        0
460
0.0
461
0.0
452
        0
462
0.0
453
        0
470

  0
LINE
  5
63D1
330
18
100
AcDbEntity
  8
DIM
100
AcDbLine
 10
61.88288236045782
 20
66.17578663580861
 30
0.0
 11
61.88288236045782
 21
69.82208542582975
 31
0.0
  0
LINE
  5
63D2
330
18
100
AcDbEntity
  8
DIM
100
AcDbLine
 10
61.88288236045782
 20
69.82208542582975
 30
0.0
 11
65.6915176059685
 21
69.82208542582975
 31
0.0
  0
LINE
  5
63D3
330
18
100
AcDbEntity
  8
DIM
100
AcDbLine
 10
65.6915176059685
 20
66.17578663580861
 30
0.0
 11
65.6915176059685
 21
69.82208542582975
 31
0.0
  0
LINE
  5
63D4
330
18
100
AcDbEntity
  8
DIM
100
AcDbLine
 10
61.88288236045782
 20
66.17578663580861
 30
0.0
 11
65.6915176059685
 21
66.17578663580861
 31
0.0
  0
LINE
  5
63D5
330
18
100
AcDbEntity
  8
DIM
100
AcDbLine
 10
61.88288236045782
 20
67.99893603081918
 30
0.0
 11
57.12208852473475
 21
67.99893603081918
 31
0.0
  0
MTEXT
  5
63D6
330
18
100
AcDbEntity
  8
DIM
100
AcDbMText
 10
62.84012008289744
 20
69.49075371005623
 30
0.0
 40
3.0
 41
2.354875985554478
 71
     1
 72
     5
  1
A
  7
ISOCP3
 73
     1
 44
1.0
  0
LINE
  5
64AF
330
18
100
AcDbEntity
  8
図框線
100
AcDbLine
 10
197.9999999999997
 20
289.9999999999999
 30
0.0
 11
197.9999999999997
 21
-0.0000000000000568
 31
0.0
  0
LINE
  5
64B0
330
18
100
AcDbEntity
  8
図框線
370
    30
100
AcDbLine
 10
-0.0000000000002274
 20
0.0
 30
0.0
 11
-0.0000000000002274
 21
290.0
 31
0.0
  0
LINE
  5
64B1
330
18
100
AcDbEntity
  8
0
 62
     7
 48
5.0
100
AcDbLine
 39
4.0
 10
49.94750515634314
 20
27.8953239783782
 30
0.0
 11
55.27930887205229
 21
29.22827490730549
 31
0.0
  0
MTEXT
  5
64B2
330
18
100
AcDbEntity
  8
0
100
AcDbMText
 10
15.97866977158742
 20
9.63134010478825
 30
0.0
 40
6.0
 41
0.0
 71
     1
 72
     5
  1
\Ftxt.shx,bigfont.shx|c128;日機株式会社
  7
LKK
 73
     1
 44
1.0
  0
LINE
  5
64B3
330
18
100
AcDbEntity
  8
図框線
100
AcDbLine
 10
0.0
 20
0.0
 30
0.0
 11
197.9999999999997
 21
0.0
 31
0.0
  0
LINE
  5
64B7
330
18
100
AcDbEntity
  8
図框線
100
AcDbLine
 10
0.0
 20
12.0
 30
0.0
 11
197.9999999999997
 21
12.00000000000005
 31
0.0
  0
LINE
  5
64B8
330
18
100
AcDbEntity
  8
図框線
100
AcDbLine
 10
0.0
 20
22.0
 30
0.0
 11
96.0
 21
22.0
 31
0.0
  0
LINE
  5
64B9
330
18
100
AcDbEntity
  8
図框線
100
AcDbLine
 10
0.0
 20
32.0
 30
0.0
 11
197.9999999999997
 21
32.0
 31
0.0
  0
LINE
  5
64BA
330
18
100
AcDbEntity
  8
図框線
100
AcDbLine
 10
12.0
 20
32.0
 30
0.0
 11
12.0
 21
12.0
 31
0.0
  0
LINE
  5
64BB
330
18
100
AcDbEntity
  8
図框線
100
AcDbLine
 10
32.0
 20
32.0
 30
0.0
 11
32.0
 21
12.0
 31
0.0
  0
MTEXT
  5
64BC
330
18
100
AcDbEntity
  8
0
100
AcDbMText
 10
2.949444248820782
 20
29.04715033351227
 30
0.0
 40
4.5
 41
0.0
 71
     1
 72
     5
  1
\Ftxt.shx,bigfont.shx|c128;日 付
  7
JL
 73
     1
 44
1.0
  0
MTEXT
  5
64BD
330
18
100
AcDbEntity
  8
0
100
AcDbMText
 10
3.095712364910014
 20
19.83833899470915
 30
0.0
 40
4.5
 41
0.0
 71
     1
 72
     5
  1
\Ftxt.shx,bigfont.shx|c128;製 図
  7
JL
 73
     1
 44
1.0
  0
LINE
  5
64C0
330
18
100
AcDbEntity
  8
0
 62
     7
370
    25
100
AcDbLine
 10
55.27930887205229
 20
23.89647119159633
 30
0.0
 11
55.27930887205229
 21
29.22827490730549
 31
0.0
  0
MTEXT
  5
64C1
330
18
100
AcDbEntity
  8
0
100
AcDbMText
 10
66.70254067332553
 20
29.42231870267847
 30
0.0
 40
4.5
 41
0.0
 71
     1
 72
     5
  1
\Ftxt.shx,bigfont.shx|c128;尺 度
  7
JL
 73
     1
 44
1.0
  0
LINE
  5
64C2
330
18
100
AcDbEntity
  8
図框線
100
AcDbLine
 10
64.0
 20
32.0
 30
0.0
 11
64.0
 21
12.0
 31
0.0
  0
LINE
  5
64C3
330
18
100
AcDbEntity
  8
0
 62
     7
370
    25
100
AcDbLine
 10
41.2833241183157
 20
23.23894871736115
 30
0.0
 11
41.2833241183157
 21
29.67466750005656
 31
0.0
  0
CIRCLE
  5
64C4
330
18
100
AcDbEntity
  8
0
 62
     7
100
AcDbCircle
 10
41.2833241183157
 20
26.5623730494508
 30
0.0
 40
2.665901857854641
  0
LINE
  5
64C6
330
18
100
AcDbEntity
  8
0
 62
     7
370
    25
100
AcDbLine
 10
49.18030281106076
 20
26.56237304945091
 30
0.0
 11
55.75797321903156
 21
26.56237304945091
 31
0.0
  0
LINE
  5
64C7
330
18
100
AcDbEntity
  8
0
 62
     7
100
AcDbLine
 10
49.94750515634314
 20
25.22942212052362
 30
0.0
 11
55.27930887205229
 21
23.89647119159633
 31
0.0
  0
LINE
  5
64C8
330
18
100
AcDbEntity
  8
図框線
100
AcDbLine
 10
44.0
 20
21.99999999999989
 30
0.0
 11
44.0
 21
12.0
 31
0.0
  0
LINE
  5
64C9
330
18
100
AcDbEntity
  8
0
 62
     7
370
    25
100
AcDbLine
 10
37.95172532843935
 20
26.5623730494508
 30
0.0
 11
44.81391594676916
 21
26.56237304945091
 31
0.0
  0
CIRCLE
  5
64CA
330
18
100
AcDbEntity
  8
0
 62
     7
100
AcDbCircle
 10
41.2833241183157
 20
26.5623730494508
 30
0.0
 40
1.33295092892732
  0
MTEXT
  5
64CB
330
18
100
AcDbEntity
  8
0
100
AcDbMText
 10
35.12086518039769
 20
19.39982343168049
 30
0.0
 40
4.5
 41
0.0
 71
     1
 72
     5
  1
\Ftxt.shx,bigfont.shx|c128;検 図
  7
JL
 73
     1
 44
1.0
  0
LINE
  5
64CC
330
18
100
AcDbEntity
  8
0
 62
     7
370
    25
100
AcDbLine
 10
49.94750515634314
 20
25.22942212052362
 30
0.0
 11
49.94750515634314
 21
27.8953239783782
 31
0.0
  0
MTEXT
  5
64CD
330
18
100
AcDbEntity
  8
0
100
AcDbMText
 10
66.99507418337498
 20
19.62882052001464
 30
0.0
 40
4.5
 41
0.0
 71
     1
 72
     5
  1
\Ftxt.shx,bigfont.shx|c128;承 認
  7
JL
 73
     1
 44
1.0
  0
LINE
  5
64CE
330
18
100
AcDbEntity
  8
図框線
100
AcDbLine
 10
132.615790078639
 20
43.13491348924492
 30
0.0
 11
192.615790078639
 21
43.13491348924481
 31
0.0
  0
LINE
  5
64CF
330
18
100
AcDbEntity
  8
図框線
100
AcDbLine
 10
132.615790078639
 20
50.33491348924497
 30
0.0
 11
192.615790078639
 21
50.33491348924497
 31
0.0
  0
LINE
  5
64D0
330
18
100
AcDbEntity
  8
図框線
100
AcDbLine
 10
132.615790078639
 20
57.5349134892449
 30
0.0
 11
192.615790078639
 21
57.53491348924478
 31
0.0
  0
LINE
  5
64D1
330
18
100
AcDbEntity
  8
図框線
100
AcDbLine
 10
132.615790078639
 20
64.73491348924494
 30
0.0
 11
192.615790078639
 21
64.73491348924483
 31
0.0
  0
LINE
  5
64D2
330
18
100
AcDbEntity
  8
図框線
100
AcDbLine
 10
132.615790078639
 20
35.93491348924488
 30
0.0
 11
192.615790078639
 21
35.93491348924488
 31
0.0
  0
MTEXT
  5
64D3
330
18
100
AcDbEntity
  8
0
 62
     7
 48
2.0
100
AcDbMText
 10
162.5011900445104
 20
65.52808189982909
 30
0.0
 40
4.8
 41
0.0
 71
     5
 72
     1
  1
\P\Ftxt.shx,bigfont.shx|c128;諸　　　　元
 73
     1
 44
1.0
  0
LINE
  5
64D5
330
18
100
AcDbEntity
  8
図框線
100
AcDbLine
 10
132.615790078639
 20
64.73491348924483
 30
0.0
 11
132.615790078639
 21
35.93491348924488
 31
0.0
  0
MTEXT
  5
64D6
330
18
100
AcDbEntity
  8
0
100
AcDbMText
 10
136.1382258923192
 20
56.00840432212407
 30
0.0
 40
4.4
 41
163.916286842249
 71
     1
 72
     5
  1
\Ftxt.shx,bigfont.shx|c128;熱　処　理
  7
JL
 73
     1
 44
1.0
  0
LINE
  5
64D7
330
18
100
AcDbEntity
  8
図框線
100
AcDbLine
 10
156.615790078639
 20
57.53491348924478
 30
0.0
 11
156.615790078639
 21
35.93491348924488
 31
0.0
  0
MTEXT
  5
64D8
330
18
100
AcDbEntity
  8
0
100
AcDbMText
 10
97.65702556263818
 20
11.15332144655735
 30
0.0
 40
5.0
 41
0.0
 71
     1
 72
     5
  1
\Ftxt.shx,bigfont.shx|c128;図  面  番  号
  7
JL
 73
     1
 44
1.0
  0
MTEXT
  5
64D9
330
18
100
AcDbEntity
  8
0
 62
     7
 48
2.0
100
AcDbMText
 10
121.8260850653862
 20
22.29156825453561
 30
0.0
 40
4.5
 41
0.0
 71
     5
 72
     1
  1
\P\Ftxt.shx,bigfont.shx|c128;    精密ロックナット
 73
     1
 44
1.0
  0
MTEXT
  5
64DA
330
18
100
AcDbEntity
  8
0
370
    25
100
AcDbMText
 10
98.8002923053598
 20
29.80688815403971
 30
0.0
 40
5.0
 41
0.0
 71
     1
 72
     5
  1
\Ftxt.shx,bigfont.shx|c128;品  名
  7
JL
 73
     1
 44
1.0
  0
LINE
  5
64DB
330
18
100
AcDbEntity
  8
図框線
100
AcDbLine
 10
96.0
 20
32.0
 30
0.0
 11
96.0
 21
0.19104161092514
 31
0.0
  0
LINE
  5
64DC
330
18
100
AcDbEntity
  8
図框線
100
AcDbLine
 10
76.0
 20
32.0
 30
0.0
 11
76.0
 21
12.0
 31
0.0
  0
LINE
  5
64DE
330
18
100
AcDbEntity
  8
図框線
100
AcDbLine
 10
153.2235601908683
 20
32.0
 30
0.0
 11
153.2235601908683
 21
12.0
 31
0.0
  0
MTEXT
  5
64DF
330
18
100
AcDbEntity
  8
0
100
AcDbMText
 10
135.85795152494
 20
49.00617587486397
 30
0.0
 40
4.4
 41
163.6058628849672
 71
     1
 72
     5
  1
\Ftxt.shx,bigfont.shx|c128;表 面 処 理
  7
JL
 73
     1
 44
1.0
  0
MTEXT
  5
64E0
330
18
100
AcDbEntity
  8
0
100
AcDbMText
 10
136.148017373375
 20
41.71770302125605
 30
0.0
 40
4.4
 41
166.1718
 71
     1
 72
     5
  1
\Ftxt.shx,bigfont.shx|c128;等     　級
  7
JL
 73
     1
 44
1.0
  0
LINE
  5
64E1
330
18
100
AcDbEntity
  8
図框線
100
AcDbLine
 10
192.615790078639
 20
64.73491348924483
 30
0.0
 11
192.615790078639
 21
35.93491348924499
 31
0.0
  0
MTEXT
  5
64E2
330
18
100
AcDbEntity
  8
0
100
AcDbMText
 10
161.3627933880816
 20
55.83344641471445
 30
0.0
 40
4.4
 41
291.8960056857887
 71
     1
 72
     5
  1
\Ftxt.shx,bigfont.shx|c128;調質　HRC30%%d%%p２%%d
  7
JL
 73
     1
 44
1.0
  0
MTEXT
  5
64E4
330
18
100
AcDbEntity
  8
0
370
    25
100
AcDbMText
 10
157.2494735287423
 20
29.58569764093568
 30
0.0
 40
5.0
 41
0.0
 71
     1
 72
     5
  1
\Ftxt.shx,bigfont.shx|c128;型  番
  7
JL
 73
     1
 44
1.0
  0
MTEXT
  5
64E5
330
18
100
AcDbEntity
  8
0
100
AcDbMText
 10
172.787265122339
 20
11.23700203391422
 30
0.0
 40
5.0
 41
0.0
 71
     1
 72
     5
  1
\Ftxt.shx,bigfont.shx|c128;変更
  7
JL
 73
     1
 44
1.0
  0
LINE
  5
64E6
330
18
100
AcDbEntity
  8
図框線
100
AcDbLine
 10
171.0
 20
12.00907027842731
 30
0.0
 11
171.0
 21
0.0
 31
0.0
  0
MTEXT
  5
64E7
330
18
100
AcDbEntity
  8
0
100
AcDbMText
 10
161.623432389518
 20
41.7183135927072
 30
0.0
 40
4.4
 41
290.783364796891
 71
     1
 72
     5
  1
\Ftxt.shx,bigfont.shx|c128;ＩＳＯ - ４Ｈ
  7
JL
 73
     1
 44
1.0
  0
MTEXT
  5
64E8
330
18
100
AcDbEntity
  8
0
100
AcDbMText
 10
161.7978935876483
 20
48.65328293790913
 30
0.0
 40
4.4
 41
291.4548
 71
     1
 72
     5
  1
\Ftxt.shx,bigfont.shx|c128;黒  　    染
  7
JL
 73
     1
 44
1.0
  0
MTEXT
  5
64EA
330
18
100
AcDbEntity
  8
0
100
AcDbMText
 10
60.06318600759005
 20
270.095850257545
 30
0.0
 40
5.0
 41
0.0
 71
     1
 72
     5
  1
\Ftxt.shx,bigfont.shx|c128;M8X1.25-6L
  7
JL
 73
     1
 44
1.0
  0
MTEXT
  5
64EB
330
18
100
AcDbEntity
  8
0
100
AcDbMText
 10
60.06318600759005
 20
262.095850257545
 30
0.0
 40
5.0
 41
0.0
 71
     1
 72
     5
  1
\Ftxt.shx,bigfont.shx|c128;%%c7X6L
  7
JL
 73
     1
 44
1.0
  0
LINE
  5
64EC
330
18
100
AcDbEntity
  8
図框線
100
AcDbLine
 10
-0.0000000000002274
 20
263.9999999999999
 30
0.0
 11
197.9999999999997
 21
263.9999999999999
 31
0.0
  0
LINE
  5
64ED
330
18
100
AcDbEntity
  8
図框線
100
AcDbLine
 10
-0.0000000000002274
 20
271.9999999999999
 30
0.0
 11
197.9999999999997
 21
271.9999999999999
 31
0.0
  0
LINE
  5
64EE
330
18
100
AcDbEntity
  8
図框線
 62
     9
100
AcDbLine
 10
-0.0000000000002274
 20
279.9999999999999
 30
0.0
 11
197.9999999999997
 21
279.9999999999999
 31
0.0
  0
LINE
  5
64EF
330
18
100
AcDbEntity
  8
図框線
100
AcDbLine
 10
-0.0000000000002274
 20
290.0
 30
0.0
 11
197.9999999999997
 21
290.0
 31
0.0
  0
MTEXT
  5
64F0
330
18
100
AcDbEntity
  8
0
100
AcDbMText
 10
59.41630259681733
 20
287.3155952051104
 30
0.0
 40
5.0
 41
0.0
 71
     1
 72
     5
  1
\Ftxt.shx,bigfont.shx|c128;図    番 / 規　　格
  7
JL
 73
     1
 44
1.0
  0
LINE
  5
64F1
330
18
100
AcDbEntity
  8
図框線
100
AcDbLine
 10
-0.0000000000002274
 20
263.9999999999999
 30
0.0
 11
197.9999999999997
 21
263.9999999999999
 31
0.0
  0
LINE
  5
64F2
330
18
100
AcDbEntity
  8
図框線
100
AcDbLine
 10
-0.0000000000002274
 20
255.9999999999999
 30
0.0
 11
197.9999999999997
 21
255.9999999999999
 31
0.0
  0
MTEXT
  5
64F3
330
18
100
AcDbEntity
  8
0
100
AcDbMText
 10
22.01434914141237
 20
286.7888025819827
 30
0.0
 40
5.0
 41
0.0
 71
     1
 72
     5
  1
\Ftxt.shx,bigfont.shx|c128;品　          名
  7
JL
 73
     1
 44
1.0
  0
MTEXT
  5
64F4
330
18
100
AcDbEntity
  8
0
100
AcDbMText
 10
18.8650376130422
 20
270.5298549795346
 30
0.0
 40
6.0
 41
0.0
 71
     1
 72
     5
  1
\Ftxt.shx,bigfont.shx|c128;セットスクリュ-
  7
JL
 73
     1
 44
1.0
  0
MTEXT
  5
64F5
330
18
100
AcDbEntity
  8
0
100
AcDbMText
 10
18.66941459004738
 20
278.3660650505403
 30
0.0
 40
6.0
 41
0.0
 71
     1
 72
     5
  1
\Ftxt.shx,bigfont.shx|c128;ロックナット　  
  7
JL
 73
     1
 44
1.0
  0
MTEXT
  5
64F6
330
18
100
AcDbEntity
  8
0
100
AcDbMText
 10
18.8650376130422
 20
262.5298549795346
 30
0.0
 40
6.0
 41
0.0
 71
     1
 72
     5
  1
\Ftxt.shx,bigfont.shx|c128;ロックピン 
  7
JL
 73
     1
 44
1.0
  0
LINE
  5
64F7
330
18
100
AcDbEntity
  8
図框線
100
AcDbLine
 10
14.99999999999977
 20
289.9999999999998
 30
0.0
 11
15.00000000000011
 21
255.9999999999999
 31
0.0
  0
LINE
  5
64F8
330
18
100
AcDbEntity
  8
0
100
AcDbLine
 10
14.99999999999977
 20
289.9999999999998
 30
0.0
 11
14.99999999999977
 21
263.9999999999999
 31
0.0
  0
MTEXT
  5
64F9
330
18
100
AcDbEntity
  8
0
100
AcDbMText
 10
6.215289087390488
 20
262.7436409356394
 30
0.0
 40
5.0
 41
0.0
 71
     1
 72
     5
  1
\Ftxt.shx,bigfont.shx|c128;3
  7
JL
 73
     1
 44
1.0
  0
MTEXT
  5
64FA
330
18
100
AcDbEntity
  8
0
100
AcDbMText
 10
7.101957026666809
 20
278.5798510066454
 30
0.0
 40
5.0
 41
0.0
 71
     1
 72
     5
  1
\Ftxt.shx,bigfont.shx|c128;1
  7
JL
 73
     1
 44
1.0
  0
MTEXT
  5
64FB
330
18
100
AcDbEntity
  8
0
100
AcDbMText
 10
6.215289087390488
 20
270.7436409356394
 30
0.0
 40
5.0
 41
0.0
 71
     1
 72
     5
  1
\Ftxt.shx,bigfont.shx|c128;2
  7
JL
 73
     1
 44
1.0
  0
MTEXT
  5
64FC
330
18
100
AcDbEntity
  8
0
100
AcDbMText
 10
2.209083991842362
 20
287.0885254164057
 30
0.0
 40
5.0
 41
0.0
 71
     1
 72
     5
  1
\Ftxt.shx,bigfont.shx|c128;照   号
  7
JL
 73
     1
 44
1.0
  0
LINE
  5
64FD
330
18
100
AcDbEntity
  8
図框線
 62
     9
100
AcDbLine
 10
54.99999999999977
 20
289.9999999999998
 30
0.0
 11
54.99999999999977
 21
256.0
 31
0.0
  0
MTEXT
  5
64FE
330
18
100
AcDbEntity
  8
0
100
AcDbMText
 10
146.3353765925378
 20
287.5804049742369
 30
0.0
 40
5.0
 41
0.0
 71
     1
 72
     5
  1
\Ftxt.shx,bigfont.shx|c128;備           考
  7
JL
 73
     1
 44
1.0
  0
LINE
  5
64FF
330
18
100
AcDbEntity
  8
図框線
 62
     9
100
AcDbLine
 10
94.99999999999976
 20
289.9999999999999
 30
0.0
 11
94.99999999999976
 21
255.9999999999999
 31
0.0
  0
MTEXT
  5
6500
330
18
100
AcDbEntity
  8
0
100
AcDbMText
 10
96.78387029776377
 20
262.3660650505403
 30
0.0
 40
5.0
 41
0.0
 71
     1
 72
     5
  1
\Ftxt.shx,bigfont.shx|c128;C3604
  7
JL
 73
     1
 44
1.0
  0
MTEXT
  5
6501
330
18
100
AcDbEntity
  8
0
100
AcDbMText
 10
96.78387029776377
 20
278.3660650505403
 30
0.0
 40
5.0
 41
0.0
 71
     1
 72
     5
  1
\Ftxt.shx,bigfont.shx|c128;SCM-440
  7
JL
 73
     1
 44
1.0
  0
MTEXT
  5
6502
330
18
100
AcDbEntity
  8
0
100
AcDbMText
 10
96.78387029776377
 20
270.3660650505403
 30
0.0
 40
5.0
 41
0.0
 71
     1
 72
     5
  1
\Ftxt.shx,bigfont.shx|c128;SCM435
  7
JL
 73
     1
 44
1.0
  0
MTEXT
  5
6503
330
18
100
AcDbEntity
  8
0
100
AcDbMText
 10
99.80032499445407
 20
287.5804049742369
 30
0.0
 40
5.0
 41
0.0
 71
     1
 72
     5
  1
\Ftxt.shx,bigfont.shx|c128;材　質
  7
JL
 73
     1
 44
1.0
  0
LINE
  5
6504
330
18
100
AcDbEntity
  8
図框線
 62
     9
100
AcDbLine
 10
114.9999999999997
 20
289.9999999999999
 30
0.0
 11
114.9999999999997
 21
255.9999999999999
 31
0.0
  0
LINE
  5
6505
330
18
100
AcDbEntity
  8
図框線
100
AcDbLine
 10
129.9999999999998
 20
289.9999999999999
 30
0.0
 11
129.9999999999998
 21
255.9999999999999
 31
0.0
  0
MTEXT
  5
6506
330
18
100
AcDbEntity
  8
0
100
AcDbMText
 10
121.2152890873904
 20
262.7436409356394
 30
0.0
 40
5.0
 41
0.0
 71
     1
 72
     5
  1
\Ftxt.shx,bigfont.shx|c128;3
  7
JL
 73
     1
 44
1.0
  0
MTEXT
  5
6507
330
18
100
AcDbEntity
  8
0
100
AcDbMText
 10
122.1019570266667
 20
278.5798510066454
 30
0.0
 40
5.0
 41
0.0
 71
     1
 72
     5
  1
\Ftxt.shx,bigfont.shx|c128;1
  7
JL
 73
     1
 44
1.0
  0
MTEXT
  5
6508
330
18
100
AcDbEntity
  8
0
100
AcDbMText
 10
121.2152890873904
 20
270.7436409356394
 30
0.0
 40
5.0
 41
0.0
 71
     1
 72
     5
  1
\Ftxt.shx,bigfont.shx|c128;3
  7
JL
 73
     1
 44
1.0
  0
MTEXT
  5
6509
330
18
100
AcDbEntity
  8
0
100
AcDbMText
 10
116.433740311917
 20
287.5804049742369
 30
0.0
 40
5.0
 41
0.0
 71
     1
 72
     5
  1
\Ftxt.shx,bigfont.shx|c128;数   量
  7
JL
 73
     1
 44
1.0
  0
DIMENSION
  5
6770
330
18
100
AcDbEntity
  8
0
100
AcDbDimension
  2
*D1
 10
116.2233312055361
 20
76.24884972543795
 30
0.0
 11
86.22333120553623
 21
76.24884972543795
 31
0.0
 12
-223.0787520072825
 22
5.43658588096946
 32
0.0
 70
   160
  1
M<>X2.0P
 71
     5
 42
-1.0
  3
A
100
AcDbAlignedDimension
 13
56.22333120553617
 23
93.8667357921912
 33
0.0
 14
116.2233312055361
 24
93.8667357921909
 34
0.0
100
AcDbRotatedDimension
  0
DIMENSION
  5
677F
330
18
100
AcDbEntity
  8
0
100
AcDbDimension
  2
*D2
 10
49.31277283779377
 20
155.5507655007175
 30
0.0
 11
54.31277283779377
 21
155.5507655007175
 31
0.0
 12
-223.0787520072825
 22
5.43658588096946
 32
0.0
 70
   160
 71
     5
 42
-1.0
  3
A
100
AcDbAlignedDimension
 13
46.27646343260477
 23
198.3777257976321
 33
0.0
 14
49.31277283779377
 24
198.3777257976321
 34
0.0
100
AcDbRotatedDimension
  0
DIMENSION
  5
6864
330
18
100
AcDbEntity
  8
DIM
100
AcDbDimension
  2
*D3
 10
35.36387643830506
 20
205.3777257976322
 30
0.0
 11
34.48947239744928
 21
214.7664750859564
 31
0.0
 12
-6.399788978967194
 22
-2.518183479097388
 32
0.0
 70
   160
  1
<>      (3等分)
 71
     5
 42
-1.0
  3
A
100
AcDbAlignedDimension
 13
46.28083384708463
 23
198.3777257976321
 33
0.0
 14
46.27646343260482
 24
205.3777257976322
 34
0.0
 50
90.0
100
AcDbRotatedDimension
  0
LINE
  5
689B
330
18
100
AcDbEntity
  8
DIM
 62
     6
100
AcDbLine
 10
35.36387643830506
 20
205.3777257976322
 30
0.0
 11
35.36387643830506
 21
227.2940346600266
 31
0.0
  0
LINE
  5
6AF0
330
18
100
AcDbEntity
  8
DIM
 62
     6
100
AcDbLine
 10
54.31277283779377
 20
155.5507655007175
 30
0.0
 11
66.11599614862291
 21
155.5507655007175
 31
0.0
  0
LEADER
  5
6B85
330
18
100
AcDbEntity
  8
DIM
 62
     6
100
AcDbLeader
  3
A
 73
     0
 74
     0
 75
     1
 40
3.0
 41
4.999999999999999
 76
     3
 10
56.47333120553617
 20
112.2000691255242
 30
0.0
 10
64.44616684458191
 20
120.0362957395858
 30
0.0
 10
66.94616684458191
 20
120.0362957395858
 30
0.0
340
6B86
  0
MTEXT
  5
6B86
102
{ACAD_REACTORS
330
6B85
102
}
330
18
100
AcDbEntity
  8
DIM
 62
     3
100
AcDbMText
 10
67.94616684458191
 20
122.5362957395858
 30
0.0
 40
3.0
 41
0.0
 71
     4
 72
     1
  1
\A1;C2
  7
TXT
 73
     1
 44
1.0
  0
DIMENSION
  5
6C92
330
18
100
AcDbEntity
  8
DIM
100
AcDbDimension
  2
*D4
 10
122.7233312055362
 20
133.3912923436797
 30
0.0
 11
86.22333120553618
 21
135.8912923436797
 31
0.0
 12
-223.0787520072825
 22
5.43658588096946
 32
0.0
 70
    32
  1
%%c<>%%p0.5
 71
     5
 42
-1.0
  3
A
100
AcDbAlignedDimension
 13
49.72333120553617
 23
115.2000691255242
 33
0.0
 14
122.7233312055362
 24
115.2000691255242
 34
0.0
100
AcDbRotatedDimension
  0
DIMENSION
  5
6CAA
330
18
100
AcDbEntity
  8
DIM
100
AcDbDimension
  2
*D5
 10
126.2233312055361
 20
138.8987624340947
 30
0.0
 11
82.15427507762228
 21
139.7248831839799
 31
0.0
 12
-223.0787520072825
 22
5.43658588096946
 32
0.0
 70
   160
  1
%%c<>
 71
     5
 42
-1.0
  3
A
100
AcDbAlignedDimension
 13
46.22333120553617
 23
112.7000691255242
 33
0.0
 14
126.2233312055361
 24
112.7000691255242
 34
0.0
100
AcDbRotatedDimension
  0
DIMENSION
  5
6F74
330
18
100
AcDbEntity
  8
0
100
AcDbDimension
  2
*D6
 10
150.3696221095349
 20
76.59184332851329
 30
0.0
 11
160.8656944845474
 21
94.77157396195492
 31
0.0
 12
-1.289230611224752
 22
0.2033794426706663
 32
0.0
 70
   161
  1
9%%p0.5
 71
     5
 42
-1.0
  3
A
100
AcDbAlignedDimension
 13
126.2233312055361
 23
101.2021438564924
 33
0.0
 14
121.6033312055361
 24
93.20006912552416
 34
0.0
  0
MTEXT
  5
72FF
102
{ACAD_REACTORS
330
7300
102
}
330
18
100
AcDbEntity
  8
DIM
 62
     3
100
AcDbMText
 10
102.3347893597562
 20
86.37021122900668
 30
0.0
 40
3.0
 41
0.0
 71
     6
 72
     1
  1
\A1;C2
  7
TXT
 73
     1
 44
1.0
  0
LEADER
  5
7300
330
18
100
AcDbEntity
  8
DIM
 62
     6
100
AcDbLeader
  3
A
 73
     0
 75
     1
 40
3.0
 41
4.999999999999999
 76
     3
 10
115.9733312055361
 20
94.2000691255243
 30
0.0
 10
105.8347893597562
 20
83.87021122900668
 30
0.0
 10
103.3347893597562
 20
83.87021122900668
 30
0.0
340
72FF
  0
MTEXT
  5
7303
102
{ACAD_REACTORS
330
7304
102
}
330
18
100
AcDbEntity
  8
DIM
 62
     3
100
AcDbMText
 10
141.8392058054218
 20
129.2184959687397
 30
0.0
 40
3.0
 41
0.0
 71
     4
 72
     1
  1
\A1;R2
  7
TXT
 73
     1
 44
1.0
  0
LEADER
  5
7304
330
18
100
AcDbEntity
  8
DIM
 62
     6
100
AcDbLeader
  3
A
 73
     0
 74
     0
 75
     1
 40
3.0
 41
4.999999999999999
 76
     3
 10
125.6375447679092
 20
114.1142826878972
 30
0.0
 10
138.3392058054218
 20
126.7184959687398
 30
0.0
 10
140.8392058054218
 20
126.7184959687398
 30
0.0
340
7303
1001
ACAD
1000
DSTYLE
1002
{
1070
    45
1040
0.0
1002
}
  0
DIMENSION
  5
74C6
330
18
100
AcDbEntity
  8
0
100
AcDbDimension
  2
*D7
 10
35.36387643830505
 20
114.7000691255242
 30
0.0
 11
35.36387643830505
 21
128.0210249142913
 31
0.0
 70
   160
 71
     5
 42
-1.0
  3
A
100
AcDbAlignedDimension
 13
49.72333120553617
 23
115.2000691255242
 33
0.0
 14
48.22333120553617
 24
114.7000691255242
 34
0.0
 50
90.0
100
AcDbRotatedDimension
  0
DIMENSION
  5
750D
330
18
100
AcDbEntity
  8
DIM
100
AcDbDimension
  2
*D8
 10
116.7233312055361
 20
127.5481975320511
 30
0.0
 11
86.22333120553618
 21
130.0481975320511
 31
0.0
 12
-223.0787520072825
 22
5.43658588096946
 32
0.0
 70
    32
  1
%%c<>
 71
     5
 42
-1.0
  3
A
100
AcDbAlignedDimension
 13
55.72333120553617
 23
115.2000691255242
 33
0.0
 14
116.7233312055361
 24
115.2000691255242
 34
0.0
100
AcDbRotatedDimension
  0
DIMENSION
  5
7568
330
18
100
AcDbEntity
  8
DIM
100
AcDbDimension
  2
*D9
 10
141.1096577809984
 20
97.24103147771771
 30
0.0
 11
138.6096577809984
 21
106.2205503016209
 31
0.0
 12
-1.289230611224752
 22
0.2033794426706663
 32
0.0
 70
    32
 71
     5
 42
-1.0
  3
A
100
AcDbAlignedDimension
 13
122.7233312055362
 23
115.2000691255241
 33
0.0
 14
123.9363819073601
 24
97.24103147771771
 34
0.0
 50
90.0
100
AcDbRotatedDimension
  0
DIMENSION
  5
7575
330
18
100
AcDbEntity
  8
DIM
100
AcDbDimension
  2
*D10
 10
151.2586787073866
 20
115.2000691255241
 30
0.0
 11
148.7586787073866
 21
104.2000691255241
 31
0.0
 12
-1.289230611224752
 22
0.2033794426706663
 32
0.0
 70
    32
  1
<>%%p0.2
 71
     5
 42
-1.0
  3
A
100
AcDbAlignedDimension
 13
121.6033312055361
 23
93.20006912552416
 33
0.0
 14
122.7233312055362
 24
115.2000691255241
 34
0.0
 50
90.0
100
AcDbRotatedDimension
  0
DIMENSION
  5
7AD6
330
18
100
AcDbEntity
  8
DIM
100
AcDbDimension
  2
*D11
 10
95.44106631201641
 20
115.2000691255242
 30
0.0
 11
95.44106631201641
 21
122.7858828131965
 31
0.0
 12
-214.3078537135983
 22
0.2033794426706947
 32
0.0
 70
   160
 71
     5
 42
-1.0
  3
A
100
AcDbAlignedDimension
 13
99.22333120553616
 23
113.2000691255245
 33
0.0
 14
99.22333120553616
 24
115.2000691255242
 34
0.0
 50
90.0
100
AcDbRotatedDimension
  0
DIMENSION
  5
90D2
330
18
100
AcDbEntity
  8
DIM
100
AcDbDimension
  2
*D12
 10
112.7540497705461
 20
103.5930330478745
 30
0.0
 11
167.6572310924391
 21
95.29647325863452
 31
0.0
 12
-211.8078537135986
 22
0.2033794426706663
 32
0.0
 70
    34
  1
30%%d
 71
     5
 42
-1.0
  3
A
100
AcDb2LineAngularDimension
 13
54.72333120553566
 23
115.2000691255241
 33
0.0
 14
122.7233312055362
 24
115.2000691255241
 34
0.0
 15
125.6599751703904
 25
96.26196316002427
 35
0.0
 16
168.0198358399888
 26
88.04782035901649
 36
0.0
1001
ACAD
1000
DSTYLE
1002
{
1070
    79
1070
     2
1070
   179
1070
     1
1002
}
  0
LINE
  5
9299
330
18
100
AcDbEntity
  8
中心線
  6
CENTER
 48
0.15
100
AcDbLine
 10
86.20295508807913
 20
243.8777257976318
 30
0.0
 11
86.20295508807851
 21
159.8777257976317
 31
0.0
  0
LINE
  5
929A
330
18
100
AcDbEntity
  8
中心線
  6
CENTER
 48
0.15
100
AcDbLine
 10
86.22333120553618
 20
90.20006912552421
 30
0.0
 11
86.22333120553618
 21
118.2000691255242
 31
0.0
  0
LINE
  5
929F
330
18
100
AcDbEntity
  8
本体内線
  6
HIDDEN
 48
0.2
100
AcDbLine
 10
75.30565008687148
 20
175.0030398699662
 30
0.0
 11
69.76730796108416
 21
165.4103499184036
 31
0.0
  0
LINE
  5
92A0
330
18
100
AcDbEntity
  8
本体内線
  6
HIDDEN
 48
0.2
100
AcDbLine
 10
68.37744685659595
 20
179.0030398699662
 30
0.0
 11
62.83910473080863
 21
169.4103499184036
 31
0.0
  0
LINE
  5
92A1
330
18
100
AcDbEntity
  8
本体内線
  6
HIDDEN
 48
0.2
100
AcDbLine
 10
74.72432063180514
 20
175.246147717855
 30
0.0
 11
69.19710939054301
 21
165.6727370238232
 31
0.0
  0
LINE
  5
92A2
330
18
100
AcDbEntity
  8
本体内線
  6
HIDDEN
 48
0.2
100
AcDbLine
 10
68.87864915626017
 20
178.621147717855
 30
0.0
 11
63.35143791499803
 21
169.0477370238232
 31
0.0
  0
ARC
  5
92A3
330
18
100
AcDbEntity
  8
本体外線
100
AcDbCircle
 10
86.20295508807885
 20
201.8777257976317
 30
0.0
 40
40.0
100
AcDbArc
 50
65.01980013167764
 51
174.9801998683213
  0
CIRCLE
  5
92A4
330
18
100
AcDbEntity
  8
本体外線
100
AcDbCircle
 10
86.20295508807885
 20
201.8777257976317
 30
0.0
 40
36.5
  0
ARC
  5
92A5
330
18
100
AcDbEntity
  8
0
100
AcDbCircle
 10
86.20295508807885
 20
201.8777257976317
 30
0.0
 40
30.0
100
AcDbArc
 50
164.683321008229
 51
105.1177554673677
  0
CIRCLE
  5
92A6
330
18
100
AcDbEntity
  8
本体外線
100
AcDbCircle
 10
86.20295508807885
 20
201.8777257976317
 30
0.0
 40
29.0
  0
LINE
  5
92A7
330
18
100
AcDbEntity
  8
本体外線
 48
0.08
100
AcDbLine
 10
109.1573343922214
 20
234.6358770086136
 30
0.0
 11
107.6389405141309
 21
232.0059416658594
 31
0.0
  0
LINE
  5
92A8
330
18
100
AcDbEntity
  8
本体外線
 48
0.08
100
AcDbLine
 10
103.0951565657303
 20
238.1358770086137
 30
0.0
 11
101.566957103753
 21
235.4889578963696
 31
0.0
  0
LINE
  5
92A9
330
18
100
AcDbEntity
  8
中心線
  6
CENTER
 48
0.15
100
AcDbLine
 10
44.20295508807879
 20
201.8777257976321
 30
0.0
 11
128.2029550880788
 21
201.8777257976313
 31
0.0
  0
LINE
  5
92AA
330
18
100
AcDbEntity
  8
本体外線
100
AcDbLine
 10
49.31277283779377
 20
198.3777257976321
 30
0.0
 11
49.29316167002003
 21
205.377725797632
 31
0.0
  0
LINE
  5
92AB
330
18
100
AcDbEntity
  8
本体外線
 48
0.08
100
AcDbLine
 10
46.35637430628526
 20
205.3777257976321
 30
0.0
 11
49.29316167002003
 21
205.377725797632
 31
0.0
  0
LINE
  5
92AC
330
18
100
AcDbEntity
  8
本体外線
 48
0.08
100
AcDbLine
 10
46.3563743062852
 20
198.3777257976321
 30
0.0
 11
49.31277283779377
 21
198.3777257976321
 31
0.0
  0
LINE
  5
92AD
330
18
100
AcDbEntity
  8
中心線
  6
CENTER
 48
0.15
100
AcDbLine
 10
65.20295508807851
 20
165.5046588386855
 30
0.0
 11
72.70295508807868
 21
178.495039895452
 31
0.0
  0
LINE
  5
92AE
330
18
100
AcDbEntity
  8
本体外線
100
AcDbLine
 10
107.6791351264666
 20
171.679890818647
 30
0.0
 11
101.6267628838624
 21
168.1629070491571
 31
0.0
  0
LINE
  5
92AF
330
18
100
AcDbEntity
  8
本体外線
 48
0.08
100
AcDbLine
 10
103.0951565657298
 20
165.6195745866496
 30
0.0
 11
101.6267628838624
 21
168.1629070491571
 31
0.0
  0
LINE
  5
92B0
330
18
100
AcDbEntity
  8
本体外線
 48
0.08
100
AcDbLine
 10
109.1573343922208
 20
169.1195745866495
 30
0.0
 11
107.6791351264666
 21
171.679890818647
 31
0.0
  0
ARC
  5
92B1
330
18
100
AcDbEntity
  8
本体外線
100
AcDbCircle
 10
86.20295508807885
 20
201.8777257976317
 30
0.0
 40
40.0
100
AcDbArc
 50
185.0198001316776
 51
294.9801998683215
  0
ARC
  5
92B2
330
18
100
AcDbEntity
  8
本体外線
100
AcDbCircle
 10
86.20295508807885
 20
201.8777257976317
 30
0.0
 40
40.0
100
AcDbArc
 50
305.0198001316776
 51
54.98019986832141
  0
LINE
  5
92B3
330
18
100
AcDbEntity
  8
本体内線
 48
0.2
100
AcDbLine
 10
114.9257683207689
 20
205.8777257976317
 30
0.0
 11
126.0024525723436
 21
205.8777257976317
 31
0.0
  0
LINE
  5
92B4
330
18
100
AcDbEntity
  8
本体内線
 48
0.2
100
AcDbLine
 10
114.925768320769
 20
197.8777257976317
 30
0.0
 11
126.0024525723436
 21
197.8777257976317
 31
0.0
  0
LINE
  5
92B5
330
18
100
AcDbEntity
  8
本体内線
 48
0.2
100
AcDbLine
 10
115.0058954761711
 20
205.2527257976318
 30
0.0
 11
126.0603179586953
 21
205.2527257976317
 31
0.0
  0
LINE
  5
92B6
330
18
100
AcDbEntity
  8
本体内線
 48
0.2
100
AcDbLine
 10
115.0058954761711
 20
198.5027257976317
 30
0.0
 11
126.0603179586953
 21
198.5027257976317
 31
0.0
  0
LINE
  5
92B7
330
18
100
AcDbEntity
  8
中心線
  6
CENTER
 48
0.15
100
AcDbLine
 10
72.7029550880789
 20
225.2604116998116
 30
0.0
 11
65.20295508807885
 21
238.2507927565782
 31
0.0
  0
LINE
  5
92B8
330
18
100
AcDbEntity
  8
本体内線
  6
HIDDEN
 48
0.2
100
AcDbLine
 10
68.377446856596
 20
224.7524117252973
 30
0.0
 11
62.83910473080869
 21
234.34510167686
 31
0.0
  0
LINE
  5
92B9
330
18
100
AcDbEntity
  8
本体内線
  6
HIDDEN
 48
0.2
100
AcDbLine
 10
75.30565008687154
 20
228.7524117252973
 30
0.0
 11
69.76730796108427
 21
238.34510167686
 31
0.0
  0
LINE
  5
92BA
330
18
100
AcDbEntity
  8
本体内線
  6
HIDDEN
 48
0.2
100
AcDbLine
 10
68.87864915626022
 20
225.1343038774086
 30
0.0
 11
63.35143791499814
 21
234.7077145714404
 31
0.0
  0
LINE
  5
92BB
330
18
100
AcDbEntity
  8
本体内線
  6
HIDDEN
 48
0.2
100
AcDbLine
 10
74.72432063180519
 20
228.5093038774085
 30
0.0
 11
69.19710939054311
 21
238.0827145714404
 31
0.0
  0
LINE
  5
92BD
330
18
100
AcDbEntity
  8
本体外線
100
AcDbLine
 10
101.566957103753
 20
235.4889578963695
 30
0.0
 11
107.6391835309025
 21
232.0058022663746
 31
0.0
  0
LINE
  5
92C0
102
{ACAD_REACTORS
330
957E
102
}
330
18
100
AcDbEntity
  8
本体外線
 48
0.08
100
AcDbLine
 10
126.2233312055361
 20
101.2000691255242
 30
0.0
 11
126.2233312055361
 21
112.7000691255242
 31
0.0
  0
LINE
  5
92C1
330
18
100
AcDbEntity
  8
本体外線
 48
0.08
100
AcDbLine
 10
46.22333120553617
 20
101.2000691255242
 30
0.0
 11
46.22333120553617
 21
112.7000691255242
 31
0.0
  0
LINE
  5
92C2
102
{ACAD_REACTORS
330
957E
102
}
330
18
100
AcDbEntity
  8
本体外線
100
AcDbLine
 10
49.72333120553617
 20
115.2000691255242
 30
0.0
 11
122.7233312055362
 21
115.2000691255242
 31
0.0
  0
LINE
  5
92C3
102
{ACAD_REACTORS
330
957E
102
}
330
18
100
AcDbEntity
  8
本体外線
100
AcDbLine
 10
50.84333120553629
 20
93.2000691255242
 30
0.0
 11
121.6033312055361
 21
93.2000691255242
 31
0.0
  0
LINE
  5
92C4
102
{ACAD_REACTORS
330
957E
102
}
330
18
100
AcDbEntity
  8
本体外線
100
AcDbLine
 10
48.22333120553617
 20
114.7000691255242
 30
0.0
 11
49.72333120553617
 21
114.7000691255242
 31
0.0
  0
LINE
  5
92C5
102
{ACAD_REACTORS
330
957E
102
}
330
18
100
AcDbEntity
  8
本体外線
 48
0.08
100
AcDbLine
 10
49.72333120553617
 20
114.7000691255242
 30
0.0
 11
49.72333120553617
 21
115.2000691255242
 31
0.0
  0
LINE
  5
92C6
102
{ACAD_REACTORS
330
957E
102
}
330
18
100
AcDbEntity
  8
本体外線
100
AcDbLine
 10
122.7233312055362
 20
114.7000691255242
 30
0.0
 11
124.2233312055361
 21
114.7000691255242
 31
0.0
  0
LINE
  5
92C7
102
{ACAD_REACTORS
330
957E
102
}
330
18
100
AcDbEntity
  8
本体外線
 48
0.08
100
AcDbLine
 10
122.7233312055362
 20
114.7000691255242
 30
0.0
 11
122.7233312055362
 21
115.2000691255242
 31
0.0
  0
LINE
  5
92C8
330
18
100
AcDbEntity
  8
本体外線
100
AcDbLine
 10
55.72333120553617
 20
113.2000691255242
 30
0.0
 11
116.7233312055362
 21
113.2000691255242
 31
0.0
  0
ARC
  5
92CC
330
18
100
AcDbEntity
  8
本体外線
 48
0.08
100
AcDbCircle
 10
48.22333120553617
 20
112.7000691255242
 30
0.0
 40
2.0
100
AcDbArc
 50
90.0
 51
179.9999999999999
  0
ARC
  5
92CD
102
{ACAD_REACTORS
330
957E
102
}
330
18
100
AcDbEntity
  8
本体外線
 48
0.08
100
AcDbCircle
 10
124.2233312055361
 20
112.7000691255242
 30
0.0
 40
2.0
100
AcDbArc
 50
0.0
 51
90.0
  0
LINE
  5
92D0
102
{ACAD_REACTORS
330
957E
102
}
330
18
100
AcDbEntity
  8
本体外線
 48
0.08
100
AcDbLine
 10
57.22333120553617
 20
95.20006912552421
 30
0.0
 11
57.22333120553617
 21
111.2000691255242
 31
0.0
  0
POINT
  5
92D1
330
18
100
AcDbEntity
  8
本体外線
100
AcDbPoint
 10
122.3772814653878
 20
115.2000691255242
 30
0.0
  0
POINT
  5
92DF
330
18
100
AcDbEntity
  8
本体外線
100
AcDbPoint
 10
121.3759152999655
 20
115.2000691255242
 30
0.0
  0
POINT
  5
92E0
330
18
100
AcDbEntity
  8
0
100
AcDbPoint
 10
121.0913635118365
 20
93.2000691255242
 30
0.0
  0
LINE
  5
92E4
102
{ACAD_REACTORS
330
957E
102
}
330
18
100
AcDbEntity
  8
本体外線
100
AcDbLine
 10
49.31277283779377
 20
114.7000691255242
 30
0.0
 11
49.31277283779377
 21
95.85107398240385
 31
0.0
  0
LINE
  5
92E6
330
18
100
AcDbEntity
  8
0
100
AcDbLine
 10
121.2205108825088
 20
94.13700487587091
 30
0.0
 11
125.2205108825089
 21
101.0652081061468
 31
0.0
  0
LINE
  5
92E7
330
18
100
AcDbEntity
  8
本体内線
  6
HIDDEN
 48
0.1
100
AcDbLine
 10
123.8229469816042
 20
99.43192264198005
 30
0.0
 11
121.9664117251909
 21
98.3600515119294
 31
0.0
  0
LINE
  5
92E8
330
18
100
AcDbEntity
  8
本体内線
  6
HIDDEN
 48
0.1
100
AcDbLine
 10
121.9664117251907
 20
98.36005151192917
 30
0.0
 11
121.9664117251905
 21
96.14652818212215
 31
0.0
  0
LWPOLYLINE
  5
92E9
102
{ACAD_REACTORS
330
957E
102
}
330
18
100
AcDbEntity
  8
本体外線
100
AcDbPolyline
 90
        2
 70
     0
 43
0.0
 10
121.6033312055361
 20
93.20006912552431
 10
126.2233312055361
 20
101.2021438564924
  0
LINE
  5
92EC
330
18
100
AcDbEntity
  8
本体内線
  6
HIDDEN
 48
0.1
100
AcDbLine
 10
124.8567068785102
 20
98.83508108722384
 30
0.0
 11
123.8229469816041
 21
99.43192264198003
 31
0.0
  0
LINE
  5
92ED
330
18
100
AcDbEntity
  8
本体内線
  6
HIDDEN
 48
0.1
100
AcDbLine
 10
122.9699555325621
 20
95.56713189479244
 30
0.0
 11
121.9664117251905
 21
96.14652818212215
 31
0.0
  0
LINE
  5
92EE
330
18
100
AcDbEntity
  8
0
100
AcDbLine
 10
121.2192528728549
 20
101.0659344183587
 30
0.0
 11
123.9513036804238
 21
101.7979852259275
 31
0.0
  0
LINE
  5
92EF
330
18
100
AcDbEntity
  8
0
100
AcDbLine
 10
119.219252872855
 20
97.60183280322095
 30
0.0
 11
119.9513036804238
 21
94.86978199565205
 31
0.0
  0
LINE
  5
92F0
330
18
100
AcDbEntity
  8
0
100
AcDbLine
 10
123.9513036804238
 20
101.7979852259275
 30
0.0
 11
119.9513036804238
 21
94.86978199565205
 31
0.0
  0
LINE
  5
92F1
330
18
100
AcDbEntity
  8
0
100
AcDbLine
 10
125.2205108825089
 20
99.46520810614579
 30
0.0
 11
122.0584833573956
 21
101.2908055489549
 31
0.0
  0
LINE
  5
92F2
330
18
100
AcDbEntity
  8
0
100
AcDbLine
 10
122.6061515285637
 20
94.93700487587096
 30
0.0
 11
119.4441240034514
 21
96.76260231867955
 31
0.0
  0
LINE
  5
92F3
330
18
100
AcDbEntity
  8
0
100
AcDbLine
 10
121.9692528728552
 20
102.364972524035
 30
0.0
 11
118.4692528728552
 21
96.30279469754411
 31
0.0
  0
LINE
  5
92F4
330
18
100
AcDbEntity
  8
0
100
AcDbLine
 10
121.9692528728552
 20
102.364972524035
 30
0.0
 11
115.2233312055362
 21
106.2597322145938
 31
0.0
  0
LINE
  5
92F5
330
18
100
AcDbEntity
  8
0
100
AcDbLine
 10
118.4692528728553
 20
96.30279469754405
 30
0.0
 11
115.2233312055362
 21
98.17682844593905
 31
0.0
  0
LWPOLYLINE
  5
92F6
102
{ACAD_REACTORS
330
957E
102
}
330
18
100
AcDbEntity
  8
0
100
AcDbPolyline
 90
        3
 70
     0
 43
0.0
 10
125.2205108825089
 20
99.46520810614659
 10
125.2205108825089
 20
101.0652081061461
 10
115.2233312055361
 20
106.8370824837834
  0
LWPOLYLINE
  5
92F7
102
{ACAD_REACTORS
330
957E
102
}
330
18
100
AcDbEntity
  8
0
100
AcDbPolyline
 90
        3
 70
     0
 43
0.0
 10
122.6061515285637
 20
94.93700487587098
 10
121.2205108825087
 20
94.13700487587091
 10
115.2233312055361
 20
97.59947817674955
  0
LINE
  5
92FB
330
18
100
AcDbEntity
  8
中心線
  6
CENTER
 48
0.15
100
AcDbLine
 10
125.6599751703904
 20
96.2619631600242
 30
0.0
 11
114.1730811450288
 21
102.786967782728
 31
0.0
  0
LINE
  5
92FF
102
{ACAD_REACTORS
330
957E
102
}
330
18
100
AcDbEntity
  8
本体外線
100
AcDbLine
 10
115.2233312055361
 20
95.20006912552421
 30
0.0
 11
115.2233312055361
 21
111.2000691255243
 31
0.0
  0
LWPOLYLINE
  5
9300
102
{ACAD_REACTORS
330
957E
102
}
330
18
100
AcDbEntity
  8
本体外線
100
AcDbPolyline
 90
        2
 70
     0
 43
0.0
 10
50.84333120553617
 20
93.20006912552431
 10
46.22333120553617
 20
101.2021438564924
  0
LINE
  5
9301
330
18
100
AcDbEntity
  8
本体外線
100
AcDbLine
 10
57.22333120553617
 20
111.2000691255242
 30
0.0
 11
115.2233312055361
 21
111.2000691255243
 31
0.0
  0
LINE
  5
9302
102
{ACAD_REACTORS
330
957E
102
}
330
18
100
AcDbEntity
  8
本体外線
100
AcDbLine
 10
115.2233312055361
 20
111.2000691255243
 30
0.0
 11
116.7233312055362
 21
113.2000691255242
 31
0.0
  0
LINE
  5
9304
102
{ACAD_REACTORS
330
957E
102
}
330
18
100
AcDbEntity
  8
本体外線
100
AcDbLine
 10
57.22333120553617
 20
111.2000691255242
 30
0.0
 11
55.72333120553617
 21
113.2000691255242
 31
0.0
  0
LINE
  5
9451
330
18
100
AcDbEntity
  8
本体外線
100
AcDbLine
 10
57.22333120553617
 20
95.20006912552421
 30
0.0
 11
115.2233312055361
 21
95.20006912552421
 31
0.0
  0
LINE
  5
9452
102
{ACAD_REACTORS
330
957E
102
}
330
18
100
AcDbEntity
  8
0
 48
0.08
100
AcDbLine
 10
56.22333120553617
 20
93.86673579219083
 30
0.0
 11
56.22333120553617
 21
112.5334024588576
 31
0.0
  0
LINE
  5
9453
102
{ACAD_REACTORS
330
957E
102
}
330
18
100
AcDbEntity
  8
0
100
AcDbLine
 10
116.2233312055361
 20
93.8667357921909
 30
0.0
 11
116.2233312055361
 21
97.02212790755991
 31
0.0
  0
LINE
  5
9454
102
{ACAD_REACTORS
330
957E
102
}
330
18
100
AcDbEntity
  8
本体外線
 48
0.08
100
AcDbLine
 10
55.72333120553617
 20
113.2000691255242
 30
0.0
 11
55.72333120553617
 21
115.2000691255242
 31
0.0
  0
LINE
  5
9455
102
{ACAD_REACTORS
330
957E
102
}
330
18
100
AcDbEntity
  8
本体外線
100
AcDbLine
 10
116.7233312055362
 20
113.2000691255242
 30
0.0
 11
116.7233312055361
 21
115.2000691255242
 31
0.0
  0
LINE
  5
9456
102
{ACAD_REACTORS
330
957E
102
}
330
18
100
AcDbEntity
  8
本体外線
100
AcDbLine
 10
115.2233312055361
 20
95.20006912552412
 30
0.0
 11
116.7233312055362
 21
93.20006912552422
 31
0.0
  0
LINE
  5
9457
102
{ACAD_REACTORS
330
957E
102
}
330
18
100
AcDbEntity
  8
本体外線
100
AcDbLine
 10
57.22333120553617
 20
95.20006912552419
 30
0.0
 11
55.72333120553617
 21
93.20006912552422
 31
0.0
  0
LINE
  5
9458
102
{ACAD_REACTORS
330
957E
102
}
330
18
100
AcDbEntity
  8
0
100
AcDbLine
 10
116.2233312055361
 20
106.2597322145938
 30
0.0
 11
116.2233312055361
 21
112.5334024588575
 31
0.0
  0
HATCH
  5
957E
330
18
100
AcDbEntity
  8
剖面線
100
AcDbHatch
 10
0.0
 20
0.0
 30
0.0
210
0.0
220
0.0
230
1.0
  2
ANSI31
 70
     0
 71
     1
 91
        6
 92
        7
 72
     0
 73
     1
 93
       10
 10
56.22333120553617
 20
112.5334024588575
 10
55.72333120553617
 20
113.2000691255242
 10
55.72333120553616
 20
115.2000691255242
 10
49.72333120553617
 20
115.2000691255242
 10
49.72333120553617
 20
114.7000691255242
 10
49.31277283779377
 20
114.7000691255242
 10
49.31277283779377
 20
95.85107398240381
 10
50.84333120553623
 20
93.20006912552422
 10
55.72333120553618
 20
93.20006912552422
 10
56.22333120553616
 20
93.86673579219085
 97
       10
330
9304
330
9454
330
92C2
330
92C5
330
92C4
330
92E4
330
9300
330
92C3
330
9457
330
9452
 92
        7
 72
     0
 73
     1
 93
        4
 10
57.22333120553616
 20
111.2000691255242
 10
56.22333120553616
 20
112.5334024588575
 10
56.22333120553618
 20
93.86673579219088
 10
57.22333120553617
 20
95.20006912552419
 97
        4
330
9304
330
9452
330
9457
330
92D0
 92
        7
 72
     1
 73
     1
 93
       11
 10
125.2205108825089
 20
101.0652081061461
 42
0.0
 10
125.2205108825089
 20
99.46520810614671
 42
0.0
 10
126.2233312055361
 20
101.2021438564924
 42
0.0
 10
126.2233312055361
 20
112.7000691255242
 42
0.4142135623730951
 10
124.2233312055361
 20
114.7000691255242
 42
0.0
 10
122.7233312055362
 20
114.7000691255242
 42
0.0
 10
122.7233312055362
 20
115.2000691255242
 42
0.0
 10
116.7233312055361
 20
115.2000691255242
 42
0.0
 10
116.7233312055362
 20
113.2000691255241
 42
0.0
 10
116.2233312055362
 20
112.5334024588575
 42
0.0
 10
116.2233312055361
 20
106.2597322145938
 42
0.0
 97
       10
330
92CD
330
92C6
330
92C7
330
92C2
330
9455
330
9302
330
9458
330
92F6
330
92E9
330
92C0
 92
        7
 72
     0
 73
     1
 93
        4
 10
116.2233312055362
 20
112.5334024588575
 10
115.2233312055361
 20
111.2000691255243
 10
115.2233312055361
 20
106.8370824837834
 10
116.2233312055361
 20
106.2597322145938
 97
        4
330
9302
330
92FF
330
92F6
330
9458
 92
        7
 72
     0
 73
     1
 93
        6
 10
121.6033312055361
 20
93.2000691255242
 10
122.606151528564
 20
94.93700487587117
 10
121.2205108825087
 20
94.13700487587091
 10
116.2233312055361
 20
97.02212790755989
 10
116.2233312055361
 20
93.8667357921909
 10
116.7233312055362
 20
93.2000691255242
 97
        5
330
92F7
330
9453
330
9456
330
92C3
330
92E9
 92
        7
 72
     0
 73
     1
 93
        4
 10
116.2233312055361
 20
97.02212790755991
 10
115.2233312055361
 20
97.59947817674955
 10
115.2233312055362
 20
95.20006912552414
 10
116.2233312055362
 20
93.86673579219094
 97
        4
330
92F7
330
92FF
330
9456
330
9453
 75
     0
 76
     1
 52
0.0
 41
0.5
 77
     0
 78
     1
 53
45.0
 43
0.0
 44
0.0
 45
-1.122532015133643
 46
1.122532015133644
 79
     0
 47
0.1048653511214804
 98
        6
 10
54.64459380782227
 20
99.94497348183086
 10
56.76118416510667
 20
105.2041475059989
 10
120.77236121194
 20
106.8073507135337
 10
115.8913878729063
 20
108.4533597173155
 10
117.4166918177197
 20
93.9440984043556
 10
116.1354358838632
 20
95.59010670853627
  0
MTEXT
  5
9588
330
18
100
AcDbEntity
  8
0
100
AcDbMText
 10
49.81948278949767
 20
19.3739983431626
 30
0.0
 40
5.0
 41
0.0
 71
     1
 72
     5
  1
\Ftxt.shx,bigfont.shx|c128;小柳
  7
JL
 73
     1
 44
1.0
  0
ENDSEC
  0
SECTION
  2
OBJECTS
  0
DICTIONARY
  5
C
330
0
100
AcDbDictionary
281
     1
  3
ACAD_COLOR
350
958C
  3
ACAD_GROUP
350
D
  3
ACAD_LAYOUT
350
5CF3
  3
ACAD_MATERIAL
350
958B
  3
ACAD_MLINESTYLE
350
1B
  3
ACAD_PLOTSETTINGS
350
5CF4
  3
ACAD_PLOTSTYLENAME
350
5CF1
  3
ACAD_TABLESTYLE
350
958D
  3
ACDBVARIABLEDICTIONARY
350
45D
  0
DICTIONARY
  5
45F
330
18
100
AcDbDictionary
280
     1
281
     1
  3
ACAD_LAYOUTSELFREF
360
5D8B
  3
ACAD_SORTENTS
360
460
  0
DICTIONARY
  5
5D89
330
15
100
AcDbDictionary
280
     1
281
     1
  3
ACAD_LAYOUTSELFREF
360
5D8A
  0
DICTIONARY
  5
958C
102
{ACAD_REACTORS
330
C
102
}
330
C
100
AcDbDictionary
281
     1
  0
DICTIONARY
  5
D
102
{ACAD_REACTORS
330
C
102
}
330
C
100
AcDbDictionary
281
     1
  0
DICTIONARY
  5
5CF3
102
{ACAD_REACTORS
330
C
102
}
330
C
100
AcDbDictionary
281
     1
  3
Model
350
5CF5
  3
配置1
350
5CF6
  0
DICTIONARY
  5
958B
102
{ACAD_REACTORS
330
C
102
}
330
C
100
AcDbDictionary
281
     1
  0
DICTIONARY
  5
1B
102
{ACAD_REACTORS
330
C
102
}
330
C
100
AcDbDictionary
281
     1
  3
STANDARD
350
1C
  0
DICTIONARY
  5
5CF4
102
{ACAD_REACTORS
330
C
102
}
330
C
100
AcDbDictionary
281
     1
  0
ACDBDICTIONARYWDFLT
  5
5CF1
102
{ACAD_REACTORS
330
C
102
}
330
C
100
AcDbDictionary
281
     1
  3
Normal
350
5CF2
100
AcDbDictionaryWithDefault
340
5CF2
  0
DICTIONARY
  5
958D
102
{ACAD_REACTORS
330
C
102
}
330
C
100
AcDbDictionary
281
     1
  3
Standard
350
958E
  0
DICTIONARY
  5
45D
102
{ACAD_REACTORS
330
C
102
}
330
C
100
AcDbDictionary
281
     1
  3
CTABLESTYLE
350
9596
  3
SORTENTS
350
45E
  0
XRECORD
  5
5D8B
102
{ACAD_REACTORS
330
45F
102
}
330
45F
100
AcDbXrecord
280
     1
340
18
  0
SORTENTSTABLE
  5
460
102
{ACAD_REACTORS
330
45F
102
}
330
45F
100
AcDbSortentsTable
330
18
331
C0
  5
CB
  0
XRECORD
  5
5D8A
102
{ACAD_REACTORS
330
5D89
102
}
330
5D89
100
AcDbXrecord
280
     1
340
15
  0
LAYOUT
  5
5CF5
102
{ACAD_REACTORS
330
5CF3
102
}
330
5CF3
100
AcDbPlotSettings
  1

  2
EPSON STYLUS COLOR 440
  4

  6

 40
0.0
 41
0.0
 42
0.0
 43
0.0
 44
0.0
 45
0.0
 46
0.0
 47
0.0
 48
0.0
 49
0.0
140
0.0
141
0.0
142
1.0
143
1.0
 70
  1712
 72
     0
 73
     0
 74
     0
  7
a.ctb
 75
     0
147
1.0
 76
     0
 77
     2
 78
   300
148
0.0
149
0.0
100
AcDbLayout
  1
Model
 70
     1
 71
     0
 10
0.0
 20
0.0
 11
12.0
 21
9.0
 12
0.0
 22
0.0
 32
0.0
 14
0.0
 24
0.0
 34
0.0
 15
0.0
 25
0.0
 35
0.0
146
0.0
 13
0.0
 23
0.0
 33
0.0
 16
1.0
 26
0.0
 36
0.0
 17
0.0
 27
1.0
 37
0.0
 76
     0
330
18
  0
LAYOUT
  5
5CF6
102
{ACAD_REACTORS
330
5CF3
102
}
330
5CF3
100
AcDbPlotSettings
  1

  2
EPSON STYLUS COLOR 440
  4

  6

 40
0.0
 41
0.0
 42
0.0
 43
0.0
 44
0.0
 45
0.0
 46
0.0
 47
0.0
 48
0.0
 49
0.0
140
0.0
141
0.0
142
1.0
143
1.0
 70
   688
 72
     0
 73
     0
 74
     5
  7
a.ctb
 75
    16
147
1.0
 76
     0
 77
     2
 78
   300
148
0.0
149
0.0
100
AcDbLayout
  1
ｰtｸm1
 70
     1
 71
     1
 10
0.0
 20
0.0
 11
420.0
 21
297.0
 12
0.0
 22
0.0
 32
0.0
 14
1.000000000000000E+20
 24
1.000000000000000E+20
 34
1.000000000000000E+20
 15
-1.000000000000000E+20
 25
-1.000000000000000E+20
 35
-1.000000000000000E+20
146
0.0
 13
0.0
 23
0.0
 33
0.0
 16
1.0
 26
0.0
 36
0.0
 17
0.0
 27
1.0
 37
0.0
 76
     0
330
15
  0
MLINESTYLE
  5
1C
102
{ACAD_REACTORS
330
1B
102
}
330
1B
100
AcDbMlineStyle
  2
STANDARD
 70
     0
  3

 62
   256
 51
90.0
 52
90.0
 71
     2
 49
0.5
 62
   256
  6
BYLAYER
 49
-0.5
 62
   256
  6
BYLAYER
  0
ACDBPLACEHOLDER
  5
5CF2
102
{ACAD_REACTORS
330
5CF1
102
}
330
5CF1
  0
TABLESTYLE
  5
958E
102
{ACAD_REACTORS
330
958D
102
}
330
958D
100
AcDbTableStyle
  3
Standard
 70
     0
 71
     8
 40
1.5
 41
1.5
280
     0
281
     0
  7
STANDARD
140
4.5
170
     2
 62
     0
 63
     7
283
     0
274
    -2
284
     1
 64
     0
275
    -2
285
     1
 65
     0
276
    -2
286
     1
 66
     0
277
    -2
287
     1
 67
     0
278
    -2
288
     1
 68
     0
279
    -2
289
     1
 69
     0
  7
STANDARD
140
6.0
170
     5
 62
     0
 63
     7
283
     0
274
    -2
284
     1
 64
     0
275
    -2
285
     1
 65
     0
276
    -2
286
     1
 66
     0
277
    -2
287
     1
 67
     0
278
    -2
288
     1
 68
     0
279
    -2
289
     1
 69
     0
  7
STANDARD
140
4.5
170
     5
 62
     0
 63
     7
283
     0
274
    -2
284
     1
 64
     0
275
    -2
285
     1
 65
     0
276
    -2
286
     1
 66
     0
277
    -2
287
     1
 67
     0
278
    -2
288
     1
 68
     0
279
    -2
289
     1
 69
     0
  0
DICTIONARYVAR
  5
9596
102
{ACAD_REACTORS
330
45D
102
}
330
45D
100
DictionaryVariables
280
     0
  1
STANDARD
  0
DICTIONARYVAR
  5
45E
102
{ACAD_REACTORS
330
45D
102
}
330
45D
100
DictionaryVariables
280
     0
  1
127
  0
ENDSEC
  0
EOF
