  0
SECTION
  2
HEADER
  9
$ACADVER
  1
AC1018
  9
$ACADMAINTVER
 70
    76
  9
$DWGCODEPAGE
  3
ANSI_932
  9
$INSBASE
 10
0.0
 20
0.0
 30
0.0
  9
$EXTMIN
 10
-0.0000000000002274
 20
-0.0000000000000568
 30
0.0
  9
$EXTMAX
 10
197.9999999999997
 20
290.0
 30
4.0
  9
$LIMMIN
 10
0.0
 20
0.0
  9
$LIMMAX
 10
420.0
 20
297.0
  9
$ORTHOMODE
 70
     0
  9
$REGENMODE
 70
     1
  9
$FILLMODE
 70
     1
  9
$QTEXTMODE
 70
     0
  9
$MIRRTEXT
 70
     1
  9
$LTSCALE
 40
1.0
  9
$ATTMODE
 70
     1
  9
$TEXTSIZE
 40
2.5
  9
$TRACEWID
 40
1.0
  9
$TEXTSTYLE
  7
TXT
  9
$CLAYER
  8
DIM
  9
$CELTYPE
  6
BYLAYER
  9
$CECOLOR
 62
   256
  9
$CELTSCALE
 40
1.0
  9
$DISPSILH
 70
     0
  9
$DIMSCALE
 40
1.0
  9
$DIMASZ
 40
2.5
  9
$DIMEXO
 40
1.0
  9
$DIMDLI
 40
6.0
  9
$DIMRND
 40
0.0
  9
$DIMDLE
 40
0.0
  9
$DIMEXE
 40
1.0
  9
$DIMTP
 40
0.0
  9
$DIMTM
 40
0.0
  9
$DIMTXT
 40
3.0
  9
$DIMCEN
 40
0.0
  9
$DIMTSZ
 40
0.0
  9
$DIMTOL
 70
     0
  9
$DIMLIM
 70
     0
  9
$DIMTIH
 70
     0
  9
$DIMTOH
 70
     0
  9
$DIMSE1
 70
     0
  9
$DIMSE2
 70
     0
  9
$DIMTAD
 70
     3
  9
$DIMZIN
 70
     8
  9
$DIMBLK
  1

  9
$DIMASO
 70
     1
  9
$DIMSHO
 70
     1
  9
$DIMPOST
  1

  9
$DIMAPOST
  1

  9
$DIMALT
 70
     0
  9
$DIMALTD
 70
     2
  9
$DIMALTF
 40
25.4
  9
$DIMLFAC
 40
1.0
  9
$DIMTOFL
 70
     0
  9
$DIMTVP
 40
0.0
  9
$DIMTIX
 70
     0
  9
$DIMSOXD
 70
     0
  9
$DIMSAH
 70
     0
  9
$DIMBLK1
  1

  9
$DIMBLK2
  1

  9
$DIMSTYLE
  2
A
  9
$DIMCLRD
 70
     6
  9
$DIMCLRE
 70
     6
  9
$DIMCLRT
 70
     3
  9
$DIMTFAC
 40
1.0
  9
$DIMGAP
 40
1.0
  9
$DIMJUST
 70
     0
  9
$DIMSD1
 70
     0
  9
$DIMSD2
 70
     0
  9
$DIMTOLJ
 70
     1
  9
$DIMTZIN
 70
     0
  9
$DIMALTZ
 70
     0
  9
$DIMALTTZ
 70
     0
  9
$DIMUPT
 70
     0
  9
$DIMDEC
 70
     1
  9
$DIMTDEC
 70
     1
  9
$DIMALTU
 70
     2
  9
$DIMALTTD
 70
     2
  9
$DIMTXSTY
  7
TXT
  9
$DIMAUNIT
 70
     0
  9
$DIMADEC
 70
     0
  9
$DIMALTRND
 40
0.0
  9
$DIMAZIN
 70
     0
  9
$DIMDSEP
 70
    46
  9
$DIMATFIT
 70
     3
  9
$DIMFRAC
 70
     0
  9
$DIMLDRBLK
  1

  9
$DIMLUNIT
 70
     2
  9
$DIMLWD
 70
    -2
  9
$DIMLWE
 70
    -2
  9
$DIMTMOVE
 70
     1
  9
$LUNITS
 70
     2
  9
$LUPREC
 70
     2
  9
$SKETCHINC
 40
1.0
  9
$FILLETRAD
 40
1.5
  9
$AUNITS
 70
     0
  9
$AUPREC
 70
     2
  9
$MENU
  1
.
  9
$ELEVATION
 40
0.0
  9
$PELEVATION
 40
0.0
  9
$THICKNESS
 40
0.0
  9
$LIMCHECK
 70
     0
  9
$CHAMFERA
 40
0.0
  9
$CHAMFERB
 40
0.0
  9
$CHAMFERC
 40
1.75
  9
$CHAMFERD
 40
0.0174532925199433
  9
$SKPOLY
 70
     0
  9
$TDCREATE
 40
2451555.578568171
  9
$TDUCREATE
 40
2451555.203568172
  9
$TDUPDATE
 40
2455846.606371979
  9
$TDUUPDATE
 40
2455846.231371979
  9
$TDINDWG
 40
2.8016062616
  9
$TDUSRTIMER
 40
2.8016062616
  9
$USRTIMER
 70
     1
  9
$ANGBASE
 50
0.0
  9
$ANGDIR
 70
     0
  9
$PDMODE
 70
     0
  9
$PDSIZE
 40
0.0
  9
$PLINEWID
 40
0.0
  9
$SPLFRAME
 70
     0
  9
$SPLINETYPE
 70
     6
  9
$SPLINESEGS
 70
     8
  9
$HANDSEED
  5
A0C7
  9
$SURFTAB1
 70
     6
  9
$SURFTAB2
 70
     6
  9
$SURFTYPE
 70
     6
  9
$SURFU
 70
     6
  9
$SURFV
 70
     6
  9
$UCSBASE
  2

  9
$UCSNAME
  2

  9
$UCSORG
 10
0.0
 20
0.0
 30
0.0
  9
$UCSXDIR
 10
1.0
 20
0.0
 30
0.0
  9
$UCSYDIR
 10
0.0
 20
1.0
 30
0.0
  9
$UCSORTHOREF
  2

  9
$UCSORTHOVIEW
 70
     0
  9
$UCSORGTOP
 10
0.0
 20
0.0
 30
0.0
  9
$UCSORGBOTTOM
 10
0.0
 20
0.0
 30
0.0
  9
$UCSORGLEFT
 10
0.0
 20
0.0
 30
0.0
  9
$UCSORGRIGHT
 10
0.0
 20
0.0
 30
0.0
  9
$UCSORGFRONT
 10
0.0
 20
0.0
 30
0.0
  9
$UCSORGBACK
 10
0.0
 20
0.0
 30
0.0
  9
$PUCSBASE
  2

  9
$PUCSNAME
  2

  9
$PUCSORG
 10
0.0
 20
0.0
 30
0.0
  9
$PUCSXDIR
 10
1.0
 20
0.0
 30
0.0
  9
$PUCSYDIR
 10
0.0
 20
1.0
 30
0.0
  9
$PUCSORTHOREF
  2

  9
$PUCSORTHOVIEW
 70
     0
  9
$PUCSORGTOP
 10
0.0
 20
0.0
 30
0.0
  9
$PUCSORGBOTTOM
 10
0.0
 20
0.0
 30
0.0
  9
$PUCSORGLEFT
 10
0.0
 20
0.0
 30
0.0
  9
$PUCSORGRIGHT
 10
0.0
 20
0.0
 30
0.0
  9
$PUCSORGFRONT
 10
0.0
 20
0.0
 30
0.0
  9
$PUCSORGBACK
 10
0.0
 20
0.0
 30
0.0
  9
$USERI1
 70
     0
  9
$USERI2
 70
     0
  9
$USERI3
 70
     0
  9
$USERI4
 70
     0
  9
$USERI5
 70
     0
  9
$USERR1
 40
0.0
  9
$USERR2
 40
0.0
  9
$USERR3
 40
0.0
  9
$USERR4
 40
0.0
  9
$USERR5
 40
0.0
  9
$WORLDVIEW
 70
     1
  9
$SHADEDGE
 70
     3
  9
$SHADEDIF
 70
    70
  9
$TILEMODE
 70
     1
  9
$MAXACTVP
 70
    48
  9
$PINSBASE
 10
0.0
 20
0.0
 30
0.0
  9
$PLIMCHECK
 70
     0
  9
$PEXTMIN
 10
1.000000000000000E+20
 20
1.000000000000000E+20
 30
1.000000000000000E+20
  9
$PEXTMAX
 10
-1.000000000000000E+20
 20
-1.000000000000000E+20
 30
-1.000000000000000E+20
  9
$PLIMMIN
 10
0.0
 20
0.0
  9
$PLIMMAX
 10
420.0
 20
297.0
  9
$UNITMODE
 70
     0
  9
$VISRETAIN
 70
     1
  9
$PLINEGEN
 70
     0
  9
$PSLTSCALE
 70
     1
  9
$TREEDEPTH
 70
  3020
  9
$CMLSTYLE
  2
STANDARD
  9
$CMLJUST
 70
     0
  9
$CMLSCALE
 40
20.0
  9
$PROXYGRAPHICS
 70
     1
  9
$MEASUREMENT
 70
     1
  9
$CELWEIGHT
370
    -1
  9
$ENDCAPS
280
     0
  9
$JOINSTYLE
280
     0
  9
$LWDISPLAY
290
     0
  9
$INSUNITS
 70
     0
  9
$HYPERLINKBASE
  1

  9
$STYLESHEET
  1

  9
$XEDIT
290
     1
  9
$CEPSNTYPE
380
     0
  9
$PSTYLEMODE
290
     1
  9
$FINGERPRINTGUID
  2
{1CF51E8A-A506-11D4-A7D9-AF69F5C20846}
  9
$VERSIONGUID
  2
{72AE6C24-11D5-4EED-BBF4-40EA2DB63299}
  9
$EXTNAMES
290
     1
  9
$PSVPSCALE
 40
0.0
  9
$OLESTARTUP
290
     0
  9
$SORTENTS
280
   127
  9
$INDEXCTL
280
     0
  9
$HIDETEXT
280
     0
  9
$XCLIPFRAME
290
     0
  9
$HALOGAP
280
     0
  9
$OBSCOLOR
 70
   257
  9
$OBSLTYPE
280
     0
  9
$INTERSECTIONDISPLAY
280
     0
  9
$INTERSECTIONCOLOR
 70
   257
  9
$DIMASSOC
280
     1
  9
$PROJECTNAME
  1

  0
ENDSEC
  0
SECTION
  2
CLASSES
  0
CLASS
  1
DICTIONARYVAR
  2
AcDbDictionaryVar
  3
ObjectDBX Classes
 90
        0
 91
        2
280
     0
281
     0
  0
CLASS
  1
SORTENTSTABLE
  2
AcDbSortentsTable
  3
ObjectDBX Classes
 90
        0
 91
        1
280
     0
281
     0
  0
CLASS
  1
ACDBDICTIONARYWDFLT
  2
AcDbDictionaryWithDefault
  3
ObjectDBX Classes
 90
        0
 91
        1
280
     0
281
     0
  0
CLASS
  1
TABLESTYLE
  2
AcDbTableStyle
  3
ObjectDBX Classes
 90
     2047
 91
        1
280
     0
281
     0
  0
ENDSEC
  0
SECTION
  2
TABLES
  0
TABLE
  2
VPORT
  5
8
330
0
100
AcDbSymbolTable
 70
     2
  0
VPORT
  5
A0C6
330
8
100
AcDbSymbolTableRecord
100
AcDbViewportTableRecord
  2
*Active
 70
     0
 10
0.0
 20
0.0
 11
1.0
 21
1.0
 12
98.52336719542925
 22
162.9765026117729
 13
0.0
 23
0.0
 14
10.0
 24
10.0
 15
10.0
 25
10.0
 16
0.0
 26
0.0
 36
1.0
 17
0.0
 27
0.0
 37
0.0
 40
206.207995294436
 41
2.47104247104247
 42
50.0
 43
0.0
 44
0.0
 50
0.0
 51
0.0
 71
     0
 72
   100
 73
     1
 74
     1
 75
     0
 76
     0
 77
     0
 78
     0
281
     0
 65
     1
110
0.0
120
0.0
130
0.0
111
1.0
121
0.0
131
0.0
112
0.0
122
1.0
132
0.0
 79
     0
146
0.0
  0
ENDTAB
  0
TABLE
  2
LTYPE
  5
5
330
0
100
AcDbSymbolTable
 70
     7
  0
LTYPE
  5
12
330
5
100
AcDbSymbolTableRecord
100
AcDbLinetypeTableRecord
  2
BYBLOCK
 70
     0
  3

 72
    65
 73
     0
 40
0.0
  0
LTYPE
  5
13
330
5
100
AcDbSymbolTableRecord
100
AcDbLinetypeTableRecord
  2
BYLAYER
 70
     0
  3

 72
    65
 73
     0
 40
0.0
  0
LTYPE
  5
14
330
5
100
AcDbSymbolTableRecord
100
AcDbLinetypeTableRecord
  2
CONTINUOUS
 70
     0
  3
Solid line
 72
    65
 73
     0
 40
0.0
  0
LTYPE
  5
9D
330
5
100
AcDbSymbolTableRecord
100
AcDbLinetypeTableRecord
  2
CENTERX2
 70
     0
  3
Center (2x) ________  __  ________  __  _____
 72
    65
 73
     4
 40
101.6
 49
63.5
 74
     0
 49
-12.7
 74
     0
 49
12.7
 74
     0
 49
-12.7
 74
     0
  0
LTYPE
  5
A1
330
5
100
AcDbSymbolTableRecord
100
AcDbLinetypeTableRecord
  2
DASHED
 70
     0
  3
Dashed __ __ __ __ __ __ __ __ __ __ __ __ __ _
 72
    65
 73
     2
 40
19.05
 49
12.7
 74
     0
 49
-6.349999999999999
 74
     0
  0
LTYPE
  5
A2
330
5
100
AcDbSymbolTableRecord
100
AcDbLinetypeTableRecord
  2
DASHED2
 70
     0
  3
Dashed (.5x) _ _ _ _ _ _ _ _ _ _ _ _ _ _ _ _ _
 72
    65
 73
     2
 40
9.524999999999998
 49
6.349999999999999
 74
     0
 49
-3.174999999999999
 74
     0
  0
LTYPE
  5
A5
330
5
100
AcDbSymbolTableRecord
100
AcDbLinetypeTableRecord
  2
DIVIDE2
 70
     0
  3
Divide (.5x) __..__..__..__..__..__..__..__.._
 72
    65
 73
     6
 40
15.875
 49
6.349999999999999
 74
     0
 49
-3.174999999999999
 74
     0
 49
0.0
 74
     0
 49
-3.174999999999999
 74
     0
 49
0.0
 74
     0
 49
-3.174999999999999
 74
     0
  0
LTYPE
  5
650B
330
5
100
AcDbSymbolTableRecord
100
AcDbLinetypeTableRecord
  2
CENTER
 70
     0
  3
Center ____ _ ____ _ ____ _ ____ _ ____ _ ____
 72
    65
 73
     4
 40
50.8
 49
31.75
 74
     0
 49
-6.349999999999999
 74
     0
 49
6.349999999999999
 74
     0
 49
-6.349999999999999
 74
     0
  0
LTYPE
  5
650C
330
5
100
AcDbSymbolTableRecord
100
AcDbLinetypeTableRecord
  2
HIDDEN
 70
     0
  3
Hidden __ __ __ __ __ __ __ __ __ __ __ __ __ _
 72
    65
 73
     2
 40
9.524999999999998
 49
6.349999999999999
 74
     0
 49
-3.174999999999999
 74
     0
  0
ENDTAB
  0
TABLE
  2
LAYER
  5
2
330
0
100
AcDbSymbolTable
 70
     9
  0
LAYER
  5
E
330
2
100
AcDbSymbolTableRecord
100
AcDbLayerTableRecord
  2
0
 70
     0
 62
     7
  6
CONTINUOUS
370
    -3
390
5CF2
  0
LAYER
  5
B9
330
2
100
AcDbSymbolTableRecord
100
AcDbLayerTableRecord
  2
DIM
 70
     0
 62
     3
  6
CONTINUOUS
370
    -3
390
5CF2
  0
LAYER
  5
F2
330
2
100
AcDbSymbolTableRecord
100
AcDbLayerTableRecord
  2
DEFPOINTS
 70
     0
 62
     4
  6
CONTINUOUS
290
     0
370
    -3
390
5CF2
  0
LAYER
  5
5F8B
330
2
100
AcDbSymbolTableRecord
100
AcDbLayerTableRecord
  2
公差
 70
     0
 62
     6
  6
CONTINUOUS
370
    -3
390
5CF2
  0
LAYER
  5
644E
330
2
100
AcDbSymbolTableRecord
100
AcDbLayerTableRecord
  2
図框線
 70
     0
 62
     9
  6
CONTINUOUS
370
    -3
390
5CF2
  0
LAYER
  5
650D
330
2
100
AcDbSymbolTableRecord
100
AcDbLayerTableRecord
  2
中心線
 70
     0
 62
     1
  6
CENTER
370
    -3
390
5CF2
  0
LAYER
  5
650E
330
2
100
AcDbSymbolTableRecord
100
AcDbLayerTableRecord
  2
本体内線
 70
     0
 62
     4
  6
HIDDEN
370
    -3
390
5CF2
  0
LAYER
  5
650F
330
2
100
AcDbSymbolTableRecord
100
AcDbLayerTableRecord
  2
本体外線
 70
     0
 62
     2
  6
CONTINUOUS
370
    -3
390
5CF2
  0
LAYER
  5
6510
330
2
100
AcDbSymbolTableRecord
100
AcDbLayerTableRecord
  2
剖面線
 70
     0
 62
     5
  6
CONTINUOUS
370
    -3
390
5CF2
  0
ENDTAB
  0
TABLE
  2
STYLE
  5
3
330
0
100
AcDbSymbolTable
 70
     5
  0
STYLE
  5
F
330
3
100
AcDbSymbolTableRecord
100
AcDbTextStyleTableRecord
  2
STANDARD
 70
     0
 40
0.0
 41
1.0
 50
0.0
 71
     0
 42
2.5
  3
txt
  4

  0
STYLE
  5
BE
330
3
100
AcDbSymbolTableRecord
100
AcDbTextStyleTableRecord
  2
ISOCP3
 70
     0
 40
0.0
 41
1.0
 50
0.0
 71
     0
 42
2.5
  3
isocp3.shx
  4

  0
STYLE
  5
2A37
330
3
100
AcDbSymbolTableRecord
100
AcDbTextStyleTableRecord
  2
TXT
 70
     0
 40
0.0
 41
1.0
 50
0.0
 71
     0
 42
2.5
  3
txt.shx
  4
bigfont.shx
  0
STYLE
  5
5DCB
330
3
100
AcDbSymbolTableRecord
100
AcDbTextStyleTableRecord
  2
LKK
 70
     0
 40
50.0
 41
1.5
 50
0.0
 71
     0
 42
50.0
  3
MS PGothic.ttf
  4

1001
ACAD
1000
MS PGothic
1071
    32818
  0
STYLE
  5
5DCC
330
3
100
AcDbSymbolTableRecord
100
AcDbTextStyleTableRecord
  2
JL
 70
     0
 40
10.0
 41
0.5
 50
0.0
 71
     0
 42
5.0
  3
MS Mincho.ttf
  4

1001
ACAD
1000
MS Mincho
1071
    32785
  0
ENDTAB
  0
TABLE
  2
VIEW
  5
6
330
0
100
AcDbSymbolTable
 70
     0
  0
ENDTAB
  0
TABLE
  2
UCS
  5
7
330
0
100
AcDbSymbolTable
 70
     0
  0
ENDTAB
  0
TABLE
  2
APPID
  5
9
330
0
100
AcDbSymbolTable
 70
     1
  0
APPID
  5
10
330
9
100
AcDbSymbolTableRecord
100
AcDbRegAppTableRecord
  2
ACAD
 70
     0
  0
ENDTAB
  0
TABLE
  2
DIMSTYLE
  5
A
330
0
100
AcDbSymbolTable
 70
     3
100
AcDbDimStyleTable
 71
     0
  0
DIMSTYLE
105
1D
330
A
100
AcDbSymbolTableRecord
100
AcDbDimStyleTableRecord
  2
STANDARD
 70
     0
 41
3.0
 42
0.06
 77
     3
140
4.0
144
0.3333333333333333
172
     1
340
F
  0
DIMSTYLE
105
1A4
102
{ACAD_REACTORS
330
6770
330
6C92
330
6CAA
330
6F74
330
74C6
330
750D
330
7568
330
7575
330
7AD6
330
677F
330
6864
330
9FA8
102
}
330
A
100
AcDbSymbolTableRecord
100
AcDbDimStyleTableRecord
  2
A
 70
     0
 41
2.5
 42
1.0
 43
6.0
 44
1.0
 73
     0
 74
     0
 77
     3
 78
     8
140
3.0
141
0.0
147
1.0
176
     6
177
     6
178
     3
271
     1
272
     1
279
     1
340
2A37
  0
DIMSTYLE
105
6006
330
A
100
AcDbSymbolTableRecord
100
AcDbDimStyleTableRecord
  2
ISO-25
 70
     0
 40
0.0
 41
2.0
 42
0.3
 43
1.0
 44
0.3
 73
     0
 74
     0
 77
     1
 78
     8
140
3.0
147
1.0
172
     1
176
     6
177
     6
178
     3
271
     1
272
     2
284
     8
288
     1
289
     2
340
F
  0
ENDTAB
  0
TABLE
  2
BLOCK_RECORD
  5
1
330
0
100
AcDbSymbolTable
 70
    13
  0
BLOCK_RECORD
  5
18
102
{ACAD_XDICTIONARY
360
45F
102
}
330
1
100
AcDbSymbolTableRecord
100
AcDbBlockTableRecord
  2
*MODEL_SPACE
340
5CF5
  0
BLOCK_RECORD
  5
15
102
{ACAD_XDICTIONARY
360
5D89
102
}
330
1
100
AcDbSymbolTableRecord
100
AcDbBlockTableRecord
  2
*PAPER_SPACE
340
5CF6
  0
BLOCK_RECORD
  5
639D
330
1
100
AcDbSymbolTableRecord
100
AcDbBlockTableRecord
  2
A$C255C26A2
340
0
102
{BLKREFS
331
63A3
102
}
  0
BLOCK_RECORD
  5
67BC
330
1
100
AcDbSymbolTableRecord
100
AcDbBlockTableRecord
  2
*D1
340
0
  0
BLOCK_RECORD
  5
67D9
330
1
100
AcDbSymbolTableRecord
100
AcDbBlockTableRecord
  2
*D2
340
0
  0
BLOCK_RECORD
  5
6854
330
1
100
AcDbSymbolTableRecord
100
AcDbBlockTableRecord
  2
*D3
340
0
  0
BLOCK_RECORD
  5
6C86
330
1
100
AcDbSymbolTableRecord
100
AcDbBlockTableRecord
  2
*D4
340
0
  0
BLOCK_RECORD
  5
6C9E
330
1
100
AcDbSymbolTableRecord
100
AcDbBlockTableRecord
  2
*D5
340
0
  0
BLOCK_RECORD
  5
6FE3
330
1
100
AcDbSymbolTableRecord
100
AcDbBlockTableRecord
  2
*D6
340
0
  0
BLOCK_RECORD
  5
74B6
330
1
100
AcDbSymbolTableRecord
100
AcDbBlockTableRecord
  2
*D7
340
0
  0
BLOCK_RECORD
  5
7501
330
1
100
AcDbSymbolTableRecord
100
AcDbBlockTableRecord
  2
*D8
340
0
  0
BLOCK_RECORD
  5
755C
330
1
100
AcDbSymbolTableRecord
100
AcDbBlockTableRecord
  2
*D9
340
0
  0
BLOCK_RECORD
  5
7569
330
1
100
AcDbSymbolTableRecord
100
AcDbBlockTableRecord
  2
*D10
340
0
  0
BLOCK_RECORD
  5
7AC6
330
1
100
AcDbSymbolTableRecord
100
AcDbBlockTableRecord
  2
*D11
340
0
  0
BLOCK_RECORD
  5
9F9A
330
1
100
AcDbSymbolTableRecord
100
AcDbBlockTableRecord
  2
*D12
340
0
  0
ENDTAB
  0
ENDSEC
  0
SECTION
  2
BLOCKS
  0
BLOCK
  5
19
330
18
100
AcDbEntity
  8
0
100
AcDbBlockBegin
  2
*MODEL_SPACE
 70
     0
 10
0.0
 20
0.0
 30
0.0
  3
*MODEL_SPACE
  1

  0
ENDBLK
  5
1A
330
18
100
AcDbEntity
  8
0
100
AcDbBlockEnd
  0
BLOCK
  5
16
330
15
100
AcDbEntity
 67
     1
  8
0
100
AcDbBlockBegin
  2
*PAPER_SPACE
 70
     0
 10
0.0
 20
0.0
 30
0.0
  3
*PAPER_SPACE
  1

  0
ENDBLK
  5
17
330
15
100
AcDbEntity
 67
     1
  8
0
100
AcDbBlockEnd
  0
BLOCK
  5
63A1
330
639D
100
AcDbEntity
  8
0
100
AcDbBlockBegin
  2
A$C255C26A2
 70
     0
 10
0.0
 20
0.0
 30
0.0
  3
A$C255C26A2
  1

  0
LWPOLYLINE
  5
639E
330
639D
100
AcDbEntity
  8
0
100
AcDbPolyline
 90
        3
 70
     1
 43
0.0
 10
7.014806023851633
 20
0.0000006939811783
 10
5.611844869720698
 20
2.430000693981241
 10
8.417767177982568
 20
2.430000693981241
  0
LWPOLYLINE
  5
639F
330
639D
100
AcDbEntity
  8
0
100
AcDbPolyline
 90
        3
 70
     1
 43
0.0
 10
4.20888371558999
 20
0.0000006939811783
 10
2.805922561459283
 20
2.430000693981241
 10
5.611844869720698
 20
2.430000693981241
  0
LWPOLYLINE
  5
63A0
330
639D
100
AcDbEntity
  8
0
100
AcDbPolyline
 90
        3
 70
     1
 43
0.0
 10
1.402961407328348
 20
0.0000006939811783
 10
0.0000002531974133
 20
2.430000693981241
 10
2.805922561459283
 20
2.430000693981241
  0
ENDBLK
  5
63A2
330
639D
100
AcDbEntity
  8
0
100
AcDbBlockEnd
  0
BLOCK
  5
A097
330
67BC
100
AcDbEntity
  8
0
100
AcDbBlockBegin
  2
*D1
 70
     1
 10
0.0
 20
0.0
 30
0.0
  3
*D1
  1

  0
LINE
  5
A098
330
67BC
100
AcDbEntity
  8
0
  6
ByBlock
 62
     6
100
AcDbLine
 10
256.4313577205112
 20
86.4557572221126
 30
0.0
 11
256.4313577205112
 21
68.8378711553597
 31
0.0
  0
LINE
  5
A099
330
67BC
100
AcDbEntity
  8
0
  6
ByBlock
 62
     6
100
AcDbLine
 10
326.4313577205112
 20
86.45575722211258
 30
0.0
 11
326.4313577205112
 21
68.8378711553597
 31
0.0
  0
LINE
  5
A09A
330
67BC
100
AcDbEntity
  8
0
  6
ByBlock
 62
     6
100
AcDbLine
 10
258.9313577205112
 20
69.83787115535971
 30
0.0
 11
323.9313577205112
 21
69.83787115535971
 31
0.0
  0
MTEXT
  5
A09B
330
67BC
100
AcDbEntity
  8
0
  6
ByBlock
 62
     3
100
AcDbMText
 10
291.4313577205108
 20
72.33787115535971
 30
0.0
 40
3.0
 41
0.0
 71
     5
 72
     1
  1
\A1;M70X2.0P
  7
TXT
 73
     1
 44
1.0
  0
SOLID
  5
A09C
330
67BC
100
AcDbEntity
  8
0
  6
ByBlock
 62
     6
100
AcDbTrace
 10
258.9313577205112
 20
70.25453782202638
 30
0.0
 11
258.9313577205112
 21
69.42120448869303
 31
0.0
 12
256.4313577205112
 22
69.83787115535971
 32
0.0
 13
256.4313577205112
 23
69.83787115535971
 33
0.0
  0
SOLID
  5
A09D
330
67BC
100
AcDbEntity
  8
0
  6
ByBlock
 62
     6
100
AcDbTrace
 10
323.9313577205112
 20
70.25453782202638
 30
0.0
 11
323.9313577205112
 21
69.42120448869303
 31
0.0
 12
326.4313577205112
 22
69.83787115535971
 32
0.0
 13
326.4313577205112
 23
69.83787115535971
 33
0.0
  0
POINT
  5
A09E
330
67BC
100
AcDbEntity
  8
DEFPOINTS
  6
ByBlock
 62
     0
100
AcDbPoint
 10
256.4313577205112
 20
87.45575722211262
 30
0.0
  0
POINT
  5
A09F
330
67BC
100
AcDbEntity
  8
DEFPOINTS
  6
ByBlock
 62
     0
100
AcDbPoint
 10
326.4313577205112
 20
87.45575722211258
 30
0.0
  0
POINT
  5
A0A0
330
67BC
100
AcDbEntity
  8
DEFPOINTS
  6
ByBlock
 62
     0
100
AcDbPoint
 10
326.4313577205112
 20
69.83787115535971
 30
0.0
  0
ENDBLK
  5
A0A1
330
67BC
100
AcDbEntity
  8
0
100
AcDbBlockEnd
  0
BLOCK
  5
9B88
330
67D9
100
AcDbEntity
  8
0
100
AcDbBlockBegin
  2
*D2
 70
     1
 10
0.0
 20
0.0
 30
0.0
  3
*D2
  1

  0
LINE
  5
9B89
330
67D9
100
AcDbEntity
  8
0
  6
ByBlock
 62
     6
100
AcDbLine
 10
300.3649020668502
 20
244.6457932592992
 30
0.0
 11
300.3649020668502
 21
198.0762901926406
 31
0.0
  0
LINE
  5
9B8A
330
67D9
100
AcDbEntity
  8
0
  6
ByBlock
 62
     6
100
AcDbLine
 10
303.8876765556174
 20
244.6457932592992
 30
0.0
 11
303.8876765556174
 21
198.0762901926406
 31
0.0
  0
LINE
  5
9B8B
330
67D9
100
AcDbEntity
  8
0
  6
ByBlock
 62
     6
100
AcDbLine
 10
297.8649020668502
 20
199.0762901926406
 30
0.0
 11
295.3649020668501
 21
199.0762901926406
 31
0.0
  0
LINE
  5
9B8C
330
67D9
100
AcDbEntity
  8
0
  6
ByBlock
 62
     6
100
AcDbLine
 10
306.3876765556174
 20
199.0762901926406
 30
0.0
 11
308.8876765556174
 21
199.0762901926406
 31
0.0
  0
MTEXT
  5
9B8D
330
67D9
100
AcDbEntity
  8
0
  6
ByBlock
 62
     3
100
AcDbMText
 10
308.8876765556174
 20
201.5762901926406
 30
0.0
 40
3.0
 41
0.0
 71
     5
 72
     1
  1
\A1;3.5
  7
TXT
 73
     1
 44
1.0
  0
LINE
  5
9B8E
330
67D9
100
AcDbEntity
  8
0
  6
ByBlock
 62
     6
100
AcDbLine
 10
300.3649020668502
 20
199.0762901926406
 30
0.0
 11
303.8876765556174
 21
199.0762901926406
 31
0.0
  0
SOLID
  5
9B8F
330
67D9
100
AcDbEntity
  8
0
  6
ByBlock
 62
     6
100
AcDbTrace
 10
297.8649020668502
 20
199.4929568593073
 30
0.0
 11
297.8649020668502
 21
198.6596235259739
 31
0.0
 12
300.3649020668502
 22
199.0762901926406
 32
0.0
 13
300.3649020668502
 23
199.0762901926406
 33
0.0
  0
SOLID
  5
9B90
330
67D9
100
AcDbEntity
  8
0
  6
ByBlock
 62
     6
100
AcDbTrace
 10
306.3876765556174
 20
199.4929568593073
 30
0.0
 11
306.3876765556174
 21
198.6596235259739
 31
0.0
 12
303.8876765556174
 22
199.0762901926406
 32
0.0
 13
303.8876765556174
 23
199.0762901926406
 33
0.0
  0
POINT
  5
9B91
330
67D9
100
AcDbEntity
  8
DEFPOINTS
  6
ByBlock
 62
     0
100
AcDbPoint
 10
300.3649020668502
 20
245.6457932592992
 30
0.0
  0
POINT
  5
9B92
330
67D9
100
AcDbEntity
  8
DEFPOINTS
  6
ByBlock
 62
     0
100
AcDbPoint
 10
303.8876765556174
 20
245.6457932592992
 30
0.0
  0
POINT
  5
9B93
330
67D9
100
AcDbEntity
  8
DEFPOINTS
  6
ByBlock
 62
     0
100
AcDbPoint
 10
303.8876765556174
 20
199.0762901926406
 30
0.0
  0
ENDBLK
  5
9B94
330
67D9
100
AcDbEntity
  8
0
100
AcDbBlockEnd
  0
BLOCK
  5
9B7D
330
6854
100
AcDbEntity
  8
0
100
AcDbBlockBegin
  2
*D3
 70
     1
 10
0.0
 20
0.0
 30
0.0
  3
*D3
  1

  0
LINE
  5
9B7E
330
6854
100
AcDbEntity
  8
0
  6
ByBlock
 62
     6
100
AcDbLine
 10
299.4619196060591
 20
245.6457932592992
 30
0.0
 11
288.9387801561287
 21
245.6457932592992
 31
0.0
  0
LINE
  5
9B7F
330
6854
100
AcDbEntity
  8
0
  6
ByBlock
 62
     6
100
AcDbLine
 10
299.4619196060591
 20
253.6457932592992
 30
0.0
 11
288.9387801561287
 21
253.6457932592992
 31
0.0
  0
LINE
  5
9B80
330
6854
100
AcDbEntity
  8
0
  6
ByBlock
 62
     6
100
AcDbLine
 10
289.9387801561287
 20
248.1457932592992
 30
0.0
 11
289.9387801561287
 21
251.1457932592992
 31
0.0
  0
MTEXT
  5
9B81
330
6854
100
AcDbEntity
  8
0
  6
ByBlock
 62
     3
100
AcDbMText
 10
286.5643761152729
 20
262.0345425476235
 30
0.0
 40
3.0
 41
0.0
 71
     5
 72
     1
  1
\A1;8      (3等分)
  7
TXT
 11
0.0000000000000001
 21
1.0
 31
0.0
 73
     1
 44
1.0
  0
SOLID
  5
9B82
330
6854
100
AcDbEntity
  8
0
  6
ByBlock
 62
     6
100
AcDbTrace
 10
289.522113489462
 20
248.1457932592992
 30
0.0
 11
290.3554468227954
 21
248.1457932592992
 31
0.0
 12
289.9387801561287
 22
245.6457932592992
 32
0.0
 13
289.9387801561287
 23
245.6457932592992
 33
0.0
  0
SOLID
  5
9B83
330
6854
100
AcDbEntity
  8
0
  6
ByBlock
 62
     6
100
AcDbTrace
 10
289.522113489462
 20
251.1457932592992
 30
0.0
 11
290.3554468227954
 21
251.1457932592992
 31
0.0
 12
289.9387801561287
 22
253.6457932592992
 32
0.0
 13
289.9387801561287
 23
253.6457932592992
 33
0.0
  0
POINT
  5
9B84
330
6854
100
AcDbEntity
  8
DEFPOINTS
  6
ByBlock
 62
     0
100
AcDbPoint
 10
300.4619196060592
 20
245.6457932592992
 30
0.0
  0
POINT
  5
9B85
330
6854
100
AcDbEntity
  8
DEFPOINTS
  6
ByBlock
 62
     0
100
AcDbPoint
 10
300.4619196060592
 20
253.6457932592992
 30
0.0
  0
POINT
  5
9B86
330
6854
100
AcDbEntity
  8
DEFPOINTS
  6
ByBlock
 62
     0
100
AcDbPoint
 10
289.9387801561287
 20
253.6457932592992
 30
0.0
  0
ENDBLK
  5
9B87
330
6854
100
AcDbEntity
  8
0
100
AcDbBlockEnd
  0
BLOCK
  5
A055
330
6C86
100
AcDbEntity
  8
0
100
AcDbBlockBegin
  2
*D4
 70
     1
 10
0.0
 20
0.0
 30
0.0
  3
*D4
  1

  0
LINE
  5
A056
330
6C86
100
AcDbEntity
  8
0
  6
ByBlock
 62
     6
100
AcDbLine
 10
249.4313577205112
 20
111.7890905554459
 30
0.0
 11
249.4313577205112
 21
129.9803137736015
 31
0.0
  0
LINE
  5
A057
330
6C86
100
AcDbEntity
  8
0
  6
ByBlock
 62
     6
100
AcDbLine
 10
333.4313577205112
 20
111.789090555446
 30
0.0
 11
333.4313577205112
 21
129.9803137736015
 31
0.0
  0
LINE
  5
A058
330
6C86
100
AcDbEntity
  8
0
  6
ByBlock
 62
     6
100
AcDbLine
 10
251.9313577205112
 20
128.9803137736015
 30
0.0
 11
330.9313577205112
 21
128.9803137736015
 31
0.0
  0
SOLID
  5
A059
330
6C86
100
AcDbEntity
  8
0
  6
ByBlock
 62
     6
100
AcDbTrace
 10
251.9313577205112
 20
129.3969804402681
 30
0.0
 11
251.9313577205112
 21
128.5636471069348
 31
0.0
 12
249.4313577205112
 22
128.9803137736015
 32
0.0
 13
249.4313577205112
 23
128.9803137736015
 33
0.0
  0
SOLID
  5
A05A
330
6C86
100
AcDbEntity
  8
0
  6
ByBlock
 62
     6
100
AcDbTrace
 10
330.9313577205112
 20
129.3969804402681
 30
0.0
 11
330.9313577205112
 21
128.5636471069348
 31
0.0
 12
333.4313577205112
 22
128.9803137736015
 32
0.0
 13
333.4313577205112
 23
128.9803137736015
 33
0.0
  0
MTEXT
  5
A05B
330
6C86
100
AcDbEntity
  8
0
  6
ByBlock
 62
     3
100
AcDbMText
 10
291.4313577205112
 20
131.4803137736015
 30
0.0
 40
3.0
 41
0.0
 71
     5
 72
     1
  1
\A1;\U+220584±0.5
  7
TXT
 73
     1
 44
1.0
  0
POINT
  5
A05C
330
6C86
100
AcDbEntity
  8
DEFPOINTS
  6
ByBlock
 62
     0
100
AcDbPoint
 10
249.4313577205112
 20
110.7890905554459
 30
0.0
  0
POINT
  5
A05D
330
6C86
100
AcDbEntity
  8
DEFPOINTS
  6
ByBlock
 62
     0
100
AcDbPoint
 10
333.4313577205112
 20
110.789090555446
 30
0.0
  0
POINT
  5
A05E
330
6C86
100
AcDbEntity
  8
DEFPOINTS
  6
ByBlock
 62
     0
100
AcDbPoint
 10
333.4313577205112
 20
128.9803137736015
 30
0.0
  0
ENDBLK
  5
A05F
330
6C86
100
AcDbEntity
  8
0
100
AcDbBlockEnd
  0
BLOCK
  5
A060
330
6C9E
100
AcDbEntity
  8
0
100
AcDbBlockBegin
  2
*D5
 70
     1
 10
0.0
 20
0.0
 30
0.0
  3
*D5
  1

  0
LINE
  5
A061
330
6C9E
100
AcDbEntity
  8
0
  6
ByBlock
 62
     6
100
AcDbLine
 10
245.4313577205112
 20
109.2890905554459
 30
0.0
 11
245.4313577205112
 21
135.4877838640164
 31
0.0
  0
LINE
  5
A062
330
6C9E
100
AcDbEntity
  8
0
  6
ByBlock
 62
     6
100
AcDbLine
 10
337.4313577205113
 20
109.289090555446
 30
0.0
 11
337.4313577205113
 21
135.4877838640164
 31
0.0
  0
LINE
  5
A063
330
6C9E
100
AcDbEntity
  8
0
  6
ByBlock
 62
     6
100
AcDbLine
 10
247.9313577205112
 20
134.4877838640164
 30
0.0
 11
334.9313577205113
 21
134.4877838640164
 31
0.0
  0
MTEXT
  5
A064
330
6C9E
100
AcDbEntity
  8
0
  6
ByBlock
 62
     3
100
AcDbMText
 10
287.362301592597
 20
137.8139046139017
 30
0.0
 40
3.0
 41
0.0
 71
     5
 72
     1
  1
\A1;\U+220592
  7
TXT
 73
     1
 44
1.0
  0
SOLID
  5
A065
330
6C9E
100
AcDbEntity
  8
0
  6
ByBlock
 62
     6
100
AcDbTrace
 10
247.9313577205112
 20
134.9044505306831
 30
0.0
 11
247.9313577205112
 21
134.0711171973498
 31
0.0
 12
245.4313577205112
 22
134.4877838640164
 32
0.0
 13
245.4313577205112
 23
134.4877838640164
 33
0.0
  0
SOLID
  5
A066
330
6C9E
100
AcDbEntity
  8
0
  6
ByBlock
 62
     6
100
AcDbTrace
 10
334.9313577205113
 20
134.9044505306831
 30
0.0
 11
334.9313577205113
 21
134.0711171973498
 31
0.0
 12
337.4313577205113
 22
134.4877838640164
 32
0.0
 13
337.4313577205113
 23
134.4877838640164
 33
0.0
  0
POINT
  5
A067
330
6C9E
100
AcDbEntity
  8
DEFPOINTS
  6
ByBlock
 62
     0
100
AcDbPoint
 10
245.4313577205112
 20
108.2890905554459
 30
0.0
  0
POINT
  5
A068
330
6C9E
100
AcDbEntity
  8
DEFPOINTS
  6
ByBlock
 62
     0
100
AcDbPoint
 10
337.4313577205113
 20
108.289090555446
 30
0.0
  0
POINT
  5
A069
330
6C9E
100
AcDbEntity
  8
DEFPOINTS
  6
ByBlock
 62
     0
100
AcDbPoint
 10
337.4313577205113
 20
134.4877838640164
 30
0.0
  0
ENDBLK
  5
A06A
330
6C9E
100
AcDbEntity
  8
0
100
AcDbBlockEnd
  0
BLOCK
  5
916D
330
6FE3
100
AcDbEntity
  8
0
100
AcDbBlockBegin
  2
*D6
 70
     1
 10
0.0
 20
0.0
 30
0.0
  3
*D6
  1

  0
LINE
  5
916E
330
6FE3
100
AcDbEntity
  8
0
  6
ByBlock
 62
     6
100
AcDbLine
 10
128.3785872205454
 20
100.4987644138218
 30
0.0
 11
157.1448781245442
 21
83.89053861681096
 31
0.0
  0
LINE
  5
916F
330
6FE3
100
AcDbEntity
  8
0
  6
ByBlock
 62
     6
100
AcDbLine
 10
123.7585872205453
 20
92.49668968285352
 30
0.0
 11
152.5248781245441
 21
75.88846388584264
 31
0.0
  0
LINE
  5
9170
330
6FE3
100
AcDbEntity
  8
0
  6
ByBlock
 62
     6
100
AcDbLine
 10
155.0288527207598
 20
82.22547510734985
 30
0.0
 11
152.9088527207597
 21
78.55352739530373
 31
0.0
  0
LINE
  5
9171
330
6FE3
100
AcDbEntity
  8
0
  6
ByBlock
 62
     6
100
AcDbLine
 10
165.6799250957721
 20
100.6736736159645
 30
0.0
 11
156.2788527207598
 21
84.39053861681095
 31
0.0
  0
MTEXT
  5
9172
330
6FE3
100
AcDbEntity
  8
0
  6
ByBlock
 62
     3
100
AcDbMText
 10
159.9898615863111
 20
95.81819451928428
 30
0.0
 40
3.0
 41
0.0
 71
     5
 72
     1
  1
\A1;9±0.5
  7
TXT
 11
0.5000000000000011
 21
0.866025403784438
 31
0.0
 73
     1
 44
1.0
  0
SOLID
  5
9173
330
6FE3
100
AcDbEntity
  8
0
  6
ByBlock
 62
     6
100
AcDbTrace
 10
154.6680088025162
 20
82.43380844068319
 30
0.0
 11
155.3896966390033
 21
82.01714177401653
 31
0.0
 12
156.2788527207598
 22
84.39053861681095
 32
0.0
 13
156.2788527207598
 23
84.39053861681095
 33
0.0
  0
SOLID
  5
9174
330
6FE3
100
AcDbEntity
  8
0
  6
ByBlock
 62
     6
100
AcDbTrace
 10
152.5480088025162
 20
78.76186072863707
 30
0.0
 11
153.2696966390032
 21
78.3451940619704
 31
0.0
 12
151.6588527207597
 22
76.38846388584264
 32
0.0
 13
151.6588527207597
 23
76.38846388584264
 33
0.0
  0
POINT
  5
9175
330
6FE3
100
AcDbEntity
  8
DEFPOINTS
  6
ByBlock
 62
     0
100
AcDbPoint
 10
127.5125618167609
 20
100.9987644138218
 30
0.0
  0
POINT
  5
9176
330
6FE3
100
AcDbEntity
  8
DEFPOINTS
  6
ByBlock
 62
     0
100
AcDbPoint
 10
122.8925618167608
 20
92.99668968285351
 30
0.0
  0
POINT
  5
9177
330
6FE3
100
AcDbEntity
  8
DEFPOINTS
  6
ByBlock
 62
     0
100
AcDbPoint
 10
151.6588527207597
 20
76.38846388584264
 30
0.0
  0
ENDBLK
  5
9178
330
6FE3
100
AcDbEntity
  8
0
100
AcDbBlockEnd
  0
BLOCK
  5
A03C
330
74B6
100
AcDbEntity
  8
0
100
AcDbBlockBegin
  2
*D7
 70
     1
 10
0.0
 20
0.0
 30
0.0
  3
*D7
  1

  0
LINE
  5
A03D
330
74B6
100
AcDbEntity
  8
0
  6
ByBlock
 62
     6
100
AcDbLine
 10
248.4313577205112
 20
110.7890905554459
 30
0.0
 11
233.1179624217688
 21
110.7890905554459
 31
0.0
  0
LINE
  5
A03E
330
74B6
100
AcDbEntity
  8
0
  6
ByBlock
 62
     6
100
AcDbLine
 10
246.4313577205112
 20
110.2890905554459
 30
0.0
 11
233.1179624217688
 21
110.2890905554459
 31
0.0
  0
LINE
  5
A03F
330
74B6
100
AcDbEntity
  8
0
  6
ByBlock
 62
     6
100
AcDbLine
 10
234.1179624217688
 20
113.2890905554459
 30
0.0
 11
234.1179624217688
 21
115.7890905554459
 31
0.0
  0
LINE
  5
A040
330
74B6
100
AcDbEntity
  8
0
  6
ByBlock
 62
     6
100
AcDbLine
 10
234.1179624217688
 20
107.7890905554459
 30
0.0
 11
234.1179624217688
 21
105.2890905554459
 31
0.0
  0
LINE
  5
A041
330
74B6
100
AcDbEntity
  8
0
  6
ByBlock
 62
     6
100
AcDbLine
 10
234.1179624217688
 20
127.360046344213
 30
0.0
 11
234.1179624217688
 21
110.7890905554459
 31
0.0
  0
MTEXT
  5
A042
330
74B6
100
AcDbEntity
  8
0
  6
ByBlock
 62
     3
100
AcDbMText
 10
231.6179624217688
 20
123.610046344213
 30
0.0
 40
3.0
 41
0.0
 71
     5
 72
     1
  1
\A1;0.5
  7
TXT
 11
0.0000000000000001
 21
1.0
 31
0.0
 73
     1
 44
1.0
  0
LINE
  5
A043
330
74B6
100
AcDbEntity
  8
0
  6
ByBlock
 62
     6
100
AcDbLine
 10
234.1179624217688
 20
110.7890905554459
 30
0.0
 11
234.1179624217688
 21
110.2890905554459
 31
0.0
  0
SOLID
  5
A044
330
74B6
100
AcDbEntity
  8
0
  6
ByBlock
 62
     6
100
AcDbTrace
 10
233.7012957551022
 20
113.2890905554459
 30
0.0
 11
234.5346290884355
 21
113.2890905554459
 31
0.0
 12
234.1179624217688
 22
110.7890905554459
 32
0.0
 13
234.1179624217688
 23
110.7890905554459
 33
0.0
  0
SOLID
  5
A045
330
74B6
100
AcDbEntity
  8
0
  6
ByBlock
 62
     6
100
AcDbTrace
 10
233.7012957551022
 20
107.7890905554459
 30
0.0
 11
234.5346290884355
 21
107.7890905554459
 31
0.0
 12
234.1179624217688
 22
110.2890905554459
 32
0.0
 13
234.1179624217688
 23
110.2890905554459
 33
0.0
  0
POINT
  5
A046
330
74B6
100
AcDbEntity
  8
DEFPOINTS
  6
ByBlock
 62
     0
100
AcDbPoint
 10
249.4313577205112
 20
110.7890905554459
 30
0.0
  0
POINT
  5
A047
330
74B6
100
AcDbEntity
  8
DEFPOINTS
  6
ByBlock
 62
     0
100
AcDbPoint
 10
247.4313577205112
 20
110.2890905554459
 30
0.0
  0
POINT
  5
A048
330
74B6
100
AcDbEntity
  8
DEFPOINTS
  6
ByBlock
 62
     0
100
AcDbPoint
 10
234.1179624217688
 20
110.2890905554459
 30
0.0
  0
ENDBLK
  5
A049
330
74B6
100
AcDbEntity
  8
0
100
AcDbBlockEnd
  0
BLOCK
  5
A04A
330
7501
100
AcDbEntity
  8
0
100
AcDbBlockBegin
  2
*D8
 70
     1
 10
0.0
 20
0.0
 30
0.0
  3
*D8
  1

  0
LINE
  5
A04B
330
7501
100
AcDbEntity
  8
0
  6
ByBlock
 62
     6
100
AcDbLine
 10
255.9313577205112
 20
111.7890905554459
 30
0.0
 11
255.9313577205112
 21
124.1372189619729
 31
0.0
  0
LINE
  5
A04C
330
7501
100
AcDbEntity
  8
0
  6
ByBlock
 62
     6
100
AcDbLine
 10
326.9313577205112
 20
111.789090555446
 30
0.0
 11
326.9313577205112
 21
124.1372189619729
 31
0.0
  0
LINE
  5
A04D
330
7501
100
AcDbEntity
  8
0
  6
ByBlock
 62
     6
100
AcDbLine
 10
258.4313577205112
 20
123.1372189619729
 30
0.0
 11
324.4313577205112
 21
123.1372189619729
 31
0.0
  0
SOLID
  5
A04E
330
7501
100
AcDbEntity
  8
0
  6
ByBlock
 62
     6
100
AcDbTrace
 10
258.4313577205112
 20
123.5538856286396
 30
0.0
 11
258.4313577205112
 21
122.7205522953062
 31
0.0
 12
255.9313577205112
 22
123.1372189619729
 32
0.0
 13
255.9313577205112
 23
123.1372189619729
 33
0.0
  0
SOLID
  5
A04F
330
7501
100
AcDbEntity
  8
0
  6
ByBlock
 62
     6
100
AcDbTrace
 10
324.4313577205112
 20
123.5538856286396
 30
0.0
 11
324.4313577205112
 21
122.7205522953062
 31
0.0
 12
326.9313577205112
 22
123.1372189619729
 32
0.0
 13
326.9313577205112
 23
123.1372189619729
 33
0.0
  0
MTEXT
  5
A050
330
7501
100
AcDbEntity
  8
0
  6
ByBlock
 62
     3
100
AcDbMText
 10
291.4313577205112
 20
125.6372189619729
 30
0.0
 40
3.0
 41
0.0
 71
     5
 72
     1
  1
\A1;\U+220571
  7
TXT
 73
     1
 44
1.0
  0
POINT
  5
A051
330
7501
100
AcDbEntity
  8
DEFPOINTS
  6
ByBlock
 62
     0
100
AcDbPoint
 10
255.9313577205112
 20
110.7890905554459
 30
0.0
  0
POINT
  5
A052
330
7501
100
AcDbEntity
  8
DEFPOINTS
  6
ByBlock
 62
     0
100
AcDbPoint
 10
326.9313577205112
 20
110.789090555446
 30
0.0
  0
POINT
  5
A053
330
7501
100
AcDbEntity
  8
DEFPOINTS
  6
ByBlock
 62
     0
100
AcDbPoint
 10
326.9313577205112
 20
123.1372189619729
 30
0.0
  0
ENDBLK
  5
A054
330
7501
100
AcDbEntity
  8
0
100
AcDbBlockEnd
  0
BLOCK
  5
A06B
330
755C
100
AcDbEntity
  8
0
100
AcDbBlockBegin
  2
*D9
 70
     1
 10
0.0
 20
0.0
 30
0.0
  3
*D9
  1

  0
LINE
  5
A06C
330
755C
100
AcDbEntity
  8
0
  6
ByBlock
 62
     6
100
AcDbLine
 10
334.4313577205112
 20
110.789090555446
 30
0.0
 11
353.3181235288218
 21
110.789090555446
 31
0.0
  0
LINE
  5
A06D
330
755C
100
AcDbEntity
  8
0
  6
ByBlock
 62
     6
100
AcDbLine
 10
336.1448476551835
 20
90.83081368124934
 30
0.0
 11
353.3181235288218
 21
90.83081368124934
 31
0.0
  0
LINE
  5
A06E
330
755C
100
AcDbEntity
  8
0
  6
ByBlock
 62
     6
100
AcDbLine
 10
352.3181235288218
 20
108.289090555446
 30
0.0
 11
352.3181235288218
 21
93.33081368124934
 31
0.0
  0
SOLID
  5
A06F
330
755C
100
AcDbEntity
  8
0
  6
ByBlock
 62
     6
100
AcDbTrace
 10
351.9014568621551
 20
108.289090555446
 30
0.0
 11
352.7347901954885
 21
108.289090555446
 31
0.0
 12
352.3181235288218
 22
110.789090555446
 32
0.0
 13
352.3181235288218
 23
110.789090555446
 33
0.0
  0
SOLID
  5
A070
330
755C
100
AcDbEntity
  8
0
  6
ByBlock
 62
     6
100
AcDbTrace
 10
351.9014568621551
 20
93.33081368124934
 30
0.0
 11
352.7347901954885
 21
93.33081368124934
 31
0.0
 12
352.3181235288218
 22
90.83081368124934
 32
0.0
 13
352.3181235288218
 23
90.83081368124934
 33
0.0
  0
MTEXT
  5
A071
330
755C
100
AcDbEntity
  8
0
  6
ByBlock
 62
     3
100
AcDbMText
 10
349.8181235288218
 20
100.8099521183476
 30
0.0
 40
3.0
 41
0.0
 71
     5
 72
     1
  1
\A1;20
  7
TXT
 11
0.0000000000000001
 21
1.0
 31
0.0
 73
     1
 44
1.0
  0
POINT
  5
A072
330
755C
100
AcDbEntity
  8
DEFPOINTS
  6
ByBlock
 62
     0
100
AcDbPoint
 10
333.4313577205112
 20
110.789090555446
 30
0.0
  0
POINT
  5
A073
330
755C
100
AcDbEntity
  8
DEFPOINTS
  6
ByBlock
 62
     0
100
AcDbPoint
 10
335.1448476551835
 20
90.83081368124934
 30
0.0
  0
POINT
  5
A074
330
755C
100
AcDbEntity
  8
DEFPOINTS
  6
ByBlock
 62
     0
100
AcDbPoint
 10
352.3181235288218
 20
90.83081368124934
 30
0.0
  0
ENDBLK
  5
A075
330
755C
100
AcDbEntity
  8
0
100
AcDbBlockEnd
  0
BLOCK
  5
9F82
330
7569
100
AcDbEntity
  8
0
100
AcDbBlockBegin
  2
*D10
 70
     1
 10
0.0
 20
0.0
 30
0.0
  3
*D10
  1

  0
LINE
  5
9F83
330
7569
100
AcDbEntity
  8
0
  6
ByBlock
 62
     6
100
AcDbLine
 10
380.2155806727105
 20
48.52850374852142
 30
0.0
 11
409.870928174561
 21
48.52850374852141
 31
0.0
  0
LINE
  5
9F84
330
7569
100
AcDbEntity
  8
0
  6
ByBlock
 62
     6
100
AcDbLine
 10
380.8351414398623
 20
72.52774297491163
 30
0.0
 11
409.870928174561
 21
72.52774297491163
 31
0.0
  0
LINE
  5
9F85
330
7569
100
AcDbEntity
  8
0
  6
ByBlock
 62
     6
100
AcDbLine
 10
408.870928174561
 20
51.02850374852141
 30
0.0
 11
408.870928174561
 21
70.02774297491163
 31
0.0
  0
SOLID
  5
9F86
330
7569
100
AcDbEntity
  8
0
  6
ByBlock
 62
     6
100
AcDbTrace
 10
408.4542615078943
 20
51.02850374852141
 30
0.0
 11
409.2875948412276
 21
51.02850374852141
 31
0.0
 12
408.870928174561
 22
48.52850374852141
 32
0.0
 13
408.870928174561
 23
48.52850374852141
 33
0.0
  0
SOLID
  5
9F87
330
7569
100
AcDbEntity
  8
0
  6
ByBlock
 62
     6
100
AcDbTrace
 10
408.4542615078943
 20
70.02774297491163
 30
0.0
 11
409.2875948412276
 21
70.02774297491163
 31
0.0
 12
408.870928174561
 22
72.52774297491163
 32
0.0
 13
408.870928174561
 23
72.52774297491163
 33
0.0
  0
MTEXT
  5
9F88
330
7569
100
AcDbEntity
  8
0
  6
ByBlock
 62
     3
100
AcDbMText
 10
406.370928174561
 20
60.52812336171652
 30
0.0
 40
3.0
 41
0.0
 71
     5
 72
     1
  1
\A1;24±0.2
  7
TXT
 11
0.0000000000000001
 21
1.0
 31
0.0
 73
     1
 44
1.0
  0
POINT
  5
9F89
330
7569
100
AcDbEntity
  8
DEFPOINTS
  6
ByBlock
 62
     0
100
AcDbPoint
 10
379.2155806727105
 20
48.52850374852142
 30
0.0
  0
POINT
  5
9F8A
330
7569
100
AcDbEntity
  8
DEFPOINTS
  6
ByBlock
 62
     0
100
AcDbPoint
 10
379.8351414398622
 20
72.52774297491163
 30
0.0
  0
POINT
  5
9F8B
330
7569
100
AcDbEntity
  8
DEFPOINTS
  6
ByBlock
 62
     0
100
AcDbPoint
 10
408.870928174561
 20
72.52774297491163
 30
0.0
  0
ENDBLK
  5
9F8C
330
7569
100
AcDbEntity
  8
0
100
AcDbBlockEnd
  0
BLOCK
  5
9065
330
7AC6
100
AcDbEntity
  8
0
100
AcDbBlockBegin
  2
*D11
 70
     1
 10
0.0
 20
0.0
 30
0.0
  3
*D11
  1

  0
LINE
  5
9066
330
7AC6
100
AcDbEntity
  8
0
  6
ByBlock
 62
     6
100
AcDbLine
 10
312.5311849191344
 20
112.9966896828538
 30
0.0
 11
308.7489200256147
 21
112.9966896828538
 31
0.0
  0
LINE
  5
9067
330
7AC6
100
AcDbEntity
  8
0
  6
ByBlock
 62
     6
100
AcDbLine
 10
312.5311849191344
 20
114.9966896828535
 30
0.0
 11
308.7489200256147
 21
114.9966896828535
 31
0.0
  0
LINE
  5
9068
330
7AC6
100
AcDbEntity
  8
0
  6
ByBlock
 62
     6
100
AcDbLine
 10
309.7489200256147
 20
110.4966896828538
 30
0.0
 11
309.7489200256147
 21
107.9966896828538
 31
0.0
  0
LINE
  5
9069
330
7AC6
100
AcDbEntity
  8
0
  6
ByBlock
 62
     6
100
AcDbLine
 10
309.7489200256147
 20
117.4966896828535
 30
0.0
 11
309.7489200256147
 21
119.9966896828535
 31
0.0
  0
LINE
  5
906A
330
7AC6
100
AcDbEntity
  8
0
  6
ByBlock
 62
     6
100
AcDbLine
 10
309.7489200256147
 20
124.5825033705258
 30
0.0
 11
309.7489200256147
 21
114.9966896828535
 31
0.0
  0
MTEXT
  5
906B
330
7AC6
100
AcDbEntity
  8
0
  6
ByBlock
 62
     3
100
AcDbMText
 10
307.2489200256147
 20
122.5825033705258
 30
0.0
 40
3.0
 41
0.0
 71
     5
 72
     1
  1
\A1;2
  7
TXT
 11
0.0000000000000001
 21
1.0
 31
0.0
 73
     1
 44
1.0
  0
LINE
  5
906C
330
7AC6
100
AcDbEntity
  8
0
  6
ByBlock
 62
     6
100
AcDbLine
 10
309.7489200256147
 20
112.9966896828538
 30
0.0
 11
309.7489200256147
 21
114.9966896828535
 31
0.0
  0
SOLID
  5
906D
330
7AC6
100
AcDbEntity
  8
0
  6
ByBlock
 62
     6
100
AcDbTrace
 10
309.332253358948
 20
110.4966896828538
 30
0.0
 11
310.1655866922814
 21
110.4966896828538
 31
0.0
 12
309.7489200256147
 22
112.9966896828538
 32
0.0
 13
309.7489200256147
 23
112.9966896828538
 33
0.0
  0
SOLID
  5
906E
330
7AC6
100
AcDbEntity
  8
0
  6
ByBlock
 62
     6
100
AcDbTrace
 10
309.332253358948
 20
117.4966896828535
 30
0.0
 11
310.1655866922814
 21
117.4966896828535
 31
0.0
 12
309.7489200256147
 22
114.9966896828535
 32
0.0
 13
309.7489200256147
 23
114.9966896828535
 33
0.0
  0
POINT
  5
906F
330
7AC6
100
AcDbEntity
  8
DEFPOINTS
  6
ByBlock
 62
     0
100
AcDbPoint
 10
313.5311849191344
 20
112.9966896828538
 30
0.0
  0
POINT
  5
9070
330
7AC6
100
AcDbEntity
  8
DEFPOINTS
  6
ByBlock
 62
     0
100
AcDbPoint
 10
313.5311849191344
 20
114.9966896828535
 30
0.0
  0
POINT
  5
9071
330
7AC6
100
AcDbEntity
  8
DEFPOINTS
  6
ByBlock
 62
     0
100
AcDbPoint
 10
309.7489200256147
 20
114.9966896828535
 30
0.0
  0
ENDBLK
  5
9072
330
7AC6
100
AcDbEntity
  8
0
100
AcDbBlockEnd
  0
BLOCK
  5
9FA9
330
9F9A
100
AcDbEntity
  8
0
100
AcDbBlockBegin
  2
*D12
 70
     1
 10
0.0
 20
0.0
 30
0.0
  3
*D12
  1

  0
LINE
  5
9FAA
330
9F9A
100
AcDbEntity
  8
0
  6
ByBlock
 62
     6
100
AcDbLine
 10
384.1410763023936
 20
51.09533615444999
 30
0.0
 11
420.2332181740482
 21
30.57242876841487
 31
0.0
  0
LINE
  5
9FAB
330
9F9A
100
AcDbEntity
  8
0
  6
ByBlock
 62
     6
100
AcDbLine
 10
380.8351414398623
 20
72.52774297491161
 30
0.0
 11
431.327557588112
 21
72.52774297491168
 31
0.0
  0
ARC
  5
9FAC
330
9F9A
100
AcDbEntity
  8
0
  6
ByBlock
 62
     6
100
AcDbCircle
 10
346.4494640437191
 20
72.52774297491161
 30
0.0
 40
83.87809354439298
100
AcDbArc
 50
332.0841146086654
 51
358.2922269070076
  0
SOLID
  5
9FAD
330
9F9A
100
AcDbEntity
  8
0
  6
ByBlock
 62
     6
100
AcDbTrace
 10
420.9323891249721
 20
33.05759339083871
 30
0.0
 11
420.2019218572221
 21
33.45866946241404
 31
0.0
 12
419.3639272763711
 22
31.06672962337638
 32
0.0
 13
419.3639272763711
 23
31.06672962337638
 33
0.0
  0
SOLID
  5
9FAE
330
9F9A
100
AcDbEntity
  8
0
  6
ByBlock
 62
     6
100
AcDbTrace
 10
429.8736807420958
 20
70.03423000727716
 30
0.0
 11
430.7069215340862
 21
70.02181119060347
 31
0.0
 12
430.3275575881121
 22
72.52774297491166
 32
0.0
 13
430.3275575881121
 23
72.52774297491166
 33
0.0
  0
MTEXT
  5
9FAF
330
9F9A
100
AcDbEntity
  8
0
  6
ByBlock
 62
     3
100
AcDbMText
 10
425.1234147155736
 20
51.72381078403525
 30
0.0
 40
3.0
 41
0.0
 71
     5
 72
     1
  1
\A1;30°
  7
TXT
 11
0.255645362096465
 21
0.9667706288663136
 31
0.0
 73
     1
 44
1.0
  0
POINT
  5
9FB0
330
9F9A
100
AcDbEntity
  8
DEFPOINTS
  6
ByBlock
 62
     0
100
AcDbPoint
 10
425.3939563089519
 20
44.18516515237519
 30
0.0
  0
POINT
  5
9FB1
330
9F9A
100
AcDbEntity
  8
DEFPOINTS
  6
ByBlock
 62
     0
100
AcDbPoint
 10
383.2717854047165
 20
51.58963700941147
 30
0.0
  0
POINT
  5
9FB2
330
9F9A
100
AcDbEntity
  8
DEFPOINTS
  6
ByBlock
 62
     0
100
AcDbPoint
 10
289.8351414398622
 20
72.52774297491156
 30
0.0
  0
POINT
  5
9FB3
330
9F9A
100
AcDbEntity
  8
DEFPOINTS
  6
ByBlock
 62
     0
100
AcDbPoint
 10
379.8351414398622
 20
72.52774297491161
 30
0.0
  0
POINT
  5
9FB4
330
9F9A
100
AcDbEntity
  8
DEFPOINTS
  6
ByBlock
 62
     0
100
AcDbPoint
 10
369.9678091641239
 20
59.15461537014779
 30
0.0
  0
ENDBLK
  5
9FB5
330
9F9A
100
AcDbEntity
  8
0
100
AcDbBlockEnd
  0
ENDSEC
  0
SECTION
  2
ENTITIES
  0
MTEXT
  5
C0
330
18
100
AcDbEntity
  8
0
100
AcDbMText
 10
41.26970765600413
 20
233.6950877649332
 30
0.0
 40
2.5
 41
0.0
 71
     1
 72
     5
  1

  7
ISOCP3
 73
     1
 44
1.0
  0
MTEXT
  5
4FE4
330
18
100
AcDbEntity
  8
公差
100
AcDbMText
 10
56.76661612896698
 20
141.7078922130816
 30
0.0
 40
2.0
 41
9.555074525974475
 71
     1
 72
     5
  1
+0.15\P+0
  7
TXT
 73
     1
 44
1.0
  0
MTEXT
  5
4FE5
330
18
100
AcDbEntity
  8
公差
100
AcDbMText
 10
26.23895727258031
 20
191.0240056642082
 30
0.0
 40
2.0
 41
8.84945634767439
 71
     1
 72
     5
  1
+0.15\P+0
  7
TXT
 11
0.0000000000000001
 21
1.0
 31
0.0
 73
     1
 44
1.0
  0
MTEXT
  5
503F
330
18
100
AcDbEntity
  8
公差
100
AcDbMText
 10
90.54990739558963
 20
119.2914238152973
 30
0.0
 40
2.0
 41
11.48459459716352
 71
     1
 72
     5
  1
+0\P-0.2
  7
TXT
 73
     1
 44
1.0
  0
LINE
  5
5AD6
330
18
100
AcDbEntity
  8
DIM
100
AcDbLine
 10
160.4710027141532
 20
89.12052592376682
 30
0.0
 11
160.4710027141532
 21
105.6472523788906
 31
0.0
  0
LINE
  5
5AD7
330
18
100
AcDbEntity
  8
DIM
100
AcDbLine
 10
160.4710027141532
 20
105.6472523788906
 30
0.0
 11
172.6227428404007
 21
105.6472523788906
 31
0.0
  0
LINE
  5
5ADA
330
18
100
AcDbEntity
  8
DIM
100
AcDbLine
 10
54.43521597945442
 20
48.16930652368085
 30
0.0
 11
54.43521597945442
 21
40.88777133393608
 31
0.0
  0
TOLERANCE
  5
5E6E
330
18
100
AcDbEntity
  8
DIM
  6
ByBlock
100
AcDbFcf
  3
A
 10
172.6227428404007
 20
105.6981908150216
 30
0.0
  1
{\Fgdt;h}%%v0.005%%v%%vA%%v%%v
1001
ACAD
1000
DSTYLE
1002
{
1070
   140
1040
2.743999999999999
1070
   147
1040
0.6859999999999999
1002
}
  0
MTEXT
  5
608E
330
18
100
AcDbEntity
  8
0
100
AcDbMText
 10
17.81948278949767
 20
19.37399834316261
 30
0.0
 40
5.0
 41
0.0
 71
     1
 72
     5
  1
\Ftxt.shx,bigfont.shx|c128;呉銘宏
  7
JL
 73
     1
 44
1.0
  0
MTEXT
  5
6095
330
18
100
AcDbEntity
  8
0
100
AcDbMText
 10
81.23517665196368
 20
29.2278230533891
 30
0.0
 40
4.5
 41
0.0
 71
     1
 72
     5
  1
\Ftxt.shx,bigfont.shx|c128;1 : 1
  7
JL
 73
     1
 44
1.0
  0
MTEXT
  5
6098
330
18
100
AcDbEntity
  8
0
 48
2.0
370
    25
100
AcDbMText
 10
146.1234268906314
 20
3.636969934829039
 30
0.0
 40
4.5
 41
0.0
 71
     5
 72
     1
  1
\Ftxt.shx,bigfont.shx|c128;N L 4 0 0 1 1
 73
     1
 44
1.0
  0
MTEXT
  5
609C
330
18
100
AcDbEntity
  8
0
 48
2.0
100
AcDbMText
 10
178.1300746997774
 20
22.17550270047843
 30
0.0
 40
4.5
 41
0.0
 71
     5
 72
     1
  1
\P\Ftxt.shx,bigfont.shx|c128;    MF70X2.0P
 73
     1
 44
1.0
  0
MTEXT
  5
635A
330
18
100
AcDbEntity
  8
0
100
AcDbMText
 10
16.02348109109539
 20
28.64592585511957
 30
0.0
 40
4.5
 41
0.0
 71
     1
 72
     5
  1
\Ftxt.shx,bigfont.shx|c128;05.03.03
  7
JL
 73
     1
 44
1.0
  0
INSERT
  5
63A3
330
18
100
AcDbEntity
  8
0
100
AcDbBlockReference
  2
A$C255C26A2
 10
105.2040603301768
 20
89.12052522978596
 30
0.0
  0
MTEXT
  5
63A4
330
18
100
AcDbEntity
  8
0
 62
     7
 48
2.0
100
AcDbMText
 10
109.297863079033
 20
94.01607619680458
 30
0.0
 40
3.0
 41
0.0
 71
     5
 72
     1
  1
G
 73
     1
 44
1.0
  0
LEADER
  5
63C9
330
18
100
AcDbEntity
  8
DIM
 62
     6
100
AcDbLeader
  3
A
 76
     2
 10
134.6158061006719
 20
194.9937779896852
 30
0.0
 10
147.2661102689241
 20
206.2119275758672
 30
0.0
  0
LEADER
  5
63CA
330
18
100
AcDbEntity
  8
DIM
 62
     6
100
AcDbLeader
  3
A
 76
     2
 10
126.3959777469428
 20
75.43483107168388
 30
0.0
 10
142.217400448515
 20
102.5956754939075
 30
0.0
  0
LEADER
  5
63CB
330
18
100
AcDbEntity
  8
DIM
 62
     6
100
AcDbLeader
  3
A
 76
     2
 10
133.1487059141267
 20
69.16224904957049
 30
0.0
 10
144.3429682912685
 20
46.19313854066454
 30
0.0
  0
MTEXT
  5
63CC
330
18
100
AcDbEntity
  8
DIM
100
AcDbMText
 10
141.5416718551687
 20
108.3442710589243
 30
0.0
 40
5.0
 41
1.0
 71
     1
 72
     5
  1
\Ftxt.shx,bigfont.shx|c128;3
 73
     1
 44
1.0
  0
MTEXT
  5
63CD
330
18
100
AcDbEntity
  8
DIM
100
AcDbMText
 10
149.412138805035
 20
210.0674226117756
 30
0.0
 40
5.0
 41
1.0
 71
     1
 72
     5
  1
\Ftxt.shx,bigfont.shx|c128;1
 73
     1
 44
1.0
  0
MTEXT
  5
63CE
330
18
100
AcDbEntity
  8
DIM
100
AcDbMText
 10
143.4028841900923
 20
44.96528986187063
 30
0.0
 40
5.0
 41
1.0
 71
     1
 72
     5
  1
\Ftxt.shx,bigfont.shx|c128;2
 73
     1
 44
1.0
  0
LINE
  5
63CF
330
18
100
AcDbEntity
  8
DIM
100
AcDbLine
 10
54.43521597945442
 20
40.88777133393608
 30
0.0
 11
55.34767432768001
 21
39.90989723821101
 31
0.0
  0
HATCH
  5
63D0
330
18
100
AcDbEntity
  8
DIM
  6
Continuous
100
AcDbHatch
 10
0.0
 20
0.0
 30
0.0
210
0.0
220
0.0
230
1.0
  2
SOLID
 70
     1
 71
     0
 91
        1
 92
        7
 72
     0
 73
     1
 93
        3
 10
54.43409186500185
 20
38.90408293895558
 10
55.3528239536019
 20
39.88889073419931
 10
54.43409186500185
 20
40.87369852944303
 97
        0
 75
     0
 76
     1
 47
0.2359147607200769
 98
        1
 10
54.72190786123263
 20
40.10036673989083
450
        0
451
        0
460
0.0
461
0.0
452
        0
462
0.0
453
        0
470

  0
LINE
  5
63D1
330
18
100
AcDbEntity
  8
DIM
100
AcDbLine
 10
60.09476713437607
 20
38.0962434340515
 30
0.0
 11
60.09476713437607
 21
41.74254222407265
 31
0.0
  0
LINE
  5
63D2
330
18
100
AcDbEntity
  8
DIM
100
AcDbLine
 10
60.09476713437607
 20
41.74254222407265
 30
0.0
 11
63.90340237988676
 21
41.74254222407265
 31
0.0
  0
LINE
  5
63D3
330
18
100
AcDbEntity
  8
DIM
100
AcDbLine
 10
63.90340237988676
 20
38.0962434340515
 30
0.0
 11
63.90340237988676
 21
41.74254222407265
 31
0.0
  0
LINE
  5
63D4
330
18
100
AcDbEntity
  8
DIM
100
AcDbLine
 10
60.09476713437607
 20
38.0962434340515
 30
0.0
 11
63.90340237988676
 21
38.0962434340515
 31
0.0
  0
LINE
  5
63D5
330
18
100
AcDbEntity
  8
DIM
100
AcDbLine
 10
60.09476713437607
 20
39.91939282906208
 30
0.0
 11
55.33397329865301
 21
39.91939282906208
 31
0.0
  0
MTEXT
  5
63D6
330
18
100
AcDbEntity
  8
DIM
100
AcDbMText
 10
61.0520048568157
 20
41.41121050829911
 30
0.0
 40
3.0
 41
2.354875985554478
 71
     1
 72
     5
  1
A
  7
ISOCP3
 73
     1
 44
1.0
  0
LINE
  5
64AF
330
18
100
AcDbEntity
  8
図框線
100
AcDbLine
 10
197.9999999999997
 20
289.9999999999999
 30
0.0
 11
197.9999999999997
 21
-0.0000000000000568
 31
0.0
  0
LINE
  5
64B0
330
18
100
AcDbEntity
  8
図框線
370
    30
100
AcDbLine
 10
-0.0000000000002274
 20
0.0
 30
0.0
 11
-0.0000000000002274
 21
290.0
 31
0.0
  0
LINE
  5
64B1
330
18
100
AcDbEntity
  8
0
 62
     7
 48
5.0
100
AcDbLine
 39
4.0
 10
49.94750515634314
 20
27.8953239783782
 30
0.0
 11
55.27930887205229
 21
29.22827490730549
 31
0.0
  0
MTEXT
  5
64B2
330
18
100
AcDbEntity
  8
0
100
AcDbMText
 10
15.97866977158742
 20
9.63134010478825
 30
0.0
 40
6.0
 41
0.0
 71
     1
 72
     5
  1
\Ftxt.shx,bigfont.shx|c128;日機株式会社
  7
LKK
 73
     1
 44
1.0
  0
LINE
  5
64B3
330
18
100
AcDbEntity
  8
図框線
100
AcDbLine
 10
0.0
 20
0.0
 30
0.0
 11
197.9999999999997
 21
0.0
 31
0.0
  0
LINE
  5
64B7
330
18
100
AcDbEntity
  8
図框線
100
AcDbLine
 10
0.0
 20
12.0
 30
0.0
 11
197.9999999999997
 21
12.00000000000005
 31
0.0
  0
LINE
  5
64B8
330
18
100
AcDbEntity
  8
図框線
100
AcDbLine
 10
0.0
 20
22.0
 30
0.0
 11
96.0
 21
22.0
 31
0.0
  0
LINE
  5
64B9
330
18
100
AcDbEntity
  8
図框線
100
AcDbLine
 10
0.0
 20
32.0
 30
0.0
 11
197.9999999999997
 21
32.0
 31
0.0
  0
LINE
  5
64BA
330
18
100
AcDbEntity
  8
図框線
100
AcDbLine
 10
12.0
 20
32.0
 30
0.0
 11
12.0
 21
12.0
 31
0.0
  0
LINE
  5
64BB
330
18
100
AcDbEntity
  8
図框線
100
AcDbLine
 10
32.0
 20
32.0
 30
0.0
 11
32.0
 21
12.0
 31
0.0
  0
MTEXT
  5
64BC
330
18
100
AcDbEntity
  8
0
100
AcDbMText
 10
2.949444248820782
 20
29.04715033351227
 30
0.0
 40
4.5
 41
0.0
 71
     1
 72
     5
  1
\Ftxt.shx,bigfont.shx|c128;日 付
  7
JL
 73
     1
 44
1.0
  0
MTEXT
  5
64BD
330
18
100
AcDbEntity
  8
0
100
AcDbMText
 10
3.095712364910014
 20
19.83833899470915
 30
0.0
 40
4.5
 41
0.0
 71
     1
 72
     5
  1
\Ftxt.shx,bigfont.shx|c128;製 図
  7
JL
 73
     1
 44
1.0
  0
LINE
  5
64C0
330
18
100
AcDbEntity
  8
0
 62
     7
370
    25
100
AcDbLine
 10
55.27930887205229
 20
23.89647119159633
 30
0.0
 11
55.27930887205229
 21
29.22827490730549
 31
0.0
  0
MTEXT
  5
64C1
330
18
100
AcDbEntity
  8
0
100
AcDbMText
 10
66.70254067332553
 20
29.42231870267847
 30
0.0
 40
4.5
 41
0.0
 71
     1
 72
     5
  1
\Ftxt.shx,bigfont.shx|c128;尺 度
  7
JL
 73
     1
 44
1.0
  0
LINE
  5
64C2
330
18
100
AcDbEntity
  8
図框線
100
AcDbLine
 10
64.0
 20
32.0
 30
0.0
 11
64.0
 21
12.0
 31
0.0
  0
LINE
  5
64C3
330
18
100
AcDbEntity
  8
0
 62
     7
370
    25
100
AcDbLine
 10
41.2833241183157
 20
23.23894871736115
 30
0.0
 11
41.2833241183157
 21
29.67466750005656
 31
0.0
  0
CIRCLE
  5
64C4
330
18
100
AcDbEntity
  8
0
 62
     7
100
AcDbCircle
 10
41.2833241183157
 20
26.5623730494508
 30
0.0
 40
2.665901857854641
  0
LINE
  5
64C6
330
18
100
AcDbEntity
  8
0
 62
     7
370
    25
100
AcDbLine
 10
49.18030281106076
 20
26.56237304945091
 30
0.0
 11
55.75797321903156
 21
26.56237304945091
 31
0.0
  0
LINE
  5
64C7
330
18
100
AcDbEntity
  8
0
 62
     7
100
AcDbLine
 10
49.94750515634314
 20
25.22942212052362
 30
0.0
 11
55.27930887205229
 21
23.89647119159633
 31
0.0
  0
LINE
  5
64C8
330
18
100
AcDbEntity
  8
図框線
100
AcDbLine
 10
44.0
 20
21.99999999999989
 30
0.0
 11
44.0
 21
12.0
 31
0.0
  0
LINE
  5
64C9
330
18
100
AcDbEntity
  8
0
 62
     7
370
    25
100
AcDbLine
 10
37.95172532843935
 20
26.5623730494508
 30
0.0
 11
44.81391594676916
 21
26.56237304945091
 31
0.0
  0
CIRCLE
  5
64CA
330
18
100
AcDbEntity
  8
0
 62
     7
100
AcDbCircle
 10
41.2833241183157
 20
26.5623730494508
 30
0.0
 40
1.33295092892732
  0
MTEXT
  5
64CB
330
18
100
AcDbEntity
  8
0
100
AcDbMText
 10
35.12086518039769
 20
19.39982343168049
 30
0.0
 40
4.5
 41
0.0
 71
     1
 72
     5
  1
\Ftxt.shx,bigfont.shx|c128;検 図
  7
JL
 73
     1
 44
1.0
  0
LINE
  5
64CC
330
18
100
AcDbEntity
  8
0
 62
     7
370
    25
100
AcDbLine
 10
49.94750515634314
 20
25.22942212052362
 30
0.0
 11
49.94750515634314
 21
27.8953239783782
 31
0.0
  0
MTEXT
  5
64CD
330
18
100
AcDbEntity
  8
0
100
AcDbMText
 10
66.99507418337498
 20
19.62882052001464
 30
0.0
 40
4.5
 41
0.0
 71
     1
 72
     5
  1
\Ftxt.shx,bigfont.shx|c128;承 認
  7
JL
 73
     1
 44
1.0
  0
LINE
  5
64CE
330
18
100
AcDbEntity
  8
図框線
100
AcDbLine
 10
135.4848583349512
 20
231.5666682905289
 30
0.0
 11
195.4848583349512
 21
231.5666682905288
 31
0.0
  0
LINE
  5
64CF
330
18
100
AcDbEntity
  8
図框線
100
AcDbLine
 10
135.4848583349512
 20
238.766668290529
 30
0.0
 11
195.4848583349512
 21
238.766668290529
 31
0.0
  0
LINE
  5
64D0
330
18
100
AcDbEntity
  8
図框線
100
AcDbLine
 10
135.4848583349512
 20
245.9666682905289
 30
0.0
 11
195.4848583349512
 21
245.9666682905288
 31
0.0
  0
LINE
  5
64D1
330
18
100
AcDbEntity
  8
図框線
100
AcDbLine
 10
135.4848583349512
 20
253.166668290529
 30
0.0
 11
195.4848583349512
 21
253.1666682905288
 31
0.0
  0
LINE
  5
64D2
330
18
100
AcDbEntity
  8
図框線
100
AcDbLine
 10
135.4848583349512
 20
224.3666682905289
 30
0.0
 11
195.4848583349512
 21
224.3666682905289
 31
0.0
  0
MTEXT
  5
64D3
330
18
100
AcDbEntity
  8
0
 62
     7
 48
2.0
100
AcDbMText
 10
165.3702583008225
 20
253.9598367011131
 30
0.0
 40
4.8
 41
0.0
 71
     5
 72
     1
  1
\P\Ftxt.shx,bigfont.shx|c128;諸　　　　元
 73
     1
 44
1.0
  0
LINE
  5
64D5
330
18
100
AcDbEntity
  8
図框線
100
AcDbLine
 10
135.4848583349512
 20
253.1666682905288
 30
0.0
 11
135.4848583349512
 21
224.3666682905289
 31
0.0
  0
LINE
  5
64D7
330
18
100
AcDbEntity
  8
図框線
100
AcDbLine
 10
159.4848583349512
 20
245.9666682905288
 30
0.0
 11
159.4848583349512
 21
224.3666682905289
 31
0.0
  0
MTEXT
  5
64D8
330
18
100
AcDbEntity
  8
0
100
AcDbMText
 10
97.65702556263818
 20
11.15332144655735
 30
0.0
 40
5.0
 41
0.0
 71
     1
 72
     5
  1
\Ftxt.shx,bigfont.shx|c128;図  面  番  号
  7
JL
 73
     1
 44
1.0
  0
MTEXT
  5
64D9
330
18
100
AcDbEntity
  8
0
 62
     7
 48
2.0
100
AcDbMText
 10
121.8260850653862
 20
22.29156825453561
 30
0.0
 40
4.5
 41
0.0
 71
     5
 72
     1
  1
\P\Ftxt.shx,bigfont.shx|c128;    精密ロックナット
 73
     1
 44
1.0
  0
MTEXT
  5
64DA
330
18
100
AcDbEntity
  8
0
370
    25
100
AcDbMText
 10
98.8002923053598
 20
29.80688815403971
 30
0.0
 40
5.0
 41
0.0
 71
     1
 72
     5
  1
\Ftxt.shx,bigfont.shx|c128;品  名
  7
JL
 73
     1
 44
1.0
  0
LINE
  5
64DB
330
18
100
AcDbEntity
  8
図框線
100
AcDbLine
 10
96.0
 20
32.0
 30
0.0
 11
96.0
 21
0.19104161092514
 31
0.0
  0
LINE
  5
64DC
330
18
100
AcDbEntity
  8
図框線
100
AcDbLine
 10
76.0
 20
32.0
 30
0.0
 11
76.0
 21
12.0
 31
0.0
  0
LINE
  5
64DE
330
18
100
AcDbEntity
  8
図框線
100
AcDbLine
 10
153.2235601908683
 20
32.0
 30
0.0
 11
153.2235601908683
 21
12.0
 31
0.0
  0
MTEXT
  5
64DF
330
18
100
AcDbEntity
  8
0
100
AcDbMText
 10
138.7270197812522
 20
237.437930676148
 30
0.0
 40
4.4
 41
163.6058628849672
 71
     1
 72
     5
  1
\Ftxt.shx,bigfont.shx|c128;表 面 処 理
  7
JL
 73
     1
 44
1.0
  0
MTEXT
  5
64E0
330
18
100
AcDbEntity
  8
0
100
AcDbMText
 10
139.0170856296872
 20
230.1494578225401
 30
0.0
 40
4.4
 41
166.1718
 71
     1
 72
     5
  1
\Ftxt.shx,bigfont.shx|c128;等     　級
  7
JL
 73
     1
 44
1.0
  0
LINE
  5
64E1
330
18
100
AcDbEntity
  8
図框線
100
AcDbLine
 10
195.4848583349512
 20
253.1666682905288
 30
0.0
 11
195.4848583349512
 21
224.366668290529
 31
0.0
  0
MTEXT
  5
64E2
330
18
100
AcDbEntity
  8
0
100
AcDbMText
 10
164.2318616443938
 20
244.2652012159984
 30
0.0
 40
4.4
 41
291.8960056857887
 71
     1
 72
     5
  1
\Ftxt.shx,bigfont.shx|c128;調質　HRC30%%d%%p２%%d
  7
JL
 73
     1
 44
1.0
  0
MTEXT
  5
64E4
330
18
100
AcDbEntity
  8
0
370
    25
100
AcDbMText
 10
157.2494735287423
 20
29.58569764093568
 30
0.0
 40
5.0
 41
0.0
 71
     1
 72
     5
  1
\Ftxt.shx,bigfont.shx|c128;型  番
  7
JL
 73
     1
 44
1.0
  0
MTEXT
  5
64E5
330
18
100
AcDbEntity
  8
0
100
AcDbMText
 10
172.787265122339
 20
11.23700203391422
 30
0.0
 40
5.0
 41
0.0
 71
     1
 72
     5
  1
\Ftxt.shx,bigfont.shx|c128;変更
  7
JL
 73
     1
 44
1.0
  0
LINE
  5
64E6
330
18
100
AcDbEntity
  8
図框線
100
AcDbLine
 10
171.0
 20
12.00907027842731
 30
0.0
 11
171.0
 21
0.0
 31
0.0
  0
MTEXT
  5
64E7
330
18
100
AcDbEntity
  8
0
100
AcDbMText
 10
164.4925006458302
 20
230.1500683939912
 30
0.0
 40
4.4
 41
290.783364796891
 71
     1
 72
     5
  1
\Ftxt.shx,bigfont.shx|c128;ＩＳＯ - ４Ｈ
  7
JL
 73
     1
 44
1.0
  0
MTEXT
  5
64E8
330
18
100
AcDbEntity
  8
0
100
AcDbMText
 10
164.6669618439605
 20
237.0850377391931
 30
0.0
 40
4.4
 41
291.4548
 71
     1
 72
     5
  1
\Ftxt.shx,bigfont.shx|c128;黒  　    染
  7
JL
 73
     1
 44
1.0
  0
MTEXT
  5
64EA
330
18
100
AcDbEntity
  8
0
100
AcDbMText
 10
60.06318600759005
 20
270.095850257545
 30
0.0
 40
5.0
 41
0.0
 71
     1
 72
     5
  1
\Ftxt.shx,bigfont.shx|c128;M8X1.25-6L
  7
JL
 73
     1
 44
1.0
  0
MTEXT
  5
64EB
330
18
100
AcDbEntity
  8
0
100
AcDbMText
 10
60.06318600759005
 20
262.095850257545
 30
0.0
 40
5.0
 41
0.0
 71
     1
 72
     5
  1
\Ftxt.shx,bigfont.shx|c128;%%c7X6L
  7
JL
 73
     1
 44
1.0
  0
LINE
  5
64EC
330
18
100
AcDbEntity
  8
図框線
100
AcDbLine
 10
-0.0000000000002274
 20
263.9999999999999
 30
0.0
 11
197.9999999999997
 21
263.9999999999999
 31
0.0
  0
LINE
  5
64ED
330
18
100
AcDbEntity
  8
図框線
100
AcDbLine
 10
-0.0000000000002274
 20
271.9999999999999
 30
0.0
 11
197.9999999999997
 21
271.9999999999999
 31
0.0
  0
LINE
  5
64EE
330
18
100
AcDbEntity
  8
図框線
 62
     9
100
AcDbLine
 10
-0.0000000000002274
 20
279.9999999999999
 30
0.0
 11
197.9999999999997
 21
279.9999999999999
 31
0.0
  0
LINE
  5
64EF
330
18
100
AcDbEntity
  8
図框線
100
AcDbLine
 10
-0.0000000000002274
 20
290.0
 30
0.0
 11
197.9999999999997
 21
290.0
 31
0.0
  0
MTEXT
  5
64F0
330
18
100
AcDbEntity
  8
0
100
AcDbMText
 10
59.41630259681733
 20
287.3155952051104
 30
0.0
 40
5.0
 41
0.0
 71
     1
 72
     5
  1
\Ftxt.shx,bigfont.shx|c128;図    番 / 規　　格
  7
JL
 73
     1
 44
1.0
  0
LINE
  5
64F1
330
18
100
AcDbEntity
  8
図框線
100
AcDbLine
 10
-0.0000000000002274
 20
263.9999999999999
 30
0.0
 11
197.9999999999997
 21
263.9999999999999
 31
0.0
  0
LINE
  5
64F2
330
18
100
AcDbEntity
  8
図框線
100
AcDbLine
 10
-0.0000000000002274
 20
255.9999999999999
 30
0.0
 11
197.9999999999997
 21
255.9999999999999
 31
0.0
  0
MTEXT
  5
64F3
330
18
100
AcDbEntity
  8
0
100
AcDbMText
 10
22.01434914141237
 20
286.7888025819827
 30
0.0
 40
5.0
 41
0.0
 71
     1
 72
     5
  1
\Ftxt.shx,bigfont.shx|c128;品　          名
  7
JL
 73
     1
 44
1.0
  0
MTEXT
  5
64F4
330
18
100
AcDbEntity
  8
0
100
AcDbMText
 10
18.8650376130422
 20
270.5298549795346
 30
0.0
 40
6.0
 41
0.0
 71
     1
 72
     5
  1
\Ftxt.shx,bigfont.shx|c128;セットスクリュ-
  7
JL
 73
     1
 44
1.0
  0
MTEXT
  5
64F5
330
18
100
AcDbEntity
  8
0
100
AcDbMText
 10
18.66941459004738
 20
278.3660650505403
 30
0.0
 40
6.0
 41
0.0
 71
     1
 72
     5
  1
\Ftxt.shx,bigfont.shx|c128;ロックナット　  
  7
JL
 73
     1
 44
1.0
  0
MTEXT
  5
64F6
330
18
100
AcDbEntity
  8
0
100
AcDbMText
 10
18.8650376130422
 20
262.5298549795346
 30
0.0
 40
6.0
 41
0.0
 71
     1
 72
     5
  1
\Ftxt.shx,bigfont.shx|c128;ロックピン 
  7
JL
 73
     1
 44
1.0
  0
LINE
  5
64F7
330
18
100
AcDbEntity
  8
図框線
100
AcDbLine
 10
14.99999999999977
 20
289.9999999999998
 30
0.0
 11
15.00000000000011
 21
255.9999999999999
 31
0.0
  0
LINE
  5
64F8
330
18
100
AcDbEntity
  8
0
100
AcDbLine
 10
14.99999999999977
 20
289.9999999999998
 30
0.0
 11
14.99999999999977
 21
263.9999999999999
 31
0.0
  0
MTEXT
  5
64F9
330
18
100
AcDbEntity
  8
0
100
AcDbMText
 10
6.215289087390488
 20
262.7436409356394
 30
0.0
 40
5.0
 41
0.0
 71
     1
 72
     5
  1
\Ftxt.shx,bigfont.shx|c128;3
  7
JL
 73
     1
 44
1.0
  0
MTEXT
  5
64FA
330
18
100
AcDbEntity
  8
0
100
AcDbMText
 10
7.101957026666809
 20
278.5798510066454
 30
0.0
 40
5.0
 41
0.0
 71
     1
 72
     5
  1
\Ftxt.shx,bigfont.shx|c128;1
  7
JL
 73
     1
 44
1.0
  0
MTEXT
  5
64FB
330
18
100
AcDbEntity
  8
0
100
AcDbMText
 10
6.215289087390488
 20
270.7436409356394
 30
0.0
 40
5.0
 41
0.0
 71
     1
 72
     5
  1
\Ftxt.shx,bigfont.shx|c128;2
  7
JL
 73
     1
 44
1.0
  0
MTEXT
  5
64FC
330
18
100
AcDbEntity
  8
0
100
AcDbMText
 10
2.209083991842362
 20
287.0885254164057
 30
0.0
 40
5.0
 41
0.0
 71
     1
 72
     5
  1
\Ftxt.shx,bigfont.shx|c128;照   号
  7
JL
 73
     1
 44
1.0
  0
LINE
  5
64FD
330
18
100
AcDbEntity
  8
図框線
 62
     9
100
AcDbLine
 10
54.99999999999977
 20
289.9999999999998
 30
0.0
 11
54.99999999999977
 21
256.0
 31
0.0
  0
MTEXT
  5
64FE
330
18
100
AcDbEntity
  8
0
100
AcDbMText
 10
146.3353765925378
 20
287.5804049742369
 30
0.0
 40
5.0
 41
0.0
 71
     1
 72
     5
  1
\Ftxt.shx,bigfont.shx|c128;備           考
  7
JL
 73
     1
 44
1.0
  0
LINE
  5
64FF
330
18
100
AcDbEntity
  8
図框線
 62
     9
100
AcDbLine
 10
94.99999999999976
 20
289.9999999999999
 30
0.0
 11
94.99999999999976
 21
255.9999999999999
 31
0.0
  0
MTEXT
  5
6500
330
18
100
AcDbEntity
  8
0
100
AcDbMText
 10
96.78387029776377
 20
262.3660650505403
 30
0.0
 40
5.0
 41
0.0
 71
     1
 72
     5
  1
\Ftxt.shx,bigfont.shx|c128;C3604
  7
JL
 73
     1
 44
1.0
  0
MTEXT
  5
6501
330
18
100
AcDbEntity
  8
0
100
AcDbMText
 10
96.78387029776377
 20
278.3660650505403
 30
0.0
 40
5.0
 41
0.0
 71
     1
 72
     5
  1
\Ftxt.shx,bigfont.shx|c128;SCM-440
  7
JL
 73
     1
 44
1.0
  0
MTEXT
  5
6502
330
18
100
AcDbEntity
  8
0
100
AcDbMText
 10
96.78387029776377
 20
270.3660650505403
 30
0.0
 40
5.0
 41
0.0
 71
     1
 72
     5
  1
\Ftxt.shx,bigfont.shx|c128;SCM435
  7
JL
 73
     1
 44
1.0
  0
MTEXT
  5
6503
330
18
100
AcDbEntity
  8
0
100
AcDbMText
 10
99.80032499445407
 20
287.5804049742369
 30
0.0
 40
5.0
 41
0.0
 71
     1
 72
     5
  1
\Ftxt.shx,bigfont.shx|c128;材　質
  7
JL
 73
     1
 44
1.0
  0
LINE
  5
6504
330
18
100
AcDbEntity
  8
図框線
 62
     9
100
AcDbLine
 10
114.9999999999997
 20
289.9999999999999
 30
0.0
 11
114.9999999999997
 21
255.9999999999999
 31
0.0
  0
LINE
  5
6505
330
18
100
AcDbEntity
  8
図框線
100
AcDbLine
 10
129.9999999999998
 20
289.9999999999999
 30
0.0
 11
129.9999999999998
 21
255.9999999999999
 31
0.0
  0
MTEXT
  5
6506
330
18
100
AcDbEntity
  8
0
100
AcDbMText
 10
121.2152890873904
 20
262.7436409356394
 30
0.0
 40
5.0
 41
0.0
 71
     1
 72
     5
  1
\Ftxt.shx,bigfont.shx|c128;3
  7
JL
 73
     1
 44
1.0
  0
MTEXT
  5
6507
330
18
100
AcDbEntity
  8
0
100
AcDbMText
 10
122.1019570266667
 20
278.5798510066454
 30
0.0
 40
5.0
 41
0.0
 71
     1
 72
     5
  1
\Ftxt.shx,bigfont.shx|c128;1
  7
JL
 73
     1
 44
1.0
  0
MTEXT
  5
6508
330
18
100
AcDbEntity
  8
0
100
AcDbMText
 10
121.2152890873904
 20
270.7436409356394
 30
0.0
 40
5.0
 41
0.0
 71
     1
 72
     5
  1
\Ftxt.shx,bigfont.shx|c128;3
  7
JL
 73
     1
 44
1.0
  0
MTEXT
  5
6509
330
18
100
AcDbEntity
  8
0
100
AcDbMText
 10
116.433740311917
 20
287.5804049742369
 30
0.0
 40
5.0
 41
0.0
 71
     1
 72
     5
  1
\Ftxt.shx,bigfont.shx|c128;数   量
  7
JL
 73
     1
 44
1.0
  0
DIMENSION
  5
6770
330
18
100
AcDbEntity
  8
0
100
AcDbDimension
  2
*D1
 10
124.4352159794544
 20
48.16930652368085
 30
0.0
 11
89.43521597945403
 21
48.16930652368085
 31
0.0
 12
-201.9961417410568
 22
-21.66856463167886
 32
0.0
 70
   160
  1
M<>X2.0P
 71
     5
 42
-1.0
  3
A
100
AcDbAlignedDimension
 13
54.43521597945442
 23
65.78719259043374
 33
0.0
 14
124.4352159794544
 24
65.78719259043372
 34
0.0
100
AcDbRotatedDimension
  0
DIMENSION
  5
677F
330
18
100
AcDbEntity
  8
0
100
AcDbDimension
  2
*D2
 10
47.03521597945388
 20
135.7805328920246
 30
0.0
 11
52.03521597945388
 21
135.7805328920246
 31
0.0
 12
-256.8524605761635
 22
-63.295757300616
 32
0.0
 70
   160
 71
     5
 42
-1.0
  3
A
100
AcDbAlignedDimension
 13
43.51244149068662
 23
182.3500359586832
 33
0.0
 14
47.03521597945388
 24
182.3500359586832
 34
0.0
100
AcDbRotatedDimension
  0
DIMENSION
  5
6864
330
18
100
AcDbEntity
  8
DIM
100
AcDbDimension
  2
*D3
 10
33.08631957996516
 20
190.3500359586832
 30
0.0
 11
32.21191553910939
 21
198.7387852470074
 31
0.0
 12
-256.8524605761635
 22
-63.295757300616
 32
0.0
 70
   160
  1
<>      (3等分)
 71
     5
 42
-1.0
  3
A
100
AcDbAlignedDimension
 13
43.60945902989562
 23
182.3500359586832
 33
0.0
 14
43.60945902989562
 24
190.3500359586832
 34
0.0
 50
90.0
100
AcDbRotatedDimension
  0
LINE
  5
689B
330
18
100
AcDbEntity
  8
DIM
 62
     6
100
AcDbLine
 10
33.08631957996516
 20
189.3500359586833
 30
0.0
 11
33.08631957996516
 21
211.2663448210777
 31
0.0
  0
LINE
  5
6AF0
330
18
100
AcDbEntity
  8
DIM
 62
     6
100
AcDbLine
 10
52.03521597945388
 20
135.7805328920246
 30
0.0
 11
63.83843929028302
 21
135.7805328920246
 31
0.0
  0
LEADER
  5
6B85
330
18
100
AcDbEntity
  8
DIM
 62
     6
100
AcDbLeader
  3
A
 73
     0
 74
     0
 75
     1
 40
3.0
 41
4.999999999999999
 76
     3
 10
54.68521597945443
 20
86.12052592376707
 30
0.0
 10
62.65805161850017
 20
93.95675253782869
 30
0.0
 10
65.15805161850017
 20
93.95675253782869
 30
0.0
340
6B86
  0
MTEXT
  5
6B86
102
{ACAD_REACTORS
330
6B85
102
}
330
18
100
AcDbEntity
  8
DIM
 62
     3
100
AcDbMText
 10
66.15805161850016
 20
96.45675253782869
 30
0.0
 40
3.0
 41
0.0
 71
     4
 72
     1
  1
\A1;C2
  7
TXT
 73
     1
 44
1.0
  0
DIMENSION
  5
6C92
330
18
100
AcDbEntity
  8
DIM
100
AcDbDimension
  2
*D4
 10
131.4352159794544
 20
107.3117491419226
 30
0.0
 11
89.43521597945442
 21
109.8117491419226
 31
0.0
 12
-201.9961417410568
 22
-21.66856463167886
 32
0.0
 70
    32
  1
%%c<>%%p0.5
 71
     5
 42
-1.0
  3
A
100
AcDbAlignedDimension
 13
47.43521597945442
 23
89.1205259237671
 33
0.0
 14
131.4352159794544
 24
89.12052592376713
 34
0.0
100
AcDbRotatedDimension
  0
DIMENSION
  5
6CAA
330
18
100
AcDbEntity
  8
DIM
100
AcDbDimension
  2
*D5
 10
135.4352159794545
 20
112.8192192323376
 30
0.0
 11
85.36615985154019
 21
113.6453399822228
 31
0.0
 12
-201.9961417410568
 22
-21.66856463167886
 32
0.0
 70
   160
  1
%%c<>
 71
     5
 42
-1.0
  3
A
100
AcDbAlignedDimension
 13
43.43521597945442
 23
86.62052592376708
 33
0.0
 14
135.4352159794545
 24
86.62052592376713
 34
0.0
100
AcDbRotatedDimension
  0
DIMENSION
  5
6F74
330
18
100
AcDbEntity
  8
0
100
AcDbDimension
  2
*D6
 10
159.5819461163015
 20
48.51306090036607
 30
0.0
 11
170.078018491314
 21
66.69279153380769
 31
0.0
 12
7.923093395541854
 22
-27.87540298547657
 32
0.0
 70
   161
  1
9%%p0.5
 71
     5
 42
-1.0
  3
A
100
AcDbAlignedDimension
 13
135.4356552123028
 23
73.12336142834524
 33
0.0
 14
130.8156552123027
 24
65.12128669737695
 34
0.0
  0
MTEXT
  5
72FF
102
{ACAD_REACTORS
330
7300
102
}
330
18
100
AcDbEntity
  8
DIM
 62
     3
100
AcDbMText
 10
110.5466741336744
 20
58.29066802724941
 30
0.0
 40
3.0
 41
0.0
 71
     6
 72
     1
  1
\A1;C2
  7
TXT
 73
     1
 44
1.0
  0
LEADER
  5
7300
330
18
100
AcDbEntity
  8
DIM
 62
     6
100
AcDbLeader
  3
A
 73
     0
 75
     1
 40
3.0
 41
4.999999999999999
 76
     3
 10
124.1852159794544
 20
66.12052592376705
 30
0.0
 10
114.0466741336744
 20
55.79066802724941
 30
0.0
 10
111.5466741336744
 20
55.79066802724941
 30
0.0
340
72FF
  0
MTEXT
  5
7303
102
{ACAD_REACTORS
330
7304
102
}
330
18
100
AcDbEntity
  8
DIM
 62
     3
100
AcDbMText
 10
151.0510905793401
 20
103.1389527669827
 30
0.0
 40
3.0
 41
0.0
 71
     4
 72
     1
  1
\A1;R2
  7
TXT
 73
     1
 44
1.0
  0
LEADER
  5
7304
330
18
100
AcDbEntity
  8
DIM
 62
     6
100
AcDbLeader
  3
A
 73
     0
 74
     0
 75
     1
 40
3.0
 41
4.999999999999999
 76
     3
 10
134.8494295418276
 20
88.03473948614024
 30
0.0
 10
147.5510905793401
 20
100.6389527669828
 30
0.0
 10
150.0510905793401
 20
100.6389527669828
 30
0.0
340
7303
1001
ACAD
1000
DSTYLE
1002
{
1070
    45
1040
0.0
1002
}
  0
DIMENSION
  5
74C6
330
18
100
AcDbEntity
  8
0
100
AcDbDimension
  2
*D7
 10
32.12182068071206
 20
88.62052592376707
 30
0.0
 11
32.12182068071206
 21
101.9414817125341
 31
0.0
 12
-201.9961417410568
 22
-21.66856463167886
 32
0.0
 70
   160
 71
     5
 42
-1.0
  3
A
100
AcDbAlignedDimension
 13
47.43521597945442
 23
89.1205259237671
 33
0.0
 14
45.43521597945442
 24
88.62052592376707
 34
0.0
 50
90.0
100
AcDbRotatedDimension
  0
DIMENSION
  5
750D
330
18
100
AcDbEntity
  8
DIM
100
AcDbDimension
  2
*D8
 10
124.9352159794544
 20
101.4686543302941
 30
0.0
 11
89.43521597945442
 21
103.968654330294
 31
0.0
 12
-201.9961417410568
 22
-21.66856463167886
 32
0.0
 70
    32
  1
%%c<>
 71
     5
 42
-1.0
  3
A
100
AcDbAlignedDimension
 13
53.93521597945443
 23
89.12052592376708
 33
0.0
 14
124.9352159794544
 24
89.12052592376713
 34
0.0
100
AcDbRotatedDimension
  0
DIMENSION
  5
7568
330
18
100
AcDbEntity
  8
DIM
100
AcDbDimension
  2
*D9
 10
150.321981787765
 20
69.16224904957047
 30
0.0
 11
147.821981787765
 21
79.1413874866688
 31
0.0
 12
-201.9961417410568
 22
-21.66856463167886
 32
0.0
 70
    32
 71
     5
 42
-1.0
  3
A
100
AcDbAlignedDimension
 13
131.4352159794544
 23
89.12052592376715
 33
0.0
 14
133.1487059141267
 24
69.16224904957049
 34
0.0
 50
90.0
100
AcDbRotatedDimension
  0
DIMENSION
  5
7575
330
18
100
AcDbEntity
  8
DIM
100
AcDbDimension
  2
*D10
 10
160.4710027141532
 20
89.12052592376715
 30
0.0
 11
157.9710027141532
 21
77.12090631057205
 31
0.0
 12
-248.3999254604078
 22
16.59278294885553
 32
0.0
 70
    32
  1
<>%%p0.2
 71
     5
 42
-1.0
  3
A
100
AcDbAlignedDimension
 13
130.8156552123027
 23
65.12128669737695
 33
0.0
 14
131.4352159794544
 24
89.12052592376715
 34
0.0
 50
90.0
100
AcDbRotatedDimension
  0
DIMENSION
  5
7AD6
330
18
100
AcDbEntity
  8
DIM
100
AcDbDimension
  2
*D11
 10
98.65295108593432
 20
89.12052592376713
 30
0.0
 11
98.65295108593432
 21
96.70633961143941
 31
0.0
 12
-211.0959689396803
 22
-25.87616375908641
 32
0.0
 70
   160
 71
     5
 42
-1.0
  3
A
100
AcDbAlignedDimension
 13
102.4352159794541
 23
87.12052592376739
 33
0.0
 14
102.4352159794541
 24
89.12052592376713
 34
0.0
 50
90.0
100
AcDbRotatedDimension
  0
LINE
  5
9974
330
18
100
AcDbEntity
  8
中心線
  6
CENTER
 48
0.15
100
AcDbLine
 10
89.43521597945419
 20
234.3500359586832
 30
0.0
 11
89.43521597945409
 21
138.3500359586832
 31
0.0
  0
ARC
  5
9975
330
18
100
AcDbEntity
  8
本体外線
100
AcDbCircle
 10
89.43521597945409
 20
186.3500359586831
 30
0.0
 40
46.0
100
AcDbArc
 50
64.98854197555603
 51
175.0114580244438
  0
CIRCLE
  5
9976
330
18
100
AcDbEntity
  8
本体外線
100
AcDbCircle
 10
89.43521597945409
 20
186.3500359586831
 30
0.0
 40
42.0
  0
ARC
  5
9977
330
18
100
AcDbEntity
  8
0
100
AcDbCircle
 10
89.43521597945409
 20
186.3500359586831
 30
0.0
 40
35.0
100
AcDbArc
 50
169.0600324266789
 51
102.6862890571227
  0
CIRCLE
  5
9978
330
18
100
AcDbEntity
  8
本体外線
100
AcDbCircle
 10
89.43521597945409
 20
186.3500359586831
 30
0.0
 40
34.0
  0
LINE
  5
9979
330
18
100
AcDbEntity
  8
本体外線
100
AcDbLine
 10
108.8839928390956
 20
228.036305624652
 30
0.0
 11
107.1211143643164
 21
224.9829105387649
 31
0.0
  0
LINE
  5
997A
330
18
100
AcDbEntity
  8
本体外線
100
AcDbLine
 10
115.812196069371
 20
224.036305624652
 30
0.0
 11
114.0493175945918
 21
220.9829105387649
 31
0.0
  0
LINE
  5
997B
330
18
100
AcDbEntity
  8
本体内線
  6
HIDDEN
 48
0.2
100
AcDbLine
 10
76.01737457845769
 20
155.1096529242563
 30
0.0
 11
69.98643911981258
 21
144.6637662927143
 31
0.0
  0
LINE
  5
997C
330
18
100
AcDbEntity
  8
本体内線
  6
HIDDEN
 48
0.2
100
AcDbLine
 10
69.08917134818222
 20
159.1096529242563
 30
0.0
 11
63.05823588953711
 21
148.6637662927143
 31
0.0
  0
LINE
  5
997D
330
18
100
AcDbEntity
  8
本体内線
  6
HIDDEN
 48
0.2
100
AcDbLine
 10
75.49775933618701
 20
155.4096529242562
 30
0.0
 11
69.46682387754191
 21
144.9637662927143
 31
0.0
  0
LINE
  5
997E
330
18
100
AcDbEntity
  8
本体内線
  6
HIDDEN
 48
0.2
100
AcDbLine
 10
69.60878659045289
 20
158.8096529242562
 30
0.0
 11
63.57785113180779
 21
148.3637662927143
 31
0.0
  0
LINE
  5
997F
330
18
100
AcDbEntity
  8
中心線
  6
CENTER
 48
0.15
100
AcDbLine
 10
41.43521597945408
 20
186.3500359586832
 30
0.0
 11
137.4352159794541
 21
186.3500359586831
 31
0.0
  0
LINE
  5
9980
330
18
100
AcDbEntity
  8
本体外線
100
AcDbLine
 10
47.03521597945399
 20
182.3500359586832
 30
0.0
 11
47.03521597945399
 21
190.3500359586832
 31
0.0
  0
LINE
  5
9981
330
18
100
AcDbEntity
  8
本体外線
100
AcDbLine
 10
43.60945902989562
 20
182.3500359586832
 30
0.0
 11
47.03521597945399
 21
182.3500359586832
 31
0.0
  0
LINE
  5
9982
330
18
100
AcDbEntity
  8
本体外線
100
AcDbLine
 10
43.60945902989562
 20
190.3500359586832
 30
0.0
 11
47.03521597945399
 21
190.3500359586832
 31
0.0
  0
LINE
  5
9983
330
18
100
AcDbEntity
  8
中心線
  6
CENTER
 48
0.15
100
AcDbLine
 10
65.4352159794542
 20
144.7808165770301
 30
0.0
 11
73.43521597945397
 21
158.6372230375812
 31
0.0
  0
LINE
  5
9984
330
18
100
AcDbEntity
  8
本体外線
100
AcDbLine
 10
114.0993175945918
 20
151.6305588382229
 30
0.0
 11
107.1711143643163
 21
147.630558838223
 31
0.0
  0
LINE
  5
9985
330
18
100
AcDbEntity
  8
本体外線
100
AcDbLine
 10
115.8121960693709
 20
148.6637662927143
 30
0.0
 11
114.0993175945918
 21
151.6305588382229
 31
0.0
  0
LINE
  5
9986
330
18
100
AcDbEntity
  8
本体外線
100
AcDbLine
 10
108.8839928390954
 20
144.6637662927143
 30
0.0
 11
107.1711143643163
 21
147.6305588382229
 31
0.0
  0
ARC
  5
9987
330
18
100
AcDbEntity
  8
本体外線
100
AcDbCircle
 10
89.43521597945409
 20
186.3500359586831
 30
0.0
 40
46.0
100
AcDbArc
 50
184.9885419755559
 51
295.0114580244439
  0
ARC
  5
9988
330
18
100
AcDbEntity
  8
本体外線
100
AcDbCircle
 10
89.43521597945409
 20
186.3500359586831
 30
0.0
 40
46.0
100
AcDbArc
 50
304.988541975556
 51
55.01145802444391
  0
LINE
  5
9989
330
18
100
AcDbEntity
  8
本体内線
  6
HIDDEN
 48
0.2
100
AcDbLine
 10
123.1991020117222
 20
190.350035958683
 30
0.0
 11
135.2609729290124
 21
190.3500359586831
 31
0.0
  0
LINE
  5
998A
330
18
100
AcDbEntity
  8
本体内線
  6
HIDDEN
 48
0.2
100
AcDbLine
 10
123.1991020117222
 20
182.3500359586831
 30
0.0
 11
135.2609729290124
 21
182.3500359586831
 31
0.0
  0
LINE
  5
998B
330
18
100
AcDbEntity
  8
本体内線
  6
HIDDEN
 48
0.2
100
AcDbLine
 10
123.1991020117222
 20
189.7500359586831
 30
0.0
 11
135.2609729290124
 21
189.750035958683
 31
0.0
  0
LINE
  5
998C
330
18
100
AcDbEntity
  8
本体内線
  6
HIDDEN
 48
0.2
100
AcDbLine
 10
123.1991020117223
 20
182.9500359586831
 30
0.0
 11
135.2609729290124
 21
182.9500359586831
 31
0.0
  0
LINE
  5
998D
330
18
100
AcDbEntity
  8
中心線
  6
CENTER
 48
0.15
100
AcDbLine
 10
73.43521597945397
 20
214.0628488797852
 30
0.0
 11
65.4352159794542
 21
227.9192553403363
 31
0.0
  0
LINE
  5
998E
330
18
100
AcDbEntity
  8
本体内線
  6
HIDDEN
 48
0.2
100
AcDbLine
 10
69.08917134818233
 20
213.5904189931101
 30
0.0
 11
63.05823588953711
 21
224.0363056246521
 31
0.0
  0
LINE
  5
998F
330
18
100
AcDbEntity
  8
本体内線
  6
HIDDEN
 48
0.2
100
AcDbLine
 10
76.0173745784578
 20
217.5904189931101
 30
0.0
 11
69.9864391198127
 21
228.0363056246521
 31
0.0
  0
LINE
  5
9990
330
18
100
AcDbEntity
  8
本体内線
  6
HIDDEN
 48
0.2
100
AcDbLine
 10
69.60878659045289
 20
213.8904189931101
 30
0.0
 11
63.5778511318079
 21
224.3363056246522
 31
0.0
  0
LINE
  5
9991
330
18
100
AcDbEntity
  8
本体内線
  6
HIDDEN
 48
0.2
100
AcDbLine
 10
75.49775933618701
 20
217.2904189931101
 30
0.0
 11
69.46682387754202
 21
227.7363056246521
 31
0.0
  0
LINE
  5
99B2
330
18
100
AcDbEntity
  8
本体外線
100
AcDbLine
 10
107.1211143643164
 20
224.9829105387649
 30
0.0
 11
114.0493175945918
 21
220.9829105387649
 31
0.0
  0
LINE
  5
9EC5
102
{ACAD_REACTORS
330
A00C
102
}
330
18
100
AcDbEntity
  8
本体外線
100
AcDbLine
 10
47.43521597945442
 20
89.12052592376708
 30
0.0
 11
131.4352159794544
 21
89.12052592376713
 31
0.0
  0
LINE
  5
9EC6
102
{ACAD_REACTORS
330
A00C
102
}
330
18
100
AcDbEntity
  8
本体外線
100
AcDbLine
 10
48.05521597945352
 20
65.12052592376708
 30
0.0
 11
130.8152159794543
 21
65.12052592376713
 31
0.0
  0
LINE
  5
9EC7
330
18
100
AcDbEntity
  8
本体外線
100
AcDbLine
 10
43.43521597945442
 20
86.62052592376708
 30
0.0
 11
43.43521597945454
 21
73.12052592376708
 31
0.0
  0
LINE
  5
9EC8
102
{ACAD_REACTORS
330
A00C
102
}
330
18
100
AcDbEntity
  8
本体外線
100
AcDbLine
 10
135.4352159794544
 20
86.62052592376713
 30
0.0
 11
135.4352159794544
 21
73.12052592376713
 31
0.0
  0
LINE
  5
9EC9
102
{ACAD_REACTORS
330
A00C
102
}
330
18
100
AcDbEntity
  8
本体外線
100
AcDbLine
 10
47.43521597945442
 20
89.12052592376708
 30
0.0
 11
47.43521597945442
 21
88.62052592376707
 31
0.0
  0
LINE
  5
9ECA
102
{ACAD_REACTORS
330
A00C
102
}
330
18
100
AcDbEntity
  8
本体外線
100
AcDbLine
 10
55.43521597945442
 20
85.12052592376708
 30
0.0
 11
55.43521597945442
 21
67.12052592376711
 31
0.0
  0
LINE
  5
9ECB
102
{ACAD_REACTORS
330
9EED
330
A00C
102
}
330
18
100
AcDbEntity
  8
本体外線
100
AcDbLine
 10
123.4352159794544
 20
85.12052592376717
 30
0.0
 11
123.4352159794544
 21
67.12052592376713
 31
0.0
  0
LINE
  5
9ECC
102
{ACAD_REACTORS
330
A00C
102
}
330
18
100
AcDbEntity
  8
本体外線
100
AcDbLine
 10
131.4352159794544
 20
89.12052592376713
 30
0.0
 11
131.4352159794544
 21
88.62052592376707
 31
0.0
  0
LINE
  5
9ECD
102
{ACAD_REACTORS
330
A00C
102
}
330
18
100
AcDbEntity
  8
本体外線
100
AcDbLine
 10
45.43521597945442
 20
88.62052592376707
 30
0.0
 11
47.43521597945442
 21
88.62052592376707
 31
0.0
  0
LINE
  5
9ECE
102
{ACAD_REACTORS
330
A00C
102
}
330
18
100
AcDbEntity
  8
本体外線
100
AcDbLine
 10
131.4352159794544
 20
88.62052592376707
 30
0.0
 11
133.4352159794545
 21
88.62052592376713
 31
0.0
  0
LINE
  5
9ECF
330
18
100
AcDbEntity
  8
本体外線
100
AcDbLine
 10
53.93521597945443
 20
87.12052592376712
 30
0.0
 11
124.9352159794544
 21
87.12052592376712
 31
0.0
  0
LINE
  5
9ED0
102
{ACAD_REACTORS
330
A00C
102
}
330
18
100
AcDbEntity
  8
本体外線
100
AcDbLine
 10
55.43521597945442
 20
85.12052592376708
 30
0.0
 11
53.93521597945443
 21
87.12052592376707
 31
0.0
  0
LINE
  5
9ED1
102
{ACAD_REACTORS
330
A00C
102
}
330
18
100
AcDbEntity
  8
本体外線
100
AcDbLine
 10
123.4352159794544
 20
85.12052592376713
 30
0.0
 11
124.9352159794544
 21
87.12052592376712
 31
0.0
  0
ARC
  5
9ED2
102
{ACAD_REACTORS
330
A00C
102
}
330
18
100
AcDbEntity
  8
本体外線
100
AcDbCircle
 10
133.4352159794545
 20
86.62052592376713
 30
0.0
 40
2.0
100
AcDbArc
 50
0.0
 51
90.00000000000019
  0
ARC
  5
9ED3
330
18
100
AcDbEntity
  8
本体外線
100
AcDbCircle
 10
45.43521597945442
 20
86.62052592376708
 30
0.0
 40
2.0
100
AcDbArc
 50
90.0
 51
180.0000000000001
  0
LINE
  5
9ED4
330
18
100
AcDbEntity
  8
本体外線
100
AcDbLine
 10
55.43521597945442
 20
67.12052592376707
 30
0.0
 11
123.4352159794543
 21
67.12052592376713
 31
0.0
  0
POINT
  5
9ED5
330
18
100
AcDbEntity
  8
本体外線
100
AcDbPoint
 10
131.4352159794544
 20
89.12052592376713
 30
0.0
  0
LINE
  5
9ED6
330
18
100
AcDbEntity
  8
中心線
  6
CENTER
 48
0.15
100
AcDbLine
 10
89.43521597945409
 20
92.12052592376711
 30
0.0
 11
89.43521597945396
 21
62.12052592376711
 31
0.0
  0
POINT
  5
9ED7
330
18
100
AcDbEntity
  8
0
100
AcDbPoint
 10
127.6686420094769
 20
65.12052592376713
 30
0.0
  0
POINT
  5
9ED8
330
18
100
AcDbEntity
  8
本体外線
100
AcDbPoint
 10
130.229903870907
 20
89.12052592376713
 30
0.0
  0
LINE
  5
9ED9
330
18
100
AcDbEntity
  8
0
100
AcDbLine
 10
130.432395656427
 20
66.05746167411385
 30
0.0
 11
134.4323956564272
 21
72.98566490438983
 31
0.0
  0
LINE
  5
9EDA
330
18
100
AcDbEntity
  8
本体内線
  6
HIDDEN
 48
0.1
100
AcDbLine
 10
131.5766136570063
 20
72.19428205193856
 30
0.0
 11
129.6898623110588
 21
71.10496565446144
 31
0.0
  0
LINE
  5
9EDB
330
18
100
AcDbEntity
  8
本体内線
  6
HIDDEN
 48
0.1
100
AcDbLine
 10
129.6898623110585
 20
71.10496565446121
 30
0.0
 11
129.6898623110583
 21
68.92633285950712
 31
0.0
  0
LWPOLYLINE
  5
9EDC
102
{ACAD_REACTORS
330
A00C
102
}
330
18
100
AcDbEntity
  8
本体外線
100
AcDbPolyline
 90
        2
 70
     0
 43
0.0
 10
130.8152159794544
 20
65.12052592376722
 10
135.4352159794544
 20
73.12260065473544
  0
LINE
  5
9EDD
330
18
100
AcDbEntity
  8
本体内線
  6
HIDDEN
 48
0.1
100
AcDbLine
 10
134.0685916524284
 20
70.75553788546682
 30
0.0
 11
131.5766136570062
 21
72.1942820519385
 31
0.0
  0
LINE
  5
9EDE
330
18
100
AcDbEntity
  8
本体内線
  6
HIDDEN
 48
0.1
100
AcDbLine
 10
132.1818403064804
 20
67.48758869303543
 30
0.0
 11
129.6898623110583
 21
68.92633285950712
 31
0.0
  0
LINE
  5
9EDF
330
18
100
AcDbEntity
  8
0
100
AcDbLine
 10
127.9311376467731
 20
74.42976688957569
 30
0.0
 11
130.663188454342
 21
75.16181769714458
 31
0.0
  0
LINE
  5
9EE0
330
18
100
AcDbEntity
  8
0
100
AcDbLine
 10
125.9311376467731
 20
70.96566527443798
 30
0.0
 11
126.663188454342
 21
68.23361446686909
 31
0.0
  0
LINE
  5
9EE1
330
18
100
AcDbEntity
  8
0
100
AcDbLine
 10
130.663188454342
 20
75.16181769714456
 30
0.0
 11
126.663188454342
 21
68.23361446686906
 31
0.0
  0
LINE
  5
9EE2
330
18
100
AcDbEntity
  8
0
100
AcDbLine
 10
134.4323956564272
 20
71.38566490438876
 30
0.0
 11
128.7703681313139
 21
74.65463802017191
 31
0.0
  0
LINE
  5
9EE3
330
18
100
AcDbEntity
  8
0
100
AcDbLine
 10
131.8180363024819
 20
66.85746167411392
 30
0.0
 11
126.1560087773696
 21
70.12643478989659
 31
0.0
  0
LINE
  5
9EE4
102
{ACAD_REACTORS
330
9EED
102
}
330
18
100
AcDbEntity
  8
0
100
AcDbLine
 10
128.6811376467734
 20
75.72880499525203
 30
0.0
 11
125.1811376467734
 21
69.66662716876109
 31
0.0
  0
LINE
  5
9EE5
102
{ACAD_REACTORS
330
9EED
102
}
330
18
100
AcDbEntity
  8
0
100
AcDbLine
 10
128.6811376467734
 20
75.72880499525206
 30
0.0
 11
123.4352159794544
 21
78.75753928202633
 31
0.0
  0
LINE
  5
9EE6
102
{ACAD_REACTORS
330
9EED
102
}
330
18
100
AcDbEntity
  8
0
100
AcDbLine
 10
125.1811376467735
 20
69.66662716876107
 30
0.0
 11
123.4352159794544
 21
70.67463551337173
 31
0.0
  0
LWPOLYLINE
  5
9EE7
102
{ACAD_REACTORS
330
A00C
102
}
330
18
100
AcDbEntity
  8
0
100
AcDbPolyline
 90
        3
 70
     0
 43
0.0
 10
134.4323956564272
 20
71.3856649043895
 10
134.4323956564272
 20
72.9856649043891
 10
123.4352159794544
 20
79.33488955121601
  0
LWPOLYLINE
  5
9EE8
102
{ACAD_REACTORS
330
A00C
102
}
330
18
100
AcDbEntity
  8
0
100
AcDbPolyline
 90
        3
 70
     0
 43
0.0
 10
131.8180363024819
 20
66.85746167411392
 10
130.432395656427
 20
66.05746167411382
 10
123.4352159794544
 20
70.09728524418204
  0
LINE
  5
9EE9
102
{ACAD_REACTORS
330
9EED
102
}
330
18
100
AcDbEntity
  8
中心線
  6
CENTER
 48
0.15
100
AcDbLine
 10
134.8718599443087
 20
68.18241995826702
 30
0.0
 11
121.5678837037162
 21
75.74739831900328
 31
0.0
  0
LINE
  5
9EEA
330
18
100
AcDbEntity
  8
本体外線
100
AcDbLine
 10
55.43521597945442
 20
85.1205259237671
 30
0.0
 11
123.4352159794544
 21
85.12052592376713
 31
0.0
  0
LWPOLYLINE
  5
9EEB
102
{ACAD_REACTORS
330
A00C
102
}
330
18
100
AcDbEntity
  8
本体外線
100
AcDbPolyline
 90
        2
 70
     0
 43
0.0
 10
48.0552159794534
 20
65.12052592376722
 10
43.43521597945351
 20
73.12260065473544
  0
LINE
  5
9EEC
102
{ACAD_REACTORS
330
A00C
102
}
330
18
100
AcDbEntity
  8
本体外線
100
AcDbLine
 10
47.12897682532826
 20
88.62052592376707
 30
0.0
 11
47.12897682532826
 21
66.72481919867178
 31
0.0
  0
HATCH
  5
9EED
330
18
100
AcDbEntity
  8
0
100
AcDbHatch
 10
0.0
 20
0.0
 30
0.0
210
0.0
220
0.0
230
1.0
  2
AR-SAND
 70
     0
 71
     1
 91
        2
 92
        7
 72
     0
 73
     1
 93
        4
 10
128.6811376467734
 20
75.72880499525204
 10
123.4352159794544
 20
78.75753928202634
 10
123.4352159794544
 20
74.68558582003301
 10
126.9311376467734
 20
72.6977160820066
 97
        4
330
9EE5
330
9ECB
330
9EE9
330
9EE4
 92
        7
 72
     0
 73
     1
 93
        4
 10
123.4352159794544
 20
74.68558582003304
 10
123.4352159794544
 20
70.67463551337171
 10
125.1811376467734
 20
69.66662716876112
 10
126.9311376467734
 20
72.69771608200658
 97
        4
330
9ECB
330
9EE6
330
9EE4
330
9EE9
 75
     0
 76
     1
 52
0.0
 41
0.05
 77
     0
 78
     4
 53
37.5
 43
-107.7476140692488
 44
-161.8363922950468
 45
-0.0800015647992023
 46
2.447066186646711
 79
     6
 49
0.0
 49
-1.9304
 49
0.0
 49
-2.159
 49
0.0
 49
-2.06375
 53
7.499999999999999
 43
-107.7476140692488
 44
-161.8363922950468
 45
2.247616415690013
 46
3.584125502841771
 79
     6
 49
0.0
 49
-1.0414
 49
0.0
 49
-1.7399
 49
0.0
 49
-0.6667500000000001
 53
327.5
 43
-109.3097140692488
 44
-161.8363922950468
 45
3.95496185120729
 46
0.0071859233927285
 79
     6
 49
0.0
 49
-0.635
 49
0.0
 49
-2.286
 49
0.0
 49
-2.9845
 53
317.5
 43
-109.3097140692488
 44
-161.8363922950468
 45
3.817782262361486
 46
1.114646616286081
 79
     6
 49
0.0
 49
-0.3175
 49
0.0
 49
-1.498599999999999
 49
0.0
 49
-1.7145
 47
0.0545456396342813
 98
        2
 10
126.3393456175449
 20
74.91603944296659
 10
125.0833655254018
 20
72.84330435917784
  0
LINE
  5
9EEE
102
{ACAD_REACTORS
330
A00C
102
}
330
18
100
AcDbEntity
  8
0
100
AcDbLine
 10
54.43521597945442
 20
86.45385925710035
 30
0.0
 11
54.43521597945442
 21
65.78719259043376
 31
0.0
  0
LINE
  5
9EEF
102
{ACAD_REACTORS
330
A00C
102
}
330
18
100
AcDbEntity
  8
0
100
AcDbLine
 10
124.4352159794544
 20
86.45385925710042
 30
0.0
 11
124.4352159794544
 21
78.75753928202638
 31
0.0
  0
LINE
  5
9EF0
102
{ACAD_REACTORS
330
A00C
102
}
330
18
100
AcDbEntity
  8
本体外線
100
AcDbLine
 10
53.93521597945443
 20
89.1205259237671
 30
0.0
 11
53.93521597945443
 21
87.12052592376712
 31
0.0
  0
LINE
  5
9EF1
102
{ACAD_REACTORS
330
A00C
102
}
330
18
100
AcDbEntity
  8
本体外線
100
AcDbLine
 10
124.9352159794544
 20
89.12052592376713
 30
0.0
 11
124.9352159794544
 21
87.12052592376712
 31
0.0
  0
LINE
  5
9EF2
102
{ACAD_REACTORS
330
A00C
102
}
330
18
100
AcDbEntity
  8
本体外線
100
AcDbLine
 10
55.43521597945442
 20
67.12052592376711
 30
0.0
 11
53.93521597945443
 21
65.1205259237671
 31
0.0
  0
LINE
  5
9EF3
102
{ACAD_REACTORS
330
A00C
102
}
330
18
100
AcDbEntity
  8
本体外線
100
AcDbLine
 10
123.4352159794544
 20
67.12052592376704
 30
0.0
 11
124.9352159794544
 21
65.12052592376704
 31
0.0
  0
LINE
  5
9EF4
102
{ACAD_REACTORS
330
A00C
102
}
330
18
100
AcDbEntity
  8
0
100
AcDbLine
 10
124.4352159794544
 20
69.51993497499239
 30
0.0
 11
124.4352159794544
 21
65.78719259043373
 31
0.0
  0
DIMENSION
  5
9FA8
330
18
100
AcDbEntity
  8
DIM
100
AcDbDimension
  2
*D12
 10
121.567883703716
 20
75.74739831900332
 30
0.0
 11
176.7234892551657
 21
68.31659373289077
 31
0.0
 12
-248.3999254604078
 22
16.59278294885553
 32
0.0
 70
    34
  1
30%%D
 71
     5
 42
-1.0
  3
A
100
AcDb2LineAngularDimension
 13
41.43521597945443
 23
89.1205259237671
 33
0.0
 14
131.4352159794544
 24
89.12052592376715
 34
0.0
 15
134.8718599443086
 25
68.182419958267
 35
0.0
 16
176.9940308485442
 26
60.77794810123072
 36
0.0
1001
ACAD
1000
DSTYLE
1002
{
1070
    79
1070
     2
1070
   179
1070
     1
1002
}
  0
HATCH
  5
A00C
330
18
100
AcDbEntity
  8
剖面線
100
AcDbHatch
 10
0.0
 20
0.0
 30
0.0
210
0.0
220
0.0
230
1.0
  2
ANSI31
 70
     0
 71
     1
 91
        6
 92
        7
 72
     0
 73
     1
 93
       10
 10
54.43521597945443
 20
86.45385925710041
 10
53.93521597945443
 20
87.12052592376705
 10
53.93521597945444
 20
89.12052592376708
 10
47.43521597945441
 20
89.12052592376706
 10
47.43521597945442
 20
88.62052592376707
 10
47.12897682532826
 20
88.62052592376707
 10
47.12897682532826
 20
66.72481919867163
 10
48.05521597945349
 20
65.12052592376706
 10
53.9352159794544
 20
65.12052592376706
 10
54.43521597945443
 20
65.78719259043378
 97
       10
330
9ED0
330
9EF0
330
9EC5
330
9EC9
330
9ECD
330
9EEC
330
9EEB
330
9EC6
330
9EF2
330
9EEE
 92
        7
 72
     0
 73
     1
 93
        4
 10
54.43521597945442
 20
65.78719259043378
 10
55.43521597945442
 20
67.12052592376709
 10
55.43521597945443
 20
85.1205259237671
 10
54.43521597945443
 20
86.45385925710042
 97
        4
330
9ED0
330
9EEE
330
9EF2
330
9ECA
 92
        7
 72
     1
 73
     1
 93
       11
 10
124.4352159794544
 20
78.75753928202637
 42
0.0
 10
134.4323956564272
 20
72.9856649043891
 42
0.0
 10
134.4323956564272
 20
71.38566490438968
 42
0.0
 10
135.4352159794544
 20
73.12260065473544
 42
0.0
 10
135.4352159794544
 20
86.62052592376713
 42
0.4142135623731042
 10
133.4352159794544
 20
88.62052592376713
 42
0.0
 10
131.4352159794544
 20
88.62052592376707
 42
0.0
 10
131.4352159794544
 20
89.12052592376713
 42
0.0
 10
124.9352159794544
 20
89.12052592376713
 42
0.0
 10
124.9352159794544
 20
87.12052592376712
 42
0.0
 10
124.4352159794544
 20
86.4538592571005
 42
0.0
 97
       10
330
9ED2
330
9ECE
330
9ECC
330
9EC5
330
9EF1
330
9ED1
330
9EEF
330
9EE7
330
9EDC
330
9EC8
 92
        7
 72
     0
 73
     1
 93
        4
 10
124.4352159794544
 20
86.45385925710048
 10
123.4352159794544
 20
85.12052592376713
 10
123.4352159794544
 20
79.334889551216
 10
124.4352159794544
 20
78.75753928202638
 97
        4
330
9ED1
330
9ECB
330
9EE7
330
9EEF
 92
        7
 72
     0
 73
     1
 93
        6
 10
124.4352159794544
 20
69.51993497499244
 10
124.4352159794544
 20
65.78719259043374
 10
124.9352159794543
 20
65.12052592376713
 10
130.8152159794543
 20
65.12052592376713
 10
131.8180363024822
 20
66.85746167411406
 10
130.432395656427
 20
66.05746167411384
 97
        5
330
9EF4
330
9EF3
330
9EC6
330
9EDC
330
9EE8
 92
        7
 72
     0
 73
     1
 93
        4
 10
124.4352159794544
 20
69.51993497499244
 10
123.4352159794544
 20
70.09728524418204
 10
123.4352159794544
 20
67.12052592376704
 10
124.4352159794544
 20
65.78719259043371
 97
        4
330
9EE8
330
9ECB
330
9EF3
330
9EF4
 75
     0
 76
     1
 52
0.0
 41
0.5
 77
     0
 78
     1
 53
45.0
 43
-245.3999254604078
 44
86.25220707410447
 45
-1.122532015133643
 46
1.122532015133644
 79
     0
 47
0.1225542396023585
 98
        6
 10
54.09259349345069
 20
78.29823725060984
 10
54.82850988883768
 20
77.93057504569898
 10
125.5990106152257
 20
80.74932178966193
 10
124.1271801427956
 20
81.8523111240913
 10
126.0896207727027
 20
67.14580117008196
 10
124.004528183012
 20
67.63601834986204
  0
MTEXT
  5
A0B7
330
18
100
AcDbEntity
  8
0
100
AcDbMText
 10
49.81948278949767
 20
19.3739983431626
 30
0.0
 40
5.0
 41
0.0
 71
     1
 72
     5
  1
\Ftxt.shx,bigfont.shx|c128;小柳
  7
JL
 73
     1
 44
1.0
  0
ENDSEC
  0
SECTION
  2
OBJECTS
  0
DICTIONARY
  5
C
330
0
100
AcDbDictionary
281
     1
  3
ACAD_COLOR
350
A0BB
  3
ACAD_GROUP
350
D
  3
ACAD_LAYOUT
350
5CF3
  3
ACAD_MATERIAL
350
A0BA
  3
ACAD_MLINESTYLE
350
1B
  3
ACAD_PLOTSETTINGS
350
5CF4
  3
ACAD_PLOTSTYLENAME
350
5CF1
  3
ACAD_TABLESTYLE
350
A0BC
  3
ACDBVARIABLEDICTIONARY
350
45D
  0
DICTIONARY
  5
45F
330
18
100
AcDbDictionary
280
     1
281
     1
  3
ACAD_LAYOUTSELFREF
360
5D8B
  3
ACAD_SORTENTS
360
460
  0
DICTIONARY
  5
5D89
330
15
100
AcDbDictionary
280
     1
281
     1
  3
ACAD_LAYOUTSELFREF
360
5D8A
  0
DICTIONARY
  5
A0BB
102
{ACAD_REACTORS
330
C
102
}
330
C
100
AcDbDictionary
281
     1
  0
DICTIONARY
  5
D
102
{ACAD_REACTORS
330
C
102
}
330
C
100
AcDbDictionary
281
     1
  0
DICTIONARY
  5
5CF3
102
{ACAD_REACTORS
330
C
102
}
330
C
100
AcDbDictionary
281
     1
  3
Model
350
5CF5
  3
配置1
350
5CF6
  0
DICTIONARY
  5
A0BA
102
{ACAD_REACTORS
330
C
102
}
330
C
100
AcDbDictionary
281
     1
  0
DICTIONARY
  5
1B
102
{ACAD_REACTORS
330
C
102
}
330
C
100
AcDbDictionary
281
     1
  3
STANDARD
350
1C
  0
DICTIONARY
  5
5CF4
102
{ACAD_REACTORS
330
C
102
}
330
C
100
AcDbDictionary
281
     1
  0
ACDBDICTIONARYWDFLT
  5
5CF1
102
{ACAD_REACTORS
330
C
102
}
330
C
100
AcDbDictionary
281
     1
  3
Normal
350
5CF2
100
AcDbDictionaryWithDefault
340
5CF2
  0
DICTIONARY
  5
A0BC
102
{ACAD_REACTORS
330
C
102
}
330
C
100
AcDbDictionary
281
     1
  3
Standard
350
A0BD
  0
DICTIONARY
  5
45D
102
{ACAD_REACTORS
330
C
102
}
330
C
100
AcDbDictionary
281
     1
  3
CTABLESTYLE
350
A0C5
  3
SORTENTS
350
45E
  0
XRECORD
  5
5D8B
102
{ACAD_REACTORS
330
45F
102
}
330
45F
100
AcDbXrecord
280
     1
340
18
  0
SORTENTSTABLE
  5
460
102
{ACAD_REACTORS
330
45F
102
}
330
45F
100
AcDbSortentsTable
330
18
331
C0
  5
CB
  0
XRECORD
  5
5D8A
102
{ACAD_REACTORS
330
5D89
102
}
330
5D89
100
AcDbXrecord
280
     1
340
15
  0
LAYOUT
  5
5CF5
102
{ACAD_REACTORS
330
5CF3
102
}
330
5CF3
100
AcDbPlotSettings
  1

  2
EPSON STYLUS COLOR 440
  4

  6

 40
0.0
 41
0.0
 42
0.0
 43
0.0
 44
0.0
 45
0.0
 46
0.0
 47
0.0
 48
0.0
 49
0.0
140
0.0
141
0.0
142
1.0
143
1.0
 70
  1712
 72
     0
 73
     0
 74
     0
  7
a.ctb
 75
     0
147
1.0
 76
     0
 77
     2
 78
   300
148
0.0
149
0.0
100
AcDbLayout
  1
Model
 70
     1
 71
     0
 10
0.0
 20
0.0
 11
12.0
 21
9.0
 12
0.0
 22
0.0
 32
0.0
 14
0.0
 24
0.0
 34
0.0
 15
0.0
 25
0.0
 35
0.0
146
0.0
 13
0.0
 23
0.0
 33
0.0
 16
1.0
 26
0.0
 36
0.0
 17
0.0
 27
1.0
 37
0.0
 76
     0
330
18
  0
LAYOUT
  5
5CF6
102
{ACAD_REACTORS
330
5CF3
102
}
330
5CF3
100
AcDbPlotSettings
  1

  2
EPSON STYLUS COLOR 440
  4

  6

 40
0.0
 41
0.0
 42
0.0
 43
0.0
 44
0.0
 45
0.0
 46
0.0
 47
0.0
 48
0.0
 49
0.0
140
0.0
141
0.0
142
1.0
143
1.0
 70
   688
 72
     0
 73
     0
 74
     5
  7
a.ctb
 75
    16
147
1.0
 76
     0
 77
     2
 78
   300
148
0.0
149
0.0
100
AcDbLayout
  1
ｰtｸm1
 70
     1
 71
     1
 10
0.0
 20
0.0
 11
420.0
 21
297.0
 12
0.0
 22
0.0
 32
0.0
 14
1.000000000000000E+20
 24
1.000000000000000E+20
 34
1.000000000000000E+20
 15
-1.000000000000000E+20
 25
-1.000000000000000E+20
 35
-1.000000000000000E+20
146
0.0
 13
0.0
 23
0.0
 33
0.0
 16
1.0
 26
0.0
 36
0.0
 17
0.0
 27
1.0
 37
0.0
 76
     0
330
15
  0
MLINESTYLE
  5
1C
102
{ACAD_REACTORS
330
1B
102
}
330
1B
100
AcDbMlineStyle
  2
STANDARD
 70
     0
  3

 62
   256
 51
90.0
 52
90.0
 71
     2
 49
0.5
 62
   256
  6
BYLAYER
 49
-0.5
 62
   256
  6
BYLAYER
  0
ACDBPLACEHOLDER
  5
5CF2
102
{ACAD_REACTORS
330
5CF1
102
}
330
5CF1
  0
TABLESTYLE
  5
A0BD
102
{ACAD_REACTORS
330
A0BC
102
}
330
A0BC
100
AcDbTableStyle
  3
Standard
 70
     0
 71
     8
 40
1.5
 41
1.5
280
     0
281
     0
  7
STANDARD
140
4.5
170
     2
 62
     0
 63
     7
283
     0
274
    -2
284
     1
 64
     0
275
    -2
285
     1
 65
     0
276
    -2
286
     1
 66
     0
277
    -2
287
     1
 67
     0
278
    -2
288
     1
 68
     0
279
    -2
289
     1
 69
     0
  7
STANDARD
140
6.0
170
     5
 62
     0
 63
     7
283
     0
274
    -2
284
     1
 64
     0
275
    -2
285
     1
 65
     0
276
    -2
286
     1
 66
     0
277
    -2
287
     1
 67
     0
278
    -2
288
     1
 68
     0
279
    -2
289
     1
 69
     0
  7
STANDARD
140
4.5
170
     5
 62
     0
 63
     7
283
     0
274
    -2
284
     1
 64
     0
275
    -2
285
     1
 65
     0
276
    -2
286
     1
 66
     0
277
    -2
287
     1
 67
     0
278
    -2
288
     1
 68
     0
279
    -2
289
     1
 69
     0
  0
DICTIONARYVAR
  5
A0C5
102
{ACAD_REACTORS
330
45D
102
}
330
45D
100
DictionaryVariables
280
     0
  1
STANDARD
  0
DICTIONARYVAR
  5
45E
102
{ACAD_REACTORS
330
45D
102
}
330
45D
100
DictionaryVariables
280
     0
  1
127
  0
ENDSEC
  0
EOF
