  0
SECTION
  2
HEADER
  9
$ACADVER
  1
AC1018
  9
$ACADMAINTVER
 70
    76
  9
$DWGCODEPAGE
  3
ANSI_932
  9
$INSBASE
 10
0.0
 20
0.0
 30
0.0
  9
$EXTMIN
 10
-0.0000000000002274
 20
-0.0000000000000568
 30
0.0
  9
$EXTMAX
 10
197.9999999999997
 20
290.0
 30
4.0
  9
$LIMMIN
 10
0.0
 20
0.0
  9
$LIMMAX
 10
420.0
 20
297.0
  9
$ORTHOMODE
 70
     0
  9
$REGENMODE
 70
     1
  9
$FILLMODE
 70
     1
  9
$QTEXTMODE
 70
     0
  9
$MIRRTEXT
 70
     1
  9
$LTSCALE
 40
1.0
  9
$ATTMODE
 70
     1
  9
$TEXTSIZE
 40
2.5
  9
$TRACEWID
 40
1.0
  9
$TEXTSTYLE
  7
TXT
  9
$CLAYER
  8
DIM
  9
$CELTYPE
  6
BYLAYER
  9
$CECOLOR
 62
   256
  9
$CELTSCALE
 40
1.0
  9
$DISPSILH
 70
     0
  9
$DIMSCALE
 40
1.0
  9
$DIMASZ
 40
2.5
  9
$DIMEXO
 40
1.0
  9
$DIMDLI
 40
6.0
  9
$DIMRND
 40
0.0
  9
$DIMDLE
 40
0.0
  9
$DIMEXE
 40
1.0
  9
$DIMTP
 40
0.0
  9
$DIMTM
 40
0.0
  9
$DIMTXT
 40
3.0
  9
$DIMCEN
 40
0.0
  9
$DIMTSZ
 40
0.0
  9
$DIMTOL
 70
     0
  9
$DIMLIM
 70
     0
  9
$DIMTIH
 70
     0
  9
$DIMTOH
 70
     0
  9
$DIMSE1
 70
     0
  9
$DIMSE2
 70
     0
  9
$DIMTAD
 70
     3
  9
$DIMZIN
 70
     8
  9
$DIMBLK
  1

  9
$DIMASO
 70
     1
  9
$DIMSHO
 70
     1
  9
$DIMPOST
  1

  9
$DIMAPOST
  1

  9
$DIMALT
 70
     0
  9
$DIMALTD
 70
     2
  9
$DIMALTF
 40
25.4
  9
$DIMLFAC
 40
1.0
  9
$DIMTOFL
 70
     0
  9
$DIMTVP
 40
0.0
  9
$DIMTIX
 70
     0
  9
$DIMSOXD
 70
     0
  9
$DIMSAH
 70
     0
  9
$DIMBLK1
  1

  9
$DIMBLK2
  1

  9
$DIMSTYLE
  2
A
  9
$DIMCLRD
 70
     6
  9
$DIMCLRE
 70
     6
  9
$DIMCLRT
 70
     3
  9
$DIMTFAC
 40
1.0
  9
$DIMGAP
 40
1.0
  9
$DIMJUST
 70
     0
  9
$DIMSD1
 70
     0
  9
$DIMSD2
 70
     0
  9
$DIMTOLJ
 70
     1
  9
$DIMTZIN
 70
     0
  9
$DIMALTZ
 70
     0
  9
$DIMALTTZ
 70
     0
  9
$DIMUPT
 70
     0
  9
$DIMDEC
 70
     1
  9
$DIMTDEC
 70
     1
  9
$DIMALTU
 70
     2
  9
$DIMALTTD
 70
     2
  9
$DIMTXSTY
  7
TXT
  9
$DIMAUNIT
 70
     0
  9
$DIMADEC
 70
     0
  9
$DIMALTRND
 40
0.0
  9
$DIMAZIN
 70
     0
  9
$DIMDSEP
 70
    46
  9
$DIMATFIT
 70
     3
  9
$DIMFRAC
 70
     0
  9
$DIMLDRBLK
  1

  9
$DIMLUNIT
 70
     2
  9
$DIMLWD
 70
    -2
  9
$DIMLWE
 70
    -2
  9
$DIMTMOVE
 70
     1
  9
$LUNITS
 70
     2
  9
$LUPREC
 70
     2
  9
$SKETCHINC
 40
1.0
  9
$FILLETRAD
 40
1.5
  9
$AUNITS
 70
     0
  9
$AUPREC
 70
     2
  9
$MENU
  1
.
  9
$ELEVATION
 40
0.0
  9
$PELEVATION
 40
0.0
  9
$THICKNESS
 40
0.0
  9
$LIMCHECK
 70
     0
  9
$CHAMFERA
 40
0.0
  9
$CHAMFERB
 40
0.0
  9
$CHAMFERC
 40
1.75
  9
$CHAMFERD
 40
0.0174532925199433
  9
$SKPOLY
 70
     0
  9
$TDCREATE
 40
2451555.620234838
  9
$TDUCREATE
 40
2451555.245234838
  9
$TDUPDATE
 40
2455846.606805463
  9
$TDUUPDATE
 40
2455846.231805463
  9
$TDINDWG
 40
2.7935500463
  9
$TDUSRTIMER
 40
2.7935500463
  9
$USRTIMER
 70
     1
  9
$ANGBASE
 50
0.0
  9
$ANGDIR
 70
     0
  9
$PDMODE
 70
     0
  9
$PDSIZE
 40
0.0
  9
$PLINEWID
 40
0.0
  9
$SPLFRAME
 70
     0
  9
$SPLINETYPE
 70
     6
  9
$SPLINESEGS
 70
     8
  9
$HANDSEED
  5
A039
  9
$SURFTAB1
 70
     6
  9
$SURFTAB2
 70
     6
  9
$SURFTYPE
 70
     6
  9
$SURFU
 70
     6
  9
$SURFV
 70
     6
  9
$UCSBASE
  2

  9
$UCSNAME
  2

  9
$UCSORG
 10
0.0
 20
0.0
 30
0.0
  9
$UCSXDIR
 10
1.0
 20
0.0
 30
0.0
  9
$UCSYDIR
 10
0.0
 20
1.0
 30
0.0
  9
$UCSORTHOREF
  2

  9
$UCSORTHOVIEW
 70
     0
  9
$UCSORGTOP
 10
0.0
 20
0.0
 30
0.0
  9
$UCSORGBOTTOM
 10
0.0
 20
0.0
 30
0.0
  9
$UCSORGLEFT
 10
0.0
 20
0.0
 30
0.0
  9
$UCSORGRIGHT
 10
0.0
 20
0.0
 30
0.0
  9
$UCSORGFRONT
 10
0.0
 20
0.0
 30
0.0
  9
$UCSORGBACK
 10
0.0
 20
0.0
 30
0.0
  9
$PUCSBASE
  2

  9
$PUCSNAME
  2

  9
$PUCSORG
 10
0.0
 20
0.0
 30
0.0
  9
$PUCSXDIR
 10
1.0
 20
0.0
 30
0.0
  9
$PUCSYDIR
 10
0.0
 20
1.0
 30
0.0
  9
$PUCSORTHOREF
  2

  9
$PUCSORTHOVIEW
 70
     0
  9
$PUCSORGTOP
 10
0.0
 20
0.0
 30
0.0
  9
$PUCSORGBOTTOM
 10
0.0
 20
0.0
 30
0.0
  9
$PUCSORGLEFT
 10
0.0
 20
0.0
 30
0.0
  9
$PUCSORGRIGHT
 10
0.0
 20
0.0
 30
0.0
  9
$PUCSORGFRONT
 10
0.0
 20
0.0
 30
0.0
  9
$PUCSORGBACK
 10
0.0
 20
0.0
 30
0.0
  9
$USERI1
 70
     0
  9
$USERI2
 70
     0
  9
$USERI3
 70
     0
  9
$USERI4
 70
     0
  9
$USERI5
 70
     0
  9
$USERR1
 40
0.0
  9
$USERR2
 40
0.0
  9
$USERR3
 40
0.0
  9
$USERR4
 40
0.0
  9
$USERR5
 40
0.0
  9
$WORLDVIEW
 70
     1
  9
$SHADEDGE
 70
     3
  9
$SHADEDIF
 70
    70
  9
$TILEMODE
 70
     1
  9
$MAXACTVP
 70
    48
  9
$PINSBASE
 10
0.0
 20
0.0
 30
0.0
  9
$PLIMCHECK
 70
     0
  9
$PEXTMIN
 10
1.000000000000000E+20
 20
1.000000000000000E+20
 30
1.000000000000000E+20
  9
$PEXTMAX
 10
-1.000000000000000E+20
 20
-1.000000000000000E+20
 30
-1.000000000000000E+20
  9
$PLIMMIN
 10
0.0
 20
0.0
  9
$PLIMMAX
 10
420.0
 20
297.0
  9
$UNITMODE
 70
     0
  9
$VISRETAIN
 70
     1
  9
$PLINEGEN
 70
     0
  9
$PSLTSCALE
 70
     1
  9
$TREEDEPTH
 70
  3020
  9
$CMLSTYLE
  2
STANDARD
  9
$CMLJUST
 70
     0
  9
$CMLSCALE
 40
20.0
  9
$PROXYGRAPHICS
 70
     1
  9
$MEASUREMENT
 70
     1
  9
$CELWEIGHT
370
    -1
  9
$ENDCAPS
280
     0
  9
$JOINSTYLE
280
     0
  9
$LWDISPLAY
290
     0
  9
$INSUNITS
 70
     0
  9
$HYPERLINKBASE
  1

  9
$STYLESHEET
  1
LIN.ctb
  9
$XEDIT
290
     1
  9
$CEPSNTYPE
380
     0
  9
$PSTYLEMODE
290
     1
  9
$FINGERPRINTGUID
  2
{1CF51E8A-A506-11D4-A7D9-AF69F5C20846}
  9
$VERSIONGUID
  2
{77C3CC34-EB2E-411E-A653-610F6F32893D}
  9
$EXTNAMES
290
     1
  9
$PSVPSCALE
 40
0.0
  9
$OLESTARTUP
290
     0
  9
$SORTENTS
280
   127
  9
$INDEXCTL
280
     0
  9
$HIDETEXT
280
     0
  9
$XCLIPFRAME
290
     0
  9
$HALOGAP
280
     0
  9
$OBSCOLOR
 70
   257
  9
$OBSLTYPE
280
     0
  9
$INTERSECTIONDISPLAY
280
     0
  9
$INTERSECTIONCOLOR
 70
   257
  9
$DIMASSOC
280
     1
  9
$PROJECTNAME
  1

  0
ENDSEC
  0
SECTION
  2
CLASSES
  0
CLASS
  1
DICTIONARYVAR
  2
AcDbDictionaryVar
  3
ObjectDBX Classes
 90
        0
 91
        2
280
     0
281
     0
  0
CLASS
  1
SORTENTSTABLE
  2
AcDbSortentsTable
  3
ObjectDBX Classes
 90
        0
 91
        2
280
     0
281
     0
  0
CLASS
  1
ACDBDICTIONARYWDFLT
  2
AcDbDictionaryWithDefault
  3
ObjectDBX Classes
 90
        0
 91
        1
280
     0
281
     0
  0
CLASS
  1
TABLESTYLE
  2
AcDbTableStyle
  3
ObjectDBX Classes
 90
     2047
 91
        1
280
     0
281
     0
  0
ENDSEC
  0
SECTION
  2
TABLES
  0
TABLE
  2
VPORT
  5
8
330
0
100
AcDbSymbolTable
 70
     2
  0
VPORT
  5
A038
330
8
100
AcDbSymbolTableRecord
100
AcDbViewportTableRecord
  2
*Active
 70
     0
 10
0.0
 20
0.0
 11
1.0
 21
1.0
 12
130.9910091542464
 22
135.940743545457
 13
0.0
 23
0.0
 14
10.0
 24
10.0
 15
10.0
 25
10.0
 16
0.0
 26
0.0
 36
1.0
 17
0.0
 27
0.0
 37
0.0
 40
293.3321753156855
 41
2.47104247104247
 42
50.0
 43
0.0
 44
0.0
 50
0.0
 51
0.0
 71
     0
 72
   100
 73
     1
 74
     1
 75
     0
 76
     0
 77
     0
 78
     0
281
     0
 65
     1
110
0.0
120
0.0
130
0.0
111
1.0
121
0.0
131
0.0
112
0.0
122
1.0
132
0.0
 79
     0
146
0.0
  0
ENDTAB
  0
TABLE
  2
LTYPE
  5
5
330
0
100
AcDbSymbolTable
 70
     7
  0
LTYPE
  5
12
330
5
100
AcDbSymbolTableRecord
100
AcDbLinetypeTableRecord
  2
BYBLOCK
 70
     0
  3

 72
    65
 73
     0
 40
0.0
  0
LTYPE
  5
13
330
5
100
AcDbSymbolTableRecord
100
AcDbLinetypeTableRecord
  2
BYLAYER
 70
     0
  3

 72
    65
 73
     0
 40
0.0
  0
LTYPE
  5
14
330
5
100
AcDbSymbolTableRecord
100
AcDbLinetypeTableRecord
  2
CONTINUOUS
 70
     0
  3
Solid line
 72
    65
 73
     0
 40
0.0
  0
LTYPE
  5
9D
330
5
100
AcDbSymbolTableRecord
100
AcDbLinetypeTableRecord
  2
CENTERX2
 70
     0
  3
Center (2x) ________  __  ________  __  _____
 72
    65
 73
     4
 40
101.6
 49
63.5
 74
     0
 49
-12.7
 74
     0
 49
12.7
 74
     0
 49
-12.7
 74
     0
  0
LTYPE
  5
A1
330
5
100
AcDbSymbolTableRecord
100
AcDbLinetypeTableRecord
  2
DASHED
 70
     0
  3
Dashed __ __ __ __ __ __ __ __ __ __ __ __ __ _
 72
    65
 73
     2
 40
19.05
 49
12.7
 74
     0
 49
-6.349999999999999
 74
     0
  0
LTYPE
  5
A2
330
5
100
AcDbSymbolTableRecord
100
AcDbLinetypeTableRecord
  2
DASHED2
 70
     0
  3
Dashed (.5x) _ _ _ _ _ _ _ _ _ _ _ _ _ _ _ _ _
 72
    65
 73
     2
 40
9.524999999999998
 49
6.349999999999999
 74
     0
 49
-3.174999999999999
 74
     0
  0
LTYPE
  5
A5
330
5
100
AcDbSymbolTableRecord
100
AcDbLinetypeTableRecord
  2
DIVIDE2
 70
     0
  3
Divide (.5x) __..__..__..__..__..__..__..__.._
 72
    65
 73
     6
 40
15.875
 49
6.349999999999999
 74
     0
 49
-3.174999999999999
 74
     0
 49
0.0
 74
     0
 49
-3.174999999999999
 74
     0
 49
0.0
 74
     0
 49
-3.174999999999999
 74
     0
  0
LTYPE
  5
650B
330
5
100
AcDbSymbolTableRecord
100
AcDbLinetypeTableRecord
  2
CENTER
 70
     0
  3
Center ____ _ ____ _ ____ _ ____ _ ____ _ ____
 72
    65
 73
     4
 40
50.8
 49
31.75
 74
     0
 49
-6.349999999999999
 74
     0
 49
6.349999999999999
 74
     0
 49
-6.349999999999999
 74
     0
  0
LTYPE
  5
650C
330
5
100
AcDbSymbolTableRecord
100
AcDbLinetypeTableRecord
  2
HIDDEN
 70
     0
  3
Hidden __ __ __ __ __ __ __ __ __ __ __ __ __ _
 72
    65
 73
     2
 40
9.524999999999998
 49
6.349999999999999
 74
     0
 49
-3.174999999999999
 74
     0
  0
ENDTAB
  0
TABLE
  2
LAYER
  5
2
330
0
100
AcDbSymbolTable
 70
     9
  0
LAYER
  5
E
330
2
100
AcDbSymbolTableRecord
100
AcDbLayerTableRecord
  2
0
 70
     0
 62
     7
  6
CONTINUOUS
370
    -3
390
5CF2
  0
LAYER
  5
B9
330
2
100
AcDbSymbolTableRecord
100
AcDbLayerTableRecord
  2
DIM
 70
     0
 62
     3
  6
CONTINUOUS
370
    -3
390
5CF2
  0
LAYER
  5
F2
330
2
100
AcDbSymbolTableRecord
100
AcDbLayerTableRecord
  2
DEFPOINTS
 70
     0
 62
     4
  6
CONTINUOUS
290
     0
370
    -3
390
5CF2
  0
LAYER
  5
5F8B
330
2
100
AcDbSymbolTableRecord
100
AcDbLayerTableRecord
  2
公差
 70
     0
 62
     6
  6
CONTINUOUS
370
    -3
390
5CF2
  0
LAYER
  5
644E
330
2
100
AcDbSymbolTableRecord
100
AcDbLayerTableRecord
  2
図框線
 70
     0
 62
     9
  6
CONTINUOUS
370
    -3
390
5CF2
  0
LAYER
  5
650D
330
2
100
AcDbSymbolTableRecord
100
AcDbLayerTableRecord
  2
中心線
 70
     0
 62
     1
  6
CENTER
370
    -3
390
5CF2
  0
LAYER
  5
650E
330
2
100
AcDbSymbolTableRecord
100
AcDbLayerTableRecord
  2
本体内線
 70
     0
 62
     4
  6
HIDDEN
370
    -3
390
5CF2
  0
LAYER
  5
650F
330
2
100
AcDbSymbolTableRecord
100
AcDbLayerTableRecord
  2
本体外線
 70
     0
 62
     2
  6
CONTINUOUS
370
    -3
390
5CF2
  0
LAYER
  5
6510
330
2
100
AcDbSymbolTableRecord
100
AcDbLayerTableRecord
  2
剖面線
 70
     0
 62
     5
  6
CONTINUOUS
370
    -3
390
5CF2
  0
ENDTAB
  0
TABLE
  2
STYLE
  5
3
330
0
100
AcDbSymbolTable
 70
     5
  0
STYLE
  5
F
330
3
100
AcDbSymbolTableRecord
100
AcDbTextStyleTableRecord
  2
STANDARD
 70
     0
 40
0.0
 41
1.0
 50
0.0
 71
     0
 42
2.5
  3
txt
  4

  0
STYLE
  5
BE
330
3
100
AcDbSymbolTableRecord
100
AcDbTextStyleTableRecord
  2
ISOCP3
 70
     0
 40
0.0
 41
1.0
 50
0.0
 71
     0
 42
2.5
  3
isocp3.shx
  4

  0
STYLE
  5
2A37
330
3
100
AcDbSymbolTableRecord
100
AcDbTextStyleTableRecord
  2
TXT
 70
     0
 40
0.0
 41
1.0
 50
0.0
 71
     0
 42
2.5
  3
txt.shx
  4
bigfont.shx
  0
STYLE
  5
5DCB
330
3
100
AcDbSymbolTableRecord
100
AcDbTextStyleTableRecord
  2
LKK
 70
     0
 40
50.0
 41
1.5
 50
0.0
 71
     0
 42
50.0
  3
MS PGothic.ttf
  4

1001
ACAD
1000
MS PGothic
1071
    32818
  0
STYLE
  5
5DCC
330
3
100
AcDbSymbolTableRecord
100
AcDbTextStyleTableRecord
  2
JL
 70
     0
 40
10.0
 41
0.5
 50
0.0
 71
     0
 42
5.0
  3
MS Mincho.ttf
  4

1001
ACAD
1000
MS Mincho
1071
    32785
  0
ENDTAB
  0
TABLE
  2
VIEW
  5
6
330
0
100
AcDbSymbolTable
 70
     0
  0
ENDTAB
  0
TABLE
  2
UCS
  5
7
330
0
100
AcDbSymbolTable
 70
     0
  0
ENDTAB
  0
TABLE
  2
APPID
  5
9
330
0
100
AcDbSymbolTable
 70
     2
  0
APPID
  5
10
330
9
100
AcDbSymbolTableRecord
100
AcDbRegAppTableRecord
  2
ACAD
 70
     0
  0
APPID
  5
9FFB
330
9
100
AcDbSymbolTableRecord
100
AcDbRegAppTableRecord
  2
ACAD_PSEXT
 70
     0
  0
ENDTAB
  0
TABLE
  2
DIMSTYLE
  5
A
330
0
100
AcDbSymbolTable
 70
     3
100
AcDbDimStyleTable
 71
     1
340
1A4
  0
DIMSTYLE
105
1D
330
A
100
AcDbSymbolTableRecord
100
AcDbDimStyleTableRecord
  2
STANDARD
 70
     0
 41
3.0
 42
0.06
 77
     3
140
4.0
144
0.3333333333333333
172
     1
340
F
  0
DIMSTYLE
105
1A4
102
{ACAD_REACTORS
330
6770
330
6C92
330
6CAA
330
6F74
330
74C6
330
750D
330
7568
330
7575
330
7AD6
330
9E42
330
9E43
330
9FA8
102
}
330
A
100
AcDbSymbolTableRecord
100
AcDbDimStyleTableRecord
  2
A
 70
     0
 41
2.5
 42
1.0
 43
6.0
 44
1.0
 73
     0
 74
     0
 77
     3
 78
     8
140
3.0
141
0.0
147
1.0
176
     6
177
     6
178
     3
271
     1
272
     1
279
     1
340
2A37
  0
DIMSTYLE
105
6006
330
A
100
AcDbSymbolTableRecord
100
AcDbDimStyleTableRecord
  2
ISO-25
 70
     0
 40
0.0
 41
2.0
 42
0.3
 43
1.0
 44
0.3
 73
     0
 74
     0
 77
     1
 78
     8
140
3.0
147
1.0
172
     1
176
     6
177
     6
178
     3
271
     1
272
     2
284
     8
288
     1
289
     2
340
F
  0
ENDTAB
  0
TABLE
  2
BLOCK_RECORD
  5
1
330
0
100
AcDbSymbolTable
 70
    14
  0
BLOCK_RECORD
  5
18
102
{ACAD_XDICTIONARY
360
45F
102
}
330
1
100
AcDbSymbolTableRecord
100
AcDbBlockTableRecord
  2
*MODEL_SPACE
340
5CF5
  0
BLOCK_RECORD
  5
15
102
{ACAD_XDICTIONARY
360
5D89
102
}
330
1
100
AcDbSymbolTableRecord
100
AcDbBlockTableRecord
  2
*PAPER_SPACE
340
5CF6
  0
BLOCK_RECORD
  5
639D
330
1
100
AcDbSymbolTableRecord
100
AcDbBlockTableRecord
  2
A$C255C26A2
340
0
102
{BLKREFS
331
63A3
102
}
  0
BLOCK_RECORD
  5
67BC
330
1
100
AcDbSymbolTableRecord
100
AcDbBlockTableRecord
  2
*D1
340
0
  0
BLOCK_RECORD
  5
6C86
330
1
100
AcDbSymbolTableRecord
100
AcDbBlockTableRecord
  2
*D2
340
0
  0
BLOCK_RECORD
  5
6C9E
330
1
100
AcDbSymbolTableRecord
100
AcDbBlockTableRecord
  2
*D3
340
0
  0
BLOCK_RECORD
  5
6FE3
330
1
100
AcDbSymbolTableRecord
100
AcDbBlockTableRecord
  2
*D4
340
0
  0
BLOCK_RECORD
  5
74B6
330
1
100
AcDbSymbolTableRecord
100
AcDbBlockTableRecord
  2
*D5
340
0
  0
BLOCK_RECORD
  5
7501
330
1
100
AcDbSymbolTableRecord
100
AcDbBlockTableRecord
  2
*D6
340
0
  0
BLOCK_RECORD
  5
755C
330
1
100
AcDbSymbolTableRecord
100
AcDbBlockTableRecord
  2
*D7
340
0
  0
BLOCK_RECORD
  5
7569
330
1
100
AcDbSymbolTableRecord
100
AcDbBlockTableRecord
  2
*D8
340
0
  0
BLOCK_RECORD
  5
7AC6
330
1
100
AcDbSymbolTableRecord
100
AcDbBlockTableRecord
  2
*D9
340
0
  0
BLOCK_RECORD
  5
9E46
330
1
100
AcDbSymbolTableRecord
100
AcDbBlockTableRecord
  2
*D10
340
0
  0
BLOCK_RECORD
  5
9E54
330
1
100
AcDbSymbolTableRecord
100
AcDbBlockTableRecord
  2
*D11
340
0
  0
BLOCK_RECORD
  5
9F9A
330
1
100
AcDbSymbolTableRecord
100
AcDbBlockTableRecord
  2
*D12
340
0
  0
BLOCK_RECORD
  5
A012
330
1
100
AcDbSymbolTableRecord
100
AcDbBlockTableRecord
  2
_DOTSMALL
340
0
  0
ENDTAB
  0
ENDSEC
  0
SECTION
  2
BLOCKS
  0
BLOCK
  5
19
330
18
100
AcDbEntity
  8
0
100
AcDbBlockBegin
  2
*MODEL_SPACE
 70
     0
 10
0.0
 20
0.0
 30
0.0
  3
*MODEL_SPACE
  1

  0
ENDBLK
  5
1A
330
18
100
AcDbEntity
  8
0
100
AcDbBlockEnd
  0
BLOCK
  5
16
330
15
100
AcDbEntity
 67
     1
  8
0
100
AcDbBlockBegin
  2
*PAPER_SPACE
 70
     0
 10
0.0
 20
0.0
 30
0.0
  3
*PAPER_SPACE
  1

  0
ENDBLK
  5
17
330
15
100
AcDbEntity
 67
     1
  8
0
100
AcDbBlockEnd
  0
BLOCK
  5
63A1
330
639D
100
AcDbEntity
  8
0
100
AcDbBlockBegin
  2
A$C255C26A2
 70
     0
 10
0.0
 20
0.0
 30
0.0
  3
A$C255C26A2
  1

  0
LWPOLYLINE
  5
639E
330
639D
100
AcDbEntity
  8
0
100
AcDbPolyline
 90
        3
 70
     1
 43
0.0
 10
7.014806023851633
 20
0.0000006939811783
 10
5.611844869720698
 20
2.430000693981241
 10
8.417767177982568
 20
2.430000693981241
  0
LWPOLYLINE
  5
639F
330
639D
100
AcDbEntity
  8
0
100
AcDbPolyline
 90
        3
 70
     1
 43
0.0
 10
4.20888371558999
 20
0.0000006939811783
 10
2.805922561459283
 20
2.430000693981241
 10
5.611844869720698
 20
2.430000693981241
  0
LWPOLYLINE
  5
63A0
330
639D
100
AcDbEntity
  8
0
100
AcDbPolyline
 90
        3
 70
     1
 43
0.0
 10
1.402961407328348
 20
0.0000006939811783
 10
0.0000002531974133
 20
2.430000693981241
 10
2.805922561459283
 20
2.430000693981241
  0
ENDBLK
  5
63A2
330
639D
100
AcDbEntity
  8
0
100
AcDbBlockEnd
  0
BLOCK
  5
9FC1
330
67BC
100
AcDbEntity
  8
0
100
AcDbBlockBegin
  2
*D1
 70
     1
 10
0.0
 20
0.0
 30
0.0
  3
*D1
  1

  0
LINE
  5
9FC2
330
67BC
100
AcDbEntity
  8
0
  6
ByBlock
 62
     6
100
AcDbLine
 10
297.3351414398623
 20
48.19440964157827
 30
0.0
 11
297.3351414398623
 21
30.57652357482535
 31
0.0
  0
LINE
  5
9FC3
330
67BC
100
AcDbEntity
  8
0
  6
ByBlock
 62
     6
100
AcDbLine
 10
372.3351414398623
 20
48.19440964157823
 30
0.0
 11
372.3351414398623
 21
30.57652357482535
 31
0.0
  0
LINE
  5
9FC4
330
67BC
100
AcDbEntity
  8
0
  6
ByBlock
 62
     6
100
AcDbLine
 10
299.8351414398623
 20
31.57652357482535
 30
0.0
 11
369.8351414398623
 21
31.57652357482535
 31
0.0
  0
MTEXT
  5
9FC5
330
67BC
100
AcDbEntity
  8
0
  6
ByBlock
 62
     3
100
AcDbMText
 10
334.8351414398619
 20
34.07652357482535
 30
0.0
 40
3.0
 41
0.0
 71
     5
 72
     1
  1
\A1;M75X2.0P
  7
TXT
 73
     1
 44
1.0
  0
SOLID
  5
9FC6
330
67BC
100
AcDbEntity
  8
0
  6
ByBlock
 62
     6
100
AcDbTrace
 10
299.8351414398623
 20
31.99319024149201
 30
0.0
 11
299.8351414398623
 21
31.15985690815868
 31
0.0
 12
297.3351414398623
 22
31.57652357482535
 32
0.0
 13
297.3351414398623
 23
31.57652357482535
 33
0.0
  0
SOLID
  5
9FC7
330
67BC
100
AcDbEntity
  8
0
  6
ByBlock
 62
     6
100
AcDbTrace
 10
369.8351414398623
 20
31.99319024149201
 30
0.0
 11
369.8351414398623
 21
31.15985690815868
 31
0.0
 12
372.3351414398623
 22
31.57652357482535
 32
0.0
 13
372.3351414398623
 23
31.57652357482535
 33
0.0
  0
POINT
  5
9FC8
330
67BC
100
AcDbEntity
  8
DEFPOINTS
  6
ByBlock
 62
     0
100
AcDbPoint
 10
297.3351414398623
 20
49.19440964157827
 30
0.0
  0
POINT
  5
9FC9
330
67BC
100
AcDbEntity
  8
DEFPOINTS
  6
ByBlock
 62
     0
100
AcDbPoint
 10
372.3351414398623
 20
49.19440964157823
 30
0.0
  0
POINT
  5
9FCA
330
67BC
100
AcDbEntity
  8
DEFPOINTS
  6
ByBlock
 62
     0
100
AcDbPoint
 10
372.3351414398623
 20
31.57652357482535
 30
0.0
  0
ENDBLK
  5
9FCB
330
67BC
100
AcDbEntity
  8
0
100
AcDbBlockEnd
  0
BLOCK
  5
9F3E
330
6C86
100
AcDbEntity
  8
0
100
AcDbBlockBegin
  2
*D2
 70
     1
 10
0.0
 20
0.0
 30
0.0
  3
*D2
  1

  0
LINE
  5
9F3F
330
6C86
100
AcDbEntity
  8
0
  6
ByBlock
 62
     6
100
AcDbLine
 10
289.8351414398622
 20
73.5277429749116
 30
0.0
 11
289.8351414398622
 21
91.71896619306716
 31
0.0
  0
LINE
  5
9F40
330
6C86
100
AcDbEntity
  8
0
  6
ByBlock
 62
     6
100
AcDbLine
 10
379.8351414398622
 20
73.52774297491163
 30
0.0
 11
379.8351414398622
 21
91.71896619306716
 31
0.0
  0
LINE
  5
9F41
330
6C86
100
AcDbEntity
  8
0
  6
ByBlock
 62
     6
100
AcDbLine
 10
292.3351414398622
 20
90.71896619306716
 30
0.0
 11
377.3351414398622
 21
90.71896619306716
 31
0.0
  0
SOLID
  5
9F42
330
6C86
100
AcDbEntity
  8
0
  6
ByBlock
 62
     6
100
AcDbTrace
 10
292.3351414398622
 20
91.13563285973382
 30
0.0
 11
292.3351414398622
 21
90.30229952640048
 31
0.0
 12
289.8351414398622
 22
90.71896619306716
 32
0.0
 13
289.8351414398622
 23
90.71896619306716
 33
0.0
  0
SOLID
  5
9F43
330
6C86
100
AcDbEntity
  8
0
  6
ByBlock
 62
     6
100
AcDbTrace
 10
377.3351414398622
 20
91.13563285973382
 30
0.0
 11
377.3351414398622
 21
90.30229952640048
 31
0.0
 12
379.8351414398622
 22
90.71896619306716
 32
0.0
 13
379.8351414398622
 23
90.71896619306716
 33
0.0
  0
MTEXT
  5
9F44
330
6C86
100
AcDbEntity
  8
0
  6
ByBlock
 62
     3
100
AcDbMText
 10
334.8351414398623
 20
93.21896619306716
 30
0.0
 40
3.0
 41
0.0
 71
     5
 72
     1
  1
\A1;\U+220590±0.5
  7
TXT
 73
     1
 44
1.0
  0
POINT
  5
9F45
330
6C86
100
AcDbEntity
  8
DEFPOINTS
  6
ByBlock
 62
     0
100
AcDbPoint
 10
289.8351414398622
 20
72.52774297491161
 30
0.0
  0
POINT
  5
9F46
330
6C86
100
AcDbEntity
  8
DEFPOINTS
  6
ByBlock
 62
     0
100
AcDbPoint
 10
379.8351414398622
 20
72.52774297491163
 30
0.0
  0
POINT
  5
9F47
330
6C86
100
AcDbEntity
  8
DEFPOINTS
  6
ByBlock
 62
     0
100
AcDbPoint
 10
379.8351414398622
 20
90.71896619306716
 30
0.0
  0
ENDBLK
  5
9F48
330
6C86
100
AcDbEntity
  8
0
100
AcDbBlockEnd
  0
BLOCK
  5
9F33
330
6C9E
100
AcDbEntity
  8
0
100
AcDbBlockBegin
  2
*D3
 70
     1
 10
0.0
 20
0.0
 30
0.0
  3
*D3
  1

  0
LINE
  5
9F34
330
6C9E
100
AcDbEntity
  8
0
  6
ByBlock
 62
     6
100
AcDbLine
 10
285.8351414398622
 20
71.02774297491158
 30
0.0
 11
285.8351414398622
 21
97.22643628348208
 31
0.0
  0
LINE
  5
9F35
330
6C9E
100
AcDbEntity
  8
0
  6
ByBlock
 62
     6
100
AcDbLine
 10
383.8351414398624
 20
71.02774297491163
 30
0.0
 11
383.8351414398624
 21
97.22643628348208
 31
0.0
  0
LINE
  5
9F36
330
6C9E
100
AcDbEntity
  8
0
  6
ByBlock
 62
     6
100
AcDbLine
 10
288.3351414398622
 20
96.22643628348209
 30
0.0
 11
381.3351414398624
 21
96.22643628348209
 31
0.0
  0
MTEXT
  5
9F37
330
6C9E
100
AcDbEntity
  8
0
  6
ByBlock
 62
     3
100
AcDbMText
 10
330.766085311948
 20
99.55255703336735
 30
0.0
 40
3.0
 41
0.0
 71
     5
 72
     1
  1
\A1;\U+220598
  7
TXT
 73
     1
 44
1.0
  0
SOLID
  5
9F38
330
6C9E
100
AcDbEntity
  8
0
  6
ByBlock
 62
     6
100
AcDbTrace
 10
288.3351414398622
 20
96.64310295014876
 30
0.0
 11
288.3351414398622
 21
95.80976961681541
 31
0.0
 12
285.8351414398622
 22
96.22643628348209
 32
0.0
 13
285.8351414398622
 23
96.22643628348209
 33
0.0
  0
SOLID
  5
9F39
330
6C9E
100
AcDbEntity
  8
0
  6
ByBlock
 62
     6
100
AcDbTrace
 10
381.3351414398624
 20
96.64310295014876
 30
0.0
 11
381.3351414398624
 21
95.80976961681541
 31
0.0
 12
383.8351414398624
 22
96.22643628348209
 32
0.0
 13
383.8351414398624
 23
96.22643628348209
 33
0.0
  0
POINT
  5
9F3A
330
6C9E
100
AcDbEntity
  8
DEFPOINTS
  6
ByBlock
 62
     0
100
AcDbPoint
 10
285.8351414398622
 20
70.02774297491157
 30
0.0
  0
POINT
  5
9F3B
330
6C9E
100
AcDbEntity
  8
DEFPOINTS
  6
ByBlock
 62
     0
100
AcDbPoint
 10
383.8351414398624
 20
70.02774297491163
 30
0.0
  0
POINT
  5
9F3C
330
6C9E
100
AcDbEntity
  8
DEFPOINTS
  6
ByBlock
 62
     0
100
AcDbPoint
 10
383.8351414398624
 20
96.22643628348209
 30
0.0
  0
ENDBLK
  5
9F3D
330
6C9E
100
AcDbEntity
  8
0
100
AcDbBlockEnd
  0
BLOCK
  5
916D
330
6FE3
100
AcDbEntity
  8
0
100
AcDbBlockBegin
  2
*D4
 70
     1
 10
0.0
 20
0.0
 30
0.0
  3
*D4
  1

  0
LINE
  5
916E
330
6FE3
100
AcDbEntity
  8
0
  6
ByBlock
 62
     6
100
AcDbLine
 10
128.3785872205454
 20
100.4987644138218
 30
0.0
 11
157.1448781245442
 21
83.89053861681096
 31
0.0
  0
LINE
  5
916F
330
6FE3
100
AcDbEntity
  8
0
  6
ByBlock
 62
     6
100
AcDbLine
 10
123.7585872205453
 20
92.49668968285352
 30
0.0
 11
152.5248781245441
 21
75.88846388584264
 31
0.0
  0
LINE
  5
9170
330
6FE3
100
AcDbEntity
  8
0
  6
ByBlock
 62
     6
100
AcDbLine
 10
155.0288527207598
 20
82.22547510734985
 30
0.0
 11
152.9088527207597
 21
78.55352739530373
 31
0.0
  0
LINE
  5
9171
330
6FE3
100
AcDbEntity
  8
0
  6
ByBlock
 62
     6
100
AcDbLine
 10
165.6799250957721
 20
100.6736736159645
 30
0.0
 11
156.2788527207598
 21
84.39053861681095
 31
0.0
  0
MTEXT
  5
9172
330
6FE3
100
AcDbEntity
  8
0
  6
ByBlock
 62
     3
100
AcDbMText
 10
159.9898615863111
 20
95.81819451928428
 30
0.0
 40
3.0
 41
0.0
 71
     5
 72
     1
  1
\A1;9±0.5
  7
TXT
 11
0.5000000000000011
 21
0.866025403784438
 31
0.0
 73
     1
 44
1.0
  0
SOLID
  5
9173
330
6FE3
100
AcDbEntity
  8
0
  6
ByBlock
 62
     6
100
AcDbTrace
 10
154.6680088025162
 20
82.43380844068319
 30
0.0
 11
155.3896966390033
 21
82.01714177401653
 31
0.0
 12
156.2788527207598
 22
84.39053861681095
 32
0.0
 13
156.2788527207598
 23
84.39053861681095
 33
0.0
  0
SOLID
  5
9174
330
6FE3
100
AcDbEntity
  8
0
  6
ByBlock
 62
     6
100
AcDbTrace
 10
152.5480088025162
 20
78.76186072863707
 30
0.0
 11
153.2696966390032
 21
78.3451940619704
 31
0.0
 12
151.6588527207597
 22
76.38846388584264
 32
0.0
 13
151.6588527207597
 23
76.38846388584264
 33
0.0
  0
POINT
  5
9175
330
6FE3
100
AcDbEntity
  8
DEFPOINTS
  6
ByBlock
 62
     0
100
AcDbPoint
 10
127.5125618167609
 20
100.9987644138218
 30
0.0
  0
POINT
  5
9176
330
6FE3
100
AcDbEntity
  8
DEFPOINTS
  6
ByBlock
 62
     0
100
AcDbPoint
 10
122.8925618167608
 20
92.99668968285351
 30
0.0
  0
POINT
  5
9177
330
6FE3
100
AcDbEntity
  8
DEFPOINTS
  6
ByBlock
 62
     0
100
AcDbPoint
 10
151.6588527207597
 20
76.38846388584264
 30
0.0
  0
ENDBLK
  5
9178
330
6FE3
100
AcDbEntity
  8
0
100
AcDbBlockEnd
  0
BLOCK
  5
9F04
330
74B6
100
AcDbEntity
  8
0
100
AcDbBlockBegin
  2
*D5
 70
     1
 10
0.0
 20
0.0
 30
0.0
  3
*D5
  1

  0
LINE
  5
9F05
330
74B6
100
AcDbEntity
  8
0
  6
ByBlock
 62
     6
100
AcDbLine
 10
288.881200908351
 20
72.52774297491161
 30
0.0
 11
276.5217461411199
 21
72.52774297491161
 31
0.0
  0
LINE
  5
9F06
330
74B6
100
AcDbEntity
  8
0
  6
ByBlock
 62
     6
100
AcDbLine
 10
286.8351414398622
 20
72.02774297491157
 30
0.0
 11
276.5217461411199
 21
72.02774297491157
 31
0.0
  0
LINE
  5
9F07
330
74B6
100
AcDbEntity
  8
0
  6
ByBlock
 62
     6
100
AcDbLine
 10
277.5217461411199
 20
75.02774297491161
 30
0.0
 11
277.5217461411199
 21
77.52774297491161
 31
0.0
  0
LINE
  5
9F08
330
74B6
100
AcDbEntity
  8
0
  6
ByBlock
 62
     6
100
AcDbLine
 10
277.5217461411199
 20
69.52774297491157
 30
0.0
 11
277.5217461411199
 21
67.02774297491157
 31
0.0
  0
LINE
  5
9F09
330
74B6
100
AcDbEntity
  8
0
  6
ByBlock
 62
     6
100
AcDbLine
 10
277.5217461411199
 20
89.09869876367867
 30
0.0
 11
277.5217461411199
 21
72.52774297491161
 31
0.0
  0
MTEXT
  5
9F0A
330
74B6
100
AcDbEntity
  8
0
  6
ByBlock
 62
     3
100
AcDbMText
 10
275.0217461411199
 20
85.34869876367867
 30
0.0
 40
3.0
 41
0.0
 71
     5
 72
     1
  1
\A1;0.5
  7
TXT
 11
0.0000000000000001
 21
1.0
 31
0.0
 73
     1
 44
1.0
  0
LINE
  5
9F0B
330
74B6
100
AcDbEntity
  8
0
  6
ByBlock
 62
     6
100
AcDbLine
 10
277.5217461411199
 20
72.52774297491161
 30
0.0
 11
277.5217461411199
 21
72.02774297491157
 31
0.0
  0
SOLID
  5
9F0C
330
74B6
100
AcDbEntity
  8
0
  6
ByBlock
 62
     6
100
AcDbTrace
 10
277.1050794744532
 20
75.02774297491161
 30
0.0
 11
277.9384128077865
 21
75.02774297491161
 31
0.0
 12
277.5217461411199
 22
72.52774297491161
 32
0.0
 13
277.5217461411199
 23
72.52774297491161
 33
0.0
  0
SOLID
  5
9F0D
330
74B6
100
AcDbEntity
  8
0
  6
ByBlock
 62
     6
100
AcDbTrace
 10
277.1050794744532
 20
69.52774297491157
 30
0.0
 11
277.9384128077865
 21
69.52774297491157
 31
0.0
 12
277.5217461411199
 22
72.02774297491157
 32
0.0
 13
277.5217461411199
 23
72.02774297491157
 33
0.0
  0
POINT
  5
9F0E
330
74B6
100
AcDbEntity
  8
DEFPOINTS
  6
ByBlock
 62
     0
100
AcDbPoint
 10
289.881200908351
 20
72.52774297491161
 30
0.0
  0
POINT
  5
9F0F
330
74B6
100
AcDbEntity
  8
DEFPOINTS
  6
ByBlock
 62
     0
100
AcDbPoint
 10
287.8351414398622
 20
72.02774297491157
 30
0.0
  0
POINT
  5
9F10
330
74B6
100
AcDbEntity
  8
DEFPOINTS
  6
ByBlock
 62
     0
100
AcDbPoint
 10
277.5217461411199
 20
72.02774297491157
 30
0.0
  0
ENDBLK
  5
9F11
330
74B6
100
AcDbEntity
  8
0
100
AcDbBlockEnd
  0
BLOCK
  5
9F49
330
7501
100
AcDbEntity
  8
0
100
AcDbBlockBegin
  2
*D6
 70
     1
 10
0.0
 20
0.0
 30
0.0
  3
*D6
  1

  0
LINE
  5
9F4A
330
7501
100
AcDbEntity
  8
0
  6
ByBlock
 62
     6
100
AcDbLine
 10
296.8351414398622
 20
73.52774297491158
 30
0.0
 11
296.8351414398622
 21
85.87587138143858
 31
0.0
  0
LINE
  5
9F4B
330
7501
100
AcDbEntity
  8
0
  6
ByBlock
 62
     6
100
AcDbLine
 10
372.8351414398622
 20
73.5277429749116
 30
0.0
 11
372.8351414398622
 21
85.87587138143858
 31
0.0
  0
LINE
  5
9F4C
330
7501
100
AcDbEntity
  8
0
  6
ByBlock
 62
     6
100
AcDbLine
 10
299.3351414398622
 20
84.87587138143856
 30
0.0
 11
370.3351414398623
 21
84.87587138143856
 31
0.0
  0
SOLID
  5
9F4D
330
7501
100
AcDbEntity
  8
0
  6
ByBlock
 62
     6
100
AcDbTrace
 10
299.3351414398622
 20
85.29253804810524
 30
0.0
 11
299.3351414398622
 21
84.4592047147719
 31
0.0
 12
296.8351414398622
 22
84.87587138143856
 32
0.0
 13
296.8351414398622
 23
84.87587138143856
 33
0.0
  0
SOLID
  5
9F4E
330
7501
100
AcDbEntity
  8
0
  6
ByBlock
 62
     6
100
AcDbTrace
 10
370.3351414398623
 20
85.29253804810524
 30
0.0
 11
370.3351414398623
 21
84.4592047147719
 31
0.0
 12
372.8351414398622
 22
84.87587138143856
 32
0.0
 13
372.8351414398622
 23
84.87587138143856
 33
0.0
  0
MTEXT
  5
9F4F
330
7501
100
AcDbEntity
  8
0
  6
ByBlock
 62
     3
100
AcDbMText
 10
334.8351414398623
 20
87.37587138143856
 30
0.0
 40
3.0
 41
0.0
 71
     5
 72
     1
  1
\A1;\U+220576
  7
TXT
 73
     1
 44
1.0
  0
POINT
  5
9F50
330
7501
100
AcDbEntity
  8
DEFPOINTS
  6
ByBlock
 62
     0
100
AcDbPoint
 10
296.8351414398622
 20
72.52774297491159
 30
0.0
  0
POINT
  5
9F51
330
7501
100
AcDbEntity
  8
DEFPOINTS
  6
ByBlock
 62
     0
100
AcDbPoint
 10
372.8351414398622
 20
72.52774297491161
 30
0.0
  0
POINT
  5
9F52
330
7501
100
AcDbEntity
  8
DEFPOINTS
  6
ByBlock
 62
     0
100
AcDbPoint
 10
372.8351414398622
 20
84.87587138143856
 30
0.0
  0
ENDBLK
  5
9F53
330
7501
100
AcDbEntity
  8
0
100
AcDbBlockEnd
  0
BLOCK
  5
9F77
330
755C
100
AcDbEntity
  8
0
100
AcDbBlockBegin
  2
*D7
 70
     1
 10
0.0
 20
0.0
 30
0.0
  3
*D7
  1

  0
LINE
  5
9F78
330
755C
100
AcDbEntity
  8
0
  6
ByBlock
 62
     6
100
AcDbLine
 10
380.8351414398623
 20
72.52774297491163
 30
0.0
 11
399.7219072481728
 21
72.52774297491163
 31
0.0
  0
LINE
  5
9F79
330
755C
100
AcDbEntity
  8
0
  6
ByBlock
 62
     6
100
AcDbLine
 10
382.5486313745346
 20
52.56946610071496
 30
0.0
 11
399.7219072481728
 21
52.56946610071496
 31
0.0
  0
LINE
  5
9F7A
330
755C
100
AcDbEntity
  8
0
  6
ByBlock
 62
     6
100
AcDbLine
 10
398.7219072481729
 20
70.02774297491163
 30
0.0
 11
398.7219072481729
 21
55.06946610071496
 31
0.0
  0
SOLID
  5
9F7B
330
755C
100
AcDbEntity
  8
0
  6
ByBlock
 62
     6
100
AcDbTrace
 10
398.3052405815062
 20
70.02774297491163
 30
0.0
 11
399.1385739148396
 21
70.02774297491163
 31
0.0
 12
398.7219072481729
 22
72.52774297491163
 32
0.0
 13
398.7219072481729
 23
72.52774297491163
 33
0.0
  0
SOLID
  5
9F7C
330
755C
100
AcDbEntity
  8
0
  6
ByBlock
 62
     6
100
AcDbTrace
 10
398.3052405815062
 20
55.06946610071496
 30
0.0
 11
399.1385739148396
 21
55.06946610071496
 31
0.0
 12
398.7219072481729
 22
52.56946610071496
 32
0.0
 13
398.7219072481729
 23
52.56946610071496
 33
0.0
  0
MTEXT
  5
9F7D
330
755C
100
AcDbEntity
  8
0
  6
ByBlock
 62
     3
100
AcDbMText
 10
396.2219072481728
 20
62.54860453781329
 30
0.0
 40
3.0
 41
0.0
 71
     5
 72
     1
  1
\A1;20
  7
TXT
 11
0.0000000000000001
 21
1.0
 31
0.0
 73
     1
 44
1.0
  0
POINT
  5
9F7E
330
755C
100
AcDbEntity
  8
DEFPOINTS
  6
ByBlock
 62
     0
100
AcDbPoint
 10
379.8351414398622
 20
72.52774297491163
 30
0.0
  0
POINT
  5
9F7F
330
755C
100
AcDbEntity
  8
DEFPOINTS
  6
ByBlock
 62
     0
100
AcDbPoint
 10
381.5486313745346
 20
52.56946610071496
 30
0.0
  0
POINT
  5
9F80
330
755C
100
AcDbEntity
  8
DEFPOINTS
  6
ByBlock
 62
     0
100
AcDbPoint
 10
398.7219072481729
 20
52.56946610071496
 30
0.0
  0
ENDBLK
  5
9F81
330
755C
100
AcDbEntity
  8
0
100
AcDbBlockEnd
  0
BLOCK
  5
9F82
330
7569
100
AcDbEntity
  8
0
100
AcDbBlockBegin
  2
*D8
 70
     1
 10
0.0
 20
0.0
 30
0.0
  3
*D8
  1

  0
LINE
  5
9F83
330
7569
100
AcDbEntity
  8
0
  6
ByBlock
 62
     6
100
AcDbLine
 10
380.2155806727105
 20
48.52850374852142
 30
0.0
 11
409.870928174561
 21
48.52850374852141
 31
0.0
  0
LINE
  5
9F84
330
7569
100
AcDbEntity
  8
0
  6
ByBlock
 62
     6
100
AcDbLine
 10
380.8351414398623
 20
72.52774297491163
 30
0.0
 11
409.870928174561
 21
72.52774297491163
 31
0.0
  0
LINE
  5
9F85
330
7569
100
AcDbEntity
  8
0
  6
ByBlock
 62
     6
100
AcDbLine
 10
408.870928174561
 20
51.02850374852141
 30
0.0
 11
408.870928174561
 21
70.02774297491163
 31
0.0
  0
SOLID
  5
9F86
330
7569
100
AcDbEntity
  8
0
  6
ByBlock
 62
     6
100
AcDbTrace
 10
408.4542615078943
 20
51.02850374852141
 30
0.0
 11
409.2875948412276
 21
51.02850374852141
 31
0.0
 12
408.870928174561
 22
48.52850374852141
 32
0.0
 13
408.870928174561
 23
48.52850374852141
 33
0.0
  0
SOLID
  5
9F87
330
7569
100
AcDbEntity
  8
0
  6
ByBlock
 62
     6
100
AcDbTrace
 10
408.4542615078943
 20
70.02774297491163
 30
0.0
 11
409.2875948412276
 21
70.02774297491163
 31
0.0
 12
408.870928174561
 22
72.52774297491163
 32
0.0
 13
408.870928174561
 23
72.52774297491163
 33
0.0
  0
MTEXT
  5
9F88
330
7569
100
AcDbEntity
  8
0
  6
ByBlock
 62
     3
100
AcDbMText
 10
406.370928174561
 20
60.52812336171652
 30
0.0
 40
3.0
 41
0.0
 71
     5
 72
     1
  1
\A1;24±0.2
  7
TXT
 11
0.0000000000000001
 21
1.0
 31
0.0
 73
     1
 44
1.0
  0
POINT
  5
9F89
330
7569
100
AcDbEntity
  8
DEFPOINTS
  6
ByBlock
 62
     0
100
AcDbPoint
 10
379.2155806727105
 20
48.52850374852142
 30
0.0
  0
POINT
  5
9F8A
330
7569
100
AcDbEntity
  8
DEFPOINTS
  6
ByBlock
 62
     0
100
AcDbPoint
 10
379.8351414398622
 20
72.52774297491163
 30
0.0
  0
POINT
  5
9F8B
330
7569
100
AcDbEntity
  8
DEFPOINTS
  6
ByBlock
 62
     0
100
AcDbPoint
 10
408.870928174561
 20
72.52774297491163
 30
0.0
  0
ENDBLK
  5
9F8C
330
7569
100
AcDbEntity
  8
0
100
AcDbBlockEnd
  0
BLOCK
  5
9065
330
7AC6
100
AcDbEntity
  8
0
100
AcDbBlockBegin
  2
*D9
 70
     1
 10
0.0
 20
0.0
 30
0.0
  3
*D9
  1

  0
LINE
  5
9066
330
7AC6
100
AcDbEntity
  8
0
  6
ByBlock
 62
     6
100
AcDbLine
 10
312.5311849191344
 20
112.9966896828538
 30
0.0
 11
308.7489200256147
 21
112.9966896828538
 31
0.0
  0
LINE
  5
9067
330
7AC6
100
AcDbEntity
  8
0
  6
ByBlock
 62
     6
100
AcDbLine
 10
312.5311849191344
 20
114.9966896828535
 30
0.0
 11
308.7489200256147
 21
114.9966896828535
 31
0.0
  0
LINE
  5
9068
330
7AC6
100
AcDbEntity
  8
0
  6
ByBlock
 62
     6
100
AcDbLine
 10
309.7489200256147
 20
110.4966896828538
 30
0.0
 11
309.7489200256147
 21
107.9966896828538
 31
0.0
  0
LINE
  5
9069
330
7AC6
100
AcDbEntity
  8
0
  6
ByBlock
 62
     6
100
AcDbLine
 10
309.7489200256147
 20
117.4966896828535
 30
0.0
 11
309.7489200256147
 21
119.9966896828535
 31
0.0
  0
LINE
  5
906A
330
7AC6
100
AcDbEntity
  8
0
  6
ByBlock
 62
     6
100
AcDbLine
 10
309.7489200256147
 20
124.5825033705258
 30
0.0
 11
309.7489200256147
 21
114.9966896828535
 31
0.0
  0
MTEXT
  5
906B
330
7AC6
100
AcDbEntity
  8
0
  6
ByBlock
 62
     3
100
AcDbMText
 10
307.2489200256147
 20
122.5825033705258
 30
0.0
 40
3.0
 41
0.0
 71
     5
 72
     1
  1
\A1;2
  7
TXT
 11
0.0000000000000001
 21
1.0
 31
0.0
 73
     1
 44
1.0
  0
LINE
  5
906C
330
7AC6
100
AcDbEntity
  8
0
  6
ByBlock
 62
     6
100
AcDbLine
 10
309.7489200256147
 20
112.9966896828538
 30
0.0
 11
309.7489200256147
 21
114.9966896828535
 31
0.0
  0
SOLID
  5
906D
330
7AC6
100
AcDbEntity
  8
0
  6
ByBlock
 62
     6
100
AcDbTrace
 10
309.332253358948
 20
110.4966896828538
 30
0.0
 11
310.1655866922814
 21
110.4966896828538
 31
0.0
 12
309.7489200256147
 22
112.9966896828538
 32
0.0
 13
309.7489200256147
 23
112.9966896828538
 33
0.0
  0
SOLID
  5
906E
330
7AC6
100
AcDbEntity
  8
0
  6
ByBlock
 62
     6
100
AcDbTrace
 10
309.332253358948
 20
117.4966896828535
 30
0.0
 11
310.1655866922814
 21
117.4966896828535
 31
0.0
 12
309.7489200256147
 22
114.9966896828535
 32
0.0
 13
309.7489200256147
 23
114.9966896828535
 33
0.0
  0
POINT
  5
906F
330
7AC6
100
AcDbEntity
  8
DEFPOINTS
  6
ByBlock
 62
     0
100
AcDbPoint
 10
313.5311849191344
 20
112.9966896828538
 30
0.0
  0
POINT
  5
9070
330
7AC6
100
AcDbEntity
  8
DEFPOINTS
  6
ByBlock
 62
     0
100
AcDbPoint
 10
313.5311849191344
 20
114.9966896828535
 30
0.0
  0
POINT
  5
9071
330
7AC6
100
AcDbEntity
  8
DEFPOINTS
  6
ByBlock
 62
     0
100
AcDbPoint
 10
309.7489200256147
 20
114.9966896828535
 30
0.0
  0
ENDBLK
  5
9072
330
7AC6
100
AcDbEntity
  8
0
100
AcDbBlockEnd
  0
BLOCK
  5
9E87
330
9E46
100
AcDbEntity
  8
0
100
AcDbBlockBegin
  2
*D10
 70
     1
 10
0.0
 20
0.0
 30
0.0
  3
*D10
  1

  0
LINE
  5
9E88
330
9E46
100
AcDbEntity
  8
0
  6
ByBlock
 62
     6
100
AcDbLine
 10
285.9885698917302
 20
218.2647700177316
 30
0.0
 11
285.9885698917302
 21
168.3700646551643
 31
0.0
  0
LINE
  5
9E89
330
9E46
100
AcDbEntity
  8
0
  6
ByBlock
 62
     6
100
AcDbLine
 10
289.4690020838983
 20
218.2647700177316
 30
0.0
 11
289.4690020838983
 21
168.3700646551643
 31
0.0
  0
LINE
  5
9E8A
330
9E46
100
AcDbEntity
  8
0
  6
ByBlock
 62
     6
100
AcDbLine
 10
283.4885698917302
 20
169.3700646551643
 30
0.0
 11
280.9885698917302
 21
169.3700646551643
 31
0.0
  0
LINE
  5
9E8B
330
9E46
100
AcDbEntity
  8
0
  6
ByBlock
 62
     6
100
AcDbLine
 10
291.9690020838983
 20
169.3700646551643
 30
0.0
 11
294.4690020838983
 21
169.3700646551643
 31
0.0
  0
MTEXT
  5
9E8C
330
9E46
100
AcDbEntity
  8
0
  6
ByBlock
 62
     3
100
AcDbMText
 10
294.4690020838983
 20
171.8700646551643
 30
0.0
 40
3.0
 41
0.0
 71
     5
 72
     1
  1
\A1;3.5
  7
TXT
 73
     1
 44
1.0
  0
LINE
  5
9E8D
330
9E46
100
AcDbEntity
  8
0
  6
ByBlock
 62
     6
100
AcDbLine
 10
285.9885698917302
 20
169.3700646551643
 30
0.0
 11
289.4690020838983
 21
169.3700646551643
 31
0.0
  0
SOLID
  5
9E8E
330
9E46
100
AcDbEntity
  8
0
  6
ByBlock
 62
     6
100
AcDbTrace
 10
283.4885698917302
 20
169.786731321831
 30
0.0
 11
283.4885698917302
 21
168.9533979884977
 31
0.0
 12
285.9885698917302
 22
169.3700646551643
 32
0.0
 13
285.9885698917302
 23
169.3700646551643
 33
0.0
  0
SOLID
  5
9E8F
330
9E46
100
AcDbEntity
  8
0
  6
ByBlock
 62
     6
100
AcDbTrace
 10
291.9690020838983
 20
169.786731321831
 30
0.0
 11
291.9690020838983
 21
168.9533979884977
 31
0.0
 12
289.4690020838983
 22
169.3700646551643
 32
0.0
 13
289.4690020838983
 23
169.3700646551643
 33
0.0
  0
POINT
  5
9E90
330
9E46
100
AcDbEntity
  8
DEFPOINTS
  6
ByBlock
 62
     0
100
AcDbPoint
 10
285.9885698917302
 20
219.2647700177316
 30
0.0
  0
POINT
  5
9E91
330
9E46
100
AcDbEntity
  8
DEFPOINTS
  6
ByBlock
 62
     0
100
AcDbPoint
 10
289.4690020838983
 20
219.2647700177316
 30
0.0
  0
POINT
  5
9E92
330
9E46
100
AcDbEntity
  8
DEFPOINTS
  6
ByBlock
 62
     0
100
AcDbPoint
 10
289.4690020838983
 20
169.3700646551643
 30
0.0
  0
ENDBLK
  5
9E93
330
9E46
100
AcDbEntity
  8
0
100
AcDbBlockEnd
  0
BLOCK
  5
9E55
330
9E54
100
AcDbEntity
  8
0
100
AcDbBlockBegin
  2
*D11
 70
     1
 10
0.0
 20
0.0
 30
0.0
  3
*D11
  1

  0
LINE
  5
9E56
330
9E54
100
AcDbEntity
  8
0
  6
ByBlock
 62
     6
100
AcDbLine
 10
547.5389155215919
 20
204.018600590362
 30
0.0
 11
537.0157760716614
 21
204.018600590362
 31
0.0
  0
LINE
  5
9E57
330
9E54
100
AcDbEntity
  8
0
  6
ByBlock
 62
     6
100
AcDbLine
 10
547.5389155215919
 20
212.0186005903621
 30
0.0
 11
537.0157760716614
 21
212.0186005903621
 31
0.0
  0
LINE
  5
9E58
330
9E54
100
AcDbEntity
  8
0
  6
ByBlock
 62
     6
100
AcDbLine
 10
538.0157760716614
 20
206.518600590362
 30
0.0
 11
538.0157760716614
 21
209.518600590362
 31
0.0
  0
MTEXT
  5
9E59
330
9E54
100
AcDbEntity
  8
0
  6
ByBlock
 62
     3
100
AcDbMText
 10
534.6413720308056
 20
220.4073498786863
 30
0.0
 40
3.0
 41
0.0
 71
     5
 72
     1
  1
\A1;8      (3等分)
  7
TXT
 11
0.0000000000000001
 21
1.0
 31
0.0
 73
     1
 44
1.0
  0
SOLID
  5
9E5A
330
9E54
100
AcDbEntity
  8
0
  6
ByBlock
 62
     6
100
AcDbTrace
 10
537.5991094049948
 20
206.518600590362
 30
0.0
 11
538.4324427383281
 21
206.518600590362
 31
0.0
 12
538.0157760716614
 22
204.018600590362
 32
0.0
 13
538.0157760716614
 23
204.018600590362
 33
0.0
  0
SOLID
  5
9E5B
330
9E54
100
AcDbEntity
  8
0
  6
ByBlock
 62
     6
100
AcDbTrace
 10
537.5991094049948
 20
209.518600590362
 30
0.0
 11
538.4324427383281
 21
209.518600590362
 31
0.0
 12
538.0157760716614
 22
212.0186005903621
 32
0.0
 13
538.0157760716614
 23
212.0186005903621
 33
0.0
  0
POINT
  5
9E5C
330
9E54
100
AcDbEntity
  8
DEFPOINTS
  6
ByBlock
 62
     0
100
AcDbPoint
 10
548.5389155215918
 20
204.018600590362
 30
0.0
  0
POINT
  5
9E5D
330
9E54
100
AcDbEntity
  8
DEFPOINTS
  6
ByBlock
 62
     0
100
AcDbPoint
 10
548.5389155215918
 20
212.0186005903621
 30
0.0
  0
POINT
  5
9E5E
330
9E54
100
AcDbEntity
  8
DEFPOINTS
  6
ByBlock
 62
     0
100
AcDbPoint
 10
538.0157760716614
 20
212.0186005903621
 30
0.0
  0
ENDBLK
  5
9E5F
330
9E54
100
AcDbEntity
  8
0
100
AcDbBlockEnd
  0
BLOCK
  5
9FA9
330
9F9A
100
AcDbEntity
  8
0
100
AcDbBlockBegin
  2
*D12
 70
     1
 10
0.0
 20
0.0
 30
0.0
  3
*D12
  1

  0
LINE
  5
9FAA
330
9F9A
100
AcDbEntity
  8
0
  6
ByBlock
 62
     6
100
AcDbLine
 10
384.1410763023936
 20
51.09533615444999
 30
0.0
 11
420.2332181740482
 21
30.57242876841487
 31
0.0
  0
LINE
  5
9FAB
330
9F9A
100
AcDbEntity
  8
0
  6
ByBlock
 62
     6
100
AcDbLine
 10
380.8351414398623
 20
72.52774297491161
 30
0.0
 11
431.327557588112
 21
72.52774297491168
 31
0.0
  0
ARC
  5
9FAC
330
9F9A
100
AcDbEntity
  8
0
  6
ByBlock
 62
     6
100
AcDbCircle
 10
346.4494640437191
 20
72.52774297491161
 30
0.0
 40
83.87809354439298
100
AcDbArc
 50
332.0841146086654
 51
358.2922269070076
  0
SOLID
  5
9FAD
330
9F9A
100
AcDbEntity
  8
0
  6
ByBlock
 62
     6
100
AcDbTrace
 10
420.9323891249721
 20
33.05759339083871
 30
0.0
 11
420.2019218572221
 21
33.45866946241404
 31
0.0
 12
419.3639272763711
 22
31.06672962337638
 32
0.0
 13
419.3639272763711
 23
31.06672962337638
 33
0.0
  0
SOLID
  5
9FAE
330
9F9A
100
AcDbEntity
  8
0
  6
ByBlock
 62
     6
100
AcDbTrace
 10
429.8736807420958
 20
70.03423000727716
 30
0.0
 11
430.7069215340862
 21
70.02181119060347
 31
0.0
 12
430.3275575881121
 22
72.52774297491166
 32
0.0
 13
430.3275575881121
 23
72.52774297491166
 33
0.0
  0
MTEXT
  5
9FAF
330
9F9A
100
AcDbEntity
  8
0
  6
ByBlock
 62
     3
100
AcDbMText
 10
425.1234147155736
 20
51.72381078403525
 30
0.0
 40
3.0
 41
0.0
 71
     5
 72
     1
  1
\A1;30°
  7
TXT
 11
0.255645362096465
 21
0.9667706288663136
 31
0.0
 73
     1
 44
1.0
  0
POINT
  5
9FB0
330
9F9A
100
AcDbEntity
  8
DEFPOINTS
  6
ByBlock
 62
     0
100
AcDbPoint
 10
425.3939563089519
 20
44.18516515237519
 30
0.0
  0
POINT
  5
9FB1
330
9F9A
100
AcDbEntity
  8
DEFPOINTS
  6
ByBlock
 62
     0
100
AcDbPoint
 10
383.2717854047165
 20
51.58963700941147
 30
0.0
  0
POINT
  5
9FB2
330
9F9A
100
AcDbEntity
  8
DEFPOINTS
  6
ByBlock
 62
     0
100
AcDbPoint
 10
289.8351414398622
 20
72.52774297491156
 30
0.0
  0
POINT
  5
9FB3
330
9F9A
100
AcDbEntity
  8
DEFPOINTS
  6
ByBlock
 62
     0
100
AcDbPoint
 10
379.8351414398622
 20
72.52774297491161
 30
0.0
  0
POINT
  5
9FB4
330
9F9A
100
AcDbEntity
  8
DEFPOINTS
  6
ByBlock
 62
     0
100
AcDbPoint
 10
369.9678091641239
 20
59.15461537014779
 30
0.0
  0
ENDBLK
  5
9FB5
330
9F9A
100
AcDbEntity
  8
0
100
AcDbBlockEnd
  0
BLOCK
  5
A013
330
A012
100
AcDbEntity
  8
0
100
AcDbBlockBegin
  2
_DOTSMALL
 70
     0
 10
0.0
 20
0.0
 30
0.0
  3
_DOTSMALL
  1

  0
LWPOLYLINE
  5
A014
330
A012
100
AcDbEntity
  8
0
  6
ByBlock
 62
     0
100
AcDbPolyline
 90
        2
 70
     1
 43
0.5
 10
-0.0625
 20
0.0
 42
1.0
 10
0.0625
 20
0.0
 42
1.0
  0
ENDBLK
  5
A015
330
A012
100
AcDbEntity
  8
0
100
AcDbBlockEnd
  0
ENDSEC
  0
SECTION
  2
ENTITIES
  0
MTEXT
  5
C0
330
18
100
AcDbEntity
  8
0
100
AcDbMText
 10
41.26970765600413
 20
233.6950877649332
 30
0.0
 40
2.5
 41
0.0
 71
     1
 72
     5
  1

  7
ISOCP3
 73
     1
 44
1.0
  0
MTEXT
  5
503F
330
18
100
AcDbEntity
  8
公差
100
AcDbMText
 10
86.78098580035692
 20
122.4469053724254
 30
0.0
 40
2.0
 41
11.48459459716352
 71
     1
 72
     5
  1
+0\P-0.2
  7
TXT
 73
     1
 44
1.0
  0
LINE
  5
5AD6
330
18
100
AcDbEntity
  8
DIM
100
AcDbLine
 10
159.7020811189205
 20
92.27600748089486
 30
0.0
 11
159.7020811189205
 21
108.8027339360186
 31
0.0
  0
LINE
  5
5AD7
330
18
100
AcDbEntity
  8
DIM
100
AcDbLine
 10
159.7020811189205
 20
108.8027339360186
 30
0.0
 11
171.853821245168
 21
108.8027339360186
 31
0.0
  0
LINE
  5
5ADA
330
18
100
AcDbEntity
  8
DIM
100
AcDbLine
 10
48.16629438422172
 20
51.32478808080891
 30
0.0
 11
48.16629438422172
 21
44.04325289106416
 31
0.0
  0
TOLERANCE
  5
5E6E
330
18
100
AcDbEntity
  8
DIM
  6
ByBlock
100
AcDbFcf
  3
A
 10
171.853821245168
 20
108.8536723721496
 30
0.0
  1
{\Fgdt;h}%%v0.005%%v%%vA%%v%%v
1001
ACAD
1000
DSTYLE
1002
{
1070
   140
1040
2.743999999999999
1070
   147
1040
0.6859999999999999
1002
}
  0
MTEXT
  5
608E
330
18
100
AcDbEntity
  8
0
100
AcDbMText
 10
17.81948278949767
 20
19.37399834316261
 30
0.0
 40
5.0
 41
0.0
 71
     1
 72
     5
  1
\Ftxt.shx,bigfont.shx|c128;呉銘宏
  7
JL
 73
     1
 44
1.0
  0
MTEXT
  5
6095
330
18
100
AcDbEntity
  8
0
100
AcDbMText
 10
81.23517665196368
 20
29.2278230533891
 30
0.0
 40
4.5
 41
0.0
 71
     1
 72
     5
  1
\Ftxt.shx,bigfont.shx|c128;1 : 1
  7
JL
 73
     1
 44
1.0
  0
MTEXT
  5
6098
330
18
100
AcDbEntity
  8
0
 48
2.0
370
    25
100
AcDbMText
 10
146.1234268906314
 20
3.636969934829039
 30
0.0
 40
4.5
 41
0.0
 71
     5
 72
     1
  1
\Ftxt.shx,bigfont.shx|c128;N L 4 0 0 1 2
 73
     1
 44
1.0
  0
MTEXT
  5
609C
330
18
100
AcDbEntity
  8
0
 48
2.0
100
AcDbMText
 10
178.1300746997774
 20
22.17550270047843
 30
0.0
 40
4.5
 41
0.0
 71
     5
 72
     1
  1
\P\Ftxt.shx,bigfont.shx|c128;    MF75X2.0P
 73
     1
 44
1.0
  0
MTEXT
  5
635A
330
18
100
AcDbEntity
  8
0
100
AcDbMText
 10
16.02348109109539
 20
28.64592585511957
 30
0.0
 40
4.5
 41
0.0
 71
     1
 72
     5
  1
\Ftxt.shx,bigfont.shx|c128;05.03.03
  7
JL
 73
     1
 44
1.0
  0
INSERT
  5
63A3
330
18
100
AcDbEntity
  8
0
100
AcDbBlockReference
  2
A$C255C26A2
 10
101.4351387349441
 20
92.27600678691404
 30
0.0
  0
MTEXT
  5
63A4
330
18
100
AcDbEntity
  8
0
 62
     7
 48
2.0
100
AcDbMText
 10
105.5289414838003
 20
97.17155775393266
 30
0.0
 40
3.0
 41
0.0
 71
     5
 72
     1
  1
G
 73
     1
 44
1.0
  0
LEADER
  5
63CA
330
18
100
AcDbEntity
  8
DIM
 62
     6
100
AcDbLeader
  3
A
 76
     2
 10
125.62705615171
 20
78.59031262881192
 30
0.0
 10
143.4922797213078
 20
118.079197186132
 30
0.0
  0
LEADER
  5
63CB
330
18
100
AcDbEntity
  8
DIM
 62
     6
100
AcDbLeader
  3
A
 76
     2
 10
132.379784318894
 20
72.31773060669853
 30
0.0
 10
143.5740466960358
 20
49.34862009779258
 30
0.0
  0
MTEXT
  5
63CC
330
18
100
AcDbEntity
  8
DIM
100
AcDbMText
 10
142.510729861325
 20
123.7421081139246
 30
0.0
 40
5.0
 41
1.0
 71
     1
 72
     5
  1
\Ftxt.shx,bigfont.shx|c128;3
 73
     1
 44
1.0
  0
MTEXT
  5
63CE
330
18
100
AcDbEntity
  8
DIM
100
AcDbMText
 10
142.6339625948596
 20
48.12077141899867
 30
0.0
 40
5.0
 41
1.0
 71
     1
 72
     5
  1
\Ftxt.shx,bigfont.shx|c128;2
 73
     1
 44
1.0
  0
LINE
  5
63CF
330
18
100
AcDbEntity
  8
DIM
100
AcDbLine
 10
48.16629438422172
 20
44.04325289106416
 30
0.0
 11
49.0787527324473
 21
43.06537879533908
 31
0.0
  0
HATCH
  5
63D0
330
18
100
AcDbEntity
  8
DIM
  6
Continuous
100
AcDbHatch
 10
0.0
 20
0.0
 30
0.0
210
0.0
220
0.0
230
1.0
  2
SOLID
 70
     1
 71
     0
 91
        1
 92
        7
 72
     0
 73
     1
 93
        3
 10
48.16517026976914
 20
42.05956449608365
 10
49.08390235836918
 20
43.04437229132737
 10
48.16517026976914
 20
44.0291800865711
 97
        0
 75
     0
 76
     1
 47
0.2359147607200769
 98
        1
 10
48.45298626599992
 20
43.2558482970189
450
        0
451
        0
460
0.0
461
0.0
452
        0
462
0.0
453
        0
470

  0
LINE
  5
63D1
330
18
100
AcDbEntity
  8
DIM
100
AcDbLine
 10
53.82584553914336
 20
41.25172499117957
 30
0.0
 11
53.82584553914336
 21
44.89802378120072
 31
0.0
  0
LINE
  5
63D2
330
18
100
AcDbEntity
  8
DIM
100
AcDbLine
 10
53.82584553914336
 20
44.89802378120072
 30
0.0
 11
57.63448078465405
 21
44.89802378120072
 31
0.0
  0
LINE
  5
63D3
330
18
100
AcDbEntity
  8
DIM
100
AcDbLine
 10
57.63448078465405
 20
41.25172499117957
 30
0.0
 11
57.63448078465405
 21
44.89802378120072
 31
0.0
  0
LINE
  5
63D4
330
18
100
AcDbEntity
  8
DIM
100
AcDbLine
 10
53.82584553914336
 20
41.25172499117957
 30
0.0
 11
57.63448078465405
 21
41.25172499117957
 31
0.0
  0
LINE
  5
63D5
330
18
100
AcDbEntity
  8
DIM
100
AcDbLine
 10
53.82584553914336
 20
43.07487438619014
 30
0.0
 11
49.06505170342029
 21
43.07487438619014
 31
0.0
  0
MTEXT
  5
63D6
330
18
100
AcDbEntity
  8
DIM
100
AcDbMText
 10
54.78308326158298
 20
44.56669206542719
 30
0.0
 40
3.0
 41
2.354875985554478
 71
     1
 72
     5
  1
A
  7
ISOCP3
 73
     1
 44
1.0
  0
LINE
  5
64AF
330
18
100
AcDbEntity
  8
図框線
100
AcDbLine
 10
197.9999999999997
 20
289.9999999999999
 30
0.0
 11
197.9999999999997
 21
-0.0000000000000568
 31
0.0
  0
LINE
  5
64B0
330
18
100
AcDbEntity
  8
図框線
370
    30
100
AcDbLine
 10
-0.0000000000002274
 20
0.0
 30
0.0
 11
-0.0000000000002274
 21
290.0
 31
0.0
  0
LINE
  5
64B1
330
18
100
AcDbEntity
  8
0
 62
     7
 48
5.0
100
AcDbLine
 39
4.0
 10
49.94750515634314
 20
27.8953239783782
 30
0.0
 11
55.27930887205229
 21
29.22827490730549
 31
0.0
  0
MTEXT
  5
64B2
330
18
100
AcDbEntity
  8
0
100
AcDbMText
 10
15.97866977158742
 20
9.63134010478825
 30
0.0
 40
6.0
 41
0.0
 71
     1
 72
     5
  1
\Ftxt.shx,bigfont.shx|c128;日機株式会社
  7
LKK
 73
     1
 44
1.0
  0
LINE
  5
64B3
330
18
100
AcDbEntity
  8
図框線
100
AcDbLine
 10
0.0
 20
0.0
 30
0.0
 11
197.9999999999997
 21
0.0
 31
0.0
  0
LINE
  5
64B7
330
18
100
AcDbEntity
  8
図框線
100
AcDbLine
 10
0.0
 20
12.0
 30
0.0
 11
197.9999999999997
 21
12.00000000000005
 31
0.0
  0
LINE
  5
64B8
330
18
100
AcDbEntity
  8
図框線
100
AcDbLine
 10
0.0
 20
22.0
 30
0.0
 11
96.0
 21
22.0
 31
0.0
  0
LINE
  5
64B9
330
18
100
AcDbEntity
  8
図框線
100
AcDbLine
 10
0.0
 20
32.0
 30
0.0
 11
197.9999999999997
 21
32.0
 31
0.0
  0
LINE
  5
64BA
330
18
100
AcDbEntity
  8
図框線
100
AcDbLine
 10
12.0
 20
32.0
 30
0.0
 11
12.0
 21
12.0
 31
0.0
  0
LINE
  5
64BB
330
18
100
AcDbEntity
  8
図框線
100
AcDbLine
 10
32.0
 20
32.0
 30
0.0
 11
32.0
 21
12.0
 31
0.0
  0
MTEXT
  5
64BC
330
18
100
AcDbEntity
  8
0
100
AcDbMText
 10
2.949444248820782
 20
29.04715033351227
 30
0.0
 40
4.5
 41
0.0
 71
     1
 72
     5
  1
\Ftxt.shx,bigfont.shx|c128;日 付
  7
JL
 73
     1
 44
1.0
  0
MTEXT
  5
64BD
330
18
100
AcDbEntity
  8
0
100
AcDbMText
 10
3.095712364910014
 20
19.83833899470915
 30
0.0
 40
4.5
 41
0.0
 71
     1
 72
     5
  1
\Ftxt.shx,bigfont.shx|c128;製 図
  7
JL
 73
     1
 44
1.0
  0
LINE
  5
64C0
330
18
100
AcDbEntity
  8
0
 62
     7
370
    25
100
AcDbLine
 10
55.27930887205229
 20
23.89647119159633
 30
0.0
 11
55.27930887205229
 21
29.22827490730549
 31
0.0
  0
MTEXT
  5
64C1
330
18
100
AcDbEntity
  8
0
100
AcDbMText
 10
66.70254067332553
 20
29.42231870267847
 30
0.0
 40
4.5
 41
0.0
 71
     1
 72
     5
  1
\Ftxt.shx,bigfont.shx|c128;尺 度
  7
JL
 73
     1
 44
1.0
  0
LINE
  5
64C2
330
18
100
AcDbEntity
  8
図框線
100
AcDbLine
 10
64.0
 20
32.0
 30
0.0
 11
64.0
 21
12.0
 31
0.0
  0
LINE
  5
64C3
330
18
100
AcDbEntity
  8
0
 62
     7
370
    25
100
AcDbLine
 10
41.2833241183157
 20
23.23894871736115
 30
0.0
 11
41.2833241183157
 21
29.67466750005656
 31
0.0
  0
CIRCLE
  5
64C4
330
18
100
AcDbEntity
  8
0
 62
     7
100
AcDbCircle
 10
41.2833241183157
 20
26.5623730494508
 30
0.0
 40
2.665901857854641
  0
LINE
  5
64C6
330
18
100
AcDbEntity
  8
0
 62
     7
370
    25
100
AcDbLine
 10
49.18030281106076
 20
26.56237304945091
 30
0.0
 11
55.75797321903156
 21
26.56237304945091
 31
0.0
  0
LINE
  5
64C7
330
18
100
AcDbEntity
  8
0
 62
     7
100
AcDbLine
 10
49.94750515634314
 20
25.22942212052362
 30
0.0
 11
55.27930887205229
 21
23.89647119159633
 31
0.0
  0
LINE
  5
64C8
330
18
100
AcDbEntity
  8
図框線
100
AcDbLine
 10
44.0
 20
21.99999999999989
 30
0.0
 11
44.0
 21
12.0
 31
0.0
  0
LINE
  5
64C9
330
18
100
AcDbEntity
  8
0
 62
     7
370
    25
100
AcDbLine
 10
37.95172532843935
 20
26.5623730494508
 30
0.0
 11
44.81391594676916
 21
26.56237304945091
 31
0.0
  0
CIRCLE
  5
64CA
330
18
100
AcDbEntity
  8
0
 62
     7
100
AcDbCircle
 10
41.2833241183157
 20
26.5623730494508
 30
0.0
 40
1.33295092892732
  0
MTEXT
  5
64CB
330
18
100
AcDbEntity
  8
0
100
AcDbMText
 10
35.12086518039769
 20
19.39982343168049
 30
0.0
 40
4.5
 41
0.0
 71
     1
 72
     5
  1
\Ftxt.shx,bigfont.shx|c128;検 図
  7
JL
 73
     1
 44
1.0
  0
LINE
  5
64CC
330
18
100
AcDbEntity
  8
0
 62
     7
370
    25
100
AcDbLine
 10
49.94750515634314
 20
25.22942212052362
 30
0.0
 11
49.94750515634314
 21
27.8953239783782
 31
0.0
  0
MTEXT
  5
64CD
330
18
100
AcDbEntity
  8
0
100
AcDbMText
 10
66.99507418337498
 20
19.62882052001464
 30
0.0
 40
4.5
 41
0.0
 71
     1
 72
     5
  1
\Ftxt.shx,bigfont.shx|c128;承 認
  7
JL
 73
     1
 44
1.0
  0
LINE
  5
64CE
330
18
100
AcDbEntity
  8
図框線
100
AcDbLine
 10
135.4848583349512
 20
231.5666682905289
 30
0.0
 11
195.4848583349512
 21
231.5666682905288
 31
0.0
  0
LINE
  5
64CF
330
18
100
AcDbEntity
  8
図框線
100
AcDbLine
 10
135.4848583349512
 20
238.766668290529
 30
0.0
 11
195.4848583349512
 21
238.766668290529
 31
0.0
  0
LINE
  5
64D0
330
18
100
AcDbEntity
  8
図框線
100
AcDbLine
 10
135.4848583349512
 20
245.9666682905289
 30
0.0
 11
195.4848583349512
 21
245.9666682905288
 31
0.0
  0
LINE
  5
64D1
330
18
100
AcDbEntity
  8
図框線
100
AcDbLine
 10
135.4848583349512
 20
253.166668290529
 30
0.0
 11
195.4848583349512
 21
253.1666682905288
 31
0.0
  0
LINE
  5
64D2
330
18
100
AcDbEntity
  8
図框線
100
AcDbLine
 10
135.4848583349512
 20
224.3666682905289
 30
0.0
 11
195.4848583349512
 21
224.3666682905289
 31
0.0
  0
MTEXT
  5
64D3
330
18
100
AcDbEntity
  8
0
 62
     7
 48
2.0
100
AcDbMText
 10
165.3702583008225
 20
253.9598367011131
 30
0.0
 40
4.8
 41
0.0
 71
     5
 72
     1
  1
\P\Ftxt.shx,bigfont.shx|c128;諸　　　　元
 73
     1
 44
1.0
  0
LINE
  5
64D5
330
18
100
AcDbEntity
  8
図框線
100
AcDbLine
 10
135.4848583349512
 20
253.1666682905288
 30
0.0
 11
135.4848583349512
 21
224.3666682905289
 31
0.0
  0
MTEXT
  5
64D6
330
18
100
AcDbEntity
  8
0
100
AcDbMText
 10
139.0072941486314
 20
244.4401591234081
 30
0.0
 40
4.4
 41
163.916286842249
 71
     1
 72
     5
  1
\Ftxt.shx,bigfont.shx|c128;熱　処　理
  7
JL
 73
     1
 44
1.0
  0
LINE
  5
64D7
330
18
100
AcDbEntity
  8
図框線
100
AcDbLine
 10
159.4848583349512
 20
245.9666682905288
 30
0.0
 11
159.4848583349512
 21
224.3666682905289
 31
0.0
  0
MTEXT
  5
64D8
330
18
100
AcDbEntity
  8
0
100
AcDbMText
 10
97.65702556263818
 20
11.15332144655735
 30
0.0
 40
5.0
 41
0.0
 71
     1
 72
     5
  1
\Ftxt.shx,bigfont.shx|c128;図  面  番  号
  7
JL
 73
     1
 44
1.0
  0
MTEXT
  5
64D9
330
18
100
AcDbEntity
  8
0
 62
     7
 48
2.0
100
AcDbMText
 10
121.8260850653862
 20
22.29156825453561
 30
0.0
 40
4.5
 41
0.0
 71
     5
 72
     1
  1
\P\Ftxt.shx,bigfont.shx|c128;    精密ロックナット
 73
     1
 44
1.0
  0
MTEXT
  5
64DA
330
18
100
AcDbEntity
  8
0
370
    25
100
AcDbMText
 10
98.8002923053598
 20
29.80688815403971
 30
0.0
 40
5.0
 41
0.0
 71
     1
 72
     5
  1
\Ftxt.shx,bigfont.shx|c128;品  名
  7
JL
 73
     1
 44
1.0
  0
LINE
  5
64DB
330
18
100
AcDbEntity
  8
図框線
100
AcDbLine
 10
96.0
 20
32.0
 30
0.0
 11
96.0
 21
0.19104161092514
 31
0.0
  0
LINE
  5
64DC
330
18
100
AcDbEntity
  8
図框線
100
AcDbLine
 10
76.0
 20
32.0
 30
0.0
 11
76.0
 21
12.0
 31
0.0
  0
LINE
  5
64DE
330
18
100
AcDbEntity
  8
図框線
100
AcDbLine
 10
153.2235601908683
 20
32.0
 30
0.0
 11
153.2235601908683
 21
12.0
 31
0.0
  0
MTEXT
  5
64DF
330
18
100
AcDbEntity
  8
0
100
AcDbMText
 10
138.7270197812522
 20
237.437930676148
 30
0.0
 40
4.4
 41
163.6058628849672
 71
     1
 72
     5
  1
\Ftxt.shx,bigfont.shx|c128;表 面 処 理
  7
JL
 73
     1
 44
1.0
  0
MTEXT
  5
64E0
330
18
100
AcDbEntity
  8
0
100
AcDbMText
 10
139.0170856296872
 20
230.1494578225401
 30
0.0
 40
4.4
 41
166.1718
 71
     1
 72
     5
  1
\Ftxt.shx,bigfont.shx|c128;等     　級
  7
JL
 73
     1
 44
1.0
  0
LINE
  5
64E1
330
18
100
AcDbEntity
  8
図框線
100
AcDbLine
 10
195.4848583349512
 20
253.1666682905288
 30
0.0
 11
195.4848583349512
 21
224.366668290529
 31
0.0
  0
MTEXT
  5
64E2
330
18
100
AcDbEntity
  8
0
100
AcDbMText
 10
164.2318616443938
 20
244.2652012159984
 30
0.0
 40
4.4
 41
291.8960056857887
 71
     1
 72
     5
  1
\Ftxt.shx,bigfont.shx|c128;調質　HRC30%%d%%p２%%d
  7
JL
 73
     1
 44
1.0
  0
MTEXT
  5
64E4
330
18
100
AcDbEntity
  8
0
370
    25
100
AcDbMText
 10
157.2494735287423
 20
29.58569764093568
 30
0.0
 40
5.0
 41
0.0
 71
     1
 72
     5
  1
\Ftxt.shx,bigfont.shx|c128;型  番
  7
JL
 73
     1
 44
1.0
  0
MTEXT
  5
64E5
330
18
100
AcDbEntity
  8
0
100
AcDbMText
 10
172.787265122339
 20
11.23700203391422
 30
0.0
 40
5.0
 41
0.0
 71
     1
 72
     5
  1
\Ftxt.shx,bigfont.shx|c128;変更
  7
JL
 73
     1
 44
1.0
  0
LINE
  5
64E6
330
18
100
AcDbEntity
  8
図框線
100
AcDbLine
 10
171.0
 20
12.00907027842731
 30
0.0
 11
171.0
 21
0.0
 31
0.0
  0
MTEXT
  5
64E7
330
18
100
AcDbEntity
  8
0
100
AcDbMText
 10
164.4925006458302
 20
230.1500683939912
 30
0.0
 40
4.4
 41
290.783364796891
 71
     1
 72
     5
  1
\Ftxt.shx,bigfont.shx|c128;ＩＳＯ - ４Ｈ
  7
JL
 73
     1
 44
1.0
  0
MTEXT
  5
64E8
330
18
100
AcDbEntity
  8
0
100
AcDbMText
 10
164.6669618439605
 20
237.0850377391931
 30
0.0
 40
4.4
 41
291.4548
 71
     1
 72
     5
  1
\Ftxt.shx,bigfont.shx|c128;黒  　    染
  7
JL
 73
     1
 44
1.0
  0
MTEXT
  5
64EA
330
18
100
AcDbEntity
  8
0
100
AcDbMText
 10
60.06318600759005
 20
270.095850257545
 30
0.0
 40
5.0
 41
0.0
 71
     1
 72
     5
  1
\Ftxt.shx,bigfont.shx|c128;M8X1.25-8L
  7
JL
 73
     1
 44
1.0
  0
MTEXT
  5
64EB
330
18
100
AcDbEntity
  8
0
100
AcDbMText
 10
60.06318600759005
 20
262.095850257545
 30
0.0
 40
5.0
 41
0.0
 71
     1
 72
     5
  1
\Ftxt.shx,bigfont.shx|c128;%%c7X6L
  7
JL
 73
     1
 44
1.0
  0
LINE
  5
64EC
330
18
100
AcDbEntity
  8
図框線
100
AcDbLine
 10
-0.0000000000002274
 20
263.9999999999999
 30
0.0
 11
197.9999999999997
 21
263.9999999999999
 31
0.0
  0
LINE
  5
64ED
330
18
100
AcDbEntity
  8
図框線
100
AcDbLine
 10
-0.0000000000002274
 20
271.9999999999999
 30
0.0
 11
197.9999999999997
 21
271.9999999999999
 31
0.0
  0
LINE
  5
64EE
330
18
100
AcDbEntity
  8
図框線
 62
     9
100
AcDbLine
 10
-0.0000000000002274
 20
279.9999999999999
 30
0.0
 11
197.9999999999997
 21
279.9999999999999
 31
0.0
  0
LINE
  5
64EF
330
18
100
AcDbEntity
  8
図框線
100
AcDbLine
 10
-0.0000000000002274
 20
290.0
 30
0.0
 11
197.9999999999997
 21
290.0
 31
0.0
  0
MTEXT
  5
64F0
330
18
100
AcDbEntity
  8
0
100
AcDbMText
 10
59.41630259681733
 20
287.3155952051104
 30
0.0
 40
5.0
 41
0.0
 71
     1
 72
     5
  1
\Ftxt.shx,bigfont.shx|c128;図    番 / 規　　格
  7
JL
 73
     1
 44
1.0
  0
LINE
  5
64F1
330
18
100
AcDbEntity
  8
図框線
100
AcDbLine
 10
-0.0000000000002274
 20
263.9999999999999
 30
0.0
 11
197.9999999999997
 21
263.9999999999999
 31
0.0
  0
LINE
  5
64F2
330
18
100
AcDbEntity
  8
図框線
100
AcDbLine
 10
-0.0000000000002274
 20
255.9999999999999
 30
0.0
 11
197.9999999999997
 21
255.9999999999999
 31
0.0
  0
MTEXT
  5
64F3
330
18
100
AcDbEntity
  8
0
100
AcDbMText
 10
22.01434914141237
 20
286.7888025819827
 30
0.0
 40
5.0
 41
0.0
 71
     1
 72
     5
  1
\Ftxt.shx,bigfont.shx|c128;品　          名
  7
JL
 73
     1
 44
1.0
  0
MTEXT
  5
64F4
330
18
100
AcDbEntity
  8
0
100
AcDbMText
 10
18.8650376130422
 20
270.5298549795346
 30
0.0
 40
6.0
 41
0.0
 71
     1
 72
     5
  1
\Ftxt.shx,bigfont.shx|c128;セットスクリュ-
  7
JL
 73
     1
 44
1.0
  0
MTEXT
  5
64F5
330
18
100
AcDbEntity
  8
0
100
AcDbMText
 10
18.66941459004738
 20
278.3660650505403
 30
0.0
 40
6.0
 41
0.0
 71
     1
 72
     5
  1
\Ftxt.shx,bigfont.shx|c128;ロックナット　  
  7
JL
 73
     1
 44
1.0
  0
MTEXT
  5
64F6
330
18
100
AcDbEntity
  8
0
100
AcDbMText
 10
18.8650376130422
 20
262.5298549795346
 30
0.0
 40
6.0
 41
0.0
 71
     1
 72
     5
  1
\Ftxt.shx,bigfont.shx|c128;ロックピン 
  7
JL
 73
     1
 44
1.0
  0
LINE
  5
64F7
330
18
100
AcDbEntity
  8
図框線
100
AcDbLine
 10
14.99999999999977
 20
289.9999999999998
 30
0.0
 11
15.00000000000011
 21
255.9999999999999
 31
0.0
  0
LINE
  5
64F8
330
18
100
AcDbEntity
  8
0
100
AcDbLine
 10
14.99999999999977
 20
289.9999999999998
 30
0.0
 11
14.99999999999977
 21
263.9999999999999
 31
0.0
  0
MTEXT
  5
64F9
330
18
100
AcDbEntity
  8
0
100
AcDbMText
 10
6.215289087390488
 20
262.7436409356394
 30
0.0
 40
5.0
 41
0.0
 71
     1
 72
     5
  1
\Ftxt.shx,bigfont.shx|c128;3
  7
JL
 73
     1
 44
1.0
  0
MTEXT
  5
64FA
330
18
100
AcDbEntity
  8
0
100
AcDbMText
 10
7.101957026666809
 20
278.5798510066454
 30
0.0
 40
5.0
 41
0.0
 71
     1
 72
     5
  1
\Ftxt.shx,bigfont.shx|c128;1
  7
JL
 73
     1
 44
1.0
  0
MTEXT
  5
64FB
330
18
100
AcDbEntity
  8
0
100
AcDbMText
 10
6.215289087390488
 20
270.7436409356394
 30
0.0
 40
5.0
 41
0.0
 71
     1
 72
     5
  1
\Ftxt.shx,bigfont.shx|c128;2
  7
JL
 73
     1
 44
1.0
  0
MTEXT
  5
64FC
330
18
100
AcDbEntity
  8
0
100
AcDbMText
 10
2.209083991842362
 20
287.0885254164057
 30
0.0
 40
5.0
 41
0.0
 71
     1
 72
     5
  1
\Ftxt.shx,bigfont.shx|c128;照   号
  7
JL
 73
     1
 44
1.0
  0
LINE
  5
64FD
330
18
100
AcDbEntity
  8
図框線
 62
     9
100
AcDbLine
 10
54.99999999999977
 20
289.9999999999998
 30
0.0
 11
54.99999999999977
 21
256.0
 31
0.0
  0
MTEXT
  5
64FE
330
18
100
AcDbEntity
  8
0
100
AcDbMText
 10
146.3353765925378
 20
287.5804049742369
 30
0.0
 40
5.0
 41
0.0
 71
     1
 72
     5
  1
\Ftxt.shx,bigfont.shx|c128;備           考
  7
JL
 73
     1
 44
1.0
  0
LINE
  5
64FF
330
18
100
AcDbEntity
  8
図框線
 62
     9
100
AcDbLine
 10
94.99999999999976
 20
289.9999999999999
 30
0.0
 11
94.99999999999976
 21
255.9999999999999
 31
0.0
  0
MTEXT
  5
6500
330
18
100
AcDbEntity
  8
0
100
AcDbMText
 10
96.78387029776377
 20
262.3660650505403
 30
0.0
 40
5.0
 41
0.0
 71
     1
 72
     5
  1
\Ftxt.shx,bigfont.shx|c128;C3604
  7
JL
 73
     1
 44
1.0
  0
MTEXT
  5
6501
330
18
100
AcDbEntity
  8
0
100
AcDbMText
 10
96.78387029776377
 20
278.3660650505403
 30
0.0
 40
5.0
 41
0.0
 71
     1
 72
     5
  1
\Ftxt.shx,bigfont.shx|c128;SCM-440
  7
JL
 73
     1
 44
1.0
  0
MTEXT
  5
6502
330
18
100
AcDbEntity
  8
0
100
AcDbMText
 10
96.78387029776377
 20
270.3660650505403
 30
0.0
 40
5.0
 41
0.0
 71
     1
 72
     5
  1
\Ftxt.shx,bigfont.shx|c128;SCM435
  7
JL
 73
     1
 44
1.0
  0
MTEXT
  5
6503
330
18
100
AcDbEntity
  8
0
100
AcDbMText
 10
99.80032499445407
 20
287.5804049742369
 30
0.0
 40
5.0
 41
0.0
 71
     1
 72
     5
  1
\Ftxt.shx,bigfont.shx|c128;材　質
  7
JL
 73
     1
 44
1.0
  0
LINE
  5
6504
330
18
100
AcDbEntity
  8
図框線
 62
     9
100
AcDbLine
 10
114.9999999999997
 20
289.9999999999999
 30
0.0
 11
114.9999999999997
 21
255.9999999999999
 31
0.0
  0
LINE
  5
6505
330
18
100
AcDbEntity
  8
図框線
100
AcDbLine
 10
129.9999999999998
 20
289.9999999999999
 30
0.0
 11
129.9999999999998
 21
255.9999999999999
 31
0.0
  0
MTEXT
  5
6506
330
18
100
AcDbEntity
  8
0
100
AcDbMText
 10
121.2152890873904
 20
262.7436409356394
 30
0.0
 40
5.0
 41
0.0
 71
     1
 72
     5
  1
\Ftxt.shx,bigfont.shx|c128;3
  7
JL
 73
     1
 44
1.0
  0
MTEXT
  5
6507
330
18
100
AcDbEntity
  8
0
100
AcDbMText
 10
122.1019570266667
 20
278.5798510066454
 30
0.0
 40
5.0
 41
0.0
 71
     1
 72
     5
  1
\Ftxt.shx,bigfont.shx|c128;1
  7
JL
 73
     1
 44
1.0
  0
MTEXT
  5
6508
330
18
100
AcDbEntity
  8
0
100
AcDbMText
 10
121.2152890873904
 20
270.7436409356394
 30
0.0
 40
5.0
 41
0.0
 71
     1
 72
     5
  1
\Ftxt.shx,bigfont.shx|c128;3
  7
JL
 73
     1
 44
1.0
  0
MTEXT
  5
6509
330
18
100
AcDbEntity
  8
0
100
AcDbMText
 10
116.433740311917
 20
287.5804049742369
 30
0.0
 40
5.0
 41
0.0
 71
     1
 72
     5
  1
\Ftxt.shx,bigfont.shx|c128;数   量
  7
JL
 73
     1
 44
1.0
  0
DIMENSION
  5
6770
330
18
100
AcDbEntity
  8
0
100
AcDbDimension
  2
*D1
 10
123.1662943842217
 20
51.32478808080891
 30
0.0
 11
85.66629438422131
 21
51.32478808080891
 31
0.0
 12
-249.1688470556405
 22
19.74826450598357
 32
0.0
 70
   160
  1
M<>X2.0P
 71
     5
 42
-1.0
  3
A
100
AcDbAlignedDimension
 13
48.16629438422172
 23
68.94267414756183
 33
0.0
 14
123.1662943842217
 24
68.9426741475618
 34
0.0
100
AcDbRotatedDimension
  0
LEADER
  5
6B85
330
18
100
AcDbEntity
  8
DIM
 62
     6
100
AcDbLeader
  3
A
 73
     0
 74
     0
 75
     1
 40
3.0
 41
4.999999999999999
 76
     3
 10
48.41629438422171
 20
89.27600748089515
 30
0.0
 10
56.38913002326745
 20
97.11223409495676
 30
0.0
 10
58.88913002326745
 20
97.11223409495676
 30
0.0
340
6B86
  0
MTEXT
  5
6B86
102
{ACAD_REACTORS
330
6B85
102
}
330
18
100
AcDbEntity
  8
DIM
 62
     3
100
AcDbMText
 10
59.88913002326746
 20
99.61223409495676
 30
0.0
 40
3.0
 41
0.0
 71
     4
 72
     1
  1
\A1;C2
  7
TXT
 73
     1
 44
1.0
  0
DIMENSION
  5
6C92
330
18
100
AcDbEntity
  8
DIM
100
AcDbDimension
  2
*D2
 10
130.6662943842217
 20
110.4672306990507
 30
0.0
 11
85.66629438422172
 21
112.9672306990507
 31
0.0
 12
-249.1688470556405
 22
19.74826450598357
 32
0.0
 70
    32
  1
%%c<>%%p0.5
 71
     5
 42
-1.0
  3
A
100
AcDbAlignedDimension
 13
40.66629438422171
 23
92.27600748089518
 33
0.0
 14
130.6662943842217
 24
92.27600748089519
 34
0.0
100
AcDbRotatedDimension
  0
DIMENSION
  5
6CAA
330
18
100
AcDbEntity
  8
DIM
100
AcDbDimension
  2
*D3
 10
134.6662943842218
 20
115.9747007894656
 30
0.0
 11
81.59723825630749
 21
116.8008215393509
 31
0.0
 12
-249.1688470556405
 22
19.74826450598357
 32
0.0
 70
   160
  1
%%c<>
 71
     5
 42
-1.0
  3
A
100
AcDbAlignedDimension
 13
36.66629438422172
 23
89.77600748089514
 33
0.0
 14
134.6662943842218
 24
89.77600748089519
 34
0.0
100
AcDbRotatedDimension
  0
DIMENSION
  5
6F74
330
18
100
AcDbEntity
  8
0
100
AcDbDimension
  2
*D4
 10
158.8130245210688
 20
51.66854245749411
 30
0.0
 11
169.3090968960813
 21
69.84827309093573
 31
0.0
 12
7.154171800309143
 22
-24.71992142834853
 32
0.0
 70
   161
  1
9%%p0.5
 71
     5
 42
-1.0
  3
A
100
AcDbAlignedDimension
 13
134.66673361707
 23
76.27884298547328
 33
0.0
 14
130.04673361707
 24
68.27676825450499
 34
0.0
  0
MTEXT
  5
72FF
102
{ACAD_REACTORS
330
7300
102
}
330
18
100
AcDbEntity
  8
DIM
 62
     3
100
AcDbMText
 10
109.2777525384417
 20
61.44614958437748
 30
0.0
 40
3.0
 41
0.0
 71
     6
 72
     1
  1
\A1;C2
  7
TXT
 73
     1
 44
1.0
  0
LEADER
  5
7300
330
18
100
AcDbEntity
  8
DIM
 62
     6
100
AcDbLeader
  3
A
 73
     0
 75
     1
 40
3.0
 41
4.999999999999999
 76
     3
 10
122.9162943842217
 20
69.27600748089512
 30
0.0
 10
112.7777525384417
 20
58.94614958437748
 30
0.0
 10
110.2777525384417
 20
58.94614958437748
 30
0.0
340
72FF
  0
MTEXT
  5
7303
102
{ACAD_REACTORS
330
7304
102
}
330
18
100
AcDbEntity
  8
DIM
 62
     3
100
AcDbMText
 10
150.2821689841074
 20
106.2944343241108
 30
0.0
 40
3.0
 41
0.0
 71
     4
 72
     1
  1
\A1;R2
  7
TXT
 73
     1
 44
1.0
  0
LEADER
  5
7304
330
18
100
AcDbEntity
  8
DIM
 62
     6
100
AcDbLeader
  3
A
 73
     0
 74
     0
 75
     1
 40
3.0
 41
4.999999999999999
 76
     3
 10
134.0805079465949
 20
91.19022104326829
 30
0.0
 10
146.7821689841074
 20
103.7944343241108
 30
0.0
 10
149.2821689841074
 20
103.7944343241108
 30
0.0
340
7303
1001
ACAD
1000
DSTYLE
1002
{
1070
    45
1040
0.0
1002
}
  0
DIMENSION
  5
74C6
330
18
100
AcDbEntity
  8
0
100
AcDbDimension
  2
*D5
 10
28.35289908547935
 20
91.77600748089515
 30
0.0
 11
28.35289908547935
 21
105.0969632696622
 31
0.0
 12
-249.1688470556405
 22
19.74826450598357
 32
0.0
 70
   160
 71
     5
 42
-1.0
  3
A
100
AcDbAlignedDimension
 13
40.71235385271046
 23
92.27600748089518
 33
0.0
 14
38.66629438422171
 24
91.77600748089515
 34
0.0
 50
90.0
100
AcDbRotatedDimension
  0
DIMENSION
  5
750D
330
18
100
AcDbEntity
  8
DIM
100
AcDbDimension
  2
*D6
 10
123.6662943842217
 20
104.6241358874221
 30
0.0
 11
85.66629438422172
 21
107.1241358874221
 31
0.0
 12
-249.1688470556405
 22
19.74826450598357
 32
0.0
 70
    32
  1
%%c<>
 71
     5
 42
-1.0
  3
A
100
AcDbAlignedDimension
 13
47.66629438422171
 23
92.27600748089516
 33
0.0
 14
123.6662943842217
 24
92.27600748089518
 34
0.0
100
AcDbRotatedDimension
  0
DIMENSION
  5
7568
330
18
100
AcDbEntity
  8
DIM
100
AcDbDimension
  2
*D7
 10
149.5530601925323
 20
72.31773060669853
 30
0.0
 11
147.0530601925323
 21
82.29686904379688
 31
0.0
 12
-249.1688470556405
 22
19.74826450598357
 32
0.0
 70
    32
 71
     5
 42
-1.0
  3
A
100
AcDbAlignedDimension
 13
130.6662943842217
 23
92.27600748089519
 33
0.0
 14
132.379784318894
 24
72.31773060669853
 34
0.0
 50
90.0
100
AcDbRotatedDimension
  0
DIMENSION
  5
7575
330
18
100
AcDbEntity
  8
DIM
100
AcDbDimension
  2
*D8
 10
159.7020811189205
 20
92.27600748089519
 30
0.0
 11
157.2020811189205
 21
80.2763878677001
 31
0.0
 12
-249.1688470556405
 22
19.74826450598357
 32
0.0
 70
    32
  1
<>%%p0.2
 71
     5
 42
-1.0
  3
A
100
AcDbAlignedDimension
 13
130.04673361707
 23
68.27676825450499
 33
0.0
 14
130.6662943842217
 24
92.27600748089519
 34
0.0
 50
90.0
100
AcDbRotatedDimension
  0
DIMENSION
  5
7AD6
330
18
100
AcDbEntity
  8
DIM
100
AcDbDimension
  2
*D9
 10
94.88402949070161
 20
92.27600748089519
 30
0.0
 11
94.88402949070161
 21
99.86182116856747
 31
0.0
 12
-214.864890534913
 22
-22.72068220195834
 32
0.0
 70
   160
 71
     5
 42
-1.0
  3
A
100
AcDbAlignedDimension
 13
98.66629438422137
 23
90.27600748089545
 33
0.0
 14
98.66629438422137
 24
92.27600748089519
 34
0.0
 50
90.0
100
AcDbRotatedDimension
  0
ARC
  5
9CA2
330
18
100
AcDbEntity
  8
本体外線
100
AcDbCircle
 10
85.66629438422172
 20
196.8196057574066
 30
0.0
 40
49.0
100
AcDbArc
 50
64.6824168622696
 51
175.1704343729557
  0
CIRCLE
  5
9CA3
330
18
100
AcDbEntity
  8
本体外線
100
AcDbCircle
 10
85.66629438422172
 20
196.8196057574066
 30
0.0
 40
45.0
  0
ARC
  5
9CA4
330
18
100
AcDbEntity
  8
0
100
AcDbCircle
 10
85.66629438422172
 20
196.8196057574066
 30
0.0
 40
37.5
100
AcDbArc
 50
166.3083325569278
 51
99.66409098839577
  0
CIRCLE
  5
9CA5
330
18
100
AcDbEntity
  8
本体外線
100
AcDbCircle
 10
85.66629438422172
 20
196.8196057574066
 30
0.0
 40
36.5
  0
LINE
  5
9CA6
102
{ACAD_REACTORS
330
9EC3
102
}
330
18
100
AcDbEntity
  8
本体外線
100
AcDbLine
 10
40.66629438422171
 20
92.27600748089514
 30
0.0
 11
130.6662943842217
 21
92.27600748089519
 31
0.0
  0
LINE
  5
9CA7
102
{ACAD_REACTORS
330
9EC3
102
}
330
18
100
AcDbEntity
  8
本体外線
100
AcDbLine
 10
41.2862943842208
 20
68.27600748089515
 30
0.0
 11
130.0462943842216
 21
68.2760074808952
 31
0.0
  0
LINE
  5
9CA8
330
18
100
AcDbEntity
  8
本体外線
100
AcDbLine
 10
36.66629438422172
 20
89.77600748089514
 30
0.0
 11
36.66629438422183
 21
76.27600748089514
 31
0.0
  0
LINE
  5
9CA9
102
{ACAD_REACTORS
330
9EC3
102
}
330
18
100
AcDbEntity
  8
本体外線
100
AcDbLine
 10
134.6662943842217
 20
89.77600748089519
 30
0.0
 11
134.6662943842217
 21
76.2760074808952
 31
0.0
  0
LINE
  5
9CAA
102
{ACAD_REACTORS
330
9EC3
102
}
330
18
100
AcDbEntity
  8
本体外線
100
AcDbLine
 10
40.66629438422171
 20
92.27600748089514
 30
0.0
 11
40.66629438422171
 21
91.77600748089515
 31
0.0
  0
LINE
  5
9CAB
102
{ACAD_REACTORS
330
9EC3
102
}
330
18
100
AcDbEntity
  8
本体外線
100
AcDbLine
 10
49.16629438422171
 20
88.27600748089514
 30
0.0
 11
49.16629438422171
 21
70.27600748089517
 31
0.0
  0
LINE
  5
9CAE
102
{ACAD_REACTORS
330
9D0C
330
9EC3
102
}
330
18
100
AcDbEntity
  8
本体外線
100
AcDbLine
 10
122.1662943842217
 20
88.27600748089523
 30
0.0
 11
122.1662943842217
 21
70.2760074808952
 31
0.0
  0
LINE
  5
9CAF
102
{ACAD_REACTORS
330
9EC3
102
}
330
18
100
AcDbEntity
  8
本体外線
100
AcDbLine
 10
130.6662943842217
 20
92.27600748089519
 30
0.0
 11
130.6662943842217
 21
91.77600748089515
 31
0.0
  0
LINE
  5
9CB0
102
{ACAD_REACTORS
330
9EC3
102
}
330
18
100
AcDbEntity
  8
本体外線
100
AcDbLine
 10
38.66629438422171
 20
91.77600748089515
 30
0.0
 11
40.66629438422171
 21
91.77600748089515
 31
0.0
  0
LINE
  5
9CB1
102
{ACAD_REACTORS
330
9EC3
102
}
330
18
100
AcDbEntity
  8
本体外線
100
AcDbLine
 10
130.6662943842217
 20
91.77600748089515
 30
0.0
 11
132.6662943842218
 21
91.7760074808952
 31
0.0
  0
LINE
  5
9CB2
330
18
100
AcDbEntity
  8
本体外線
100
AcDbLine
 10
47.66629438422171
 20
90.2760074808952
 30
0.0
 11
123.6662943842217
 21
90.2760074808952
 31
0.0
  0
LINE
  5
9CB3
102
{ACAD_REACTORS
330
9EC3
102
}
330
18
100
AcDbEntity
  8
本体外線
100
AcDbLine
 10
49.16629438422171
 20
88.27600748089514
 30
0.0
 11
47.66629438422171
 21
90.27600748089515
 31
0.0
  0
LINE
  5
9CB6
102
{ACAD_REACTORS
330
9EC3
102
}
330
18
100
AcDbEntity
  8
本体外線
100
AcDbLine
 10
122.1662943842217
 20
88.27600748089521
 30
0.0
 11
123.6662943842217
 21
90.2760074808952
 31
0.0
  0
ARC
  5
9CB7
102
{ACAD_REACTORS
330
9EC3
102
}
330
18
100
AcDbEntity
  8
本体外線
100
AcDbCircle
 10
132.6662943842218
 20
89.77600748089519
 30
0.0
 40
2.0
100
AcDbArc
 50
0.0
 51
90.00000000000019
  0
ARC
  5
9CB8
330
18
100
AcDbEntity
  8
本体外線
100
AcDbCircle
 10
38.66629438422171
 20
89.77600748089514
 30
0.0
 40
2.0
100
AcDbArc
 50
90.0
 51
180.0000000000001
  0
LINE
  5
9CB9
330
18
100
AcDbEntity
  8
本体外線
100
AcDbLine
 10
49.16629438422171
 20
70.27600748089515
 30
0.0
 11
122.1662943842217
 21
70.2760074808952
 31
0.0
  0
POINT
  5
9CBB
330
18
100
AcDbEntity
  8
本体外線
100
AcDbPoint
 10
130.6662943842217
 20
92.27600748089519
 30
0.0
  0
LINE
  5
9CC6
330
18
100
AcDbEntity
  8
本体外線
100
AcDbLine
 10
113.5486268935091
 20
237.1132222970217
 30
0.0
 11
111.7835245245392
 21
234.0559753134057
 31
0.0
  0
LINE
  5
9CC7
330
18
100
AcDbEntity
  8
本体外線
100
AcDbLine
 10
106.6204236632335
 20
241.1132222970217
 30
0.0
 11
104.849059710548
 21
238.0451299322743
 31
0.0
  0
LINE
  5
9CC8
330
18
100
AcDbEntity
  8
本体内線
  6
HIDDEN
 48
0.2
100
AcDbLine
 10
70.99031606568769
 20
163.4000656589265
 30
0.0
 11
64.71216510520992
 21
152.5259892177916
 31
0.0
  0
LINE
  5
9CC9
330
18
100
AcDbEntity
  8
本体内線
  6
HIDDEN
 48
0.2
100
AcDbLine
 10
64.06211283541222
 20
167.4000656589266
 30
0.0
 11
57.78396187493433
 21
156.5259892177916
 31
0.0
  0
LINE
  5
9CCA
330
18
100
AcDbEntity
  8
本体内線
  6
HIDDEN
 48
0.2
100
AcDbLine
 10
70.44013134656961
 20
163.647117771866
 30
0.0
 11
64.16983151202055
 21
152.7866398797364
 31
0.0
  0
LINE
  5
9CCB
330
18
100
AcDbEntity
  8
本体内線
  6
HIDDEN
 48
0.2
100
AcDbLine
 10
64.55115860083549
 20
167.047117771866
 30
0.0
 11
58.28085876628643
 21
156.1866398797364
 31
0.0
  0
LINE
  5
9CCC
330
18
100
AcDbEntity
  8
本体外線
100
AcDbLine
 10
104.8489240209269
 20
238.0452079897586
 30
0.0
 11
111.7836602141602
 21
234.0558972559212
 31
0.0
  0
LINE
  5
9CCF
330
18
100
AcDbEntity
  8
本体内線
  6
HIDDEN
 48
0.2
100
AcDbLine
 10
121.9464542515651
 20
200.8196057574066
 30
0.0
 11
134.5027561725208
 21
200.8196057574068
 31
0.0
  0
LINE
  5
9CD0
330
18
100
AcDbEntity
  8
本体内線
  6
HIDDEN
 48
0.2
100
AcDbLine
 10
121.9464542515651
 20
192.8196057574066
 30
0.0
 11
134.5027561725208
 21
192.8196057574067
 31
0.0
  0
LINE
  5
9CD1
330
18
100
AcDbEntity
  8
本体内線
  6
HIDDEN
 48
0.2
100
AcDbLine
 10
122.00759320526
 20
200.2196057574067
 30
0.0
 11
134.548192874358
 21
200.2196057574066
 31
0.0
  0
LINE
  5
9CD2
330
18
100
AcDbEntity
  8
本体内線
  6
HIDDEN
 48
0.2
100
AcDbLine
 10
122.0075932052599
 20
193.4196057574066
 30
0.0
 11
134.548192874358
 21
193.4196057574066
 31
0.0
  0
LINE
  5
9CD3
330
18
100
AcDbEntity
  8
中心線
  6
CENTER
 48
0.15
100
AcDbLine
 10
68.41629438422171
 20
226.6974821879698
 30
0.0
 11
60.16629438422171
 21
240.986901350413
 31
0.0
  0
LINE
  5
9CD4
330
18
100
AcDbEntity
  8
本体内線
  6
HIDDEN
 48
0.2
100
AcDbLine
 10
64.0621128354121
 20
226.2391458558867
 30
0.0
 11
57.78396187493433
 21
237.1132222970217
 31
0.0
  0
LINE
  5
9CD5
330
18
100
AcDbEntity
  8
本体内線
  6
HIDDEN
 48
0.2
100
AcDbLine
 10
70.99031606568781
 20
230.2391458558867
 30
0.0
 11
64.71216510520992
 21
241.1132222970217
 31
0.0
  0
LINE
  5
9CD6
330
18
100
AcDbEntity
  8
本体内線
  6
HIDDEN
 48
0.2
100
AcDbLine
 10
64.55115860083549
 20
226.5920937429473
 30
0.0
 11
58.28085876628643
 21
237.4525716350769
 31
0.0
  0
LINE
  5
9CD7
330
18
100
AcDbEntity
  8
本体内線
  6
HIDDEN
 48
0.2
100
AcDbLine
 10
70.44013134656961
 20
229.9920937429473
 30
0.0
 11
64.16983151202055
 21
240.852571635077
 31
0.0
  0
LINE
  5
9CD8
330
18
100
AcDbEntity
  8
中心線
  6
CENTER
 48
0.15
100
AcDbLine
 10
34.59388891118602
 20
196.9450157154507
 30
0.0
 11
136.6661401912673
 21
196.9450157154507
 31
0.0
  0
LINE
  5
9CD9
330
18
100
AcDbEntity
  8
本体外線
100
AcDbLine
 10
36.84026656423544
 20
200.9450157154508
 30
0.0
 11
40.28763186082665
 21
200.9450157154507
 31
0.0
  0
LINE
  5
9CDA
330
18
100
AcDbEntity
  8
本体外線
100
AcDbLine
 10
36.81972283608968
 20
192.9450157154506
 30
0.0
 11
40.3001550282579
 21
192.9450157154506
 31
0.0
  0
LINE
  5
9CDB
330
18
100
AcDbEntity
  8
本体外線
100
AcDbLine
 10
40.30015527330408
 20
192.9448591760497
 30
0.0
 11
40.28763161578058
 21
200.9451722548519
 31
0.0
  0
LINE
  5
9CDC
330
18
100
AcDbEntity
  8
中心線
  6
CENTER
 48
0.15
100
AcDbLine
 10
59.9493863524217
 20
152.7782542649292
 30
0.0
 11
68.1995338452711
 21
167.0679288924809
 31
0.0
  0
LINE
  5
9CDD
330
18
100
AcDbEntity
  8
本体外線
100
AcDbLine
 10
106.5065984695234
 20
152.4723203203908
 30
0.0
 11
104.7105103481921
 21
155.5832362014076
 31
0.0
  0
LINE
  5
9CDE
330
18
100
AcDbEntity
  8
本体外線
100
AcDbLine
 10
113.4450735638718
 20
156.4545289299282
 30
0.0
 11
111.6324519947519
 21
159.5940815825388
 31
0.0
  0
LINE
  5
9CDF
330
18
100
AcDbEntity
  8
本体外線
100
AcDbLine
 10
111.6325874393269
 20
159.5941600644555
 30
0.0
 11
104.710374903617
 21
155.5831577194908
 31
0.0
  0
LINE
  5
9CE0
330
18
100
AcDbEntity
  8
中心線
  6
CENTER
 48
0.15
100
AcDbLine
 10
85.4490779651145
 20
196.9450157154505
 30
0.0
 11
85.7386998572573
 21
196.9450157154506
 31
0.0
  0
LINE
  5
9CE1
330
18
100
AcDbEntity
  8
0
 48
0.08
100
AcDbLine
 10
67.30779389866825
 20
228.3666414330757
 30
0.0
 11
67.27148343815031
 21
228.4295329955388
 31
0.0
  0
LINE
  5
9CE2
330
18
100
AcDbEntity
  8
中心線
  6
CENTER
 48
0.15
100
AcDbLine
 10
85.66629438422182
 20
247.8196057574066
 30
0.0
 11
85.66629438422159
 21
145.8196057574066
 31
0.0
  0
ARC
  5
9CE5
330
18
100
AcDbEntity
  8
本体外線
100
AcDbCircle
 10
85.66629438422172
 20
196.8196057574066
 30
0.0
 40
49.0
100
AcDbArc
 50
184.5352990443318
 51
295.1704343729556
  0
ARC
  5
9CE6
330
18
100
AcDbEntity
  8
本体外線
100
AcDbCircle
 10
85.66629438422172
 20
196.8196057574066
 30
0.0
 40
49.0
100
AcDbArc
 50
304.5352990443319
 51
55.31758313773032
  0
LINE
  5
9CE7
330
18
100
AcDbEntity
  8
中心線
  6
CENTER
 48
0.15
100
AcDbLine
 10
85.66629438422138
 20
95.27600748089517
 30
0.0
 11
85.66629438422125
 21
65.27600748089517
 31
0.0
  0
POINT
  5
9CEB
330
18
100
AcDbEntity
  8
0
100
AcDbPoint
 10
126.8997204142442
 20
68.2760074808952
 30
0.0
  0
POINT
  5
9CEC
330
18
100
AcDbEntity
  8
本体外線
100
AcDbPoint
 10
129.4609822756742
 20
92.27600748089519
 30
0.0
  0
LINE
  5
9CF1
330
18
100
AcDbEntity
  8
0
100
AcDbLine
 10
129.6634740611943
 20
69.21294323124192
 30
0.0
 11
133.6634740611945
 21
76.1411464615179
 31
0.0
  0
LINE
  5
9CF2
330
18
100
AcDbEntity
  8
本体内線
  6
HIDDEN
 48
0.1
100
AcDbLine
 10
130.8076920617736
 20
75.34976360906663
 30
0.0
 11
128.920940715826
 21
74.26044721158951
 31
0.0
  0
LINE
  5
9CF3
330
18
100
AcDbEntity
  8
本体内線
  6
HIDDEN
 48
0.1
100
AcDbLine
 10
128.9209407158259
 20
74.26044721158928
 30
0.0
 11
128.9209407158256
 21
72.08181441663518
 31
0.0
  0
LWPOLYLINE
  5
9CF4
102
{ACAD_REACTORS
330
9EC3
102
}
330
18
100
AcDbEntity
  8
本体外線
100
AcDbPolyline
 90
        2
 70
     0
 43
0.0
 10
130.0462943842217
 20
68.27600748089529
 10
134.6662943842217
 20
76.2780822118635
  0
LINE
  5
9CF5
330
18
100
AcDbEntity
  8
本体内線
  6
HIDDEN
 48
0.1
100
AcDbLine
 10
133.2996700571957
 20
73.91101944259489
 30
0.0
 11
130.8076920617735
 21
75.34976360906657
 31
0.0
  0
LINE
  5
9CF6
330
18
100
AcDbEntity
  8
本体内線
  6
HIDDEN
 48
0.1
100
AcDbLine
 10
131.4129187112477
 20
70.64307025016351
 30
0.0
 11
128.9209407158256
 21
72.08181441663518
 31
0.0
  0
LINE
  5
9CF7
330
18
100
AcDbEntity
  8
0
100
AcDbLine
 10
127.1622160515404
 20
77.58524844670375
 30
0.0
 11
129.8942668591092
 21
78.31729925427265
 31
0.0
  0
LINE
  5
9CF8
330
18
100
AcDbEntity
  8
0
100
AcDbLine
 10
125.1622160515405
 20
74.12114683156605
 30
0.0
 11
125.8942668591093
 21
71.38909602399715
 31
0.0
  0
LINE
  5
9CF9
330
18
100
AcDbEntity
  8
0
100
AcDbLine
 10
129.8942668591092
 20
78.31729925427262
 30
0.0
 11
125.8942668591093
 21
71.38909602399713
 31
0.0
  0
LINE
  5
9CFA
330
18
100
AcDbEntity
  8
0
100
AcDbLine
 10
133.6634740611945
 20
74.54114646151683
 30
0.0
 11
128.0014465360812
 21
77.81011957729998
 31
0.0
  0
LINE
  5
9CFB
330
18
100
AcDbEntity
  8
0
100
AcDbLine
 10
131.0491147072492
 20
70.01294323124199
 30
0.0
 11
125.3870871821369
 21
73.28191634702466
 31
0.0
  0
LINE
  5
9CFC
102
{ACAD_REACTORS
330
9D0C
102
}
330
18
100
AcDbEntity
  8
0
100
AcDbLine
 10
127.9122160515406
 20
78.8842865523801
 30
0.0
 11
124.4122160515407
 21
72.82210872588916
 31
0.0
  0
LINE
  5
9CFD
102
{ACAD_REACTORS
330
9D0C
102
}
330
18
100
AcDbEntity
  8
0
100
AcDbLine
 10
127.9122160515407
 20
78.88428655238013
 30
0.0
 11
122.1662943842217
 21
82.20169597374924
 31
0.0
  0
LINE
  5
9CFE
102
{ACAD_REACTORS
330
9D0C
102
}
330
18
100
AcDbEntity
  8
0
100
AcDbLine
 10
124.4122160515408
 20
72.82210872588914
 30
0.0
 11
122.1662943842216
 21
74.11879220509462
 31
0.0
  0
LWPOLYLINE
  5
9CFF
102
{ACAD_REACTORS
330
9EC3
102
}
330
18
100
AcDbEntity
  8
0
100
AcDbPolyline
 90
        3
 70
     0
 43
0.0
 10
133.6634740611945
 20
74.54114646151757
 10
133.6634740611945
 20
76.14114646151716
 10
122.1662943842217
 20
82.7790462429389
  0
LWPOLYLINE
  5
9D00
102
{ACAD_REACTORS
330
9EC3
102
}
330
18
100
AcDbEntity
  8
0
100
AcDbPolyline
 90
        3
 70
     0
 43
0.0
 10
131.0491147072492
 20
70.01294323124199
 10
129.6634740611942
 20
69.2129432312419
 10
122.1662943842217
 20
73.54144193590494
  0
LINE
  5
9D06
102
{ACAD_REACTORS
330
9D0C
102
}
330
18
100
AcDbEntity
  8
中心線
  6
CENTER
 48
0.15
100
AcDbLine
 10
134.1029383490759
 20
71.33790151539509
 30
0.0
 11
120.7989621084834
 21
78.90287987613135
 31
0.0
  0
LINE
  5
9D07
330
18
100
AcDbEntity
  8
本体外線
100
AcDbLine
 10
49.16629438422171
 20
88.27600748089517
 30
0.0
 11
122.1662943842217
 21
88.27600748089521
 31
0.0
  0
LWPOLYLINE
  5
9D09
102
{ACAD_REACTORS
330
9EC3
102
}
330
18
100
AcDbEntity
  8
本体外線
100
AcDbPolyline
 90
        2
 70
     0
 43
0.0
 10
41.28629438422075
 20
68.27600748089529
 10
36.66629438422075
 20
76.2780822118635
  0
LINE
  5
9D0A
102
{ACAD_REACTORS
330
9EC3
102
}
330
18
100
AcDbEntity
  8
本体外線
100
AcDbLine
 10
40.36005523009549
 20
91.77600748089515
 30
0.0
 11
40.36005523009549
 21
69.88030075579985
 31
0.0
  0
HATCH
  5
9D0C
330
18
100
AcDbEntity
  8
0
100
AcDbHatch
 10
0.0
 20
0.0
 30
0.0
210
0.0
220
0.0
230
1.0
  2
AR-SAND
 70
     0
 71
     1
 91
        2
 92
        7
 72
     0
 73
     1
 93
        4
 10
127.9122160515407
 20
78.88428655238013
 10
122.1662943842217
 20
82.20169597374924
 10
122.1662943842217
 20
78.12538006022403
 10
126.1622160515407
 20
75.85319763913465
 97
        4
330
9CFD
330
9CAE
330
9D06
330
9CFC
 92
        7
 72
     0
 73
     1
 93
        4
 10
122.1662943842217
 20
78.12538006022402
 10
122.1662943842217
 20
74.11879220509458
 10
124.4122160515407
 20
72.82210872588916
 10
126.1622160515406
 20
75.85319763913462
 97
        4
330
9CAE
330
9CFE
330
9CFC
330
9D06
 75
     0
 76
     1
 52
0.0
 41
0.05
 77
     0
 78
     4
 53
37.5
 43
-108.5165356644816
 44
-158.6809107379188
 45
-0.0800015647992023
 46
2.447066186646711
 79
     6
 49
0.0
 49
-1.9304
 49
0.0
 49
-2.159
 49
0.0
 49
-2.06375
 53
7.499999999999999
 43
-108.5165356644816
 44
-158.6809107379188
 45
2.247616415690013
 46
3.584125502841771
 79
     6
 49
0.0
 49
-1.0414
 49
0.0
 49
-1.7399
 49
0.0
 49
-0.6667500000000001
 53
327.5
 43
-110.0786356644815
 44
-158.6809107379188
 45
3.95496185120729
 46
0.0071859233927285
 79
     6
 49
0.0
 49
-0.635
 49
0.0
 49
-2.286
 49
0.0
 49
-2.9845
 53
317.5
 43
-110.0786356644815
 44
-158.6809107379188
 45
3.817782262361486
 46
1.114646616286081
 79
     6
 49
0.0
 49
-0.3175
 49
0.0
 49
-1.498599999999999
 49
0.0
 49
-1.7145
 47
0.0545456396342813
 98
        2
 10
125.5704240223121
 20
78.07152100009466
 10
124.3144439301691
 20
75.99878591630591
  0
MTEXT
  5
9E3E
330
18
100
AcDbEntity
  8
公差
100
AcDbMText
 10
50.03155517777088
 20
148.9776696739405
 30
0.0
 40
2.0
 41
9.555074525974475
 71
     1
 72
     5
  1
+0.15\P+0
  7
TXT
 73
     1
 44
1.0
  0
MTEXT
  5
9E3F
330
18
100
AcDbEntity
  8
公差
100
AcDbMText
 10
19.50389632138422
 20
201.6189854209756
 30
0.0
 40
2.0
 41
8.84945634767439
 71
     1
 72
     5
  1
+0.15\P+0
  7
TXT
 11
0.0000000000000001
 21
1.0
 31
0.0
 73
     1
 44
1.0
  0
LEADER
  5
9E40
330
18
100
AcDbEntity
  8
DIM
 62
     6
100
AcDbLeader
  3
A
 76
     2
 10
133.6902586098855
 20
206.5509396871491
 30
0.0
 10
150.321557031031
 20
213.587142012264
 30
0.0
  0
MTEXT
  5
9E41
330
18
100
AcDbEntity
  8
DIM
100
AcDbMText
 10
151.177059327361
 20
217.9401682601128
 30
0.0
 40
5.0
 41
1.0
 71
     1
 72
     5
  1
\Ftxt.shx,bigfont.shx|c128;1
 73
     1
 44
1.0
  0
DIMENSION
  5
9E42
330
18
100
AcDbEntity
  8
0
100
AcDbDimension
  2
*D10
 10
40.30015502825778
 20
143.0503103528834
 30
0.0
 11
45.30015502825778
 21
143.0503103528834
 31
0.0
 12
-249.1688470556405
 22
-26.3197543022809
 32
0.0
 70
   160
 71
     5
 42
-1.0
  3
A
100
AcDbAlignedDimension
 13
36.81972283608968
 23
192.9450157154506
 33
0.0
 14
40.30015502825778
 24
192.9450157154506
 34
0.0
100
AcDbRotatedDimension
  0
DIMENSION
  5
9E43
330
18
100
AcDbEntity
  8
DIM
100
AcDbDimension
  2
*D11
 10
26.35125862876908
 20
200.9450157154506
 30
0.0
 11
25.4768545879133
 21
209.3337650037749
 31
0.0
 12
-511.6645174428923
 22
-11.07358487491143
 32
0.0
 70
   160
  1
<>      (3等分)
 71
     5
 42
-1.0
  3
A
100
AcDbAlignedDimension
 13
36.87439807869953
 23
192.9450157154506
 33
0.0
 14
36.87439807869953
 24
200.9450157154506
 34
0.0
 50
90.0
100
AcDbRotatedDimension
  0
LINE
  5
9E44
330
18
100
AcDbEntity
  8
DIM
 62
     6
100
AcDbLine
 10
26.35125862876908
 20
199.9450157154507
 30
0.0
 11
26.35125862876908
 21
221.8613245778452
 31
0.0
  0
LINE
  5
9E45
330
18
100
AcDbEntity
  8
DIM
 62
     6
100
AcDbLine
 10
45.30015502825778
 20
143.0503103528834
 30
0.0
 11
57.10337833908693
 21
143.0503103528834
 31
0.0
  0
LINE
  5
9E94
102
{ACAD_REACTORS
330
9EC3
102
}
330
18
100
AcDbEntity
  8
0
100
AcDbLine
 10
48.16629438422172
 20
89.60934081422845
 30
0.0
 11
48.16629438422172
 21
68.94267414756183
 31
0.0
  0
LINE
  5
9E95
102
{ACAD_REACTORS
330
9EC3
102
}
330
18
100
AcDbEntity
  8
0
100
AcDbLine
 10
123.1662943842217
 20
89.60934081422847
 30
0.0
 11
123.1662943842217
 21
82.20169597374924
 31
0.0
  0
LINE
  5
9E96
102
{ACAD_REACTORS
330
9EC3
102
}
330
18
100
AcDbEntity
  8
本体外線
100
AcDbLine
 10
47.66629438422171
 20
92.27600748089516
 30
0.0
 11
47.66629438422171
 21
90.2760074808952
 31
0.0
  0
LINE
  5
9E97
102
{ACAD_REACTORS
330
9EC3
102
}
330
18
100
AcDbEntity
  8
本体外線
100
AcDbLine
 10
123.6662943842217
 20
92.27600748089519
 30
0.0
 11
123.6662943842217
 21
90.2760074808952
 31
0.0
  0
LINE
  5
9E99
102
{ACAD_REACTORS
330
9EC3
102
}
330
18
100
AcDbEntity
  8
本体外線
100
AcDbLine
 10
49.16629438422171
 20
70.27600748089517
 30
0.0
 11
47.66629438422171
 21
68.27600748089517
 31
0.0
  0
LINE
  5
9E9A
102
{ACAD_REACTORS
330
9EC3
102
}
330
18
100
AcDbEntity
  8
本体外線
100
AcDbLine
 10
122.1662943842217
 20
70.27600748089511
 30
0.0
 11
123.6662943842217
 21
68.27600748089512
 31
0.0
  0
LINE
  5
9E9B
102
{ACAD_REACTORS
330
9EC3
102
}
330
18
100
AcDbEntity
  8
0
100
AcDbLine
 10
123.1662943842217
 20
72.96409166671529
 30
0.0
 11
123.1662943842217
 21
68.9426741475618
 31
0.0
  0
HATCH
  5
9EC3
330
18
100
AcDbEntity
  8
剖面線
100
AcDbHatch
 10
0.0
 20
0.0
 30
0.0
210
0.0
220
0.0
230
1.0
  2
ANSI31
 70
     0
 71
     1
 91
        6
 92
        7
 72
     0
 73
     1
 93
       10
 10
40.36005523009549
 20
69.88030075579986
 10
41.28629438422085
 20
68.27600748089515
 10
47.66629438422169
 20
68.27600748089515
 10
48.16629438422172
 20
68.94267414756183
 10
48.16629438422172
 20
89.60934081422847
 10
47.66629438422171
 20
90.27600748089513
 10
47.66629438422171
 20
92.27600748089514
 10
40.66629438422171
 20
92.27600748089514
 10
40.66629438422171
 20
91.77600748089515
 10
40.36005523009549
 20
91.77600748089515
 97
       10
330
9CB3
330
9E96
330
9CA6
330
9CAA
330
9CB0
330
9D0A
330
9D09
330
9CA7
330
9E99
330
9E94
 92
        7
 72
     0
 73
     1
 93
        4
 10
49.16629438422171
 20
88.27600748089514
 10
48.16629438422172
 20
89.60934081422847
 10
48.16629438422172
 20
68.94267414756185
 10
49.16629438422171
 20
70.27600748089517
 97
        4
330
9CB3
330
9E94
330
9E99
330
9CAB
 92
        7
 72
     0
 73
     1
 93
        4
 10
123.1662943842217
 20
89.60934081422854
 10
122.1662943842217
 20
88.27600748089521
 10
122.1662943842217
 20
82.77904624293892
 10
123.1662943842217
 20
82.2016959737493
 97
        4
330
9CB6
330
9CAE
330
9CFF
330
9E95
 92
        7
 72
     1
 73
     1
 93
       11
 10
123.1662943842217
 20
82.20169597374928
 42
0.0
 10
133.6634740611945
 20
76.14114646151716
 42
0.0
 10
133.6634740611945
 20
74.54114646151778
 42
0.0
 10
134.6662943842217
 20
76.27808221186356
 42
0.0
 10
134.6662943842217
 20
89.77600748089519
 42
0.4142135623731042
 10
132.6662943842216
 20
91.7760074808952
 42
0.0
 10
130.6662943842217
 20
91.77600748089513
 42
0.0
 10
130.6662943842217
 20
92.27600748089521
 42
0.0
 10
123.6662943842217
 20
92.27600748089521
 42
0.0
 10
123.6662943842217
 20
90.2760074808952
 42
0.0
 10
123.1662943842217
 20
89.60934081422854
 42
0.0
 97
       10
330
9CB7
330
9CB1
330
9CAF
330
9CA6
330
9E97
330
9CB6
330
9E95
330
9CFF
330
9CF4
330
9CA9
 92
        7
 72
     0
 73
     1
 93
        6
 10
123.1662943842217
 20
72.96409166671529
 10
123.1662943842218
 20
68.94267414756169
 10
123.6662943842216
 20
68.27600748089519
 10
130.0462943842216
 20
68.2760074808952
 10
131.0491147072495
 20
70.01294323124213
 10
129.6634740611942
 20
69.21294323124191
 97
        5
330
9E9B
330
9E9A
330
9CA7
330
9CF4
330
9D00
 92
        7
 72
     0
 73
     1
 93
        4
 10
123.1662943842217
 20
72.96409166671529
 10
122.1662943842217
 20
73.54144193590496
 10
122.1662943842217
 20
70.2760074808951
 10
123.1662943842218
 20
68.94267414756171
 97
        4
330
9D00
330
9CAE
330
9E9A
330
9E9B
 75
     0
 76
     1
 52
0.0
 41
0.5
 77
     0
 78
     1
 53
45.0
 43
-249.1688470556405
 44
19.74826450598357
 45
-1.122532015133643
 46
1.122532015133644
 79
     0
 47
0.0757957579839192
 98
        6
 10
43.63292780360075
 20
81.95848324724011
 10
48.735764228702
 20
82.5906800733046
 10
122.9288731353158
 20
85.1354579170569
 10
125.280425262107
 20
84.90807072445283
 10
124.6735736005189
 20
70.65846772454335
 10
122.9288731353158
 20
71.18903784061945
  0
DIMENSION
  5
9FA8
330
18
100
AcDbEntity
  8
DIM
100
AcDbDimension
  2
*D12
 10
120.7989621084833
 20
78.90287987613136
 30
0.0
 11
175.954567659933
 21
71.47207529001881
 31
0.0
 12
-249.1688470556405
 22
19.74826450598357
 32
0.0
 70
    34
  1
30%%D
 71
     5
 42
-1.0
  3
A
100
AcDb2LineAngularDimension
 13
40.66629438422171
 23
92.27600748089514
 33
0.0
 14
130.6662943842217
 24
92.27600748089519
 34
0.0
 15
134.1029383490759
 25
71.33790151539504
 35
0.0
 16
176.2251092533114
 26
63.93342965835876
 36
0.0
1001
ACAD
1000
DSTYLE
1002
{
1070
    79
1070
     2
1070
   179
1070
     1
1002
}
  0
MTEXT
  5
9FEB
330
18
100
AcDbEntity
  8
0
100
AcDbMText
 10
49.81948278949767
 20
19.3739983431626
 30
0.0
 40
5.0
 41
0.0
 71
     1
 72
     5
  1
\Ftxt.shx,bigfont.shx|c128;小柳
  7
JL
 73
     1
 44
1.0
  0
MTEXT
  5
A020
330
18
100
AcDbEntity
  8
DIM
100
AcDbMText
 10
9.302279929194703
 20
39.31499193162187
 30
0.0
 40
4.5
 41
0.0
 71
     1
 72
     5
  1
{\Ftxt,bigfont|c128;06.09.11セットスクリュ-長度変更  林}
  7
JL
 73
     1
 44
1.0
1001
ACAD
1000
ACAD_MTEXT_DEFINED_HEIGHT_BEGIN
1070
    46
1040
0.0
1000
ACAD_MTEXT_DEFINED_HEIGHT_END
  0
LWPOLYLINE
  5
A021
330
18
100
AcDbEntity
  8
DIM
100
AcDbPolyline
 90
        3
 70
     1
 43
0.0
 10
3.270802868567791
 20
34.8149736156254
 10
8.466955291274445
 20
34.8149736156254
 10
5.868879079921207
 20
39.3149736156254
  0
MTEXT
  5
A022
330
18
100
AcDbEntity
  8
DIM
100
AcDbMText
 10
5.603812465571063
 20
38.1977562562081
 30
0.0
 40
3.000000000000001
 41
0.0
 71
     1
 72
     5
  1
{\Ftxt,bigfont|c128;1}
  7
JL
 73
     1
 44
1.0
1001
ACAD
1000
ACAD_MTEXT_DEFINED_HEIGHT_BEGIN
1070
    46
1040
0.0
1000
ACAD_MTEXT_DEFINED_HEIGHT_END
  0
CIRCLE
  5
A023
330
18
100
AcDbEntity
  8
DIM
100
AcDbCircle
 10
57.65790635699798
 20
37.07258178833617
 30
0.0
 40
2.554315537620883
  0
LINE
  5
A025
330
18
100
AcDbEntity
  8
DIM
 62
     1
100
AcDbLine
 10
59.24402894142918
 20
268.691685199541
 30
0.0
 11
81.96698017131712
 21
268.691685199541
 31
0.0
  0
LINE
  5
A026
330
18
100
AcDbEntity
  8
DIM
 62
     1
100
AcDbLine
 10
59.24402894142918
 20
266.4086943895075
 30
0.0
 11
81.96698017131712
 21
266.4086943895075
 31
0.0
  0
LWPOLYLINE
  5
A027
330
18
100
AcDbEntity
  8
DIM
100
AcDbPolyline
 90
        3
 70
     1
 43
0.0
 10
140.4334191013288
 20
265.0965636698917
 10
145.6295715240355
 20
265.0965636698917
 10
143.0314953126822
 20
269.5965636698917
  0
MTEXT
  5
A028
330
18
100
AcDbEntity
  8
DIM
100
AcDbMText
 10
142.7664286983321
 20
268.4793463104744
 30
0.0
 40
3.000000000000001
 41
0.0
 71
     1
 72
     5
  1
{\Ftxt,bigfont|c128;1}
  7
JL
 73
     1
 44
1.0
1001
ACAD
1000
ACAD_MTEXT_DEFINED_HEIGHT_BEGIN
1070
    46
1040
0.0
1000
ACAD_MTEXT_DEFINED_HEIGHT_END
  0
MTEXT
  5
A029
330
18
100
AcDbEntity
  8
0
100
AcDbMText
 10
146.5925693240731
 20
270.095850257545
 30
0.0
 40
5.0
 41
0.0
 71
     1
 72
     5
  1
{\Ftxt,bigfont|c128;M8X1.25-6L}
  7
JL
 73
     1
 44
1.0
1001
ACAD
1000
ACAD_MTEXT_DEFINED_HEIGHT_BEGIN
1070
    46
1040
0.0
1000
ACAD_MTEXT_DEFINED_HEIGHT_END
  0
LWPOLYLINE
  5
A02A
330
18
100
AcDbEntity
  8
DIM
100
AcDbPolyline
 90
        3
 70
     1
 43
0.0
 10
183.9259474080944
 20
3.245297080117325
 10
189.122099830801
 20
3.245297080117325
 10
186.5240236194478
 20
7.745297080117325
  0
MTEXT
  5
A02B
330
18
100
AcDbEntity
  8
DIM
100
AcDbMText
 10
186.2589570050976
 20
6.628079720700021
 30
0.0
 40
3.000000000000001
 41
0.0
 71
     1
 72
     5
  1
{\Ftxt,bigfont|c128;1}
  7
JL
 73
     1
 44
1.0
1001
ACAD
1000
ACAD_MTEXT_DEFINED_HEIGHT_BEGIN
1070
    46
1040
0.0
1000
ACAD_MTEXT_DEFINED_HEIGHT_END
  0
ENDSEC
  0
SECTION
  2
OBJECTS
  0
DICTIONARY
  5
C
330
0
100
AcDbDictionary
281
     1
  3
ACAD_COLOR
350
9FEF
  3
ACAD_GROUP
350
D
  3
ACAD_LAYOUT
350
5CF3
  3
ACAD_MATERIAL
350
9FEE
  3
ACAD_MLINESTYLE
350
1B
  3
ACAD_PLOTSETTINGS
350
5CF4
  3
ACAD_PLOTSTYLENAME
350
5CF1
  3
ACAD_TABLESTYLE
350
9FF0
  3
ACDBVARIABLEDICTIONARY
350
45D
  0
DICTIONARY
  5
45F
330
18
100
AcDbDictionary
280
     1
281
     1
  3
ACAD_LAYOUTSELFREF
360
5D8B
  3
ACAD_SORTENTS
360
460
  0
DICTIONARY
  5
5D89
330
15
100
AcDbDictionary
280
     1
281
     1
  3
ACAD_LAYOUTSELFREF
360
5D8A
  0
DICTIONARY
  5
9FEF
102
{ACAD_REACTORS
330
C
102
}
330
C
100
AcDbDictionary
281
     1
  0
DICTIONARY
  5
D
102
{ACAD_REACTORS
330
C
102
}
330
C
100
AcDbDictionary
281
     1
  0
DICTIONARY
  5
5CF3
102
{ACAD_REACTORS
330
C
102
}
330
C
100
AcDbDictionary
281
     1
  3
Model
350
5CF5
  3
配置1
350
5CF6
  0
DICTIONARY
  5
9FEE
102
{ACAD_REACTORS
330
C
102
}
330
C
100
AcDbDictionary
281
     1
  0
DICTIONARY
  5
1B
102
{ACAD_REACTORS
330
C
102
}
330
C
100
AcDbDictionary
281
     1
  3
STANDARD
350
1C
  0
DICTIONARY
  5
5CF4
102
{ACAD_REACTORS
330
C
102
}
330
C
100
AcDbDictionary
281
     1
  0
ACDBDICTIONARYWDFLT
  5
5CF1
102
{ACAD_REACTORS
330
C
102
}
330
C
100
AcDbDictionary
281
     1
  3
Normal
350
5CF2
100
AcDbDictionaryWithDefault
340
5CF2
  0
DICTIONARY
  5
9FF0
102
{ACAD_REACTORS
330
C
102
}
330
C
100
AcDbDictionary
281
     1
  3
Standard
350
9FF1
  0
DICTIONARY
  5
45D
102
{ACAD_REACTORS
330
C
102
}
330
C
100
AcDbDictionary
281
     1
  3
CTABLESTYLE
350
A005
  3
SORTENTS
350
45E
  0
XRECORD
  5
5D8B
102
{ACAD_REACTORS
330
45F
102
}
330
45F
100
AcDbXrecord
280
     1
340
18
  0
SORTENTSTABLE
  5
460
102
{ACAD_REACTORS
330
45F
102
}
330
45F
100
AcDbSortentsTable
330
18
331
C0
  5
CB
  0
XRECORD
  5
5D8A
102
{ACAD_REACTORS
330
5D89
102
}
330
5D89
100
AcDbXrecord
280
     1
340
15
  0
LAYOUT
  5
5CF5
102
{ACAD_REACTORS
330
5CF3
102
}
330
5CF3
100
AcDbPlotSettings
  1

  2
hp LaserJet 1300 PCL 6
  4
A4
  6

 40
5.027083396911621
 41
5.069413185119628
 42
5.027084350585937
 43
5.027069091796875
 44
209.9733276367187
 45
296.9683227539062
 46
2.027468885224564
 47
0.0
 48
0.0
 49
0.0
140
197.9999999999997
141
290.0
142
1.0
143
1.010904379871544
 70
 11956
 72
     1
 73
     0
 74
     4
  7
LIN.ctb
 75
     0
147
0.9892132430241025
 76
     0
 77
     2
 78
   300
148
0.0
149
0.0
100
AcDbLayout
  1
Model
 70
     1
 71
     0
 10
0.0
 20
0.0
 11
12.0
 21
9.0
 12
0.0
 22
0.0
 32
0.0
 14
0.0
 24
0.0
 34
0.0
 15
0.0
 25
0.0
 35
0.0
146
0.0
 13
0.0
 23
0.0
 33
0.0
 16
1.0
 26
0.0
 36
0.0
 17
0.0
 27
1.0
 37
0.0
 76
     0
330
18
1001
ACAD_PSEXT
1000
hp LaserJet 1300 PCL 6
1000
hp LaserJet 1300 PCL 6
1000
HP 1300
1000

1070
     0
  0
LAYOUT
  5
5CF6
102
{ACAD_REACTORS
330
5CF3
102
}
330
5CF3
100
AcDbPlotSettings
  1

  2
EPSON STYLUS COLOR 440
  4

  6

 40
0.0
 41
0.0
 42
0.0
 43
0.0
 44
0.0
 45
0.0
 46
0.0
 47
0.0
 48
0.0
 49
0.0
140
0.0
141
0.0
142
1.0
143
1.0
 70
   688
 72
     0
 73
     0
 74
     5
  7
LIN.ctb
 75
    16
147
1.0
 76
     0
 77
     2
 78
   300
148
0.0
149
0.0
100
AcDbLayout
  1
ｰtｸm1
 70
     1
 71
     1
 10
0.0
 20
0.0
 11
420.0
 21
297.0
 12
0.0
 22
0.0
 32
0.0
 14
1.000000000000000E+20
 24
1.000000000000000E+20
 34
1.000000000000000E+20
 15
-1.000000000000000E+20
 25
-1.000000000000000E+20
 35
-1.000000000000000E+20
146
0.0
 13
0.0
 23
0.0
 33
0.0
 16
1.0
 26
0.0
 36
0.0
 17
0.0
 27
1.0
 37
0.0
 76
     0
330
15
  0
MLINESTYLE
  5
1C
102
{ACAD_REACTORS
330
1B
102
}
330
1B
100
AcDbMlineStyle
  2
STANDARD
 70
     0
  3

 62
   256
 51
90.0
 52
90.0
 71
     2
 49
0.5
 62
   256
  6
BYLAYER
 49
-0.5
 62
   256
  6
BYLAYER
  0
ACDBPLACEHOLDER
  5
5CF2
102
{ACAD_REACTORS
330
5CF1
102
}
330
5CF1
  0
TABLESTYLE
  5
9FF1
102
{ACAD_REACTORS
330
9FF0
102
}
330
9FF0
100
AcDbTableStyle
  3
Standard
 70
     0
 71
     8
 40
1.5
 41
1.5
280
     0
281
     0
  7
STANDARD
140
4.5
170
     2
 62
     0
 63
     7
283
     0
274
    -2
284
     1
 64
     0
275
    -2
285
     1
 65
     0
276
    -2
286
     1
 66
     0
277
    -2
287
     1
 67
     0
278
    -2
288
     1
 68
     0
279
    -2
289
     1
 69
     0
  7
STANDARD
140
6.0
170
     5
 62
     0
 63
     7
283
     0
274
    -2
284
     1
 64
     0
275
    -2
285
     1
 65
     0
276
    -2
286
     1
 66
     0
277
    -2
287
     1
 67
     0
278
    -2
288
     1
 68
     0
279
    -2
289
     1
 69
     0
  7
STANDARD
140
4.5
170
     5
 62
     0
 63
     7
283
     0
274
    -2
284
     1
 64
     0
275
    -2
285
     1
 65
     0
276
    -2
286
     1
 66
     0
277
    -2
287
     1
 67
     0
278
    -2
288
     1
 68
     0
279
    -2
289
     1
 69
     0
  0
DICTIONARYVAR
  5
A005
102
{ACAD_REACTORS
330
45D
102
}
330
45D
100
DictionaryVariables
280
     0
  1
STANDARD
  0
DICTIONARYVAR
  5
45E
102
{ACAD_REACTORS
330
45D
102
}
330
45D
100
DictionaryVariables
280
     0
  1
127
  0
ENDSEC
  0
EOF
