  0
SECTION
  2
HEADER
  9
$ACADVER
  1
AC1018
  9
$ACADMAINTVER
 70
    76
  9
$DWGCODEPAGE
  3
ANSI_932
  9
$INSBASE
 10
0.0
 20
0.0
 30
0.0
  9
$EXTMIN
 10
-0.0000000000002274
 20
-0.0000000000000568
 30
0.0
  9
$EXTMAX
 10
198.9504811769838
 20
290.0
 30
4.0
  9
$LIMMIN
 10
0.0
 20
0.0
  9
$LIMMAX
 10
420.0
 20
297.0
  9
$ORTHOMODE
 70
     0
  9
$REGENMODE
 70
     1
  9
$FILLMODE
 70
     1
  9
$QTEXTMODE
 70
     0
  9
$MIRRTEXT
 70
     1
  9
$LTSCALE
 40
1.0
  9
$ATTMODE
 70
     1
  9
$TEXTSIZE
 40
2.5
  9
$TRACEWID
 40
1.0
  9
$TEXTSTYLE
  7
TXT
  9
$CLAYER
  8
0
  9
$CELTYPE
  6
BYLAYER
  9
$CECOLOR
 62
   256
  9
$CELTSCALE
 40
1.0
  9
$DISPSILH
 70
     0
  9
$DIMSCALE
 40
1.0
  9
$DIMASZ
 40
2.5
  9
$DIMEXO
 40
1.0
  9
$DIMDLI
 40
6.0
  9
$DIMRND
 40
0.0
  9
$DIMDLE
 40
0.0
  9
$DIMEXE
 40
1.0
  9
$DIMTP
 40
0.0
  9
$DIMTM
 40
0.0
  9
$DIMTXT
 40
3.0
  9
$DIMCEN
 40
0.0
  9
$DIMTSZ
 40
0.0
  9
$DIMTOL
 70
     0
  9
$DIMLIM
 70
     0
  9
$DIMTIH
 70
     0
  9
$DIMTOH
 70
     0
  9
$DIMSE1
 70
     0
  9
$DIMSE2
 70
     0
  9
$DIMTAD
 70
     3
  9
$DIMZIN
 70
     8
  9
$DIMBLK
  1

  9
$DIMASO
 70
     1
  9
$DIMSHO
 70
     1
  9
$DIMPOST
  1

  9
$DIMAPOST
  1

  9
$DIMALT
 70
     0
  9
$DIMALTD
 70
     2
  9
$DIMALTF
 40
25.4
  9
$DIMLFAC
 40
1.0
  9
$DIMTOFL
 70
     0
  9
$DIMTVP
 40
0.0
  9
$DIMTIX
 70
     0
  9
$DIMSOXD
 70
     0
  9
$DIMSAH
 70
     0
  9
$DIMBLK1
  1

  9
$DIMBLK2
  1

  9
$DIMSTYLE
  2
A
  9
$DIMCLRD
 70
     6
  9
$DIMCLRE
 70
     6
  9
$DIMCLRT
 70
     3
  9
$DIMTFAC
 40
1.0
  9
$DIMGAP
 40
1.0
  9
$DIMJUST
 70
     0
  9
$DIMSD1
 70
     0
  9
$DIMSD2
 70
     0
  9
$DIMTOLJ
 70
     1
  9
$DIMTZIN
 70
     0
  9
$DIMALTZ
 70
     0
  9
$DIMALTTZ
 70
     0
  9
$DIMUPT
 70
     0
  9
$DIMDEC
 70
     1
  9
$DIMTDEC
 70
     1
  9
$DIMALTU
 70
     2
  9
$DIMALTTD
 70
     2
  9
$DIMTXSTY
  7
TXT
  9
$DIMAUNIT
 70
     0
  9
$DIMADEC
 70
     0
  9
$DIMALTRND
 40
0.0
  9
$DIMAZIN
 70
     0
  9
$DIMDSEP
 70
    46
  9
$DIMATFIT
 70
     3
  9
$DIMFRAC
 70
     0
  9
$DIMLDRBLK
  1

  9
$DIMLUNIT
 70
     2
  9
$DIMLWD
 70
    -2
  9
$DIMLWE
 70
    -2
  9
$DIMTMOVE
 70
     1
  9
$LUNITS
 70
     2
  9
$LUPREC
 70
     2
  9
$SKETCHINC
 40
1.0
  9
$FILLETRAD
 40
1.5
  9
$AUNITS
 70
     0
  9
$AUPREC
 70
     2
  9
$MENU
  1
.
  9
$ELEVATION
 40
0.0
  9
$PELEVATION
 40
0.0
  9
$THICKNESS
 40
0.0
  9
$LIMCHECK
 70
     0
  9
$CHAMFERA
 40
0.0
  9
$CHAMFERB
 40
0.0
  9
$CHAMFERC
 40
1.75
  9
$CHAMFERD
 40
0.0174532925199433
  9
$SKPOLY
 70
     0
  9
$TDCREATE
 40
2451555.578568171
  9
$TDUCREATE
 40
2451555.203568172
  9
$TDUPDATE
 40
2455846.607065706
  9
$TDUUPDATE
 40
2455846.232065706
  9
$TDINDWG
 40
2.8120816667
  9
$TDUSRTIMER
 40
2.8120816667
  9
$USRTIMER
 70
     1
  9
$ANGBASE
 50
0.0
  9
$ANGDIR
 70
     0
  9
$PDMODE
 70
     0
  9
$PDSIZE
 40
0.0
  9
$PLINEWID
 40
0.0
  9
$SPLFRAME
 70
     0
  9
$SPLINETYPE
 70
     6
  9
$SPLINESEGS
 70
     8
  9
$HANDSEED
  5
A37D
  9
$SURFTAB1
 70
     6
  9
$SURFTAB2
 70
     6
  9
$SURFTYPE
 70
     6
  9
$SURFU
 70
     6
  9
$SURFV
 70
     6
  9
$UCSBASE
  2

  9
$UCSNAME
  2

  9
$UCSORG
 10
0.0
 20
0.0
 30
0.0
  9
$UCSXDIR
 10
1.0
 20
0.0
 30
0.0
  9
$UCSYDIR
 10
0.0
 20
1.0
 30
0.0
  9
$UCSORTHOREF
  2

  9
$UCSORTHOVIEW
 70
     0
  9
$UCSORGTOP
 10
0.0
 20
0.0
 30
0.0
  9
$UCSORGBOTTOM
 10
0.0
 20
0.0
 30
0.0
  9
$UCSORGLEFT
 10
0.0
 20
0.0
 30
0.0
  9
$UCSORGRIGHT
 10
0.0
 20
0.0
 30
0.0
  9
$UCSORGFRONT
 10
0.0
 20
0.0
 30
0.0
  9
$UCSORGBACK
 10
0.0
 20
0.0
 30
0.0
  9
$PUCSBASE
  2

  9
$PUCSNAME
  2

  9
$PUCSORG
 10
0.0
 20
0.0
 30
0.0
  9
$PUCSXDIR
 10
1.0
 20
0.0
 30
0.0
  9
$PUCSYDIR
 10
0.0
 20
1.0
 30
0.0
  9
$PUCSORTHOREF
  2

  9
$PUCSORTHOVIEW
 70
     0
  9
$PUCSORGTOP
 10
0.0
 20
0.0
 30
0.0
  9
$PUCSORGBOTTOM
 10
0.0
 20
0.0
 30
0.0
  9
$PUCSORGLEFT
 10
0.0
 20
0.0
 30
0.0
  9
$PUCSORGRIGHT
 10
0.0
 20
0.0
 30
0.0
  9
$PUCSORGFRONT
 10
0.0
 20
0.0
 30
0.0
  9
$PUCSORGBACK
 10
0.0
 20
0.0
 30
0.0
  9
$USERI1
 70
     0
  9
$USERI2
 70
     0
  9
$USERI3
 70
     0
  9
$USERI4
 70
     0
  9
$USERI5
 70
     0
  9
$USERR1
 40
0.0
  9
$USERR2
 40
0.0
  9
$USERR3
 40
0.0
  9
$USERR4
 40
0.0
  9
$USERR5
 40
0.0
  9
$WORLDVIEW
 70
     1
  9
$SHADEDGE
 70
     3
  9
$SHADEDIF
 70
    70
  9
$TILEMODE
 70
     1
  9
$MAXACTVP
 70
    48
  9
$PINSBASE
 10
0.0
 20
0.0
 30
0.0
  9
$PLIMCHECK
 70
     0
  9
$PEXTMIN
 10
1.000000000000000E+20
 20
1.000000000000000E+20
 30
1.000000000000000E+20
  9
$PEXTMAX
 10
-1.000000000000000E+20
 20
-1.000000000000000E+20
 30
-1.000000000000000E+20
  9
$PLIMMIN
 10
0.0
 20
0.0
  9
$PLIMMAX
 10
420.0
 20
297.0
  9
$UNITMODE
 70
     0
  9
$VISRETAIN
 70
     1
  9
$PLINEGEN
 70
     0
  9
$PSLTSCALE
 70
     1
  9
$TREEDEPTH
 70
  3020
  9
$CMLSTYLE
  2
STANDARD
  9
$CMLJUST
 70
     0
  9
$CMLSCALE
 40
20.0
  9
$PROXYGRAPHICS
 70
     1
  9
$MEASUREMENT
 70
     1
  9
$CELWEIGHT
370
    -1
  9
$ENDCAPS
280
     0
  9
$JOINSTYLE
280
     0
  9
$LWDISPLAY
290
     0
  9
$INSUNITS
 70
     0
  9
$HYPERLINKBASE
  1

  9
$STYLESHEET
  1

  9
$XEDIT
290
     1
  9
$CEPSNTYPE
380
     0
  9
$PSTYLEMODE
290
     1
  9
$FINGERPRINTGUID
  2
{1CF51E8A-A506-11D4-A7D9-AF69F5C20846}
  9
$VERSIONGUID
  2
{1CF51E8C-A506-11D4-A7D9-AF69F5C20846}
  9
$EXTNAMES
290
     1
  9
$PSVPSCALE
 40
0.0
  9
$OLESTARTUP
290
     0
  9
$SORTENTS
280
   127
  9
$INDEXCTL
280
     0
  9
$HIDETEXT
280
     0
  9
$XCLIPFRAME
290
     0
  9
$HALOGAP
280
     0
  9
$OBSCOLOR
 70
   257
  9
$OBSLTYPE
280
     0
  9
$INTERSECTIONDISPLAY
280
     0
  9
$INTERSECTIONCOLOR
 70
   257
  9
$DIMASSOC
280
     1
  9
$PROJECTNAME
  1

  0
ENDSEC
  0
SECTION
  2
CLASSES
  0
CLASS
  1
DICTIONARYVAR
  2
AcDbDictionaryVar
  3
ObjectDBX Classes
 90
        0
 91
        2
280
     0
281
     0
  0
CLASS
  1
SORTENTSTABLE
  2
AcDbSortentsTable
  3
ObjectDBX Classes
 90
        0
 91
        1
280
     0
281
     0
  0
CLASS
  1
ACDBDICTIONARYWDFLT
  2
AcDbDictionaryWithDefault
  3
ObjectDBX Classes
 90
        0
 91
        1
280
     0
281
     0
  0
CLASS
  1
TABLESTYLE
  2
AcDbTableStyle
  3
ObjectDBX Classes
 90
     2047
 91
        1
280
     0
281
     0
  0
ENDSEC
  0
SECTION
  2
TABLES
  0
TABLE
  2
VPORT
  5
8
330
0
100
AcDbSymbolTable
 70
     2
  0
VPORT
  5
A37C
330
8
100
AcDbSymbolTableRecord
100
AcDbViewportTableRecord
  2
*Active
 70
     0
 10
0.0
 20
0.0
 11
1.0
 21
1.0
 12
192.8079981820052
 22
145.0011966788448
 13
0.0
 23
0.0
 14
10.0
 24
10.0
 15
10.0
 25
10.0
 16
0.0
 26
0.0
 36
1.0
 17
0.0
 27
0.0
 37
0.0
 40
293.4503046004203
 41
2.47104247104247
 42
50.0
 43
0.0
 44
0.0
 50
0.0
 51
0.0
 71
     0
 72
   100
 73
     1
 74
     1
 75
     0
 76
     0
 77
     0
 78
     0
281
     0
 65
     1
110
0.0
120
0.0
130
0.0
111
1.0
121
0.0
131
0.0
112
0.0
122
1.0
132
0.0
 79
     0
146
0.0
  0
ENDTAB
  0
TABLE
  2
LTYPE
  5
5
330
0
100
AcDbSymbolTable
 70
     8
  0
LTYPE
  5
12
330
5
100
AcDbSymbolTableRecord
100
AcDbLinetypeTableRecord
  2
BYBLOCK
 70
     0
  3

 72
    65
 73
     0
 40
0.0
  0
LTYPE
  5
13
330
5
100
AcDbSymbolTableRecord
100
AcDbLinetypeTableRecord
  2
BYLAYER
 70
     0
  3

 72
    65
 73
     0
 40
0.0
  0
LTYPE
  5
14
330
5
100
AcDbSymbolTableRecord
100
AcDbLinetypeTableRecord
  2
CONTINUOUS
 70
     0
  3
Solid line
 72
    65
 73
     0
 40
0.0
  0
LTYPE
  5
9D
330
5
100
AcDbSymbolTableRecord
100
AcDbLinetypeTableRecord
  2
CENTERX2
 70
     0
  3
Center (2x) ________  __  ________  __  _____
 72
    65
 73
     4
 40
101.6
 49
63.5
 74
     0
 49
-12.7
 74
     0
 49
12.7
 74
     0
 49
-12.7
 74
     0
  0
LTYPE
  5
A1
330
5
100
AcDbSymbolTableRecord
100
AcDbLinetypeTableRecord
  2
DASHED
 70
     0
  3
Dashed __ __ __ __ __ __ __ __ __ __ __ __ __ _
 72
    65
 73
     2
 40
19.05
 49
12.7
 74
     0
 49
-6.349999999999999
 74
     0
  0
LTYPE
  5
A2
330
5
100
AcDbSymbolTableRecord
100
AcDbLinetypeTableRecord
  2
DASHED2
 70
     0
  3
Dashed (.5x) _ _ _ _ _ _ _ _ _ _ _ _ _ _ _ _ _
 72
    65
 73
     2
 40
9.524999999999998
 49
6.349999999999999
 74
     0
 49
-3.174999999999999
 74
     0
  0
LTYPE
  5
A5
330
5
100
AcDbSymbolTableRecord
100
AcDbLinetypeTableRecord
  2
DIVIDE2
 70
     0
  3
Divide (.5x) __..__..__..__..__..__..__..__.._
 72
    65
 73
     6
 40
15.875
 49
6.349999999999999
 74
     0
 49
-3.174999999999999
 74
     0
 49
0.0
 74
     0
 49
-3.174999999999999
 74
     0
 49
0.0
 74
     0
 49
-3.174999999999999
 74
     0
  0
LTYPE
  5
650B
330
5
100
AcDbSymbolTableRecord
100
AcDbLinetypeTableRecord
  2
CENTER
 70
     0
  3
Center ____ _ ____ _ ____ _ ____ _ ____ _ ____
 72
    65
 73
     4
 40
50.8
 49
31.75
 74
     0
 49
-6.349999999999999
 74
     0
 49
6.349999999999999
 74
     0
 49
-6.349999999999999
 74
     0
  0
LTYPE
  5
650C
330
5
100
AcDbSymbolTableRecord
100
AcDbLinetypeTableRecord
  2
HIDDEN
 70
     0
  3
Hidden __ __ __ __ __ __ __ __ __ __ __ __ __ _
 72
    65
 73
     2
 40
9.524999999999998
 49
6.349999999999999
 74
     0
 49
-3.174999999999999
 74
     0
  0
LTYPE
  5
A075
330
5
100
AcDbSymbolTableRecord
100
AcDbLinetypeTableRecord
  2
ACAD_ISO03W100
 70
     0
  3
ISO dash space __    __    __    __    __    __
 72
    65
 73
     2
 40
30.0
 49
12.0
 74
     0
 49
-18.0
 74
     0
  0
ENDTAB
  0
TABLE
  2
LAYER
  5
2
330
0
100
AcDbSymbolTable
 70
     9
  0
LAYER
  5
E
330
2
100
AcDbSymbolTableRecord
100
AcDbLayerTableRecord
  2
0
 70
     0
 62
     7
  6
CONTINUOUS
370
    -3
390
5CF2
  0
LAYER
  5
B9
330
2
100
AcDbSymbolTableRecord
100
AcDbLayerTableRecord
  2
DIM
 70
     0
 62
     3
  6
CONTINUOUS
370
    -3
390
5CF2
  0
LAYER
  5
F2
330
2
100
AcDbSymbolTableRecord
100
AcDbLayerTableRecord
  2
DEFPOINTS
 70
     0
 62
     4
  6
CONTINUOUS
290
     0
370
    -3
390
5CF2
  0
LAYER
  5
5F8B
330
2
100
AcDbSymbolTableRecord
100
AcDbLayerTableRecord
  2
公差
 70
     0
 62
     6
  6
CONTINUOUS
370
    -3
390
5CF2
  0
LAYER
  5
644E
330
2
100
AcDbSymbolTableRecord
100
AcDbLayerTableRecord
  2
図框線
 70
     0
 62
     9
  6
CONTINUOUS
370
    -3
390
5CF2
  0
LAYER
  5
650D
330
2
100
AcDbSymbolTableRecord
100
AcDbLayerTableRecord
  2
中心線
 70
     0
 62
     1
  6
CENTER
370
    -3
390
5CF2
  0
LAYER
  5
650E
330
2
100
AcDbSymbolTableRecord
100
AcDbLayerTableRecord
  2
本体内線
 70
     0
 62
     4
  6
HIDDEN
370
    -3
390
5CF2
  0
LAYER
  5
650F
330
2
100
AcDbSymbolTableRecord
100
AcDbLayerTableRecord
  2
本体外線
 70
     0
 62
     2
  6
CONTINUOUS
370
    -3
390
5CF2
  0
LAYER
  5
6510
330
2
100
AcDbSymbolTableRecord
100
AcDbLayerTableRecord
  2
剖面線
 70
     0
 62
     5
  6
CONTINUOUS
370
    -3
390
5CF2
  0
ENDTAB
  0
TABLE
  2
STYLE
  5
3
330
0
100
AcDbSymbolTable
 70
     5
  0
STYLE
  5
F
330
3
100
AcDbSymbolTableRecord
100
AcDbTextStyleTableRecord
  2
STANDARD
 70
     0
 40
0.0
 41
1.0
 50
0.0
 71
     0
 42
2.5
  3
txt
  4

  0
STYLE
  5
BE
330
3
100
AcDbSymbolTableRecord
100
AcDbTextStyleTableRecord
  2
ISOCP3
 70
     0
 40
0.0
 41
1.0
 50
0.0
 71
     0
 42
2.5
  3
isocp3.shx
  4

  0
STYLE
  5
2A37
330
3
100
AcDbSymbolTableRecord
100
AcDbTextStyleTableRecord
  2
TXT
 70
     0
 40
0.0
 41
1.0
 50
0.0
 71
     0
 42
2.5
  3
txt.shx
  4
bigfont.shx
  0
STYLE
  5
5DCB
330
3
100
AcDbSymbolTableRecord
100
AcDbTextStyleTableRecord
  2
LKK
 70
     0
 40
50.0
 41
1.5
 50
0.0
 71
     0
 42
50.0
  3
MS PGothic.ttf
  4

1001
ACAD
1000
MS PGothic
1071
    32818
  0
STYLE
  5
5DCC
330
3
100
AcDbSymbolTableRecord
100
AcDbTextStyleTableRecord
  2
JL
 70
     0
 40
10.0
 41
0.5
 50
0.0
 71
     0
 42
5.0
  3
MS Mincho.ttf
  4

1001
ACAD
1000
MS Mincho
1071
    32785
  0
ENDTAB
  0
TABLE
  2
VIEW
  5
6
330
0
100
AcDbSymbolTable
 70
     0
  0
ENDTAB
  0
TABLE
  2
UCS
  5
7
330
0
100
AcDbSymbolTable
 70
     0
  0
ENDTAB
  0
TABLE
  2
APPID
  5
9
330
0
100
AcDbSymbolTable
 70
     1
  0
APPID
  5
10
330
9
100
AcDbSymbolTableRecord
100
AcDbRegAppTableRecord
  2
ACAD
 70
     0
  0
ENDTAB
  0
TABLE
  2
DIMSTYLE
  5
A
330
0
100
AcDbSymbolTable
 70
     3
100
AcDbDimStyleTable
 71
     0
  0
DIMSTYLE
105
1D
330
A
100
AcDbSymbolTableRecord
100
AcDbDimStyleTableRecord
  2
STANDARD
 70
     0
 41
3.0
 42
0.06
 77
     3
140
4.0
144
0.3333333333333333
172
     1
340
F
  0
DIMSTYLE
105
1A4
102
{ACAD_REACTORS
330
6770
330
6C92
330
6CAA
330
6F74
330
74C6
330
750D
330
7568
330
7575
330
7AD6
330
9E42
330
9E43
330
9FA8
102
}
330
A
100
AcDbSymbolTableRecord
100
AcDbDimStyleTableRecord
  2
A
 70
     0
 41
2.5
 42
1.0
 43
6.0
 44
1.0
 73
     0
 74
     0
 77
     3
 78
     8
140
3.0
141
0.0
147
1.0
176
     6
177
     6
178
     3
271
     1
272
     1
279
     1
340
2A37
  0
DIMSTYLE
105
6006
330
A
100
AcDbSymbolTableRecord
100
AcDbDimStyleTableRecord
  2
ISO-25
 70
     0
 40
0.0
 41
2.0
 42
0.3
 43
1.0
 44
0.3
 73
     0
 74
     0
 77
     1
 78
     8
140
3.0
147
1.0
172
     1
176
     6
177
     6
178
     3
271
     1
272
     2
284
     8
288
     1
289
     2
340
F
  0
ENDTAB
  0
TABLE
  2
BLOCK_RECORD
  5
1
330
0
100
AcDbSymbolTable
 70
    13
  0
BLOCK_RECORD
  5
18
102
{ACAD_XDICTIONARY
360
45F
102
}
330
1
100
AcDbSymbolTableRecord
100
AcDbBlockTableRecord
  2
*MODEL_SPACE
340
5CF5
  0
BLOCK_RECORD
  5
15
102
{ACAD_XDICTIONARY
360
5D89
102
}
330
1
100
AcDbSymbolTableRecord
100
AcDbBlockTableRecord
  2
*PAPER_SPACE
340
5CF6
  0
BLOCK_RECORD
  5
639D
330
1
100
AcDbSymbolTableRecord
100
AcDbBlockTableRecord
  2
A$C255C26A2
340
0
102
{BLKREFS
331
63A3
102
}
  0
BLOCK_RECORD
  5
67BC
330
1
100
AcDbSymbolTableRecord
100
AcDbBlockTableRecord
  2
*D1
340
0
  0
BLOCK_RECORD
  5
6C86
330
1
100
AcDbSymbolTableRecord
100
AcDbBlockTableRecord
  2
*D2
340
0
  0
BLOCK_RECORD
  5
6C9E
330
1
100
AcDbSymbolTableRecord
100
AcDbBlockTableRecord
  2
*D3
340
0
  0
BLOCK_RECORD
  5
6FE3
330
1
100
AcDbSymbolTableRecord
100
AcDbBlockTableRecord
  2
*D4
340
0
  0
BLOCK_RECORD
  5
74B6
330
1
100
AcDbSymbolTableRecord
100
AcDbBlockTableRecord
  2
*D5
340
0
  0
BLOCK_RECORD
  5
7501
330
1
100
AcDbSymbolTableRecord
100
AcDbBlockTableRecord
  2
*D6
340
0
  0
BLOCK_RECORD
  5
755C
330
1
100
AcDbSymbolTableRecord
100
AcDbBlockTableRecord
  2
*D7
340
0
  0
BLOCK_RECORD
  5
7569
330
1
100
AcDbSymbolTableRecord
100
AcDbBlockTableRecord
  2
*D8
340
0
  0
BLOCK_RECORD
  5
7AC6
330
1
100
AcDbSymbolTableRecord
100
AcDbBlockTableRecord
  2
*D9
340
0
  0
BLOCK_RECORD
  5
9E46
330
1
100
AcDbSymbolTableRecord
100
AcDbBlockTableRecord
  2
*D10
340
0
  0
BLOCK_RECORD
  5
9E54
330
1
100
AcDbSymbolTableRecord
100
AcDbBlockTableRecord
  2
*D11
340
0
  0
BLOCK_RECORD
  5
9F9A
330
1
100
AcDbSymbolTableRecord
100
AcDbBlockTableRecord
  2
*D12
340
0
  0
ENDTAB
  0
ENDSEC
  0
SECTION
  2
BLOCKS
  0
BLOCK
  5
19
330
18
100
AcDbEntity
  8
0
100
AcDbBlockBegin
  2
*MODEL_SPACE
 70
     0
 10
0.0
 20
0.0
 30
0.0
  3
*MODEL_SPACE
  1

  0
ENDBLK
  5
1A
330
18
100
AcDbEntity
  8
0
100
AcDbBlockEnd
  0
BLOCK
  5
16
330
15
100
AcDbEntity
 67
     1
  8
0
100
AcDbBlockBegin
  2
*PAPER_SPACE
 70
     0
 10
0.0
 20
0.0
 30
0.0
  3
*PAPER_SPACE
  1

  0
ENDBLK
  5
17
330
15
100
AcDbEntity
 67
     1
  8
0
100
AcDbBlockEnd
  0
BLOCK
  5
63A1
330
639D
100
AcDbEntity
  8
0
100
AcDbBlockBegin
  2
A$C255C26A2
 70
     0
 10
0.0
 20
0.0
 30
0.0
  3
A$C255C26A2
  1

  0
LWPOLYLINE
  5
639E
330
639D
100
AcDbEntity
  8
0
100
AcDbPolyline
 90
        3
 70
     1
 43
0.0
 10
7.014806023851633
 20
0.0000006939811783
 10
5.611844869720698
 20
2.430000693981241
 10
8.417767177982568
 20
2.430000693981241
  0
LWPOLYLINE
  5
639F
330
639D
100
AcDbEntity
  8
0
100
AcDbPolyline
 90
        3
 70
     1
 43
0.0
 10
4.20888371558999
 20
0.0000006939811783
 10
2.805922561459283
 20
2.430000693981241
 10
5.611844869720698
 20
2.430000693981241
  0
LWPOLYLINE
  5
63A0
330
639D
100
AcDbEntity
  8
0
100
AcDbPolyline
 90
        3
 70
     1
 43
0.0
 10
1.402961407328348
 20
0.0000006939811783
 10
0.0000002531974133
 20
2.430000693981241
 10
2.805922561459283
 20
2.430000693981241
  0
ENDBLK
  5
63A2
330
639D
100
AcDbEntity
  8
0
100
AcDbBlockEnd
  0
BLOCK
  5
A343
330
67BC
100
AcDbEntity
  8
0
100
AcDbBlockBegin
  2
*D1
 70
     1
 10
0.0
 20
0.0
 30
0.0
  3
*D1
  1

  0
LINE
  5
A344
330
67BC
100
AcDbEntity
  8
0
  6
ByBlock
 62
     6
100
AcDbLine
 10
324.0284215055631
 20
71.42142293306611
 30
0.0
 11
324.0284215055631
 21
53.8035368663132
 31
0.0
  0
LINE
  5
A345
330
67BC
100
AcDbEntity
  8
0
  6
ByBlock
 62
     6
100
AcDbLine
 10
404.0284215055624
 20
71.42142293306608
 30
0.0
 11
404.0284215055624
 21
53.8035368663132
 31
0.0
  0
LINE
  5
A346
330
67BC
100
AcDbEntity
  8
0
  6
ByBlock
 62
     6
100
AcDbLine
 10
326.5284215055631
 20
54.80353686631319
 30
0.0
 11
401.5284215055624
 21
54.80353686631319
 31
0.0
  0
MTEXT
  5
A347
330
67BC
100
AcDbEntity
  8
0
  6
ByBlock
 62
     3
100
AcDbMText
 10
364.0284215055626
 20
57.30353686631319
 30
0.0
 40
3.0
 41
0.0
 71
     5
 72
     1
  1
\A1;M80X2.0P
  7
TXT
 73
     1
 44
1.0
  0
SOLID
  5
A348
330
67BC
100
AcDbEntity
  8
0
  6
ByBlock
 62
     6
100
AcDbTrace
 10
326.5284215055631
 20
55.22020353297985
 30
0.0
 11
326.5284215055631
 21
54.38687019964653
 31
0.0
 12
324.0284215055631
 22
54.80353686631319
 32
0.0
 13
324.0284215055631
 23
54.80353686631319
 33
0.0
  0
SOLID
  5
A349
330
67BC
100
AcDbEntity
  8
0
  6
ByBlock
 62
     6
100
AcDbTrace
 10
401.5284215055624
 20
55.22020353297985
 30
0.0
 11
401.5284215055624
 21
54.38687019964653
 31
0.0
 12
404.0284215055624
 22
54.80353686631319
 32
0.0
 13
404.0284215055624
 23
54.80353686631319
 33
0.0
  0
POINT
  5
A34A
330
67BC
100
AcDbEntity
  8
DEFPOINTS
  6
ByBlock
 62
     0
100
AcDbPoint
 10
324.0284215055631
 20
72.42142293306611
 30
0.0
  0
POINT
  5
A34B
330
67BC
100
AcDbEntity
  8
DEFPOINTS
  6
ByBlock
 62
     0
100
AcDbPoint
 10
404.0284215055624
 20
72.42142293306608
 30
0.0
  0
POINT
  5
A34C
330
67BC
100
AcDbEntity
  8
DEFPOINTS
  6
ByBlock
 62
     0
100
AcDbPoint
 10
404.0284215055624
 20
54.80353686631319
 30
0.0
  0
ENDBLK
  5
A34D
330
67BC
100
AcDbEntity
  8
0
100
AcDbBlockEnd
  0
BLOCK
  5
A2FF
330
6C86
100
AcDbEntity
  8
0
100
AcDbBlockBegin
  2
*D2
 70
     1
 10
0.0
 20
0.0
 30
0.0
  3
*D2
  1

  0
LINE
  5
A300
330
6C86
100
AcDbEntity
  8
0
  6
ByBlock
 62
     6
100
AcDbLine
 10
316.0284215055631
 20
96.75475626639945
 30
0.0
 11
316.0284215055631
 21
114.945979484555
 31
0.0
  0
LINE
  5
A301
330
6C86
100
AcDbEntity
  8
0
  6
ByBlock
 62
     6
100
AcDbLine
 10
412.0284215055624
 20
96.75475626639945
 30
0.0
 11
412.0284215055624
 21
114.945979484555
 31
0.0
  0
LINE
  5
A302
330
6C86
100
AcDbEntity
  8
0
  6
ByBlock
 62
     6
100
AcDbLine
 10
318.5284215055631
 20
113.945979484555
 30
0.0
 11
409.5284215055625
 21
113.945979484555
 31
0.0
  0
SOLID
  5
A303
330
6C86
100
AcDbEntity
  8
0
  6
ByBlock
 62
     6
100
AcDbTrace
 10
318.5284215055631
 20
114.3626461512217
 30
0.0
 11
318.5284215055631
 21
113.5293128178883
 31
0.0
 12
316.0284215055631
 22
113.945979484555
 32
0.0
 13
316.0284215055631
 23
113.945979484555
 33
0.0
  0
SOLID
  5
A304
330
6C86
100
AcDbEntity
  8
0
  6
ByBlock
 62
     6
100
AcDbTrace
 10
409.5284215055625
 20
114.3626461512217
 30
0.0
 11
409.5284215055625
 21
113.5293128178883
 31
0.0
 12
412.0284215055624
 22
113.945979484555
 32
0.0
 13
412.0284215055624
 23
113.945979484555
 33
0.0
  0
MTEXT
  5
A305
330
6C86
100
AcDbEntity
  8
0
  6
ByBlock
 62
     3
100
AcDbMText
 10
364.0284215055628
 20
116.445979484555
 30
0.0
 40
3.0
 41
0.0
 71
     5
 72
     1
  1
\A1;\U+220596±0.5
  7
TXT
 73
     1
 44
1.0
  0
POINT
  5
A306
330
6C86
100
AcDbEntity
  8
DEFPOINTS
  6
ByBlock
 62
     0
100
AcDbPoint
 10
316.0284215055631
 20
95.75475626639946
 30
0.0
  0
POINT
  5
A307
330
6C86
100
AcDbEntity
  8
DEFPOINTS
  6
ByBlock
 62
     0
100
AcDbPoint
 10
412.0284215055624
 20
95.75475626639946
 30
0.0
  0
POINT
  5
A308
330
6C86
100
AcDbEntity
  8
DEFPOINTS
  6
ByBlock
 62
     0
100
AcDbPoint
 10
412.0284215055624
 20
113.945979484555
 30
0.0
  0
ENDBLK
  5
A309
330
6C86
100
AcDbEntity
  8
0
100
AcDbBlockEnd
  0
BLOCK
  5
A2F4
330
6C9E
100
AcDbEntity
  8
0
100
AcDbBlockBegin
  2
*D3
 70
     1
 10
0.0
 20
0.0
 30
0.0
  3
*D3
  1

  0
LINE
  5
A2F5
330
6C9E
100
AcDbEntity
  8
0
  6
ByBlock
 62
     6
100
AcDbLine
 10
311.5284215055632
 20
94.25475626639949
 30
0.0
 11
311.5284215055632
 21
120.4534495749699
 31
0.0
  0
LINE
  5
A2F6
330
6C9E
100
AcDbEntity
  8
0
  6
ByBlock
 62
     6
100
AcDbLine
 10
416.5284215055625
 20
94.25475626639945
 30
0.0
 11
416.5284215055625
 21
120.4534495749699
 31
0.0
  0
LINE
  5
A2F7
330
6C9E
100
AcDbEntity
  8
0
  6
ByBlock
 62
     6
100
AcDbLine
 10
314.0284215055632
 20
119.4534495749699
 30
0.0
 11
414.0284215055626
 21
119.4534495749699
 31
0.0
  0
MTEXT
  5
A2F8
330
6C9E
100
AcDbEntity
  8
0
  6
ByBlock
 62
     3
100
AcDbMText
 10
359.959365377649
 20
122.7795703248552
 30
0.0
 40
3.0
 41
0.0
 71
     5
 72
     1
  1
\A1;\U+2205105
  7
TXT
 73
     1
 44
1.0
  0
SOLID
  5
A2F9
330
6C9E
100
AcDbEntity
  8
0
  6
ByBlock
 62
     6
100
AcDbTrace
 10
314.0284215055632
 20
119.8701162416366
 30
0.0
 11
314.0284215055632
 21
119.0367829083032
 31
0.0
 12
311.5284215055632
 22
119.4534495749699
 32
0.0
 13
311.5284215055632
 23
119.4534495749699
 33
0.0
  0
SOLID
  5
A2FA
330
6C9E
100
AcDbEntity
  8
0
  6
ByBlock
 62
     6
100
AcDbTrace
 10
414.0284215055626
 20
119.8701162416366
 30
0.0
 11
414.0284215055626
 21
119.0367829083032
 31
0.0
 12
416.5284215055625
 22
119.4534495749699
 32
0.0
 13
416.5284215055625
 23
119.4534495749699
 33
0.0
  0
POINT
  5
A2FB
330
6C9E
100
AcDbEntity
  8
DEFPOINTS
  6
ByBlock
 62
     0
100
AcDbPoint
 10
311.5284215055632
 20
93.25475626639949
 30
0.0
  0
POINT
  5
A2FC
330
6C9E
100
AcDbEntity
  8
DEFPOINTS
  6
ByBlock
 62
     0
100
AcDbPoint
 10
416.5284215055625
 20
93.25475626639946
 30
0.0
  0
POINT
  5
A2FD
330
6C9E
100
AcDbEntity
  8
DEFPOINTS
  6
ByBlock
 62
     0
100
AcDbPoint
 10
416.5284215055625
 20
119.4534495749699
 30
0.0
  0
ENDBLK
  5
A2FE
330
6C9E
100
AcDbEntity
  8
0
100
AcDbBlockEnd
  0
BLOCK
  5
916D
330
6FE3
100
AcDbEntity
  8
0
100
AcDbBlockBegin
  2
*D4
 70
     1
 10
0.0
 20
0.0
 30
0.0
  3
*D4
  1

  0
LINE
  5
916E
330
6FE3
100
AcDbEntity
  8
0
  6
ByBlock
 62
     6
100
AcDbLine
 10
128.3785872205454
 20
100.4987644138218
 30
0.0
 11
157.1448781245442
 21
83.89053861681096
 31
0.0
  0
LINE
  5
916F
330
6FE3
100
AcDbEntity
  8
0
  6
ByBlock
 62
     6
100
AcDbLine
 10
123.7585872205453
 20
92.49668968285352
 30
0.0
 11
152.5248781245441
 21
75.88846388584264
 31
0.0
  0
LINE
  5
9170
330
6FE3
100
AcDbEntity
  8
0
  6
ByBlock
 62
     6
100
AcDbLine
 10
155.0288527207598
 20
82.22547510734985
 30
0.0
 11
152.9088527207597
 21
78.55352739530373
 31
0.0
  0
LINE
  5
9171
330
6FE3
100
AcDbEntity
  8
0
  6
ByBlock
 62
     6
100
AcDbLine
 10
165.6799250957721
 20
100.6736736159645
 30
0.0
 11
156.2788527207598
 21
84.39053861681095
 31
0.0
  0
MTEXT
  5
9172
330
6FE3
100
AcDbEntity
  8
0
  6
ByBlock
 62
     3
100
AcDbMText
 10
159.9898615863111
 20
95.81819451928428
 30
0.0
 40
3.0
 41
0.0
 71
     5
 72
     1
  1
\A1;9±0.5
  7
TXT
 11
0.5000000000000011
 21
0.866025403784438
 31
0.0
 73
     1
 44
1.0
  0
SOLID
  5
9173
330
6FE3
100
AcDbEntity
  8
0
  6
ByBlock
 62
     6
100
AcDbTrace
 10
154.6680088025162
 20
82.43380844068319
 30
0.0
 11
155.3896966390033
 21
82.01714177401653
 31
0.0
 12
156.2788527207598
 22
84.39053861681095
 32
0.0
 13
156.2788527207598
 23
84.39053861681095
 33
0.0
  0
SOLID
  5
9174
330
6FE3
100
AcDbEntity
  8
0
  6
ByBlock
 62
     6
100
AcDbTrace
 10
152.5480088025162
 20
78.76186072863707
 30
0.0
 11
153.2696966390032
 21
78.3451940619704
 31
0.0
 12
151.6588527207597
 22
76.38846388584264
 32
0.0
 13
151.6588527207597
 23
76.38846388584264
 33
0.0
  0
POINT
  5
9175
330
6FE3
100
AcDbEntity
  8
DEFPOINTS
  6
ByBlock
 62
     0
100
AcDbPoint
 10
127.5125618167609
 20
100.9987644138218
 30
0.0
  0
POINT
  5
9176
330
6FE3
100
AcDbEntity
  8
DEFPOINTS
  6
ByBlock
 62
     0
100
AcDbPoint
 10
122.8925618167608
 20
92.99668968285351
 30
0.0
  0
POINT
  5
9177
330
6FE3
100
AcDbEntity
  8
DEFPOINTS
  6
ByBlock
 62
     0
100
AcDbPoint
 10
151.6588527207597
 20
76.38846388584264
 30
0.0
  0
ENDBLK
  5
9178
330
6FE3
100
AcDbEntity
  8
0
100
AcDbBlockEnd
  0
BLOCK
  5
A2C5
330
74B6
100
AcDbEntity
  8
0
100
AcDbBlockBegin
  2
*D5
 70
     1
 10
0.0
 20
0.0
 30
0.0
  3
*D5
  1

  0
LINE
  5
A2C6
330
74B6
100
AcDbEntity
  8
0
  6
ByBlock
 62
     6
100
AcDbLine
 10
315.0284215055631
 20
95.75475626639946
 30
0.0
 11
303.7273524495229
 21
95.75475626639946
 31
0.0
  0
LINE
  5
A2C7
330
74B6
100
AcDbEntity
  8
0
  6
ByBlock
 62
     6
100
AcDbLine
 10
312.5284215055632
 20
95.25475626639943
 30
0.0
 11
303.7273524495229
 21
95.25475626639943
 31
0.0
  0
LINE
  5
A2C8
330
74B6
100
AcDbEntity
  8
0
  6
ByBlock
 62
     6
100
AcDbLine
 10
304.7273524495229
 20
98.25475626639946
 30
0.0
 11
304.7273524495229
 21
100.7547562663994
 31
0.0
  0
LINE
  5
A2C9
330
74B6
100
AcDbEntity
  8
0
  6
ByBlock
 62
     6
100
AcDbLine
 10
304.7273524495229
 20
92.75475626639943
 30
0.0
 11
304.7273524495229
 21
90.25475626639943
 31
0.0
  0
LINE
  5
A2CA
330
74B6
100
AcDbEntity
  8
0
  6
ByBlock
 62
     6
100
AcDbLine
 10
304.7273524495229
 20
112.3257120551665
 30
0.0
 11
304.7273524495229
 21
95.75475626639946
 31
0.0
  0
MTEXT
  5
A2CB
330
74B6
100
AcDbEntity
  8
0
  6
ByBlock
 62
     3
100
AcDbMText
 10
302.2273524495229
 20
108.5757120551665
 30
0.0
 40
3.0
 41
0.0
 71
     5
 72
     1
  1
\A1;0.5
  7
TXT
 11
0.0000000000000001
 21
1.0
 31
0.0
 73
     1
 44
1.0
  0
LINE
  5
A2CC
330
74B6
100
AcDbEntity
  8
0
  6
ByBlock
 62
     6
100
AcDbLine
 10
304.7273524495229
 20
95.75475626639946
 30
0.0
 11
304.7273524495229
 21
95.25475626639943
 31
0.0
  0
SOLID
  5
A2CD
330
74B6
100
AcDbEntity
  8
0
  6
ByBlock
 62
     6
100
AcDbTrace
 10
304.3106857828562
 20
98.25475626639946
 30
0.0
 11
305.1440191161896
 21
98.25475626639946
 31
0.0
 12
304.7273524495229
 22
95.75475626639946
 32
0.0
 13
304.7273524495229
 23
95.75475626639946
 33
0.0
  0
SOLID
  5
A2CE
330
74B6
100
AcDbEntity
  8
0
  6
ByBlock
 62
     6
100
AcDbTrace
 10
304.3106857828562
 20
92.75475626639943
 30
0.0
 11
305.1440191161896
 21
92.75475626639943
 31
0.0
 12
304.7273524495229
 22
95.25475626639943
 32
0.0
 13
304.7273524495229
 23
95.25475626639943
 33
0.0
  0
POINT
  5
A2CF
330
74B6
100
AcDbEntity
  8
DEFPOINTS
  6
ByBlock
 62
     0
100
AcDbPoint
 10
316.0284215055631
 20
95.75475626639946
 30
0.0
  0
POINT
  5
A2D0
330
74B6
100
AcDbEntity
  8
DEFPOINTS
  6
ByBlock
 62
     0
100
AcDbPoint
 10
313.5284215055632
 20
95.25475626639943
 30
0.0
  0
POINT
  5
A2D1
330
74B6
100
AcDbEntity
  8
DEFPOINTS
  6
ByBlock
 62
     0
100
AcDbPoint
 10
304.7273524495229
 20
95.25475626639943
 30
0.0
  0
ENDBLK
  5
A2D2
330
74B6
100
AcDbEntity
  8
0
100
AcDbBlockEnd
  0
BLOCK
  5
A30A
330
7501
100
AcDbEntity
  8
0
100
AcDbBlockBegin
  2
*D6
 70
     1
 10
0.0
 20
0.0
 30
0.0
  3
*D6
  1

  0
LINE
  5
A30B
330
7501
100
AcDbEntity
  8
0
  6
ByBlock
 62
     6
100
AcDbLine
 10
323.5284215055632
 20
96.75475626639943
 30
0.0
 11
323.5284215055632
 21
109.1028846729264
 31
0.0
  0
LINE
  5
A30C
330
7501
100
AcDbEntity
  8
0
  6
ByBlock
 62
     6
100
AcDbLine
 10
404.5284215055625
 20
96.75475626639945
 30
0.0
 11
404.5284215055625
 21
109.1028846729264
 31
0.0
  0
LINE
  5
A30D
330
7501
100
AcDbEntity
  8
0
  6
ByBlock
 62
     6
100
AcDbLine
 10
326.0284215055631
 20
108.1028846729264
 30
0.0
 11
402.0284215055625
 21
108.1028846729264
 31
0.0
  0
SOLID
  5
A30E
330
7501
100
AcDbEntity
  8
0
  6
ByBlock
 62
     6
100
AcDbTrace
 10
326.0284215055631
 20
108.5195513395931
 30
0.0
 11
326.0284215055631
 21
107.6862180062597
 31
0.0
 12
323.5284215055632
 22
108.1028846729264
 32
0.0
 13
323.5284215055632
 23
108.1028846729264
 33
0.0
  0
SOLID
  5
A30F
330
7501
100
AcDbEntity
  8
0
  6
ByBlock
 62
     6
100
AcDbTrace
 10
402.0284215055625
 20
108.5195513395931
 30
0.0
 11
402.0284215055625
 21
107.6862180062597
 31
0.0
 12
404.5284215055625
 22
108.1028846729264
 32
0.0
 13
404.5284215055625
 23
108.1028846729264
 33
0.0
  0
MTEXT
  5
A310
330
7501
100
AcDbEntity
  8
0
  6
ByBlock
 62
     3
100
AcDbMText
 10
364.0284215055629
 20
110.6028846729264
 30
0.0
 40
3.0
 41
0.0
 71
     5
 72
     1
  1
\A1;\U+220581
  7
TXT
 73
     1
 44
1.0
  0
POINT
  5
A311
330
7501
100
AcDbEntity
  8
DEFPOINTS
  6
ByBlock
 62
     0
100
AcDbPoint
 10
323.5284215055632
 20
95.75475626639944
 30
0.0
  0
POINT
  5
A312
330
7501
100
AcDbEntity
  8
DEFPOINTS
  6
ByBlock
 62
     0
100
AcDbPoint
 10
404.5284215055625
 20
95.75475626639946
 30
0.0
  0
POINT
  5
A313
330
7501
100
AcDbEntity
  8
DEFPOINTS
  6
ByBlock
 62
     0
100
AcDbPoint
 10
404.5284215055625
 20
108.1028846729264
 30
0.0
  0
ENDBLK
  5
A314
330
7501
100
AcDbEntity
  8
0
100
AcDbBlockEnd
  0
BLOCK
  5
A315
330
755C
100
AcDbEntity
  8
0
100
AcDbBlockBegin
  2
*D7
 70
     1
 10
0.0
 20
0.0
 30
0.0
  3
*D7
  1

  0
LINE
  5
A316
330
755C
100
AcDbEntity
  8
0
  6
ByBlock
 62
     6
100
AcDbLine
 10
413.0284215055625
 20
95.75703173403331
 30
0.0
 11
432.416501055724
 21
95.75703173403331
 31
0.0
  0
LINE
  5
A317
330
755C
100
AcDbEntity
  8
0
  6
ByBlock
 62
     6
100
AcDbLine
 10
415.2432251820857
 20
75.79875485983665
 30
0.0
 11
432.416501055724
 21
75.79875485983665
 31
0.0
  0
LINE
  5
A318
330
755C
100
AcDbEntity
  8
0
  6
ByBlock
 62
     6
100
AcDbLine
 10
431.416501055724
 20
93.25703173403331
 30
0.0
 11
431.416501055724
 21
78.29875485983665
 31
0.0
  0
SOLID
  5
A319
330
755C
100
AcDbEntity
  8
0
  6
ByBlock
 62
     6
100
AcDbTrace
 10
430.9998343890574
 20
93.25703173403331
 30
0.0
 11
431.8331677223907
 21
93.25703173403331
 31
0.0
 12
431.416501055724
 22
95.75703173403331
 32
0.0
 13
431.416501055724
 23
95.75703173403331
 33
0.0
  0
SOLID
  5
A31A
330
755C
100
AcDbEntity
  8
0
  6
ByBlock
 62
     6
100
AcDbTrace
 10
430.9998343890574
 20
78.29875485983665
 30
0.0
 11
431.8331677223907
 21
78.29875485983665
 31
0.0
 12
431.416501055724
 22
75.79875485983665
 32
0.0
 13
431.416501055724
 23
75.79875485983665
 33
0.0
  0
MTEXT
  5
A31B
330
755C
100
AcDbEntity
  8
0
  6
ByBlock
 62
     3
100
AcDbMText
 10
428.916501055724
 20
85.777893296935
 30
0.0
 40
3.0
 41
0.0
 71
     5
 72
     1
  1
\A1;20
  7
TXT
 11
0.0000000000000001
 21
1.0
 31
0.0
 73
     1
 44
1.0
  0
POINT
  5
A31C
330
755C
100
AcDbEntity
  8
DEFPOINTS
  6
ByBlock
 62
     0
100
AcDbPoint
 10
412.0284215055624
 20
95.75703173403331
 30
0.0
  0
POINT
  5
A31D
330
755C
100
AcDbEntity
  8
DEFPOINTS
  6
ByBlock
 62
     0
100
AcDbPoint
 10
414.2432251820857
 20
75.79875485983665
 30
0.0
  0
POINT
  5
A31E
330
755C
100
AcDbEntity
  8
DEFPOINTS
  6
ByBlock
 62
     0
100
AcDbPoint
 10
431.416501055724
 20
75.79875485983665
 30
0.0
  0
ENDBLK
  5
A31F
330
755C
100
AcDbEntity
  8
0
100
AcDbBlockEnd
  0
BLOCK
  5
A320
330
7569
100
AcDbEntity
  8
0
100
AcDbBlockBegin
  2
*D8
 70
     1
 10
0.0
 20
0.0
 30
0.0
  3
*D8
  1

  0
LINE
  5
A321
330
7569
100
AcDbEntity
  8
0
  6
ByBlock
 62
     6
100
AcDbLine
 10
412.9101744802617
 20
71.75779250764311
 30
0.0
 11
442.5655219821122
 21
71.75779250764311
 31
0.0
  0
LINE
  5
A322
330
7569
100
AcDbEntity
  8
0
  6
ByBlock
 62
     6
100
AcDbLine
 10
413.0284215055625
 20
95.75703173403331
 30
0.0
 11
442.5655219821122
 21
95.75703173403331
 31
0.0
  0
LINE
  5
A323
330
7569
100
AcDbEntity
  8
0
  6
ByBlock
 62
     6
100
AcDbLine
 10
441.5655219821122
 20
74.25779250764311
 30
0.0
 11
441.5655219821122
 21
93.25703173403331
 31
0.0
  0
SOLID
  5
A324
330
7569
100
AcDbEntity
  8
0
  6
ByBlock
 62
     6
100
AcDbTrace
 10
441.1488553154454
 20
74.25779250764311
 30
0.0
 11
441.9821886487788
 21
74.25779250764311
 31
0.0
 12
441.5655219821122
 22
71.75779250764311
 32
0.0
 13
441.5655219821122
 23
71.75779250764311
 33
0.0
  0
SOLID
  5
A325
330
7569
100
AcDbEntity
  8
0
  6
ByBlock
 62
     6
100
AcDbTrace
 10
441.1488553154454
 20
93.25703173403331
 30
0.0
 11
441.9821886487788
 21
93.25703173403331
 31
0.0
 12
441.5655219821122
 22
95.75703173403331
 32
0.0
 13
441.5655219821122
 23
95.75703173403331
 33
0.0
  0
MTEXT
  5
A326
330
7569
100
AcDbEntity
  8
0
  6
ByBlock
 62
     3
100
AcDbMText
 10
439.0655219821121
 20
83.75741212083822
 30
0.0
 40
3.0
 41
0.0
 71
     5
 72
     1
  1
\A1;24±0.2
  7
TXT
 11
0.0000000000000001
 21
1.0
 31
0.0
 73
     1
 44
1.0
  0
POINT
  5
A327
330
7569
100
AcDbEntity
  8
DEFPOINTS
  6
ByBlock
 62
     0
100
AcDbPoint
 10
411.9101744802617
 20
71.75779250764311
 30
0.0
  0
POINT
  5
A328
330
7569
100
AcDbEntity
  8
DEFPOINTS
  6
ByBlock
 62
     0
100
AcDbPoint
 10
412.0284215055624
 20
95.75703173403331
 30
0.0
  0
POINT
  5
A329
330
7569
100
AcDbEntity
  8
DEFPOINTS
  6
ByBlock
 62
     0
100
AcDbPoint
 10
441.5655219821122
 20
95.75703173403331
 30
0.0
  0
ENDBLK
  5
A32A
330
7569
100
AcDbEntity
  8
0
100
AcDbBlockEnd
  0
BLOCK
  5
9065
330
7AC6
100
AcDbEntity
  8
0
100
AcDbBlockBegin
  2
*D9
 70
     1
 10
0.0
 20
0.0
 30
0.0
  3
*D9
  1

  0
LINE
  5
9066
330
7AC6
100
AcDbEntity
  8
0
  6
ByBlock
 62
     6
100
AcDbLine
 10
312.5311849191344
 20
112.9966896828538
 30
0.0
 11
308.7489200256147
 21
112.9966896828538
 31
0.0
  0
LINE
  5
9067
330
7AC6
100
AcDbEntity
  8
0
  6
ByBlock
 62
     6
100
AcDbLine
 10
312.5311849191344
 20
114.9966896828535
 30
0.0
 11
308.7489200256147
 21
114.9966896828535
 31
0.0
  0
LINE
  5
9068
330
7AC6
100
AcDbEntity
  8
0
  6
ByBlock
 62
     6
100
AcDbLine
 10
309.7489200256147
 20
110.4966896828538
 30
0.0
 11
309.7489200256147
 21
107.9966896828538
 31
0.0
  0
LINE
  5
9069
330
7AC6
100
AcDbEntity
  8
0
  6
ByBlock
 62
     6
100
AcDbLine
 10
309.7489200256147
 20
117.4966896828535
 30
0.0
 11
309.7489200256147
 21
119.9966896828535
 31
0.0
  0
LINE
  5
906A
330
7AC6
100
AcDbEntity
  8
0
  6
ByBlock
 62
     6
100
AcDbLine
 10
309.7489200256147
 20
124.5825033705258
 30
0.0
 11
309.7489200256147
 21
114.9966896828535
 31
0.0
  0
MTEXT
  5
906B
330
7AC6
100
AcDbEntity
  8
0
  6
ByBlock
 62
     3
100
AcDbMText
 10
307.2489200256147
 20
122.5825033705258
 30
0.0
 40
3.0
 41
0.0
 71
     5
 72
     1
  1
\A1;2
  7
TXT
 11
0.0000000000000001
 21
1.0
 31
0.0
 73
     1
 44
1.0
  0
LINE
  5
906C
330
7AC6
100
AcDbEntity
  8
0
  6
ByBlock
 62
     6
100
AcDbLine
 10
309.7489200256147
 20
112.9966896828538
 30
0.0
 11
309.7489200256147
 21
114.9966896828535
 31
0.0
  0
SOLID
  5
906D
330
7AC6
100
AcDbEntity
  8
0
  6
ByBlock
 62
     6
100
AcDbTrace
 10
309.332253358948
 20
110.4966896828538
 30
0.0
 11
310.1655866922814
 21
110.4966896828538
 31
0.0
 12
309.7489200256147
 22
112.9966896828538
 32
0.0
 13
309.7489200256147
 23
112.9966896828538
 33
0.0
  0
SOLID
  5
906E
330
7AC6
100
AcDbEntity
  8
0
  6
ByBlock
 62
     6
100
AcDbTrace
 10
309.332253358948
 20
117.4966896828535
 30
0.0
 11
310.1655866922814
 21
117.4966896828535
 31
0.0
 12
309.7489200256147
 22
114.9966896828535
 32
0.0
 13
309.7489200256147
 23
114.9966896828535
 33
0.0
  0
POINT
  5
906F
330
7AC6
100
AcDbEntity
  8
DEFPOINTS
  6
ByBlock
 62
     0
100
AcDbPoint
 10
313.5311849191344
 20
112.9966896828538
 30
0.0
  0
POINT
  5
9070
330
7AC6
100
AcDbEntity
  8
DEFPOINTS
  6
ByBlock
 62
     0
100
AcDbPoint
 10
313.5311849191344
 20
114.9966896828535
 30
0.0
  0
POINT
  5
9071
330
7AC6
100
AcDbEntity
  8
DEFPOINTS
  6
ByBlock
 62
     0
100
AcDbPoint
 10
309.7489200256147
 20
114.9966896828535
 30
0.0
  0
ENDBLK
  5
9072
330
7AC6
100
AcDbEntity
  8
0
100
AcDbBlockEnd
  0
BLOCK
  5
9E87
330
9E46
100
AcDbEntity
  8
0
100
AcDbBlockBegin
  2
*D10
 70
     1
 10
0.0
 20
0.0
 30
0.0
  3
*D10
  1

  0
LINE
  5
9E88
330
9E46
100
AcDbEntity
  8
0
  6
ByBlock
 62
     6
100
AcDbLine
 10
285.9885698917302
 20
218.2647700177316
 30
0.0
 11
285.9885698917302
 21
168.3700646551643
 31
0.0
  0
LINE
  5
9E89
330
9E46
100
AcDbEntity
  8
0
  6
ByBlock
 62
     6
100
AcDbLine
 10
289.4690020838983
 20
218.2647700177316
 30
0.0
 11
289.4690020838983
 21
168.3700646551643
 31
0.0
  0
LINE
  5
9E8A
330
9E46
100
AcDbEntity
  8
0
  6
ByBlock
 62
     6
100
AcDbLine
 10
283.4885698917302
 20
169.3700646551643
 30
0.0
 11
280.9885698917302
 21
169.3700646551643
 31
0.0
  0
LINE
  5
9E8B
330
9E46
100
AcDbEntity
  8
0
  6
ByBlock
 62
     6
100
AcDbLine
 10
291.9690020838983
 20
169.3700646551643
 30
0.0
 11
294.4690020838983
 21
169.3700646551643
 31
0.0
  0
MTEXT
  5
9E8C
330
9E46
100
AcDbEntity
  8
0
  6
ByBlock
 62
     3
100
AcDbMText
 10
294.4690020838983
 20
171.8700646551643
 30
0.0
 40
3.0
 41
0.0
 71
     5
 72
     1
  1
\A1;3.5
  7
TXT
 73
     1
 44
1.0
  0
LINE
  5
9E8D
330
9E46
100
AcDbEntity
  8
0
  6
ByBlock
 62
     6
100
AcDbLine
 10
285.9885698917302
 20
169.3700646551643
 30
0.0
 11
289.4690020838983
 21
169.3700646551643
 31
0.0
  0
SOLID
  5
9E8E
330
9E46
100
AcDbEntity
  8
0
  6
ByBlock
 62
     6
100
AcDbTrace
 10
283.4885698917302
 20
169.786731321831
 30
0.0
 11
283.4885698917302
 21
168.9533979884977
 31
0.0
 12
285.9885698917302
 22
169.3700646551643
 32
0.0
 13
285.9885698917302
 23
169.3700646551643
 33
0.0
  0
SOLID
  5
9E8F
330
9E46
100
AcDbEntity
  8
0
  6
ByBlock
 62
     6
100
AcDbTrace
 10
291.9690020838983
 20
169.786731321831
 30
0.0
 11
291.9690020838983
 21
168.9533979884977
 31
0.0
 12
289.4690020838983
 22
169.3700646551643
 32
0.0
 13
289.4690020838983
 23
169.3700646551643
 33
0.0
  0
POINT
  5
9E90
330
9E46
100
AcDbEntity
  8
DEFPOINTS
  6
ByBlock
 62
     0
100
AcDbPoint
 10
285.9885698917302
 20
219.2647700177316
 30
0.0
  0
POINT
  5
9E91
330
9E46
100
AcDbEntity
  8
DEFPOINTS
  6
ByBlock
 62
     0
100
AcDbPoint
 10
289.4690020838983
 20
219.2647700177316
 30
0.0
  0
POINT
  5
9E92
330
9E46
100
AcDbEntity
  8
DEFPOINTS
  6
ByBlock
 62
     0
100
AcDbPoint
 10
289.4690020838983
 20
169.3700646551643
 30
0.0
  0
ENDBLK
  5
9E93
330
9E46
100
AcDbEntity
  8
0
100
AcDbBlockEnd
  0
BLOCK
  5
9E55
330
9E54
100
AcDbEntity
  8
0
100
AcDbBlockBegin
  2
*D11
 70
     1
 10
0.0
 20
0.0
 30
0.0
  3
*D11
  1

  0
LINE
  5
9E56
330
9E54
100
AcDbEntity
  8
0
  6
ByBlock
 62
     6
100
AcDbLine
 10
547.5389155215919
 20
204.018600590362
 30
0.0
 11
537.0157760716614
 21
204.018600590362
 31
0.0
  0
LINE
  5
9E57
330
9E54
100
AcDbEntity
  8
0
  6
ByBlock
 62
     6
100
AcDbLine
 10
547.5389155215919
 20
212.0186005903621
 30
0.0
 11
537.0157760716614
 21
212.0186005903621
 31
0.0
  0
LINE
  5
9E58
330
9E54
100
AcDbEntity
  8
0
  6
ByBlock
 62
     6
100
AcDbLine
 10
538.0157760716614
 20
206.518600590362
 30
0.0
 11
538.0157760716614
 21
209.518600590362
 31
0.0
  0
MTEXT
  5
9E59
330
9E54
100
AcDbEntity
  8
0
  6
ByBlock
 62
     3
100
AcDbMText
 10
534.6413720308056
 20
220.4073498786863
 30
0.0
 40
3.0
 41
0.0
 71
     5
 72
     1
  1
\A1;8      (3等分)
  7
TXT
 11
0.0000000000000001
 21
1.0
 31
0.0
 73
     1
 44
1.0
  0
SOLID
  5
9E5A
330
9E54
100
AcDbEntity
  8
0
  6
ByBlock
 62
     6
100
AcDbTrace
 10
537.5991094049948
 20
206.518600590362
 30
0.0
 11
538.4324427383281
 21
206.518600590362
 31
0.0
 12
538.0157760716614
 22
204.018600590362
 32
0.0
 13
538.0157760716614
 23
204.018600590362
 33
0.0
  0
SOLID
  5
9E5B
330
9E54
100
AcDbEntity
  8
0
  6
ByBlock
 62
     6
100
AcDbTrace
 10
537.5991094049948
 20
209.518600590362
 30
0.0
 11
538.4324427383281
 21
209.518600590362
 31
0.0
 12
538.0157760716614
 22
212.0186005903621
 32
0.0
 13
538.0157760716614
 23
212.0186005903621
 33
0.0
  0
POINT
  5
9E5C
330
9E54
100
AcDbEntity
  8
DEFPOINTS
  6
ByBlock
 62
     0
100
AcDbPoint
 10
548.5389155215918
 20
204.018600590362
 30
0.0
  0
POINT
  5
9E5D
330
9E54
100
AcDbEntity
  8
DEFPOINTS
  6
ByBlock
 62
     0
100
AcDbPoint
 10
548.5389155215918
 20
212.0186005903621
 30
0.0
  0
POINT
  5
9E5E
330
9E54
100
AcDbEntity
  8
DEFPOINTS
  6
ByBlock
 62
     0
100
AcDbPoint
 10
538.0157760716614
 20
212.0186005903621
 30
0.0
  0
ENDBLK
  5
9E5F
330
9E54
100
AcDbEntity
  8
0
100
AcDbBlockEnd
  0
BLOCK
  5
A32B
330
9F9A
100
AcDbEntity
  8
0
100
AcDbBlockBegin
  2
*D12
 70
     1
 10
0.0
 20
0.0
 30
0.0
  3
*D12
  1

  0
LINE
  5
A32C
330
9F9A
100
AcDbEntity
  8
0
  6
ByBlock
 62
     6
100
AcDbLine
 10
416.8356701099448
 20
74.32462491357165
 30
0.0
 11
452.9278119815994
 21
53.80171752753651
 31
0.0
  0
LINE
  5
A32D
330
9F9A
100
AcDbEntity
  8
0
  6
ByBlock
 62
     6
100
AcDbLine
 10
413.0284215055625
 20
95.75703173403329
 30
0.0
 11
464.0221513956633
 21
95.75703173403322
 31
0.0
  0
ARC
  5
A32E
330
9F9A
100
AcDbEntity
  8
0
  6
ByBlock
 62
     6
100
AcDbCircle
 10
379.1440578512703
 20
95.75703173403326
 30
0.0
 40
83.87809354439298
100
AcDbArc
 50
332.0841146086654
 51
358.2922269070075
  0
SOLID
  5
A32F
330
9F9A
100
AcDbEntity
  8
0
  6
ByBlock
 62
     6
100
AcDbTrace
 10
453.6269829325233
 20
56.28688214996032
 30
0.0
 11
452.8965156647733
 21
56.68795822153565
 31
0.0
 12
452.0585210839223
 22
54.29601838249799
 32
0.0
 13
452.0585210839223
 23
54.29601838249799
 33
0.0
  0
SOLID
  5
A330
330
9F9A
100
AcDbEntity
  8
0
  6
ByBlock
 62
     6
100
AcDbTrace
 10
462.568274549647
 20
93.26351876639874
 30
0.0
 11
463.4015153416375
 21
93.25109994972505
 31
0.0
 12
463.0221513956633
 22
95.75703173403324
 32
0.0
 13
463.0221513956633
 23
95.75703173403324
 33
0.0
  0
MTEXT
  5
A331
330
9F9A
100
AcDbEntity
  8
0
  6
ByBlock
 62
     3
100
AcDbMText
 10
457.8180085231247
 20
74.95309954315683
 30
0.0
 40
3.0
 41
0.0
 71
     5
 72
     1
  1
\A1;30°
  7
TXT
 11
0.255645362096465
 21
0.9667706288663136
 31
0.0
 73
     1
 44
1.0
  0
POINT
  5
A332
330
9F9A
100
AcDbEntity
  8
DEFPOINTS
  6
ByBlock
 62
     0
100
AcDbPoint
 10
458.0885501165031
 20
67.41445391149683
 30
0.0
  0
POINT
  5
A333
330
9F9A
100
AcDbEntity
  8
DEFPOINTS
  6
ByBlock
 62
     0
100
AcDbPoint
 10
415.9663792122676
 20
74.81892576853316
 30
0.0
  0
POINT
  5
A334
330
9F9A
100
AcDbEntity
  8
DEFPOINTS
  6
ByBlock
 62
     0
100
AcDbPoint
 10
322.5297352474135
 20
95.75703173403326
 30
0.0
  0
POINT
  5
A335
330
9F9A
100
AcDbEntity
  8
DEFPOINTS
  6
ByBlock
 62
     0
100
AcDbPoint
 10
412.0284215055624
 20
95.75703173403331
 30
0.0
  0
POINT
  5
A336
330
9F9A
100
AcDbEntity
  8
DEFPOINTS
  6
ByBlock
 62
     0
100
AcDbPoint
 10
402.6624029716749
 20
82.38390412926944
 30
0.0
  0
ENDBLK
  5
A337
330
9F9A
100
AcDbEntity
  8
0
100
AcDbBlockEnd
  0
ENDSEC
  0
SECTION
  2
ENTITIES
  0
MTEXT
  5
C0
330
18
100
AcDbEntity
  8
0
100
AcDbMText
 10
41.26970765600413
 20
233.6950877649332
 30
0.0
 40
2.5
 41
0.0
 71
     1
 72
     5
  1

  7
ISOCP3
 73
     1
 44
1.0
  0
MTEXT
  5
503F
330
18
100
AcDbEntity
  8
公差
100
AcDbMText
 10
86.62766532365589
 20
125.9256541579297
 30
0.0
 40
2.0
 41
11.48459459716352
 71
     1
 72
     5
  1
+0\P-0.2
  7
TXT
 73
     1
 44
1.0
  0
LINE
  5
5AD6
330
18
100
AcDbEntity
  8
DIM
100
AcDbLine
 10
163.0500743840697
 20
95.75703173403297
 30
0.0
 11
163.0500743840697
 21
112.2837581891567
 31
0.0
  0
LINE
  5
5AD7
330
18
100
AcDbEntity
  8
DIM
100
AcDbLine
 10
163.0500743840697
 20
112.2837581891567
 30
0.0
 11
175.2018145103171
 21
112.2837581891567
 31
0.0
  0
LINE
  5
5ADA
330
18
100
AcDbEntity
  8
DIM
100
AcDbLine
 10
45.51297390752046
 20
54.80353686631319
 30
0.0
 11
45.51297390752046
 21
47.52200167656844
 31
0.0
  0
TOLERANCE
  5
5E6E
330
18
100
AcDbEntity
  8
DIM
  6
ByBlock
100
AcDbFcf
  3
A
 10
175.2018145103171
 20
112.3346966252877
 30
0.0
  1
{\Fgdt;h}%%v0.005%%v%%vA%%v%%v
1001
ACAD
1000
DSTYLE
1002
{
1070
   140
1040
2.743999999999999
1070
   147
1040
0.6859999999999999
1002
}
  0
MTEXT
  5
608E
330
18
100
AcDbEntity
  8
0
100
AcDbMText
 10
17.81948278949767
 20
19.37399834316261
 30
0.0
 40
5.0
 41
0.0
 71
     1
 72
     5
  1
\Ftxt.shx,bigfont.shx|c128;呉銘宏
  7
JL
 73
     1
 44
1.0
  0
MTEXT
  5
6095
330
18
100
AcDbEntity
  8
0
100
AcDbMText
 10
81.23517665196368
 20
29.2278230533891
 30
0.0
 40
4.5
 41
0.0
 71
     1
 72
     5
  1
\Ftxt.shx,bigfont.shx|c128;1 : 1
  7
JL
 73
     1
 44
1.0
  0
MTEXT
  5
6098
330
18
100
AcDbEntity
  8
0
 48
2.0
370
    25
100
AcDbMText
 10
146.1234268906314
 20
3.636969934829039
 30
0.0
 40
4.5
 41
0.0
 71
     5
 72
     1
  1
\Ftxt.shx,bigfont.shx|c128;N L 4 0 0 1 3
 73
     1
 44
1.0
  0
MTEXT
  5
609C
330
18
100
AcDbEntity
  8
0
 48
2.0
100
AcDbMText
 10
178.1300746997774
 20
22.17550270047843
 30
0.0
 40
4.5
 41
0.0
 71
     5
 72
     1
  1
\P\Ftxt.shx,bigfont.shx|c128;    MF80X2.0P
 73
     1
 44
1.0
  0
MTEXT
  5
635A
330
18
100
AcDbEntity
  8
0
100
AcDbMText
 10
16.02348109109539
 20
28.64592585511957
 30
0.0
 40
4.5
 41
0.0
 71
     1
 72
     5
  1
\Ftxt.shx,bigfont.shx|c128;05.03.03
  7
JL
 73
     1
 44
1.0
  0
INSERT
  5
63A3
330
18
100
AcDbEntity
  8
0
100
AcDbBlockReference
  2
A$C255C26A2
 10
101.2818182582431
 20
95.75475557241832
 30
0.0
  0
MTEXT
  5
63A4
330
18
100
AcDbEntity
  8
0
 62
     7
 48
2.0
100
AcDbMText
 10
105.3756210070993
 20
100.6503065394369
 30
0.0
 40
3.0
 41
0.0
 71
     5
 72
     1
  1
G
 73
     1
 44
1.0
  0
LEADER
  5
63CA
330
18
100
AcDbEntity
  8
DIM
 62
     6
100
AcDbLeader
  3
A
 76
     2
 10
126.7549933103419
 20
82.64823086119028
 30
0.0
 10
146.8402729864569
 20
121.5602214392701
 30
0.0
  0
LEADER
  5
63CB
330
18
100
AcDbEntity
  8
DIM
 62
     6
100
AcDbLeader
  3
A
 76
     2
 10
135.7277775840432
 20
75.79875485983665
 30
0.0
 10
146.9220399611849
 20
52.82964435093069
 30
0.0
  0
MTEXT
  5
63CC
330
18
100
AcDbEntity
  8
DIM
100
AcDbMText
 10
145.8587231264742
 20
127.2231323670627
 30
0.0
 40
5.0
 41
1.0
 71
     1
 72
     5
  1
\Ftxt.shx,bigfont.shx|c128;3
 73
     1
 44
1.0
  0
MTEXT
  5
63CE
330
18
100
AcDbEntity
  8
DIM
100
AcDbMText
 10
145.9819558600088
 20
51.60179567213678
 30
0.0
 40
5.0
 41
1.0
 71
     1
 72
     5
  1
\Ftxt.shx,bigfont.shx|c128;2
 73
     1
 44
1.0
  0
LINE
  5
63CF
330
18
100
AcDbEntity
  8
DIM
100
AcDbLine
 10
45.51297390752046
 20
47.52200167656844
 30
0.0
 11
46.42543225574605
 21
46.54412758084336
 31
0.0
  0
HATCH
  5
63D0
330
18
100
AcDbEntity
  8
DIM
  6
Continuous
100
AcDbHatch
 10
0.0
 20
0.0
 30
0.0
210
0.0
220
0.0
230
1.0
  2
SOLID
 70
     1
 71
     0
 91
        1
 92
        7
 72
     0
 73
     1
 93
        3
 10
45.51184979306788
 20
45.53831328158793
 10
46.43058188166793
 20
46.52312107683165
 10
45.51184979306788
 20
47.50792887207538
 97
        0
 75
     0
 76
     1
 47
0.2359147607200769
 98
        1
 10
45.79966578929867
 20
46.73459708252318
450
        0
451
        0
460
0.0
461
0.0
452
        0
462
0.0
453
        0
470

  0
LINE
  5
63D1
330
18
100
AcDbEntity
  8
DIM
100
AcDbLine
 10
51.1725250624421
 20
44.73047377668385
 30
0.0
 11
51.1725250624421
 21
48.376772566705
 31
0.0
  0
LINE
  5
63D2
330
18
100
AcDbEntity
  8
DIM
100
AcDbLine
 10
51.1725250624421
 20
48.376772566705
 30
0.0
 11
54.98116030795279
 21
48.376772566705
 31
0.0
  0
LINE
  5
63D3
330
18
100
AcDbEntity
  8
DIM
100
AcDbLine
 10
54.98116030795279
 20
44.73047377668385
 30
0.0
 11
54.98116030795279
 21
48.376772566705
 31
0.0
  0
LINE
  5
63D4
330
18
100
AcDbEntity
  8
DIM
100
AcDbLine
 10
51.1725250624421
 20
44.73047377668385
 30
0.0
 11
54.98116030795279
 21
44.73047377668385
 31
0.0
  0
LINE
  5
63D5
330
18
100
AcDbEntity
  8
DIM
100
AcDbLine
 10
51.1725250624421
 20
46.55362317169442
 30
0.0
 11
46.41173122671903
 21
46.55362317169442
 31
0.0
  0
MTEXT
  5
63D6
330
18
100
AcDbEntity
  8
DIM
100
AcDbMText
 10
52.12976278488174
 20
48.04544085093147
 30
0.0
 40
3.0
 41
2.354875985554478
 71
     1
 72
     5
  1
A
  7
ISOCP3
 73
     1
 44
1.0
  0
LINE
  5
64AF
330
18
100
AcDbEntity
  8
図框線
100
AcDbLine
 10
197.9999999999997
 20
289.9999999999999
 30
0.0
 11
197.9999999999997
 21
-0.0000000000000568
 31
0.0
  0
LINE
  5
64B0
330
18
100
AcDbEntity
  8
図框線
370
    30
100
AcDbLine
 10
-0.0000000000002274
 20
0.0
 30
0.0
 11
-0.0000000000002274
 21
290.0
 31
0.0
  0
LINE
  5
64B1
330
18
100
AcDbEntity
  8
0
 62
     7
 48
5.0
100
AcDbLine
 39
4.0
 10
49.94750515634314
 20
27.8953239783782
 30
0.0
 11
55.27930887205229
 21
29.22827490730549
 31
0.0
  0
MTEXT
  5
64B2
330
18
100
AcDbEntity
  8
0
100
AcDbMText
 10
15.97866977158742
 20
9.63134010478825
 30
0.0
 40
6.0
 41
0.0
 71
     1
 72
     5
  1
\Ftxt.shx,bigfont.shx|c128;日機株式会社
  7
LKK
 73
     1
 44
1.0
  0
LINE
  5
64B3
330
18
100
AcDbEntity
  8
図框線
100
AcDbLine
 10
0.0
 20
0.0
 30
0.0
 11
197.9999999999997
 21
0.0
 31
0.0
  0
LINE
  5
64B7
330
18
100
AcDbEntity
  8
図框線
100
AcDbLine
 10
0.0
 20
12.0
 30
0.0
 11
197.9999999999997
 21
12.00000000000005
 31
0.0
  0
LINE
  5
64B8
330
18
100
AcDbEntity
  8
図框線
100
AcDbLine
 10
0.0
 20
22.0
 30
0.0
 11
96.0
 21
22.0
 31
0.0
  0
LINE
  5
64B9
330
18
100
AcDbEntity
  8
図框線
100
AcDbLine
 10
0.0
 20
32.0
 30
0.0
 11
197.9999999999997
 21
32.0
 31
0.0
  0
LINE
  5
64BA
330
18
100
AcDbEntity
  8
図框線
100
AcDbLine
 10
12.0
 20
32.0
 30
0.0
 11
12.0
 21
12.0
 31
0.0
  0
LINE
  5
64BB
330
18
100
AcDbEntity
  8
図框線
100
AcDbLine
 10
32.0
 20
32.0
 30
0.0
 11
32.0
 21
12.0
 31
0.0
  0
MTEXT
  5
64BC
330
18
100
AcDbEntity
  8
0
100
AcDbMText
 10
2.949444248820782
 20
29.04715033351227
 30
0.0
 40
4.5
 41
0.0
 71
     1
 72
     5
  1
\Ftxt.shx,bigfont.shx|c128;日 付
  7
JL
 73
     1
 44
1.0
  0
MTEXT
  5
64BD
330
18
100
AcDbEntity
  8
0
100
AcDbMText
 10
3.095712364910014
 20
19.83833899470915
 30
0.0
 40
4.5
 41
0.0
 71
     1
 72
     5
  1
\Ftxt.shx,bigfont.shx|c128;製 図
  7
JL
 73
     1
 44
1.0
  0
LINE
  5
64C0
330
18
100
AcDbEntity
  8
0
 62
     7
370
    25
100
AcDbLine
 10
55.27930887205229
 20
23.89647119159633
 30
0.0
 11
55.27930887205229
 21
29.22827490730549
 31
0.0
  0
MTEXT
  5
64C1
330
18
100
AcDbEntity
  8
0
100
AcDbMText
 10
66.70254067332553
 20
29.42231870267847
 30
0.0
 40
4.5
 41
0.0
 71
     1
 72
     5
  1
\Ftxt.shx,bigfont.shx|c128;尺 度
  7
JL
 73
     1
 44
1.0
  0
LINE
  5
64C2
330
18
100
AcDbEntity
  8
図框線
100
AcDbLine
 10
64.0
 20
32.0
 30
0.0
 11
64.0
 21
12.0
 31
0.0
  0
LINE
  5
64C3
330
18
100
AcDbEntity
  8
0
 62
     7
370
    25
100
AcDbLine
 10
41.2833241183157
 20
23.23894871736115
 30
0.0
 11
41.2833241183157
 21
29.67466750005656
 31
0.0
  0
CIRCLE
  5
64C4
330
18
100
AcDbEntity
  8
0
 62
     7
100
AcDbCircle
 10
41.2833241183157
 20
26.5623730494508
 30
0.0
 40
2.665901857854641
  0
LINE
  5
64C6
330
18
100
AcDbEntity
  8
0
 62
     7
370
    25
100
AcDbLine
 10
49.18030281106076
 20
26.56237304945091
 30
0.0
 11
55.75797321903156
 21
26.56237304945091
 31
0.0
  0
LINE
  5
64C7
330
18
100
AcDbEntity
  8
0
 62
     7
100
AcDbLine
 10
49.94750515634314
 20
25.22942212052362
 30
0.0
 11
55.27930887205229
 21
23.89647119159633
 31
0.0
  0
LINE
  5
64C8
330
18
100
AcDbEntity
  8
図框線
100
AcDbLine
 10
44.0
 20
21.99999999999989
 30
0.0
 11
44.0
 21
12.0
 31
0.0
  0
LINE
  5
64C9
330
18
100
AcDbEntity
  8
0
 62
     7
370
    25
100
AcDbLine
 10
37.95172532843935
 20
26.5623730494508
 30
0.0
 11
44.81391594676916
 21
26.56237304945091
 31
0.0
  0
CIRCLE
  5
64CA
330
18
100
AcDbEntity
  8
0
 62
     7
100
AcDbCircle
 10
41.2833241183157
 20
26.5623730494508
 30
0.0
 40
1.33295092892732
  0
MTEXT
  5
64CB
330
18
100
AcDbEntity
  8
0
100
AcDbMText
 10
35.12086518039769
 20
19.39982343168049
 30
0.0
 40
4.5
 41
0.0
 71
     1
 72
     5
  1
\Ftxt.shx,bigfont.shx|c128;検 図
  7
JL
 73
     1
 44
1.0
  0
LINE
  5
64CC
330
18
100
AcDbEntity
  8
0
 62
     7
370
    25
100
AcDbLine
 10
49.94750515634314
 20
25.22942212052362
 30
0.0
 11
49.94750515634314
 21
27.8953239783782
 31
0.0
  0
MTEXT
  5
64CD
330
18
100
AcDbEntity
  8
0
100
AcDbMText
 10
66.99507418337498
 20
19.62882052001464
 30
0.0
 40
4.5
 41
0.0
 71
     1
 72
     5
  1
\Ftxt.shx,bigfont.shx|c128;承 認
  7
JL
 73
     1
 44
1.0
  0
LINE
  5
64CE
330
18
100
AcDbEntity
  8
図框線
100
AcDbLine
 10
135.4848583349512
 20
231.5666682905289
 30
0.0
 11
195.4848583349512
 21
231.5666682905288
 31
0.0
  0
LINE
  5
64CF
330
18
100
AcDbEntity
  8
図框線
100
AcDbLine
 10
135.4848583349512
 20
238.766668290529
 30
0.0
 11
195.4848583349512
 21
238.766668290529
 31
0.0
  0
LINE
  5
64D0
330
18
100
AcDbEntity
  8
図框線
100
AcDbLine
 10
135.4848583349512
 20
245.9666682905289
 30
0.0
 11
195.4848583349512
 21
245.9666682905288
 31
0.0
  0
LINE
  5
64D1
330
18
100
AcDbEntity
  8
図框線
100
AcDbLine
 10
135.4848583349512
 20
253.166668290529
 30
0.0
 11
195.4848583349512
 21
253.1666682905288
 31
0.0
  0
LINE
  5
64D2
330
18
100
AcDbEntity
  8
図框線
100
AcDbLine
 10
135.4848583349512
 20
224.3666682905289
 30
0.0
 11
195.4848583349512
 21
224.3666682905289
 31
0.0
  0
MTEXT
  5
64D3
330
18
100
AcDbEntity
  8
0
 62
     7
 48
2.0
100
AcDbMText
 10
165.3702583008225
 20
253.9598367011131
 30
0.0
 40
4.8
 41
0.0
 71
     5
 72
     1
  1
\P\Ftxt.shx,bigfont.shx|c128;諸　　　　元
 73
     1
 44
1.0
  0
LINE
  5
64D5
330
18
100
AcDbEntity
  8
図框線
100
AcDbLine
 10
135.4848583349512
 20
253.1666682905288
 30
0.0
 11
135.4848583349512
 21
224.3666682905289
 31
0.0
  0
MTEXT
  5
64D6
330
18
100
AcDbEntity
  8
0
100
AcDbMText
 10
139.0072941486314
 20
244.4401591234081
 30
0.0
 40
4.4
 41
163.916286842249
 71
     1
 72
     5
  1
\Ftxt.shx,bigfont.shx|c128;熱　処　理
  7
JL
 73
     1
 44
1.0
  0
LINE
  5
64D7
330
18
100
AcDbEntity
  8
図框線
100
AcDbLine
 10
159.4848583349512
 20
245.9666682905288
 30
0.0
 11
159.4848583349512
 21
224.3666682905289
 31
0.0
  0
MTEXT
  5
64D8
330
18
100
AcDbEntity
  8
0
100
AcDbMText
 10
97.65702556263818
 20
11.15332144655735
 30
0.0
 40
5.0
 41
0.0
 71
     1
 72
     5
  1
\Ftxt.shx,bigfont.shx|c128;図  面  番  号
  7
JL
 73
     1
 44
1.0
  0
MTEXT
  5
64D9
330
18
100
AcDbEntity
  8
0
 62
     7
 48
2.0
100
AcDbMText
 10
121.8260850653862
 20
22.29156825453561
 30
0.0
 40
4.5
 41
0.0
 71
     5
 72
     1
  1
\P\Ftxt.shx,bigfont.shx|c128;    精密ロックナット
 73
     1
 44
1.0
  0
MTEXT
  5
64DA
330
18
100
AcDbEntity
  8
0
370
    25
100
AcDbMText
 10
98.8002923053598
 20
29.80688815403971
 30
0.0
 40
5.0
 41
0.0
 71
     1
 72
     5
  1
\Ftxt.shx,bigfont.shx|c128;品  名
  7
JL
 73
     1
 44
1.0
  0
LINE
  5
64DB
330
18
100
AcDbEntity
  8
図框線
100
AcDbLine
 10
96.0
 20
32.0
 30
0.0
 11
96.0
 21
0.19104161092514
 31
0.0
  0
LINE
  5
64DC
330
18
100
AcDbEntity
  8
図框線
100
AcDbLine
 10
76.0
 20
32.0
 30
0.0
 11
76.0
 21
12.0
 31
0.0
  0
LINE
  5
64DE
330
18
100
AcDbEntity
  8
図框線
100
AcDbLine
 10
153.2235601908683
 20
32.0
 30
0.0
 11
153.2235601908683
 21
12.0
 31
0.0
  0
MTEXT
  5
64DF
330
18
100
AcDbEntity
  8
0
100
AcDbMText
 10
138.7270197812522
 20
237.437930676148
 30
0.0
 40
4.4
 41
163.6058628849672
 71
     1
 72
     5
  1
\Ftxt.shx,bigfont.shx|c128;表 面 処 理
  7
JL
 73
     1
 44
1.0
  0
MTEXT
  5
64E0
330
18
100
AcDbEntity
  8
0
100
AcDbMText
 10
139.0170856296872
 20
230.1494578225401
 30
0.0
 40
4.4
 41
166.1718
 71
     1
 72
     5
  1
\Ftxt.shx,bigfont.shx|c128;等     　級
  7
JL
 73
     1
 44
1.0
  0
LINE
  5
64E1
330
18
100
AcDbEntity
  8
図框線
100
AcDbLine
 10
195.4848583349512
 20
253.1666682905288
 30
0.0
 11
195.4848583349512
 21
224.366668290529
 31
0.0
  0
MTEXT
  5
64E2
330
18
100
AcDbEntity
  8
0
100
AcDbMText
 10
164.2318616443938
 20
244.2652012159984
 30
0.0
 40
4.4
 41
291.8960056857887
 71
     1
 72
     5
  1
\Ftxt.shx,bigfont.shx|c128;調質　HRC30%%d%%p２%%d
  7
JL
 73
     1
 44
1.0
  0
MTEXT
  5
64E4
330
18
100
AcDbEntity
  8
0
370
    25
100
AcDbMText
 10
157.2494735287423
 20
29.58569764093568
 30
0.0
 40
5.0
 41
0.0
 71
     1
 72
     5
  1
\Ftxt.shx,bigfont.shx|c128;型  番
  7
JL
 73
     1
 44
1.0
  0
MTEXT
  5
64E5
330
18
100
AcDbEntity
  8
0
100
AcDbMText
 10
172.787265122339
 20
11.23700203391422
 30
0.0
 40
5.0
 41
0.0
 71
     1
 72
     5
  1
\Ftxt.shx,bigfont.shx|c128;変更
  7
JL
 73
     1
 44
1.0
  0
LINE
  5
64E6
330
18
100
AcDbEntity
  8
図框線
100
AcDbLine
 10
171.0
 20
12.00907027842731
 30
0.0
 11
171.0
 21
0.0
 31
0.0
  0
MTEXT
  5
64E7
330
18
100
AcDbEntity
  8
0
100
AcDbMText
 10
164.4925006458302
 20
230.1500683939912
 30
0.0
 40
4.4
 41
290.783364796891
 71
     1
 72
     5
  1
\Ftxt.shx,bigfont.shx|c128;ＩＳＯ - ４Ｈ
  7
JL
 73
     1
 44
1.0
  0
MTEXT
  5
64E8
330
18
100
AcDbEntity
  8
0
100
AcDbMText
 10
164.6669618439605
 20
237.0850377391931
 30
0.0
 40
4.4
 41
291.4548
 71
     1
 72
     5
  1
\Ftxt.shx,bigfont.shx|c128;黒  　    染
  7
JL
 73
     1
 44
1.0
  0
MTEXT
  5
64EA
330
18
100
AcDbEntity
  8
0
100
AcDbMText
 10
60.06318600759005
 20
270.095850257545
 30
0.0
 40
5.0
 41
0.0
 71
     1
 72
     5
  1
\Ftxt.shx,bigfont.shx|c128;M8X1.25-8L
  7
JL
 73
     1
 44
1.0
  0
MTEXT
  5
64EB
330
18
100
AcDbEntity
  8
0
100
AcDbMText
 10
60.06318600759005
 20
262.095850257545
 30
0.0
 40
5.0
 41
0.0
 71
     1
 72
     5
  1
\Ftxt.shx,bigfont.shx|c128;%%c7X7L
  7
JL
 73
     1
 44
1.0
  0
LINE
  5
64EC
330
18
100
AcDbEntity
  8
図框線
100
AcDbLine
 10
-0.0000000000002274
 20
263.9999999999999
 30
0.0
 11
197.9999999999997
 21
263.9999999999999
 31
0.0
  0
LINE
  5
64ED
330
18
100
AcDbEntity
  8
図框線
100
AcDbLine
 10
-0.0000000000002274
 20
271.9999999999999
 30
0.0
 11
197.9999999999997
 21
271.9999999999999
 31
0.0
  0
LINE
  5
64EE
330
18
100
AcDbEntity
  8
図框線
 62
     9
100
AcDbLine
 10
-0.0000000000002274
 20
279.9999999999999
 30
0.0
 11
197.9999999999997
 21
279.9999999999999
 31
0.0
  0
LINE
  5
64EF
330
18
100
AcDbEntity
  8
図框線
100
AcDbLine
 10
-0.0000000000002274
 20
290.0
 30
0.0
 11
197.9999999999997
 21
290.0
 31
0.0
  0
MTEXT
  5
64F0
330
18
100
AcDbEntity
  8
0
100
AcDbMText
 10
59.41630259681733
 20
287.3155952051104
 30
0.0
 40
5.0
 41
0.0
 71
     1
 72
     5
  1
\Ftxt.shx,bigfont.shx|c128;図    番 / 規　　格
  7
JL
 73
     1
 44
1.0
  0
LINE
  5
64F1
330
18
100
AcDbEntity
  8
図框線
100
AcDbLine
 10
-0.0000000000002274
 20
263.9999999999999
 30
0.0
 11
197.9999999999997
 21
263.9999999999999
 31
0.0
  0
LINE
  5
64F2
330
18
100
AcDbEntity
  8
図框線
100
AcDbLine
 10
-0.0000000000002274
 20
255.9999999999999
 30
0.0
 11
197.9999999999997
 21
255.9999999999999
 31
0.0
  0
MTEXT
  5
64F3
330
18
100
AcDbEntity
  8
0
100
AcDbMText
 10
22.01434914141237
 20
286.7888025819827
 30
0.0
 40
5.0
 41
0.0
 71
     1
 72
     5
  1
\Ftxt.shx,bigfont.shx|c128;品　          名
  7
JL
 73
     1
 44
1.0
  0
MTEXT
  5
64F4
330
18
100
AcDbEntity
  8
0
100
AcDbMText
 10
18.8650376130422
 20
270.5298549795346
 30
0.0
 40
6.0
 41
0.0
 71
     1
 72
     5
  1
\Ftxt.shx,bigfont.shx|c128;セットスクリュ-
  7
JL
 73
     1
 44
1.0
  0
MTEXT
  5
64F5
330
18
100
AcDbEntity
  8
0
100
AcDbMText
 10
18.66941459004738
 20
278.3660650505403
 30
0.0
 40
6.0
 41
0.0
 71
     1
 72
     5
  1
\Ftxt.shx,bigfont.shx|c128;ロックナット　  
  7
JL
 73
     1
 44
1.0
  0
MTEXT
  5
64F6
330
18
100
AcDbEntity
  8
0
100
AcDbMText
 10
18.8650376130422
 20
262.5298549795346
 30
0.0
 40
6.0
 41
0.0
 71
     1
 72
     5
  1
\Ftxt.shx,bigfont.shx|c128;ロックピン 
  7
JL
 73
     1
 44
1.0
  0
LINE
  5
64F7
330
18
100
AcDbEntity
  8
図框線
100
AcDbLine
 10
14.99999999999977
 20
289.9999999999998
 30
0.0
 11
15.00000000000011
 21
255.9999999999999
 31
0.0
  0
LINE
  5
64F8
330
18
100
AcDbEntity
  8
0
100
AcDbLine
 10
14.99999999999977
 20
289.9999999999998
 30
0.0
 11
14.99999999999977
 21
263.9999999999999
 31
0.0
  0
MTEXT
  5
64F9
330
18
100
AcDbEntity
  8
0
100
AcDbMText
 10
6.215289087390488
 20
262.7436409356394
 30
0.0
 40
5.0
 41
0.0
 71
     1
 72
     5
  1
\Ftxt.shx,bigfont.shx|c128;3
  7
JL
 73
     1
 44
1.0
  0
MTEXT
  5
64FA
330
18
100
AcDbEntity
  8
0
100
AcDbMText
 10
7.101957026666809
 20
278.5798510066454
 30
0.0
 40
5.0
 41
0.0
 71
     1
 72
     5
  1
\Ftxt.shx,bigfont.shx|c128;1
  7
JL
 73
     1
 44
1.0
  0
MTEXT
  5
64FB
330
18
100
AcDbEntity
  8
0
100
AcDbMText
 10
6.215289087390488
 20
270.7436409356394
 30
0.0
 40
5.0
 41
0.0
 71
     1
 72
     5
  1
\Ftxt.shx,bigfont.shx|c128;2
  7
JL
 73
     1
 44
1.0
  0
MTEXT
  5
64FC
330
18
100
AcDbEntity
  8
0
100
AcDbMText
 10
2.209083991842362
 20
287.0885254164057
 30
0.0
 40
5.0
 41
0.0
 71
     1
 72
     5
  1
\Ftxt.shx,bigfont.shx|c128;照   号
  7
JL
 73
     1
 44
1.0
  0
LINE
  5
64FD
330
18
100
AcDbEntity
  8
図框線
 62
     9
100
AcDbLine
 10
54.99999999999977
 20
289.9999999999998
 30
0.0
 11
54.99999999999977
 21
256.0
 31
0.0
  0
MTEXT
  5
64FE
330
18
100
AcDbEntity
  8
0
100
AcDbMText
 10
146.3353765925378
 20
287.5804049742369
 30
0.0
 40
5.0
 41
0.0
 71
     1
 72
     5
  1
\Ftxt.shx,bigfont.shx|c128;備           考
  7
JL
 73
     1
 44
1.0
  0
LINE
  5
64FF
330
18
100
AcDbEntity
  8
図框線
 62
     9
100
AcDbLine
 10
94.99999999999976
 20
289.9999999999999
 30
0.0
 11
94.99999999999976
 21
255.9999999999999
 31
0.0
  0
MTEXT
  5
6500
330
18
100
AcDbEntity
  8
0
100
AcDbMText
 10
96.78387029776377
 20
262.3660650505403
 30
0.0
 40
5.0
 41
0.0
 71
     1
 72
     5
  1
\Ftxt.shx,bigfont.shx|c128;C3604
  7
JL
 73
     1
 44
1.0
  0
MTEXT
  5
6501
330
18
100
AcDbEntity
  8
0
100
AcDbMText
 10
96.78387029776377
 20
278.3660650505403
 30
0.0
 40
5.0
 41
0.0
 71
     1
 72
     5
  1
\Ftxt.shx,bigfont.shx|c128;SCM-440
  7
JL
 73
     1
 44
1.0
  0
MTEXT
  5
6502
330
18
100
AcDbEntity
  8
0
100
AcDbMText
 10
96.78387029776377
 20
270.3660650505403
 30
0.0
 40
5.0
 41
0.0
 71
     1
 72
     5
  1
\Ftxt.shx,bigfont.shx|c128;SCM435
  7
JL
 73
     1
 44
1.0
  0
MTEXT
  5
6503
330
18
100
AcDbEntity
  8
0
100
AcDbMText
 10
99.80032499445407
 20
287.5804049742369
 30
0.0
 40
5.0
 41
0.0
 71
     1
 72
     5
  1
\Ftxt.shx,bigfont.shx|c128;材　質
  7
JL
 73
     1
 44
1.0
  0
LINE
  5
6504
330
18
100
AcDbEntity
  8
図框線
 62
     9
100
AcDbLine
 10
114.9999999999997
 20
289.9999999999999
 30
0.0
 11
114.9999999999997
 21
255.9999999999999
 31
0.0
  0
LINE
  5
6505
330
18
100
AcDbEntity
  8
図框線
100
AcDbLine
 10
129.9999999999998
 20
289.9999999999999
 30
0.0
 11
129.9999999999998
 21
255.9999999999999
 31
0.0
  0
MTEXT
  5
6506
330
18
100
AcDbEntity
  8
0
100
AcDbMText
 10
121.2152890873904
 20
262.7436409356394
 30
0.0
 40
5.0
 41
0.0
 71
     1
 72
     5
  1
\Ftxt.shx,bigfont.shx|c128;3
  7
JL
 73
     1
 44
1.0
  0
MTEXT
  5
6507
330
18
100
AcDbEntity
  8
0
100
AcDbMText
 10
122.1019570266667
 20
278.5798510066454
 30
0.0
 40
5.0
 41
0.0
 71
     1
 72
     5
  1
\Ftxt.shx,bigfont.shx|c128;1
  7
JL
 73
     1
 44
1.0
  0
MTEXT
  5
6508
330
18
100
AcDbEntity
  8
0
100
AcDbMText
 10
121.2152890873904
 20
270.7436409356394
 30
0.0
 40
5.0
 41
0.0
 71
     1
 72
     5
  1
\Ftxt.shx,bigfont.shx|c128;3
  7
JL
 73
     1
 44
1.0
  0
MTEXT
  5
6509
330
18
100
AcDbEntity
  8
0
100
AcDbMText
 10
116.433740311917
 20
287.5804049742369
 30
0.0
 40
5.0
 41
0.0
 71
     1
 72
     5
  1
\Ftxt.shx,bigfont.shx|c128;数   量
  7
JL
 73
     1
 44
1.0
  0
DIMENSION
  5
6770
330
18
100
AcDbEntity
  8
0
100
AcDbDimension
  2
*D1
 10
125.5129739075199
 20
54.80353686631319
 30
0.0
 11
85.51297390752006
 21
54.80353686631319
 31
0.0
 12
-278.5154475980426
 22
0.0
 32
0.0
 70
   160
  1
M<>X2.0P
 71
     5
 42
-1.0
  3
A
100
AcDbAlignedDimension
 13
45.51297390752051
 23
72.42142293306611
 33
0.0
 14
125.5129739075199
 24
72.42142293306608
 34
0.0
100
AcDbRotatedDimension
  0
LEADER
  5
6B85
330
18
100
AcDbEntity
  8
DIM
 62
     6
100
AcDbLeader
  3
A
 73
     0
 74
     0
 75
     1
 40
3.0
 41
4.999999999999999
 76
     3
 10
45.76297390752052
 20
92.75475626639945
 30
0.0
 10
53.73580954656626
 20
100.590982880461
 30
0.0
 10
56.23580954656626
 20
100.590982880461
 30
0.0
340
6B86
  0
MTEXT
  5
6B86
102
{ACAD_REACTORS
330
6B85
102
}
330
18
100
AcDbEntity
  8
DIM
 62
     3
100
AcDbMText
 10
57.23580954656625
 20
103.0909828804611
 30
0.0
 40
3.0
 41
0.0
 71
     4
 72
     1
  1
\A1;C2
  7
TXT
 73
     1
 44
1.0
  0
DIMENSION
  5
6C92
330
18
100
AcDbEntity
  8
DIM
100
AcDbDimension
  2
*D2
 10
133.5129739075199
 20
113.945979484555
 30
0.0
 11
85.51297390752024
 21
116.445979484555
 31
0.0
 12
-278.5154475980426
 22
0.0
 32
0.0
 70
    32
  1
%%c<>%%p0.5
 71
     5
 42
-1.0
  3
A
100
AcDbAlignedDimension
 13
37.51297390752052
 23
95.75475626639946
 33
0.0
 14
133.5129739075199
 24
95.75475626639946
 34
0.0
100
AcDbRotatedDimension
  0
DIMENSION
  5
6CAA
330
18
100
AcDbEntity
  8
DIM
100
AcDbDimension
  2
*D3
 10
138.01297390752
 20
119.4534495749699
 30
0.0
 11
81.44391777960647
 21
120.2795703248552
 31
0.0
 12
-278.5154475980426
 22
0.0
 32
0.0
 70
   160
  1
%%c<>
 71
     5
 42
-1.0
  3
A
100
AcDbAlignedDimension
 13
33.01297390752063
 23
93.25475626639949
 33
0.0
 14
138.01297390752
 24
93.25475626639946
 34
0.0
100
AcDbRotatedDimension
  0
DIMENSION
  5
6F74
330
18
100
AcDbEntity
  8
0
100
AcDbDimension
  2
*D4
 10
162.161017786218
 20
55.14956671063223
 30
0.0
 11
172.6570901612305
 21
73.32929734407385
 31
0.0
 12
10.50216506545831
 22
-21.23889717521041
 32
0.0
 70
   161
  1
9%%p0.5
 71
     5
 42
-1.0
  3
A
100
AcDbAlignedDimension
 13
138.0147268822192
 23
79.7598672386114
 33
0.0
 14
133.3947268822192
 24
71.75779250764311
 34
0.0
  0
MTEXT
  5
72FF
102
{ACAD_REACTORS
330
7300
102
}
330
18
100
AcDbEntity
  8
DIM
 62
     3
100
AcDbMText
 10
111.6244320617399
 20
64.92489836988188
 30
0.0
 40
3.0
 41
0.0
 71
     6
 72
     1
  1
\A1;C2
  7
TXT
 73
     1
 44
1.0
  0
LEADER
  5
7300
330
18
100
AcDbEntity
  8
DIM
 62
     6
100
AcDbLeader
  3
A
 73
     0
 75
     1
 40
3.0
 41
4.999999999999999
 76
     3
 10
125.2629739075199
 20
72.75475626639951
 30
0.0
 10
115.12443206174
 20
62.42489836988188
 30
0.0
 10
112.6244320617399
 20
62.42489836988188
 30
0.0
340
72FF
  0
MTEXT
  5
7303
102
{ACAD_REACTORS
330
7304
102
}
330
18
100
AcDbEntity
  8
DIM
 62
     3
100
AcDbMText
 10
153.6301622492566
 20
109.7754585772489
 30
0.0
 40
3.0
 41
0.0
 71
     4
 72
     1
  1
\A1;R2
  7
TXT
 73
     1
 44
1.0
  0
LEADER
  5
7304
330
18
100
AcDbEntity
  8
DIM
 62
     6
100
AcDbLeader
  3
A
 73
     0
 74
     0
 75
     1
 40
3.0
 41
4.999999999999999
 76
     3
 10
137.4285012117441
 20
94.6712452964064
 30
0.0
 10
150.1301622492566
 20
107.2754585772489
 30
0.0
 10
152.6301622492566
 20
107.2754585772489
 30
0.0
340
7303
1001
ACAD
1000
DSTYLE
1002
{
1070
    45
1040
0.0
1002
}
  0
DIMENSION
  5
74C6
330
18
100
AcDbEntity
  8
0
100
AcDbDimension
  2
*D5
 10
26.21190485148037
 20
95.25475626639943
 30
0.0
 11
26.21190485148037
 21
108.5757120551665
 31
0.0
 12
-278.5154475980426
 22
0.0
 32
0.0
 70
   160
 71
     5
 42
-1.0
  3
A
100
AcDbAlignedDimension
 13
37.51297390752052
 23
95.75475626639946
 33
0.0
 14
35.01297390752063
 24
95.25475626639943
 34
0.0
 50
90.0
100
AcDbRotatedDimension
  0
DIMENSION
  5
750D
330
18
100
AcDbEntity
  8
DIM
100
AcDbDimension
  2
*D6
 10
126.01297390752
 20
108.1028846729264
 30
0.0
 11
85.51297390752029
 21
110.6028846729264
 31
0.0
 12
-278.5154475980426
 22
0.0
 32
0.0
 70
    32
  1
%%c<>
 71
     5
 42
-1.0
  3
A
100
AcDbAlignedDimension
 13
45.01297390752057
 23
95.75475626639944
 33
0.0
 14
126.01297390752
 24
95.75475626639946
 34
0.0
100
AcDbRotatedDimension
  0
DIMENSION
  5
7568
330
18
100
AcDbEntity
  8
DIM
100
AcDbDimension
  2
*D7
 10
152.9010534576815
 20
75.79875485983665
 30
0.0
 11
150.4010534576815
 21
85.777893296935
 31
0.0
 12
-278.5154475980426
 22
0.0
 32
0.0
 70
    32
 71
     5
 42
-1.0
  3
A
100
AcDbAlignedDimension
 13
133.5129739075199
 23
95.75703173403331
 33
0.0
 14
135.7277775840432
 24
75.79875485983665
 34
0.0
 50
90.0
100
AcDbRotatedDimension
  0
DIMENSION
  5
7575
330
18
100
AcDbEntity
  8
DIM
100
AcDbDimension
  2
*D8
 10
163.0500743840696
 20
95.75703173403331
 30
0.0
 11
160.5500743840696
 21
83.75741212083822
 31
0.0
 12
-278.5154475980426
 22
0.0
 32
0.0
 70
    32
  1
<>%%p0.2
 71
     5
 42
-1.0
  3
A
100
AcDbAlignedDimension
 13
133.3947268822192
 23
71.75779250764311
 33
0.0
 14
133.5129739075199
 24
95.75703173403331
 34
0.0
 50
90.0
100
AcDbRotatedDimension
  0
DIMENSION
  5
7AD6
330
18
100
AcDbEntity
  8
DIM
100
AcDbDimension
  2
*D9
 10
94.73070901400058
 20
95.75475626639947
 30
0.0
 11
94.73070901400058
 21
103.3405699540717
 31
0.0
 12
-215.0182110116141
 22
-19.24193341645406
 32
0.0
 70
   160
 71
     5
 42
-1.0
  3
A
100
AcDbAlignedDimension
 13
98.51297390752035
 23
93.75475626639973
 33
0.0
 14
98.51297390752035
 24
95.75475626639947
 34
0.0
 50
90.0
100
AcDbRotatedDimension
  0
MTEXT
  5
9E3E
330
18
100
AcDbEntity
  8
公差
100
AcDbMText
 10
46.34437405703363
 20
146.707657650213
 30
0.0
 40
2.0
 41
9.555074525974475
 71
     1
 72
     5
  1
+0.15\P+0
  7
TXT
 73
     1
 44
1.0
  0
MTEXT
  5
9E3F
330
18
100
AcDbEntity
  8
公差
100
AcDbMText
 10
15.81671520064697
 20
199.3489733972482
 30
0.0
 40
2.0
 41
8.84945634767439
 71
     1
 72
     5
  1
+0.15\P+0
  7
TXT
 11
0.0000000000000001
 21
1.0
 31
0.0
 73
     1
 44
1.0
  0
LEADER
  5
9E40
330
18
100
AcDbEntity
  8
DIM
 62
     6
100
AcDbLeader
  3
A
 76
     2
 10
136.8151318598751
 20
205.8257251675588
 30
0.0
 10
150.6484403175205
 20
213.8024890198336
 30
0.0
  0
MTEXT
  5
9E41
330
18
100
AcDbEntity
  8
DIM
100
AcDbMText
 10
151.124197006137
 20
217.0651947445286
 30
0.0
 40
5.0
 41
1.0
 71
     1
 72
     5
  1
\Ftxt.shx,bigfont.shx|c128;1
 73
     1
 44
1.0
  0
DIMENSION
  5
9E42
330
18
100
AcDbEntity
  8
0
100
AcDbDimension
  2
*D10
 10
36.61297390752054
 20
140.780298329156
 30
0.0
 11
41.61297390752054
 21
140.780298329156
 31
0.0
 12
-252.8560281763778
 22
-28.58976632600832
 32
0.0
 70
   160
 71
     5
 42
-1.0
  3
A
100
AcDbAlignedDimension
 13
33.13254171535243
 23
190.6750036917232
 33
0.0
 14
36.61297390752054
 24
190.6750036917232
 34
0.0
100
AcDbRotatedDimension
  0
DIMENSION
  5
9E43
330
18
100
AcDbEntity
  8
DIM
100
AcDbDimension
  2
*D11
 10
22.66407750803182
 20
198.6750036917232
 30
0.0
 11
21.78967346717604
 21
207.0637529800475
 31
0.0
 12
-515.3516985636295
 22
-13.34359689863885
 32
0.0
 70
   160
  1
<>      (3等分)
 71
     5
 42
-1.0
  3
A
100
AcDbAlignedDimension
 13
33.18721695796228
 23
190.6750036917232
 33
0.0
 14
33.18721695796228
 24
198.6750036917232
 34
0.0
 50
90.0
100
AcDbRotatedDimension
  0
LINE
  5
9E44
330
18
100
AcDbEntity
  8
DIM
 62
     6
100
AcDbLine
 10
22.66407750803182
 20
197.6750036917233
 30
0.0
 11
22.66407750803182
 21
219.5913125541177
 31
0.0
  0
LINE
  5
9E45
330
18
100
AcDbEntity
  8
DIM
 62
     6
100
AcDbLine
 10
41.61297390752054
 20
140.780298329156
 30
0.0
 11
53.41619721834968
 21
140.780298329156
 31
0.0
  0
DIMENSION
  5
9FA8
330
18
100
AcDbEntity
  8
DIM
100
AcDbDimension
  2
*D12
 10
124.1469553736324
 20
82.38390412926944
 30
0.0
 11
179.3025609250821
 21
74.95309954315681
 31
0.0
 12
-278.5154475980426
 22
0.0
 32
0.0
 70
    34
  1
30%%D
 71
     5
 42
-1.0
  3
A
100
AcDb2LineAngularDimension
 13
44.01428764937088
 23
95.75703173403326
 33
0.0
 14
133.5129739075199
 24
95.75703173403331
 34
0.0
 15
137.450931614225
 25
74.81892576853316
 35
0.0
 16
179.5731025184606
 26
67.41445391149683
 36
0.0
1001
ACAD
1000
DSTYLE
1002
{
1070
    79
1070
     2
1070
   179
1070
     1
1002
}
  0
ARC
  5
A0ED
330
18
100
AcDbEntity
  8
本体外線
100
AcDbCircle
 10
85.51297390752045
 20
194.6750036917234
 30
0.0
 40
52.5
100
AcDbArc
 50
64.36962730513241
 51
175.6303726948677
  0
CIRCLE
  5
A0EE
330
18
100
AcDbEntity
  8
本体外線
100
AcDbCircle
 10
85.51297390752045
 20
194.6750036917234
 30
0.0
 40
48.0
  0
ARC
  5
A0EF
330
18
100
AcDbEntity
  8
0
100
AcDbCircle
 10
85.51297390752045
 20
194.6750036917234
 30
0.0
 40
40.0
100
AcDbArc
 50
166.8012143894021
 51
101.2360758842453
  0
CIRCLE
  5
A0F0
330
18
100
AcDbEntity
  8
本体外線
100
AcDbCircle
 10
85.51297390752045
 20
194.6750036917234
 30
0.0
 40
39.0
  0
LINE
  5
A0F1
330
18
100
AcDbEntity
  8
本体外線
100
AcDbLine
 10
106.4988722923827
 20
239.0236459367825
 30
0.0
 11
113.4270755226582
 21
235.0236459367825
 31
0.0
  0
LINE
  5
A0F2
330
18
100
AcDbEntity
  8
中心線
  6
CENTER
 48
0.15
100
AcDbLine
 10
85.51297390752058
 20
248.9802264416069
 30
0.0
 11
85.51297390752052
 21
140.1750036917234
 31
0.0
  0
LINE
  5
A0F3
330
18
100
AcDbEntity
  8
本体外線
100
AcDbLine
 10
115.1507741531537
 20
238.0091795417375
 30
0.0
 11
113.4270755226582
 21
235.0236459367825
 31
0.0
  0
LINE
  5
A0F4
330
18
100
AcDbEntity
  8
本体外線
100
AcDbLine
 10
108.2225709228781
 20
242.0091795417375
 30
0.0
 11
106.4988722923826
 21
239.0236459367824
 31
0.0
  0
LINE
  5
A0F5
330
18
100
AcDbEntity
  8
本体内線
  6
HIDDEN
 48
0.2
100
AcDbLine
 10
69.57991078138741
 20
159.0781288370588
 30
0.0
 11
62.80337689216276
 21
147.3408278417093
 31
0.0
  0
LINE
  5
A0F6
330
18
100
AcDbEntity
  8
本体内線
  6
HIDDEN
 48
0.2
100
AcDbLine
 10
62.65170755111182
 20
163.0781288370588
 30
0.0
 11
55.87517366188729
 21
151.3408278417093
 31
0.0
  0
LINE
  5
A0F7
330
18
100
AcDbEntity
  8
本体内線
  6
HIDDEN
 48
0.2
100
AcDbLine
 10
69.03170418184664
 20
159.3286071536096
 30
0.0
 11
62.26256573965691
 21
147.6041154482693
 31
0.0
  0
LINE
  5
A0F8
330
18
100
AcDbEntity
  8
本体内線
  6
HIDDEN
 48
0.2
100
AcDbLine
 10
63.1427314361124
 20
162.7286071536095
 30
0.0
 11
56.37359299392278
 21
151.0041154482693
 31
0.0
  0
LINE
  5
A0F9
330
18
100
AcDbEntity
  8
中心線
  6
CENTER
 48
0.15
100
AcDbLine
 10
31.02346182437441
 20
194.6750036917233
 30
0.0
 11
140.0129739075204
 21
194.6750036917232
 31
0.0
  0
LINE
  5
A0FA
330
18
100
AcDbEntity
  8
本体外線
100
AcDbLine
 10
36.61297390752066
 20
190.6750036917233
 30
0.0
 11
36.61297390752054
 21
198.6750036917232
 31
0.0
  0
LINE
  5
A0FB
330
18
100
AcDbEntity
  8
本体外線
100
AcDbLine
 10
33.16557664652953
 20
198.6750036917232
 30
0.0
 11
36.61297390752054
 21
198.6750036917232
 31
0.0
  0
LINE
  5
A0FC
330
18
100
AcDbEntity
  8
本体外線
100
AcDbLine
 10
33.16557664652965
 20
190.6750036917233
 30
0.0
 11
36.61297390752066
 21
190.6750036917232
 31
0.0
  0
LINE
  5
A0FD
330
18
100
AcDbEntity
  8
中心線
  6
CENTER
 48
0.15
100
AcDbLine
 10
58.26297390752057
 20
147.4766191854714
 30
0.0
 11
67.01297390752046
 21
162.6320637516992
 31
0.0
  0
LINE
  5
A0FE
330
18
100
AcDbEntity
  8
本体外線
100
AcDbLine
 10
113.4270755226583
 20
154.3263614466643
 30
0.0
 11
106.4988722923829
 21
150.3263614466643
 31
0.0
  0
LINE
  5
A0FF
330
18
100
AcDbEntity
  8
本体外線
100
AcDbLine
 10
108.2225709228784
 20
147.3408278417092
 30
0.0
 11
106.4988722923829
 21
150.3263614466643
 31
0.0
  0
LINE
  5
A100
330
18
100
AcDbEntity
  8
本体外線
100
AcDbLine
 10
115.1507741531538
 20
151.3408278417093
 30
0.0
 11
113.4270755226584
 21
154.3263614466644
 31
0.0
  0
LINE
  5
A101
330
18
100
AcDbEntity
  8
本体内線
  6
HIDDEN
 48
0.2
100
AcDbLine
 10
124.3073033900622
 20
198.6750036917232
 30
0.0
 11
137.8603711685115
 21
198.6750036917232
 31
0.0
  0
LINE
  5
A102
330
18
100
AcDbEntity
  8
本体内線
  6
HIDDEN
 48
0.2
100
AcDbLine
 10
124.3073033900622
 20
190.6750036917232
 30
0.0
 11
137.8603711685115
 21
190.6750036917232
 31
0.0
  0
LINE
  5
A103
330
18
100
AcDbEntity
  8
本体内線
  6
HIDDEN
 48
0.2
100
AcDbLine
 10
124.3644861046024
 20
198.0750036917232
 30
0.0
 11
137.9027629889818
 21
198.0750036917232
 31
0.0
  0
LINE
  5
A104
330
18
100
AcDbEntity
  8
本体内線
  6
HIDDEN
 48
0.2
100
AcDbLine
 10
124.3644861046025
 20
191.2750036917232
 30
0.0
 11
137.9027629889818
 21
191.2750036917232
 31
0.0
  0
LINE
  5
A105
330
18
100
AcDbEntity
  8
本体内線
  6
HIDDEN
 48
0.2
370
    -3
100
AcDbLine
 10
62.65170755111217
 20
226.2718785463881
 30
0.0
 11
55.87517366188752
 21
238.0091795417376
 31
0.0
  0
LINE
  5
A106
330
18
100
AcDbEntity
  8
本体内線
  6
HIDDEN
 48
0.2
370
    -3
100
AcDbLine
 10
69.57991078138764
 20
230.2718785463881
 30
0.0
 11
62.80337689216299
 21
242.0091795417376
 31
0.0
  0
LINE
  5
A107
330
18
100
AcDbEntity
  8
本体内線
  6
HIDDEN
 48
0.2
370
    -3
100
AcDbLine
 10
63.14273143611274
 20
226.6214002298373
 30
0.0
 11
56.37359299392301
 21
238.3458919351775
 31
0.0
  0
LINE
  5
A108
330
18
100
AcDbEntity
  8
本体内線
  6
HIDDEN
 48
0.2
370
    -3
100
AcDbLine
 10
69.03170418184686
 20
230.0214002298373
 30
0.0
 11
62.26256573965724
 21
241.7458919351776
 31
0.0
  0
LINE
  5
A109
330
18
100
AcDbEntity
  8
中心線
  6
CENTER
 48
0.15
100
AcDbLine
 10
67.01297390752063
 20
226.7179436317477
 30
0.0
 11
58.2629739075208
 21
241.8733881979755
 31
0.0
  0
ARC
  5
A10A
330
18
100
AcDbEntity
  8
本体外線
100
AcDbCircle
 10
85.51297390752045
 20
194.6750036917234
 30
0.0
 40
52.5
100
AcDbArc
 50
184.3696273051326
 51
295.6303726948677
  0
ARC
  5
A10B
330
18
100
AcDbEntity
  8
本体外線
100
AcDbCircle
 10
85.51297390752045
 20
194.6750036917234
 30
0.0
 40
52.5
100
AcDbArc
 50
304.3696273051326
 51
55.63037269486751
  0
LINE
  5
A10C
102
{ACAD_REACTORS
330
A2B6
102
}
330
18
100
AcDbEntity
  8
本体外線
100
AcDbLine
 10
37.51297390752052
 20
95.75475626639946
 30
0.0
 11
133.5129739075199
 21
95.75475626639946
 31
0.0
  0
LINE
  5
A10D
330
18
100
AcDbEntity
  8
本体外線
100
AcDbLine
 10
33.01297390752063
 20
93.25475626639946
 30
0.0
 11
33.01297390752063
 21
79.75475626639945
 31
0.0
  0
LINE
  5
A10E
102
{ACAD_REACTORS
330
A2B6
102
}
330
18
100
AcDbEntity
  8
本体外線
100
AcDbLine
 10
37.63297390752007
 20
71.75475626639945
 30
0.0
 11
133.3929739075199
 21
71.75475626639945
 31
0.0
  0
LINE
  5
A110
102
{ACAD_REACTORS
330
A2B6
102
}
330
18
100
AcDbEntity
  8
本体外線
100
AcDbLine
 10
46.51297390752051
 20
91.75475626639951
 30
0.0
 11
46.51297390752051
 21
73.75475626639945
 31
0.0
  0
LINE
  5
A111
102
{ACAD_REACTORS
330
A2B6
102
}
330
18
100
AcDbEntity
  8
本体外線
100
AcDbLine
 10
37.51297390752052
 20
95.75475626639946
 30
0.0
 11
37.51297390752052
 21
95.25475626639934
 31
0.0
  0
LINE
  5
A112
330
18
100
AcDbEntity
  8
中心線
  6
CENTER
 48
0.15
100
AcDbLine
 10
85.5129739075204
 20
98.75475626639946
 30
0.0
 11
85.51297390751996
 21
68.75475626639945
 31
0.0
  0
LINE
  5
A113
102
{ACAD_REACTORS
330
A2B6
102
}
330
18
100
AcDbEntity
  8
本体外線
100
AcDbLine
 10
138.01297390752
 20
93.25475626639946
 30
0.0
 11
138.0129739075199
 21
79.75475626639945
 31
0.0
  0
LINE
  5
A114
102
{ACAD_REACTORS
330
A155
330
A2B6
102
}
330
18
100
AcDbEntity
  8
本体外線
100
AcDbLine
 10
124.5129739075199
 20
91.75475626639945
 30
0.0
 11
124.5129739075199
 21
73.75475626639945
 31
0.0
  0
LINE
  5
A115
102
{ACAD_REACTORS
330
A2B6
102
}
330
18
100
AcDbEntity
  8
本体外線
100
AcDbLine
 10
133.5129739075199
 20
95.75475626639946
 30
0.0
 11
133.5129739075199
 21
95.25475626639945
 31
0.0
  0
LINE
  5
A116
102
{ACAD_REACTORS
330
A2B6
102
}
330
18
100
AcDbEntity
  8
本体外線
100
AcDbLine
 10
46.51297390752051
 20
91.75475626639945
 30
0.0
 11
45.01297390752057
 21
93.75475626639945
 31
0.0
  0
LINE
  5
A119
102
{ACAD_REACTORS
330
A2B6
102
}
330
18
100
AcDbEntity
  8
本体外線
100
AcDbLine
 10
124.5129739075199
 20
91.75475626639945
 30
0.0
 11
126.01297390752
 21
93.75475626639945
 31
0.0
  0
LINE
  5
A11A
102
{ACAD_REACTORS
330
A2B6
102
}
330
18
100
AcDbEntity
  8
本体外線
100
AcDbLine
 10
35.01297390752063
 20
95.25475626639945
 30
0.0
 11
37.51297390752052
 21
95.25475626639945
 31
0.0
  0
LINE
  5
A11B
102
{ACAD_REACTORS
330
A2B6
102
}
330
18
100
AcDbEntity
  8
本体外線
100
AcDbLine
 10
133.51297390752
 20
95.25475626639945
 30
0.0
 11
136.01297390752
 21
95.25475626639945
 31
0.0
  0
LINE
  5
A11C
330
18
100
AcDbEntity
  8
本体外線
100
AcDbLine
 10
46.51297390752051
 20
73.75475626639945
 30
0.0
 11
124.5129739075198
 21
73.75475626639945
 31
0.0
  0
LINE
  5
A11D
330
18
100
AcDbEntity
  8
本体外線
100
AcDbLine
 10
45.01297390752057
 20
93.75475626639945
 30
0.0
 11
126.01297390752
 21
93.75475626639945
 31
0.0
  0
ARC
  5
A11E
102
{ACAD_REACTORS
330
A2B6
102
}
330
18
100
AcDbEntity
  8
本体外線
100
AcDbCircle
 10
136.01297390752
 20
93.25475626639946
 30
0.0
 40
2.0
100
AcDbArc
 50
359.9999999999996
 51
90.0
  0
ARC
  5
A11F
330
18
100
AcDbEntity
  8
本体外線
100
AcDbCircle
 10
35.01297390752063
 20
93.25475626639946
 30
0.0
 40
2.0
100
AcDbArc
 50
89.99999999999982
 51
180.0000000000004
  0
POINT
  5
A125
330
18
100
AcDbEntity
  8
本体外線
100
AcDbPoint
 10
133.5129739075199
 20
95.75475626639946
 30
0.0
  0
POINT
  5
A126
330
18
100
AcDbEntity
  8
0
100
AcDbPoint
 10
133.5129739075199
 20
71.75475626639945
 30
0.0
  0
POINT
  5
A133
330
18
100
AcDbEntity
  8
本体外線
100
AcDbPoint
 10
131.9291743339967
 20
95.75475626639933
 30
0.0
  0
POINT
  5
A134
330
18
100
AcDbEntity
  8
0
100
AcDbPoint
 10
131.8896865761351
 20
71.75475626639945
 30
0.0
  0
LINE
  5
A139
102
{ACAD_REACTORS
330
A2B6
102
}
330
18
100
AcDbEntity
  8
本体外線
 48
0.02
100
AcDbLine
 10
36.61297390752043
 20
95.25475626639945
 30
0.0
 11
36.61297390752043
 21
73.52144809011901
 31
0.0
  0
LINE
  5
A13A
102
{ACAD_REACTORS
330
A155
102
}
330
18
100
AcDbEntity
  8
中心線
  6
CENTER
 48
0.15
100
AcDbLine
 10
137.4496178723741
 20
74.81665030089937
 30
0.0
 11
123.5129739075199
 21
82.76584376961285
 31
0.0
  0
LINE
  5
A13B
330
18
100
AcDbEntity
  8
0
100
AcDbLine
 10
133.0101535844925
 20
72.69169201674618
 30
0.0
 11
137.0101535844927
 21
79.61989524702215
 31
0.0
  0
LINE
  5
A13C
330
18
100
AcDbEntity
  8
本体内線
  6
HIDDEN
 48
0.1
100
AcDbLine
 10
134.1543715850719
 20
78.82851239457091
 30
0.0
 11
132.2676202391242
 21
77.73919599709376
 31
0.0
  0
LINE
  5
A13D
330
18
100
AcDbEntity
  8
本体内線
  6
HIDDEN
 48
0.1
100
AcDbLine
 10
132.2676202391241
 20
77.73919599709353
 30
0.0
 11
132.2676202391238
 21
75.5605632021394
 31
0.0
  0
LWPOLYLINE
  5
A13E
102
{ACAD_REACTORS
330
A2B6
102
}
330
18
100
AcDbEntity
  8
本体外線
100
AcDbPolyline
 90
        2
 70
     0
 43
0.0
 10
133.3929739075199
 20
71.75475626639957
 10
138.0129739075199
 20
79.75683099736773
  0
LINE
  5
A13F
330
18
100
AcDbEntity
  8
本体内線
  6
HIDDEN
 48
0.1
100
AcDbLine
 10
136.6463495804939
 20
77.38976822809911
 30
0.0
 11
134.1543715850717
 21
78.82851239457079
 31
0.0
  0
LINE
  5
A140
330
18
100
AcDbEntity
  8
本体内線
  6
HIDDEN
 48
0.1
100
AcDbLine
 10
134.7595982345459
 20
74.12181903566772
 30
0.0
 11
132.2676202391238
 21
75.5605632021394
 31
0.0
  0
LINE
  5
A141
330
18
100
AcDbEntity
  8
0
100
AcDbLine
 10
129.5088955748386
 20
81.64134750139766
 30
0.0
 11
132.2409463824075
 21
82.37339830896649
 31
0.0
  0
LINE
  5
A142
330
18
100
AcDbEntity
  8
0
100
AcDbLine
 10
127.5088955748387
 20
78.17724588625992
 30
0.0
 11
128.2409463824075
 21
75.44519507869103
 31
0.0
  0
LINE
  5
A143
330
18
100
AcDbEntity
  8
0
100
AcDbLine
 10
132.2409463824075
 20
82.37339830896649
 30
0.0
 11
128.2409463824075
 21
75.44519507869103
 31
0.0
  0
LINE
  5
A144
330
18
100
AcDbEntity
  8
0
100
AcDbLine
 10
137.0101535844927
 20
78.01989524702105
 30
0.0
 11
130.3481260593794
 21
81.86621863199389
 31
0.0
  0
LINE
  5
A145
330
18
100
AcDbEntity
  8
0
100
AcDbLine
 10
134.3957942305475
 20
73.49169201674624
 30
0.0
 11
127.7337667054351
 21
77.3380154017185
 31
0.0
  0
LINE
  5
A146
102
{ACAD_REACTORS
330
A155
102
}
330
18
100
AcDbEntity
  8
0
100
AcDbLine
 10
130.2588955748389
 20
82.94038560707406
 30
0.0
 11
126.758895574839
 21
76.87820778058306
 31
0.0
  0
LINE
  5
A147
102
{ACAD_REACTORS
330
A155
102
}
330
18
100
AcDbEntity
  8
0
100
AcDbLine
 10
130.2588955748389
 20
82.94038560707406
 30
0.0
 11
124.5129739075199
 21
86.25779502844313
 31
0.0
  0
LINE
  5
A148
102
{ACAD_REACTORS
330
A155
102
}
330
18
100
AcDbEntity
  8
0
100
AcDbLine
 10
126.7588955748389
 20
76.87820778058306
 30
0.0
 11
124.5129739075199
 21
78.17489125978847
 31
0.0
  0
LWPOLYLINE
  5
A149
102
{ACAD_REACTORS
330
A2B6
102
}
330
18
100
AcDbEntity
  8
0
100
AcDbPolyline
 90
        3
 70
     0
 43
0.0
 10
137.0101535844927
 20
78.01989524702185
 10
137.0101535844927
 20
79.61989524702142
 10
124.5129739075199
 20
86.83514529763272
  0
LWPOLYLINE
  5
A14A
102
{ACAD_REACTORS
330
A2B6
102
}
330
18
100
AcDbEntity
  8
0
100
AcDbPolyline
 90
        3
 70
     0
 43
0.0
 10
134.3957942305475
 20
73.49169201674624
 10
133.0101535844925
 20
72.69169201674618
 10
124.5129739075199
 20
77.59754099059882
  0
LINE
  5
A151
330
18
100
AcDbEntity
  8
本体外線
100
AcDbLine
 10
46.51297390752051
 20
91.75475626639945
 30
0.0
 11
124.5129739075199
 21
91.75475626639945
 31
0.0
  0
LWPOLYLINE
  5
A152
102
{ACAD_REACTORS
330
A2B6
102
}
330
18
100
AcDbEntity
  8
本体外線
100
AcDbPolyline
 90
        2
 70
     0
 43
0.0
 10
37.63297390751996
 20
71.75475626639957
 10
33.01297390751995
 20
79.75683099736773
  0
HATCH
  5
A155
330
18
100
AcDbEntity
  8
0
 48
0.02
100
AcDbHatch
 10
0.0
 20
0.0
 30
0.0
210
0.0
220
0.0
230
1.0
  2
AR-SAND
 70
     0
 71
     1
 91
        2
 92
        7
 72
     0
 73
     1
 93
        4
 10
128.5119225994189
 20
79.91453965419683
 10
130.2588955748388
 20
82.94038560707404
 10
124.5129739075199
 20
86.25779502844311
 10
124.5129739075199
 20
82.19546301734853
 97
        4
330
A147
330
A114
330
A13A
330
A146
 92
        7
 72
     0
 73
     1
 93
        4
 10
124.5129739075199
 20
82.19546301734851
 10
124.51297390752
 20
78.17489125978844
 10
126.758895574839
 20
76.87820778058306
 10
128.5119225994189
 20
79.91453965419681
 97
        4
330
A13A
330
A114
330
A148
330
A146
 75
     0
 76
     1
 52
0.0
 41
0.05
 77
     0
 78
     4
 53
37.5
 43
-99.52848094374667
 44
-181.5355989557816
 45
-0.0800015647992023
 46
2.447066186646711
 79
     6
 49
0.0
 49
-1.9304
 49
0.0
 49
-2.159
 49
0.0
 49
-2.06375
 53
7.499999999999999
 43
-99.52848094374667
 44
-181.5355989557816
 45
2.247616415690013
 46
3.584125502841771
 79
     6
 49
0.0
 49
-1.0414
 49
0.0
 49
-1.7399
 49
0.0
 49
-0.6667500000000001
 53
327.5
 43
-101.0905809437466
 44
-181.5355989557816
 45
3.95496185120729
 46
0.0071859233927285
 79
     6
 49
0.0
 49
-0.635
 49
0.0
 49
-2.286
 49
0.0
 49
-2.9845
 53
317.5
 43
-101.0905809437466
 44
-181.5355989557816
 45
3.817782262361486
 46
1.114646616286081
 79
     6
 49
0.0
 49
-0.3175
 49
0.0
 49
-1.498599999999999
 49
0.0
 49
-1.7145
 47
0.0294908811380295
 98
        2
 10
127.9674010516046
 20
81.72196830564883
 10
126.4321290639313
 20
79.80506021664439
  0
LINE
  5
A287
102
{ACAD_REACTORS
330
A2B6
102
}
330
18
100
AcDbEntity
  8
0
100
AcDbLine
 10
45.51297390752051
 20
93.0880895997328
 30
0.0
 11
45.51297390752051
 21
72.42142293306611
 31
0.0
  0
LINE
  5
A288
102
{ACAD_REACTORS
330
A2B6
102
}
330
18
100
AcDbEntity
  8
0
100
AcDbLine
 10
125.5129739075199
 20
93.08808959973273
 30
0.0
 11
125.5129739075199
 21
86.25779502844309
 31
0.0
  0
LINE
  5
A289
102
{ACAD_REACTORS
330
A2B6
102
}
330
18
100
AcDbEntity
  8
本体外線
100
AcDbLine
 10
45.01297390752057
 20
95.75475626639946
 30
0.0
 11
45.01297390752057
 21
93.75475626639945
 31
0.0
  0
LINE
  5
A28A
102
{ACAD_REACTORS
330
A2B6
102
}
330
18
100
AcDbEntity
  8
本体外線
100
AcDbLine
 10
126.01297390752
 20
95.75475626639946
 30
0.0
 11
126.01297390752
 21
93.75475626639945
 31
0.0
  0
LINE
  5
A28B
102
{ACAD_REACTORS
330
A2B6
102
}
330
18
100
AcDbEntity
  8
本体外線
100
AcDbLine
 10
46.51297390752051
 20
73.75475626639951
 30
0.0
 11
45.01297390752057
 21
71.75475626639951
 31
0.0
  0
LINE
  5
A28C
102
{ACAD_REACTORS
330
A2B6
102
}
330
18
100
AcDbEntity
  8
本体外線
100
AcDbLine
 10
124.5129739075199
 20
73.75475626639951
 30
0.0
 11
126.01297390752
 21
71.75475626639951
 31
0.0
  0
LINE
  5
A28D
102
{ACAD_REACTORS
330
A2B6
102
}
330
18
100
AcDbEntity
  8
0
100
AcDbLine
 10
125.5129739075199
 20
77.02019072140919
 30
0.0
 11
125.5129739075199
 21
72.42142293306624
 31
0.0
  0
HATCH
  5
A2B6
330
18
100
AcDbEntity
  8
剖面線
100
AcDbHatch
 10
0.0
 20
0.0
 30
0.0
210
0.0
220
0.0
230
1.0
  2
ANSI31
 70
     0
 71
     1
 91
        6
 92
        7
 72
     0
 73
     1
 93
       10
 10
45.51297390752051
 20
93.08808959973282
 10
45.01297390752057
 20
93.75475626639945
 10
45.01297390752057
 20
95.75475626639946
 10
37.51297390752052
 20
95.75475626639946
 10
37.51297390752052
 20
95.25475626639945
 10
36.61297390752043
 20
95.25475626639945
 10
36.61297390752043
 20
73.521448090119
 10
37.63297390752003
 20
71.75475626639945
 10
45.01297390752054
 20
71.75475626639945
 10
45.51297390752051
 20
72.42142293306611
 97
       10
330
A116
330
A289
330
A10C
330
A111
330
A11A
330
A139
330
A152
330
A10E
330
A28B
330
A287
 92
        7
 72
     0
 73
     1
 93
        4
 10
46.51297390752051
 20
91.75475626639943
 10
45.51297390752052
 20
93.08808959973285
 10
45.51297390752051
 20
72.42142293306613
 10
46.51297390752051
 20
73.75475626639951
 97
        4
330
A116
330
A287
330
A28B
330
A110
 92
        7
 72
     1
 73
     1
 93
       11
 10
137.0101535844927
 20
79.6198952470214
 42
0.0
 10
137.0101535844927
 20
78.01989524702197
 42
0.0
 10
138.0129739075199
 20
79.7568309973677
 42
0.0
 10
138.01297390752
 20
93.25475626639944
 42
0.414213562373097
 10
136.01297390752
 20
95.25475626639945
 42
0.0
 10
133.5129739075199
 20
95.25475626639945
 42
0.0
 10
133.5129739075199
 20
95.75475626639946
 42
0.0
 10
126.01297390752
 20
95.75475626639946
 42
0.0
 10
126.01297390752
 20
93.75475626639945
 42
0.0
 10
125.5129739075199
 20
93.08808959973275
 42
0.0
 10
125.5129739075199
 20
86.25779502844309
 42
0.0
 97
       10
330
A11E
330
A11B
330
A115
330
A10C
330
A28A
330
A119
330
A288
330
A149
330
A13E
330
A113
 92
        7
 72
     0
 73
     1
 93
        4
 10
124.5129739075199
 20
86.83514529763272
 10
125.5129739075199
 20
86.25779502844311
 10
125.5129739075199
 20
93.08808959973275
 10
124.5129739075199
 20
91.75475626639949
 97
        4
330
A119
330
A114
330
A149
330
A288
 92
        7
 72
     0
 73
     1
 93
        6
 10
133.3929739075199
 20
71.75475626639947
 10
134.3957942305478
 20
73.49169201674643
 10
133.0101535844925
 20
72.69169201674618
 10
125.5129739075199
 20
77.0201907214092
 10
125.5129739075199
 20
72.4214229330662
 10
126.01297390752
 20
71.75475626639945
 97
        5
330
A14A
330
A28D
330
A28C
330
A10E
330
A13E
 92
        7
 72
     0
 73
     1
 93
        4
 10
125.5129739075199
 20
77.02019072140919
 10
124.5129739075199
 20
77.5975409905988
 10
124.5129739075199
 20
73.75475626639948
 10
125.5129739075199
 20
72.4214229330662
 97
        4
330
A14A
330
A114
330
A28C
330
A28D
 75
     0
 76
     1
 52
0.0
 41
0.5
 77
     0
 78
     1
 53
45.0
 43
-278.5154475980426
 44
0.0
 45
-1.122532015133643
 46
1.122532015133644
 79
     0
 47
0.0752871019278112
 98
        6
 10
43.06377282628273
 20
88.04357187482912
 10
46.09179956959701
 20
85.77634638773975
 10
129.4911162327714
 20
86.1644319834553
 10
124.9702682820877
 20
88.27247088624199
 10
127.0046492635547
 20
72.31160470812051
 10
125.0456147540312
 20
74.72079242535085
  0
MTEXT
  5
A36D
330
18
100
AcDbEntity
  8
0
100
AcDbMText
 10
49.81948278949767
 20
19.37399834316261
 30
0.0
 40
5.0
 41
0.0
 71
     1
 72
     5
  1
\Ftxt.shx,bigfont.shx|c128;小柳
  7
JL
 73
     1
 44
1.0
  0
ENDSEC
  0
SECTION
  2
OBJECTS
  0
DICTIONARY
  5
C
330
0
100
AcDbDictionary
281
     1
  3
ACAD_COLOR
350
A371
  3
ACAD_GROUP
350
D
  3
ACAD_LAYOUT
350
5CF3
  3
ACAD_MATERIAL
350
A370
  3
ACAD_MLINESTYLE
350
1B
  3
ACAD_PLOTSETTINGS
350
5CF4
  3
ACAD_PLOTSTYLENAME
350
5CF1
  3
ACAD_TABLESTYLE
350
A372
  3
ACDBVARIABLEDICTIONARY
350
45D
  0
DICTIONARY
  5
45F
330
18
100
AcDbDictionary
280
     1
281
     1
  3
ACAD_LAYOUTSELFREF
360
5D8B
  3
ACAD_SORTENTS
360
460
  0
DICTIONARY
  5
5D89
330
15
100
AcDbDictionary
280
     1
281
     1
  3
ACAD_LAYOUTSELFREF
360
5D8A
  0
DICTIONARY
  5
A371
102
{ACAD_REACTORS
330
C
102
}
330
C
100
AcDbDictionary
281
     1
  0
DICTIONARY
  5
D
102
{ACAD_REACTORS
330
C
102
}
330
C
100
AcDbDictionary
281
     1
  0
DICTIONARY
  5
5CF3
102
{ACAD_REACTORS
330
C
102
}
330
C
100
AcDbDictionary
281
     1
  3
Model
350
5CF5
  3
配置1
350
5CF6
  0
DICTIONARY
  5
A370
102
{ACAD_REACTORS
330
C
102
}
330
C
100
AcDbDictionary
281
     1
  0
DICTIONARY
  5
1B
102
{ACAD_REACTORS
330
C
102
}
330
C
100
AcDbDictionary
281
     1
  3
STANDARD
350
1C
  0
DICTIONARY
  5
5CF4
102
{ACAD_REACTORS
330
C
102
}
330
C
100
AcDbDictionary
281
     1
  0
ACDBDICTIONARYWDFLT
  5
5CF1
102
{ACAD_REACTORS
330
C
102
}
330
C
100
AcDbDictionary
281
     1
  3
Normal
350
5CF2
100
AcDbDictionaryWithDefault
340
5CF2
  0
DICTIONARY
  5
A372
102
{ACAD_REACTORS
330
C
102
}
330
C
100
AcDbDictionary
281
     1
  3
Standard
350
A373
  0
DICTIONARY
  5
45D
102
{ACAD_REACTORS
330
C
102
}
330
C
100
AcDbDictionary
281
     1
  3
CTABLESTYLE
350
A37B
  3
SORTENTS
350
45E
  0
XRECORD
  5
5D8B
102
{ACAD_REACTORS
330
45F
102
}
330
45F
100
AcDbXrecord
280
     1
340
18
  0
SORTENTSTABLE
  5
460
102
{ACAD_REACTORS
330
45F
102
}
330
45F
100
AcDbSortentsTable
330
18
331
C0
  5
CB
  0
XRECORD
  5
5D8A
102
{ACAD_REACTORS
330
5D89
102
}
330
5D89
100
AcDbXrecord
280
     1
340
15
  0
LAYOUT
  5
5CF5
102
{ACAD_REACTORS
330
5CF3
102
}
330
5CF3
100
AcDbPlotSettings
  1

  2
EPSON STYLUS COLOR 440
  4

  6

 40
0.0
 41
0.0
 42
0.0
 43
0.0
 44
0.0
 45
0.0
 46
0.0
 47
0.0
 48
0.0
 49
0.0
140
0.0
141
0.0
142
1.0
143
1.0
 70
  1712
 72
     0
 73
     0
 74
     0
  7
a.ctb
 75
     0
147
1.0
 76
     0
 77
     2
 78
   300
148
0.0
149
0.0
100
AcDbLayout
  1
Model
 70
     1
 71
     0
 10
0.0
 20
0.0
 11
12.0
 21
9.0
 12
0.0
 22
0.0
 32
0.0
 14
0.0
 24
0.0
 34
0.0
 15
0.0
 25
0.0
 35
0.0
146
0.0
 13
0.0
 23
0.0
 33
0.0
 16
1.0
 26
0.0
 36
0.0
 17
0.0
 27
1.0
 37
0.0
 76
     0
330
18
  0
LAYOUT
  5
5CF6
102
{ACAD_REACTORS
330
5CF3
102
}
330
5CF3
100
AcDbPlotSettings
  1

  2
EPSON STYLUS COLOR 440
  4

  6

 40
0.0
 41
0.0
 42
0.0
 43
0.0
 44
0.0
 45
0.0
 46
0.0
 47
0.0
 48
0.0
 49
0.0
140
0.0
141
0.0
142
1.0
143
1.0
 70
   688
 72
     0
 73
     0
 74
     5
  7
a.ctb
 75
    16
147
1.0
 76
     0
 77
     2
 78
   300
148
0.0
149
0.0
100
AcDbLayout
  1
ｰtｸm1
 70
     1
 71
     1
 10
0.0
 20
0.0
 11
420.0
 21
297.0
 12
0.0
 22
0.0
 32
0.0
 14
1.000000000000000E+20
 24
1.000000000000000E+20
 34
1.000000000000000E+20
 15
-1.000000000000000E+20
 25
-1.000000000000000E+20
 35
-1.000000000000000E+20
146
0.0
 13
0.0
 23
0.0
 33
0.0
 16
1.0
 26
0.0
 36
0.0
 17
0.0
 27
1.0
 37
0.0
 76
     0
330
15
  0
MLINESTYLE
  5
1C
102
{ACAD_REACTORS
330
1B
102
}
330
1B
100
AcDbMlineStyle
  2
STANDARD
 70
     0
  3

 62
   256
 51
90.0
 52
90.0
 71
     2
 49
0.5
 62
   256
  6
BYLAYER
 49
-0.5
 62
   256
  6
BYLAYER
  0
ACDBPLACEHOLDER
  5
5CF2
102
{ACAD_REACTORS
330
5CF1
102
}
330
5CF1
  0
TABLESTYLE
  5
A373
102
{ACAD_REACTORS
330
A372
102
}
330
A372
100
AcDbTableStyle
  3
Standard
 70
     0
 71
     8
 40
1.5
 41
1.5
280
     0
281
     0
  7
STANDARD
140
4.5
170
     2
 62
     0
 63
     7
283
     0
274
    -2
284
     1
 64
     0
275
    -2
285
     1
 65
     0
276
    -2
286
     1
 66
     0
277
    -2
287
     1
 67
     0
278
    -2
288
     1
 68
     0
279
    -2
289
     1
 69
     0
  7
STANDARD
140
6.0
170
     5
 62
     0
 63
     7
283
     0
274
    -2
284
     1
 64
     0
275
    -2
285
     1
 65
     0
276
    -2
286
     1
 66
     0
277
    -2
287
     1
 67
     0
278
    -2
288
     1
 68
     0
279
    -2
289
     1
 69
     0
  7
STANDARD
140
4.5
170
     5
 62
     0
 63
     7
283
     0
274
    -2
284
     1
 64
     0
275
    -2
285
     1
 65
     0
276
    -2
286
     1
 66
     0
277
    -2
287
     1
 67
     0
278
    -2
288
     1
 68
     0
279
    -2
289
     1
 69
     0
  0
DICTIONARYVAR
  5
A37B
102
{ACAD_REACTORS
330
45D
102
}
330
45D
100
DictionaryVariables
280
     0
  1
STANDARD
  0
DICTIONARYVAR
  5
45E
102
{ACAD_REACTORS
330
45D
102
}
330
45D
100
DictionaryVariables
280
     0
  1
127
  0
ENDSEC
  0
EOF
