  0
SECTION
  2
HEADER
  9
$ACADVER
  1
AC1018
  9
$ACADMAINTVER
 70
    76
  9
$DWGCODEPAGE
  3
ANSI_932
  9
$INSBASE
 10
0.0
 20
0.0
 30
0.0
  9
$EXTMIN
 10
-0.0000000000002274
 20
-0.0000000000000568
 30
0.0
  9
$EXTMAX
 10
197.9999999999997
 20
290.0
 30
4.0
  9
$LIMMIN
 10
0.0
 20
0.0
  9
$LIMMAX
 10
420.0
 20
297.0
  9
$ORTHOMODE
 70
     1
  9
$REGENMODE
 70
     1
  9
$FILLMODE
 70
     1
  9
$QTEXTMODE
 70
     0
  9
$MIRRTEXT
 70
     1
  9
$LTSCALE
 40
1.0
  9
$ATTMODE
 70
     1
  9
$TEXTSIZE
 40
2.5
  9
$TRACEWID
 40
1.0
  9
$TEXTSTYLE
  7
TXT
  9
$CLAYER
  8
0
  9
$CELTYPE
  6
BYLAYER
  9
$CECOLOR
 62
   256
  9
$CELTSCALE
 40
1.0
  9
$DISPSILH
 70
     0
  9
$DIMSCALE
 40
1.0
  9
$DIMASZ
 40
2.5
  9
$DIMEXO
 40
1.0
  9
$DIMDLI
 40
6.0
  9
$DIMRND
 40
0.0
  9
$DIMDLE
 40
0.0
  9
$DIMEXE
 40
1.0
  9
$DIMTP
 40
0.0
  9
$DIMTM
 40
0.0
  9
$DIMTXT
 40
3.0
  9
$DIMCEN
 40
0.0
  9
$DIMTSZ
 40
0.0
  9
$DIMTOL
 70
     0
  9
$DIMLIM
 70
     0
  9
$DIMTIH
 70
     0
  9
$DIMTOH
 70
     0
  9
$DIMSE1
 70
     0
  9
$DIMSE2
 70
     0
  9
$DIMTAD
 70
     3
  9
$DIMZIN
 70
     8
  9
$DIMBLK
  1

  9
$DIMASO
 70
     1
  9
$DIMSHO
 70
     1
  9
$DIMPOST
  1

  9
$DIMAPOST
  1

  9
$DIMALT
 70
     0
  9
$DIMALTD
 70
     2
  9
$DIMALTF
 40
25.4
  9
$DIMLFAC
 40
1.0
  9
$DIMTOFL
 70
     0
  9
$DIMTVP
 40
0.0
  9
$DIMTIX
 70
     0
  9
$DIMSOXD
 70
     0
  9
$DIMSAH
 70
     0
  9
$DIMBLK1
  1

  9
$DIMBLK2
  1

  9
$DIMSTYLE
  2
A
  9
$DIMCLRD
 70
     6
  9
$DIMCLRE
 70
     6
  9
$DIMCLRT
 70
     3
  9
$DIMTFAC
 40
1.0
  9
$DIMGAP
 40
1.0
  9
$DIMJUST
 70
     0
  9
$DIMSD1
 70
     0
  9
$DIMSD2
 70
     0
  9
$DIMTOLJ
 70
     1
  9
$DIMTZIN
 70
     0
  9
$DIMALTZ
 70
     0
  9
$DIMALTTZ
 70
     0
  9
$DIMUPT
 70
     0
  9
$DIMDEC
 70
     1
  9
$DIMTDEC
 70
     1
  9
$DIMALTU
 70
     2
  9
$DIMALTTD
 70
     2
  9
$DIMTXSTY
  7
TXT
  9
$DIMAUNIT
 70
     0
  9
$DIMADEC
 70
     0
  9
$DIMALTRND
 40
0.0
  9
$DIMAZIN
 70
     0
  9
$DIMDSEP
 70
    46
  9
$DIMATFIT
 70
     3
  9
$DIMFRAC
 70
     0
  9
$DIMLDRBLK
  1

  9
$DIMLUNIT
 70
     2
  9
$DIMLWD
 70
    -2
  9
$DIMLWE
 70
    -2
  9
$DIMTMOVE
 70
     1
  9
$LUNITS
 70
     2
  9
$LUPREC
 70
     2
  9
$SKETCHINC
 40
1.0
  9
$FILLETRAD
 40
1.5
  9
$AUNITS
 70
     0
  9
$AUPREC
 70
     2
  9
$MENU
  1
.
  9
$ELEVATION
 40
0.0
  9
$PELEVATION
 40
0.0
  9
$THICKNESS
 40
0.0
  9
$LIMCHECK
 70
     0
  9
$CHAMFERA
 40
0.0
  9
$CHAMFERB
 40
0.0
  9
$CHAMFERC
 40
1.75
  9
$CHAMFERD
 40
0.0174532925199433
  9
$SKPOLY
 70
     0
  9
$TDCREATE
 40
2451555.620234838
  9
$TDUCREATE
 40
2451555.245234838
  9
$TDUPDATE
 40
2455846.607287604
  9
$TDUUPDATE
 40
2455846.232287604
  9
$TDINDWG
 40
2.8229473264
  9
$TDUSRTIMER
 40
2.8229473264
  9
$USRTIMER
 70
     1
  9
$ANGBASE
 50
0.0
  9
$ANGDIR
 70
     0
  9
$PDMODE
 70
     0
  9
$PDSIZE
 40
0.0
  9
$PLINEWID
 40
0.0
  9
$SPLFRAME
 70
     0
  9
$SPLINETYPE
 70
     6
  9
$SPLINESEGS
 70
     8
  9
$HANDSEED
  5
A7D7
  9
$SURFTAB1
 70
     6
  9
$SURFTAB2
 70
     6
  9
$SURFTYPE
 70
     6
  9
$SURFU
 70
     6
  9
$SURFV
 70
     6
  9
$UCSBASE
  2

  9
$UCSNAME
  2

  9
$UCSORG
 10
0.0
 20
0.0
 30
0.0
  9
$UCSXDIR
 10
1.0
 20
0.0
 30
0.0
  9
$UCSYDIR
 10
0.0
 20
1.0
 30
0.0
  9
$UCSORTHOREF
  2

  9
$UCSORTHOVIEW
 70
     0
  9
$UCSORGTOP
 10
0.0
 20
0.0
 30
0.0
  9
$UCSORGBOTTOM
 10
0.0
 20
0.0
 30
0.0
  9
$UCSORGLEFT
 10
0.0
 20
0.0
 30
0.0
  9
$UCSORGRIGHT
 10
0.0
 20
0.0
 30
0.0
  9
$UCSORGFRONT
 10
0.0
 20
0.0
 30
0.0
  9
$UCSORGBACK
 10
0.0
 20
0.0
 30
0.0
  9
$PUCSBASE
  2

  9
$PUCSNAME
  2

  9
$PUCSORG
 10
0.0
 20
0.0
 30
0.0
  9
$PUCSXDIR
 10
1.0
 20
0.0
 30
0.0
  9
$PUCSYDIR
 10
0.0
 20
1.0
 30
0.0
  9
$PUCSORTHOREF
  2

  9
$PUCSORTHOVIEW
 70
     0
  9
$PUCSORGTOP
 10
0.0
 20
0.0
 30
0.0
  9
$PUCSORGBOTTOM
 10
0.0
 20
0.0
 30
0.0
  9
$PUCSORGLEFT
 10
0.0
 20
0.0
 30
0.0
  9
$PUCSORGRIGHT
 10
0.0
 20
0.0
 30
0.0
  9
$PUCSORGFRONT
 10
0.0
 20
0.0
 30
0.0
  9
$PUCSORGBACK
 10
0.0
 20
0.0
 30
0.0
  9
$USERI1
 70
     0
  9
$USERI2
 70
     0
  9
$USERI3
 70
     0
  9
$USERI4
 70
     0
  9
$USERI5
 70
     0
  9
$USERR1
 40
0.0
  9
$USERR2
 40
0.0
  9
$USERR3
 40
0.0
  9
$USERR4
 40
0.0
  9
$USERR5
 40
0.0
  9
$WORLDVIEW
 70
     1
  9
$SHADEDGE
 70
     3
  9
$SHADEDIF
 70
    70
  9
$TILEMODE
 70
     1
  9
$MAXACTVP
 70
    48
  9
$PINSBASE
 10
0.0
 20
0.0
 30
0.0
  9
$PLIMCHECK
 70
     0
  9
$PEXTMIN
 10
1.000000000000000E+20
 20
1.000000000000000E+20
 30
1.000000000000000E+20
  9
$PEXTMAX
 10
-1.000000000000000E+20
 20
-1.000000000000000E+20
 30
-1.000000000000000E+20
  9
$PLIMMIN
 10
0.0
 20
0.0
  9
$PLIMMAX
 10
420.0
 20
297.0
  9
$UNITMODE
 70
     0
  9
$VISRETAIN
 70
     1
  9
$PLINEGEN
 70
     0
  9
$PSLTSCALE
 70
     1
  9
$TREEDEPTH
 70
  3020
  9
$CMLSTYLE
  2
STANDARD
  9
$CMLJUST
 70
     0
  9
$CMLSCALE
 40
20.0
  9
$PROXYGRAPHICS
 70
     1
  9
$MEASUREMENT
 70
     1
  9
$CELWEIGHT
370
    -1
  9
$ENDCAPS
280
     0
  9
$JOINSTYLE
280
     0
  9
$LWDISPLAY
290
     0
  9
$INSUNITS
 70
     0
  9
$HYPERLINKBASE
  1

  9
$STYLESHEET
  1
LIN.ctb
  9
$XEDIT
290
     1
  9
$CEPSNTYPE
380
     0
  9
$PSTYLEMODE
290
     1
  9
$FINGERPRINTGUID
  2
{1CF51E8A-A506-11D4-A7D9-AF69F5C20846}
  9
$VERSIONGUID
  2
{1342ABFA-F8DC-4AFD-844B-CDB6040A9C8D}
  9
$EXTNAMES
290
     1
  9
$PSVPSCALE
 40
0.0
  9
$OLESTARTUP
290
     0
  9
$SORTENTS
280
   127
  9
$INDEXCTL
280
     0
  9
$HIDETEXT
280
     0
  9
$XCLIPFRAME
290
     0
  9
$HALOGAP
280
     0
  9
$OBSCOLOR
 70
   257
  9
$OBSLTYPE
280
     0
  9
$INTERSECTIONDISPLAY
280
     0
  9
$INTERSECTIONCOLOR
 70
   257
  9
$DIMASSOC
280
     1
  9
$PROJECTNAME
  1

  0
ENDSEC
  0
SECTION
  2
CLASSES
  0
CLASS
  1
DICTIONARYVAR
  2
AcDbDictionaryVar
  3
ObjectDBX Classes
 90
        0
 91
        2
280
     0
281
     0
  0
CLASS
  1
SORTENTSTABLE
  2
AcDbSortentsTable
  3
ObjectDBX Classes
 90
        0
 91
        2
280
     0
281
     0
  0
CLASS
  1
ACDBDICTIONARYWDFLT
  2
AcDbDictionaryWithDefault
  3
ObjectDBX Classes
 90
        0
 91
        1
280
     0
281
     0
  0
CLASS
  1
TABLESTYLE
  2
AcDbTableStyle
  3
ObjectDBX Classes
 90
     2047
 91
        1
280
     0
281
     0
  0
ENDSEC
  0
SECTION
  2
TABLES
  0
TABLE
  2
VPORT
  5
8
330
0
100
AcDbSymbolTable
 70
     2
  0
VPORT
  5
A7D6
330
8
100
AcDbSymbolTableRecord
100
AcDbViewportTableRecord
  2
*Active
 70
     0
 10
0.0
 20
0.0
 11
1.0
 21
1.0
 12
285.5989661799016
 22
144.9988787060012
 13
0.0
 23
0.0
 14
10.0
 24
10.0
 15
10.0
 25
10.0
 16
0.0
 26
0.0
 36
1.0
 17
0.0
 27
0.0
 37
0.0
 40
293.3366487507649
 41
2.47104247104247
 42
50.0
 43
0.0
 44
0.0
 50
0.0
 51
0.0
 71
     0
 72
   100
 73
     1
 74
     1
 75
     0
 76
     0
 77
     0
 78
     0
281
     0
 65
     1
110
0.0
120
0.0
130
0.0
111
1.0
121
0.0
131
0.0
112
0.0
122
1.0
132
0.0
 79
     0
146
0.0
  0
ENDTAB
  0
TABLE
  2
LTYPE
  5
5
330
0
100
AcDbSymbolTable
 70
     8
  0
LTYPE
  5
12
330
5
100
AcDbSymbolTableRecord
100
AcDbLinetypeTableRecord
  2
BYBLOCK
 70
     0
  3

 72
    65
 73
     0
 40
0.0
  0
LTYPE
  5
13
330
5
100
AcDbSymbolTableRecord
100
AcDbLinetypeTableRecord
  2
BYLAYER
 70
     0
  3

 72
    65
 73
     0
 40
0.0
  0
LTYPE
  5
14
330
5
100
AcDbSymbolTableRecord
100
AcDbLinetypeTableRecord
  2
CONTINUOUS
 70
     0
  3
Solid line
 72
    65
 73
     0
 40
0.0
  0
LTYPE
  5
9D
330
5
100
AcDbSymbolTableRecord
100
AcDbLinetypeTableRecord
  2
CENTERX2
 70
     0
  3
Center (2x) ________  __  ________  __  _____
 72
    65
 73
     4
 40
101.6
 49
63.5
 74
     0
 49
-12.7
 74
     0
 49
12.7
 74
     0
 49
-12.7
 74
     0
  0
LTYPE
  5
A1
330
5
100
AcDbSymbolTableRecord
100
AcDbLinetypeTableRecord
  2
DASHED
 70
     0
  3
Dashed __ __ __ __ __ __ __ __ __ __ __ __ __ _
 72
    65
 73
     2
 40
19.05
 49
12.7
 74
     0
 49
-6.349999999999999
 74
     0
  0
LTYPE
  5
A2
330
5
100
AcDbSymbolTableRecord
100
AcDbLinetypeTableRecord
  2
DASHED2
 70
     0
  3
Dashed (.5x) _ _ _ _ _ _ _ _ _ _ _ _ _ _ _ _ _
 72
    65
 73
     2
 40
9.524999999999998
 49
6.349999999999999
 74
     0
 49
-3.174999999999999
 74
     0
  0
LTYPE
  5
A5
330
5
100
AcDbSymbolTableRecord
100
AcDbLinetypeTableRecord
  2
DIVIDE2
 70
     0
  3
Divide (.5x) __..__..__..__..__..__..__..__.._
 72
    65
 73
     6
 40
15.875
 49
6.349999999999999
 74
     0
 49
-3.174999999999999
 74
     0
 49
0.0
 74
     0
 49
-3.174999999999999
 74
     0
 49
0.0
 74
     0
 49
-3.174999999999999
 74
     0
  0
LTYPE
  5
650B
330
5
100
AcDbSymbolTableRecord
100
AcDbLinetypeTableRecord
  2
CENTER
 70
     0
  3
Center ____ _ ____ _ ____ _ ____ _ ____ _ ____
 72
    65
 73
     4
 40
50.8
 49
31.75
 74
     0
 49
-6.349999999999999
 74
     0
 49
6.349999999999999
 74
     0
 49
-6.349999999999999
 74
     0
  0
LTYPE
  5
650C
330
5
100
AcDbSymbolTableRecord
100
AcDbLinetypeTableRecord
  2
HIDDEN
 70
     0
  3
Hidden __ __ __ __ __ __ __ __ __ __ __ __ __ _
 72
    65
 73
     2
 40
9.524999999999998
 49
6.349999999999999
 74
     0
 49
-3.174999999999999
 74
     0
  0
LTYPE
  5
A075
330
5
100
AcDbSymbolTableRecord
100
AcDbLinetypeTableRecord
  2
ACAD_ISO03W100
 70
     0
  3
ISO dash space __    __    __    __    __    __
 72
    65
 73
     2
 40
30.0
 49
12.0
 74
     0
 49
-18.0
 74
     0
  0
ENDTAB
  0
TABLE
  2
LAYER
  5
2
330
0
100
AcDbSymbolTable
 70
     9
  0
LAYER
  5
E
330
2
100
AcDbSymbolTableRecord
100
AcDbLayerTableRecord
  2
0
 70
     0
 62
     7
  6
CONTINUOUS
370
    -3
390
5CF2
  0
LAYER
  5
B9
330
2
100
AcDbSymbolTableRecord
100
AcDbLayerTableRecord
  2
DIM
 70
     0
 62
     3
  6
CONTINUOUS
370
    -3
390
5CF2
  0
LAYER
  5
F2
330
2
100
AcDbSymbolTableRecord
100
AcDbLayerTableRecord
  2
DEFPOINTS
 70
     0
 62
     4
  6
CONTINUOUS
290
     0
370
    -3
390
5CF2
  0
LAYER
  5
5F8B
330
2
100
AcDbSymbolTableRecord
100
AcDbLayerTableRecord
  2
公差
 70
     0
 62
     6
  6
CONTINUOUS
370
    -3
390
5CF2
  0
LAYER
  5
644E
330
2
100
AcDbSymbolTableRecord
100
AcDbLayerTableRecord
  2
図框線
 70
     0
 62
     9
  6
CONTINUOUS
370
    -3
390
5CF2
  0
LAYER
  5
650D
330
2
100
AcDbSymbolTableRecord
100
AcDbLayerTableRecord
  2
中心線
 70
     0
 62
     1
  6
CENTER
370
    -3
390
5CF2
  0
LAYER
  5
650E
330
2
100
AcDbSymbolTableRecord
100
AcDbLayerTableRecord
  2
本体内線
 70
     0
 62
     4
  6
HIDDEN
370
    -3
390
5CF2
  0
LAYER
  5
650F
330
2
100
AcDbSymbolTableRecord
100
AcDbLayerTableRecord
  2
本体外線
 70
     0
 62
     2
  6
CONTINUOUS
370
    -3
390
5CF2
  0
LAYER
  5
6510
330
2
100
AcDbSymbolTableRecord
100
AcDbLayerTableRecord
  2
剖面線
 70
     0
 62
     5
  6
CONTINUOUS
370
    -3
390
5CF2
  0
ENDTAB
  0
TABLE
  2
STYLE
  5
3
330
0
100
AcDbSymbolTable
 70
     5
  0
STYLE
  5
F
330
3
100
AcDbSymbolTableRecord
100
AcDbTextStyleTableRecord
  2
STANDARD
 70
     0
 40
0.0
 41
1.0
 50
0.0
 71
     0
 42
2.5
  3
txt
  4

  0
STYLE
  5
BE
330
3
100
AcDbSymbolTableRecord
100
AcDbTextStyleTableRecord
  2
ISOCP3
 70
     0
 40
0.0
 41
1.0
 50
0.0
 71
     0
 42
2.5
  3
isocp3.shx
  4

  0
STYLE
  5
2A37
330
3
100
AcDbSymbolTableRecord
100
AcDbTextStyleTableRecord
  2
TXT
 70
     0
 40
0.0
 41
1.0
 50
0.0
 71
     0
 42
2.5
  3
txt.shx
  4
bigfont.shx
  0
STYLE
  5
5DCB
330
3
100
AcDbSymbolTableRecord
100
AcDbTextStyleTableRecord
  2
LKK
 70
     0
 40
50.0
 41
1.5
 50
0.0
 71
     0
 42
50.0
  3
MS PGothic.ttf
  4

1001
ACAD
1000
MS PGothic
1071
    32818
  0
STYLE
  5
5DCC
330
3
100
AcDbSymbolTableRecord
100
AcDbTextStyleTableRecord
  2
JL
 70
     0
 40
10.0
 41
0.5
 50
0.0
 71
     0
 42
5.0
  3
MS Mincho.ttf
  4

1001
ACAD
1000
MS Mincho
1071
    32785
  0
ENDTAB
  0
TABLE
  2
VIEW
  5
6
330
0
100
AcDbSymbolTable
 70
     0
  0
ENDTAB
  0
TABLE
  2
UCS
  5
7
330
0
100
AcDbSymbolTable
 70
     0
  0
ENDTAB
  0
TABLE
  2
APPID
  5
9
330
0
100
AcDbSymbolTable
 70
     3
  0
APPID
  5
10
330
9
100
AcDbSymbolTableRecord
100
AcDbRegAppTableRecord
  2
ACAD
 70
     0
  0
APPID
  5
A78F
330
9
100
AcDbSymbolTableRecord
100
AcDbRegAppTableRecord
  2
ACAD_PSEXT
 70
     0
  0
APPID
  5
A7C4
330
9
100
AcDbSymbolTableRecord
100
AcDbRegAppTableRecord
  2
ACAD_EXEMPT_FROM_CAD_STANDARDS
 70
     0
  0
ENDTAB
  0
TABLE
  2
DIMSTYLE
  5
A
330
0
100
AcDbSymbolTable
 70
     3
100
AcDbDimStyleTable
 71
     1
340
1A4
  0
DIMSTYLE
105
1D
330
A
100
AcDbSymbolTableRecord
100
AcDbDimStyleTableRecord
  2
STANDARD
 70
     0
 41
3.0
 42
0.06
 77
     3
140
4.0
144
0.3333333333333333
172
     1
340
F
  0
DIMSTYLE
105
1A4
102
{ACAD_REACTORS
330
6770
330
6C92
330
6CAA
330
6F74
330
74C6
330
750D
330
7568
330
7575
330
7AD6
330
9E42
330
9E43
330
9FA8
102
}
330
A
100
AcDbSymbolTableRecord
100
AcDbDimStyleTableRecord
  2
A
 70
     0
 41
2.5
 42
1.0
 43
6.0
 44
1.0
 73
     0
 74
     0
 77
     3
 78
     8
140
3.0
141
0.0
147
1.0
176
     6
177
     6
178
     3
271
     1
272
     1
279
     1
340
2A37
  0
DIMSTYLE
105
6006
330
A
100
AcDbSymbolTableRecord
100
AcDbDimStyleTableRecord
  2
ISO-25
 70
     0
 40
0.0
 41
2.0
 42
0.3
 43
1.0
 44
0.3
 73
     0
 74
     0
 77
     1
 78
     8
140
3.0
147
1.0
172
     1
176
     6
177
     6
178
     3
271
     1
272
     2
284
     8
288
     1
289
     2
340
F
  0
ENDTAB
  0
TABLE
  2
BLOCK_RECORD
  5
1
330
0
100
AcDbSymbolTable
 70
    13
  0
BLOCK_RECORD
  5
18
102
{ACAD_XDICTIONARY
360
45F
102
}
330
1
100
AcDbSymbolTableRecord
100
AcDbBlockTableRecord
  2
*MODEL_SPACE
340
5CF5
  0
BLOCK_RECORD
  5
15
102
{ACAD_XDICTIONARY
360
5D89
102
}
330
1
100
AcDbSymbolTableRecord
100
AcDbBlockTableRecord
  2
*PAPER_SPACE
340
5CF6
  0
BLOCK_RECORD
  5
639D
330
1
100
AcDbSymbolTableRecord
100
AcDbBlockTableRecord
  2
A$C255C26A2
340
0
102
{BLKREFS
331
63A3
102
}
  0
BLOCK_RECORD
  5
67BC
330
1
100
AcDbSymbolTableRecord
100
AcDbBlockTableRecord
  2
*D1
340
0
  0
BLOCK_RECORD
  5
6C86
330
1
100
AcDbSymbolTableRecord
100
AcDbBlockTableRecord
  2
*D2
340
0
  0
BLOCK_RECORD
  5
6C9E
330
1
100
AcDbSymbolTableRecord
100
AcDbBlockTableRecord
  2
*D3
340
0
  0
BLOCK_RECORD
  5
6FE3
330
1
100
AcDbSymbolTableRecord
100
AcDbBlockTableRecord
  2
*D4
340
0
  0
BLOCK_RECORD
  5
74B6
330
1
100
AcDbSymbolTableRecord
100
AcDbBlockTableRecord
  2
*D5
340
0
  0
BLOCK_RECORD
  5
7501
330
1
100
AcDbSymbolTableRecord
100
AcDbBlockTableRecord
  2
*D6
340
0
  0
BLOCK_RECORD
  5
755C
330
1
100
AcDbSymbolTableRecord
100
AcDbBlockTableRecord
  2
*D7
340
0
  0
BLOCK_RECORD
  5
7569
330
1
100
AcDbSymbolTableRecord
100
AcDbBlockTableRecord
  2
*D8
340
0
  0
BLOCK_RECORD
  5
7AC6
330
1
100
AcDbSymbolTableRecord
100
AcDbBlockTableRecord
  2
*D9
340
0
  0
BLOCK_RECORD
  5
9E46
330
1
100
AcDbSymbolTableRecord
100
AcDbBlockTableRecord
  2
*D10
340
0
  0
BLOCK_RECORD
  5
9E54
330
1
100
AcDbSymbolTableRecord
100
AcDbBlockTableRecord
  2
*D11
340
0
  0
BLOCK_RECORD
  5
9F9A
330
1
100
AcDbSymbolTableRecord
100
AcDbBlockTableRecord
  2
*D12
340
0
  0
ENDTAB
  0
ENDSEC
  0
SECTION
  2
BLOCKS
  0
BLOCK
  5
19
330
18
100
AcDbEntity
  8
0
100
AcDbBlockBegin
  2
*MODEL_SPACE
 70
     0
 10
0.0
 20
0.0
 30
0.0
  3
*MODEL_SPACE
  1

  0
ENDBLK
  5
1A
330
18
100
AcDbEntity
  8
0
100
AcDbBlockEnd
  0
BLOCK
  5
16
330
15
100
AcDbEntity
 67
     1
  8
0
100
AcDbBlockBegin
  2
*PAPER_SPACE
 70
     0
 10
0.0
 20
0.0
 30
0.0
  3
*PAPER_SPACE
  1

  0
ENDBLK
  5
17
330
15
100
AcDbEntity
 67
     1
  8
0
100
AcDbBlockEnd
  0
BLOCK
  5
63A1
330
639D
100
AcDbEntity
  8
0
100
AcDbBlockBegin
  2
A$C255C26A2
 70
     0
 10
0.0
 20
0.0
 30
0.0
  3
A$C255C26A2
  1

  0
LWPOLYLINE
  5
639E
330
639D
100
AcDbEntity
  8
0
100
AcDbPolyline
 90
        3
 70
     1
 43
0.0
 10
7.014806023851633
 20
0.0000006939811783
 10
5.611844869720698
 20
2.430000693981241
 10
8.417767177982568
 20
2.430000693981241
  0
LWPOLYLINE
  5
639F
330
639D
100
AcDbEntity
  8
0
100
AcDbPolyline
 90
        3
 70
     1
 43
0.0
 10
4.20888371558999
 20
0.0000006939811783
 10
2.805922561459283
 20
2.430000693981241
 10
5.611844869720698
 20
2.430000693981241
  0
LWPOLYLINE
  5
63A0
330
639D
100
AcDbEntity
  8
0
100
AcDbPolyline
 90
        3
 70
     1
 43
0.0
 10
1.402961407328348
 20
0.0000006939811783
 10
0.0000002531974133
 20
2.430000693981241
 10
2.805922561459283
 20
2.430000693981241
  0
ENDBLK
  5
63A2
330
639D
100
AcDbEntity
  8
0
100
AcDbBlockEnd
  0
BLOCK
  5
A6C8
330
67BC
100
AcDbEntity
  8
0
100
AcDbBlockBegin
  2
*D1
 70
     1
 10
0.0
 20
0.0
 30
0.0
  3
*D1
  1

  0
LINE
  5
A6C9
330
67BC
100
AcDbEntity
  8
0
  6
ByBlock
 62
     6
100
AcDbLine
 10
305.3177187596827
 20
65.65487791448602
 30
0.0
 11
305.3177187596827
 21
48.03699184773309
 31
0.0
  0
LINE
  5
A6CA
330
67BC
100
AcDbEntity
  8
0
  6
ByBlock
 62
     6
100
AcDbLine
 10
390.3177187596828
 20
65.65487791448612
 30
0.0
 11
390.3177187596828
 21
48.03699184773309
 31
0.0
  0
LINE
  5
A6CB
330
67BC
100
AcDbEntity
  8
0
  6
ByBlock
 62
     6
100
AcDbLine
 10
307.8177187596827
 20
49.03699184773309
 30
0.0
 11
387.8177187596827
 21
49.03699184773309
 31
0.0
  0
MTEXT
  5
A6CC
330
67BC
100
AcDbEntity
  8
0
  6
ByBlock
 62
     3
100
AcDbMText
 10
347.8177187596827
 20
51.53699184773309
 30
0.0
 40
3.0
 41
0.0
 71
     5
 72
     1
  1
\A1;M85X2.0P
  7
TXT
 73
     1
 44
1.0
  0
SOLID
  5
A6CD
330
67BC
100
AcDbEntity
  8
0
  6
ByBlock
 62
     6
100
AcDbTrace
 10
307.8177187596827
 20
49.45365851439976
 30
0.0
 11
307.8177187596827
 21
48.62032518106643
 31
0.0
 12
305.3177187596827
 22
49.03699184773309
 32
0.0
 13
305.3177187596827
 23
49.03699184773309
 33
0.0
  0
SOLID
  5
A6CE
330
67BC
100
AcDbEntity
  8
0
  6
ByBlock
 62
     6
100
AcDbTrace
 10
387.8177187596827
 20
49.45365851439976
 30
0.0
 11
387.8177187596827
 21
48.62032518106643
 31
0.0
 12
390.3177187596828
 22
49.03699184773309
 32
0.0
 13
390.3177187596828
 23
49.03699184773309
 33
0.0
  0
POINT
  5
A6CF
330
67BC
100
AcDbEntity
  8
DEFPOINTS
  6
ByBlock
 62
     0
100
AcDbPoint
 10
305.3177187596827
 20
66.65487791448602
 30
0.0
  0
POINT
  5
A6D0
330
67BC
100
AcDbEntity
  8
DEFPOINTS
  6
ByBlock
 62
     0
100
AcDbPoint
 10
390.3177187596828
 20
66.65487791448612
 30
0.0
  0
POINT
  5
A6D1
330
67BC
100
AcDbEntity
  8
DEFPOINTS
  6
ByBlock
 62
     0
100
AcDbPoint
 10
390.3177187596828
 20
49.03699184773309
 30
0.0
  0
ENDBLK
  5
A6D2
330
67BC
100
AcDbEntity
  8
0
100
AcDbBlockEnd
  0
BLOCK
  5
A691
330
6C86
100
AcDbEntity
  8
0
100
AcDbBlockBegin
  2
*D2
 70
     1
 10
0.0
 20
0.0
 30
0.0
  3
*D2
  1

  0
LINE
  5
A692
330
6C86
100
AcDbEntity
  8
0
  6
ByBlock
 62
     6
100
AcDbLine
 10
295.8177187596827
 20
90.98821124781933
 30
0.0
 11
295.8177187596827
 21
109.1794344659749
 31
0.0
  0
LINE
  5
A693
330
6C86
100
AcDbEntity
  8
0
  6
ByBlock
 62
     6
100
AcDbLine
 10
399.8177187596827
 20
90.98821124781933
 30
0.0
 11
399.8177187596827
 21
109.1794344659749
 31
0.0
  0
LINE
  5
A694
330
6C86
100
AcDbEntity
  8
0
  6
ByBlock
 62
     6
100
AcDbLine
 10
298.3177187596827
 20
108.1794344659749
 30
0.0
 11
397.3177187596828
 21
108.1794344659749
 31
0.0
  0
SOLID
  5
A695
330
6C86
100
AcDbEntity
  8
0
  6
ByBlock
 62
     6
100
AcDbTrace
 10
298.3177187596827
 20
108.5961011326415
 30
0.0
 11
298.3177187596827
 21
107.7627677993082
 31
0.0
 12
295.8177187596827
 22
108.1794344659749
 32
0.0
 13
295.8177187596827
 23
108.1794344659749
 33
0.0
  0
SOLID
  5
A696
330
6C86
100
AcDbEntity
  8
0
  6
ByBlock
 62
     6
100
AcDbTrace
 10
397.3177187596828
 20
108.5961011326415
 30
0.0
 11
397.3177187596828
 21
107.7627677993082
 31
0.0
 12
399.8177187596827
 22
108.1794344659749
 32
0.0
 13
399.8177187596827
 23
108.1794344659749
 33
0.0
  0
MTEXT
  5
A697
330
6C86
100
AcDbEntity
  8
0
  6
ByBlock
 62
     3
100
AcDbMText
 10
347.8177187596827
 20
110.6794344659749
 30
0.0
 40
3.0
 41
0.0
 71
     5
 72
     1
  1
\A1;\U+2205104±0.5
  7
TXT
 73
     1
 44
1.0
  0
POINT
  5
A698
330
6C86
100
AcDbEntity
  8
DEFPOINTS
  6
ByBlock
 62
     0
100
AcDbPoint
 10
295.8177187596827
 20
89.98821124781931
 30
0.0
  0
POINT
  5
A699
330
6C86
100
AcDbEntity
  8
DEFPOINTS
  6
ByBlock
 62
     0
100
AcDbPoint
 10
399.8177187596827
 20
89.98821124781931
 30
0.0
  0
POINT
  5
A69A
330
6C86
100
AcDbEntity
  8
DEFPOINTS
  6
ByBlock
 62
     0
100
AcDbPoint
 10
399.8177187596827
 20
108.1794344659749
 30
0.0
  0
ENDBLK
  5
A69B
330
6C86
100
AcDbEntity
  8
0
100
AcDbBlockEnd
  0
BLOCK
  5
A686
330
6C9E
100
AcDbEntity
  8
0
100
AcDbBlockBegin
  2
*D3
 70
     1
 10
0.0
 20
0.0
 30
0.0
  3
*D3
  1

  0
LINE
  5
A687
330
6C9E
100
AcDbEntity
  8
0
  6
ByBlock
 62
     6
100
AcDbLine
 10
291.8177187596827
 20
88.48821124781933
 30
0.0
 11
291.8177187596827
 21
114.6869045563898
 31
0.0
  0
LINE
  5
A688
330
6C9E
100
AcDbEntity
  8
0
  6
ByBlock
 62
     6
100
AcDbLine
 10
403.8177187596827
 20
88.48821124781933
 30
0.0
 11
403.8177187596827
 21
114.6869045563898
 31
0.0
  0
LINE
  5
A689
330
6C9E
100
AcDbEntity
  8
0
  6
ByBlock
 62
     6
100
AcDbLine
 10
294.3177187596827
 20
113.6869045563898
 30
0.0
 11
401.3177187596827
 21
113.6869045563898
 31
0.0
  0
MTEXT
  5
A68A
330
6C9E
100
AcDbEntity
  8
0
  6
ByBlock
 62
     3
100
AcDbMText
 10
343.7486626317689
 20
117.013025306275
 30
0.0
 40
3.0
 41
0.0
 71
     5
 72
     1
  1
\A1;\U+2205112
  7
TXT
 73
     1
 44
1.0
  0
SOLID
  5
A68B
330
6C9E
100
AcDbEntity
  8
0
  6
ByBlock
 62
     6
100
AcDbTrace
 10
294.3177187596827
 20
114.1035712230564
 30
0.0
 11
294.3177187596827
 21
113.2702378897231
 31
0.0
 12
291.8177187596827
 22
113.6869045563898
 32
0.0
 13
291.8177187596827
 23
113.6869045563898
 33
0.0
  0
SOLID
  5
A68C
330
6C9E
100
AcDbEntity
  8
0
  6
ByBlock
 62
     6
100
AcDbTrace
 10
401.3177187596827
 20
114.1035712230564
 30
0.0
 11
401.3177187596827
 21
113.2702378897231
 31
0.0
 12
403.8177187596827
 22
113.6869045563898
 32
0.0
 13
403.8177187596827
 23
113.6869045563898
 33
0.0
  0
POINT
  5
A68D
330
6C9E
100
AcDbEntity
  8
DEFPOINTS
  6
ByBlock
 62
     0
100
AcDbPoint
 10
291.8177187596827
 20
87.48821124781931
 30
0.0
  0
POINT
  5
A68E
330
6C9E
100
AcDbEntity
  8
DEFPOINTS
  6
ByBlock
 62
     0
100
AcDbPoint
 10
403.8177187596827
 20
87.48821124781931
 30
0.0
  0
POINT
  5
A68F
330
6C9E
100
AcDbEntity
  8
DEFPOINTS
  6
ByBlock
 62
     0
100
AcDbPoint
 10
403.8177187596827
 20
113.6869045563898
 30
0.0
  0
ENDBLK
  5
A690
330
6C9E
100
AcDbEntity
  8
0
100
AcDbBlockEnd
  0
BLOCK
  5
916D
330
6FE3
100
AcDbEntity
  8
0
100
AcDbBlockBegin
  2
*D4
 70
     1
 10
0.0
 20
0.0
 30
0.0
  3
*D4
  1

  0
LINE
  5
916E
330
6FE3
100
AcDbEntity
  8
0
  6
ByBlock
 62
     6
100
AcDbLine
 10
128.3785872205454
 20
100.4987644138218
 30
0.0
 11
157.1448781245442
 21
83.89053861681096
 31
0.0
  0
LINE
  5
916F
330
6FE3
100
AcDbEntity
  8
0
  6
ByBlock
 62
     6
100
AcDbLine
 10
123.7585872205453
 20
92.49668968285352
 30
0.0
 11
152.5248781245441
 21
75.88846388584264
 31
0.0
  0
LINE
  5
9170
330
6FE3
100
AcDbEntity
  8
0
  6
ByBlock
 62
     6
100
AcDbLine
 10
155.0288527207598
 20
82.22547510734985
 30
0.0
 11
152.9088527207597
 21
78.55352739530373
 31
0.0
  0
LINE
  5
9171
330
6FE3
100
AcDbEntity
  8
0
  6
ByBlock
 62
     6
100
AcDbLine
 10
165.6799250957721
 20
100.6736736159645
 30
0.0
 11
156.2788527207598
 21
84.39053861681095
 31
0.0
  0
MTEXT
  5
9172
330
6FE3
100
AcDbEntity
  8
0
  6
ByBlock
 62
     3
100
AcDbMText
 10
159.9898615863111
 20
95.81819451928428
 30
0.0
 40
3.0
 41
0.0
 71
     5
 72
     1
  1
\A1;9±0.5
  7
TXT
 11
0.5000000000000011
 21
0.866025403784438
 31
0.0
 73
     1
 44
1.0
  0
SOLID
  5
9173
330
6FE3
100
AcDbEntity
  8
0
  6
ByBlock
 62
     6
100
AcDbTrace
 10
154.6680088025162
 20
82.43380844068319
 30
0.0
 11
155.3896966390033
 21
82.01714177401653
 31
0.0
 12
156.2788527207598
 22
84.39053861681095
 32
0.0
 13
156.2788527207598
 23
84.39053861681095
 33
0.0
  0
SOLID
  5
9174
330
6FE3
100
AcDbEntity
  8
0
  6
ByBlock
 62
     6
100
AcDbTrace
 10
152.5480088025162
 20
78.76186072863707
 30
0.0
 11
153.2696966390032
 21
78.3451940619704
 31
0.0
 12
151.6588527207597
 22
76.38846388584264
 32
0.0
 13
151.6588527207597
 23
76.38846388584264
 33
0.0
  0
POINT
  5
9175
330
6FE3
100
AcDbEntity
  8
DEFPOINTS
  6
ByBlock
 62
     0
100
AcDbPoint
 10
127.5125618167609
 20
100.9987644138218
 30
0.0
  0
POINT
  5
9176
330
6FE3
100
AcDbEntity
  8
DEFPOINTS
  6
ByBlock
 62
     0
100
AcDbPoint
 10
122.8925618167608
 20
92.99668968285351
 30
0.0
  0
POINT
  5
9177
330
6FE3
100
AcDbEntity
  8
DEFPOINTS
  6
ByBlock
 62
     0
100
AcDbPoint
 10
151.6588527207597
 20
76.38846388584264
 30
0.0
  0
ENDBLK
  5
9178
330
6FE3
100
AcDbEntity
  8
0
100
AcDbBlockEnd
  0
BLOCK
  5
A657
330
74B6
100
AcDbEntity
  8
0
100
AcDbBlockBegin
  2
*D5
 70
     1
 10
0.0
 20
0.0
 30
0.0
  3
*D5
  1

  0
LINE
  5
A658
330
74B6
100
AcDbEntity
  8
0
  6
ByBlock
 62
     6
100
AcDbLine
 10
294.8177187596828
 20
89.98821124781931
 30
0.0
 11
284.5166497036426
 21
89.98821124781931
 31
0.0
  0
LINE
  5
A659
330
74B6
100
AcDbEntity
  8
0
  6
ByBlock
 62
     6
100
AcDbLine
 10
292.8177187596828
 20
89.48821124781932
 30
0.0
 11
284.5166497036426
 21
89.48821124781932
 31
0.0
  0
LINE
  5
A65A
330
74B6
100
AcDbEntity
  8
0
  6
ByBlock
 62
     6
100
AcDbLine
 10
285.5166497036426
 20
92.48821124781931
 30
0.0
 11
285.5166497036426
 21
94.98821124781931
 31
0.0
  0
LINE
  5
A65B
330
74B6
100
AcDbEntity
  8
0
  6
ByBlock
 62
     6
100
AcDbLine
 10
285.5166497036426
 20
86.98821124781932
 30
0.0
 11
285.5166497036426
 21
84.48821124781932
 31
0.0
  0
LINE
  5
A65C
330
74B6
100
AcDbEntity
  8
0
  6
ByBlock
 62
     6
100
AcDbLine
 10
285.5166497036426
 20
106.5591670365864
 30
0.0
 11
285.5166497036426
 21
89.98821124781931
 31
0.0
  0
MTEXT
  5
A65D
330
74B6
100
AcDbEntity
  8
0
  6
ByBlock
 62
     3
100
AcDbMText
 10
283.0166497036426
 20
102.8091670365864
 30
0.0
 40
3.0
 41
0.0
 71
     5
 72
     1
  1
\A1;0.5
  7
TXT
 11
0.0000000000000001
 21
1.0
 31
0.0
 73
     1
 44
1.0
  0
LINE
  5
A65E
330
74B6
100
AcDbEntity
  8
0
  6
ByBlock
 62
     6
100
AcDbLine
 10
285.5166497036426
 20
89.98821124781931
 30
0.0
 11
285.5166497036426
 21
89.48821124781932
 31
0.0
  0
SOLID
  5
A65F
330
74B6
100
AcDbEntity
  8
0
  6
ByBlock
 62
     6
100
AcDbTrace
 10
285.0999830369759
 20
92.48821124781931
 30
0.0
 11
285.9333163703093
 21
92.48821124781931
 31
0.0
 12
285.5166497036426
 22
89.98821124781931
 32
0.0
 13
285.5166497036426
 23
89.98821124781931
 33
0.0
  0
SOLID
  5
A660
330
74B6
100
AcDbEntity
  8
0
  6
ByBlock
 62
     6
100
AcDbTrace
 10
285.0999830369759
 20
86.98821124781932
 30
0.0
 11
285.9333163703093
 21
86.98821124781932
 31
0.0
 12
285.5166497036426
 22
89.48821124781932
 32
0.0
 13
285.5166497036426
 23
89.48821124781932
 33
0.0
  0
POINT
  5
A661
330
74B6
100
AcDbEntity
  8
DEFPOINTS
  6
ByBlock
 62
     0
100
AcDbPoint
 10
295.8177187596827
 20
89.98821124781931
 30
0.0
  0
POINT
  5
A662
330
74B6
100
AcDbEntity
  8
DEFPOINTS
  6
ByBlock
 62
     0
100
AcDbPoint
 10
293.8177187596827
 20
89.48821124781932
 30
0.0
  0
POINT
  5
A663
330
74B6
100
AcDbEntity
  8
DEFPOINTS
  6
ByBlock
 62
     0
100
AcDbPoint
 10
285.5166497036426
 20
89.48821124781932
 30
0.0
  0
ENDBLK
  5
A664
330
74B6
100
AcDbEntity
  8
0
100
AcDbBlockEnd
  0
BLOCK
  5
A69C
330
7501
100
AcDbEntity
  8
0
100
AcDbBlockBegin
  2
*D6
 70
     1
 10
0.0
 20
0.0
 30
0.0
  3
*D6
  1

  0
LINE
  5
A69D
330
7501
100
AcDbEntity
  8
0
  6
ByBlock
 62
     6
100
AcDbLine
 10
304.8177187596828
 20
90.98821124781931
 30
0.0
 11
304.8177187596828
 21
103.3363396543463
 31
0.0
  0
LINE
  5
A69E
330
7501
100
AcDbEntity
  8
0
  6
ByBlock
 62
     6
100
AcDbLine
 10
390.8177187596828
 20
90.98821124781933
 30
0.0
 11
390.8177187596828
 21
103.3363396543463
 31
0.0
  0
LINE
  5
A69F
330
7501
100
AcDbEntity
  8
0
  6
ByBlock
 62
     6
100
AcDbLine
 10
307.3177187596828
 20
102.3363396543463
 30
0.0
 11
388.3177187596828
 21
102.3363396543463
 31
0.0
  0
SOLID
  5
A6A0
330
7501
100
AcDbEntity
  8
0
  6
ByBlock
 62
     6
100
AcDbTrace
 10
307.3177187596828
 20
102.7530063210129
 30
0.0
 11
307.3177187596828
 21
101.9196729876796
 31
0.0
 12
304.8177187596828
 22
102.3363396543463
 32
0.0
 13
304.8177187596828
 23
102.3363396543463
 33
0.0
  0
SOLID
  5
A6A1
330
7501
100
AcDbEntity
  8
0
  6
ByBlock
 62
     6
100
AcDbTrace
 10
388.3177187596828
 20
102.7530063210129
 30
0.0
 11
388.3177187596828
 21
101.9196729876796
 31
0.0
 12
390.8177187596828
 22
102.3363396543463
 32
0.0
 13
390.8177187596828
 23
102.3363396543463
 33
0.0
  0
MTEXT
  5
A6A2
330
7501
100
AcDbEntity
  8
0
  6
ByBlock
 62
     3
100
AcDbMText
 10
347.8177187596827
 20
104.8363396543463
 30
0.0
 40
3.0
 41
0.0
 71
     5
 72
     1
  1
\A1;\U+220586
  7
TXT
 73
     1
 44
1.0
  0
POINT
  5
A6A3
330
7501
100
AcDbEntity
  8
DEFPOINTS
  6
ByBlock
 62
     0
100
AcDbPoint
 10
304.8177187596828
 20
89.98821124781931
 30
0.0
  0
POINT
  5
A6A4
330
7501
100
AcDbEntity
  8
DEFPOINTS
  6
ByBlock
 62
     0
100
AcDbPoint
 10
390.8177187596828
 20
89.98821124781931
 30
0.0
  0
POINT
  5
A6A5
330
7501
100
AcDbEntity
  8
DEFPOINTS
  6
ByBlock
 62
     0
100
AcDbPoint
 10
390.8177187596828
 20
102.3363396543463
 30
0.0
  0
ENDBLK
  5
A6A6
330
7501
100
AcDbEntity
  8
0
100
AcDbBlockEnd
  0
BLOCK
  5
A315
330
755C
100
AcDbEntity
  8
0
100
AcDbBlockBegin
  2
*D7
 70
     1
 10
0.0
 20
0.0
 30
0.0
  3
*D7
  1

  0
LINE
  5
A316
330
755C
100
AcDbEntity
  8
0
  6
ByBlock
 62
     6
100
AcDbLine
 10
413.0284215055625
 20
95.75703173403331
 30
0.0
 11
432.416501055724
 21
95.75703173403331
 31
0.0
  0
LINE
  5
A317
330
755C
100
AcDbEntity
  8
0
  6
ByBlock
 62
     6
100
AcDbLine
 10
415.2432251820857
 20
75.79875485983665
 30
0.0
 11
432.416501055724
 21
75.79875485983665
 31
0.0
  0
LINE
  5
A318
330
755C
100
AcDbEntity
  8
0
  6
ByBlock
 62
     6
100
AcDbLine
 10
431.416501055724
 20
93.25703173403331
 30
0.0
 11
431.416501055724
 21
78.29875485983665
 31
0.0
  0
SOLID
  5
A319
330
755C
100
AcDbEntity
  8
0
  6
ByBlock
 62
     6
100
AcDbTrace
 10
430.9998343890574
 20
93.25703173403331
 30
0.0
 11
431.8331677223907
 21
93.25703173403331
 31
0.0
 12
431.416501055724
 22
95.75703173403331
 32
0.0
 13
431.416501055724
 23
95.75703173403331
 33
0.0
  0
SOLID
  5
A31A
330
755C
100
AcDbEntity
  8
0
  6
ByBlock
 62
     6
100
AcDbTrace
 10
430.9998343890574
 20
78.29875485983665
 30
0.0
 11
431.8331677223907
 21
78.29875485983665
 31
0.0
 12
431.416501055724
 22
75.79875485983665
 32
0.0
 13
431.416501055724
 23
75.79875485983665
 33
0.0
  0
MTEXT
  5
A31B
330
755C
100
AcDbEntity
  8
0
  6
ByBlock
 62
     3
100
AcDbMText
 10
428.916501055724
 20
85.777893296935
 30
0.0
 40
3.0
 41
0.0
 71
     5
 72
     1
  1
\A1;20
  7
TXT
 11
0.0000000000000001
 21
1.0
 31
0.0
 73
     1
 44
1.0
  0
POINT
  5
A31C
330
755C
100
AcDbEntity
  8
DEFPOINTS
  6
ByBlock
 62
     0
100
AcDbPoint
 10
412.0284215055624
 20
95.75703173403331
 30
0.0
  0
POINT
  5
A31D
330
755C
100
AcDbEntity
  8
DEFPOINTS
  6
ByBlock
 62
     0
100
AcDbPoint
 10
414.2432251820857
 20
75.79875485983665
 30
0.0
  0
POINT
  5
A31E
330
755C
100
AcDbEntity
  8
DEFPOINTS
  6
ByBlock
 62
     0
100
AcDbPoint
 10
431.416501055724
 20
75.79875485983665
 30
0.0
  0
ENDBLK
  5
A31F
330
755C
100
AcDbEntity
  8
0
100
AcDbBlockEnd
  0
BLOCK
  5
A320
330
7569
100
AcDbEntity
  8
0
100
AcDbBlockBegin
  2
*D8
 70
     1
 10
0.0
 20
0.0
 30
0.0
  3
*D8
  1

  0
LINE
  5
A321
330
7569
100
AcDbEntity
  8
0
  6
ByBlock
 62
     6
100
AcDbLine
 10
412.9101744802617
 20
71.75779250764311
 30
0.0
 11
442.5655219821122
 21
71.75779250764311
 31
0.0
  0
LINE
  5
A322
330
7569
100
AcDbEntity
  8
0
  6
ByBlock
 62
     6
100
AcDbLine
 10
413.0284215055625
 20
95.75703173403331
 30
0.0
 11
442.5655219821122
 21
95.75703173403331
 31
0.0
  0
LINE
  5
A323
330
7569
100
AcDbEntity
  8
0
  6
ByBlock
 62
     6
100
AcDbLine
 10
441.5655219821122
 20
74.25779250764311
 30
0.0
 11
441.5655219821122
 21
93.25703173403331
 31
0.0
  0
SOLID
  5
A324
330
7569
100
AcDbEntity
  8
0
  6
ByBlock
 62
     6
100
AcDbTrace
 10
441.1488553154454
 20
74.25779250764311
 30
0.0
 11
441.9821886487788
 21
74.25779250764311
 31
0.0
 12
441.5655219821122
 22
71.75779250764311
 32
0.0
 13
441.5655219821122
 23
71.75779250764311
 33
0.0
  0
SOLID
  5
A325
330
7569
100
AcDbEntity
  8
0
  6
ByBlock
 62
     6
100
AcDbTrace
 10
441.1488553154454
 20
93.25703173403331
 30
0.0
 11
441.9821886487788
 21
93.25703173403331
 31
0.0
 12
441.5655219821122
 22
95.75703173403331
 32
0.0
 13
441.5655219821122
 23
95.75703173403331
 33
0.0
  0
MTEXT
  5
A326
330
7569
100
AcDbEntity
  8
0
  6
ByBlock
 62
     3
100
AcDbMText
 10
439.0655219821121
 20
83.75741212083822
 30
0.0
 40
3.0
 41
0.0
 71
     5
 72
     1
  1
\A1;24±0.2
  7
TXT
 11
0.0000000000000001
 21
1.0
 31
0.0
 73
     1
 44
1.0
  0
POINT
  5
A327
330
7569
100
AcDbEntity
  8
DEFPOINTS
  6
ByBlock
 62
     0
100
AcDbPoint
 10
411.9101744802617
 20
71.75779250764311
 30
0.0
  0
POINT
  5
A328
330
7569
100
AcDbEntity
  8
DEFPOINTS
  6
ByBlock
 62
     0
100
AcDbPoint
 10
412.0284215055624
 20
95.75703173403331
 30
0.0
  0
POINT
  5
A329
330
7569
100
AcDbEntity
  8
DEFPOINTS
  6
ByBlock
 62
     0
100
AcDbPoint
 10
441.5655219821122
 20
95.75703173403331
 30
0.0
  0
ENDBLK
  5
A32A
330
7569
100
AcDbEntity
  8
0
100
AcDbBlockEnd
  0
BLOCK
  5
9065
330
7AC6
100
AcDbEntity
  8
0
100
AcDbBlockBegin
  2
*D9
 70
     1
 10
0.0
 20
0.0
 30
0.0
  3
*D9
  1

  0
LINE
  5
9066
330
7AC6
100
AcDbEntity
  8
0
  6
ByBlock
 62
     6
100
AcDbLine
 10
312.5311849191344
 20
112.9966896828538
 30
0.0
 11
308.7489200256147
 21
112.9966896828538
 31
0.0
  0
LINE
  5
9067
330
7AC6
100
AcDbEntity
  8
0
  6
ByBlock
 62
     6
100
AcDbLine
 10
312.5311849191344
 20
114.9966896828535
 30
0.0
 11
308.7489200256147
 21
114.9966896828535
 31
0.0
  0
LINE
  5
9068
330
7AC6
100
AcDbEntity
  8
0
  6
ByBlock
 62
     6
100
AcDbLine
 10
309.7489200256147
 20
110.4966896828538
 30
0.0
 11
309.7489200256147
 21
107.9966896828538
 31
0.0
  0
LINE
  5
9069
330
7AC6
100
AcDbEntity
  8
0
  6
ByBlock
 62
     6
100
AcDbLine
 10
309.7489200256147
 20
117.4966896828535
 30
0.0
 11
309.7489200256147
 21
119.9966896828535
 31
0.0
  0
LINE
  5
906A
330
7AC6
100
AcDbEntity
  8
0
  6
ByBlock
 62
     6
100
AcDbLine
 10
309.7489200256147
 20
124.5825033705258
 30
0.0
 11
309.7489200256147
 21
114.9966896828535
 31
0.0
  0
MTEXT
  5
906B
330
7AC6
100
AcDbEntity
  8
0
  6
ByBlock
 62
     3
100
AcDbMText
 10
307.2489200256147
 20
122.5825033705258
 30
0.0
 40
3.0
 41
0.0
 71
     5
 72
     1
  1
\A1;2
  7
TXT
 11
0.0000000000000001
 21
1.0
 31
0.0
 73
     1
 44
1.0
  0
LINE
  5
906C
330
7AC6
100
AcDbEntity
  8
0
  6
ByBlock
 62
     6
100
AcDbLine
 10
309.7489200256147
 20
112.9966896828538
 30
0.0
 11
309.7489200256147
 21
114.9966896828535
 31
0.0
  0
SOLID
  5
906D
330
7AC6
100
AcDbEntity
  8
0
  6
ByBlock
 62
     6
100
AcDbTrace
 10
309.332253358948
 20
110.4966896828538
 30
0.0
 11
310.1655866922814
 21
110.4966896828538
 31
0.0
 12
309.7489200256147
 22
112.9966896828538
 32
0.0
 13
309.7489200256147
 23
112.9966896828538
 33
0.0
  0
SOLID
  5
906E
330
7AC6
100
AcDbEntity
  8
0
  6
ByBlock
 62
     6
100
AcDbTrace
 10
309.332253358948
 20
117.4966896828535
 30
0.0
 11
310.1655866922814
 21
117.4966896828535
 31
0.0
 12
309.7489200256147
 22
114.9966896828535
 32
0.0
 13
309.7489200256147
 23
114.9966896828535
 33
0.0
  0
POINT
  5
906F
330
7AC6
100
AcDbEntity
  8
DEFPOINTS
  6
ByBlock
 62
     0
100
AcDbPoint
 10
313.5311849191344
 20
112.9966896828538
 30
0.0
  0
POINT
  5
9070
330
7AC6
100
AcDbEntity
  8
DEFPOINTS
  6
ByBlock
 62
     0
100
AcDbPoint
 10
313.5311849191344
 20
114.9966896828535
 30
0.0
  0
POINT
  5
9071
330
7AC6
100
AcDbEntity
  8
DEFPOINTS
  6
ByBlock
 62
     0
100
AcDbPoint
 10
309.7489200256147
 20
114.9966896828535
 30
0.0
  0
ENDBLK
  5
9072
330
7AC6
100
AcDbEntity
  8
0
100
AcDbBlockEnd
  0
BLOCK
  5
9E87
330
9E46
100
AcDbEntity
  8
0
100
AcDbBlockBegin
  2
*D10
 70
     1
 10
0.0
 20
0.0
 30
0.0
  3
*D10
  1

  0
LINE
  5
9E88
330
9E46
100
AcDbEntity
  8
0
  6
ByBlock
 62
     6
100
AcDbLine
 10
285.9885698917302
 20
218.2647700177316
 30
0.0
 11
285.9885698917302
 21
168.3700646551643
 31
0.0
  0
LINE
  5
9E89
330
9E46
100
AcDbEntity
  8
0
  6
ByBlock
 62
     6
100
AcDbLine
 10
289.4690020838983
 20
218.2647700177316
 30
0.0
 11
289.4690020838983
 21
168.3700646551643
 31
0.0
  0
LINE
  5
9E8A
330
9E46
100
AcDbEntity
  8
0
  6
ByBlock
 62
     6
100
AcDbLine
 10
283.4885698917302
 20
169.3700646551643
 30
0.0
 11
280.9885698917302
 21
169.3700646551643
 31
0.0
  0
LINE
  5
9E8B
330
9E46
100
AcDbEntity
  8
0
  6
ByBlock
 62
     6
100
AcDbLine
 10
291.9690020838983
 20
169.3700646551643
 30
0.0
 11
294.4690020838983
 21
169.3700646551643
 31
0.0
  0
MTEXT
  5
9E8C
330
9E46
100
AcDbEntity
  8
0
  6
ByBlock
 62
     3
100
AcDbMText
 10
294.4690020838983
 20
171.8700646551643
 30
0.0
 40
3.0
 41
0.0
 71
     5
 72
     1
  1
\A1;3.5
  7
TXT
 73
     1
 44
1.0
  0
LINE
  5
9E8D
330
9E46
100
AcDbEntity
  8
0
  6
ByBlock
 62
     6
100
AcDbLine
 10
285.9885698917302
 20
169.3700646551643
 30
0.0
 11
289.4690020838983
 21
169.3700646551643
 31
0.0
  0
SOLID
  5
9E8E
330
9E46
100
AcDbEntity
  8
0
  6
ByBlock
 62
     6
100
AcDbTrace
 10
283.4885698917302
 20
169.786731321831
 30
0.0
 11
283.4885698917302
 21
168.9533979884977
 31
0.0
 12
285.9885698917302
 22
169.3700646551643
 32
0.0
 13
285.9885698917302
 23
169.3700646551643
 33
0.0
  0
SOLID
  5
9E8F
330
9E46
100
AcDbEntity
  8
0
  6
ByBlock
 62
     6
100
AcDbTrace
 10
291.9690020838983
 20
169.786731321831
 30
0.0
 11
291.9690020838983
 21
168.9533979884977
 31
0.0
 12
289.4690020838983
 22
169.3700646551643
 32
0.0
 13
289.4690020838983
 23
169.3700646551643
 33
0.0
  0
POINT
  5
9E90
330
9E46
100
AcDbEntity
  8
DEFPOINTS
  6
ByBlock
 62
     0
100
AcDbPoint
 10
285.9885698917302
 20
219.2647700177316
 30
0.0
  0
POINT
  5
9E91
330
9E46
100
AcDbEntity
  8
DEFPOINTS
  6
ByBlock
 62
     0
100
AcDbPoint
 10
289.4690020838983
 20
219.2647700177316
 30
0.0
  0
POINT
  5
9E92
330
9E46
100
AcDbEntity
  8
DEFPOINTS
  6
ByBlock
 62
     0
100
AcDbPoint
 10
289.4690020838983
 20
169.3700646551643
 30
0.0
  0
ENDBLK
  5
9E93
330
9E46
100
AcDbEntity
  8
0
100
AcDbBlockEnd
  0
BLOCK
  5
9E55
330
9E54
100
AcDbEntity
  8
0
100
AcDbBlockBegin
  2
*D11
 70
     1
 10
0.0
 20
0.0
 30
0.0
  3
*D11
  1

  0
LINE
  5
9E56
330
9E54
100
AcDbEntity
  8
0
  6
ByBlock
 62
     6
100
AcDbLine
 10
547.5389155215919
 20
204.018600590362
 30
0.0
 11
537.0157760716614
 21
204.018600590362
 31
0.0
  0
LINE
  5
9E57
330
9E54
100
AcDbEntity
  8
0
  6
ByBlock
 62
     6
100
AcDbLine
 10
547.5389155215919
 20
212.0186005903621
 30
0.0
 11
537.0157760716614
 21
212.0186005903621
 31
0.0
  0
LINE
  5
9E58
330
9E54
100
AcDbEntity
  8
0
  6
ByBlock
 62
     6
100
AcDbLine
 10
538.0157760716614
 20
206.518600590362
 30
0.0
 11
538.0157760716614
 21
209.518600590362
 31
0.0
  0
MTEXT
  5
9E59
330
9E54
100
AcDbEntity
  8
0
  6
ByBlock
 62
     3
100
AcDbMText
 10
534.6413720308056
 20
220.4073498786863
 30
0.0
 40
3.0
 41
0.0
 71
     5
 72
     1
  1
\A1;8      (3等分)
  7
TXT
 11
0.0000000000000001
 21
1.0
 31
0.0
 73
     1
 44
1.0
  0
SOLID
  5
9E5A
330
9E54
100
AcDbEntity
  8
0
  6
ByBlock
 62
     6
100
AcDbTrace
 10
537.5991094049948
 20
206.518600590362
 30
0.0
 11
538.4324427383281
 21
206.518600590362
 31
0.0
 12
538.0157760716614
 22
204.018600590362
 32
0.0
 13
538.0157760716614
 23
204.018600590362
 33
0.0
  0
SOLID
  5
9E5B
330
9E54
100
AcDbEntity
  8
0
  6
ByBlock
 62
     6
100
AcDbTrace
 10
537.5991094049948
 20
209.518600590362
 30
0.0
 11
538.4324427383281
 21
209.518600590362
 31
0.0
 12
538.0157760716614
 22
212.0186005903621
 32
0.0
 13
538.0157760716614
 23
212.0186005903621
 33
0.0
  0
POINT
  5
9E5C
330
9E54
100
AcDbEntity
  8
DEFPOINTS
  6
ByBlock
 62
     0
100
AcDbPoint
 10
548.5389155215918
 20
204.018600590362
 30
0.0
  0
POINT
  5
9E5D
330
9E54
100
AcDbEntity
  8
DEFPOINTS
  6
ByBlock
 62
     0
100
AcDbPoint
 10
548.5389155215918
 20
212.0186005903621
 30
0.0
  0
POINT
  5
9E5E
330
9E54
100
AcDbEntity
  8
DEFPOINTS
  6
ByBlock
 62
     0
100
AcDbPoint
 10
538.0157760716614
 20
212.0186005903621
 30
0.0
  0
ENDBLK
  5
9E5F
330
9E54
100
AcDbEntity
  8
0
100
AcDbBlockEnd
  0
BLOCK
  5
A32B
330
9F9A
100
AcDbEntity
  8
0
100
AcDbBlockBegin
  2
*D12
 70
     1
 10
0.0
 20
0.0
 30
0.0
  3
*D12
  1

  0
LINE
  5
A32C
330
9F9A
100
AcDbEntity
  8
0
  6
ByBlock
 62
     6
100
AcDbLine
 10
416.8356701099448
 20
74.32462491357165
 30
0.0
 11
452.9278119815994
 21
53.80171752753651
 31
0.0
  0
LINE
  5
A32D
330
9F9A
100
AcDbEntity
  8
0
  6
ByBlock
 62
     6
100
AcDbLine
 10
413.0284215055625
 20
95.75703173403329
 30
0.0
 11
464.0221513956633
 21
95.75703173403322
 31
0.0
  0
ARC
  5
A32E
330
9F9A
100
AcDbEntity
  8
0
  6
ByBlock
 62
     6
100
AcDbCircle
 10
379.1440578512703
 20
95.75703173403326
 30
0.0
 40
83.87809354439298
100
AcDbArc
 50
332.0841146086654
 51
358.2922269070075
  0
SOLID
  5
A32F
330
9F9A
100
AcDbEntity
  8
0
  6
ByBlock
 62
     6
100
AcDbTrace
 10
453.6269829325233
 20
56.28688214996032
 30
0.0
 11
452.8965156647733
 21
56.68795822153565
 31
0.0
 12
452.0585210839223
 22
54.29601838249799
 32
0.0
 13
452.0585210839223
 23
54.29601838249799
 33
0.0
  0
SOLID
  5
A330
330
9F9A
100
AcDbEntity
  8
0
  6
ByBlock
 62
     6
100
AcDbTrace
 10
462.568274549647
 20
93.26351876639874
 30
0.0
 11
463.4015153416375
 21
93.25109994972505
 31
0.0
 12
463.0221513956633
 22
95.75703173403324
 32
0.0
 13
463.0221513956633
 23
95.75703173403324
 33
0.0
  0
MTEXT
  5
A331
330
9F9A
100
AcDbEntity
  8
0
  6
ByBlock
 62
     3
100
AcDbMText
 10
457.8180085231247
 20
74.95309954315683
 30
0.0
 40
3.0
 41
0.0
 71
     5
 72
     1
  1
\A1;30°
  7
TXT
 11
0.255645362096465
 21
0.9667706288663136
 31
0.0
 73
     1
 44
1.0
  0
POINT
  5
A332
330
9F9A
100
AcDbEntity
  8
DEFPOINTS
  6
ByBlock
 62
     0
100
AcDbPoint
 10
458.0885501165031
 20
67.41445391149683
 30
0.0
  0
POINT
  5
A333
330
9F9A
100
AcDbEntity
  8
DEFPOINTS
  6
ByBlock
 62
     0
100
AcDbPoint
 10
415.9663792122676
 20
74.81892576853316
 30
0.0
  0
POINT
  5
A334
330
9F9A
100
AcDbEntity
  8
DEFPOINTS
  6
ByBlock
 62
     0
100
AcDbPoint
 10
322.5297352474135
 20
95.75703173403326
 30
0.0
  0
POINT
  5
A335
330
9F9A
100
AcDbEntity
  8
DEFPOINTS
  6
ByBlock
 62
     0
100
AcDbPoint
 10
412.0284215055624
 20
95.75703173403331
 30
0.0
  0
POINT
  5
A336
330
9F9A
100
AcDbEntity
  8
DEFPOINTS
  6
ByBlock
 62
     0
100
AcDbPoint
 10
402.6624029716749
 20
82.38390412926944
 30
0.0
  0
ENDBLK
  5
A337
330
9F9A
100
AcDbEntity
  8
0
100
AcDbBlockEnd
  0
ENDSEC
  0
SECTION
  2
ENTITIES
  0
MTEXT
  5
C0
330
18
100
AcDbEntity
  8
0
100
AcDbMText
 10
41.26970765600413
 20
233.6950877649332
 30
0.0
 40
2.5
 41
0.0
 71
     1
 72
     5
  1

  7
ISOCP3
 73
     1
 44
1.0
  0
MTEXT
  5
503F
330
18
100
AcDbEntity
  8
公差
100
AcDbMText
 10
85.87405628085832
 20
120.1591091393495
 30
0.0
 40
2.0
 41
11.48459459716352
 71
     1
 72
     5
  1
+0\P-0.2
  7
TXT
 73
     1
 44
1.0
  0
LINE
  5
5AD6
330
18
100
AcDbEntity
  8
DIM
100
AcDbLine
 10
165.8016616647492
 20
89.99948701172709
 30
0.0
 11
165.8016616647492
 21
106.5262134668508
 31
0.0
  0
LINE
  5
5AD7
330
18
100
AcDbEntity
  8
DIM
100
AcDbLine
 10
165.8016616647492
 20
106.5262134668508
 30
0.0
 11
172.4142433536904
 21
106.5262134668508
 31
0.0
  0
LINE
  5
5ADA
330
18
100
AcDbEntity
  8
DIM
100
AcDbLine
 10
42.25936486472318
 20
49.0369918477331
 30
0.0
 11
42.25936486472318
 21
41.75545665798833
 31
0.0
  0
TOLERANCE
  5
5E6E
330
18
100
AcDbEntity
  8
DIM
  6
ByBlock
100
AcDbFcf
  3
A
 10
172.4142433536904
 20
106.5771519029818
 30
0.0
  1
{\Fgdt;h}%%v0.005%%v%%vA%%v%%v
1001
ACAD
1000
DSTYLE
1002
{
1070
   140
1040
2.743999999999999
1070
   147
1040
0.6859999999999999
1002
}
  0
MTEXT
  5
608E
330
18
100
AcDbEntity
  8
0
100
AcDbMText
 10
17.81948278949767
 20
19.37399834316261
 30
0.0
 40
5.0
 41
0.0
 71
     1
 72
     5
  1
\Ftxt.shx,bigfont.shx|c128;呉銘宏
  7
JL
 73
     1
 44
1.0
  0
MTEXT
  5
6095
330
18
100
AcDbEntity
  8
0
100
AcDbMText
 10
81.23517665196368
 20
29.2278230533891
 30
0.0
 40
4.5
 41
0.0
 71
     1
 72
     5
  1
\Ftxt.shx,bigfont.shx|c128;1 : 1
  7
JL
 73
     1
 44
1.0
  0
MTEXT
  5
6098
330
18
100
AcDbEntity
  8
0
 48
2.0
370
    25
100
AcDbMText
 10
146.1234268906314
 20
3.636969934829039
 30
0.0
 40
4.5
 41
0.0
 71
     5
 72
     1
  1
\Ftxt.shx,bigfont.shx|c128;N L 4 0 0 1 4
 73
     1
 44
1.0
  0
MTEXT
  5
609C
330
18
100
AcDbEntity
  8
0
 48
2.0
100
AcDbMText
 10
178.1300746997774
 20
22.17550270047843
 30
0.0
 40
4.5
 41
0.0
 71
     5
 72
     1
  1
\P\Ftxt.shx,bigfont.shx|c128;    MF85X2.0P
 73
     1
 44
1.0
  0
MTEXT
  5
635A
330
18
100
AcDbEntity
  8
0
100
AcDbMText
 10
16.02348109109539
 20
28.64592585511957
 30
0.0
 40
4.5
 41
0.0
 71
     1
 72
     5
  1
\Ftxt.shx,bigfont.shx|c128;05.03.03
  7
JL
 73
     1
 44
1.0
  0
INSERT
  5
63A3
330
18
100
AcDbEntity
  8
0
100
AcDbBlockReference
  2
A$C255C26A2
 10
105.8174999690769
 20
89.98821055383819
 30
0.0
  0
MTEXT
  5
63A4
330
18
100
AcDbEntity
  8
0
 62
     7
 48
2.0
100
AcDbMText
 10
109.9113027179331
 20
94.88376152085679
 30
0.0
 40
3.0
 41
0.0
 71
     5
 72
     1
  1
G
 73
     1
 44
1.0
  0
LEADER
  5
63CA
330
18
100
AcDbEntity
  8
DIM
 62
     6
100
AcDbLeader
  3
A
 76
     2
 10
129.5065805910214
 20
76.89068613888437
 30
0.0
 10
149.5918602671365
 20
115.8026767169642
 30
0.0
  0
LEADER
  5
63CB
330
18
100
AcDbEntity
  8
DIM
 62
     6
100
AcDbLeader
  3
A
 76
     2
 10
138.4793648647227
 20
70.04121013753075
 30
0.0
 10
149.6736272418645
 20
47.0720996286248
 30
0.0
  0
MTEXT
  5
63CC
330
18
100
AcDbEntity
  8
DIM
100
AcDbMText
 10
148.6103104071537
 20
121.4655876447568
 30
0.0
 40
5.0
 41
1.0
 71
     1
 72
     5
  1
\Ftxt.shx,bigfont.shx|c128;3
 73
     1
 44
1.0
  0
MTEXT
  5
63CE
330
18
100
AcDbEntity
  8
DIM
100
AcDbMText
 10
148.7335431406883
 20
45.84425094983089
 30
0.0
 40
5.0
 41
1.0
 71
     1
 72
     5
  1
\Ftxt.shx,bigfont.shx|c128;2
 73
     1
 44
1.0
  0
LINE
  5
63CF
330
18
100
AcDbEntity
  8
DIM
100
AcDbLine
 10
42.25936486472318
 20
41.75545665798833
 30
0.0
 11
43.17182321294876
 21
40.77758256226326
 31
0.0
  0
HATCH
  5
63D0
330
18
100
AcDbEntity
  8
DIM
  6
Continuous
100
AcDbHatch
 10
0.0
 20
0.0
 30
0.0
210
0.0
220
0.0
230
1.0
  2
SOLID
 70
     1
 71
     0
 91
        1
 92
        7
 72
     0
 73
     1
 93
        3
 10
42.2582407502706
 20
39.77176826300783
 10
43.17697283887065
 20
40.75657605825155
 10
42.2582407502706
 20
41.74138385349528
 97
        0
 75
     0
 76
     1
 47
0.2359147607200769
 98
        1
 10
42.54605674650139
 20
40.96805206394307
450
        0
451
        0
460
0.0
461
0.0
452
        0
462
0.0
453
        0
470

  0
LINE
  5
63D1
330
18
100
AcDbEntity
  8
DIM
100
AcDbLine
 10
47.91891601964482
 20
38.96392875810375
 30
0.0
 11
47.91891601964482
 21
42.61022754812489
 31
0.0
  0
LINE
  5
63D2
330
18
100
AcDbEntity
  8
DIM
100
AcDbLine
 10
47.91891601964482
 20
42.61022754812489
 30
0.0
 11
51.72755126515551
 21
42.61022754812489
 31
0.0
  0
LINE
  5
63D3
330
18
100
AcDbEntity
  8
DIM
100
AcDbLine
 10
51.72755126515551
 20
38.96392875810375
 30
0.0
 11
51.72755126515551
 21
42.61022754812489
 31
0.0
  0
LINE
  5
63D4
330
18
100
AcDbEntity
  8
DIM
100
AcDbLine
 10
47.91891601964482
 20
38.96392875810375
 30
0.0
 11
51.72755126515551
 21
38.96392875810375
 31
0.0
  0
LINE
  5
63D5
330
18
100
AcDbEntity
  8
DIM
100
AcDbLine
 10
47.91891601964482
 20
40.78707815311432
 30
0.0
 11
43.15812218392176
 21
40.78707815311432
 31
0.0
  0
MTEXT
  5
63D6
330
18
100
AcDbEntity
  8
DIM
100
AcDbMText
 10
48.87615374208445
 20
42.27889583235136
 30
0.0
 40
3.0
 41
2.354875985554478
 71
     1
 72
     5
  1
A
  7
ISOCP3
 73
     1
 44
1.0
  0
LINE
  5
64AF
330
18
100
AcDbEntity
  8
図框線
100
AcDbLine
 10
197.9999999999997
 20
289.9999999999999
 30
0.0
 11
197.9999999999997
 21
-0.0000000000000568
 31
0.0
  0
LINE
  5
64B0
330
18
100
AcDbEntity
  8
図框線
370
    30
100
AcDbLine
 10
-0.0000000000002274
 20
0.0
 30
0.0
 11
-0.0000000000002274
 21
290.0
 31
0.0
  0
LINE
  5
64B1
330
18
100
AcDbEntity
  8
0
 62
     7
 48
5.0
100
AcDbLine
 39
4.0
 10
49.94750515634314
 20
27.8953239783782
 30
0.0
 11
55.27930887205229
 21
29.22827490730549
 31
0.0
  0
MTEXT
  5
64B2
330
18
100
AcDbEntity
  8
0
100
AcDbMText
 10
15.97866977158742
 20
9.63134010478825
 30
0.0
 40
6.0
 41
0.0
 71
     1
 72
     5
  1
\Ftxt.shx,bigfont.shx|c128;日機株式会社
  7
LKK
 73
     1
 44
1.0
  0
LINE
  5
64B3
330
18
100
AcDbEntity
  8
図框線
100
AcDbLine
 10
0.0
 20
0.0
 30
0.0
 11
197.9999999999997
 21
0.0
 31
0.0
  0
LINE
  5
64B7
330
18
100
AcDbEntity
  8
図框線
100
AcDbLine
 10
0.0
 20
12.0
 30
0.0
 11
197.9999999999997
 21
12.00000000000005
 31
0.0
  0
LINE
  5
64B8
330
18
100
AcDbEntity
  8
図框線
100
AcDbLine
 10
0.0
 20
22.0
 30
0.0
 11
96.0
 21
22.0
 31
0.0
  0
LINE
  5
64B9
330
18
100
AcDbEntity
  8
図框線
100
AcDbLine
 10
0.0
 20
32.0
 30
0.0
 11
197.9999999999997
 21
32.0
 31
0.0
  0
LINE
  5
64BA
330
18
100
AcDbEntity
  8
図框線
100
AcDbLine
 10
12.0
 20
32.0
 30
0.0
 11
12.0
 21
12.0
 31
0.0
  0
LINE
  5
64BB
330
18
100
AcDbEntity
  8
図框線
100
AcDbLine
 10
32.0
 20
32.0
 30
0.0
 11
32.0
 21
12.0
 31
0.0
  0
MTEXT
  5
64BC
330
18
100
AcDbEntity
  8
0
100
AcDbMText
 10
2.949444248820782
 20
29.04715033351227
 30
0.0
 40
4.5
 41
0.0
 71
     1
 72
     5
  1
\Ftxt.shx,bigfont.shx|c128;日 付
  7
JL
 73
     1
 44
1.0
  0
MTEXT
  5
64BD
330
18
100
AcDbEntity
  8
0
100
AcDbMText
 10
3.095712364910014
 20
19.83833899470915
 30
0.0
 40
4.5
 41
0.0
 71
     1
 72
     5
  1
\Ftxt.shx,bigfont.shx|c128;製 図
  7
JL
 73
     1
 44
1.0
  0
LINE
  5
64C0
330
18
100
AcDbEntity
  8
0
 62
     7
370
    25
100
AcDbLine
 10
55.27930887205229
 20
23.89647119159633
 30
0.0
 11
55.27930887205229
 21
29.22827490730549
 31
0.0
  0
MTEXT
  5
64C1
330
18
100
AcDbEntity
  8
0
100
AcDbMText
 10
66.70254067332553
 20
29.42231870267847
 30
0.0
 40
4.5
 41
0.0
 71
     1
 72
     5
  1
\Ftxt.shx,bigfont.shx|c128;尺 度
  7
JL
 73
     1
 44
1.0
  0
LINE
  5
64C2
330
18
100
AcDbEntity
  8
図框線
100
AcDbLine
 10
64.0
 20
32.0
 30
0.0
 11
64.0
 21
12.0
 31
0.0
  0
LINE
  5
64C3
330
18
100
AcDbEntity
  8
0
 62
     7
370
    25
100
AcDbLine
 10
41.2833241183157
 20
23.23894871736115
 30
0.0
 11
41.2833241183157
 21
29.67466750005656
 31
0.0
  0
CIRCLE
  5
64C4
330
18
100
AcDbEntity
  8
0
 62
     7
100
AcDbCircle
 10
41.2833241183157
 20
26.5623730494508
 30
0.0
 40
2.665901857854641
  0
LINE
  5
64C6
330
18
100
AcDbEntity
  8
0
 62
     7
370
    25
100
AcDbLine
 10
49.18030281106076
 20
26.56237304945091
 30
0.0
 11
55.75797321903156
 21
26.56237304945091
 31
0.0
  0
LINE
  5
64C7
330
18
100
AcDbEntity
  8
0
 62
     7
100
AcDbLine
 10
49.94750515634314
 20
25.22942212052362
 30
0.0
 11
55.27930887205229
 21
23.89647119159633
 31
0.0
  0
LINE
  5
64C8
330
18
100
AcDbEntity
  8
図框線
100
AcDbLine
 10
44.0
 20
21.99999999999989
 30
0.0
 11
44.0
 21
12.0
 31
0.0
  0
LINE
  5
64C9
330
18
100
AcDbEntity
  8
0
 62
     7
370
    25
100
AcDbLine
 10
37.95172532843935
 20
26.5623730494508
 30
0.0
 11
44.81391594676916
 21
26.56237304945091
 31
0.0
  0
CIRCLE
  5
64CA
330
18
100
AcDbEntity
  8
0
 62
     7
100
AcDbCircle
 10
41.2833241183157
 20
26.5623730494508
 30
0.0
 40
1.33295092892732
  0
MTEXT
  5
64CB
330
18
100
AcDbEntity
  8
0
100
AcDbMText
 10
35.12086518039769
 20
19.39982343168049
 30
0.0
 40
4.5
 41
0.0
 71
     1
 72
     5
  1
\Ftxt.shx,bigfont.shx|c128;検 図
  7
JL
 73
     1
 44
1.0
  0
LINE
  5
64CC
330
18
100
AcDbEntity
  8
0
 62
     7
370
    25
100
AcDbLine
 10
49.94750515634314
 20
25.22942212052362
 30
0.0
 11
49.94750515634314
 21
27.8953239783782
 31
0.0
  0
MTEXT
  5
64CD
330
18
100
AcDbEntity
  8
0
100
AcDbMText
 10
66.99507418337498
 20
19.62882052001464
 30
0.0
 40
4.5
 41
0.0
 71
     1
 72
     5
  1
\Ftxt.shx,bigfont.shx|c128;承 認
  7
JL
 73
     1
 44
1.0
  0
LINE
  5
64CE
330
18
100
AcDbEntity
  8
図框線
100
AcDbLine
 10
135.4848583349512
 20
231.5666682905289
 30
0.0
 11
195.4848583349512
 21
231.5666682905288
 31
0.0
  0
LINE
  5
64CF
330
18
100
AcDbEntity
  8
図框線
100
AcDbLine
 10
135.4848583349512
 20
238.766668290529
 30
0.0
 11
195.4848583349512
 21
238.766668290529
 31
0.0
  0
LINE
  5
64D0
330
18
100
AcDbEntity
  8
図框線
100
AcDbLine
 10
135.4848583349512
 20
245.9666682905289
 30
0.0
 11
195.4848583349512
 21
245.9666682905288
 31
0.0
  0
LINE
  5
64D1
330
18
100
AcDbEntity
  8
図框線
100
AcDbLine
 10
135.4848583349512
 20
253.166668290529
 30
0.0
 11
195.4848583349512
 21
253.1666682905288
 31
0.0
  0
LINE
  5
64D2
330
18
100
AcDbEntity
  8
図框線
100
AcDbLine
 10
135.4848583349512
 20
224.3666682905289
 30
0.0
 11
195.4848583349512
 21
224.3666682905289
 31
0.0
  0
MTEXT
  5
64D3
330
18
100
AcDbEntity
  8
0
 62
     7
 48
2.0
100
AcDbMText
 10
165.3702583008225
 20
253.9598367011131
 30
0.0
 40
4.8
 41
0.0
 71
     5
 72
     1
  1
\P\Ftxt.shx,bigfont.shx|c128;諸　　　　元
 73
     1
 44
1.0
  0
LINE
  5
64D5
330
18
100
AcDbEntity
  8
図框線
100
AcDbLine
 10
135.4848583349512
 20
253.1666682905288
 30
0.0
 11
135.4848583349512
 21
224.3666682905289
 31
0.0
  0
MTEXT
  5
64D6
330
18
100
AcDbEntity
  8
0
100
AcDbMText
 10
139.0072941486314
 20
244.4401591234081
 30
0.0
 40
4.4
 41
163.916286842249
 71
     1
 72
     5
  1
\Ftxt.shx,bigfont.shx|c128;熱　処　理
  7
JL
 73
     1
 44
1.0
  0
LINE
  5
64D7
330
18
100
AcDbEntity
  8
図框線
100
AcDbLine
 10
159.4848583349512
 20
245.9666682905288
 30
0.0
 11
159.4848583349512
 21
224.3666682905289
 31
0.0
  0
MTEXT
  5
64D8
330
18
100
AcDbEntity
  8
0
100
AcDbMText
 10
97.65702556263818
 20
11.15332144655735
 30
0.0
 40
5.0
 41
0.0
 71
     1
 72
     5
  1
\Ftxt.shx,bigfont.shx|c128;図  面  番  号
  7
JL
 73
     1
 44
1.0
  0
MTEXT
  5
64D9
330
18
100
AcDbEntity
  8
0
 62
     7
 48
2.0
100
AcDbMText
 10
121.8260850653862
 20
22.29156825453561
 30
0.0
 40
4.5
 41
0.0
 71
     5
 72
     1
  1
\P\Ftxt.shx,bigfont.shx|c128;    精密ロックナット
 73
     1
 44
1.0
  0
MTEXT
  5
64DA
330
18
100
AcDbEntity
  8
0
370
    25
100
AcDbMText
 10
98.8002923053598
 20
29.80688815403971
 30
0.0
 40
5.0
 41
0.0
 71
     1
 72
     5
  1
\Ftxt.shx,bigfont.shx|c128;品  名
  7
JL
 73
     1
 44
1.0
  0
LINE
  5
64DB
330
18
100
AcDbEntity
  8
図框線
100
AcDbLine
 10
96.0
 20
32.0
 30
0.0
 11
96.0
 21
0.19104161092514
 31
0.0
  0
LINE
  5
64DC
330
18
100
AcDbEntity
  8
図框線
100
AcDbLine
 10
76.0
 20
32.0
 30
0.0
 11
76.0
 21
12.0
 31
0.0
  0
LINE
  5
64DE
330
18
100
AcDbEntity
  8
図框線
100
AcDbLine
 10
153.2235601908683
 20
32.0
 30
0.0
 11
153.2235601908683
 21
12.0
 31
0.0
  0
MTEXT
  5
64DF
330
18
100
AcDbEntity
  8
0
100
AcDbMText
 10
138.7270197812522
 20
237.437930676148
 30
0.0
 40
4.4
 41
163.6058628849672
 71
     1
 72
     5
  1
\Ftxt.shx,bigfont.shx|c128;表 面 処 理
  7
JL
 73
     1
 44
1.0
  0
MTEXT
  5
64E0
330
18
100
AcDbEntity
  8
0
100
AcDbMText
 10
139.0170856296872
 20
230.1494578225401
 30
0.0
 40
4.4
 41
166.1718
 71
     1
 72
     5
  1
\Ftxt.shx,bigfont.shx|c128;等     　級
  7
JL
 73
     1
 44
1.0
  0
LINE
  5
64E1
330
18
100
AcDbEntity
  8
図框線
100
AcDbLine
 10
195.4848583349512
 20
253.1666682905288
 30
0.0
 11
195.4848583349512
 21
224.366668290529
 31
0.0
  0
MTEXT
  5
64E2
330
18
100
AcDbEntity
  8
0
100
AcDbMText
 10
164.2318616443938
 20
244.2652012159984
 30
0.0
 40
4.4
 41
291.8960056857887
 71
     1
 72
     5
  1
\Ftxt.shx,bigfont.shx|c128;調質　HRC30%%d%%p２%%d
  7
JL
 73
     1
 44
1.0
  0
MTEXT
  5
64E4
330
18
100
AcDbEntity
  8
0
370
    25
100
AcDbMText
 10
157.2494735287423
 20
29.58569764093568
 30
0.0
 40
5.0
 41
0.0
 71
     1
 72
     5
  1
\Ftxt.shx,bigfont.shx|c128;型  番
  7
JL
 73
     1
 44
1.0
  0
MTEXT
  5
64E5
330
18
100
AcDbEntity
  8
0
100
AcDbMText
 10
172.787265122339
 20
11.23700203391422
 30
0.0
 40
5.0
 41
0.0
 71
     1
 72
     5
  1
\Ftxt.shx,bigfont.shx|c128;変更
  7
JL
 73
     1
 44
1.0
  0
LINE
  5
64E6
330
18
100
AcDbEntity
  8
図框線
100
AcDbLine
 10
171.0
 20
12.00907027842731
 30
0.0
 11
171.0
 21
0.0
 31
0.0
  0
MTEXT
  5
64E7
330
18
100
AcDbEntity
  8
0
100
AcDbMText
 10
164.4925006458302
 20
230.1500683939912
 30
0.0
 40
4.4
 41
290.783364796891
 71
     1
 72
     5
  1
\Ftxt.shx,bigfont.shx|c128;ＩＳＯ - ４Ｈ
  7
JL
 73
     1
 44
1.0
  0
MTEXT
  5
64E8
330
18
100
AcDbEntity
  8
0
100
AcDbMText
 10
164.6669618439605
 20
237.0850377391931
 30
0.0
 40
4.4
 41
291.4548
 71
     1
 72
     5
  1
\Ftxt.shx,bigfont.shx|c128;黒  　    染
  7
JL
 73
     1
 44
1.0
  0
MTEXT
  5
64EA
330
18
100
AcDbEntity
  8
0
100
AcDbMText
 10
60.06318600759005
 20
270.095850257545
 30
0.0
 40
5.0
 41
0.0
 71
     1
 72
     5
  1
\Ftxt.shx,bigfont.shx|c128;M8X1.25-8L
  7
JL
 73
     1
 44
1.0
  0
MTEXT
  5
64EB
330
18
100
AcDbEntity
  8
0
100
AcDbMText
 10
60.06318600759005
 20
262.095850257545
 30
0.0
 40
5.0
 41
0.0
 71
     1
 72
     5
  1
\Ftxt.shx,bigfont.shx|c128;%%c7X7L
  7
JL
 73
     1
 44
1.0
  0
LINE
  5
64EC
330
18
100
AcDbEntity
  8
図框線
100
AcDbLine
 10
-0.0000000000002274
 20
263.9999999999999
 30
0.0
 11
197.9999999999997
 21
263.9999999999999
 31
0.0
  0
LINE
  5
64ED
330
18
100
AcDbEntity
  8
図框線
100
AcDbLine
 10
-0.0000000000002274
 20
271.9999999999999
 30
0.0
 11
197.9999999999997
 21
271.9999999999999
 31
0.0
  0
LINE
  5
64EE
330
18
100
AcDbEntity
  8
図框線
 62
     9
100
AcDbLine
 10
-0.0000000000002274
 20
279.9999999999999
 30
0.0
 11
197.9999999999997
 21
279.9999999999999
 31
0.0
  0
LINE
  5
64EF
330
18
100
AcDbEntity
  8
図框線
100
AcDbLine
 10
-0.0000000000002274
 20
290.0
 30
0.0
 11
197.9999999999997
 21
290.0
 31
0.0
  0
MTEXT
  5
64F0
330
18
100
AcDbEntity
  8
0
100
AcDbMText
 10
59.41630259681733
 20
287.3155952051104
 30
0.0
 40
5.0
 41
0.0
 71
     1
 72
     5
  1
\Ftxt.shx,bigfont.shx|c128;図    番 / 規　　格
  7
JL
 73
     1
 44
1.0
  0
LINE
  5
64F1
330
18
100
AcDbEntity
  8
図框線
100
AcDbLine
 10
-0.0000000000002274
 20
263.9999999999999
 30
0.0
 11
197.9999999999997
 21
263.9999999999999
 31
0.0
  0
LINE
  5
64F2
330
18
100
AcDbEntity
  8
図框線
100
AcDbLine
 10
-0.0000000000002274
 20
255.9999999999999
 30
0.0
 11
197.9999999999997
 21
255.9999999999999
 31
0.0
  0
MTEXT
  5
64F3
330
18
100
AcDbEntity
  8
0
100
AcDbMText
 10
22.01434914141237
 20
286.7888025819827
 30
0.0
 40
5.0
 41
0.0
 71
     1
 72
     5
  1
\Ftxt.shx,bigfont.shx|c128;品　          名
  7
JL
 73
     1
 44
1.0
  0
MTEXT
  5
64F4
330
18
100
AcDbEntity
  8
0
100
AcDbMText
 10
18.8650376130422
 20
270.5298549795346
 30
0.0
 40
6.0
 41
0.0
 71
     1
 72
     5
  1
\Ftxt.shx,bigfont.shx|c128;セットスクリュ-
  7
JL
 73
     1
 44
1.0
  0
MTEXT
  5
64F5
330
18
100
AcDbEntity
  8
0
100
AcDbMText
 10
18.66941459004738
 20
278.3660650505403
 30
0.0
 40
6.0
 41
0.0
 71
     1
 72
     5
  1
\Ftxt.shx,bigfont.shx|c128;ロックナット　  
  7
JL
 73
     1
 44
1.0
  0
MTEXT
  5
64F6
330
18
100
AcDbEntity
  8
0
100
AcDbMText
 10
18.8650376130422
 20
262.5298549795346
 30
0.0
 40
6.0
 41
0.0
 71
     1
 72
     5
  1
\Ftxt.shx,bigfont.shx|c128;ロックピン 
  7
JL
 73
     1
 44
1.0
  0
LINE
  5
64F7
330
18
100
AcDbEntity
  8
図框線
100
AcDbLine
 10
14.99999999999977
 20
289.9999999999998
 30
0.0
 11
15.00000000000011
 21
255.9999999999999
 31
0.0
  0
LINE
  5
64F8
330
18
100
AcDbEntity
  8
0
100
AcDbLine
 10
14.99999999999977
 20
289.9999999999998
 30
0.0
 11
14.99999999999977
 21
263.9999999999999
 31
0.0
  0
MTEXT
  5
64F9
330
18
100
AcDbEntity
  8
0
100
AcDbMText
 10
6.215289087390488
 20
262.7436409356394
 30
0.0
 40
5.0
 41
0.0
 71
     1
 72
     5
  1
\Ftxt.shx,bigfont.shx|c128;3
  7
JL
 73
     1
 44
1.0
  0
MTEXT
  5
64FA
330
18
100
AcDbEntity
  8
0
100
AcDbMText
 10
7.101957026666809
 20
278.5798510066454
 30
0.0
 40
5.0
 41
0.0
 71
     1
 72
     5
  1
\Ftxt.shx,bigfont.shx|c128;1
  7
JL
 73
     1
 44
1.0
  0
MTEXT
  5
64FB
330
18
100
AcDbEntity
  8
0
100
AcDbMText
 10
6.215289087390488
 20
270.7436409356394
 30
0.0
 40
5.0
 41
0.0
 71
     1
 72
     5
  1
\Ftxt.shx,bigfont.shx|c128;2
  7
JL
 73
     1
 44
1.0
  0
MTEXT
  5
64FC
330
18
100
AcDbEntity
  8
0
100
AcDbMText
 10
2.209083991842362
 20
287.0885254164057
 30
0.0
 40
5.0
 41
0.0
 71
     1
 72
     5
  1
\Ftxt.shx,bigfont.shx|c128;照   号
  7
JL
 73
     1
 44
1.0
  0
LINE
  5
64FD
330
18
100
AcDbEntity
  8
図框線
 62
     9
100
AcDbLine
 10
54.99999999999977
 20
289.9999999999998
 30
0.0
 11
54.99999999999977
 21
256.0
 31
0.0
  0
MTEXT
  5
64FE
330
18
100
AcDbEntity
  8
0
100
AcDbMText
 10
146.3353765925378
 20
287.5804049742369
 30
0.0
 40
5.0
 41
0.0
 71
     1
 72
     5
  1
\Ftxt.shx,bigfont.shx|c128;備           考
  7
JL
 73
     1
 44
1.0
  0
LINE
  5
64FF
330
18
100
AcDbEntity
  8
図框線
 62
     9
100
AcDbLine
 10
94.99999999999976
 20
289.9999999999999
 30
0.0
 11
94.99999999999976
 21
255.9999999999999
 31
0.0
  0
MTEXT
  5
6500
330
18
100
AcDbEntity
  8
0
100
AcDbMText
 10
96.78387029776377
 20
262.3660650505403
 30
0.0
 40
5.0
 41
0.0
 71
     1
 72
     5
  1
\Ftxt.shx,bigfont.shx|c128;C3604
  7
JL
 73
     1
 44
1.0
  0
MTEXT
  5
6501
330
18
100
AcDbEntity
  8
0
100
AcDbMText
 10
96.78387029776377
 20
278.3660650505403
 30
0.0
 40
5.0
 41
0.0
 71
     1
 72
     5
  1
\Ftxt.shx,bigfont.shx|c128;SCM-440
  7
JL
 73
     1
 44
1.0
  0
MTEXT
  5
6502
330
18
100
AcDbEntity
  8
0
100
AcDbMText
 10
96.78387029776377
 20
270.3660650505403
 30
0.0
 40
5.0
 41
0.0
 71
     1
 72
     5
  1
\Ftxt.shx,bigfont.shx|c128;SCM435
  7
JL
 73
     1
 44
1.0
  0
MTEXT
  5
6503
330
18
100
AcDbEntity
  8
0
100
AcDbMText
 10
99.80032499445407
 20
287.5804049742369
 30
0.0
 40
5.0
 41
0.0
 71
     1
 72
     5
  1
\Ftxt.shx,bigfont.shx|c128;材　質
  7
JL
 73
     1
 44
1.0
  0
LINE
  5
6504
330
18
100
AcDbEntity
  8
図框線
 62
     9
100
AcDbLine
 10
114.9999999999997
 20
289.9999999999999
 30
0.0
 11
114.9999999999997
 21
255.9999999999999
 31
0.0
  0
LINE
  5
6505
330
18
100
AcDbEntity
  8
図框線
100
AcDbLine
 10
129.9999999999998
 20
289.9999999999999
 30
0.0
 11
129.9999999999998
 21
255.9999999999999
 31
0.0
  0
MTEXT
  5
6506
330
18
100
AcDbEntity
  8
0
100
AcDbMText
 10
121.2152890873904
 20
262.7436409356394
 30
0.0
 40
5.0
 41
0.0
 71
     1
 72
     5
  1
\Ftxt.shx,bigfont.shx|c128;3
  7
JL
 73
     1
 44
1.0
  0
MTEXT
  5
6507
330
18
100
AcDbEntity
  8
0
100
AcDbMText
 10
122.1019570266667
 20
278.5798510066454
 30
0.0
 40
5.0
 41
0.0
 71
     1
 72
     5
  1
\Ftxt.shx,bigfont.shx|c128;1
  7
JL
 73
     1
 44
1.0
  0
MTEXT
  5
6508
330
18
100
AcDbEntity
  8
0
100
AcDbMText
 10
121.2152890873904
 20
270.7436409356394
 30
0.0
 40
5.0
 41
0.0
 71
     1
 72
     5
  1
\Ftxt.shx,bigfont.shx|c128;3
  7
JL
 73
     1
 44
1.0
  0
MTEXT
  5
6509
330
18
100
AcDbEntity
  8
0
100
AcDbMText
 10
116.433740311917
 20
287.5804049742369
 30
0.0
 40
5.0
 41
0.0
 71
     1
 72
     5
  1
\Ftxt.shx,bigfont.shx|c128;数   量
  7
JL
 73
     1
 44
1.0
  0
DIMENSION
  5
6770
330
18
100
AcDbEntity
  8
0
100
AcDbDimension
  2
*D1
 10
127.2593648647228
 20
49.0369918477331
 30
0.0
 11
84.75936486472278
 21
49.0369918477331
 31
0.0
 12
-263.05835389496
 22
0.0
 32
0.0
 70
   160
  1
M<>X2.0P
 71
     5
 42
-1.0
  3
A
100
AcDbAlignedDimension
 13
42.25936486472273
 23
66.65487791448602
 33
0.0
 14
127.2593648647228
 24
66.65487791448612
 34
0.0
100
AcDbRotatedDimension
  0
LEADER
  5
6B85
330
18
100
AcDbEntity
  8
DIM
 62
     6
100
AcDbLeader
  3
A
 73
     0
 74
     0
 75
     1
 40
3.0
 41
4.999999999999999
 76
     3
 10
42.50936486472278
 20
86.98821124781934
 30
0.0
 10
50.48220050376852
 20
94.82443786188097
 30
0.0
 10
52.98220050376852
 20
94.82443786188097
 30
0.0
340
6B86
  0
MTEXT
  5
6B86
102
{ACAD_REACTORS
330
6B85
102
}
330
18
100
AcDbEntity
  8
DIM
 62
     3
100
AcDbMText
 10
53.98220050376853
 20
97.32443786188097
 30
0.0
 40
3.0
 41
0.0
 71
     4
 72
     1
  1
\A1;C2
  7
TXT
 73
     1
 44
1.0
  0
DIMENSION
  5
6C92
330
18
100
AcDbEntity
  8
DIM
100
AcDbDimension
  2
*D2
 10
136.7593648647227
 20
108.1794344659749
 30
0.0
 11
84.75936486472278
 21
110.6794344659749
 31
0.0
 12
-263.05835389496
 22
0.0
 32
0.0
 70
    32
  1
%%c<>%%p0.5
 71
     5
 42
-1.0
  3
A
100
AcDbAlignedDimension
 13
32.75936486472279
 23
89.98821124781931
 33
0.0
 14
136.7593648647227
 24
89.98821124781931
 34
0.0
100
AcDbRotatedDimension
  0
DIMENSION
  5
6CAA
330
18
100
AcDbEntity
  8
DIM
100
AcDbDimension
  2
*D3
 10
140.7593648647227
 20
113.6869045563898
 30
0.0
 11
80.6903087368089
 21
114.513025306275
 31
0.0
 12
-263.05835389496
 22
0.0
 32
0.0
 70
   160
  1
%%c<>
 71
     5
 42
-1.0
  3
A
100
AcDbAlignedDimension
 13
28.75936486472279
 23
87.48821124781931
 33
0.0
 14
140.7593648647227
 24
87.48821124781931
 34
0.0
100
AcDbRotatedDimension
  0
DIMENSION
  5
6F74
330
18
100
AcDbEntity
  8
0
100
AcDbDimension
  2
*D4
 10
164.9126050668975
 20
49.39202198832632
 30
0.0
 11
175.40867744191
 21
67.57175262176795
 31
0.0
 12
13.25375234613784
 22
-26.99644189751629
 32
0.0
 70
   161
  1
9%%p0.5
 71
     5
 42
-1.0
  3
A
100
AcDbAlignedDimension
 13
140.7663141628987
 23
74.00232251630551
 33
0.0
 14
136.1463141628987
 24
66.00024778533721
 34
0.0
  0
MTEXT
  5
72FF
102
{ACAD_REACTORS
330
7300
102
}
330
18
100
AcDbEntity
  8
DIM
 62
     3
100
AcDbMText
 10
113.3708230189428
 20
59.15835335130177
 30
0.0
 40
3.0
 41
0.0
 71
     6
 72
     1
  1
\A1;C2
  7
TXT
 73
     1
 44
1.0
  0
LEADER
  5
7300
330
18
100
AcDbEntity
  8
DIM
 62
     6
100
AcDbLeader
  3
A
 73
     0
 75
     1
 40
3.0
 41
4.999999999999999
 76
     3
 10
127.0093648647228
 20
66.9882112478194
 30
0.0
 10
116.8708230189428
 20
56.65835335130177
 30
0.0
 10
114.3708230189428
 20
56.65835335130177
 30
0.0
340
72FF
  0
MTEXT
  5
7303
102
{ACAD_REACTORS
330
7304
102
}
330
18
100
AcDbEntity
  8
DIM
 62
     3
100
AcDbMText
 10
156.3817495299361
 20
104.017913854943
 30
0.0
 40
3.0
 41
0.0
 71
     4
 72
     1
  1
\A1;R2
  7
TXT
 73
     1
 44
1.0
  0
LEADER
  5
7304
330
18
100
AcDbEntity
  8
DIM
 62
     6
100
AcDbLeader
  3
A
 73
     0
 74
     0
 75
     1
 40
3.0
 41
4.999999999999999
 76
     3
 10
140.1800884924236
 20
88.91370057410052
 30
0.0
 10
152.8817495299361
 20
101.517913854943
 30
0.0
 10
155.3817495299361
 20
101.517913854943
 30
0.0
340
7303
1001
ACAD
1000
DSTYLE
1002
{
1070
    45
1040
0.0
1002
}
  0
DIMENSION
  5
74C6
330
18
100
AcDbEntity
  8
0
100
AcDbDimension
  2
*D5
 10
22.45829580868264
 20
89.48821124781932
 30
0.0
 11
22.45829580868264
 21
102.8091670365864
 31
0.0
 12
-263.05835389496
 22
0.0
 32
0.0
 70
   160
 71
     5
 42
-1.0
  3
A
100
AcDbAlignedDimension
 13
32.75936486472279
 23
89.98821124781931
 33
0.0
 14
30.75936486472278
 24
89.48821124781932
 34
0.0
 50
90.0
100
AcDbRotatedDimension
  0
DIMENSION
  5
750D
330
18
100
AcDbEntity
  8
DIM
100
AcDbDimension
  2
*D6
 10
127.7593648647228
 20
102.3363396543463
 30
0.0
 11
84.75936486472278
 21
104.8363396543463
 31
0.0
 12
-263.05835389496
 22
0.0
 32
0.0
 70
    32
  1
%%c<>
 71
     5
 42
-1.0
  3
A
100
AcDbAlignedDimension
 13
41.75936486472278
 23
89.98821124781931
 33
0.0
 14
127.7593648647228
 24
89.98821124781931
 34
0.0
100
AcDbRotatedDimension
  0
DIMENSION
  5
7568
330
18
100
AcDbEntity
  8
DIM
100
AcDbDimension
  2
*D7
 10
155.652640738361
 20
70.04121013753075
 30
0.0
 11
153.152640738361
 21
80.02034857462909
 31
0.0
 12
-275.763860317363
 22
-5.75754472230588
 32
0.0
 70
    32
 71
     5
 42
-1.0
  3
A
100
AcDbAlignedDimension
 13
136.2645611881994
 23
89.99948701172742
 33
0.0
 14
138.4793648647227
 24
70.04121013753075
 34
0.0
 50
90.0
100
AcDbRotatedDimension
  0
DIMENSION
  5
7575
330
18
100
AcDbEntity
  8
DIM
100
AcDbDimension
  2
*D8
 10
165.8016616647492
 20
89.99948701172742
 30
0.0
 11
163.3016616647492
 21
77.99986739853231
 31
0.0
 12
-275.763860317363
 22
-5.75754472230588
 32
0.0
 70
    32
  1
<>%%p0.2
 71
     5
 42
-1.0
  3
A
100
AcDbAlignedDimension
 13
136.1463141628987
 23
66.00024778533721
 33
0.0
 14
136.2645611881994
 24
89.99948701172742
 34
0.0
 50
90.0
100
AcDbRotatedDimension
  0
DIMENSION
  5
7AD6
330
18
100
AcDbEntity
  8
DIM
100
AcDbDimension
  2
*D9
 10
93.97709997120301
 20
89.98821124781935
 30
0.0
 11
93.97709997120301
 21
97.57402493549163
 31
0.0
 12
-215.7718200544116
 22
-25.00847843503419
 32
0.0
 70
   160
 71
     5
 42
-1.0
  3
A
100
AcDbAlignedDimension
 13
97.75936486472279
 23
87.9882112478196
 33
0.0
 14
97.75936486472279
 24
89.98821124781935
 34
0.0
 50
90.0
100
AcDbRotatedDimension
  0
MTEXT
  5
9E3E
330
18
100
AcDbEntity
  8
公差
100
AcDbMText
 10
42.09076501423578
 20
141.4397663019895
 30
0.0
 40
2.0
 41
9.555074525974475
 71
     1
 72
     5
  1
+0.15\P+0
  7
TXT
 73
     1
 44
1.0
  0
MTEXT
  5
9E3F
330
18
100
AcDbEntity
  8
公差
100
AcDbMText
 10
11.56310615784912
 20
194.0810820490246
 30
0.0
 40
2.0
 41
8.84945634767439
 71
     1
 72
     5
  1
+0.15\P+0
  7
TXT
 11
0.0000000000000001
 21
1.0
 31
0.0
 73
     1
 44
1.0
  0
LEADER
  5
9E40
330
18
100
AcDbEntity
  8
DIM
 62
     6
100
AcDbLeader
  3
A
 76
     2
 10
139.6447396636738
 20
200.5244696364301
 30
0.0
 10
153.4780481213191
 20
208.5012334887049
 30
0.0
  0
MTEXT
  5
9E41
330
18
100
AcDbEntity
  8
DIM
100
AcDbMText
 10
154.6889647352452
 20
212.0550452345423
 30
0.0
 40
5.0
 41
1.0
 71
     1
 72
     5
  1
\Ftxt.shx,bigfont.shx|c128;1
 73
     1
 44
1.0
  0
DIMENSION
  5
9E42
330
18
100
AcDbEntity
  8
0
100
AcDbDimension
  2
*D10
 10
32.35936486472269
 20
135.5124069809325
 30
0.0
 11
37.35936486472269
 21
135.5124069809325
 31
0.0
 12
-257.1096372191756
 22
-33.85765767423186
 32
0.0
 70
   160
 71
     5
 42
-1.0
  3
A
100
AcDbAlignedDimension
 13
28.87893267255459
 23
185.4071123434997
 33
0.0
 14
32.35936486472269
 24
185.4071123434997
 34
0.0
100
AcDbRotatedDimension
  0
DIMENSION
  5
9E43
330
18
100
AcDbEntity
  8
DIM
100
AcDbDimension
  2
*D11
 10
18.41046846523397
 20
193.4071123434996
 30
0.0
 11
17.53606442437819
 21
201.7958616318239
 31
0.0
 12
-519.6053076064274
 22
-18.61148824686239
 32
0.0
 70
   160
  1
<>      (3等分)
 71
     5
 42
-1.0
  3
A
100
AcDbAlignedDimension
 13
28.93360791516443
 23
185.4071123434996
 33
0.0
 14
28.93360791516443
 24
193.4071123434996
 34
0.0
 50
90.0
100
AcDbRotatedDimension
  0
LINE
  5
9E44
330
18
100
AcDbEntity
  8
DIM
 62
     6
100
AcDbLine
 10
18.41046846523397
 20
192.4071123434997
 30
0.0
 11
18.41046846523397
 21
214.3234212058942
 31
0.0
  0
LINE
  5
9E45
330
18
100
AcDbEntity
  8
DIM
 62
     6
100
AcDbLine
 10
37.35936486472269
 20
135.5124069809325
 30
0.0
 11
49.16258817555183
 21
135.5124069809325
 31
0.0
  0
DIMENSION
  5
9FA8
330
18
100
AcDbEntity
  8
DIM
100
AcDbDimension
  2
*D12
 10
126.898542654312
 20
76.62635940696356
 30
0.0
 11
182.0541482057617
 21
69.19555482085091
 31
0.0
 12
-275.763860317363
 22
-5.75754472230588
 32
0.0
 70
    34
  1
30%%D
 71
     5
 42
-1.0
  3
A
100
AcDb2LineAngularDimension
 13
46.76587493005041
 23
89.99948701172737
 33
0.0
 14
136.2645611881994
 24
89.99948701172742
 34
0.0
 15
140.2025188949045
 25
69.06138104622726
 35
0.0
 16
182.3246897991401
 26
61.65690918919094
 36
0.0
1001
ACAD
1000
DSTYLE
1002
{
1070
    79
1070
     2
1070
   179
1070
     1
1002
}
  0
ARC
  5
A470
330
18
100
AcDbEntity
  8
本体外線
100
AcDbCircle
 10
84.75936486472278
 20
189.4071123434996
 30
0.0
 40
56.0
100
AcDbArc
 50
64.09604375815229
 51
175.9039562418477
  0
CIRCLE
  5
A471
330
18
100
AcDbEntity
  8
本体外線
100
AcDbCircle
 10
84.75936486472278
 20
189.4071123434996
 30
0.0
 40
52.0
  0
ARC
  5
A472
330
18
100
AcDbEntity
  8
0
100
AcDbCircle
 10
84.75936486472278
 20
189.4071123434996
 30
0.0
 40
42.5
100
AcDbArc
 50
171.3837638247869
 51
103.6662442369455
  0
CIRCLE
  5
A473
330
18
100
AcDbEntity
  8
本体外線
100
AcDbCircle
 10
84.75936486472278
 20
189.4071123434996
 30
0.0
 40
41.5
  0
LINE
  5
A474
330
18
100
AcDbEntity
  8
本体外線
100
AcDbLine
 10
28.75936486472279
 20
87.48821124781931
 30
0.0
 11
28.75936486472267
 21
73.98821124781935
 31
0.0
  0
LINE
  5
A475
102
{ACAD_REACTORS
330
A760
102
}
330
18
100
AcDbEntity
  8
本体外線
100
AcDbLine
 10
32.75936486472279
 20
89.98821124781931
 30
0.0
 11
136.7593648647227
 21
89.98821124781931
 31
0.0
  0
LINE
  5
A476
102
{ACAD_REACTORS
330
A760
102
}
330
18
100
AcDbEntity
  8
本体外線
100
AcDbLine
 10
33.37936486472279
 20
65.98821124781935
 30
0.0
 11
136.1393648647226
 21
65.98821124781935
 31
0.0
  0
LINE
  5
A477
102
{ACAD_REACTORS
330
A760
102
}
330
18
100
AcDbEntity
  8
本体外線
100
AcDbLine
 10
32.75936486472279
 20
89.98821124781931
 30
0.0
 11
32.75936486472279
 21
89.48821124781932
 31
0.0
  0
LINE
  5
A479
102
{ACAD_REACTORS
330
A760
102
}
330
18
100
AcDbEntity
  8
本体外線
100
AcDbLine
 10
43.25936486472278
 20
85.98821124781935
 30
0.0
 11
43.25936486472278
 21
67.98821124781937
 31
0.0
  0
LINE
  5
A47A
102
{ACAD_REACTORS
330
A760
102
}
330
18
100
AcDbEntity
  8
本体外線
100
AcDbLine
 10
140.7593648647227
 20
87.48821124781931
 30
0.0
 11
140.7593648647227
 21
73.98821124781935
 31
0.0
  0
LINE
  5
A47B
102
{ACAD_REACTORS
330
A760
102
}
330
18
100
AcDbEntity
  8
本体外線
100
AcDbLine
 10
136.7593648647227
 20
89.98821124781931
 30
0.0
 11
136.7593648647227
 21
89.48821124781932
 31
0.0
  0
LINE
  5
A47C
102
{ACAD_REACTORS
330
A760
102
}
330
18
100
AcDbEntity
  8
本体外線
100
AcDbLine
 10
126.2593648647228
 20
85.98821124781929
 30
0.0
 11
126.2593648647228
 21
67.98821124781935
 31
0.0
  0
LINE
  5
A47D
102
{ACAD_REACTORS
330
A760
102
}
330
18
100
AcDbEntity
  8
本体外線
100
AcDbLine
 10
30.75936486472278
 20
89.48821124781932
 30
0.0
 11
32.75936486472279
 21
89.48821124781932
 31
0.0
  0
LINE
  5
A47E
102
{ACAD_REACTORS
330
A760
102
}
330
18
100
AcDbEntity
  8
本体外線
100
AcDbLine
 10
136.7593648647227
 20
89.48821124781932
 30
0.0
 11
138.7593648647228
 21
89.48821124781932
 31
0.0
  0
ARC
  5
A47F
330
18
100
AcDbEntity
  8
本体外線
100
AcDbCircle
 10
30.75936486472278
 20
87.48821124781931
 30
0.0
 40
2.0
100
AcDbArc
 50
90.00000000000019
 51
179.9999999999999
  0
ARC
  5
A480
102
{ACAD_REACTORS
330
A760
102
}
330
18
100
AcDbEntity
  8
本体外線
100
AcDbCircle
 10
138.7593648647228
 20
87.48821124781931
 30
0.0
 40
2.0
100
AcDbArc
 50
0.0
 51
90.00000000000019
  0
LINE
  5
A481
102
{ACAD_REACTORS
330
A760
102
}
330
18
100
AcDbEntity
  8
本体外線
100
AcDbLine
 10
126.2593648647228
 20
85.98821124781933
 30
0.0
 11
127.7593648647228
 21
87.98821124781932
 31
0.0
  0
LINE
  5
A483
102
{ACAD_REACTORS
330
A760
102
}
330
18
100
AcDbEntity
  8
本体外線
100
AcDbLine
 10
43.25936486472278
 20
85.98821124781935
 30
0.0
 11
41.75936486472278
 21
87.98821124781936
 31
0.0
  0
LINE
  5
A485
330
18
100
AcDbEntity
  8
本体外線
100
AcDbLine
 10
41.75936486472278
 20
87.98821124781936
 30
0.0
 11
127.7593648647228
 21
87.98821124781932
 31
0.0
  0
LINE
  5
A486
330
18
100
AcDbEntity
  8
本体外線
100
AcDbLine
 10
43.25936486472278
 20
67.98821124781935
 30
0.0
 11
126.2593648647226
 21
67.98821124781929
 31
0.0
  0
POINT
  5
A48B
330
18
100
AcDbEntity
  8
本体外線
100
AcDbPoint
 10
136.7593648647227
 20
89.98821124781931
 30
0.0
  0
LINE
  5
A492
330
18
100
AcDbEntity
  8
本体外線
100
AcDbLine
 10
107.495263249585
 20
236.7868435018043
 30
0.0
 11
114.4234664798605
 21
232.7868435018042
 31
0.0
  0
LINE
  5
A493
330
18
100
AcDbEntity
  8
中心線
  6
CENTER
 48
0.15
100
AcDbLine
 10
84.75936486472278
 20
248.4071123434997
 30
0.0
 11
84.75936486472278
 21
130.2596888960408
 31
0.0
  0
LINE
  5
A494
330
18
100
AcDbEntity
  8
本体外線
100
AcDbLine
 10
116.1519465673984
 20
235.780658833291
 30
0.0
 11
114.4234664798605
 21
232.7868435018042
 31
0.0
  0
LINE
  5
A495
330
18
100
AcDbEntity
  8
本体外線
100
AcDbLine
 10
109.2237433371229
 20
239.780658833291
 30
0.0
 11
107.4952632495849
 21
236.7868435018043
 31
0.0
  0
LINE
  5
A496
330
18
100
AcDbEntity
  8
中心線
  6
CENTER
 48
0.15
100
AcDbLine
 10
25.77317809244346
 20
189.4071123434997
 30
0.0
 11
143.7593648647228
 21
189.4071123435003
 31
0.0
  0
LINE
  5
A497
330
18
100
AcDbEntity
  8
本体外線
100
AcDbLine
 10
32.35936486472281
 20
185.4071123434996
 30
0.0
 11
32.35936486472281
 21
193.4071123434997
 31
0.0
  0
LINE
  5
A498
330
18
100
AcDbEntity
  8
本体外線
100
AcDbLine
 10
28.90240468964703
 20
193.4071123434996
 30
0.0
 11
32.35936486472281
 21
193.4071123434996
 31
0.0
  0
LINE
  5
A499
330
18
100
AcDbEntity
  8
本体外線
100
AcDbLine
 10
28.90240468964703
 20
185.4071123434996
 30
0.0
 11
32.35936486472292
 21
185.4071123434996
 31
0.0
  0
LINE
  5
A49A
330
18
100
AcDbEntity
  8
中心線
  6
CENTER
 48
0.15
100
AcDbLine
 10
55.25936486472267
 20
138.3116135202178
 30
0.0
 11
65.50936486472278
 21
156.0651342977987
 31
0.0
  0
LINE
  5
A49B
330
18
100
AcDbEntity
  8
本体外線
100
AcDbLine
 10
114.4234664798605
 20
146.0273811851951
 30
0.0
 11
107.4952632495849
 21
142.0273811851951
 31
0.0
  0
LINE
  5
A49C
330
18
100
AcDbEntity
  8
本体外線
100
AcDbLine
 10
109.2237433371229
 20
139.0335658537083
 30
0.0
 11
107.4952632495849
 21
142.0273811851951
 31
0.0
  0
LINE
  5
A49D
330
18
100
AcDbEntity
  8
本体外線
100
AcDbLine
 10
116.1519465673984
 20
143.0335658537084
 30
0.0
 11
114.4234664798605
 21
146.0273811851951
 31
0.0
  0
ARC
  5
A49E
330
18
100
AcDbEntity
  8
本体外線
100
AcDbCircle
 10
84.75936486472278
 20
189.4071123434996
 30
0.0
 40
56.0
100
AcDbArc
 50
304.0960437581524
 51
55.90395624184758
  0
ARC
  5
A49F
330
18
100
AcDbEntity
  8
本体外線
100
AcDbCircle
 10
84.75936486472278
 20
189.4071123434996
 30
0.0
 40
56.0
100
AcDbArc
 50
184.0960437581524
 51
295.9039562418477
  0
LINE
  5
A4A0
330
18
100
AcDbEntity
  8
本体内線
  6
HIDDEN
 48
0.2
100
AcDbLine
 10
60.6418736972621
 20
155.6343922903642
 30
0.0
 11
53.36678316204711
 21
143.0335658537084
 31
0.0
  0
LINE
  5
A4A1
330
18
100
AcDbEntity
  8
本体内線
  6
HIDDEN
 48
0.2
100
AcDbLine
 10
67.57007692753757
 20
151.6343922903642
 30
0.0
 11
60.29498639232258
 21
139.0335658537084
 31
0.0
  0
LINE
  5
A4A2
330
18
100
AcDbEntity
  8
本体内線
  6
HIDDEN
 48
0.2
100
AcDbLine
 10
61.18313957462738
 20
155.3218922903642
 30
0.0
 11
53.90804903941239
 21
142.7210658537084
 31
0.0
  0
LINE
  5
A4A3
330
18
100
AcDbEntity
  8
本体内線
  6
HIDDEN
 48
0.2
100
AcDbLine
 10
67.0288110501723
 20
151.9468922903642
 30
0.0
 11
59.75372051495731
 21
139.3460658537084
 31
0.0
  0
LINE
  5
A4A4
330
18
100
AcDbEntity
  8
本体内線
  6
HIDDEN
 48
0.2
100
AcDbLine
 10
126.0661439693684
 20
185.4071123434996
 30
0.0
 11
140.6163250397985
 21
185.4071123434996
 31
0.0
  0
LINE
  5
A4A5
330
18
100
AcDbEntity
  8
本体内線
  6
HIDDEN
 48
0.2
100
AcDbLine
 10
126.0661439693684
 20
193.4071123434996
 30
0.0
 11
140.6163250397985
 21
193.4071123434996
 31
0.0
  0
LINE
  5
A4A6
330
18
100
AcDbEntity
  8
本体内線
  6
HIDDEN
 48
0.2
100
AcDbLine
 10
126.0661439693684
 20
186.0321123434996
 30
0.0
 11
140.6163250397985
 21
186.0321123434996
 31
0.0
  0
LINE
  5
A4A7
330
18
100
AcDbEntity
  8
本体内線
  6
HIDDEN
 48
0.2
100
AcDbLine
 10
126.0661439693684
 20
192.7821123434996
 30
0.0
 11
140.6163250397985
 21
192.7821123434996
 31
0.0
  0
LINE
  5
A4A8
330
18
100
AcDbEntity
  8
中心線
  6
CENTER
 48
0.15
100
AcDbLine
 10
65.50936486472273
 20
222.7490903892005
 30
0.0
 11
55.25936486472284
 21
240.5026111667815
 31
0.0
  0
LINE
  5
A4A9
330
18
100
AcDbEntity
  8
本体内線
  6
HIDDEN
 48
0.2
100
AcDbLine
 10
67.5700769275378
 20
227.1798323966351
 30
0.0
 11
60.2949863923227
 21
239.780658833291
 31
0.0
  0
LINE
  5
A4AA
330
18
100
AcDbEntity
  8
本体内線
  6
HIDDEN
 48
0.2
100
AcDbLine
 10
60.6418736972621
 20
223.1798323966351
 30
0.0
 11
53.36678316204722
 21
235.780658833291
 31
0.0
  0
LINE
  5
A4AB
330
18
100
AcDbEntity
  8
本体内線
  6
HIDDEN
 48
0.2
100
AcDbLine
 10
67.02881105017252
 20
226.8673323966351
 30
0.0
 11
59.75372051495742
 21
239.468158833291
 31
0.0
  0
LINE
  5
A4AC
330
18
100
AcDbEntity
  8
本体内線
  6
HIDDEN
 48
0.2
100
AcDbLine
 10
61.18313957462738
 20
223.4923323966351
 30
0.0
 11
53.9080490394125
 21
236.093158833291
 31
0.0
  0
LINE
  5
A4B4
330
18
100
AcDbEntity
  8
中心線
  6
CENTER
 48
0.15
100
AcDbLine
 10
84.75936486472278
 20
92.98821124781932
 30
0.0
 11
84.75936486472273
 21
62.98821124781935
 31
0.0
  0
POINT
  5
A4B9
330
18
100
AcDbEntity
  8
本体外線
100
AcDbPoint
 10
136.7593648647227
 20
89.98821124781931
 30
0.0
  0
LINE
  5
A4BE
102
{ACAD_REACTORS
330
A760
102
}
330
18
100
AcDbEntity
  8
本体外線
100
AcDbLine
 10
32.35936486472281
 20
89.48821124781932
 30
0.0
 11
32.35936486472281
 21
67.7549030715395
 31
0.0
  0
POINT
  5
A4C1
330
18
100
AcDbEntity
  8
0
100
AcDbPoint
 10
133.1643628105779
 20
65.98821124781946
 30
0.0
  0
LINE
  5
A4C2
330
18
100
AcDbEntity
  8
0
100
AcDbLine
 10
135.7565445416953
 20
66.92514699816607
 30
0.0
 11
139.7565445416955
 21
73.85335022844206
 31
0.0
  0
LINE
  5
A4C3
330
18
100
AcDbEntity
  8
本体内線
  6
HIDDEN
 48
0.1
100
AcDbLine
 10
136.9007625422747
 20
73.06196737599077
 30
0.0
 11
135.014011196327
 21
71.97265097851365
 31
0.0
  0
LINE
  5
A4C4
330
18
100
AcDbEntity
  8
本体内線
  6
HIDDEN
 48
0.1
100
AcDbLine
 10
135.0140111963269
 20
71.97265097851342
 30
0.0
 11
135.0140111963267
 21
69.79401818355933
 31
0.0
  0
LWPOLYLINE
  5
A4C5
102
{ACAD_REACTORS
330
A760
102
}
330
18
100
AcDbEntity
  8
本体外線
100
AcDbPolyline
 90
        2
 70
     0
 43
0.0
 10
136.1393648647228
 20
65.98821124781943
 10
140.7593648647227
 20
73.99028597878765
  0
LINE
  5
A4C8
330
18
100
AcDbEntity
  8
中心線
  6
CENTER
 48
0.15
100
AcDbLine
 10
140.0920857811229
 20
69.1101052823193
 30
0.0
 11
124.763474641063
 21
77.96008305033584
 31
0.0
  0
LINE
  5
A4C9
330
18
100
AcDbEntity
  8
本体内線
  6
HIDDEN
 48
0.1
100
AcDbLine
 10
139.3927405376968
 20
71.62322320951904
 30
0.0
 11
136.9007625422746
 21
73.06196737599072
 31
0.0
  0
LINE
  5
A4CA
330
18
100
AcDbEntity
  8
本体内線
  6
HIDDEN
 48
0.1
100
AcDbLine
 10
137.5059891917487
 20
68.35527401708765
 30
0.0
 11
135.0140111963267
 21
69.79401818355933
 31
0.0
  0
LINE
  5
A4CB
330
18
100
AcDbEntity
  8
0
100
AcDbLine
 10
131.2552865320415
 20
76.45215275200712
 30
0.0
 11
133.9873373396103
 21
77.18420355957602
 31
0.0
  0
LINE
  5
A4CC
330
18
100
AcDbEntity
  8
0
100
AcDbLine
 10
129.2552865320416
 20
72.98805113686942
 30
0.0
 11
129.9873373396104
 21
70.25600032930052
 31
0.0
  0
LINE
  5
A4CD
330
18
100
AcDbEntity
  8
0
100
AcDbLine
 10
133.9873373396103
 20
77.18420355957599
 30
0.0
 11
129.9873373396104
 21
70.25600032930049
 31
0.0
  0
LINE
  5
A4CE
330
18
100
AcDbEntity
  8
0
100
AcDbLine
 10
139.7565445416955
 20
72.25335022844098
 30
0.0
 11
132.0945170165822
 21
76.67702388260341
 31
0.0
  0
LINE
  5
A4CF
330
18
100
AcDbEntity
  8
0
100
AcDbLine
 10
137.1421851877503
 20
67.72514699816614
 30
0.0
 11
129.480157662638
 21
72.14882065232794
 31
0.0
  0
LINE
  5
A4D0
330
18
100
AcDbEntity
  8
0
100
AcDbLine
 10
132.0052865320417
 20
77.75119085768347
 30
0.0
 11
128.5052865320418
 21
71.68901303119253
 31
0.0
  0
LINE
  5
A4D1
330
18
100
AcDbEntity
  8
0
100
AcDbLine
 10
132.0052865320418
 20
77.75119085768349
 30
0.0
 11
126.2593648647228
 21
81.06860027905261
 31
0.0
  0
LINE
  5
A4D2
330
18
100
AcDbEntity
  8
0
100
AcDbLine
 10
128.5052865320418
 20
71.6890130311925
 30
0.0
 11
126.2593648647228
 21
72.98569651039798
 31
0.0
  0
LWPOLYLINE
  5
A4D3
102
{ACAD_REACTORS
330
A760
102
}
330
18
100
AcDbEntity
  8
0
100
AcDbPolyline
 90
        3
 70
     0
 43
0.0
 10
139.7565445416955
 20
72.25335022844172
 10
139.7565445416955
 20
73.85335022844131
 10
126.2593648647228
 20
81.6459505482423
  0
LWPOLYLINE
  5
A4D4
102
{ACAD_REACTORS
330
A760
102
}
330
18
100
AcDbEntity
  8
0
100
AcDbPolyline
 90
        3
 70
     0
 43
0.0
 10
137.1421851877503
 20
67.72514699816614
 10
135.7565445416953
 20
66.92514699816604
 10
126.2593648647228
 20
72.40834624120833
  0
LWPOLYLINE
  5
A4DA
102
{ACAD_REACTORS
330
A760
102
}
330
18
100
AcDbEntity
  8
本体外線
100
AcDbPolyline
 90
        2
 70
     0
 43
0.0
 10
33.37936486472268
 20
65.98821124781943
 10
28.75936486472267
 20
73.99028597878765
  0
LINE
  5
A4DB
330
18
100
AcDbEntity
  8
本体外線
100
AcDbLine
 10
43.25936486472278
 20
85.98821124781935
 30
0.0
 11
126.2593648647228
 21
85.98821124781933
 31
0.0
  0
LINE
  5
A640
102
{ACAD_REACTORS
330
A760
102
}
330
18
100
AcDbEntity
  8
0
100
AcDbLine
 10
42.25936486472278
 20
87.32154458115266
 30
0.0
 11
42.25936486472273
 21
66.65487791448602
 31
0.0
  0
LINE
  5
A641
102
{ACAD_REACTORS
330
A760
102
}
330
18
100
AcDbEntity
  8
0
100
AcDbLine
 10
127.2593648647228
 20
87.32154458115266
 30
0.0
 11
127.2593648647228
 21
81.06860027905266
 31
0.0
  0
LINE
  5
A642
102
{ACAD_REACTORS
330
A760
102
}
330
18
100
AcDbEntity
  8
本体外線
100
AcDbLine
 10
41.75936486472278
 20
89.98821124781931
 30
0.0
 11
41.75936486472278
 21
87.98821124781936
 31
0.0
  0
LINE
  5
A643
102
{ACAD_REACTORS
330
A760
102
}
330
18
100
AcDbEntity
  8
本体外線
100
AcDbLine
 10
127.7593648647228
 20
89.98821124781933
 30
0.0
 11
127.7593648647228
 21
87.98821124781932
 31
0.0
  0
LINE
  5
A644
102
{ACAD_REACTORS
330
A760
102
}
330
18
100
AcDbEntity
  8
本体外線
100
AcDbLine
 10
126.2593648647228
 20
67.98821124781941
 30
0.0
 11
127.7593648647228
 21
65.98821124781941
 31
0.0
  0
LINE
  5
A645
102
{ACAD_REACTORS
330
A760
102
}
330
18
100
AcDbEntity
  8
本体外線
100
AcDbLine
 10
43.25936486472278
 20
67.98821124781937
 30
0.0
 11
41.75936486472278
 21
65.98821124781938
 31
0.0
  0
LINE
  5
A646
102
{ACAD_REACTORS
330
A760
102
}
330
18
100
AcDbEntity
  8
0
100
AcDbLine
 10
127.2593648647228
 20
71.83099597201871
 30
0.0
 11
127.2593648647228
 21
66.65487791448612
 31
0.0
  0
HATCH
  5
A760
330
18
100
AcDbEntity
  8
剖面線
100
AcDbHatch
 10
0.0
 20
0.0
 30
0.0
210
0.0
220
0.0
230
1.0
  2
ANSI31
 70
     0
 71
     1
 91
        6
 92
        7
 72
     0
 73
     1
 93
       10
 10
42.25936486472278
 20
87.32154458115271
 10
41.75936486472278
 20
87.98821124781934
 10
41.75936486472278
 20
89.98821124781931
 10
32.75936486472279
 20
89.98821124781931
 10
32.75936486472279
 20
89.48821124781932
 10
32.35936486472281
 20
89.48821124781932
 10
32.35936486472281
 20
67.75490307153946
 10
33.37936486472273
 20
65.98821124781935
 10
41.75936486472276
 20
65.98821124781935
 10
42.25936486472273
 20
66.65487791448595
 97
       10
330
A483
330
A642
330
A475
330
A477
330
A47D
330
A4BE
330
A4DA
330
A476
330
A645
330
A640
 92
        7
 72
     0
 73
     1
 93
        4
 10
42.25936486472273
 20
66.65487791448597
 10
43.25936486472278
 20
67.98821124781937
 10
43.25936486472278
 20
85.98821124781935
 10
42.25936486472277
 20
87.32154458115271
 97
        4
330
A483
330
A640
330
A645
330
A479
 92
        7
 72
     1
 73
     1
 93
       11
 10
140.7593648647227
 20
87.48821124781931
 42
0.414213562373096
 10
138.7593648647228
 20
89.48821124781932
 42
0.0
 10
136.7593648647227
 20
89.48821124781932
 42
0.0
 10
136.7593648647227
 20
89.98821124781933
 42
0.0
 10
127.7593648647228
 20
89.98821124781933
 42
0.0
 10
127.7593648647228
 20
87.98821124781932
 42
0.0
 10
127.2593648647228
 20
87.32154458115273
 42
0.0
 10
127.2593648647228
 20
81.06860027905266
 42
0.0
 10
139.7565445416955
 20
73.85335022844133
 42
0.0
 10
139.7565445416955
 20
72.25335022844189
 42
0.0
 10
140.7593648647227
 20
73.99028597878767
 42
0.0
 97
       10
330
A480
330
A47E
330
A47B
330
A475
330
A643
330
A481
330
A641
330
A4D3
330
A4C5
330
A47A
 92
        7
 72
     0
 73
     1
 93
        4
 10
127.2593648647228
 20
87.32154458115273
 10
126.2593648647228
 20
85.98821124781933
 10
126.2593648647228
 20
81.64595054824232
 10
127.2593648647228
 20
81.06860027905268
 97
        4
330
A481
330
A47C
330
A4D3
330
A641
 92
        7
 72
     0
 73
     1
 93
        4
 10
126.2593648647228
 20
67.98821124781939
 10
127.2593648647228
 20
66.65487791448611
 10
127.2593648647228
 20
71.83099597201871
 10
126.2593648647228
 20
72.40834624120832
 97
        4
330
A4D4
330
A47C
330
A644
330
A646
 92
        7
 72
     0
 73
     1
 93
        6
 10
127.2593648647228
 20
66.65487791448606
 10
127.7593648647228
 20
65.98821124781935
 10
136.1393648647227
 20
65.98821124781935
 10
137.1421851877506
 20
67.72514699816629
 10
135.7565445416953
 20
66.92514699816604
 10
127.2593648647228
 20
71.83099597201873
 97
        5
330
A646
330
A644
330
A476
330
A4C5
330
A4D4
 75
     0
 76
     1
 52
0.0
 41
0.5
 77
     0
 78
     1
 53
45.0
 43
-263.05835389496
 44
0.0
 45
-1.122532015133643
 46
1.122532015133644
 79
     0
 47
0.2599830153497058
 98
        6
 10
39.89215840150269
 20
82.09850807625196
 10
42.75527573571344
 20
75.84892348368646
 10
137.8219880293038
 20
79.63997393348188
 10
126.2995550433725
 20
82.64660639494127
 10
126.5197284130904
 20
69.37342578849177
 10
128.5012935114221
 20
69.22676070505463
  0
MTEXT
  5
A77F
330
18
100
AcDbEntity
  8
0
100
AcDbMText
 10
49.81948278949767
 20
19.37399834316262
 30
0.0
 40
5.0
 41
0.0
 71
     1
 72
     5
  1
\Ftxt.shx,bigfont.shx|c128;小柳
  7
JL
 73
     1
 44
1.0
  0
MTEXT
  5
A7B8
330
18
100
AcDbEntity
  8
DIM
100
AcDbMText
 10
9.380638421876604
 20
38.24468490736649
 30
0.0
 40
4.5
 41
0.0
 71
     1
 72
     5
  1
{\Ftxt,bigfont|c128;06.09.11セットスクリュ-長度変更  林}
  7
JL
 73
     1
 44
1.0
1001
ACAD
1000
ACAD_MTEXT_DEFINED_HEIGHT_BEGIN
1070
    46
1040
0.0
1000
ACAD_MTEXT_DEFINED_HEIGHT_END
  0
LWPOLYLINE
  5
A7B9
330
18
100
AcDbEntity
  8
DIM
100
AcDbPolyline
 90
        3
 70
     1
 43
0.0
 10
3.349161361249691
 20
33.74466659137001
 10
8.545313783956345
 20
33.74466659137001
 10
5.947237572603107
 20
38.24466659137002
  0
MTEXT
  5
A7BA
330
18
100
AcDbEntity
  8
DIM
100
AcDbMText
 10
5.682170958252964
 20
37.12744923195271
 30
0.0
 40
3.000000000000001
 41
0.0
 71
     1
 72
     5
  1
{\Ftxt,bigfont|c128;1}
  7
JL
 73
     1
 44
1.0
1001
ACAD
1000
ACAD_MTEXT_DEFINED_HEIGHT_BEGIN
1070
    46
1040
0.0
1000
ACAD_MTEXT_DEFINED_HEIGHT_END
  0
CIRCLE
  5
A7BB
330
18
100
AcDbEntity
  8
DIM
100
AcDbCircle
 10
57.73626484967988
 20
36.00227476408078
 30
0.0
 40
2.554315537620883
  0
LWPOLYLINE
  5
A7BC
330
18
100
AcDbEntity
  8
DIM
100
AcDbPolyline
 90
        3
 70
     1
 43
0.0
 10
183.4306887522386
 20
2.962059178345725
 10
188.6268411749452
 20
2.962059178345725
 10
186.028764963592
 20
7.462059178345725
  0
MTEXT
  5
A7BD
330
18
100
AcDbEntity
  8
DIM
100
AcDbMText
 10
185.7636983492418
 20
6.344841818928422
 30
0.0
 40
3.000000000000001
 41
0.0
 71
     1
 72
     5
  1
{\Ftxt,bigfont|c128;1}
  7
JL
 73
     1
 44
1.0
1001
ACAD
1000
ACAD_MTEXT_DEFINED_HEIGHT_BEGIN
1070
    46
1040
0.0
1000
ACAD_MTEXT_DEFINED_HEIGHT_END
  0
LWPOLYLINE
  5
A7BE
330
18
100
AcDbEntity
  8
DIM
100
AcDbPolyline
 90
        3
 70
     1
 43
0.0
 10
140.6397127008178
 20
265.0739569127603
 10
145.8358651235244
 20
265.0739569127603
 10
143.2377889121712
 20
269.5739569127603
  0
MTEXT
  5
A7BF
330
18
100
AcDbEntity
  8
DIM
100
AcDbMText
 10
142.972722297821
 20
268.456739553343
 30
0.0
 40
3.000000000000001
 41
0.0
 71
     1
 72
     5
  1
{\Ftxt,bigfont|c128;1}
  7
JL
 73
     1
 44
1.0
1001
ACAD
1000
ACAD_MTEXT_DEFINED_HEIGHT_BEGIN
1070
    46
1040
0.0
1000
ACAD_MTEXT_DEFINED_HEIGHT_END
  0
LINE
  5
A7C0
330
18
100
AcDbEntity
  8
0
 62
     1
100
AcDbLine
 10
58.92231060953236
 20
266.1298867547499
 30
0.0
 11
82.23199421803451
 21
266.1298867547499
 31
0.0
  0
LINE
  5
A7C1
330
18
100
AcDbEntity
  8
0
 62
     1
100
AcDbLine
 10
58.92231060953236
 20
269.1637051352249
 30
0.0
 11
82.23199421803451
 21
269.1637051352249
 31
0.0
  0
MTEXT
  5
A7C2
330
18
100
AcDbEntity
  8
0
100
AcDbMText
 10
146.864186924133
 20
270.095850257545
 30
0.0
 40
5.0
 41
0.0
 71
     1
 72
     5
  1
{\Ftxt,bigfont|c128;M8X1.25-10L}
  7
JL
 73
     1
 44
1.0
1001
ACAD
1000
ACAD_MTEXT_DEFINED_HEIGHT_BEGIN
1070
    46
1040
0.0
1000
ACAD_MTEXT_DEFINED_HEIGHT_END
  0
ENDSEC
  0
SECTION
  2
OBJECTS
  0
DICTIONARY
  5
C
330
0
100
AcDbDictionary
281
     1
  3
ACAD_COLOR
350
A783
  3
ACAD_GROUP
350
D
  3
ACAD_LAYOUT
350
5CF3
  3
ACAD_MATERIAL
350
A782
  3
ACAD_MLINESTYLE
350
1B
  3
ACAD_PLOTSETTINGS
350
5CF4
  3
ACAD_PLOTSTYLENAME
350
5CF1
  3
ACAD_TABLESTYLE
350
A784
  3
ACDBVARIABLEDICTIONARY
350
45D
  0
DICTIONARY
  5
45F
330
18
100
AcDbDictionary
280
     1
281
     1
  3
ACAD_LAYOUTSELFREF
360
5D8B
  3
ACAD_SORTENTS
360
460
  0
DICTIONARY
  5
5D89
330
15
100
AcDbDictionary
280
     1
281
     1
  3
ACAD_LAYOUTSELFREF
360
5D8A
  0
DICTIONARY
  5
A783
102
{ACAD_REACTORS
330
C
102
}
330
C
100
AcDbDictionary
281
     1
  0
DICTIONARY
  5
D
102
{ACAD_REACTORS
330
C
102
}
330
C
100
AcDbDictionary
281
     1
  0
DICTIONARY
  5
5CF3
102
{ACAD_REACTORS
330
C
102
}
330
C
100
AcDbDictionary
281
     1
  3
Model
350
5CF5
  3
配置1
350
5CF6
  0
DICTIONARY
  5
A782
102
{ACAD_REACTORS
330
C
102
}
330
C
100
AcDbDictionary
281
     1
  0
DICTIONARY
  5
1B
102
{ACAD_REACTORS
330
C
102
}
330
C
100
AcDbDictionary
281
     1
  3
STANDARD
350
1C
  0
DICTIONARY
  5
5CF4
102
{ACAD_REACTORS
330
C
102
}
330
C
100
AcDbDictionary
281
     1
  0
ACDBDICTIONARYWDFLT
  5
5CF1
102
{ACAD_REACTORS
330
C
102
}
330
C
100
AcDbDictionary
281
     1
  3
Normal
350
5CF2
100
AcDbDictionaryWithDefault
340
5CF2
  0
DICTIONARY
  5
A784
102
{ACAD_REACTORS
330
C
102
}
330
C
100
AcDbDictionary
281
     1
  3
Standard
350
A785
  0
DICTIONARY
  5
45D
102
{ACAD_REACTORS
330
C
102
}
330
C
100
AcDbDictionary
281
     1
  3
CTABLESTYLE
350
A7A1
  3
SORTENTS
350
45E
  0
XRECORD
  5
5D8B
102
{ACAD_REACTORS
330
45F
102
}
330
45F
100
AcDbXrecord
280
     1
340
18
  0
SORTENTSTABLE
  5
460
102
{ACAD_REACTORS
330
45F
102
}
330
45F
100
AcDbSortentsTable
330
18
331
C0
  5
CB
  0
XRECORD
  5
5D8A
102
{ACAD_REACTORS
330
5D89
102
}
330
5D89
100
AcDbXrecord
280
     1
340
15
  0
LAYOUT
  5
5CF5
102
{ACAD_REACTORS
330
5CF3
102
}
330
5CF3
100
AcDbPlotSettings
  1

  2
hp LaserJet 1300 PCL 6
  4
A4
  6

 40
5.027083396911621
 41
5.069413185119628
 42
5.027084350585937
 43
5.027069091796875
 44
209.9733276367187
 45
296.9683227539062
 46
2.02746888522445
 47
0.0
 48
-0.0000000000002274
 49
-0.0000000000000568
140
197.9999999999997
141
290.0
142
1.0
143
1.010904379871544
 70
 11956
 72
     1
 73
     0
 74
     4
  7
LIN.ctb
 75
     0
147
0.9892132430241023
 76
     0
 77
     2
 78
   300
148
0.0000000000002274
149
0.0000000000000568
100
AcDbLayout
  1
Model
 70
     1
 71
     0
 10
0.0
 20
0.0
 11
12.0
 21
9.0
 12
0.0
 22
0.0
 32
0.0
 14
0.0
 24
0.0
 34
0.0
 15
0.0
 25
0.0
 35
0.0
146
0.0
 13
0.0
 23
0.0
 33
0.0
 16
1.0
 26
0.0
 36
0.0
 17
0.0
 27
1.0
 37
0.0
 76
     0
330
18
1001
ACAD_PSEXT
1000
hp LaserJet 1300 PCL 6
1000
hp LaserJet 1300 PCL 6
1000
HP 1300
1000

1070
     0
  0
LAYOUT
  5
5CF6
102
{ACAD_REACTORS
330
5CF3
102
}
330
5CF3
100
AcDbPlotSettings
  1

  2
EPSON STYLUS COLOR 440
  4

  6

 40
0.0
 41
0.0
 42
0.0
 43
0.0
 44
0.0
 45
0.0
 46
0.0
 47
0.0
 48
0.0
 49
0.0
140
0.0
141
0.0
142
1.0
143
1.0
 70
   688
 72
     0
 73
     0
 74
     5
  7
LIN.ctb
 75
    16
147
1.0
 76
     0
 77
     2
 78
   300
148
0.0
149
0.0
100
AcDbLayout
  1
ｰtｸm1
 70
     1
 71
     1
 10
0.0
 20
0.0
 11
420.0
 21
297.0
 12
0.0
 22
0.0
 32
0.0
 14
1.000000000000000E+20
 24
1.000000000000000E+20
 34
1.000000000000000E+20
 15
-1.000000000000000E+20
 25
-1.000000000000000E+20
 35
-1.000000000000000E+20
146
0.0
 13
0.0
 23
0.0
 33
0.0
 16
1.0
 26
0.0
 36
0.0
 17
0.0
 27
1.0
 37
0.0
 76
     0
330
15
  0
MLINESTYLE
  5
1C
102
{ACAD_REACTORS
330
1B
102
}
330
1B
100
AcDbMlineStyle
  2
STANDARD
 70
     0
  3

 62
   256
 51
90.0
 52
90.0
 71
     2
 49
0.5
 62
   256
  6
BYLAYER
 49
-0.5
 62
   256
  6
BYLAYER
  0
ACDBPLACEHOLDER
  5
5CF2
102
{ACAD_REACTORS
330
5CF1
102
}
330
5CF1
  0
TABLESTYLE
  5
A785
102
{ACAD_REACTORS
330
A784
102
}
330
A784
100
AcDbTableStyle
  3
Standard
 70
     0
 71
     8
 40
1.5
 41
1.5
280
     0
281
     0
  7
STANDARD
140
4.5
170
     2
 62
     0
 63
     7
283
     0
274
    -2
284
     1
 64
     0
275
    -2
285
     1
 65
     0
276
    -2
286
     1
 66
     0
277
    -2
287
     1
 67
     0
278
    -2
288
     1
 68
     0
279
    -2
289
     1
 69
     0
  7
STANDARD
140
6.0
170
     5
 62
     0
 63
     7
283
     0
274
    -2
284
     1
 64
     0
275
    -2
285
     1
 65
     0
276
    -2
286
     1
 66
     0
277
    -2
287
     1
 67
     0
278
    -2
288
     1
 68
     0
279
    -2
289
     1
 69
     0
  7
STANDARD
140
4.5
170
     5
 62
     0
 63
     7
283
     0
274
    -2
284
     1
 64
     0
275
    -2
285
     1
 65
     0
276
    -2
286
     1
 66
     0
277
    -2
287
     1
 67
     0
278
    -2
288
     1
 68
     0
279
    -2
289
     1
 69
     0
  0
DICTIONARYVAR
  5
A7A1
102
{ACAD_REACTORS
330
45D
102
}
330
45D
100
DictionaryVariables
280
     0
  1
STANDARD
  0
DICTIONARYVAR
  5
45E
102
{ACAD_REACTORS
330
45D
102
}
330
45D
100
DictionaryVariables
280
     0
  1
127
  0
ENDSEC
  0
EOF
