  0
SECTION
  2
HEADER
  9
$ACADVER
  1
AC1018
  9
$ACADMAINTVER
 70
    76
  9
$DWGCODEPAGE
  3
ANSI_932
  9
$INSBASE
 10
0.0
 20
0.0
 30
0.0
  9
$EXTMIN
 10
-0.0000000000002274
 20
-0.0000000000000568
 30
0.0
  9
$EXTMAX
 10
198.6361314161737
 20
290.0
 30
4.0
  9
$LIMMIN
 10
0.0
 20
0.0
  9
$LIMMAX
 10
420.0
 20
297.0
  9
$ORTHOMODE
 70
     0
  9
$REGENMODE
 70
     1
  9
$FILLMODE
 70
     1
  9
$QTEXTMODE
 70
     0
  9
$MIRRTEXT
 70
     1
  9
$LTSCALE
 40
1.0
  9
$ATTMODE
 70
     1
  9
$TEXTSIZE
 40
2.5
  9
$TRACEWID
 40
1.0
  9
$TEXTSTYLE
  7
TXT
  9
$CLAYER
  8
DIM
  9
$CELTYPE
  6
BYLAYER
  9
$CECOLOR
 62
   256
  9
$CELTSCALE
 40
1.0
  9
$DISPSILH
 70
     0
  9
$DIMSCALE
 40
1.0
  9
$DIMASZ
 40
2.5
  9
$DIMEXO
 40
1.0
  9
$DIMDLI
 40
6.0
  9
$DIMRND
 40
0.0
  9
$DIMDLE
 40
0.0
  9
$DIMEXE
 40
1.0
  9
$DIMTP
 40
0.0
  9
$DIMTM
 40
0.0
  9
$DIMTXT
 40
3.0
  9
$DIMCEN
 40
0.0
  9
$DIMTSZ
 40
0.0
  9
$DIMTOL
 70
     0
  9
$DIMLIM
 70
     0
  9
$DIMTIH
 70
     0
  9
$DIMTOH
 70
     0
  9
$DIMSE1
 70
     0
  9
$DIMSE2
 70
     0
  9
$DIMTAD
 70
     3
  9
$DIMZIN
 70
     8
  9
$DIMBLK
  1

  9
$DIMASO
 70
     1
  9
$DIMSHO
 70
     1
  9
$DIMPOST
  1

  9
$DIMAPOST
  1

  9
$DIMALT
 70
     0
  9
$DIMALTD
 70
     2
  9
$DIMALTF
 40
25.4
  9
$DIMLFAC
 40
1.0
  9
$DIMTOFL
 70
     0
  9
$DIMTVP
 40
0.0
  9
$DIMTIX
 70
     0
  9
$DIMSOXD
 70
     0
  9
$DIMSAH
 70
     0
  9
$DIMBLK1
  1

  9
$DIMBLK2
  1

  9
$DIMSTYLE
  2
A
  9
$DIMCLRD
 70
     6
  9
$DIMCLRE
 70
     6
  9
$DIMCLRT
 70
     3
  9
$DIMTFAC
 40
1.0
  9
$DIMGAP
 40
1.0
  9
$DIMJUST
 70
     0
  9
$DIMSD1
 70
     0
  9
$DIMSD2
 70
     0
  9
$DIMTOLJ
 70
     1
  9
$DIMTZIN
 70
     0
  9
$DIMALTZ
 70
     0
  9
$DIMALTTZ
 70
     0
  9
$DIMUPT
 70
     0
  9
$DIMDEC
 70
     1
  9
$DIMTDEC
 70
     1
  9
$DIMALTU
 70
     2
  9
$DIMALTTD
 70
     2
  9
$DIMTXSTY
  7
TXT
  9
$DIMAUNIT
 70
     0
  9
$DIMADEC
 70
     0
  9
$DIMALTRND
 40
0.0
  9
$DIMAZIN
 70
     0
  9
$DIMDSEP
 70
    46
  9
$DIMATFIT
 70
     3
  9
$DIMFRAC
 70
     0
  9
$DIMLDRBLK
  1

  9
$DIMLUNIT
 70
     2
  9
$DIMLWD
 70
    -2
  9
$DIMLWE
 70
    -2
  9
$DIMTMOVE
 70
     1
  9
$LUNITS
 70
     2
  9
$LUPREC
 70
     2
  9
$SKETCHINC
 40
1.0
  9
$FILLETRAD
 40
1.5
  9
$AUNITS
 70
     0
  9
$AUPREC
 70
     2
  9
$MENU
  1
.
  9
$ELEVATION
 40
0.0
  9
$PELEVATION
 40
0.0
  9
$THICKNESS
 40
0.0
  9
$LIMCHECK
 70
     0
  9
$CHAMFERA
 40
0.0
  9
$CHAMFERB
 40
0.0
  9
$CHAMFERC
 40
1.75
  9
$CHAMFERD
 40
0.0174532925199433
  9
$SKPOLY
 70
     0
  9
$TDCREATE
 40
2451555.620234838
  9
$TDUCREATE
 40
2451555.245234838
  9
$TDUPDATE
 40
2455846.607523056
  9
$TDUUPDATE
 40
2455846.232523056
  9
$TDINDWG
 40
2.8381608449
  9
$TDUSRTIMER
 40
2.8381608449
  9
$USRTIMER
 70
     1
  9
$ANGBASE
 50
0.0
  9
$ANGDIR
 70
     0
  9
$PDMODE
 70
     0
  9
$PDSIZE
 40
0.0
  9
$PLINEWID
 40
0.0
  9
$SPLFRAME
 70
     0
  9
$SPLINETYPE
 70
     6
  9
$SPLINESEGS
 70
     8
  9
$HANDSEED
  5
ACD2
  9
$SURFTAB1
 70
     6
  9
$SURFTAB2
 70
     6
  9
$SURFTYPE
 70
     6
  9
$SURFU
 70
     6
  9
$SURFV
 70
     6
  9
$UCSBASE
  2

  9
$UCSNAME
  2

  9
$UCSORG
 10
0.0
 20
0.0
 30
0.0
  9
$UCSXDIR
 10
1.0
 20
0.0
 30
0.0
  9
$UCSYDIR
 10
0.0
 20
1.0
 30
0.0
  9
$UCSORTHOREF
  2

  9
$UCSORTHOVIEW
 70
     0
  9
$UCSORGTOP
 10
0.0
 20
0.0
 30
0.0
  9
$UCSORGBOTTOM
 10
0.0
 20
0.0
 30
0.0
  9
$UCSORGLEFT
 10
0.0
 20
0.0
 30
0.0
  9
$UCSORGRIGHT
 10
0.0
 20
0.0
 30
0.0
  9
$UCSORGFRONT
 10
0.0
 20
0.0
 30
0.0
  9
$UCSORGBACK
 10
0.0
 20
0.0
 30
0.0
  9
$PUCSBASE
  2

  9
$PUCSNAME
  2

  9
$PUCSORG
 10
0.0
 20
0.0
 30
0.0
  9
$PUCSXDIR
 10
1.0
 20
0.0
 30
0.0
  9
$PUCSYDIR
 10
0.0
 20
1.0
 30
0.0
  9
$PUCSORTHOREF
  2

  9
$PUCSORTHOVIEW
 70
     0
  9
$PUCSORGTOP
 10
0.0
 20
0.0
 30
0.0
  9
$PUCSORGBOTTOM
 10
0.0
 20
0.0
 30
0.0
  9
$PUCSORGLEFT
 10
0.0
 20
0.0
 30
0.0
  9
$PUCSORGRIGHT
 10
0.0
 20
0.0
 30
0.0
  9
$PUCSORGFRONT
 10
0.0
 20
0.0
 30
0.0
  9
$PUCSORGBACK
 10
0.0
 20
0.0
 30
0.0
  9
$USERI1
 70
     0
  9
$USERI2
 70
     0
  9
$USERI3
 70
     0
  9
$USERI4
 70
     0
  9
$USERI5
 70
     0
  9
$USERR1
 40
0.0
  9
$USERR2
 40
0.0
  9
$USERR3
 40
0.0
  9
$USERR4
 40
0.0
  9
$USERR5
 40
0.0
  9
$WORLDVIEW
 70
     1
  9
$SHADEDGE
 70
     3
  9
$SHADEDIF
 70
    70
  9
$TILEMODE
 70
     1
  9
$MAXACTVP
 70
    48
  9
$PINSBASE
 10
0.0
 20
0.0
 30
0.0
  9
$PLIMCHECK
 70
     0
  9
$PEXTMIN
 10
1.000000000000000E+20
 20
1.000000000000000E+20
 30
1.000000000000000E+20
  9
$PEXTMAX
 10
-1.000000000000000E+20
 20
-1.000000000000000E+20
 30
-1.000000000000000E+20
  9
$PLIMMIN
 10
0.0
 20
0.0
  9
$PLIMMAX
 10
420.0
 20
297.0
  9
$UNITMODE
 70
     0
  9
$VISRETAIN
 70
     1
  9
$PLINEGEN
 70
     0
  9
$PSLTSCALE
 70
     1
  9
$TREEDEPTH
 70
  3020
  9
$CMLSTYLE
  2
STANDARD
  9
$CMLJUST
 70
     0
  9
$CMLSCALE
 40
20.0
  9
$PROXYGRAPHICS
 70
     1
  9
$MEASUREMENT
 70
     1
  9
$CELWEIGHT
370
    -1
  9
$ENDCAPS
280
     0
  9
$JOINSTYLE
280
     0
  9
$LWDISPLAY
290
     0
  9
$INSUNITS
 70
     0
  9
$HYPERLINKBASE
  1

  9
$STYLESHEET
  1
LIN.ctb
  9
$XEDIT
290
     1
  9
$CEPSNTYPE
380
     0
  9
$PSTYLEMODE
290
     1
  9
$FINGERPRINTGUID
  2
{1CF51E8A-A506-11D4-A7D9-AF69F5C20846}
  9
$VERSIONGUID
  2
{0BCF148C-A639-40EA-85B7-0D934E05C2C4}
  9
$EXTNAMES
290
     1
  9
$PSVPSCALE
 40
0.0
  9
$OLESTARTUP
290
     0
  9
$SORTENTS
280
   127
  9
$INDEXCTL
280
     0
  9
$HIDETEXT
280
     0
  9
$XCLIPFRAME
290
     0
  9
$HALOGAP
280
     0
  9
$OBSCOLOR
 70
   257
  9
$OBSLTYPE
280
     0
  9
$INTERSECTIONDISPLAY
280
     0
  9
$INTERSECTIONCOLOR
 70
   257
  9
$DIMASSOC
280
     1
  9
$PROJECTNAME
  1

  0
ENDSEC
  0
SECTION
  2
CLASSES
  0
CLASS
  1
DICTIONARYVAR
  2
AcDbDictionaryVar
  3
ObjectDBX Classes
 90
        0
 91
        2
280
     0
281
     0
  0
CLASS
  1
SORTENTSTABLE
  2
AcDbSortentsTable
  3
ObjectDBX Classes
 90
        0
 91
        2
280
     0
281
     0
  0
CLASS
  1
ACDBDICTIONARYWDFLT
  2
AcDbDictionaryWithDefault
  3
ObjectDBX Classes
 90
        0
 91
        1
280
     0
281
     0
  0
CLASS
  1
TABLESTYLE
  2
AcDbTableStyle
  3
ObjectDBX Classes
 90
     2047
 91
        1
280
     0
281
     0
  0
ENDSEC
  0
SECTION
  2
TABLES
  0
TABLE
  2
VPORT
  5
8
330
0
100
AcDbSymbolTable
 70
     2
  0
VPORT
  5
ACD1
330
8
100
AcDbSymbolTableRecord
100
AcDbViewportTableRecord
  2
*Active
 70
     0
 10
0.0
 20
0.0
 11
1.0
 21
1.0
 12
285.9001010773076
 22
144.9980500381572
 13
0.0
 23
0.0
 14
10.0
 24
10.0
 15
10.0
 25
10.0
 16
0.0
 26
0.0
 36
1.0
 17
0.0
 27
0.0
 37
0.0
 40
293.3393023831964
 41
2.47104247104247
 42
50.0
 43
0.0
 44
0.0
 50
0.0
 51
0.0
 71
     0
 72
   100
 73
     1
 74
     1
 75
     0
 76
     0
 77
     0
 78
     0
281
     0
 65
     1
110
0.0
120
0.0
130
0.0
111
1.0
121
0.0
131
0.0
112
0.0
122
1.0
132
0.0
 79
     0
146
0.0
  0
ENDTAB
  0
TABLE
  2
LTYPE
  5
5
330
0
100
AcDbSymbolTable
 70
     8
  0
LTYPE
  5
12
330
5
100
AcDbSymbolTableRecord
100
AcDbLinetypeTableRecord
  2
BYBLOCK
 70
     0
  3

 72
    65
 73
     0
 40
0.0
  0
LTYPE
  5
13
330
5
100
AcDbSymbolTableRecord
100
AcDbLinetypeTableRecord
  2
BYLAYER
 70
     0
  3

 72
    65
 73
     0
 40
0.0
  0
LTYPE
  5
14
330
5
100
AcDbSymbolTableRecord
100
AcDbLinetypeTableRecord
  2
CONTINUOUS
 70
     0
  3
Solid line
 72
    65
 73
     0
 40
0.0
  0
LTYPE
  5
9D
330
5
100
AcDbSymbolTableRecord
100
AcDbLinetypeTableRecord
  2
CENTERX2
 70
     0
  3
Center (2x) ________  __  ________  __  _____
 72
    65
 73
     4
 40
101.6
 49
63.5
 74
     0
 49
-12.7
 74
     0
 49
12.7
 74
     0
 49
-12.7
 74
     0
  0
LTYPE
  5
A1
330
5
100
AcDbSymbolTableRecord
100
AcDbLinetypeTableRecord
  2
DASHED
 70
     0
  3
Dashed __ __ __ __ __ __ __ __ __ __ __ __ __ _
 72
    65
 73
     2
 40
19.05
 49
12.7
 74
     0
 49
-6.349999999999999
 74
     0
  0
LTYPE
  5
A2
330
5
100
AcDbSymbolTableRecord
100
AcDbLinetypeTableRecord
  2
DASHED2
 70
     0
  3
Dashed (.5x) _ _ _ _ _ _ _ _ _ _ _ _ _ _ _ _ _
 72
    65
 73
     2
 40
9.524999999999998
 49
6.349999999999999
 74
     0
 49
-3.174999999999999
 74
     0
  0
LTYPE
  5
A5
330
5
100
AcDbSymbolTableRecord
100
AcDbLinetypeTableRecord
  2
DIVIDE2
 70
     0
  3
Divide (.5x) __..__..__..__..__..__..__..__.._
 72
    65
 73
     6
 40
15.875
 49
6.349999999999999
 74
     0
 49
-3.174999999999999
 74
     0
 49
0.0
 74
     0
 49
-3.174999999999999
 74
     0
 49
0.0
 74
     0
 49
-3.174999999999999
 74
     0
  0
LTYPE
  5
650B
330
5
100
AcDbSymbolTableRecord
100
AcDbLinetypeTableRecord
  2
CENTER
 70
     0
  3
Center ____ _ ____ _ ____ _ ____ _ ____ _ ____
 72
    65
 73
     4
 40
50.8
 49
31.75
 74
     0
 49
-6.349999999999999
 74
     0
 49
6.349999999999999
 74
     0
 49
-6.349999999999999
 74
     0
  0
LTYPE
  5
650C
330
5
100
AcDbSymbolTableRecord
100
AcDbLinetypeTableRecord
  2
HIDDEN
 70
     0
  3
Hidden __ __ __ __ __ __ __ __ __ __ __ __ __ _
 72
    65
 73
     2
 40
9.524999999999998
 49
6.349999999999999
 74
     0
 49
-3.174999999999999
 74
     0
  0
LTYPE
  5
A075
330
5
100
AcDbSymbolTableRecord
100
AcDbLinetypeTableRecord
  2
ACAD_ISO03W100
 70
     0
  3
ISO dash space __    __    __    __    __    __
 72
    65
 73
     2
 40
30.0
 49
12.0
 74
     0
 49
-18.0
 74
     0
  0
ENDTAB
  0
TABLE
  2
LAYER
  5
2
330
0
100
AcDbSymbolTable
 70
     9
  0
LAYER
  5
E
330
2
100
AcDbSymbolTableRecord
100
AcDbLayerTableRecord
  2
0
 70
     0
 62
     7
  6
CONTINUOUS
370
    -3
390
5CF2
  0
LAYER
  5
B9
330
2
100
AcDbSymbolTableRecord
100
AcDbLayerTableRecord
  2
DIM
 70
     0
 62
     3
  6
CONTINUOUS
370
    -3
390
5CF2
  0
LAYER
  5
F2
330
2
100
AcDbSymbolTableRecord
100
AcDbLayerTableRecord
  2
DEFPOINTS
 70
     0
 62
     4
  6
CONTINUOUS
290
     0
370
    -3
390
5CF2
  0
LAYER
  5
5F8B
330
2
100
AcDbSymbolTableRecord
100
AcDbLayerTableRecord
  2
公差
 70
     0
 62
     6
  6
CONTINUOUS
370
    -3
390
5CF2
  0
LAYER
  5
644E
330
2
100
AcDbSymbolTableRecord
100
AcDbLayerTableRecord
  2
図框線
 70
     0
 62
     9
  6
CONTINUOUS
370
    -3
390
5CF2
  0
LAYER
  5
650D
330
2
100
AcDbSymbolTableRecord
100
AcDbLayerTableRecord
  2
中心線
 70
     0
 62
     1
  6
CENTER
370
    -3
390
5CF2
  0
LAYER
  5
650E
330
2
100
AcDbSymbolTableRecord
100
AcDbLayerTableRecord
  2
本体内線
 70
     0
 62
     4
  6
HIDDEN
370
    -3
390
5CF2
  0
LAYER
  5
650F
330
2
100
AcDbSymbolTableRecord
100
AcDbLayerTableRecord
  2
本体外線
 70
     0
 62
     2
  6
CONTINUOUS
370
    -3
390
5CF2
  0
LAYER
  5
6510
330
2
100
AcDbSymbolTableRecord
100
AcDbLayerTableRecord
  2
剖面線
 70
     0
 62
     5
  6
CONTINUOUS
370
    -3
390
5CF2
  0
ENDTAB
  0
TABLE
  2
STYLE
  5
3
330
0
100
AcDbSymbolTable
 70
     5
  0
STYLE
  5
F
330
3
100
AcDbSymbolTableRecord
100
AcDbTextStyleTableRecord
  2
STANDARD
 70
     0
 40
0.0
 41
1.0
 50
0.0
 71
     0
 42
2.5
  3
txt
  4

  0
STYLE
  5
BE
330
3
100
AcDbSymbolTableRecord
100
AcDbTextStyleTableRecord
  2
ISOCP3
 70
     0
 40
0.0
 41
1.0
 50
0.0
 71
     0
 42
2.5
  3
isocp3.shx
  4

  0
STYLE
  5
2A37
330
3
100
AcDbSymbolTableRecord
100
AcDbTextStyleTableRecord
  2
TXT
 70
     0
 40
0.0
 41
1.0
 50
0.0
 71
     0
 42
2.5
  3
txt.shx
  4
bigfont.shx
  0
STYLE
  5
5DCB
330
3
100
AcDbSymbolTableRecord
100
AcDbTextStyleTableRecord
  2
LKK
 70
     0
 40
50.0
 41
1.5
 50
0.0
 71
     0
 42
50.0
  3
MS PGothic.ttf
  4

1001
ACAD
1000
MS PGothic
1071
    32818
  0
STYLE
  5
5DCC
330
3
100
AcDbSymbolTableRecord
100
AcDbTextStyleTableRecord
  2
JL
 70
     0
 40
10.0
 41
0.5
 50
0.0
 71
     0
 42
5.0
  3
MS Mincho.ttf
  4

1001
ACAD
1000
MS Mincho
1071
    32785
  0
ENDTAB
  0
TABLE
  2
VIEW
  5
6
330
0
100
AcDbSymbolTable
 70
     0
  0
ENDTAB
  0
TABLE
  2
UCS
  5
7
330
0
100
AcDbSymbolTable
 70
     0
  0
ENDTAB
  0
TABLE
  2
APPID
  5
9
330
0
100
AcDbSymbolTable
 70
     3
  0
APPID
  5
10
330
9
100
AcDbSymbolTableRecord
100
AcDbRegAppTableRecord
  2
ACAD
 70
     0
  0
APPID
  5
AC71
330
9
100
AcDbSymbolTableRecord
100
AcDbRegAppTableRecord
  2
ACAD_PSEXT
 70
     0
  0
APPID
  5
ACB1
330
9
100
AcDbSymbolTableRecord
100
AcDbRegAppTableRecord
  2
ACAD_EXEMPT_FROM_CAD_STANDARDS
 70
     0
  0
ENDTAB
  0
TABLE
  2
DIMSTYLE
  5
A
330
0
100
AcDbSymbolTable
 70
     3
100
AcDbDimStyleTable
 71
     1
340
1A4
  0
DIMSTYLE
105
1D
330
A
100
AcDbSymbolTableRecord
100
AcDbDimStyleTableRecord
  2
STANDARD
 70
     0
 41
3.0
 42
0.06
 77
     3
140
4.0
144
0.3333333333333333
172
     1
340
F
  0
DIMSTYLE
105
1A4
102
{ACAD_REACTORS
330
6770
330
6C92
330
6CAA
330
6F74
330
74C6
330
750D
330
7568
330
7575
330
7AD6
330
9E42
330
9E43
330
AB03
102
}
330
A
100
AcDbSymbolTableRecord
100
AcDbDimStyleTableRecord
  2
A
 70
     0
 41
2.5
 42
1.0
 43
6.0
 44
1.0
 73
     0
 74
     0
 77
     3
 78
     8
140
3.0
141
0.0
147
1.0
176
     6
177
     6
178
     3
271
     1
272
     1
279
     1
340
2A37
  0
DIMSTYLE
105
6006
330
A
100
AcDbSymbolTableRecord
100
AcDbDimStyleTableRecord
  2
ISO-25
 70
     0
 40
0.0
 41
2.0
 42
0.3
 43
1.0
 44
0.3
 73
     0
 74
     0
 77
     1
 78
     8
140
3.0
147
1.0
172
     1
176
     6
177
     6
178
     3
271
     1
272
     2
284
     8
288
     1
289
     2
340
F
  0
ENDTAB
  0
TABLE
  2
BLOCK_RECORD
  5
1
330
0
100
AcDbSymbolTable
 70
    13
  0
BLOCK_RECORD
  5
18
102
{ACAD_XDICTIONARY
360
45F
102
}
330
1
100
AcDbSymbolTableRecord
100
AcDbBlockTableRecord
  2
*MODEL_SPACE
340
5CF5
  0
BLOCK_RECORD
  5
15
102
{ACAD_XDICTIONARY
360
5D89
102
}
330
1
100
AcDbSymbolTableRecord
100
AcDbBlockTableRecord
  2
*PAPER_SPACE
340
5CF6
  0
BLOCK_RECORD
  5
639D
330
1
100
AcDbSymbolTableRecord
100
AcDbBlockTableRecord
  2
A$C255C26A2
340
0
102
{BLKREFS
331
63A3
102
}
  0
BLOCK_RECORD
  5
67BC
330
1
100
AcDbSymbolTableRecord
100
AcDbBlockTableRecord
  2
*D1
340
0
  0
BLOCK_RECORD
  5
6C86
330
1
100
AcDbSymbolTableRecord
100
AcDbBlockTableRecord
  2
*D2
340
0
  0
BLOCK_RECORD
  5
6C9E
330
1
100
AcDbSymbolTableRecord
100
AcDbBlockTableRecord
  2
*D3
340
0
  0
BLOCK_RECORD
  5
6FE3
330
1
100
AcDbSymbolTableRecord
100
AcDbBlockTableRecord
  2
*D4
340
0
  0
BLOCK_RECORD
  5
74B6
330
1
100
AcDbSymbolTableRecord
100
AcDbBlockTableRecord
  2
*D5
340
0
  0
BLOCK_RECORD
  5
7501
330
1
100
AcDbSymbolTableRecord
100
AcDbBlockTableRecord
  2
*D6
340
0
  0
BLOCK_RECORD
  5
755C
330
1
100
AcDbSymbolTableRecord
100
AcDbBlockTableRecord
  2
*D7
340
0
  0
BLOCK_RECORD
  5
7569
330
1
100
AcDbSymbolTableRecord
100
AcDbBlockTableRecord
  2
*D8
340
0
  0
BLOCK_RECORD
  5
7AC6
330
1
100
AcDbSymbolTableRecord
100
AcDbBlockTableRecord
  2
*D9
340
0
  0
BLOCK_RECORD
  5
9E46
330
1
100
AcDbSymbolTableRecord
100
AcDbBlockTableRecord
  2
*D10
340
0
  0
BLOCK_RECORD
  5
9E54
330
1
100
AcDbSymbolTableRecord
100
AcDbBlockTableRecord
  2
*D11
340
0
  0
BLOCK_RECORD
  5
AAF5
330
1
100
AcDbSymbolTableRecord
100
AcDbBlockTableRecord
  2
*D12
340
0
  0
ENDTAB
  0
ENDSEC
  0
SECTION
  2
BLOCKS
  0
BLOCK
  5
19
330
18
100
AcDbEntity
  8
0
100
AcDbBlockBegin
  2
*MODEL_SPACE
 70
     0
 10
0.0
 20
0.0
 30
0.0
  3
*MODEL_SPACE
  1

  0
ENDBLK
  5
1A
330
18
100
AcDbEntity
  8
0
100
AcDbBlockEnd
  0
BLOCK
  5
16
330
15
100
AcDbEntity
 67
     1
  8
0
100
AcDbBlockBegin
  2
*PAPER_SPACE
 70
     0
 10
0.0
 20
0.0
 30
0.0
  3
*PAPER_SPACE
  1

  0
ENDBLK
  5
17
330
15
100
AcDbEntity
 67
     1
  8
0
100
AcDbBlockEnd
  0
BLOCK
  5
63A1
330
639D
100
AcDbEntity
  8
0
100
AcDbBlockBegin
  2
A$C255C26A2
 70
     0
 10
0.0
 20
0.0
 30
0.0
  3
A$C255C26A2
  1

  0
LWPOLYLINE
  5
639E
330
639D
100
AcDbEntity
  8
0
100
AcDbPolyline
 90
        3
 70
     1
 43
0.0
 10
7.014806023851633
 20
0.0000006939811783
 10
5.611844869720698
 20
2.430000693981241
 10
8.417767177982568
 20
2.430000693981241
  0
LWPOLYLINE
  5
639F
330
639D
100
AcDbEntity
  8
0
100
AcDbPolyline
 90
        3
 70
     1
 43
0.0
 10
4.20888371558999
 20
0.0000006939811783
 10
2.805922561459283
 20
2.430000693981241
 10
5.611844869720698
 20
2.430000693981241
  0
LWPOLYLINE
  5
63A0
330
639D
100
AcDbEntity
  8
0
100
AcDbPolyline
 90
        3
 70
     1
 43
0.0
 10
1.402961407328348
 20
0.0000006939811783
 10
0.0000002531974133
 20
2.430000693981241
 10
2.805922561459283
 20
2.430000693981241
  0
ENDBLK
  5
63A2
330
639D
100
AcDbEntity
  8
0
100
AcDbBlockEnd
  0
BLOCK
  5
AB0F
330
67BC
100
AcDbEntity
  8
0
100
AcDbBlockBegin
  2
*D1
 70
     1
 10
0.0
 20
0.0
 30
0.0
  3
*D1
  1

  0
LINE
  5
ACA7
330
67BC
100
AcDbEntity
  8
0
 62
     6
370
    -2
100
AcDbLine
 10
33.86494600370657
 20
65.76825889500423
 30
0.0
 11
33.86494600370657
 21
48.35870616158461
 31
0.0
  0
LINE
  5
ACA8
330
67BC
100
AcDbEntity
  8
0
 62
     6
370
    -2
100
AcDbLine
 10
123.8649460037061
 20
65.76825889500431
 30
0.0
 11
123.8649460037061
 21
48.35870616158461
 31
0.0
  0
LINE
  5
ACA9
330
67BC
100
AcDbEntity
  8
0
 62
     6
370
    -2
100
AcDbLine
 10
36.36494600370657
 20
49.3587061615846
 30
0.0
 11
121.3649460037061
 21
49.3587061615846
 31
0.0
  0
MTEXT
  5
ACAA
330
67BC
100
AcDbEntity
  8
0
 62
     3
100
AcDbMText
 10
78.86494600370679
 20
51.65037282825128
 30
0.0
 40
3.0
 41
0.0
 71
     5
 72
     1
  1
\A1;M90X2.0P
  7
TXT
 73
     1
 44
1.0
  0
SOLID
  5
ACAB
330
67BC
100
AcDbEntity
  8
0
 62
     6
100
AcDbTrace
 10
36.36494600370657
 20
49.77537282825127
 30
0.0
 11
36.36494600370657
 21
48.94203949491794
 31
0.0
 12
33.86494600370657
 22
49.3587061615846
 32
0.0
 13
33.86494600370657
 23
49.3587061615846
 33
0.0
  0
SOLID
  5
ACAC
330
67BC
100
AcDbEntity
  8
0
 62
     6
100
AcDbTrace
 10
121.3649460037061
 20
49.77537282825127
 30
0.0
 11
121.3649460037061
 21
48.94203949491794
 31
0.0
 12
123.8649460037061
 22
49.3587061615846
 32
0.0
 13
123.8649460037061
 23
49.3587061615846
 33
0.0
  0
POINT
  5
ACAD
330
67BC
100
AcDbEntity
  8
DEFPOINTS
 62
     0
100
AcDbPoint
 10
33.86494600370657
 20
66.76825889500422
 30
0.0
  0
POINT
  5
ACAE
330
67BC
100
AcDbEntity
  8
DEFPOINTS
 62
     0
100
AcDbPoint
 10
123.8649460037061
 20
66.76825889500431
 30
0.0
  0
POINT
  5
ACAF
330
67BC
100
AcDbEntity
  8
DEFPOINTS
 62
     0
100
AcDbPoint
 10
123.8649460037061
 20
49.3587061615846
 30
0.0
  0
ENDBLK
  5
AB19
330
67BC
100
AcDbEntity
  8
0
100
AcDbBlockEnd
  0
BLOCK
  5
AAB1
330
6C86
100
AcDbEntity
  8
0
100
AcDbBlockBegin
  2
*D2
 70
     1
 10
0.0
 20
0.0
 30
0.0
  3
*D2
  1

  0
LINE
  5
AAB2
330
6C86
100
AcDbEntity
  8
0
  6
ByBlock
 62
     6
100
AcDbLine
 10
317.4290919635995
 20
97.62898606576186
 30
0.0
 11
317.4290919635995
 21
115.8202092839174
 31
0.0
  0
LINE
  5
AAB3
330
6C86
100
AcDbEntity
  8
0
  6
ByBlock
 62
     6
100
AcDbLine
 10
425.4290919635995
 20
97.62898606576186
 30
0.0
 11
425.4290919635995
 21
115.8202092839174
 31
0.0
  0
LINE
  5
AAB4
330
6C86
100
AcDbEntity
  8
0
  6
ByBlock
 62
     6
100
AcDbLine
 10
319.9290919635995
 20
114.8202092839174
 30
0.0
 11
422.9290919635994
 21
114.8202092839174
 31
0.0
  0
SOLID
  5
AAB5
330
6C86
100
AcDbEntity
  8
0
  6
ByBlock
 62
     6
100
AcDbTrace
 10
319.9290919635995
 20
115.2368759505841
 30
0.0
 11
319.9290919635995
 21
114.4035426172507
 31
0.0
 12
317.4290919635995
 22
114.8202092839174
 32
0.0
 13
317.4290919635995
 23
114.8202092839174
 33
0.0
  0
SOLID
  5
AAB6
330
6C86
100
AcDbEntity
  8
0
  6
ByBlock
 62
     6
100
AcDbTrace
 10
422.9290919635994
 20
115.2368759505841
 30
0.0
 11
422.9290919635994
 21
114.4035426172507
 31
0.0
 12
425.4290919635995
 22
114.8202092839174
 32
0.0
 13
425.4290919635995
 23
114.8202092839174
 33
0.0
  0
MTEXT
  5
AAB7
330
6C86
100
AcDbEntity
  8
0
  6
ByBlock
 62
     3
100
AcDbMText
 10
371.4290919635995
 20
117.3202092839174
 30
0.0
 40
3.0
 41
0.0
 71
     5
 72
     1
  1
\A1;\U+2205108±0.5
  7
TXT
 73
     1
 44
1.0
  0
POINT
  5
AAB8
330
6C86
100
AcDbEntity
  8
DEFPOINTS
  6
ByBlock
 62
     0
100
AcDbPoint
 10
317.4290919635995
 20
96.62898606576186
 30
0.0
  0
POINT
  5
AAB9
330
6C86
100
AcDbEntity
  8
DEFPOINTS
  6
ByBlock
 62
     0
100
AcDbPoint
 10
425.4290919635995
 20
96.62898606576186
 30
0.0
  0
POINT
  5
AABA
330
6C86
100
AcDbEntity
  8
DEFPOINTS
  6
ByBlock
 62
     0
100
AcDbPoint
 10
425.4290919635995
 20
114.8202092839174
 30
0.0
  0
ENDBLK
  5
AABB
330
6C86
100
AcDbEntity
  8
0
100
AcDbBlockEnd
  0
BLOCK
  5
AAA6
330
6C9E
100
AcDbEntity
  8
0
100
AcDbBlockBegin
  2
*D3
 70
     1
 10
0.0
 20
0.0
 30
0.0
  3
*D3
  1

  0
LINE
  5
AAA7
330
6C9E
100
AcDbEntity
  8
0
  6
ByBlock
 62
     6
100
AcDbLine
 10
312.4290919635996
 20
95.1289860657622
 30
0.0
 11
312.4290919635996
 21
121.3276793743323
 31
0.0
  0
LINE
  5
AAA8
330
6C9E
100
AcDbEntity
  8
0
  6
ByBlock
 62
     6
100
AcDbLine
 10
430.4290919635994
 20
95.1289860657622
 30
0.0
 11
430.4290919635994
 21
121.3276793743323
 31
0.0
  0
LINE
  5
AAA9
330
6C9E
100
AcDbEntity
  8
0
  6
ByBlock
 62
     6
100
AcDbLine
 10
314.9290919635996
 20
120.3276793743323
 30
0.0
 11
427.9290919635995
 21
120.3276793743323
 31
0.0
  0
MTEXT
  5
AAAA
330
6C9E
100
AcDbEntity
  8
0
  6
ByBlock
 62
     3
100
AcDbMText
 10
367.360035835686
 20
123.6538001242176
 30
0.0
 40
3.0
 41
0.0
 71
     5
 72
     1
  1
\A1;\U+2205118
  7
TXT
 73
     1
 44
1.0
  0
SOLID
  5
AAAB
330
6C9E
100
AcDbEntity
  8
0
  6
ByBlock
 62
     6
100
AcDbTrace
 10
314.9290919635996
 20
120.744346040999
 30
0.0
 11
314.9290919635996
 21
119.9110127076657
 31
0.0
 12
312.4290919635996
 22
120.3276793743323
 32
0.0
 13
312.4290919635996
 23
120.3276793743323
 33
0.0
  0
SOLID
  5
AAAC
330
6C9E
100
AcDbEntity
  8
0
  6
ByBlock
 62
     6
100
AcDbTrace
 10
427.9290919635995
 20
120.744346040999
 30
0.0
 11
427.9290919635995
 21
119.9110127076657
 31
0.0
 12
430.4290919635994
 22
120.3276793743323
 32
0.0
 13
430.4290919635994
 23
120.3276793743323
 33
0.0
  0
POINT
  5
AAAD
330
6C9E
100
AcDbEntity
  8
DEFPOINTS
  6
ByBlock
 62
     0
100
AcDbPoint
 10
312.4290919635996
 20
94.1289860657622
 30
0.0
  0
POINT
  5
AAAE
330
6C9E
100
AcDbEntity
  8
DEFPOINTS
  6
ByBlock
 62
     0
100
AcDbPoint
 10
430.4290919635994
 20
94.1289860657622
 30
0.0
  0
POINT
  5
AAAF
330
6C9E
100
AcDbEntity
  8
DEFPOINTS
  6
ByBlock
 62
     0
100
AcDbPoint
 10
430.4290919635994
 20
120.3276793743323
 30
0.0
  0
ENDBLK
  5
AAB0
330
6C9E
100
AcDbEntity
  8
0
100
AcDbBlockEnd
  0
BLOCK
  5
916D
330
6FE3
100
AcDbEntity
  8
0
100
AcDbBlockBegin
  2
*D4
 70
     1
 10
0.0
 20
0.0
 30
0.0
  3
*D4
  1

  0
LINE
  5
916E
330
6FE3
100
AcDbEntity
  8
0
  6
ByBlock
 62
     6
100
AcDbLine
 10
128.3785872205454
 20
100.4987644138218
 30
0.0
 11
157.1448781245442
 21
83.89053861681096
 31
0.0
  0
LINE
  5
916F
330
6FE3
100
AcDbEntity
  8
0
  6
ByBlock
 62
     6
100
AcDbLine
 10
123.7585872205453
 20
92.49668968285352
 30
0.0
 11
152.5248781245441
 21
75.88846388584264
 31
0.0
  0
LINE
  5
9170
330
6FE3
100
AcDbEntity
  8
0
  6
ByBlock
 62
     6
100
AcDbLine
 10
155.0288527207598
 20
82.22547510734985
 30
0.0
 11
152.9088527207597
 21
78.55352739530373
 31
0.0
  0
LINE
  5
9171
330
6FE3
100
AcDbEntity
  8
0
  6
ByBlock
 62
     6
100
AcDbLine
 10
165.6799250957721
 20
100.6736736159645
 30
0.0
 11
156.2788527207598
 21
84.39053861681095
 31
0.0
  0
MTEXT
  5
9172
330
6FE3
100
AcDbEntity
  8
0
  6
ByBlock
 62
     3
100
AcDbMText
 10
159.9898615863111
 20
95.81819451928428
 30
0.0
 40
3.0
 41
0.0
 71
     5
 72
     1
  1
\A1;9±0.5
  7
TXT
 11
0.5000000000000011
 21
0.866025403784438
 31
0.0
 73
     1
 44
1.0
  0
SOLID
  5
9173
330
6FE3
100
AcDbEntity
  8
0
  6
ByBlock
 62
     6
100
AcDbTrace
 10
154.6680088025162
 20
82.43380844068319
 30
0.0
 11
155.3896966390033
 21
82.01714177401653
 31
0.0
 12
156.2788527207598
 22
84.39053861681095
 32
0.0
 13
156.2788527207598
 23
84.39053861681095
 33
0.0
  0
SOLID
  5
9174
330
6FE3
100
AcDbEntity
  8
0
  6
ByBlock
 62
     6
100
AcDbTrace
 10
152.5480088025162
 20
78.76186072863707
 30
0.0
 11
153.2696966390032
 21
78.3451940619704
 31
0.0
 12
151.6588527207597
 22
76.38846388584264
 32
0.0
 13
151.6588527207597
 23
76.38846388584264
 33
0.0
  0
POINT
  5
9175
330
6FE3
100
AcDbEntity
  8
DEFPOINTS
  6
ByBlock
 62
     0
100
AcDbPoint
 10
127.5125618167609
 20
100.9987644138218
 30
0.0
  0
POINT
  5
9176
330
6FE3
100
AcDbEntity
  8
DEFPOINTS
  6
ByBlock
 62
     0
100
AcDbPoint
 10
122.8925618167608
 20
92.99668968285351
 30
0.0
  0
POINT
  5
9177
330
6FE3
100
AcDbEntity
  8
DEFPOINTS
  6
ByBlock
 62
     0
100
AcDbPoint
 10
151.6588527207597
 20
76.38846388584264
 30
0.0
  0
ENDBLK
  5
9178
330
6FE3
100
AcDbEntity
  8
0
100
AcDbBlockEnd
  0
BLOCK
  5
AA77
330
74B6
100
AcDbEntity
  8
0
100
AcDbBlockBegin
  2
*D5
 70
     1
 10
0.0
 20
0.0
 30
0.0
  3
*D5
  1

  0
LINE
  5
AA78
330
74B6
100
AcDbEntity
  8
0
  6
ByBlock
 62
     6
100
AcDbLine
 10
316.4290919635996
 20
96.62898606576186
 30
0.0
 11
306.1280229075594
 21
96.62898606576186
 31
0.0
  0
LINE
  5
AA79
330
74B6
100
AcDbEntity
  8
0
  6
ByBlock
 62
     6
100
AcDbLine
 10
313.4290919635996
 20
96.12898606576187
 30
0.0
 11
306.1280229075594
 21
96.12898606576187
 31
0.0
  0
LINE
  5
AA7A
330
74B6
100
AcDbEntity
  8
0
  6
ByBlock
 62
     6
100
AcDbLine
 10
307.1280229075595
 20
99.12898606576186
 30
0.0
 11
307.1280229075595
 21
101.6289860657618
 31
0.0
  0
LINE
  5
AA7B
330
74B6
100
AcDbEntity
  8
0
  6
ByBlock
 62
     6
100
AcDbLine
 10
307.1280229075595
 20
93.62898606576186
 30
0.0
 11
307.1280229075595
 21
91.12898606576186
 31
0.0
  0
LINE
  5
AA7C
330
74B6
100
AcDbEntity
  8
0
  6
ByBlock
 62
     6
100
AcDbLine
 10
307.1280229075595
 20
113.1999418545289
 30
0.0
 11
307.1280229075595
 21
96.62898606576186
 31
0.0
  0
MTEXT
  5
AA7D
330
74B6
100
AcDbEntity
  8
0
  6
ByBlock
 62
     3
100
AcDbMText
 10
304.6280229075595
 20
109.4499418545289
 30
0.0
 40
3.0
 41
0.0
 71
     5
 72
     1
  1
\A1;0.5
  7
TXT
 11
0.0000000000000001
 21
1.0
 31
0.0
 73
     1
 44
1.0
  0
LINE
  5
AA7E
330
74B6
100
AcDbEntity
  8
0
  6
ByBlock
 62
     6
100
AcDbLine
 10
307.1280229075595
 20
96.62898606576186
 30
0.0
 11
307.1280229075595
 21
96.12898606576187
 31
0.0
  0
SOLID
  5
AA7F
330
74B6
100
AcDbEntity
  8
0
  6
ByBlock
 62
     6
100
AcDbTrace
 10
306.7113562408928
 20
99.12898606576186
 30
0.0
 11
307.5446895742262
 21
99.12898606576186
 31
0.0
 12
307.1280229075595
 22
96.62898606576186
 32
0.0
 13
307.1280229075595
 23
96.62898606576186
 33
0.0
  0
SOLID
  5
AA80
330
74B6
100
AcDbEntity
  8
0
  6
ByBlock
 62
     6
100
AcDbTrace
 10
306.7113562408928
 20
93.62898606576186
 30
0.0
 11
307.5446895742262
 21
93.62898606576186
 31
0.0
 12
307.1280229075595
 22
96.12898606576187
 32
0.0
 13
307.1280229075595
 23
96.12898606576187
 33
0.0
  0
POINT
  5
AA81
330
74B6
100
AcDbEntity
  8
DEFPOINTS
  6
ByBlock
 62
     0
100
AcDbPoint
 10
317.4290919635996
 20
96.62898606576186
 30
0.0
  0
POINT
  5
AA82
330
74B6
100
AcDbEntity
  8
DEFPOINTS
  6
ByBlock
 62
     0
100
AcDbPoint
 10
314.4290919635996
 20
96.12898606576187
 30
0.0
  0
POINT
  5
AA83
330
74B6
100
AcDbEntity
  8
DEFPOINTS
  6
ByBlock
 62
     0
100
AcDbPoint
 10
307.1280229075595
 20
96.12898606576187
 30
0.0
  0
ENDBLK
  5
AA84
330
74B6
100
AcDbEntity
  8
0
100
AcDbBlockEnd
  0
BLOCK
  5
AAC7
330
7501
100
AcDbEntity
  8
0
100
AcDbBlockBegin
  2
*D6
 70
     1
 10
0.0
 20
0.0
 30
0.0
  3
*D6
  1

  0
LINE
  5
AAC8
330
7501
100
AcDbEntity
  8
0
  6
ByBlock
 62
     6
100
AcDbLine
 10
325.9290919635997
 20
97.62898606576186
 30
0.0
 11
325.9290919635997
 21
109.9771144722888
 31
0.0
  0
LINE
  5
AAC9
330
7501
100
AcDbEntity
  8
0
  6
ByBlock
 62
     6
100
AcDbLine
 10
416.9290919635993
 20
97.62898606576186
 30
0.0
 11
416.9290919635993
 21
109.9771144722888
 31
0.0
  0
LINE
  5
AACA
330
7501
100
AcDbEntity
  8
0
  6
ByBlock
 62
     6
100
AcDbLine
 10
328.4290919635997
 20
108.9771144722888
 30
0.0
 11
414.4290919635992
 21
108.9771144722888
 31
0.0
  0
SOLID
  5
AACB
330
7501
100
AcDbEntity
  8
0
  6
ByBlock
 62
     6
100
AcDbTrace
 10
328.4290919635997
 20
109.3937811389555
 30
0.0
 11
328.4290919635997
 21
108.5604478056221
 31
0.0
 12
325.9290919635997
 22
108.9771144722888
 32
0.0
 13
325.9290919635997
 23
108.9771144722888
 33
0.0
  0
SOLID
  5
AACC
330
7501
100
AcDbEntity
  8
0
  6
ByBlock
 62
     6
100
AcDbTrace
 10
414.4290919635992
 20
109.3937811389555
 30
0.0
 11
414.4290919635992
 21
108.5604478056221
 31
0.0
 12
416.9290919635993
 22
108.9771144722888
 32
0.0
 13
416.9290919635993
 23
108.9771144722888
 33
0.0
  0
MTEXT
  5
AACD
330
7501
100
AcDbEntity
  8
0
  6
ByBlock
 62
     3
100
AcDbMText
 10
371.4290919635995
 20
111.4771144722888
 30
0.0
 40
3.0
 41
0.0
 71
     5
 72
     1
  1
\A1;\U+220591
  7
TXT
 73
     1
 44
1.0
  0
POINT
  5
AACE
330
7501
100
AcDbEntity
  8
DEFPOINTS
  6
ByBlock
 62
     0
100
AcDbPoint
 10
325.9290919635997
 20
96.62898606576185
 30
0.0
  0
POINT
  5
AACF
330
7501
100
AcDbEntity
  8
DEFPOINTS
  6
ByBlock
 62
     0
100
AcDbPoint
 10
416.9290919635993
 20
96.62898606576186
 30
0.0
  0
POINT
  5
AAD0
330
7501
100
AcDbEntity
  8
DEFPOINTS
  6
ByBlock
 62
     0
100
AcDbPoint
 10
416.9290919635993
 20
108.9771144722888
 30
0.0
  0
ENDBLK
  5
AAD1
330
7501
100
AcDbEntity
  8
0
100
AcDbBlockEnd
  0
BLOCK
  5
AAD2
330
755C
100
AcDbEntity
  8
0
100
AcDbBlockBegin
  2
*D7
 70
     1
 10
0.0
 20
0.0
 30
0.0
  3
*D7
  1

  0
LINE
  5
AAD3
330
755C
100
AcDbEntity
  8
0
  6
ByBlock
 62
     6
100
AcDbLine
 10
426.4290919635994
 20
96.62898606576186
 30
0.0
 11
446.3223678372377
 21
96.62898606576186
 31
0.0
  0
LINE
  5
AAD4
330
755C
100
AcDbEntity
  8
0
  6
ByBlock
 62
     6
100
AcDbLine
 10
429.1490919635994
 20
74.6819849554733
 30
0.0
 11
446.3223678372377
 21
74.6819849554733
 31
0.0
  0
LINE
  5
AAD5
330
755C
100
AcDbEntity
  8
0
  6
ByBlock
 62
     6
100
AcDbLine
 10
445.3223678372377
 20
94.12898606576186
 30
0.0
 11
445.3223678372377
 21
77.1819849554733
 31
0.0
  0
SOLID
  5
AAD6
330
755C
100
AcDbEntity
  8
0
  6
ByBlock
 62
     6
100
AcDbTrace
 10
444.905701170571
 20
94.12898606576186
 30
0.0
 11
445.7390345039043
 21
94.12898606576186
 31
0.0
 12
445.3223678372377
 22
96.62898606576186
 32
0.0
 13
445.3223678372377
 23
96.62898606576186
 33
0.0
  0
SOLID
  5
AAD7
330
755C
100
AcDbEntity
  8
0
  6
ByBlock
 62
     6
100
AcDbTrace
 10
444.905701170571
 20
77.1819849554733
 30
0.0
 11
445.7390345039043
 21
77.1819849554733
 31
0.0
 12
445.3223678372377
 22
74.6819849554733
 32
0.0
 13
445.3223678372377
 23
74.6819849554733
 33
0.0
  0
MTEXT
  5
AAD8
330
755C
100
AcDbEntity
  8
0
  6
ByBlock
 62
     3
100
AcDbMText
 10
442.8223678372376
 20
85.65548551061757
 30
0.0
 40
3.0
 41
0.0
 71
     5
 72
     1
  1
\A1;22
  7
TXT
 11
0.0000000000000001
 21
1.0
 31
0.0
 73
     1
 44
1.0
  0
POINT
  5
AAD9
330
755C
100
AcDbEntity
  8
DEFPOINTS
  6
ByBlock
 62
     0
100
AcDbPoint
 10
425.4290919635995
 20
96.62898606576186
 30
0.0
  0
POINT
  5
AADA
330
755C
100
AcDbEntity
  8
DEFPOINTS
  6
ByBlock
 62
     0
100
AcDbPoint
 10
428.1490919635994
 20
74.6819849554733
 30
0.0
  0
POINT
  5
AADB
330
755C
100
AcDbEntity
  8
DEFPOINTS
  6
ByBlock
 62
     0
100
AcDbPoint
 10
445.3223678372377
 20
74.6819849554733
 30
0.0
  0
ENDBLK
  5
AADC
330
755C
100
AcDbEntity
  8
0
100
AcDbBlockEnd
  0
BLOCK
  5
AADD
330
7569
100
AcDbEntity
  8
0
100
AcDbBlockBegin
  2
*D8
 70
     1
 10
0.0
 20
0.0
 30
0.0
  3
*D8
  1

  0
LINE
  5
AADE
330
7569
100
AcDbEntity
  8
0
  6
ByBlock
 62
     6
100
AcDbLine
 10
426.8160412617754
 20
70.64102260327975
 30
0.0
 11
456.4713887636258
 21
70.64102260327975
 31
0.0
  0
LINE
  5
AADF
330
7569
100
AcDbEntity
  8
0
  6
ByBlock
 62
     6
100
AcDbLine
 10
426.4290919635994
 20
96.62898606576186
 30
0.0
 11
456.4713887636258
 21
96.62898606576186
 31
0.0
  0
LINE
  5
AAE0
330
7569
100
AcDbEntity
  8
0
  6
ByBlock
 62
     6
100
AcDbLine
 10
455.4713887636259
 20
73.14102260327975
 30
0.0
 11
455.4713887636259
 21
94.12898606576186
 31
0.0
  0
SOLID
  5
AAE1
330
7569
100
AcDbEntity
  8
0
  6
ByBlock
 62
     6
100
AcDbTrace
 10
455.0547220969591
 20
73.14102260327975
 30
0.0
 11
455.8880554302925
 21
73.14102260327975
 31
0.0
 12
455.4713887636259
 22
70.64102260327975
 32
0.0
 13
455.4713887636259
 23
70.64102260327975
 33
0.0
  0
SOLID
  5
AAE2
330
7569
100
AcDbEntity
  8
0
  6
ByBlock
 62
     6
100
AcDbTrace
 10
455.0547220969591
 20
94.12898606576186
 30
0.0
 11
455.8880554302925
 21
94.12898606576186
 31
0.0
 12
455.4713887636259
 22
96.62898606576186
 32
0.0
 13
455.4713887636259
 23
96.62898606576186
 33
0.0
  0
MTEXT
  5
AAE3
330
7569
100
AcDbEntity
  8
0
  6
ByBlock
 62
     3
100
AcDbMText
 10
452.9713887636258
 20
83.63500433452079
 30
0.0
 40
3.0
 41
0.0
 71
     5
 72
     1
  1
\A1;26±0.2
  7
TXT
 11
0.0000000000000001
 21
1.0
 31
0.0
 73
     1
 44
1.0
  0
POINT
  5
AAE4
330
7569
100
AcDbEntity
  8
DEFPOINTS
  6
ByBlock
 62
     0
100
AcDbPoint
 10
425.8160412617754
 20
70.64102260327975
 30
0.0
  0
POINT
  5
AAE5
330
7569
100
AcDbEntity
  8
DEFPOINTS
  6
ByBlock
 62
     0
100
AcDbPoint
 10
425.4290919635995
 20
96.62898606576186
 30
0.0
  0
POINT
  5
AAE6
330
7569
100
AcDbEntity
  8
DEFPOINTS
  6
ByBlock
 62
     0
100
AcDbPoint
 10
455.4713887636259
 20
96.62898606576186
 30
0.0
  0
ENDBLK
  5
AAE7
330
7569
100
AcDbEntity
  8
0
100
AcDbBlockEnd
  0
BLOCK
  5
9065
330
7AC6
100
AcDbEntity
  8
0
100
AcDbBlockBegin
  2
*D9
 70
     1
 10
0.0
 20
0.0
 30
0.0
  3
*D9
  1

  0
LINE
  5
9066
330
7AC6
100
AcDbEntity
  8
0
  6
ByBlock
 62
     6
100
AcDbLine
 10
312.5311849191344
 20
112.9966896828538
 30
0.0
 11
308.7489200256147
 21
112.9966896828538
 31
0.0
  0
LINE
  5
9067
330
7AC6
100
AcDbEntity
  8
0
  6
ByBlock
 62
     6
100
AcDbLine
 10
312.5311849191344
 20
114.9966896828535
 30
0.0
 11
308.7489200256147
 21
114.9966896828535
 31
0.0
  0
LINE
  5
9068
330
7AC6
100
AcDbEntity
  8
0
  6
ByBlock
 62
     6
100
AcDbLine
 10
309.7489200256147
 20
110.4966896828538
 30
0.0
 11
309.7489200256147
 21
107.9966896828538
 31
0.0
  0
LINE
  5
9069
330
7AC6
100
AcDbEntity
  8
0
  6
ByBlock
 62
     6
100
AcDbLine
 10
309.7489200256147
 20
117.4966896828535
 30
0.0
 11
309.7489200256147
 21
119.9966896828535
 31
0.0
  0
LINE
  5
906A
330
7AC6
100
AcDbEntity
  8
0
  6
ByBlock
 62
     6
100
AcDbLine
 10
309.7489200256147
 20
124.5825033705258
 30
0.0
 11
309.7489200256147
 21
114.9966896828535
 31
0.0
  0
MTEXT
  5
906B
330
7AC6
100
AcDbEntity
  8
0
  6
ByBlock
 62
     3
100
AcDbMText
 10
307.2489200256147
 20
122.5825033705258
 30
0.0
 40
3.0
 41
0.0
 71
     5
 72
     1
  1
\A1;2
  7
TXT
 11
0.0000000000000001
 21
1.0
 31
0.0
 73
     1
 44
1.0
  0
LINE
  5
906C
330
7AC6
100
AcDbEntity
  8
0
  6
ByBlock
 62
     6
100
AcDbLine
 10
309.7489200256147
 20
112.9966896828538
 30
0.0
 11
309.7489200256147
 21
114.9966896828535
 31
0.0
  0
SOLID
  5
906D
330
7AC6
100
AcDbEntity
  8
0
  6
ByBlock
 62
     6
100
AcDbTrace
 10
309.332253358948
 20
110.4966896828538
 30
0.0
 11
310.1655866922814
 21
110.4966896828538
 31
0.0
 12
309.7489200256147
 22
112.9966896828538
 32
0.0
 13
309.7489200256147
 23
112.9966896828538
 33
0.0
  0
SOLID
  5
906E
330
7AC6
100
AcDbEntity
  8
0
  6
ByBlock
 62
     6
100
AcDbTrace
 10
309.332253358948
 20
117.4966896828535
 30
0.0
 11
310.1655866922814
 21
117.4966896828535
 31
0.0
 12
309.7489200256147
 22
114.9966896828535
 32
0.0
 13
309.7489200256147
 23
114.9966896828535
 33
0.0
  0
POINT
  5
906F
330
7AC6
100
AcDbEntity
  8
DEFPOINTS
  6
ByBlock
 62
     0
100
AcDbPoint
 10
313.5311849191344
 20
112.9966896828538
 30
0.0
  0
POINT
  5
9070
330
7AC6
100
AcDbEntity
  8
DEFPOINTS
  6
ByBlock
 62
     0
100
AcDbPoint
 10
313.5311849191344
 20
114.9966896828535
 30
0.0
  0
POINT
  5
9071
330
7AC6
100
AcDbEntity
  8
DEFPOINTS
  6
ByBlock
 62
     0
100
AcDbPoint
 10
309.7489200256147
 20
114.9966896828535
 30
0.0
  0
ENDBLK
  5
9072
330
7AC6
100
AcDbEntity
  8
0
100
AcDbBlockEnd
  0
BLOCK
  5
AA62
330
9E46
100
AcDbEntity
  8
0
100
AcDbBlockBegin
  2
*D10
 70
     1
 10
0.0
 20
0.0
 30
0.0
  3
*D10
  1

  0
LINE
  5
AA63
330
9E46
100
AcDbEntity
  8
0
  6
ByBlock
 62
     6
100
AcDbLine
 10
312.5413381368033
 20
258.3955957091179
 30
0.0
 11
312.5413381368033
 21
208.5008903465508
 31
0.0
  0
LINE
  5
AA64
330
9E46
100
AcDbEntity
  8
0
  6
ByBlock
 62
     6
100
AcDbLine
 10
316.5290919635996
 20
258.395595709118
 30
0.0
 11
316.5290919635996
 21
208.5008903465508
 31
0.0
  0
LINE
  5
AA65
330
9E46
100
AcDbEntity
  8
0
  6
ByBlock
 62
     6
100
AcDbLine
 10
310.0413381368033
 20
209.5008903465508
 30
0.0
 11
307.5413381368033
 21
209.5008903465508
 31
0.0
  0
LINE
  5
AA66
330
9E46
100
AcDbEntity
  8
0
  6
ByBlock
 62
     6
100
AcDbLine
 10
319.0290919635996
 20
209.5008903465508
 30
0.0
 11
321.5290919635996
 21
209.5008903465508
 31
0.0
  0
MTEXT
  5
AA67
330
9E46
100
AcDbEntity
  8
0
  6
ByBlock
 62
     3
100
AcDbMText
 10
321.5290919635996
 20
212.0008903465508
 30
0.0
 40
3.0
 41
0.0
 71
     5
 72
     1
  1
\A1;4
  7
TXT
 73
     1
 44
1.0
  0
LINE
  5
AA68
330
9E46
100
AcDbEntity
  8
0
  6
ByBlock
 62
     6
100
AcDbLine
 10
312.5413381368033
 20
209.5008903465508
 30
0.0
 11
316.5290919635996
 21
209.5008903465508
 31
0.0
  0
SOLID
  5
AA69
330
9E46
100
AcDbEntity
  8
0
  6
ByBlock
 62
     6
100
AcDbTrace
 10
310.0413381368033
 20
209.9175570132175
 30
0.0
 11
310.0413381368033
 21
209.0842236798842
 31
0.0
 12
312.5413381368033
 22
209.5008903465508
 32
0.0
 13
312.5413381368033
 23
209.5008903465508
 33
0.0
  0
SOLID
  5
AA6A
330
9E46
100
AcDbEntity
  8
0
  6
ByBlock
 62
     6
100
AcDbTrace
 10
319.0290919635996
 20
209.9175570132175
 30
0.0
 11
319.0290919635996
 21
209.0842236798842
 31
0.0
 12
316.5290919635996
 22
209.5008903465508
 32
0.0
 13
316.5290919635996
 23
209.5008903465508
 33
0.0
  0
POINT
  5
AA6B
330
9E46
100
AcDbEntity
  8
DEFPOINTS
  6
ByBlock
 62
     0
100
AcDbPoint
 10
312.5413381368033
 20
259.3955957091179
 30
0.0
  0
POINT
  5
AA6C
330
9E46
100
AcDbEntity
  8
DEFPOINTS
  6
ByBlock
 62
     0
100
AcDbPoint
 10
316.5290919635996
 20
259.395595709118
 30
0.0
  0
POINT
  5
AA6D
330
9E46
100
AcDbEntity
  8
DEFPOINTS
  6
ByBlock
 62
     0
100
AcDbPoint
 10
316.5290919635996
 20
209.5008903465508
 30
0.0
  0
ENDBLK
  5
AA6E
330
9E46
100
AcDbEntity
  8
0
100
AcDbBlockEnd
  0
BLOCK
  5
AA4A
330
9E54
100
AcDbEntity
  8
0
100
AcDbBlockBegin
  2
*D11
 70
     1
 10
0.0
 20
0.0
 30
0.0
  3
*D11
  1

  0
LINE
  5
AA4B
330
9E54
100
AcDbEntity
  8
0
  6
ByBlock
 62
     6
100
AcDbLine
 10
312.1033350140413
 20
259.395595709118
 30
0.0
 11
301.5801955641109
 21
259.395595709118
 31
0.0
  0
LINE
  5
AA4C
330
9E54
100
AcDbEntity
  8
0
  6
ByBlock
 62
     6
100
AcDbLine
 10
312.1033350140413
 20
269.3955957091179
 30
0.0
 11
301.5801955641109
 21
269.3955957091179
 31
0.0
  0
LINE
  5
AA4D
330
9E54
100
AcDbEntity
  8
0
  6
ByBlock
 62
     6
100
AcDbLine
 10
302.5801955641108
 20
261.895595709118
 30
0.0
 11
302.5801955641108
 21
266.8955957091179
 31
0.0
  0
MTEXT
  5
AA4E
330
9E54
100
AcDbEntity
  8
0
  6
ByBlock
 62
     3
100
AcDbMText
 10
299.2057915232551
 20
277.0964788744734
 30
0.0
 40
3.0
 41
0.0
 71
     5
 72
     1
  1
\A1;10      (3等分)
  7
TXT
 11
0.0000000000000001
 21
1.0
 31
0.0
 73
     1
 44
1.0
  0
SOLID
  5
AA4F
330
9E54
100
AcDbEntity
  8
0
  6
ByBlock
 62
     6
100
AcDbTrace
 10
302.1635288974442
 20
261.895595709118
 30
0.0
 11
302.9968622307775
 21
261.895595709118
 31
0.0
 12
302.5801955641108
 22
259.395595709118
 32
0.0
 13
302.5801955641108
 23
259.395595709118
 33
0.0
  0
SOLID
  5
AA50
330
9E54
100
AcDbEntity
  8
0
  6
ByBlock
 62
     6
100
AcDbTrace
 10
302.1635288974442
 20
266.8955957091179
 30
0.0
 11
302.9968622307775
 21
266.8955957091179
 31
0.0
 12
302.5801955641108
 22
269.3955957091179
 32
0.0
 13
302.5801955641108
 23
269.3955957091179
 33
0.0
  0
POINT
  5
AA51
330
9E54
100
AcDbEntity
  8
DEFPOINTS
  6
ByBlock
 62
     0
100
AcDbPoint
 10
313.1033350140413
 20
259.395595709118
 30
0.0
  0
POINT
  5
AA52
330
9E54
100
AcDbEntity
  8
DEFPOINTS
  6
ByBlock
 62
     0
100
AcDbPoint
 10
313.1033350140413
 20
269.3955957091179
 30
0.0
  0
POINT
  5
AA53
330
9E54
100
AcDbEntity
  8
DEFPOINTS
  6
ByBlock
 62
     0
100
AcDbPoint
 10
302.5801955641108
 20
269.3955957091179
 30
0.0
  0
ENDBLK
  5
AA54
330
9E54
100
AcDbEntity
  8
0
100
AcDbBlockEnd
  0
BLOCK
  5
AAF6
330
AAF5
100
AcDbEntity
  8
0
100
AcDbBlockBegin
  2
*D12
 70
     1
 10
0.0
 20
0.0
 30
0.0
  3
*D12
  1

  0
LINE
  5
AAF7
330
AAF5
100
AcDbEntity
  8
0
  6
ByBlock
 62
     6
100
AcDbLine
 10
430.6278382837841
 20
73.25088010026184
 30
0.0
 11
466.3721678737855
 21
52.61388178947192
 31
0.0
  0
LINE
  5
AAF8
330
AAF5
100
AcDbEntity
  8
0
  6
ByBlock
 62
     6
100
AcDbLine
 10
426.4290919635995
 20
96.62898606576185
 30
0.0
 11
478.1659795193891
 21
96.62898606576195
 31
0.0
  0
ARC
  5
AAF9
330
AAF5
100
AcDbEntity
  8
0
  6
ByBlock
 62
     6
100
AcDbCircle
 10
390.1357709668084
 20
96.62898606576192
 30
0.0
 40
87.03020855258063
100
AcDbArc
 50
331.645915555687
 51
358.3540844443133
  0
SOLID
  5
AAFA
330
AAF5
100
AcDbEntity
  8
0
  6
ByBlock
 62
     6
100
AcDbTrace
 10
467.0887160476445
 20
55.09354640310131
 30
0.0
 11
466.3611181417299
 21
55.49980461132998
 31
0.0
 12
465.5061424700011
 22
53.11388178947192
 32
0.0
 13
465.5061424700011
 23
53.11388178947192
 33
0.0
  0
SOLID
  5
AAFB
330
AAF5
100
AcDbEntity
  8
0
  6
ByBlock
 62
     6
100
AcDbTrace
 10
476.7134487597949
 20
94.13522845469946
 30
0.0
 11
477.5466961341715
 21
94.12325943056414
 31
0.0
 12
477.165979519389
 22
96.62898606576195
 32
0.0
 13
477.165979519389
 23
96.62898606576195
 33
0.0
  0
MTEXT
  5
AAFC
330
AAF5
100
AcDbEntity
  8
0
  6
ByBlock
 62
     3
100
AcDbMText
 10
471.7856825093472
 20
74.75095820586623
 30
0.0
 40
3.0
 41
0.0
 71
     5
 72
     1
  1
\A1;30°
  7
TXT
 11
0.2588190451025171
 21
0.9659258262890693
 31
0.0
 73
     1
 44
1.0
  0
POINT
  5
AAFD
330
AAF5
100
AcDbEntity
  8
DEFPOINTS
  6
ByBlock
 62
     0
100
AcDbPoint
 10
471.9174157291272
 20
66.86290166294567
 30
0.0
  0
POINT
  5
AAFE
330
AAF5
100
AcDbEntity
  8
DEFPOINTS
  6
ByBlock
 62
     0
100
AcDbPoint
 10
317.4290919635995
 20
96.62898606576186
 30
0.0
  0
POINT
  5
AAFF
330
AAF5
100
AcDbEntity
  8
DEFPOINTS
  6
ByBlock
 62
     0
100
AcDbPoint
 10
429.7618128799996
 20
73.75088010026184
 30
0.0
  0
POINT
  5
AB00
330
AAF5
100
AcDbEntity
  8
DEFPOINTS
  6
ByBlock
 62
     0
100
AcDbPoint
 10
414.1090493818187
 20
82.78800731949806
 30
0.0
  0
POINT
  5
AB01
330
AAF5
100
AcDbEntity
  8
DEFPOINTS
  6
ByBlock
 62
     0
100
AcDbPoint
 10
425.4290919635995
 20
96.62898606576185
 30
0.0
  0
ENDBLK
  5
AB02
330
AAF5
100
AcDbEntity
  8
0
100
AcDbBlockEnd
  0
ENDSEC
  0
SECTION
  2
ENTITIES
  0
MTEXT
  5
C0
330
18
100
AcDbEntity
  8
0
100
AcDbMText
 10
41.26970765600413
 20
233.6950877649332
 30
0.0
 40
2.5
 41
0.0
 71
     1
 72
     5
  1

  7
ISOCP3
 73
     1
 44
1.0
  0
MTEXT
  5
503F
330
18
100
AcDbEntity
  8
公差
100
AcDbMText
 10
79.80811923936903
 20
121.0722416368698
 30
0.0
 40
2.0
 41
11.48459459716352
 71
     1
 72
     5
  1
+0\P-0.2
  7
TXT
 73
     1
 44
1.0
  0
LINE
  5
5AD6
330
18
100
AcDbEntity
  8
DIM
100
AcDbLine
 10
162.7357246232596
 20
90.9126195092473
 30
0.0
 11
162.7357246232596
 21
107.4393459643711
 31
0.0
  0
LINE
  5
5AD7
330
18
100
AcDbEntity
  8
DIM
100
AcDbLine
 10
162.7357246232596
 20
107.4393459643711
 30
0.0
 11
174.887464749507
 21
107.4393459643711
 31
0.0
  0
LINE
  5
5ADA
330
18
100
AcDbEntity
  8
DIM
100
AcDbLine
 10
33.86494600370657
 20
48.35870616158461
 30
0.0
 11
33.86494600370657
 21
44.71793856671221
 31
0.0
  0
TOLERANCE
  5
5E6E
330
18
100
AcDbEntity
  8
DIM
  6
ByBlock
100
AcDbFcf
  3
A
 10
174.887464749507
 20
107.4902844005021
 30
0.0
  1
{\Fgdt;h}%%v0.005%%v%%vA%%v%%v
1001
ACAD
1000
DSTYLE
1002
{
1070
   140
1040
2.743999999999999
1070
   147
1040
0.6859999999999999
1002
}
  0
MTEXT
  5
608E
330
18
100
AcDbEntity
  8
0
100
AcDbMText
 10
17.81948278949767
 20
19.37399834316261
 30
0.0
 40
5.0
 41
0.0
 71
     1
 72
     5
  1
\Ftxt.shx,bigfont.shx|c128;呉銘宏
  7
JL
 73
     1
 44
1.0
  0
MTEXT
  5
6095
330
18
100
AcDbEntity
  8
0
100
AcDbMText
 10
81.23517665196368
 20
29.2278230533891
 30
0.0
 40
4.5
 41
0.0
 71
     1
 72
     5
  1
\Ftxt.shx,bigfont.shx|c128;1 : 1
  7
JL
 73
     1
 44
1.0
  0
MTEXT
  5
6098
330
18
100
AcDbEntity
  8
0
 48
2.0
370
    25
100
AcDbMText
 10
146.1234268906314
 20
3.636969934829039
 30
0.0
 40
4.5
 41
0.0
 71
     5
 72
     1
  1
\Ftxt.shx,bigfont.shx|c128;N L 4 0 0 1 5
 73
     1
 44
1.0
  0
MTEXT
  5
609C
330
18
100
AcDbEntity
  8
0
 48
2.0
100
AcDbMText
 10
178.1300746997774
 20
22.17550270047843
 30
0.0
 40
4.5
 41
0.0
 71
     5
 72
     1
  1
\P\Ftxt.shx,bigfont.shx|c128;    MF90X2.0P
 73
     1
 44
1.0
  0
MTEXT
  5
635A
330
18
100
AcDbEntity
  8
0
100
AcDbMText
 10
16.02348109109539
 20
28.64592585511957
 30
0.0
 40
4.5
 41
0.0
 71
     1
 72
     5
  1
\Ftxt.shx,bigfont.shx|c128;05.03.03
  7
JL
 73
     1
 44
1.0
  0
INSERT
  5
63A3
330
18
100
AcDbEntity
  8
0
100
AcDbBlockReference
  2
A$C255C26A2
 10
99.75156292758761
 20
90.9013430513584
 30
0.0
  0
MTEXT
  5
63A4
330
18
100
AcDbEntity
  8
0
 62
     7
 48
2.0
100
AcDbMText
 10
103.8453656764438
 20
95.79689401837702
 30
0.0
 40
3.0
 41
0.0
 71
     5
 72
     1
  1
G
 73
     1
 44
1.0
  0
LEADER
  5
63CA
330
18
100
AcDbEntity
  8
DIM
 62
     6
100
AcDbLeader
  3
A
 76
     2
 10
124.6092545729827
 20
77.17777657064776
 30
0.0
 10
146.5259232256468
 20
114.7158092144844
 30
0.0
  0
LEADER
  5
63CB
330
18
100
AcDbEntity
  8
DIM
 62
     6
100
AcDbLeader
  3
A
 76
     2
 10
135.4134278232331
 20
68.95434263505098
 30
0.0
 10
146.6076902003749
 20
45.98523212614502
 30
0.0
  0
MTEXT
  5
63CC
330
18
100
AcDbEntity
  8
DIM
100
AcDbMText
 10
145.5443733656641
 20
120.378720142277
 30
0.0
 40
5.0
 41
1.0
 71
     1
 72
     5
  1
\Ftxt.shx,bigfont.shx|c128;3
 73
     1
 44
1.0
  0
MTEXT
  5
63CE
330
18
100
AcDbEntity
  8
DIM
100
AcDbMText
 10
145.6676060991987
 20
44.75738344735112
 30
0.0
 40
5.0
 41
1.0
 71
     1
 72
     5
  1
\Ftxt.shx,bigfont.shx|c128;2
 73
     1
 44
1.0
  0
LINE
  5
63CF
330
18
100
AcDbEntity
  8
DIM
100
AcDbLine
 10
33.86494600370657
 20
44.71793856671221
 30
0.0
 11
34.77740435193215
 21
43.74006447098715
 31
0.0
  0
HATCH
  5
63D0
330
18
100
AcDbEntity
  8
DIM
  6
Continuous
100
AcDbHatch
 10
0.0
 20
0.0
 30
0.0
210
0.0
220
0.0
230
1.0
  2
SOLID
 70
     1
 71
     0
 91
        1
 92
        7
 72
     0
 73
     1
 93
        3
 10
33.86382188925399
 20
42.73425017173171
 10
34.78255397785404
 20
43.71905796697544
 10
33.86382188925399
 20
44.70386576221916
 97
        0
 75
     0
 76
     1
 47
0.2359147607200769
 98
        1
 10
34.15163788548478
 20
43.93053397266696
450
        0
451
        0
460
0.0
461
0.0
452
        0
462
0.0
453
        0
470

  0
LINE
  5
63D1
330
18
100
AcDbEntity
  8
DIM
100
AcDbLine
 10
39.52449715862821
 20
41.92641066682763
 30
0.0
 11
39.52449715862821
 21
45.57270945684878
 31
0.0
  0
LINE
  5
63D2
330
18
100
AcDbEntity
  8
DIM
100
AcDbLine
 10
39.52449715862821
 20
45.57270945684878
 30
0.0
 11
43.33313240413889
 21
45.57270945684878
 31
0.0
  0
LINE
  5
63D3
330
18
100
AcDbEntity
  8
DIM
100
AcDbLine
 10
43.33313240413889
 20
41.92641066682763
 30
0.0
 11
43.33313240413889
 21
45.57270945684878
 31
0.0
  0
LINE
  5
63D4
330
18
100
AcDbEntity
  8
DIM
100
AcDbLine
 10
39.52449715862821
 20
41.92641066682763
 30
0.0
 11
43.33313240413889
 21
41.92641066682763
 31
0.0
  0
LINE
  5
63D5
330
18
100
AcDbEntity
  8
DIM
100
AcDbLine
 10
39.52449715862821
 20
43.74956006183821
 30
0.0
 11
34.76370332290514
 21
43.74956006183821
 31
0.0
  0
MTEXT
  5
63D6
330
18
100
AcDbEntity
  8
DIM
100
AcDbMText
 10
40.48173488106783
 20
45.24137774107525
 30
0.0
 40
3.0
 41
2.354875985554478
 71
     1
 72
     5
  1
A
  7
ISOCP3
 73
     1
 44
1.0
  0
LINE
  5
64AF
330
18
100
AcDbEntity
  8
図框線
100
AcDbLine
 10
197.9999999999997
 20
289.9999999999999
 30
0.0
 11
197.9999999999997
 21
-0.0000000000000568
 31
0.0
  0
LINE
  5
64B0
330
18
100
AcDbEntity
  8
図框線
370
    30
100
AcDbLine
 10
-0.0000000000002274
 20
0.0
 30
0.0
 11
-0.0000000000002274
 21
290.0
 31
0.0
  0
LINE
  5
64B1
330
18
100
AcDbEntity
  8
0
 62
     7
 48
5.0
100
AcDbLine
 39
4.0
 10
49.94750515634314
 20
27.8953239783782
 30
0.0
 11
55.27930887205229
 21
29.22827490730549
 31
0.0
  0
MTEXT
  5
64B2
330
18
100
AcDbEntity
  8
0
100
AcDbMText
 10
15.97866977158742
 20
9.63134010478825
 30
0.0
 40
6.0
 41
0.0
 71
     1
 72
     5
  1
\Ftxt.shx,bigfont.shx|c128;日機株式会社
  7
LKK
 73
     1
 44
1.0
  0
LINE
  5
64B3
330
18
100
AcDbEntity
  8
図框線
100
AcDbLine
 10
0.0
 20
0.0
 30
0.0
 11
197.9999999999997
 21
0.0
 31
0.0
  0
LINE
  5
64B7
330
18
100
AcDbEntity
  8
図框線
100
AcDbLine
 10
0.0
 20
12.0
 30
0.0
 11
197.9999999999997
 21
12.00000000000005
 31
0.0
  0
LINE
  5
64B8
330
18
100
AcDbEntity
  8
図框線
100
AcDbLine
 10
0.0
 20
22.0
 30
0.0
 11
96.0
 21
22.0
 31
0.0
  0
LINE
  5
64B9
330
18
100
AcDbEntity
  8
図框線
100
AcDbLine
 10
0.0
 20
32.0
 30
0.0
 11
197.9999999999997
 21
32.0
 31
0.0
  0
LINE
  5
64BA
330
18
100
AcDbEntity
  8
図框線
100
AcDbLine
 10
12.0
 20
32.0
 30
0.0
 11
12.0
 21
12.0
 31
0.0
  0
LINE
  5
64BB
330
18
100
AcDbEntity
  8
図框線
100
AcDbLine
 10
32.0
 20
32.0
 30
0.0
 11
32.0
 21
12.0
 31
0.0
  0
MTEXT
  5
64BC
330
18
100
AcDbEntity
  8
0
100
AcDbMText
 10
2.949444248820782
 20
29.04715033351227
 30
0.0
 40
4.5
 41
0.0
 71
     1
 72
     5
  1
\Ftxt.shx,bigfont.shx|c128;日 付
  7
JL
 73
     1
 44
1.0
  0
MTEXT
  5
64BD
330
18
100
AcDbEntity
  8
0
100
AcDbMText
 10
3.095712364910014
 20
19.83833899470915
 30
0.0
 40
4.5
 41
0.0
 71
     1
 72
     5
  1
\Ftxt.shx,bigfont.shx|c128;製 図
  7
JL
 73
     1
 44
1.0
  0
LINE
  5
64C0
330
18
100
AcDbEntity
  8
0
 62
     7
370
    25
100
AcDbLine
 10
55.27930887205229
 20
23.89647119159633
 30
0.0
 11
55.27930887205229
 21
29.22827490730549
 31
0.0
  0
MTEXT
  5
64C1
330
18
100
AcDbEntity
  8
0
100
AcDbMText
 10
66.70254067332553
 20
29.42231870267847
 30
0.0
 40
4.5
 41
0.0
 71
     1
 72
     5
  1
\Ftxt.shx,bigfont.shx|c128;尺 度
  7
JL
 73
     1
 44
1.0
  0
LINE
  5
64C2
330
18
100
AcDbEntity
  8
図框線
100
AcDbLine
 10
64.0
 20
32.0
 30
0.0
 11
64.0
 21
12.0
 31
0.0
  0
LINE
  5
64C3
330
18
100
AcDbEntity
  8
0
 62
     7
370
    25
100
AcDbLine
 10
41.2833241183157
 20
23.23894871736115
 30
0.0
 11
41.2833241183157
 21
29.67466750005656
 31
0.0
  0
CIRCLE
  5
64C4
330
18
100
AcDbEntity
  8
0
 62
     7
100
AcDbCircle
 10
41.2833241183157
 20
26.5623730494508
 30
0.0
 40
2.665901857854641
  0
LINE
  5
64C6
330
18
100
AcDbEntity
  8
0
 62
     7
370
    25
100
AcDbLine
 10
49.18030281106076
 20
26.56237304945091
 30
0.0
 11
55.75797321903156
 21
26.56237304945091
 31
0.0
  0
LINE
  5
64C7
330
18
100
AcDbEntity
  8
0
 62
     7
100
AcDbLine
 10
49.94750515634314
 20
25.22942212052362
 30
0.0
 11
55.27930887205229
 21
23.89647119159633
 31
0.0
  0
LINE
  5
64C8
330
18
100
AcDbEntity
  8
図框線
100
AcDbLine
 10
44.0
 20
21.99999999999989
 30
0.0
 11
44.0
 21
12.0
 31
0.0
  0
LINE
  5
64C9
330
18
100
AcDbEntity
  8
0
 62
     7
370
    25
100
AcDbLine
 10
37.95172532843935
 20
26.5623730494508
 30
0.0
 11
44.81391594676916
 21
26.56237304945091
 31
0.0
  0
CIRCLE
  5
64CA
330
18
100
AcDbEntity
  8
0
 62
     7
100
AcDbCircle
 10
41.2833241183157
 20
26.5623730494508
 30
0.0
 40
1.33295092892732
  0
MTEXT
  5
64CB
330
18
100
AcDbEntity
  8
0
100
AcDbMText
 10
35.12086518039769
 20
19.39982343168049
 30
0.0
 40
4.5
 41
0.0
 71
     1
 72
     5
  1
\Ftxt.shx,bigfont.shx|c128;検 図
  7
JL
 73
     1
 44
1.0
  0
LINE
  5
64CC
330
18
100
AcDbEntity
  8
0
 62
     7
370
    25
100
AcDbLine
 10
49.94750515634314
 20
25.22942212052362
 30
0.0
 11
49.94750515634314
 21
27.8953239783782
 31
0.0
  0
MTEXT
  5
64CD
330
18
100
AcDbEntity
  8
0
100
AcDbMText
 10
66.99507418337498
 20
19.62882052001464
 30
0.0
 40
4.5
 41
0.0
 71
     1
 72
     5
  1
\Ftxt.shx,bigfont.shx|c128;承 認
  7
JL
 73
     1
 44
1.0
  0
LINE
  5
64CE
330
18
100
AcDbEntity
  8
図框線
100
AcDbLine
 10
135.4848583349512
 20
231.5666682905289
 30
0.0
 11
195.4848583349512
 21
231.5666682905288
 31
0.0
  0
LINE
  5
64CF
330
18
100
AcDbEntity
  8
図框線
100
AcDbLine
 10
135.4848583349512
 20
238.766668290529
 30
0.0
 11
195.4848583349512
 21
238.766668290529
 31
0.0
  0
LINE
  5
64D0
330
18
100
AcDbEntity
  8
図框線
100
AcDbLine
 10
135.4848583349512
 20
245.9666682905289
 30
0.0
 11
195.4848583349512
 21
245.9666682905288
 31
0.0
  0
LINE
  5
64D1
330
18
100
AcDbEntity
  8
図框線
100
AcDbLine
 10
135.4848583349512
 20
253.166668290529
 30
0.0
 11
195.4848583349512
 21
253.1666682905288
 31
0.0
  0
LINE
  5
64D2
330
18
100
AcDbEntity
  8
図框線
100
AcDbLine
 10
135.4848583349512
 20
224.3666682905289
 30
0.0
 11
195.4848583349512
 21
224.3666682905289
 31
0.0
  0
MTEXT
  5
64D3
330
18
100
AcDbEntity
  8
0
 62
     7
 48
2.0
100
AcDbMText
 10
165.3702583008225
 20
253.9598367011131
 30
0.0
 40
4.8
 41
0.0
 71
     5
 72
     1
  1
\P\Ftxt.shx,bigfont.shx|c128;諸　　　　元
 73
     1
 44
1.0
  0
LINE
  5
64D5
330
18
100
AcDbEntity
  8
図框線
100
AcDbLine
 10
135.4848583349512
 20
253.1666682905288
 30
0.0
 11
135.4848583349512
 21
224.3666682905289
 31
0.0
  0
MTEXT
  5
64D6
330
18
100
AcDbEntity
  8
0
100
AcDbMText
 10
139.0072941486314
 20
244.4401591234081
 30
0.0
 40
4.4
 41
163.916286842249
 71
     1
 72
     5
  1
\Ftxt.shx,bigfont.shx|c128;熱　処　理
  7
JL
 73
     1
 44
1.0
  0
LINE
  5
64D7
330
18
100
AcDbEntity
  8
図框線
100
AcDbLine
 10
159.4848583349512
 20
245.9666682905288
 30
0.0
 11
159.4848583349512
 21
224.3666682905289
 31
0.0
  0
MTEXT
  5
64D8
330
18
100
AcDbEntity
  8
0
100
AcDbMText
 10
97.65702556263818
 20
11.15332144655735
 30
0.0
 40
5.0
 41
0.0
 71
     1
 72
     5
  1
\Ftxt.shx,bigfont.shx|c128;図  面  番  号
  7
JL
 73
     1
 44
1.0
  0
MTEXT
  5
64D9
330
18
100
AcDbEntity
  8
0
 62
     7
 48
2.0
100
AcDbMText
 10
121.8260850653862
 20
22.29156825453561
 30
0.0
 40
4.5
 41
0.0
 71
     5
 72
     1
  1
\P\Ftxt.shx,bigfont.shx|c128;    精密ロックナット
 73
     1
 44
1.0
  0
MTEXT
  5
64DA
330
18
100
AcDbEntity
  8
0
370
    25
100
AcDbMText
 10
98.8002923053598
 20
29.80688815403971
 30
0.0
 40
5.0
 41
0.0
 71
     1
 72
     5
  1
\Ftxt.shx,bigfont.shx|c128;品  名
  7
JL
 73
     1
 44
1.0
  0
LINE
  5
64DB
330
18
100
AcDbEntity
  8
図框線
100
AcDbLine
 10
96.0
 20
32.0
 30
0.0
 11
96.0
 21
0.19104161092514
 31
0.0
  0
LINE
  5
64DC
330
18
100
AcDbEntity
  8
図框線
100
AcDbLine
 10
76.0
 20
32.0
 30
0.0
 11
76.0
 21
12.0
 31
0.0
  0
LINE
  5
64DE
330
18
100
AcDbEntity
  8
図框線
100
AcDbLine
 10
153.2235601908683
 20
32.0
 30
0.0
 11
153.2235601908683
 21
12.0
 31
0.0
  0
MTEXT
  5
64DF
330
18
100
AcDbEntity
  8
0
100
AcDbMText
 10
138.7270197812522
 20
237.437930676148
 30
0.0
 40
4.4
 41
163.6058628849672
 71
     1
 72
     5
  1
\Ftxt.shx,bigfont.shx|c128;表 面 処 理
  7
JL
 73
     1
 44
1.0
  0
MTEXT
  5
64E0
330
18
100
AcDbEntity
  8
0
100
AcDbMText
 10
139.0170856296872
 20
230.1494578225401
 30
0.0
 40
4.4
 41
166.1718
 71
     1
 72
     5
  1
\Ftxt.shx,bigfont.shx|c128;等     　級
  7
JL
 73
     1
 44
1.0
  0
LINE
  5
64E1
330
18
100
AcDbEntity
  8
図框線
100
AcDbLine
 10
195.4848583349512
 20
253.1666682905288
 30
0.0
 11
195.4848583349512
 21
224.366668290529
 31
0.0
  0
MTEXT
  5
64E2
330
18
100
AcDbEntity
  8
0
100
AcDbMText
 10
164.2318616443938
 20
244.2652012159984
 30
0.0
 40
4.4
 41
291.8960056857887
 71
     1
 72
     5
  1
\Ftxt.shx,bigfont.shx|c128;調質　HRC30%%d%%p２%%d
  7
JL
 73
     1
 44
1.0
  0
MTEXT
  5
64E4
330
18
100
AcDbEntity
  8
0
370
    25
100
AcDbMText
 10
157.2494735287423
 20
29.58569764093568
 30
0.0
 40
5.0
 41
0.0
 71
     1
 72
     5
  1
\Ftxt.shx,bigfont.shx|c128;型  番
  7
JL
 73
     1
 44
1.0
  0
MTEXT
  5
64E5
330
18
100
AcDbEntity
  8
0
100
AcDbMText
 10
172.787265122339
 20
11.23700203391422
 30
0.0
 40
5.0
 41
0.0
 71
     1
 72
     5
  1
\Ftxt.shx,bigfont.shx|c128;変更
  7
JL
 73
     1
 44
1.0
  0
LINE
  5
64E6
330
18
100
AcDbEntity
  8
図框線
100
AcDbLine
 10
171.0
 20
12.00907027842731
 30
0.0
 11
171.0
 21
0.0
 31
0.0
  0
MTEXT
  5
64E7
330
18
100
AcDbEntity
  8
0
100
AcDbMText
 10
164.4925006458302
 20
230.1500683939912
 30
0.0
 40
4.4
 41
290.783364796891
 71
     1
 72
     5
  1
\Ftxt.shx,bigfont.shx|c128;ＩＳＯ - ４Ｈ
  7
JL
 73
     1
 44
1.0
  0
MTEXT
  5
64E8
330
18
100
AcDbEntity
  8
0
100
AcDbMText
 10
164.6669618439605
 20
237.0850377391931
 30
0.0
 40
4.4
 41
291.4548
 71
     1
 72
     5
  1
\Ftxt.shx,bigfont.shx|c128;黒  　    染
  7
JL
 73
     1
 44
1.0
  0
MTEXT
  5
64EA
330
18
100
AcDbEntity
  8
0
100
AcDbMText
 10
60.06318600759005
 20
270.095850257545
 30
0.0
 40
5.0
 41
0.0
 71
     1
 72
     5
  1
\Ftxt.shx,bigfont.shx|c128;M8X1.25-8L
  7
JL
 73
     1
 44
1.0
  0
MTEXT
  5
64EB
330
18
100
AcDbEntity
  8
0
100
AcDbMText
 10
60.06318600759005
 20
262.095850257545
 30
0.0
 40
5.0
 41
0.0
 71
     1
 72
     5
  1
\Ftxt.shx,bigfont.shx|c128;%%c7X7L
  7
JL
 73
     1
 44
1.0
  0
LINE
  5
64EC
330
18
100
AcDbEntity
  8
図框線
100
AcDbLine
 10
-0.0000000000002274
 20
263.9999999999999
 30
0.0
 11
197.9999999999997
 21
263.9999999999999
 31
0.0
  0
LINE
  5
64ED
330
18
100
AcDbEntity
  8
図框線
100
AcDbLine
 10
-0.0000000000002274
 20
271.9999999999999
 30
0.0
 11
197.9999999999997
 21
271.9999999999999
 31
0.0
  0
LINE
  5
64EE
330
18
100
AcDbEntity
  8
図框線
 62
     9
100
AcDbLine
 10
-0.0000000000002274
 20
279.9999999999999
 30
0.0
 11
197.9999999999997
 21
279.9999999999999
 31
0.0
  0
LINE
  5
64EF
330
18
100
AcDbEntity
  8
図框線
100
AcDbLine
 10
-0.0000000000002274
 20
290.0
 30
0.0
 11
197.9999999999997
 21
290.0
 31
0.0
  0
MTEXT
  5
64F0
330
18
100
AcDbEntity
  8
0
100
AcDbMText
 10
59.41630259681733
 20
287.3155952051104
 30
0.0
 40
5.0
 41
0.0
 71
     1
 72
     5
  1
\Ftxt.shx,bigfont.shx|c128;図    番 / 規　　格
  7
JL
 73
     1
 44
1.0
  0
LINE
  5
64F1
330
18
100
AcDbEntity
  8
図框線
100
AcDbLine
 10
-0.0000000000002274
 20
263.9999999999999
 30
0.0
 11
197.9999999999997
 21
263.9999999999999
 31
0.0
  0
LINE
  5
64F2
330
18
100
AcDbEntity
  8
図框線
100
AcDbLine
 10
-0.0000000000002274
 20
255.9999999999999
 30
0.0
 11
197.9999999999997
 21
255.9999999999999
 31
0.0
  0
MTEXT
  5
64F3
330
18
100
AcDbEntity
  8
0
100
AcDbMText
 10
22.01434914141237
 20
286.7888025819827
 30
0.0
 40
5.0
 41
0.0
 71
     1
 72
     5
  1
\Ftxt.shx,bigfont.shx|c128;品　          名
  7
JL
 73
     1
 44
1.0
  0
MTEXT
  5
64F4
330
18
100
AcDbEntity
  8
0
100
AcDbMText
 10
18.8650376130422
 20
270.5298549795346
 30
0.0
 40
6.0
 41
0.0
 71
     1
 72
     5
  1
\Ftxt.shx,bigfont.shx|c128;セットスクリュ-
  7
JL
 73
     1
 44
1.0
  0
MTEXT
  5
64F5
330
18
100
AcDbEntity
  8
0
100
AcDbMText
 10
18.66941459004738
 20
278.3660650505403
 30
0.0
 40
6.0
 41
0.0
 71
     1
 72
     5
  1
\Ftxt.shx,bigfont.shx|c128;ロックナット　  
  7
JL
 73
     1
 44
1.0
  0
MTEXT
  5
64F6
330
18
100
AcDbEntity
  8
0
100
AcDbMText
 10
18.8650376130422
 20
262.5298549795346
 30
0.0
 40
6.0
 41
0.0
 71
     1
 72
     5
  1
\Ftxt.shx,bigfont.shx|c128;ロックピン 
  7
JL
 73
     1
 44
1.0
  0
LINE
  5
64F7
330
18
100
AcDbEntity
  8
図框線
100
AcDbLine
 10
14.99999999999977
 20
289.9999999999998
 30
0.0
 11
15.00000000000011
 21
255.9999999999999
 31
0.0
  0
LINE
  5
64F8
330
18
100
AcDbEntity
  8
0
100
AcDbLine
 10
14.99999999999977
 20
289.9999999999998
 30
0.0
 11
14.99999999999977
 21
263.9999999999999
 31
0.0
  0
MTEXT
  5
64F9
330
18
100
AcDbEntity
  8
0
100
AcDbMText
 10
6.215289087390488
 20
262.7436409356394
 30
0.0
 40
5.0
 41
0.0
 71
     1
 72
     5
  1
\Ftxt.shx,bigfont.shx|c128;3
  7
JL
 73
     1
 44
1.0
  0
MTEXT
  5
64FA
330
18
100
AcDbEntity
  8
0
100
AcDbMText
 10
7.101957026666809
 20
278.5798510066454
 30
0.0
 40
5.0
 41
0.0
 71
     1
 72
     5
  1
\Ftxt.shx,bigfont.shx|c128;1
  7
JL
 73
     1
 44
1.0
  0
MTEXT
  5
64FB
330
18
100
AcDbEntity
  8
0
100
AcDbMText
 10
6.215289087390488
 20
270.7436409356394
 30
0.0
 40
5.0
 41
0.0
 71
     1
 72
     5
  1
\Ftxt.shx,bigfont.shx|c128;2
  7
JL
 73
     1
 44
1.0
  0
MTEXT
  5
64FC
330
18
100
AcDbEntity
  8
0
100
AcDbMText
 10
2.209083991842362
 20
287.0885254164057
 30
0.0
 40
5.0
 41
0.0
 71
     1
 72
     5
  1
\Ftxt.shx,bigfont.shx|c128;照   号
  7
JL
 73
     1
 44
1.0
  0
LINE
  5
64FD
330
18
100
AcDbEntity
  8
図框線
 62
     9
100
AcDbLine
 10
54.99999999999977
 20
289.9999999999998
 30
0.0
 11
54.99999999999977
 21
256.0
 31
0.0
  0
MTEXT
  5
64FE
330
18
100
AcDbEntity
  8
0
100
AcDbMText
 10
146.3353765925378
 20
287.5804049742369
 30
0.0
 40
5.0
 41
0.0
 71
     1
 72
     5
  1
\Ftxt.shx,bigfont.shx|c128;備           考
  7
JL
 73
     1
 44
1.0
  0
LINE
  5
64FF
330
18
100
AcDbEntity
  8
図框線
 62
     9
100
AcDbLine
 10
94.99999999999976
 20
289.9999999999999
 30
0.0
 11
94.99999999999976
 21
255.9999999999999
 31
0.0
  0
MTEXT
  5
6500
330
18
100
AcDbEntity
  8
0
100
AcDbMText
 10
96.78387029776377
 20
262.3660650505403
 30
0.0
 40
5.0
 41
0.0
 71
     1
 72
     5
  1
\Ftxt.shx,bigfont.shx|c128;C3604
  7
JL
 73
     1
 44
1.0
  0
MTEXT
  5
6501
330
18
100
AcDbEntity
  8
0
100
AcDbMText
 10
96.78387029776377
 20
278.3660650505403
 30
0.0
 40
5.0
 41
0.0
 71
     1
 72
     5
  1
\Ftxt.shx,bigfont.shx|c128;SCM-440
  7
JL
 73
     1
 44
1.0
  0
MTEXT
  5
6502
330
18
100
AcDbEntity
  8
0
100
AcDbMText
 10
96.78387029776377
 20
270.3660650505403
 30
0.0
 40
5.0
 41
0.0
 71
     1
 72
     5
  1
\Ftxt.shx,bigfont.shx|c128;SCM435
  7
JL
 73
     1
 44
1.0
  0
MTEXT
  5
6503
330
18
100
AcDbEntity
  8
0
100
AcDbMText
 10
99.80032499445407
 20
287.5804049742369
 30
0.0
 40
5.0
 41
0.0
 71
     1
 72
     5
  1
\Ftxt.shx,bigfont.shx|c128;材　質
  7
JL
 73
     1
 44
1.0
  0
LINE
  5
6504
330
18
100
AcDbEntity
  8
図框線
 62
     9
100
AcDbLine
 10
114.9999999999997
 20
289.9999999999999
 30
0.0
 11
114.9999999999997
 21
255.9999999999999
 31
0.0
  0
LINE
  5
6505
330
18
100
AcDbEntity
  8
図框線
100
AcDbLine
 10
129.9999999999998
 20
289.9999999999999
 30
0.0
 11
129.9999999999998
 21
255.9999999999999
 31
0.0
  0
MTEXT
  5
6506
330
18
100
AcDbEntity
  8
0
100
AcDbMText
 10
121.2152890873904
 20
262.7436409356394
 30
0.0
 40
5.0
 41
0.0
 71
     1
 72
     5
  1
\Ftxt.shx,bigfont.shx|c128;3
  7
JL
 73
     1
 44
1.0
  0
MTEXT
  5
6507
330
18
100
AcDbEntity
  8
0
100
AcDbMText
 10
122.1019570266667
 20
278.5798510066454
 30
0.0
 40
5.0
 41
0.0
 71
     1
 72
     5
  1
\Ftxt.shx,bigfont.shx|c128;1
  7
JL
 73
     1
 44
1.0
  0
MTEXT
  5
6508
330
18
100
AcDbEntity
  8
0
100
AcDbMText
 10
121.2152890873904
 20
270.7436409356394
 30
0.0
 40
5.0
 41
0.0
 71
     1
 72
     5
  1
\Ftxt.shx,bigfont.shx|c128;3
  7
JL
 73
     1
 44
1.0
  0
MTEXT
  5
6509
330
18
100
AcDbEntity
  8
0
100
AcDbMText
 10
116.433740311917
 20
287.5804049742369
 30
0.0
 40
5.0
 41
0.0
 71
     1
 72
     5
  1
\Ftxt.shx,bigfont.shx|c128;数   量
  7
JL
 73
     1
 44
1.0
  0
DIMENSION
  5
6770
330
18
100
AcDbEntity
  8
0
100
AcDbDimension
  2
*D1
 10
123.8649460037061
 20
49.3587061615846
 30
0.0
 11
78.86494600370679
 21
49.15037282825128
 31
0.0
 70
   160
  1
M<>X2.0P
 71
     5
 42
89.9999999999996
  3
A
100
AcDbAlignedDimension
 13
33.86494600370657
 23
66.76825889500422
 33
0.0
 14
123.8649460037061
 24
66.76825889500431
 34
0.0
100
AcDbRotatedDimension
  0
LEADER
  5
6B85
330
18
100
AcDbEntity
  8
DIM
 62
     6
100
AcDbLeader
  3
A
 73
     0
 74
     0
 75
     1
 40
3.0
 41
4.999999999999999
 76
     3
 10
33.94342782323326
 20
87.90134374533961
 30
0.0
 10
41.916263462279
 20
95.73757035940122
 30
0.0
 10
44.416263462279
 20
95.73757035940122
 30
0.0
340
6B86
  0
MTEXT
  5
6B86
102
{ACAD_REACTORS
330
6B85
102
}
330
18
100
AcDbEntity
  8
DIM
 62
     3
100
AcDbMText
 10
45.416263462279
 20
98.23757035940122
 30
0.0
 40
3.0
 41
0.0
 71
     4
 72
     1
  1
\A1;C2
  7
TXT
 73
     1
 44
1.0
  0
DIMENSION
  5
6C92
330
18
100
AcDbEntity
  8
DIM
100
AcDbDimension
  2
*D2
 10
132.6934278232331
 20
109.0925669634951
 30
0.0
 11
78.69342782323315
 21
111.5925669634951
 31
0.0
 12
-292.7356641403664
 22
-5.727642320422319
 32
0.0
 70
    32
  1
%%c<>%%p0.5
 71
     5
 42
-1.0
  3
A
100
AcDbAlignedDimension
 13
24.69342782323315
 23
90.90134374533954
 33
0.0
 14
132.6934278232331
 24
90.90134374533954
 34
0.0
100
AcDbRotatedDimension
  0
DIMENSION
  5
6CAA
330
18
100
AcDbEntity
  8
DIM
100
AcDbDimension
  2
*D3
 10
137.6934278232331
 20
114.60003705391
 30
0.0
 11
74.62437169531961
 21
115.4261578037953
 31
0.0
 12
-292.7356641403664
 22
-5.727642320422319
 32
0.0
 70
   160
  1
%%c<>
 71
     5
 42
-1.0
  3
A
100
AcDbAlignedDimension
 13
19.69342782323326
 23
88.40134374533988
 33
0.0
 14
137.6934278232331
 24
88.40134374533988
 34
0.0
100
AcDbRotatedDimension
  0
DIMENSION
  5
6F74
330
18
100
AcDbEntity
  8
0
100
AcDbDimension
  2
*D4
 10
161.8466680254079
 20
48.30515448584654
 30
0.0
 11
172.3427404004204
 21
66.48488511928817
 31
0.0
 12
10.18781530464821
 22
-28.08330939999607
 32
0.0
 70
   161
  1
9%%p0.5
 71
     5
 42
-1.0
  3
A
100
AcDbAlignedDimension
 13
137.7003771214091
 23
72.91545501382573
 33
0.0
 14
133.080377121409
 24
64.91338028285743
 34
0.0
  0
MTEXT
  5
72FF
102
{ACAD_REACTORS
330
7300
102
}
330
18
100
AcDbEntity
  8
DIM
 62
     3
100
AcDbMText
 10
109.8048859774531
 20
58.07148584882185
 30
0.0
 40
3.0
 41
0.0
 71
     6
 72
     1
  1
\A1;C2
  7
TXT
 73
     1
 44
1.0
  0
LEADER
  5
7300
330
18
100
AcDbEntity
  8
DIM
 62
     6
100
AcDbLeader
  3
A
 73
     0
 75
     1
 40
3.0
 41
4.999999999999999
 76
     3
 10
123.443427823233
 20
65.90134374533949
 30
0.0
 10
113.304885977453
 20
55.57148584882185
 30
0.0
 10
110.804885977453
 20
55.57148584882185
 30
0.0
340
72FF
  0
MTEXT
  5
7303
102
{ACAD_REACTORS
330
7304
102
}
330
18
100
AcDbEntity
  8
DIM
 62
     3
100
AcDbMText
 10
153.3158124884465
 20
104.9310463524632
 30
0.0
 40
3.0
 41
0.0
 71
     4
 72
     1
  1
\A1;R2
  7
TXT
 73
     1
 44
1.0
  0
LEADER
  5
7304
330
18
100
AcDbEntity
  8
DIM
 62
     6
100
AcDbLeader
  3
A
 73
     0
 74
     0
 75
     1
 40
3.0
 41
4.999999999999999
 76
     3
 10
137.114151450934
 20
89.82683307162075
 30
0.0
 10
149.8158124884465
 20
102.4310463524632
 30
0.0
 10
152.3158124884465
 20
102.4310463524632
 30
0.0
340
7303
1001
ACAD
1000
DSTYLE
1002
{
1070
    45
1040
0.0
1002
}
  0
DIMENSION
  5
74C6
330
18
100
AcDbEntity
  8
0
100
AcDbDimension
  2
*D5
 10
14.39235876719311
 20
90.40134374533954
 30
0.0
 11
14.39235876719311
 21
103.7222995341066
 31
0.0
 12
-292.7356641403664
 22
-5.727642320422319
 32
0.0
 70
   160
 71
     5
 42
-1.0
  3
A
100
AcDbAlignedDimension
 13
24.69342782323327
 23
90.90134374533954
 33
0.0
 14
21.69342782323326
 24
90.40134374533954
 34
0.0
 50
90.0
100
AcDbRotatedDimension
  0
DIMENSION
  5
750D
330
18
100
AcDbEntity
  8
DIM
100
AcDbDimension
  2
*D6
 10
124.193427823233
 20
103.2494721518665
 30
0.0
 11
78.69342782323315
 21
105.7494721518665
 31
0.0
 12
-292.7356641403664
 22
-5.727642320422319
 32
0.0
 70
    32
  1
%%c<>
 71
     5
 42
-1.0
  3
A
100
AcDbAlignedDimension
 13
33.19342782323332
 23
90.90134374533953
 33
0.0
 14
124.193427823233
 24
90.90134374533954
 34
0.0
100
AcDbRotatedDimension
  0
DIMENSION
  5
7568
330
18
100
AcDbEntity
  8
DIM
100
AcDbDimension
  2
*D7
 10
152.5867036968714
 20
68.95434263505098
 30
0.0
 11
150.0867036968713
 21
79.92784319019526
 31
0.0
 12
-292.7356641403664
 22
-5.727642320422319
 32
0.0
 70
    32
 71
     5
 42
-1.0
  3
A
100
AcDbAlignedDimension
 13
132.6934278232331
 23
90.90134374533954
 33
0.0
 14
135.4134278232331
 24
68.95434263505098
 34
0.0
 50
90.0
100
AcDbRotatedDimension
  0
DIMENSION
  5
7575
330
18
100
AcDbEntity
  8
DIM
100
AcDbDimension
  2
*D8
 10
162.7357246232595
 20
90.90134374533954
 30
0.0
 11
160.2357246232595
 21
77.90736201409848
 31
0.0
 12
-292.7356641403664
 22
-5.727642320422319
 32
0.0
 70
    32
  1
<>%%p0.2
 71
     5
 42
-1.0
  3
A
100
AcDbAlignedDimension
 13
133.080377121409
 23
64.91338028285743
 33
0.0
 14
132.6934278232331
 24
90.90134374533954
 34
0.0
 50
90.0
100
AcDbRotatedDimension
  0
DIMENSION
  5
7AD6
330
18
100
AcDbEntity
  8
DIM
100
AcDbDimension
  2
*D9
 10
87.91116292971372
 20
90.90134374533958
 30
0.0
 11
87.91116292971372
 21
98.48715743301184
 31
0.0
 12
-221.837757095901
 22
-24.09534593751397
 32
0.0
 70
   160
 71
     5
 42
-1.0
  3
A
100
AcDbAlignedDimension
 13
91.69342782323349
 23
88.90134374533984
 33
0.0
 14
91.69342782323349
 24
90.90134374533958
 34
0.0
 50
90.0
100
AcDbRotatedDimension
  0
MTEXT
  5
9E3E
330
18
100
AcDbEntity
  8
公差
100
AcDbMText
 10
33.52482797274632
 20
142.3654565835452
 30
0.0
 40
2.0
 41
9.555074525974475
 71
     1
 72
     5
  1
+0.15\P+0
  7
TXT
 73
     1
 44
1.0
  0
MTEXT
  5
9E3F
330
18
100
AcDbEntity
  8
公差
100
AcDbMText
 10
2.997169116359657
 20
196.9595962254519
 30
0.0
 40
2.0
 41
8.84945634767439
 71
     1
 72
     5
  1
+0.15\P+0
  7
TXT
 11
0.0000000000000001
 21
1.0
 31
0.0
 73
     1
 44
1.0
  0
LEADER
  5
9E40
330
18
100
AcDbEntity
  8
DIM
 62
     6
100
AcDbLeader
  3
A
 76
     2
 10
137.1697541047833
 20
199.1762243664697
 30
0.0
 10
151.0030625624287
 20
207.1529882187445
 30
0.0
  0
MTEXT
  5
9E41
330
18
100
AcDbEntity
  8
DIM
100
AcDbMText
 10
152.2139791763548
 20
210.7067999645818
 30
0.0
 40
5.0
 41
1.0
 71
     1
 72
     5
  1
\Ftxt.shx,bigfont.shx|c128;1
 73
     1
 44
1.0
  0
DIMENSION
  5
9E42
330
18
100
AcDbEntity
  8
0
100
AcDbDimension
  2
*D10
 10
23.79342782323323
 20
136.4380972624882
 30
0.0
 11
28.79342782323323
 21
136.4380972624882
 31
0.0
 12
-292.7356641403664
 22
-73.0627930840626
 32
0.0
 70
   160
 71
     5
 42
-1.0
  3
A
100
AcDbAlignedDimension
 13
19.80567399643695
 23
186.3328026250553
 33
0.0
 14
23.79342782323323
 24
186.3328026250554
 34
0.0
100
AcDbRotatedDimension
  0
DIMENSION
  5
9E43
330
18
100
AcDbEntity
  8
DIM
100
AcDbDimension
  2
*D11
 10
9.844531423744513
 20
196.3328026250552
 30
0.0
 11
8.970127382888733
 21
204.0336857904108
 31
0.0
 12
-292.7356641403664
 22
-73.0627930840626
 32
0.0
 70
   160
  1
<>      (3等分)
 71
     5
 42
-1.0
  3
A
100
AcDbAlignedDimension
 13
20.36767087367497
 23
186.3328026250553
 33
0.0
 14
20.36767087367497
 24
196.3328026250552
 34
0.0
 50
90.0
100
AcDbRotatedDimension
  0
LINE
  5
9E44
330
18
100
AcDbEntity
  8
DIM
 62
     6
100
AcDbLine
 10
9.844531423744513
 20
193.3328026250554
 30
0.0
 11
9.844531423744513
 21
215.2491114874499
 31
0.0
  0
LINE
  5
9E45
330
18
100
AcDbEntity
  8
DIM
 62
     6
100
AcDbLine
 10
28.79342782323323
 20
136.4380972624882
 30
0.0
 11
40.59665113406237
 21
136.4380972624882
 31
0.0
  0
ARC
  5
A882
330
18
100
AcDbEntity
  8
本体外線
100
AcDbCircle
 10
78.69342782323326
 20
191.3328026250552
 30
0.0
 40
59.0
100
AcDbArc
 50
184.8614053957979
 51
295.1385946042019
  0
CIRCLE
  5
A883
330
18
100
AcDbEntity
  8
本体外線
100
AcDbCircle
 10
78.69342782323326
 20
191.3328026250552
 30
0.0
 40
54.0
  0
ARC
  5
A884
330
18
100
AcDbEntity
  8
0
100
AcDbCircle
 10
78.69342782323326
 20
191.3328026250552
 30
0.0
 40
45.0
100
AcDbArc
 50
169.7998682688183
 51
101.7861269471946
  0
CIRCLE
  5
A885
330
18
100
AcDbEntity
  8
本体外線
100
AcDbCircle
 10
78.69342782323326
 20
191.3328026250552
 30
0.0
 40
44.0
  0
LINE
  5
A886
330
18
100
AcDbEntity
  8
中心線
  6
CENTER
 48
0.15
100
AcDbLine
 10
78.69342782323304
 20
252.3328026250553
 30
0.0
 11
78.69342782323326
 21
130.3328026250552
 31
0.0
  0
LINE
  5
A88C
330
18
100
AcDbEntity
  8
中心線
  6
CENTER
 48
0.15
100
AcDbLine
 10
17.70182152614313
 20
191.3328026250552
 30
0.0
 11
139.6934278232332
 21
191.3328026250551
 31
0.0
  0
LINE
  5
A88D
330
18
100
AcDbEntity
  8
本体外線
100
AcDbLine
 10
19.90567399643697
 20
196.3328026250552
 30
0.0
 11
23.7934278232334
 21
196.3328026250552
 31
0.0
  0
LINE
  5
A88E
330
18
100
AcDbEntity
  8
本体外線
100
AcDbLine
 10
19.90567399643697
 20
186.3328026250553
 30
0.0
 11
23.79342782323346
 21
186.3328026250553
 31
0.0
  0
LINE
  5
A88F
330
18
100
AcDbEntity
  8
本体外線
100
AcDbLine
 10
23.79342782323346
 20
186.3328026250553
 30
0.0
 11
23.7934278232334
 21
196.3328026250552
 31
0.0
  0
LINE
  5
A890
330
18
100
AcDbEntity
  8
中心線
  6
CENTER
 48
0.15
100
AcDbLine
 10
48.19342782323315
 20
138.5052529942045
 30
0.0
 11
57.69342782323326
 21
154.9597356661088
 31
0.0
  0
LINE
  5
A896
330
18
100
AcDbEntity
  8
本体内線
  6
HIDDEN
 48
0.2
100
AcDbLine
 10
60.24862713816435
 20
151.3854707030347
 30
0.0
 11
52.7254041328481
 21
138.3548662211559
 31
0.0
  0
LINE
  5
A897
330
18
100
AcDbEntity
  8
本体内線
  6
HIDDEN
 48
0.2
100
AcDbLine
 10
53.32042390788899
 20
155.3854707030345
 30
0.0
 11
45.79720090257263
 21
142.3548662211559
 31
0.0
  0
LINE
  5
A898
330
18
100
AcDbEntity
  8
本体内線
  6
HIDDEN
 48
0.2
100
AcDbLine
 10
59.68107849796149
 20
151.6524476224366
 30
0.0
 11
52.16456846972107
 21
138.6334703579233
 31
0.0
  0
LINE
  5
A899
330
18
100
AcDbEntity
  8
本体内線
  6
HIDDEN
 48
0.2
100
AcDbLine
 10
53.83540702241646
 20
155.0274476224367
 30
0.0
 11
46.31889699417615
 21
142.0084703579232
 31
0.0
  0
LINE
  5
A89A
330
18
100
AcDbEntity
  8
本体内線
  6
HIDDEN
 48
0.2
100
AcDbLine
 10
122.5112324236466
 20
195.3328026250551
 30
0.0
 11
137.557678434279
 21
195.3328026250551
 31
0.0
  0
LINE
  5
A89B
330
18
100
AcDbEntity
  8
本体内線
  6
HIDDEN
 48
0.2
100
AcDbLine
 10
122.5112324236465
 20
187.3328026250552
 30
0.0
 11
137.557678434279
 21
187.3328026250551
 31
0.0
  0
LINE
  5
A89C
330
18
100
AcDbEntity
  8
本体内線
  6
HIDDEN
 48
0.2
100
AcDbLine
 10
122.5637979493217
 20
194.7078026250551
 30
0.0
 11
137.5968180058025
 21
194.7078026250551
 31
0.0
  0
LINE
  5
A89D
330
18
100
AcDbEntity
  8
本体内線
  6
HIDDEN
 48
0.2
100
AcDbLine
 10
122.5637979493217
 20
187.9578026250551
 30
0.0
 11
137.5968180058025
 21
187.9578026250551
 31
0.0
  0
LINE
  5
A89E
330
18
100
AcDbEntity
  8
中心線
  6
CENTER
 48
0.15
100
AcDbLine
 10
57.69342782323338
 20
227.7058695840017
 30
0.0
 11
48.19342782323332
 21
244.1603522559061
 31
0.0
  0
LINE
  5
A89F
330
18
100
AcDbEntity
  8
本体内線
  6
HIDDEN
 48
0.2
100
AcDbLine
 10
53.32042390788888
 20
227.2801345470758
 30
0.0
 11
45.79720090257274
 21
240.3107390289545
 31
0.0
  0
LINE
  5
A8A0
330
18
100
AcDbEntity
  8
本体内線
  6
HIDDEN
 48
0.2
100
AcDbLine
 10
60.24862713816435
 20
231.2801345470758
 30
0.0
 11
52.72540413284821
 21
244.3107390289546
 31
0.0
  0
LINE
  5
A8A1
330
18
100
AcDbEntity
  8
本体内線
  6
HIDDEN
 48
0.2
100
AcDbLine
 10
53.83540702241657
 20
227.6381576276739
 30
0.0
 11
46.31889699417627
 21
240.6571348921872
 31
0.0
  0
LINE
  5
A8A2
330
18
100
AcDbEntity
  8
本体内線
  6
HIDDEN
 48
0.2
100
AcDbLine
 10
59.68107849796149
 20
231.0131576276738
 30
0.0
 11
52.16456846972107
 21
244.0321348921872
 31
0.0
  0
LINE
  5
A8A6
102
{ACAD_REACTORS
330
AC56
102
}
330
18
100
AcDbEntity
  8
本体外線
100
AcDbLine
 10
24.69342782323315
 20
90.90134374533954
 30
0.0
 11
132.6934278232331
 21
90.90134374533954
 31
0.0
  0
LINE
  5
A8A7
330
18
100
AcDbEntity
  8
本体外線
100
AcDbLine
 10
19.69342782323326
 20
88.40134374533965
 30
0.0
 11
19.69342782323326
 21
72.90134374533957
 31
0.0
  0
LINE
  5
A8A8
102
{ACAD_REACTORS
330
AC56
102
}
330
18
100
AcDbEntity
  8
本体外線
100
AcDbLine
 10
24.31342782323395
 20
64.90134374533957
 30
0.0
 11
133.0734278232331
 21
64.90134374533957
 31
0.0
  0
LINE
  5
A8A9
102
{ACAD_REACTORS
330
AC56
102
}
330
18
100
AcDbEntity
  8
本体外線
100
AcDbLine
 10
24.69342782323327
 20
90.90134374533954
 30
0.0
 11
24.69342782323327
 21
90.40134374533954
 31
0.0
  0
LINE
  5
A8AB
102
{ACAD_REACTORS
330
AC56
102
}
330
18
100
AcDbEntity
  8
本体外線
100
AcDbLine
 10
137.6934278232331
 20
88.40134374533965
 30
0.0
 11
137.6934278232331
 21
72.90134374533957
 31
0.0
  0
LINE
  5
A8AC
102
{ACAD_REACTORS
330
AC56
102
}
330
18
100
AcDbEntity
  8
本体外線
100
AcDbLine
 10
132.6934278232331
 20
90.90134374533954
 30
0.0
 11
132.6934278232331
 21
90.40134374533954
 31
0.0
  0
LINE
  5
A8AD
102
{ACAD_REACTORS
330
A8F0
330
AC56
102
}
330
18
100
AcDbEntity
  8
本体外線
100
AcDbLine
 10
122.6934278232331
 20
86.90134374533966
 30
0.0
 11
122.693427823233
 21
66.90134374533972
 31
0.0
  0
LINE
  5
A8AF
102
{ACAD_REACTORS
330
AC56
102
}
330
18
100
AcDbEntity
  8
本体外線
100
AcDbLine
 10
21.69342782323326
 20
90.40134374533954
 30
0.0
 11
24.69342782323315
 21
90.40134374533954
 31
0.0
  0
LINE
  5
A8B0
330
18
100
AcDbEntity
  8
本体外線
100
AcDbLine
 10
34.69342782323338
 20
66.90134374533958
 30
0.0
 11
122.693427823233
 21
66.90134374533958
 31
0.0
  0
LINE
  5
A8B1
330
18
100
AcDbEntity
  8
本体外線
100
AcDbLine
 10
33.19342782323332
 20
88.90134374533955
 30
0.0
 11
124.193427823233
 21
88.90134374533955
 31
0.0
  0
LINE
  5
A8B2
102
{ACAD_REACTORS
330
AC56
102
}
330
18
100
AcDbEntity
  8
本体外線
100
AcDbLine
 10
34.69342782323327
 20
86.90134374533966
 30
0.0
 11
33.19342782323332
 21
88.90134374533955
 31
0.0
  0
LINE
  5
A8B4
102
{ACAD_REACTORS
330
AC56
102
}
330
18
100
AcDbEntity
  8
本体外線
100
AcDbLine
 10
34.69342782323338
 20
86.90134374533954
 30
0.0
 11
34.69342782323338
 21
66.90134374533954
 31
0.0
  0
ARC
  5
A8B5
330
18
100
AcDbEntity
  8
本体外線
100
AcDbCircle
 10
21.69342782323326
 20
88.40134374533965
 30
0.0
 40
2.0
100
AcDbArc
 50
90.0
 51
180.0000000000001
  0
LINE
  5
A8B7
102
{ACAD_REACTORS
330
AC56
102
}
330
18
100
AcDbEntity
  8
本体外線
100
AcDbLine
 10
132.6934278232331
 20
90.40134374533954
 30
0.0
 11
135.6934278232331
 21
90.40134374533966
 31
0.0
  0
ARC
  5
A8B8
102
{ACAD_REACTORS
330
AC56
102
}
330
18
100
AcDbEntity
  8
本体外線
100
AcDbCircle
 10
135.6934278232331
 20
88.40134374533965
 30
0.0
 40
2.0
100
AcDbArc
 50
0.0
 51
90.0000000000004
  0
POINT
  5
A8BF
330
18
100
AcDbEntity
  8
本体外線
100
AcDbPoint
 10
132.6402743930108
 20
90.90134374533954
 30
0.0
  0
POINT
  5
A8C0
330
18
100
AcDbEntity
  8
0
100
AcDbPoint
 10
132.6402743930108
 20
64.90134374533957
 30
0.0
  0
LINE
  5
A8C8
330
18
100
AcDbEntity
  8
中心線
  6
CENTER
 48
0.15
100
AcDbLine
 10
78.69342782323349
 20
93.90134374533955
 30
0.0
 11
78.69342782323355
 21
61.90134374533958
 31
0.0
  0
POINT
  5
A8CD
330
18
100
AcDbEntity
  8
本体外線
100
AcDbPoint
 10
132.6934278232331
 20
90.90134374533954
 30
0.0
  0
POINT
  5
A8CE
330
18
100
AcDbEntity
  8
0
100
AcDbPoint
 10
132.6934278232331
 20
64.90134374533957
 30
0.0
  0
LINE
  5
A8CF
102
{ACAD_REACTORS
330
AC56
102
}
330
18
100
AcDbEntity
  8
本体外線
100
AcDbLine
 10
23.79342782323329
 20
90.40134374533954
 30
0.0
 11
23.79342782323329
 21
65.80201016527661
 31
0.0
  0
POINT
  5
A8D0
330
18
100
AcDbEntity
  8
0
100
AcDbPoint
 10
130.0984257690883
 20
64.90134374533969
 30
0.0
  0
LINE
  5
A8D1
330
18
100
AcDbEntity
  8
0
100
AcDbLine
 10
132.6906075002057
 20
65.83827949568629
 30
0.0
 11
136.6906075002059
 21
72.76648272596228
 31
0.0
  0
LINE
  5
A8D2
330
18
100
AcDbEntity
  8
本体内線
  6
HIDDEN
 48
0.1
100
AcDbLine
 10
133.0309099748779
 20
72.43924071879923
 30
0.0
 11
131.1441586289302
 21
71.34992432132211
 31
0.0
  0
LINE
  5
A8D3
330
18
100
AcDbEntity
  8
本体内線
  6
HIDDEN
 48
0.1
100
AcDbLine
 10
131.1441586289301
 20
71.34992432132188
 30
0.0
 11
131.1441586289298
 21
69.17129152636778
 31
0.0
  0
LWPOLYLINE
  5
A8D4
102
{ACAD_REACTORS
330
AC56
102
}
330
18
100
AcDbEntity
  8
本体外線
100
AcDbPolyline
 90
        2
 70
     0
 43
0.0
 10
133.0734278232331
 20
64.90134374533965
 10
137.6934278232331
 20
72.90341847630788
  0
LINE
  5
A8D7
102
{ACAD_REACTORS
330
A8F0
102
}
330
18
100
AcDbEntity
  8
中心線
  6
CENTER
 48
0.15
100
AcDbLine
 10
137.0261487396333
 20
68.02323777983952
 30
0.0
 11
121.3733852414523
 21
77.06036499907574
 31
0.0
  0
LINE
  5
A8D8
330
18
100
AcDbEntity
  8
本体内線
  6
HIDDEN
 48
0.1
100
AcDbLine
 10
136.3268034962071
 20
70.53635570703926
 30
0.0
 11
133.0309099748777
 21
72.4392407187992
 31
0.0
  0
LINE
  5
A8D9
330
18
100
AcDbEntity
  8
本体内線
  6
HIDDEN
 48
0.1
100
AcDbLine
 10
134.4400521502591
 20
67.26840651460787
 30
0.0
 11
131.1441586289298
 21
69.17129152636781
 31
0.0
  0
LINE
  5
A8DA
330
18
100
AcDbEntity
  8
0
100
AcDbLine
 10
127.6941848742276
 20
75.6511686740553
 30
0.0
 11
130.4262356817964
 21
76.3832194816242
 31
0.0
  0
LINE
  5
A8DB
330
18
100
AcDbEntity
  8
0
100
AcDbLine
 10
125.6941848742276
 20
72.18706705891759
 30
0.0
 11
126.4262356817964
 21
69.4550162513487
 31
0.0
  0
LINE
  5
A8DC
330
18
100
AcDbEntity
  8
0
100
AcDbLine
 10
130.4262356817964
 20
76.38321948162417
 30
0.0
 11
126.4262356817964
 21
69.45501625134866
 31
0.0
  0
LINE
  5
A8DD
330
18
100
AcDbEntity
  8
0
100
AcDbLine
 10
136.6906075002059
 20
71.1664827259612
 30
0.0
 11
128.5334153587683
 21
75.87603980465161
 31
0.0
  0
LINE
  5
A8DE
330
18
100
AcDbEntity
  8
0
100
AcDbLine
 10
134.0762481462607
 20
66.63827949568636
 30
0.0
 11
125.919056004824
 21
71.34783657437623
 31
0.0
  0
LINE
  5
A8DF
102
{ACAD_REACTORS
330
A8F0
102
}
330
18
100
AcDbEntity
  8
0
100
AcDbLine
 10
128.4441848742278
 20
76.95020677973165
 30
0.0
 11
124.9441848742278
 21
70.88802895324071
 31
0.0
  0
LINE
  5
A8E0
102
{ACAD_REACTORS
330
A8F0
102
}
330
18
100
AcDbEntity
  8
0
100
AcDbLine
 10
128.4441848742278
 20
76.95020677973167
 30
0.0
 11
122.693427823233
 21
80.27040791116766
 31
0.0
  0
LINE
  5
A8E1
102
{ACAD_REACTORS
330
A8F0
102
}
330
18
100
AcDbEntity
  8
0
100
AcDbLine
 10
124.944184874228
 20
70.88802895324068
 30
0.0
 11
122.693427823233
 21
72.18750414251307
 31
0.0
  0
LWPOLYLINE
  5
A8E2
102
{ACAD_REACTORS
330
AC56
102
}
330
18
100
AcDbEntity
  8
0
100
AcDbPolyline
 90
        3
 70
     0
 43
0.0
 10
136.6906075002059
 20
71.16648272596194
 10
136.6906075002059
 20
72.76648272596154
 10
122.693427823233
 20
80.84775818035737
  0
LWPOLYLINE
  5
A8E3
102
{ACAD_REACTORS
330
AC56
102
}
330
18
100
AcDbEntity
  8
0
100
AcDbPolyline
 90
        3
 70
     0
 43
0.0
 10
134.0762481462607
 20
66.63827949568636
 10
132.6906075002057
 20
65.83827949568626
 10
122.693427823233
 20
71.61015387332344
  0
LWPOLYLINE
  5
A8EA
102
{ACAD_REACTORS
330
AC56
102
}
330
18
100
AcDbEntity
  8
本体外線
100
AcDbPolyline
 90
        2
 70
     0
 43
0.0
 10
24.31342782323395
 20
64.90134374533965
 10
19.69342782323394
 20
72.90341847630788
  0
LINE
  5
A8ED
102
{ACAD_REACTORS
330
AC56
102
}
330
18
100
AcDbEntity
  8
本体外線
100
AcDbLine
 10
122.6934278232331
 20
86.90134374533966
 30
0.0
 11
124.193427823233
 21
88.90134374533955
 31
0.0
  0
LINE
  5
A8EE
330
18
100
AcDbEntity
  8
本体外線
100
AcDbLine
 10
34.69342782323315
 20
86.90134374533966
 30
0.0
 11
122.6934278232331
 21
86.90134374533966
 31
0.0
  0
HATCH
  5
A8F0
330
18
100
AcDbEntity
  8
0
100
AcDbHatch
 10
0.0
 20
0.0
 30
0.0
210
0.0
220
0.0
230
1.0
  2
AR-SAND
 70
     0
 71
     1
 91
        2
 92
        7
 72
     0
 73
     1
 93
        4
 10
128.4441848742279
 20
76.95020677973167
 10
122.693427823233
 20
80.27040791116766
 10
122.693427823233
 20
76.29823805914289
 10
126.7241848742277
 20
73.9710793907131
 97
        4
330
A8E0
330
A8AD
330
A8D7
330
A8DF
 92
        7
 72
     0
 73
     1
 93
        4
 10
122.693427823233
 20
76.29823805914289
 10
122.693427823233
 20
72.18750414251307
 10
124.9441848742278
 20
70.88802895324076
 10
126.7241848742278
 20
73.97107939071311
 97
        4
330
A8D7
330
A8AD
330
A8E1
330
A8DF
 75
     0
 76
     1
 52
0.0
 41
0.07
 77
     0
 78
     4
 53
37.5
 43
-106.3079711081847
 44
-170.5167336269848
 45
-0.1120021907188832
 46
3.425892661305396
 79
     6
 49
0.0
 49
-2.70256
 49
0.0
 49
-3.0226
 49
0.0
 49
-2.88925
 53
7.499999999999999
 43
-106.3079711081847
 44
-170.5167336269848
 45
3.146662981966018
 46
5.01777570397848
 79
     6
 49
0.0
 49
-1.45796
 49
0.0
 49
-2.43586
 49
0.0
 49
-0.9334500000000002
 53
327.5
 43
-108.4949111081846
 44
-170.5167336269848
 45
5.536946591690205
 46
0.0100602927498199
 79
     6
 49
0.0
 49
-0.889
 49
0.0
 49
-3.2004
 49
0.0
 49
-4.1783
 53
317.5
 43
-108.4949111081846
 44
-170.5167336269848
 45
5.34489516730608
 46
1.560505262800513
 79
     6
 49
0.0
 49
-0.4445000000000001
 49
0.0
 49
-2.09804
 49
0.0
 49
-2.4003
 47
0.0426614145150512
 98
        2
 10
126.4176466617008
 20
75.89582583815138
 10
124.5811168621066
 20
73.67743289063844
  0
LINE
  5
A8F1
330
18
100
AcDbEntity
  8
本体内線
  6
HIDDEN
 48
0.1
100
AcDbLine
 10
131.1441586289298
 20
69.17129152636778
 30
0.0
 11
133.0309099748781
 21
72.439240718799
 31
0.0
  0
LINE
  5
AA37
330
18
100
AcDbEntity
  8
本体外線
100
AcDbLine
 10
103.757177717709
 20
137.9211143796238
 30
0.0
 11
101.8133008043108
 21
141.2880079572897
 31
0.0
  0
LINE
  5
AA38
330
18
100
AcDbEntity
  8
本体外線
100
AcDbLine
 10
112.4174317555533
 20
142.9211143796238
 30
0.0
 11
110.473554842155
 21
146.2880079572897
 31
0.0
  0
LINE
  5
AA39
330
18
100
AcDbEntity
  8
本体外線
100
AcDbLine
 10
110.473554842155
 20
146.2880079572897
 30
0.0
 11
101.8133008043108
 21
141.2880079572897
 31
0.0
  0
LINE
  5
AA3A
330
18
100
AcDbEntity
  8
本体外線
100
AcDbLine
 10
112.4174317555534
 20
239.7444908704865
 30
0.0
 11
110.4735548421553
 21
236.3775972928206
 31
0.0
  0
LINE
  5
AA3B
330
18
100
AcDbEntity
  8
本体外線
100
AcDbLine
 10
103.7571777177092
 20
244.7444908704864
 30
0.0
 11
101.813300804311
 21
241.3775972928205
 31
0.0
  0
LINE
  5
AA3C
330
18
100
AcDbEntity
  8
本体外線
100
AcDbLine
 10
101.813300804311
 20
241.3775972928205
 30
0.0
 11
110.4735548421553
 21
236.3775972928206
 31
0.0
  0
ARC
  5
AA3D
330
18
100
AcDbEntity
  8
本体外線
100
AcDbCircle
 10
78.69342782323326
 20
191.3328026250552
 30
0.0
 40
59.0
100
AcDbArc
 50
64.86140539579794
 51
175.1385946042019
  0
ARC
  5
AA3E
330
18
100
AcDbEntity
  8
本体外線
100
AcDbCircle
 10
78.69342782323326
 20
191.3328026250552
 30
0.0
 40
59.0
100
AcDbArc
 50
304.8614053957978
 51
55.13859460420198
  0
LINE
  5
AA70
102
{ACAD_REACTORS
330
AC56
102
}
330
18
100
AcDbEntity
  8
0
100
AcDbLine
 10
33.69342782323332
 20
88.23467707867287
 30
0.0
 11
33.69342782323338
 21
65.56801041200625
 31
0.0
  0
LINE
  5
AA71
102
{ACAD_REACTORS
330
AC56
102
}
330
18
100
AcDbEntity
  8
0
100
AcDbLine
 10
123.6934278232331
 20
88.23467707867287
 30
0.0
 11
123.693427823233
 21
80.27040791116773
 31
0.0
  0
LINE
  5
AA72
102
{ACAD_REACTORS
330
AC56
102
}
330
18
100
AcDbEntity
  8
本体外線
100
AcDbLine
 10
33.19342782323332
 20
90.90134374533956
 30
0.0
 11
33.19342782323332
 21
88.90134374533955
 31
0.0
  0
LINE
  5
AA73
102
{ACAD_REACTORS
330
AC56
102
}
330
18
100
AcDbEntity
  8
本体外線
100
AcDbLine
 10
124.193427823233
 20
90.90134374533954
 30
0.0
 11
124.193427823233
 21
88.90134374533955
 31
0.0
  0
LINE
  5
AA74
102
{ACAD_REACTORS
330
AC56
102
}
330
18
100
AcDbEntity
  8
本体外線
100
AcDbLine
 10
34.69342782323327
 20
66.90134374533943
 30
0.0
 11
33.19342782323332
 21
64.90134374533955
 31
0.0
  0
LINE
  5
AA75
102
{ACAD_REACTORS
330
AC56
102
}
330
18
100
AcDbEntity
  8
本体外線
100
AcDbLine
 10
122.6934278232331
 20
66.90134374533943
 30
0.0
 11
124.193427823233
 21
64.90134374533955
 31
0.0
  0
LINE
  5
AA76
102
{ACAD_REACTORS
330
AC56
102
}
330
18
100
AcDbEntity
  8
0
100
AcDbLine
 10
123.693427823233
 20
71.03280360413383
 30
0.0
 11
123.693427823233
 21
65.56801041200635
 31
0.0
  0
DIMENSION
  5
AB03
330
18
100
AcDbEntity
  8
DIM
100
AcDbDimension
  2
*D12
 10
132.6934278232332
 20
90.90134374533953
 30
0.0
 11
179.0500183689809
 21
69.02331588544391
 31
0.0
 12
-292.7356641403664
 22
-5.727642320422319
 32
0.0
 70
    34
 71
     5
 42
-1.0
  3
A
100
AcDb2LineAngularDimension
 13
137.0261487396333
 23
68.02323777983952
 33
0.0
 14
121.3733852414523
 24
77.06036499907574
 34
0.0
 15
24.69342782323315
 25
90.90134374533954
 35
0.0
 16
179.1817515887609
 26
61.13525934252334
 36
0.0
1001
ACAD
1000
DSTYLE
1002
{
1070
    79
1070
     2
1070
   179
1070
     1
1002
}
  0
HATCH
  5
AC56
330
18
100
AcDbEntity
  8
剖面線
100
AcDbHatch
 10
0.0
 20
0.0
 30
0.0
210
0.0
220
0.0
230
1.0
  2
ANSI31
 70
     0
 71
     1
 91
        6
 92
        7
 72
     0
 73
     1
 93
       10
 10
23.79342782323329
 20
65.80201016527663
 10
24.313427823234
 20
64.90134374533957
 10
33.19342782323335
 20
64.90134374533957
 10
33.69342782323337
 20
65.56801041200627
 10
33.69342782323332
 20
88.23467707867289
 10
33.19342782323332
 20
88.90134374533955
 10
33.19342782323332
 20
90.90134374533954
 10
24.69342782323327
 20
90.90134374533954
 10
24.69342782323326
 20
90.40134374533954
 10
23.79342782323329
 20
90.40134374533954
 97
       10
330
A8B2
330
AA72
330
A8A6
330
A8A9
330
A8AF
330
A8CF
330
A8EA
330
A8A8
330
AA74
330
AA70
 92
        7
 72
     0
 73
     1
 93
        4
 10
33.69342782323339
 20
65.56801041200627
 10
34.69342782323338
 20
66.90134374533958
 10
34.69342782323338
 20
86.9013437453395
 10
33.69342782323332
 20
88.23467707867292
 97
        4
330
A8B2
330
AA70
330
AA74
330
A8B4
 92
        7
 72
     1
 73
     1
 93
       11
 10
137.6934278232331
 20
88.40134374533965
 42
0.4142135623731095
 10
135.693427823233
 20
90.40134374533966
 42
0.0
 10
132.6934278232331
 20
90.40134374533954
 42
0.0
 10
132.6934278232331
 20
90.90134374533954
 42
0.0
 10
124.193427823233
 20
90.90134374533954
 42
0.0
 10
124.193427823233
 20
88.90134374533955
 42
0.0
 10
123.6934278232331
 20
88.23467707867299
 42
0.0
 10
123.693427823233
 20
80.27040791116773
 42
0.0
 10
136.6906075002059
 20
72.76648272596152
 42
0.0
 10
136.6906075002059
 20
71.16648272596208
 42
0.0
 10
137.6934278232331
 20
72.90341847630788
 42
0.0
 97
       10
330
A8B8
330
A8B7
330
A8AC
330
A8A6
330
AA73
330
A8ED
330
AA71
330
A8E2
330
A8D4
330
A8AB
 92
        7
 72
     0
 73
     1
 93
        4
 10
123.6934278232331
 20
88.23467707867299
 10
122.6934278232331
 20
86.90134374533959
 10
122.693427823233
 20
80.84775818035735
 10
123.693427823233
 20
80.27040791116776
 97
        4
330
A8ED
330
A8AD
330
A8E2
330
AA71
 92
        7
 72
     0
 73
     1
 93
        4
 10
123.6934278232329
 20
71.03280360413383
 10
122.693427823233
 20
71.61015387332347
 10
122.693427823233
 20
66.90134374533966
 10
123.693427823233
 20
65.56801041200625
 97
        4
330
A8E3
330
A8AD
330
AA75
330
AA76
 92
        7
 72
     0
 73
     1
 93
        6
 10
123.6934278232329
 20
65.56801041200626
 10
124.1934278232329
 20
64.90134374533957
 10
133.0734278232331
 20
64.90134374533957
 10
134.076248146261
 20
66.63827949568655
 10
132.6906075002057
 20
65.83827949568625
 10
123.693427823233
 20
71.03280360413385
 97
        5
330
AA76
330
AA75
330
A8A8
330
A8D4
330
A8E3
 75
     0
 76
     1
 52
0.0
 41
0.5
 77
     0
 78
     1
 53
45.0
 43
0.0
 44
0.0
 45
-1.122532015133643
 46
1.122532015133644
 79
     0
 47
0.0747315593895163
 98
        6
 10
27.04597626944678
 20
72.25444536149189
 10
34.12511363134468
 20
75.63435775709752
 10
132.5859589648419
 20
81.34242185737321
 10
123.3013211839011
 20
83.14935741981697
 10
123.226528822059
 20
70.37026116281641
 10
125.2458987376258
 20
68.27777729925083
  0
MTEXT
  5
AC61
330
18
100
AcDbEntity
  8
0
100
AcDbMText
 10
49.81948278949767
 20
19.3739983431626
 30
0.0
 40
5.0
 41
0.0
 71
     1
 72
     5
  1
\Ftxt.shx,bigfont.shx|c128;小柳
  7
JL
 73
     1
 44
1.0
  0
MTEXT
  5
AC91
330
18
100
AcDbEntity
  8
DIM
100
AcDbMText
 10
9.266719287358121
 20
38.85976603849974
 30
0.0
 40
4.5
 41
0.0
 71
     1
 72
     5
  1
{\Ftxt,bigfont|c128;06.09.11セットスクリュ-長度変更  林}
  7
JL
 73
     1
 44
1.0
1001
ACAD
1000
ACAD_MTEXT_DEFINED_HEIGHT_BEGIN
1070
    46
1040
0.0
1000
ACAD_MTEXT_DEFINED_HEIGHT_END
  0
LWPOLYLINE
  5
AC92
330
18
100
AcDbEntity
  8
DIM
100
AcDbPolyline
 90
        3
 70
     1
 43
0.0
 10
3.235242226731209
 20
34.35974772250327
 10
8.431394649437862
 20
34.35974772250327
 10
5.833318438084624
 20
38.85974772250327
  0
MTEXT
  5
AC93
330
18
100
AcDbEntity
  8
DIM
100
AcDbMText
 10
5.568251823734481
 20
37.74253036308596
 30
0.0
 40
3.000000000000001
 41
0.0
 71
     1
 72
     5
  1
{\Ftxt,bigfont|c128;1}
  7
JL
 73
     1
 44
1.0
1001
ACAD
1000
ACAD_MTEXT_DEFINED_HEIGHT_BEGIN
1070
    46
1040
0.0
1000
ACAD_MTEXT_DEFINED_HEIGHT_END
  0
CIRCLE
  5
AC94
330
18
100
AcDbEntity
  8
DIM
100
AcDbCircle
 10
57.6223457151614
 20
36.61735589521403
 30
0.0
 40
2.554315537620883
  0
LINE
  5
ACB9
330
18
100
AcDbEntity
  8
DIM
 62
     1
100
AcDbLine
 10
59.03821241005835
 20
268.5870517756606
 30
0.0
 11
82.09579117390694
 21
268.5870517756606
 31
0.0
  0
LINE
  5
ACBA
330
18
100
AcDbEntity
  8
DIM
 62
     1
100
AcDbLine
 10
59.03821241005835
 20
266.4915716309412
 30
0.0
 11
82.09579117390694
 21
266.4915716309412
 31
0.0
  0
MTEXT
  5
ACBC
330
18
100
AcDbEntity
  8
0
100
AcDbMText
 10
146.6699934888725
 20
270.095850257545
 30
0.0
 40
5.0
 41
0.0
 71
     1
 72
     5
  1
{\Ftxt,bigfont|c128;M8X1.25-10L}
  7
JL
 73
     1
 44
1.0
1001
ACAD
1000
ACAD_MTEXT_DEFINED_HEIGHT_BEGIN
1070
    46
1040
0.0
1000
ACAD_MTEXT_DEFINED_HEIGHT_END
  0
LWPOLYLINE
  5
ACC1
330
18
100
AcDbEntity
  8
DIM
100
AcDbPolyline
 90
        3
 70
     1
 43
0.0
 10
183.3179412976404
 20
3.147379820655373
 10
188.514093720347
 20
3.147379820655373
 10
185.9160175089938
 20
7.647379820655373
  0
MTEXT
  5
ACC2
330
18
100
AcDbEntity
  8
DIM
100
AcDbMText
 10
185.6509508946436
 20
6.53016246123807
 30
0.0
 40
3.000000000000001
 41
0.0
 71
     1
 72
     5
  1
{\Ftxt,bigfont|c128;1}
  7
JL
 73
     1
 44
1.0
1001
ACAD
1000
ACAD_MTEXT_DEFINED_HEIGHT_BEGIN
1070
    46
1040
0.0
1000
ACAD_MTEXT_DEFINED_HEIGHT_END
  0
LWPOLYLINE
  5
ACC3
330
18
100
AcDbEntity
  8
DIM
100
AcDbPolyline
 90
        3
 70
     1
 43
0.0
 10
140.3659438649233
 20
265.0598437190433
 10
145.56209628763
 20
265.0598437190433
 10
142.9640200762768
 20
269.5598437190433
  0
MTEXT
  5
ACC4
330
18
100
AcDbEntity
  8
DIM
100
AcDbMText
 10
142.6989534619266
 20
268.4426263596261
 30
0.0
 40
3.000000000000001
 41
0.0
 71
     1
 72
     5
  1
{\Ftxt,bigfont|c128;1}
  7
JL
 73
     1
 44
1.0
1001
ACAD
1000
ACAD_MTEXT_DEFINED_HEIGHT_BEGIN
1070
    46
1040
0.0
1000
ACAD_MTEXT_DEFINED_HEIGHT_END
  0
ENDSEC
  0
SECTION
  2
OBJECTS
  0
DICTIONARY
  5
C
330
0
100
AcDbDictionary
281
     1
  3
ACAD_COLOR
350
AC65
  3
ACAD_GROUP
350
D
  3
ACAD_LAYOUT
350
5CF3
  3
ACAD_MATERIAL
350
AC64
  3
ACAD_MLINESTYLE
350
1B
  3
ACAD_PLOTSETTINGS
350
5CF4
  3
ACAD_PLOTSTYLENAME
350
5CF1
  3
ACAD_TABLESTYLE
350
AC66
  3
ACDBVARIABLEDICTIONARY
350
45D
  0
DICTIONARY
  5
45F
330
18
100
AcDbDictionary
280
     1
281
     1
  3
ACAD_LAYOUTSELFREF
360
5D8B
  3
ACAD_SORTENTS
360
460
  0
DICTIONARY
  5
5D89
330
15
100
AcDbDictionary
280
     1
281
     1
  3
ACAD_LAYOUTSELFREF
360
5D8A
  0
DICTIONARY
  5
AC65
102
{ACAD_REACTORS
330
C
102
}
330
C
100
AcDbDictionary
281
     1
  0
DICTIONARY
  5
D
102
{ACAD_REACTORS
330
C
102
}
330
C
100
AcDbDictionary
281
     1
  0
DICTIONARY
  5
5CF3
102
{ACAD_REACTORS
330
C
102
}
330
C
100
AcDbDictionary
281
     1
  3
Model
350
5CF5
  3
配置1
350
5CF6
  0
DICTIONARY
  5
AC64
102
{ACAD_REACTORS
330
C
102
}
330
C
100
AcDbDictionary
281
     1
  0
DICTIONARY
  5
1B
102
{ACAD_REACTORS
330
C
102
}
330
C
100
AcDbDictionary
281
     1
  3
STANDARD
350
1C
  0
DICTIONARY
  5
5CF4
102
{ACAD_REACTORS
330
C
102
}
330
C
100
AcDbDictionary
281
     1
  0
ACDBDICTIONARYWDFLT
  5
5CF1
102
{ACAD_REACTORS
330
C
102
}
330
C
100
AcDbDictionary
281
     1
  3
Normal
350
5CF2
100
AcDbDictionaryWithDefault
340
5CF2
  0
DICTIONARY
  5
AC66
102
{ACAD_REACTORS
330
C
102
}
330
C
100
AcDbDictionary
281
     1
  3
Standard
350
AC67
  0
DICTIONARY
  5
45D
102
{ACAD_REACTORS
330
C
102
}
330
C
100
AcDbDictionary
281
     1
  3
CTABLESTYLE
350
AC7B
  3
SORTENTS
350
45E
  0
XRECORD
  5
5D8B
102
{ACAD_REACTORS
330
45F
102
}
330
45F
100
AcDbXrecord
280
     1
340
18
  0
SORTENTSTABLE
  5
460
102
{ACAD_REACTORS
330
45F
102
}
330
45F
100
AcDbSortentsTable
330
18
331
C0
  5
CB
  0
XRECORD
  5
5D8A
102
{ACAD_REACTORS
330
5D89
102
}
330
5D89
100
AcDbXrecord
280
     1
340
15
  0
LAYOUT
  5
5CF5
102
{ACAD_REACTORS
330
5CF3
102
}
330
5CF3
100
AcDbPlotSettings
  1

  2
hp LaserJet 1300 PCL 6
  4
A4
  6

 40
5.027083396911621
 41
5.069413185119628
 42
5.027084350585937
 43
5.027069091796875
 44
209.9733276367187
 45
296.9683227539062
 46
2.02746888522445
 47
0.0
 48
-0.0000000000002274
 49
0.0
140
197.9999999999997
141
290.0
142
1.0
143
1.010904379871544
 70
 11956
 72
     1
 73
     0
 74
     4
  7
LIN.ctb
 75
     0
147
0.9892132430241025
 76
     0
 77
     2
 78
   300
148
0.0000000000002274
149
0.0
100
AcDbLayout
  1
Model
 70
     1
 71
     0
 10
0.0
 20
0.0
 11
12.0
 21
9.0
 12
0.0
 22
0.0
 32
0.0
 14
0.0
 24
0.0
 34
0.0
 15
0.0
 25
0.0
 35
0.0
146
0.0
 13
0.0
 23
0.0
 33
0.0
 16
1.0
 26
0.0
 36
0.0
 17
0.0
 27
1.0
 37
0.0
 76
     0
330
18
1001
ACAD_PSEXT
1000
hp LaserJet 1300 PCL 6
1000
hp LaserJet 1300 PCL 6
1000
HP 1300
1000

1070
     0
  0
LAYOUT
  5
5CF6
102
{ACAD_REACTORS
330
5CF3
102
}
330
5CF3
100
AcDbPlotSettings
  1

  2
EPSON STYLUS COLOR 440
  4

  6

 40
0.0
 41
0.0
 42
0.0
 43
0.0
 44
0.0
 45
0.0
 46
0.0
 47
0.0
 48
0.0
 49
0.0
140
0.0
141
0.0
142
1.0
143
1.0
 70
   688
 72
     0
 73
     0
 74
     5
  7
LIN.ctb
 75
    16
147
1.0
 76
     0
 77
     2
 78
   300
148
0.0
149
0.0
100
AcDbLayout
  1
ｰtｸm1
 70
     1
 71
     1
 10
0.0
 20
0.0
 11
420.0
 21
297.0
 12
0.0
 22
0.0
 32
0.0
 14
1.000000000000000E+20
 24
1.000000000000000E+20
 34
1.000000000000000E+20
 15
-1.000000000000000E+20
 25
-1.000000000000000E+20
 35
-1.000000000000000E+20
146
0.0
 13
0.0
 23
0.0
 33
0.0
 16
1.0
 26
0.0
 36
0.0
 17
0.0
 27
1.0
 37
0.0
 76
     0
330
15
  0
MLINESTYLE
  5
1C
102
{ACAD_REACTORS
330
1B
102
}
330
1B
100
AcDbMlineStyle
  2
STANDARD
 70
     0
  3

 62
   256
 51
90.0
 52
90.0
 71
     2
 49
0.5
 62
   256
  6
BYLAYER
 49
-0.5
 62
   256
  6
BYLAYER
  0
ACDBPLACEHOLDER
  5
5CF2
102
{ACAD_REACTORS
330
5CF1
102
}
330
5CF1
  0
TABLESTYLE
  5
AC67
102
{ACAD_REACTORS
330
AC66
102
}
330
AC66
100
AcDbTableStyle
  3
Standard
 70
     0
 71
     8
 40
1.5
 41
1.5
280
     0
281
     0
  7
STANDARD
140
4.5
170
     2
 62
     0
 63
     7
283
     0
274
    -2
284
     1
 64
     0
275
    -2
285
     1
 65
     0
276
    -2
286
     1
 66
     0
277
    -2
287
     1
 67
     0
278
    -2
288
     1
 68
     0
279
    -2
289
     1
 69
     0
  7
STANDARD
140
6.0
170
     5
 62
     0
 63
     7
283
     0
274
    -2
284
     1
 64
     0
275
    -2
285
     1
 65
     0
276
    -2
286
     1
 66
     0
277
    -2
287
     1
 67
     0
278
    -2
288
     1
 68
     0
279
    -2
289
     1
 69
     0
  7
STANDARD
140
4.5
170
     5
 62
     0
 63
     7
283
     0
274
    -2
284
     1
 64
     0
275
    -2
285
     1
 65
     0
276
    -2
286
     1
 66
     0
277
    -2
287
     1
 67
     0
278
    -2
288
     1
 68
     0
279
    -2
289
     1
 69
     0
  0
DICTIONARYVAR
  5
AC7B
102
{ACAD_REACTORS
330
45D
102
}
330
45D
100
DictionaryVariables
280
     0
  1
STANDARD
  0
DICTIONARYVAR
  5
45E
102
{ACAD_REACTORS
330
45D
102
}
330
45D
100
DictionaryVariables
280
     0
  1
127
  0
ENDSEC
  0
EOF
