  0
SECTION
  2
HEADER
  9
$ACADVER
  1
AC1018
  9
$ACADMAINTVER
 70
    76
  9
$DWGCODEPAGE
  3
ANSI_932
  9
$INSBASE
 10
0.0
 20
0.0
 30
0.0
  9
$EXTMIN
 10
-0.0000000000002274
 20
-0.0000000000000568
 30
0.0
  9
$EXTMAX
 10
200.4449321566404
 20
290.0
 30
4.0
  9
$LIMMIN
 10
0.0
 20
0.0
  9
$LIMMAX
 10
420.0
 20
297.0
  9
$ORTHOMODE
 70
     1
  9
$REGENMODE
 70
     1
  9
$FILLMODE
 70
     1
  9
$QTEXTMODE
 70
     0
  9
$MIRRTEXT
 70
     1
  9
$LTSCALE
 40
1.0
  9
$ATTMODE
 70
     1
  9
$TEXTSIZE
 40
2.5
  9
$TRACEWID
 40
1.0
  9
$TEXTSTYLE
  7
TXT
  9
$CLAYER
  8
0
  9
$CELTYPE
  6
BYLAYER
  9
$CECOLOR
 62
   256
  9
$CELTSCALE
 40
1.0
  9
$DISPSILH
 70
     0
  9
$DIMSCALE
 40
1.0
  9
$DIMASZ
 40
2.5
  9
$DIMEXO
 40
1.0
  9
$DIMDLI
 40
6.0
  9
$DIMRND
 40
0.0
  9
$DIMDLE
 40
0.0
  9
$DIMEXE
 40
1.0
  9
$DIMTP
 40
0.0
  9
$DIMTM
 40
0.0
  9
$DIMTXT
 40
3.0
  9
$DIMCEN
 40
0.0
  9
$DIMTSZ
 40
0.0
  9
$DIMTOL
 70
     0
  9
$DIMLIM
 70
     0
  9
$DIMTIH
 70
     0
  9
$DIMTOH
 70
     0
  9
$DIMSE1
 70
     0
  9
$DIMSE2
 70
     0
  9
$DIMTAD
 70
     3
  9
$DIMZIN
 70
     8
  9
$DIMBLK
  1

  9
$DIMASO
 70
     1
  9
$DIMSHO
 70
     1
  9
$DIMPOST
  1

  9
$DIMAPOST
  1

  9
$DIMALT
 70
     0
  9
$DIMALTD
 70
     2
  9
$DIMALTF
 40
25.4
  9
$DIMLFAC
 40
1.0
  9
$DIMTOFL
 70
     0
  9
$DIMTVP
 40
0.0
  9
$DIMTIX
 70
     0
  9
$DIMSOXD
 70
     0
  9
$DIMSAH
 70
     0
  9
$DIMBLK1
  1

  9
$DIMBLK2
  1

  9
$DIMSTYLE
  2
A
  9
$DIMCLRD
 70
     6
  9
$DIMCLRE
 70
     6
  9
$DIMCLRT
 70
     3
  9
$DIMTFAC
 40
1.0
  9
$DIMGAP
 40
1.0
  9
$DIMJUST
 70
     0
  9
$DIMSD1
 70
     0
  9
$DIMSD2
 70
     0
  9
$DIMTOLJ
 70
     1
  9
$DIMTZIN
 70
     0
  9
$DIMALTZ
 70
     0
  9
$DIMALTTZ
 70
     0
  9
$DIMUPT
 70
     0
  9
$DIMDEC
 70
     1
  9
$DIMTDEC
 70
     1
  9
$DIMALTU
 70
     2
  9
$DIMALTTD
 70
     2
  9
$DIMTXSTY
  7
TXT
  9
$DIMAUNIT
 70
     0
  9
$DIMADEC
 70
     0
  9
$DIMALTRND
 40
0.0
  9
$DIMAZIN
 70
     0
  9
$DIMDSEP
 70
    46
  9
$DIMATFIT
 70
     3
  9
$DIMFRAC
 70
     0
  9
$DIMLDRBLK
  1

  9
$DIMLUNIT
 70
     2
  9
$DIMLWD
 70
    -2
  9
$DIMLWE
 70
    -2
  9
$DIMTMOVE
 70
     1
  9
$LUNITS
 70
     2
  9
$LUPREC
 70
     2
  9
$SKETCHINC
 40
1.0
  9
$FILLETRAD
 40
1.5
  9
$AUNITS
 70
     0
  9
$AUPREC
 70
     2
  9
$MENU
  1
.
  9
$ELEVATION
 40
0.0
  9
$PELEVATION
 40
0.0
  9
$THICKNESS
 40
0.0
  9
$LIMCHECK
 70
     0
  9
$CHAMFERA
 40
0.0
  9
$CHAMFERB
 40
0.0
  9
$CHAMFERC
 40
1.75
  9
$CHAMFERD
 40
0.0174532925199433
  9
$SKPOLY
 70
     0
  9
$TDCREATE
 40
2451555.578568171
  9
$TDUCREATE
 40
2451555.203568172
  9
$TDUPDATE
 40
2455846.613645197
  9
$TDUUPDATE
 40
2455846.238645197
  9
$TDINDWG
 40
2.8434687616
  9
$TDUSRTIMER
 40
2.8434687616
  9
$USRTIMER
 70
     1
  9
$ANGBASE
 50
0.0
  9
$ANGDIR
 70
     0
  9
$PDMODE
 70
     0
  9
$PDSIZE
 40
0.0
  9
$PLINEWID
 40
0.0
  9
$SPLFRAME
 70
     0
  9
$SPLINETYPE
 70
     6
  9
$SPLINESEGS
 70
     8
  9
$HANDSEED
  5
AEC3
  9
$SURFTAB1
 70
     6
  9
$SURFTAB2
 70
     6
  9
$SURFTYPE
 70
     6
  9
$SURFU
 70
     6
  9
$SURFV
 70
     6
  9
$UCSBASE
  2

  9
$UCSNAME
  2

  9
$UCSORG
 10
0.0
 20
0.0
 30
0.0
  9
$UCSXDIR
 10
1.0
 20
0.0
 30
0.0
  9
$UCSYDIR
 10
0.0
 20
1.0
 30
0.0
  9
$UCSORTHOREF
  2

  9
$UCSORTHOVIEW
 70
     0
  9
$UCSORGTOP
 10
0.0
 20
0.0
 30
0.0
  9
$UCSORGBOTTOM
 10
0.0
 20
0.0
 30
0.0
  9
$UCSORGLEFT
 10
0.0
 20
0.0
 30
0.0
  9
$UCSORGRIGHT
 10
0.0
 20
0.0
 30
0.0
  9
$UCSORGFRONT
 10
0.0
 20
0.0
 30
0.0
  9
$UCSORGBACK
 10
0.0
 20
0.0
 30
0.0
  9
$PUCSBASE
  2

  9
$PUCSNAME
  2

  9
$PUCSORG
 10
0.0
 20
0.0
 30
0.0
  9
$PUCSXDIR
 10
1.0
 20
0.0
 30
0.0
  9
$PUCSYDIR
 10
0.0
 20
1.0
 30
0.0
  9
$PUCSORTHOREF
  2

  9
$PUCSORTHOVIEW
 70
     0
  9
$PUCSORGTOP
 10
0.0
 20
0.0
 30
0.0
  9
$PUCSORGBOTTOM
 10
0.0
 20
0.0
 30
0.0
  9
$PUCSORGLEFT
 10
0.0
 20
0.0
 30
0.0
  9
$PUCSORGRIGHT
 10
0.0
 20
0.0
 30
0.0
  9
$PUCSORGFRONT
 10
0.0
 20
0.0
 30
0.0
  9
$PUCSORGBACK
 10
0.0
 20
0.0
 30
0.0
  9
$USERI1
 70
     0
  9
$USERI2
 70
     0
  9
$USERI3
 70
     0
  9
$USERI4
 70
     0
  9
$USERI5
 70
     0
  9
$USERR1
 40
0.0
  9
$USERR2
 40
0.0
  9
$USERR3
 40
0.0
  9
$USERR4
 40
0.0
  9
$USERR5
 40
0.0
  9
$WORLDVIEW
 70
     1
  9
$SHADEDGE
 70
     3
  9
$SHADEDIF
 70
    70
  9
$TILEMODE
 70
     1
  9
$MAXACTVP
 70
    48
  9
$PINSBASE
 10
0.0
 20
0.0
 30
0.0
  9
$PLIMCHECK
 70
     0
  9
$PEXTMIN
 10
1.000000000000000E+20
 20
1.000000000000000E+20
 30
1.000000000000000E+20
  9
$PEXTMAX
 10
-1.000000000000000E+20
 20
-1.000000000000000E+20
 30
-1.000000000000000E+20
  9
$PLIMMIN
 10
0.0
 20
0.0
  9
$PLIMMAX
 10
420.0
 20
297.0
  9
$UNITMODE
 70
     0
  9
$VISRETAIN
 70
     1
  9
$PLINEGEN
 70
     0
  9
$PSLTSCALE
 70
     1
  9
$TREEDEPTH
 70
  3020
  9
$CMLSTYLE
  2
STANDARD
  9
$CMLJUST
 70
     0
  9
$CMLSCALE
 40
20.0
  9
$PROXYGRAPHICS
 70
     1
  9
$MEASUREMENT
 70
     1
  9
$CELWEIGHT
370
    -1
  9
$ENDCAPS
280
     0
  9
$JOINSTYLE
280
     0
  9
$LWDISPLAY
290
     0
  9
$INSUNITS
 70
     0
  9
$HYPERLINKBASE
  1

  9
$STYLESHEET
  1

  9
$XEDIT
290
     1
  9
$CEPSNTYPE
380
     0
  9
$PSTYLEMODE
290
     1
  9
$FINGERPRINTGUID
  2
{1CF51E8A-A506-11D4-A7D9-AF69F5C20846}
  9
$VERSIONGUID
  2
{1CF51E8C-A506-11D4-A7D9-AF69F5C20846}
  9
$EXTNAMES
290
     1
  9
$PSVPSCALE
 40
0.0
  9
$OLESTARTUP
290
     0
  9
$SORTENTS
280
   127
  9
$INDEXCTL
280
     0
  9
$HIDETEXT
280
     0
  9
$XCLIPFRAME
290
     0
  9
$HALOGAP
280
     0
  9
$OBSCOLOR
 70
   257
  9
$OBSLTYPE
280
     0
  9
$INTERSECTIONDISPLAY
280
     0
  9
$INTERSECTIONCOLOR
 70
   257
  9
$DIMASSOC
280
     1
  9
$PROJECTNAME
  1

  0
ENDSEC
  0
SECTION
  2
CLASSES
  0
CLASS
  1
DICTIONARYVAR
  2
AcDbDictionaryVar
  3
ObjectDBX Classes
 90
        0
 91
        2
280
     0
281
     0
  0
CLASS
  1
SORTENTSTABLE
  2
AcDbSortentsTable
  3
ObjectDBX Classes
 90
        0
 91
        1
280
     0
281
     0
  0
CLASS
  1
ACDBDICTIONARYWDFLT
  2
AcDbDictionaryWithDefault
  3
ObjectDBX Classes
 90
        0
 91
        1
280
     0
281
     0
  0
CLASS
  1
TABLESTYLE
  2
AcDbTableStyle
  3
ObjectDBX Classes
 90
     2047
 91
        1
280
     0
281
     0
  0
ENDSEC
  0
SECTION
  2
TABLES
  0
TABLE
  2
VPORT
  5
8
330
0
100
AcDbSymbolTable
 70
     2
  0
VPORT
  5
AEC2
330
8
100
AcDbSymbolTableRecord
100
AcDbViewportTableRecord
  2
*Active
 70
     0
 10
0.0
 20
0.0
 11
1.0
 21
1.0
 12
192.8255133631521
 22
144.993409360204
 13
0.0
 23
0.0
 14
10.0
 24
10.0
 15
10.0
 25
10.0
 16
0.0
 26
0.0
 36
1.0
 17
0.0
 27
0.0
 37
0.0
 40
293.4663937697186
 41
2.47104247104247
 42
50.0
 43
0.0
 44
0.0
 50
0.0
 51
0.0
 71
     0
 72
   100
 73
     1
 74
     1
 75
     0
 76
     0
 77
     0
 78
     0
281
     0
 65
     1
110
0.0
120
0.0
130
0.0
111
1.0
121
0.0
131
0.0
112
0.0
122
1.0
132
0.0
 79
     0
146
0.0
  0
ENDTAB
  0
TABLE
  2
LTYPE
  5
5
330
0
100
AcDbSymbolTable
 70
     8
  0
LTYPE
  5
12
330
5
100
AcDbSymbolTableRecord
100
AcDbLinetypeTableRecord
  2
BYBLOCK
 70
     0
  3

 72
    65
 73
     0
 40
0.0
  0
LTYPE
  5
13
330
5
100
AcDbSymbolTableRecord
100
AcDbLinetypeTableRecord
  2
BYLAYER
 70
     0
  3

 72
    65
 73
     0
 40
0.0
  0
LTYPE
  5
14
330
5
100
AcDbSymbolTableRecord
100
AcDbLinetypeTableRecord
  2
CONTINUOUS
 70
     0
  3
Solid line
 72
    65
 73
     0
 40
0.0
  0
LTYPE
  5
9D
330
5
100
AcDbSymbolTableRecord
100
AcDbLinetypeTableRecord
  2
CENTERX2
 70
     0
  3
Center (2x) ________  __  ________  __  _____
 72
    65
 73
     4
 40
101.6
 49
63.5
 74
     0
 49
-12.7
 74
     0
 49
12.7
 74
     0
 49
-12.7
 74
     0
  0
LTYPE
  5
A1
330
5
100
AcDbSymbolTableRecord
100
AcDbLinetypeTableRecord
  2
DASHED
 70
     0
  3
Dashed __ __ __ __ __ __ __ __ __ __ __ __ __ _
 72
    65
 73
     2
 40
19.05
 49
12.7
 74
     0
 49
-6.349999999999999
 74
     0
  0
LTYPE
  5
A2
330
5
100
AcDbSymbolTableRecord
100
AcDbLinetypeTableRecord
  2
DASHED2
 70
     0
  3
Dashed (.5x) _ _ _ _ _ _ _ _ _ _ _ _ _ _ _ _ _
 72
    65
 73
     2
 40
9.524999999999998
 49
6.349999999999999
 74
     0
 49
-3.174999999999999
 74
     0
  0
LTYPE
  5
A5
330
5
100
AcDbSymbolTableRecord
100
AcDbLinetypeTableRecord
  2
DIVIDE2
 70
     0
  3
Divide (.5x) __..__..__..__..__..__..__..__.._
 72
    65
 73
     6
 40
15.875
 49
6.349999999999999
 74
     0
 49
-3.174999999999999
 74
     0
 49
0.0
 74
     0
 49
-3.174999999999999
 74
     0
 49
0.0
 74
     0
 49
-3.174999999999999
 74
     0
  0
LTYPE
  5
650B
330
5
100
AcDbSymbolTableRecord
100
AcDbLinetypeTableRecord
  2
CENTER
 70
     0
  3
Center ____ _ ____ _ ____ _ ____ _ ____ _ ____
 72
    65
 73
     4
 40
50.8
 49
31.75
 74
     0
 49
-6.349999999999999
 74
     0
 49
6.349999999999999
 74
     0
 49
-6.349999999999999
 74
     0
  0
LTYPE
  5
650C
330
5
100
AcDbSymbolTableRecord
100
AcDbLinetypeTableRecord
  2
HIDDEN
 70
     0
  3
Hidden __ __ __ __ __ __ __ __ __ __ __ __ __ _
 72
    65
 73
     2
 40
9.524999999999998
 49
6.349999999999999
 74
     0
 49
-3.174999999999999
 74
     0
  0
LTYPE
  5
A075
330
5
100
AcDbSymbolTableRecord
100
AcDbLinetypeTableRecord
  2
ACAD_ISO03W100
 70
     0
  3
ISO dash space __    __    __    __    __    __
 72
    65
 73
     2
 40
30.0
 49
12.0
 74
     0
 49
-18.0
 74
     0
  0
ENDTAB
  0
TABLE
  2
LAYER
  5
2
330
0
100
AcDbSymbolTable
 70
     9
  0
LAYER
  5
E
330
2
100
AcDbSymbolTableRecord
100
AcDbLayerTableRecord
  2
0
 70
     0
 62
     7
  6
CONTINUOUS
370
    -3
390
5CF2
  0
LAYER
  5
B9
330
2
100
AcDbSymbolTableRecord
100
AcDbLayerTableRecord
  2
DIM
 70
     0
 62
     3
  6
CONTINUOUS
370
    -3
390
5CF2
  0
LAYER
  5
F2
330
2
100
AcDbSymbolTableRecord
100
AcDbLayerTableRecord
  2
DEFPOINTS
 70
     0
 62
     4
  6
CONTINUOUS
290
     0
370
    -3
390
5CF2
  0
LAYER
  5
5F8B
330
2
100
AcDbSymbolTableRecord
100
AcDbLayerTableRecord
  2
公差
 70
     0
 62
     6
  6
CONTINUOUS
370
    -3
390
5CF2
  0
LAYER
  5
644E
330
2
100
AcDbSymbolTableRecord
100
AcDbLayerTableRecord
  2
図框線
 70
     0
 62
     9
  6
CONTINUOUS
370
    -3
390
5CF2
  0
LAYER
  5
650D
330
2
100
AcDbSymbolTableRecord
100
AcDbLayerTableRecord
  2
中心線
 70
     0
 62
     1
  6
CENTER
370
    -3
390
5CF2
  0
LAYER
  5
650E
330
2
100
AcDbSymbolTableRecord
100
AcDbLayerTableRecord
  2
本体内線
 70
     0
 62
     4
  6
HIDDEN
370
    -3
390
5CF2
  0
LAYER
  5
650F
330
2
100
AcDbSymbolTableRecord
100
AcDbLayerTableRecord
  2
本体外線
 70
     0
 62
     2
  6
CONTINUOUS
370
    -3
390
5CF2
  0
LAYER
  5
6510
330
2
100
AcDbSymbolTableRecord
100
AcDbLayerTableRecord
  2
剖面線
 70
     0
 62
     5
  6
CONTINUOUS
370
    -3
390
5CF2
  0
ENDTAB
  0
TABLE
  2
STYLE
  5
3
330
0
100
AcDbSymbolTable
 70
     5
  0
STYLE
  5
F
330
3
100
AcDbSymbolTableRecord
100
AcDbTextStyleTableRecord
  2
STANDARD
 70
     0
 40
0.0
 41
1.0
 50
0.0
 71
     0
 42
2.5
  3
txt
  4

  0
STYLE
  5
BE
330
3
100
AcDbSymbolTableRecord
100
AcDbTextStyleTableRecord
  2
ISOCP3
 70
     0
 40
0.0
 41
1.0
 50
0.0
 71
     0
 42
2.5
  3
isocp3.shx
  4

  0
STYLE
  5
2A37
330
3
100
AcDbSymbolTableRecord
100
AcDbTextStyleTableRecord
  2
TXT
 70
     0
 40
0.0
 41
1.0
 50
0.0
 71
     0
 42
2.5
  3
txt.shx
  4
bigfont.shx
  0
STYLE
  5
5DCB
330
3
100
AcDbSymbolTableRecord
100
AcDbTextStyleTableRecord
  2
LKK
 70
     0
 40
50.0
 41
1.5
 50
0.0
 71
     0
 42
50.0
  3
MS PGothic.ttf
  4

1001
ACAD
1000
MS PGothic
1071
    32818
  0
STYLE
  5
5DCC
330
3
100
AcDbSymbolTableRecord
100
AcDbTextStyleTableRecord
  2
JL
 70
     0
 40
10.0
 41
0.5
 50
0.0
 71
     0
 42
5.0
  3
MS Mincho.ttf
  4

1001
ACAD
1000
MS Mincho
1071
    32785
  0
ENDTAB
  0
TABLE
  2
VIEW
  5
6
330
0
100
AcDbSymbolTable
 70
     0
  0
ENDTAB
  0
TABLE
  2
UCS
  5
7
330
0
100
AcDbSymbolTable
 70
     0
  0
ENDTAB
  0
TABLE
  2
APPID
  5
9
330
0
100
AcDbSymbolTable
 70
     1
  0
APPID
  5
10
330
9
100
AcDbSymbolTableRecord
100
AcDbRegAppTableRecord
  2
ACAD
 70
     0
  0
ENDTAB
  0
TABLE
  2
DIMSTYLE
  5
A
330
0
100
AcDbSymbolTable
 70
     3
100
AcDbDimStyleTable
 71
     0
  0
DIMSTYLE
105
1D
330
A
100
AcDbSymbolTableRecord
100
AcDbDimStyleTableRecord
  2
STANDARD
 70
     0
 41
3.0
 42
0.06
 77
     3
140
4.0
144
0.3333333333333333
172
     1
340
F
  0
DIMSTYLE
105
1A4
102
{ACAD_REACTORS
330
6770
330
6C92
330
6CAA
330
6F74
330
74C6
330
750D
330
7568
330
7575
330
7AD6
330
9E42
330
9E43
330
AB03
102
}
330
A
100
AcDbSymbolTableRecord
100
AcDbDimStyleTableRecord
  2
A
 70
     0
 41
2.5
 42
1.0
 43
6.0
 44
1.0
 73
     0
 74
     0
 77
     3
 78
     8
140
3.0
141
0.0
147
1.0
176
     6
177
     6
178
     3
271
     1
272
     1
279
     1
340
2A37
  0
DIMSTYLE
105
6006
330
A
100
AcDbSymbolTableRecord
100
AcDbDimStyleTableRecord
  2
ISO-25
 70
     0
 40
0.0
 41
2.0
 42
0.3
 43
1.0
 44
0.3
 73
     0
 74
     0
 77
     1
 78
     8
140
3.0
147
1.0
172
     1
176
     6
177
     6
178
     3
271
     1
272
     2
284
     8
288
     1
289
     2
340
F
  0
ENDTAB
  0
TABLE
  2
BLOCK_RECORD
  5
1
330
0
100
AcDbSymbolTable
 70
    13
  0
BLOCK_RECORD
  5
18
102
{ACAD_XDICTIONARY
360
45F
102
}
330
1
100
AcDbSymbolTableRecord
100
AcDbBlockTableRecord
  2
*MODEL_SPACE
340
5CF5
  0
BLOCK_RECORD
  5
15
102
{ACAD_XDICTIONARY
360
5D89
102
}
330
1
100
AcDbSymbolTableRecord
100
AcDbBlockTableRecord
  2
*PAPER_SPACE
340
5CF6
  0
BLOCK_RECORD
  5
639D
330
1
100
AcDbSymbolTableRecord
100
AcDbBlockTableRecord
  2
A$C255C26A2
340
0
102
{BLKREFS
331
63A3
102
}
  0
BLOCK_RECORD
  5
67BC
330
1
100
AcDbSymbolTableRecord
100
AcDbBlockTableRecord
  2
*D1
340
0
  0
BLOCK_RECORD
  5
6C86
330
1
100
AcDbSymbolTableRecord
100
AcDbBlockTableRecord
  2
*D2
340
0
  0
BLOCK_RECORD
  5
6C9E
330
1
100
AcDbSymbolTableRecord
100
AcDbBlockTableRecord
  2
*D3
340
0
  0
BLOCK_RECORD
  5
6FE3
330
1
100
AcDbSymbolTableRecord
100
AcDbBlockTableRecord
  2
*D4
340
0
  0
BLOCK_RECORD
  5
74B6
330
1
100
AcDbSymbolTableRecord
100
AcDbBlockTableRecord
  2
*D5
340
0
  0
BLOCK_RECORD
  5
7501
330
1
100
AcDbSymbolTableRecord
100
AcDbBlockTableRecord
  2
*D6
340
0
  0
BLOCK_RECORD
  5
755C
330
1
100
AcDbSymbolTableRecord
100
AcDbBlockTableRecord
  2
*D7
340
0
  0
BLOCK_RECORD
  5
7569
330
1
100
AcDbSymbolTableRecord
100
AcDbBlockTableRecord
  2
*D8
340
0
  0
BLOCK_RECORD
  5
7AC6
330
1
100
AcDbSymbolTableRecord
100
AcDbBlockTableRecord
  2
*D9
340
0
  0
BLOCK_RECORD
  5
9E46
330
1
100
AcDbSymbolTableRecord
100
AcDbBlockTableRecord
  2
*D10
340
0
  0
BLOCK_RECORD
  5
9E54
330
1
100
AcDbSymbolTableRecord
100
AcDbBlockTableRecord
  2
*D11
340
0
  0
BLOCK_RECORD
  5
AAF5
330
1
100
AcDbSymbolTableRecord
100
AcDbBlockTableRecord
  2
*D12
340
0
  0
ENDTAB
  0
ENDSEC
  0
SECTION
  2
BLOCKS
  0
BLOCK
  5
19
330
18
100
AcDbEntity
  8
0
100
AcDbBlockBegin
  2
*MODEL_SPACE
 70
     0
 10
0.0
 20
0.0
 30
0.0
  3
*MODEL_SPACE
  1

  0
ENDBLK
  5
1A
330
18
100
AcDbEntity
  8
0
100
AcDbBlockEnd
  0
BLOCK
  5
16
330
15
100
AcDbEntity
 67
     1
  8
0
100
AcDbBlockBegin
  2
*PAPER_SPACE
 70
     0
 10
0.0
 20
0.0
 30
0.0
  3
*PAPER_SPACE
  1

  0
ENDBLK
  5
17
330
15
100
AcDbEntity
 67
     1
  8
0
100
AcDbBlockEnd
  0
BLOCK
  5
63A1
330
639D
100
AcDbEntity
  8
0
100
AcDbBlockBegin
  2
A$C255C26A2
 70
     0
 10
0.0
 20
0.0
 30
0.0
  3
A$C255C26A2
  1

  0
LWPOLYLINE
  5
639E
330
639D
100
AcDbEntity
  8
0
100
AcDbPolyline
 90
        3
 70
     1
 43
0.0
 10
7.014806023851633
 20
0.0000006939811783
 10
5.611844869720698
 20
2.430000693981241
 10
8.417767177982568
 20
2.430000693981241
  0
LWPOLYLINE
  5
639F
330
639D
100
AcDbEntity
  8
0
100
AcDbPolyline
 90
        3
 70
     1
 43
0.0
 10
4.20888371558999
 20
0.0000006939811783
 10
2.805922561459283
 20
2.430000693981241
 10
5.611844869720698
 20
2.430000693981241
  0
LWPOLYLINE
  5
63A0
330
639D
100
AcDbEntity
  8
0
100
AcDbPolyline
 90
        3
 70
     1
 43
0.0
 10
1.402961407328348
 20
0.0000006939811783
 10
0.0000002531974133
 20
2.430000693981241
 10
2.805922561459283
 20
2.430000693981241
  0
ENDBLK
  5
63A2
330
639D
100
AcDbEntity
  8
0
100
AcDbBlockEnd
  0
BLOCK
  5
AE99
330
67BC
100
AcDbEntity
  8
0
100
AcDbBlockBegin
  2
*D1
 70
     1
 10
0.0
 20
0.0
 30
0.0
  3
*D1
  1

  0
LINE
  5
AE9A
330
67BC
100
AcDbEntity
  8
0
  6
ByBlock
 62
     6
100
AcDbLine
 10
304.053156604098
 20
60.31098123667987
 30
0.0
 11
304.053156604098
 21
42.69309516992703
 31
0.0
  0
LINE
  5
AE9B
330
67BC
100
AcDbEntity
  8
0
  6
ByBlock
 62
     6
100
AcDbLine
 10
399.0531566040982
 20
60.31098123668006
 30
0.0
 11
399.0531566040982
 21
42.69309516992703
 31
0.0
  0
LINE
  5
AE9C
330
67BC
100
AcDbEntity
  8
0
  6
ByBlock
 62
     6
100
AcDbLine
 10
306.553156604098
 20
43.69309516992703
 30
0.0
 11
396.5531566040982
 21
43.69309516992703
 31
0.0
  0
MTEXT
  5
AE9D
330
67BC
100
AcDbEntity
  8
0
  6
ByBlock
 62
     3
100
AcDbMText
 10
351.5531566040982
 20
46.19309516992703
 30
0.0
 40
3.0
 41
0.0
 71
     5
 72
     1
  1
\A1;M95X2.0P
  7
TXT
 73
     1
 44
1.0
  0
SOLID
  5
AE9E
330
67BC
100
AcDbEntity
  8
0
  6
ByBlock
 62
     6
100
AcDbTrace
 10
306.553156604098
 20
44.1097618365937
 30
0.0
 11
306.553156604098
 21
43.27642850326037
 31
0.0
 12
304.053156604098
 22
43.69309516992703
 32
0.0
 13
304.053156604098
 23
43.69309516992703
 33
0.0
  0
SOLID
  5
AE9F
330
67BC
100
AcDbEntity
  8
0
  6
ByBlock
 62
     6
100
AcDbTrace
 10
396.5531566040982
 20
44.1097618365937
 30
0.0
 11
396.5531566040982
 21
43.27642850326037
 31
0.0
 12
399.0531566040982
 22
43.69309516992703
 32
0.0
 13
399.0531566040982
 23
43.69309516992703
 33
0.0
  0
POINT
  5
AEA0
330
67BC
100
AcDbEntity
  8
DEFPOINTS
  6
ByBlock
 62
     0
100
AcDbPoint
 10
304.053156604098
 20
61.31098123667986
 30
0.0
  0
POINT
  5
AEA1
330
67BC
100
AcDbEntity
  8
DEFPOINTS
  6
ByBlock
 62
     0
100
AcDbPoint
 10
399.0531566040982
 20
61.31098123668007
 30
0.0
  0
POINT
  5
AEA2
330
67BC
100
AcDbEntity
  8
DEFPOINTS
  6
ByBlock
 62
     0
100
AcDbPoint
 10
399.0531566040982
 20
43.69309516992703
 30
0.0
  0
ENDBLK
  5
AEA3
330
67BC
100
AcDbEntity
  8
0
100
AcDbBlockEnd
  0
BLOCK
  5
AE6B
330
6C86
100
AcDbEntity
  8
0
100
AcDbBlockBegin
  2
*D2
 70
     1
 10
0.0
 20
0.0
 30
0.0
  3
*D2
  1

  0
LINE
  5
AE6C
330
6C86
100
AcDbEntity
  8
0
  6
ByBlock
 62
     6
100
AcDbLine
 10
295.0531566040981
 20
87.64431457001327
 30
0.0
 11
295.0531566040981
 21
105.8355377881688
 31
0.0
  0
LINE
  5
AE6D
330
6C86
100
AcDbEntity
  8
0
  6
ByBlock
 62
     6
100
AcDbLine
 10
408.0531566040981
 20
87.64431457001327
 30
0.0
 11
408.0531566040981
 21
105.8355377881688
 31
0.0
  0
LINE
  5
AE6E
330
6C86
100
AcDbEntity
  8
0
  6
ByBlock
 62
     6
100
AcDbLine
 10
297.5531566040981
 20
104.8355377881688
 30
0.0
 11
405.5531566040981
 21
104.8355377881688
 31
0.0
  0
SOLID
  5
AE6F
330
6C86
100
AcDbEntity
  8
0
  6
ByBlock
 62
     6
100
AcDbTrace
 10
297.5531566040981
 20
105.2522044548355
 30
0.0
 11
297.5531566040981
 21
104.4188711215021
 31
0.0
 12
295.0531566040981
 22
104.8355377881688
 32
0.0
 13
295.0531566040981
 23
104.8355377881688
 33
0.0
  0
SOLID
  5
AE70
330
6C86
100
AcDbEntity
  8
0
  6
ByBlock
 62
     6
100
AcDbTrace
 10
405.5531566040981
 20
105.2522044548355
 30
0.0
 11
405.5531566040981
 21
104.4188711215021
 31
0.0
 12
408.0531566040981
 22
104.8355377881688
 32
0.0
 13
408.0531566040981
 23
104.8355377881688
 33
0.0
  0
MTEXT
  5
AE71
330
6C86
100
AcDbEntity
  8
0
  6
ByBlock
 62
     3
100
AcDbMText
 10
351.5531566040981
 20
107.3355377881688
 30
0.0
 40
3.0
 41
0.0
 71
     5
 72
     1
  1
\A1;\U+2205113±0.5
  7
TXT
 73
     1
 44
1.0
  0
POINT
  5
AE72
330
6C86
100
AcDbEntity
  8
DEFPOINTS
  6
ByBlock
 62
     0
100
AcDbPoint
 10
295.0531566040981
 20
86.64431457001327
 30
0.0
  0
POINT
  5
AE73
330
6C86
100
AcDbEntity
  8
DEFPOINTS
  6
ByBlock
 62
     0
100
AcDbPoint
 10
408.0531566040981
 20
86.64431457001327
 30
0.0
  0
POINT
  5
AE74
330
6C86
100
AcDbEntity
  8
DEFPOINTS
  6
ByBlock
 62
     0
100
AcDbPoint
 10
408.0531566040981
 20
104.8355377881688
 30
0.0
  0
ENDBLK
  5
AE75
330
6C86
100
AcDbEntity
  8
0
100
AcDbBlockEnd
  0
BLOCK
  5
AE55
330
6C9E
100
AcDbEntity
  8
0
100
AcDbBlockBegin
  2
*D3
 70
     1
 10
0.0
 20
0.0
 30
0.0
  3
*D3
  1

  0
LINE
  5
AE56
330
6C9E
100
AcDbEntity
  8
0
  6
ByBlock
 62
     6
100
AcDbLine
 10
290.0531566040982
 20
85.14431457001327
 30
0.0
 11
290.0531566040982
 21
111.3430078785837
 31
0.0
  0
LINE
  5
AE57
330
6C9E
100
AcDbEntity
  8
0
  6
ByBlock
 62
     6
100
AcDbLine
 10
413.0531566040984
 20
85.14431457001359
 30
0.0
 11
413.0531566040984
 21
111.3430078785837
 31
0.0
  0
LINE
  5
AE58
330
6C9E
100
AcDbEntity
  8
0
  6
ByBlock
 62
     6
100
AcDbLine
 10
292.5531566040983
 20
110.3430078785837
 30
0.0
 11
410.5531566040983
 21
110.3430078785837
 31
0.0
  0
MTEXT
  5
AE59
330
6C9E
100
AcDbEntity
  8
0
  6
ByBlock
 62
     3
100
AcDbMText
 10
347.4841004761842
 20
113.669128628469
 30
0.0
 40
3.0
 41
0.0
 71
     5
 72
     1
  1
\A1;\U+2205123
  7
TXT
 73
     1
 44
1.0
  0
SOLID
  5
AE5A
330
6C9E
100
AcDbEntity
  8
0
  6
ByBlock
 62
     6
100
AcDbTrace
 10
292.5531566040983
 20
110.7596745452504
 30
0.0
 11
292.5531566040983
 21
109.9263412119171
 31
0.0
 12
290.0531566040982
 22
110.3430078785837
 32
0.0
 13
290.0531566040982
 23
110.3430078785837
 33
0.0
  0
SOLID
  5
AE5B
330
6C9E
100
AcDbEntity
  8
0
  6
ByBlock
 62
     6
100
AcDbTrace
 10
410.5531566040983
 20
110.7596745452504
 30
0.0
 11
410.5531566040983
 21
109.9263412119171
 31
0.0
 12
413.0531566040984
 22
110.3430078785837
 32
0.0
 13
413.0531566040984
 23
110.3430078785837
 33
0.0
  0
POINT
  5
AE5C
330
6C9E
100
AcDbEntity
  8
DEFPOINTS
  6
ByBlock
 62
     0
100
AcDbPoint
 10
290.0531566040982
 20
84.14431457001327
 30
0.0
  0
POINT
  5
AE5D
330
6C9E
100
AcDbEntity
  8
DEFPOINTS
  6
ByBlock
 62
     0
100
AcDbPoint
 10
413.0531566040984
 20
84.14431457001359
 30
0.0
  0
POINT
  5
AE5E
330
6C9E
100
AcDbEntity
  8
DEFPOINTS
  6
ByBlock
 62
     0
100
AcDbPoint
 10
413.0531566040984
 20
110.3430078785837
 30
0.0
  0
ENDBLK
  5
AE5F
330
6C9E
100
AcDbEntity
  8
0
100
AcDbBlockEnd
  0
BLOCK
  5
916D
330
6FE3
100
AcDbEntity
  8
0
100
AcDbBlockBegin
  2
*D4
 70
     1
 10
0.0
 20
0.0
 30
0.0
  3
*D4
  1

  0
LINE
  5
916E
330
6FE3
100
AcDbEntity
  8
0
  6
ByBlock
 62
     6
100
AcDbLine
 10
128.3785872205454
 20
100.4987644138218
 30
0.0
 11
157.1448781245442
 21
83.89053861681096
 31
0.0
  0
LINE
  5
916F
330
6FE3
100
AcDbEntity
  8
0
  6
ByBlock
 62
     6
100
AcDbLine
 10
123.7585872205453
 20
92.49668968285352
 30
0.0
 11
152.5248781245441
 21
75.88846388584264
 31
0.0
  0
LINE
  5
9170
330
6FE3
100
AcDbEntity
  8
0
  6
ByBlock
 62
     6
100
AcDbLine
 10
155.0288527207598
 20
82.22547510734985
 30
0.0
 11
152.9088527207597
 21
78.55352739530373
 31
0.0
  0
LINE
  5
9171
330
6FE3
100
AcDbEntity
  8
0
  6
ByBlock
 62
     6
100
AcDbLine
 10
165.6799250957721
 20
100.6736736159645
 30
0.0
 11
156.2788527207598
 21
84.39053861681095
 31
0.0
  0
MTEXT
  5
9172
330
6FE3
100
AcDbEntity
  8
0
  6
ByBlock
 62
     3
100
AcDbMText
 10
159.9898615863111
 20
95.81819451928428
 30
0.0
 40
3.0
 41
0.0
 71
     5
 72
     1
  1
\A1;9±0.5
  7
TXT
 11
0.5000000000000011
 21
0.866025403784438
 31
0.0
 73
     1
 44
1.0
  0
SOLID
  5
9173
330
6FE3
100
AcDbEntity
  8
0
  6
ByBlock
 62
     6
100
AcDbTrace
 10
154.6680088025162
 20
82.43380844068319
 30
0.0
 11
155.3896966390033
 21
82.01714177401653
 31
0.0
 12
156.2788527207598
 22
84.39053861681095
 32
0.0
 13
156.2788527207598
 23
84.39053861681095
 33
0.0
  0
SOLID
  5
9174
330
6FE3
100
AcDbEntity
  8
0
  6
ByBlock
 62
     6
100
AcDbTrace
 10
152.5480088025162
 20
78.76186072863707
 30
0.0
 11
153.2696966390032
 21
78.3451940619704
 31
0.0
 12
151.6588527207597
 22
76.38846388584264
 32
0.0
 13
151.6588527207597
 23
76.38846388584264
 33
0.0
  0
POINT
  5
9175
330
6FE3
100
AcDbEntity
  8
DEFPOINTS
  6
ByBlock
 62
     0
100
AcDbPoint
 10
127.5125618167609
 20
100.9987644138218
 30
0.0
  0
POINT
  5
9176
330
6FE3
100
AcDbEntity
  8
DEFPOINTS
  6
ByBlock
 62
     0
100
AcDbPoint
 10
122.8925618167608
 20
92.99668968285351
 30
0.0
  0
POINT
  5
9177
330
6FE3
100
AcDbEntity
  8
DEFPOINTS
  6
ByBlock
 62
     0
100
AcDbPoint
 10
151.6588527207597
 20
76.38846388584264
 30
0.0
  0
ENDBLK
  5
9178
330
6FE3
100
AcDbEntity
  8
0
100
AcDbBlockEnd
  0
BLOCK
  5
AE26
330
74B6
100
AcDbEntity
  8
0
100
AcDbBlockBegin
  2
*D5
 70
     1
 10
0.0
 20
0.0
 30
0.0
  3
*D5
  1

  0
LINE
  5
AE27
330
74B6
100
AcDbEntity
  8
0
  6
ByBlock
 62
     6
100
AcDbLine
 10
294.0531566040982
 20
86.64431457001327
 30
0.0
 11
284.752087548058
 21
86.64431457001327
 31
0.0
  0
LINE
  5
AE28
330
74B6
100
AcDbEntity
  8
0
  6
ByBlock
 62
     6
100
AcDbLine
 10
291.0531566040981
 20
86.14431457001328
 30
0.0
 11
284.752087548058
 21
86.14431457001328
 31
0.0
  0
LINE
  5
AE29
330
74B6
100
AcDbEntity
  8
0
  6
ByBlock
 62
     6
100
AcDbLine
 10
285.752087548058
 20
89.14431457001327
 30
0.0
 11
285.752087548058
 21
91.64431457001327
 31
0.0
  0
LINE
  5
AE2A
330
74B6
100
AcDbEntity
  8
0
  6
ByBlock
 62
     6
100
AcDbLine
 10
285.752087548058
 20
83.64431457001328
 30
0.0
 11
285.752087548058
 21
81.14431457001328
 31
0.0
  0
LINE
  5
AE2B
330
74B6
100
AcDbEntity
  8
0
  6
ByBlock
 62
     6
100
AcDbLine
 10
285.752087548058
 20
103.2152703587803
 30
0.0
 11
285.752087548058
 21
86.64431457001327
 31
0.0
  0
MTEXT
  5
AE2C
330
74B6
100
AcDbEntity
  8
0
  6
ByBlock
 62
     3
100
AcDbMText
 10
283.252087548058
 20
99.46527035878034
 30
0.0
 40
3.0
 41
0.0
 71
     5
 72
     1
  1
\A1;0.5
  7
TXT
 11
0.0000000000000001
 21
1.0
 31
0.0
 73
     1
 44
1.0
  0
LINE
  5
AE2D
330
74B6
100
AcDbEntity
  8
0
  6
ByBlock
 62
     6
100
AcDbLine
 10
285.752087548058
 20
86.64431457001327
 30
0.0
 11
285.752087548058
 21
86.14431457001328
 31
0.0
  0
SOLID
  5
AE2E
330
74B6
100
AcDbEntity
  8
0
  6
ByBlock
 62
     6
100
AcDbTrace
 10
285.3354208813913
 20
89.14431457001327
 30
0.0
 11
286.1687542147247
 21
89.14431457001327
 31
0.0
 12
285.752087548058
 22
86.64431457001327
 32
0.0
 13
285.752087548058
 23
86.64431457001327
 33
0.0
  0
SOLID
  5
AE2F
330
74B6
100
AcDbEntity
  8
0
  6
ByBlock
 62
     6
100
AcDbTrace
 10
285.3354208813913
 20
83.64431457001328
 30
0.0
 11
286.1687542147247
 21
83.64431457001328
 31
0.0
 12
285.752087548058
 22
86.14431457001328
 32
0.0
 13
285.752087548058
 23
86.14431457001328
 33
0.0
  0
POINT
  5
AE30
330
74B6
100
AcDbEntity
  8
DEFPOINTS
  6
ByBlock
 62
     0
100
AcDbPoint
 10
295.0531566040981
 20
86.64431457001327
 30
0.0
  0
POINT
  5
AE31
330
74B6
100
AcDbEntity
  8
DEFPOINTS
  6
ByBlock
 62
     0
100
AcDbPoint
 10
292.0531566040981
 20
86.14431457001328
 30
0.0
  0
POINT
  5
AE32
330
74B6
100
AcDbEntity
  8
DEFPOINTS
  6
ByBlock
 62
     0
100
AcDbPoint
 10
285.752087548058
 20
86.14431457001328
 30
0.0
  0
ENDBLK
  5
AE33
330
74B6
100
AcDbEntity
  8
0
100
AcDbBlockEnd
  0
BLOCK
  5
AE81
330
7501
100
AcDbEntity
  8
0
100
AcDbBlockBegin
  2
*D6
 70
     1
 10
0.0
 20
0.0
 30
0.0
  3
*D6
  1

  0
LINE
  5
AE82
330
7501
100
AcDbEntity
  8
0
  6
ByBlock
 62
     6
100
AcDbLine
 10
303.553156604098
 20
87.64431457001327
 30
0.0
 11
303.553156604098
 21
99.99244297654025
 31
0.0
  0
LINE
  5
AE83
330
7501
100
AcDbEntity
  8
0
  6
ByBlock
 62
     6
100
AcDbLine
 10
399.5531566040982
 20
87.64431457001327
 30
0.0
 11
399.5531566040982
 21
99.99244297654025
 31
0.0
  0
LINE
  5
AE84
330
7501
100
AcDbEntity
  8
0
  6
ByBlock
 62
     6
100
AcDbLine
 10
306.053156604098
 20
98.99244297654025
 30
0.0
 11
397.0531566040982
 21
98.99244297654025
 31
0.0
  0
SOLID
  5
AE85
330
7501
100
AcDbEntity
  8
0
  6
ByBlock
 62
     6
100
AcDbTrace
 10
306.053156604098
 20
99.40910964320693
 30
0.0
 11
306.053156604098
 21
98.57577630987357
 31
0.0
 12
303.553156604098
 22
98.99244297654025
 32
0.0
 13
303.553156604098
 23
98.99244297654025
 33
0.0
  0
SOLID
  5
AE86
330
7501
100
AcDbEntity
  8
0
  6
ByBlock
 62
     6
100
AcDbTrace
 10
397.0531566040982
 20
99.40910964320693
 30
0.0
 11
397.0531566040982
 21
98.57577630987357
 31
0.0
 12
399.5531566040982
 22
98.99244297654025
 32
0.0
 13
399.5531566040982
 23
98.99244297654025
 33
0.0
  0
MTEXT
  5
AE87
330
7501
100
AcDbEntity
  8
0
  6
ByBlock
 62
     3
100
AcDbMText
 10
351.5531566040981
 20
101.4924429765402
 30
0.0
 40
3.0
 41
0.0
 71
     5
 72
     1
  1
\A1;\U+220596
  7
TXT
 73
     1
 44
1.0
  0
POINT
  5
AE88
330
7501
100
AcDbEntity
  8
DEFPOINTS
  6
ByBlock
 62
     0
100
AcDbPoint
 10
303.553156604098
 20
86.64431457001327
 30
0.0
  0
POINT
  5
AE89
330
7501
100
AcDbEntity
  8
DEFPOINTS
  6
ByBlock
 62
     0
100
AcDbPoint
 10
399.5531566040982
 20
86.64431457001327
 30
0.0
  0
POINT
  5
AE8A
330
7501
100
AcDbEntity
  8
DEFPOINTS
  6
ByBlock
 62
     0
100
AcDbPoint
 10
399.5531566040982
 20
98.99244297654025
 30
0.0
  0
ENDBLK
  5
AE8B
330
7501
100
AcDbEntity
  8
0
100
AcDbBlockEnd
  0
BLOCK
  5
AAD2
330
755C
100
AcDbEntity
  8
0
100
AcDbBlockBegin
  2
*D7
 70
     1
 10
0.0
 20
0.0
 30
0.0
  3
*D7
  1

  0
LINE
  5
AAD3
330
755C
100
AcDbEntity
  8
0
  6
ByBlock
 62
     6
100
AcDbLine
 10
426.4290919635994
 20
96.62898606576186
 30
0.0
 11
446.3223678372377
 21
96.62898606576186
 31
0.0
  0
LINE
  5
AAD4
330
755C
100
AcDbEntity
  8
0
  6
ByBlock
 62
     6
100
AcDbLine
 10
429.1490919635994
 20
74.6819849554733
 30
0.0
 11
446.3223678372377
 21
74.6819849554733
 31
0.0
  0
LINE
  5
AAD5
330
755C
100
AcDbEntity
  8
0
  6
ByBlock
 62
     6
100
AcDbLine
 10
445.3223678372377
 20
94.12898606576186
 30
0.0
 11
445.3223678372377
 21
77.1819849554733
 31
0.0
  0
SOLID
  5
AAD6
330
755C
100
AcDbEntity
  8
0
  6
ByBlock
 62
     6
100
AcDbTrace
 10
444.905701170571
 20
94.12898606576186
 30
0.0
 11
445.7390345039043
 21
94.12898606576186
 31
0.0
 12
445.3223678372377
 22
96.62898606576186
 32
0.0
 13
445.3223678372377
 23
96.62898606576186
 33
0.0
  0
SOLID
  5
AAD7
330
755C
100
AcDbEntity
  8
0
  6
ByBlock
 62
     6
100
AcDbTrace
 10
444.905701170571
 20
77.1819849554733
 30
0.0
 11
445.7390345039043
 21
77.1819849554733
 31
0.0
 12
445.3223678372377
 22
74.6819849554733
 32
0.0
 13
445.3223678372377
 23
74.6819849554733
 33
0.0
  0
MTEXT
  5
AAD8
330
755C
100
AcDbEntity
  8
0
  6
ByBlock
 62
     3
100
AcDbMText
 10
442.8223678372376
 20
85.65548551061757
 30
0.0
 40
3.0
 41
0.0
 71
     5
 72
     1
  1
\A1;22
  7
TXT
 11
0.0000000000000001
 21
1.0
 31
0.0
 73
     1
 44
1.0
  0
POINT
  5
AAD9
330
755C
100
AcDbEntity
  8
DEFPOINTS
  6
ByBlock
 62
     0
100
AcDbPoint
 10
425.4290919635995
 20
96.62898606576186
 30
0.0
  0
POINT
  5
AADA
330
755C
100
AcDbEntity
  8
DEFPOINTS
  6
ByBlock
 62
     0
100
AcDbPoint
 10
428.1490919635994
 20
74.6819849554733
 30
0.0
  0
POINT
  5
AADB
330
755C
100
AcDbEntity
  8
DEFPOINTS
  6
ByBlock
 62
     0
100
AcDbPoint
 10
445.3223678372377
 20
74.6819849554733
 30
0.0
  0
ENDBLK
  5
AADC
330
755C
100
AcDbEntity
  8
0
100
AcDbBlockEnd
  0
BLOCK
  5
AADD
330
7569
100
AcDbEntity
  8
0
100
AcDbBlockBegin
  2
*D8
 70
     1
 10
0.0
 20
0.0
 30
0.0
  3
*D8
  1

  0
LINE
  5
AADE
330
7569
100
AcDbEntity
  8
0
  6
ByBlock
 62
     6
100
AcDbLine
 10
426.8160412617754
 20
70.64102260327975
 30
0.0
 11
456.4713887636258
 21
70.64102260327975
 31
0.0
  0
LINE
  5
AADF
330
7569
100
AcDbEntity
  8
0
  6
ByBlock
 62
     6
100
AcDbLine
 10
426.4290919635994
 20
96.62898606576186
 30
0.0
 11
456.4713887636258
 21
96.62898606576186
 31
0.0
  0
LINE
  5
AAE0
330
7569
100
AcDbEntity
  8
0
  6
ByBlock
 62
     6
100
AcDbLine
 10
455.4713887636259
 20
73.14102260327975
 30
0.0
 11
455.4713887636259
 21
94.12898606576186
 31
0.0
  0
SOLID
  5
AAE1
330
7569
100
AcDbEntity
  8
0
  6
ByBlock
 62
     6
100
AcDbTrace
 10
455.0547220969591
 20
73.14102260327975
 30
0.0
 11
455.8880554302925
 21
73.14102260327975
 31
0.0
 12
455.4713887636259
 22
70.64102260327975
 32
0.0
 13
455.4713887636259
 23
70.64102260327975
 33
0.0
  0
SOLID
  5
AAE2
330
7569
100
AcDbEntity
  8
0
  6
ByBlock
 62
     6
100
AcDbTrace
 10
455.0547220969591
 20
94.12898606576186
 30
0.0
 11
455.8880554302925
 21
94.12898606576186
 31
0.0
 12
455.4713887636259
 22
96.62898606576186
 32
0.0
 13
455.4713887636259
 23
96.62898606576186
 33
0.0
  0
MTEXT
  5
AAE3
330
7569
100
AcDbEntity
  8
0
  6
ByBlock
 62
     3
100
AcDbMText
 10
452.9713887636258
 20
83.63500433452079
 30
0.0
 40
3.0
 41
0.0
 71
     5
 72
     1
  1
\A1;26±0.2
  7
TXT
 11
0.0000000000000001
 21
1.0
 31
0.0
 73
     1
 44
1.0
  0
POINT
  5
AAE4
330
7569
100
AcDbEntity
  8
DEFPOINTS
  6
ByBlock
 62
     0
100
AcDbPoint
 10
425.8160412617754
 20
70.64102260327975
 30
0.0
  0
POINT
  5
AAE5
330
7569
100
AcDbEntity
  8
DEFPOINTS
  6
ByBlock
 62
     0
100
AcDbPoint
 10
425.4290919635995
 20
96.62898606576186
 30
0.0
  0
POINT
  5
AAE6
330
7569
100
AcDbEntity
  8
DEFPOINTS
  6
ByBlock
 62
     0
100
AcDbPoint
 10
455.4713887636259
 20
96.62898606576186
 30
0.0
  0
ENDBLK
  5
AAE7
330
7569
100
AcDbEntity
  8
0
100
AcDbBlockEnd
  0
BLOCK
  5
9065
330
7AC6
100
AcDbEntity
  8
0
100
AcDbBlockBegin
  2
*D9
 70
     1
 10
0.0
 20
0.0
 30
0.0
  3
*D9
  1

  0
LINE
  5
9066
330
7AC6
100
AcDbEntity
  8
0
  6
ByBlock
 62
     6
100
AcDbLine
 10
312.5311849191344
 20
112.9966896828538
 30
0.0
 11
308.7489200256147
 21
112.9966896828538
 31
0.0
  0
LINE
  5
9067
330
7AC6
100
AcDbEntity
  8
0
  6
ByBlock
 62
     6
100
AcDbLine
 10
312.5311849191344
 20
114.9966896828535
 30
0.0
 11
308.7489200256147
 21
114.9966896828535
 31
0.0
  0
LINE
  5
9068
330
7AC6
100
AcDbEntity
  8
0
  6
ByBlock
 62
     6
100
AcDbLine
 10
309.7489200256147
 20
110.4966896828538
 30
0.0
 11
309.7489200256147
 21
107.9966896828538
 31
0.0
  0
LINE
  5
9069
330
7AC6
100
AcDbEntity
  8
0
  6
ByBlock
 62
     6
100
AcDbLine
 10
309.7489200256147
 20
117.4966896828535
 30
0.0
 11
309.7489200256147
 21
119.9966896828535
 31
0.0
  0
LINE
  5
906A
330
7AC6
100
AcDbEntity
  8
0
  6
ByBlock
 62
     6
100
AcDbLine
 10
309.7489200256147
 20
124.5825033705258
 30
0.0
 11
309.7489200256147
 21
114.9966896828535
 31
0.0
  0
MTEXT
  5
906B
330
7AC6
100
AcDbEntity
  8
0
  6
ByBlock
 62
     3
100
AcDbMText
 10
307.2489200256147
 20
122.5825033705258
 30
0.0
 40
3.0
 41
0.0
 71
     5
 72
     1
  1
\A1;2
  7
TXT
 11
0.0000000000000001
 21
1.0
 31
0.0
 73
     1
 44
1.0
  0
LINE
  5
906C
330
7AC6
100
AcDbEntity
  8
0
  6
ByBlock
 62
     6
100
AcDbLine
 10
309.7489200256147
 20
112.9966896828538
 30
0.0
 11
309.7489200256147
 21
114.9966896828535
 31
0.0
  0
SOLID
  5
906D
330
7AC6
100
AcDbEntity
  8
0
  6
ByBlock
 62
     6
100
AcDbTrace
 10
309.332253358948
 20
110.4966896828538
 30
0.0
 11
310.1655866922814
 21
110.4966896828538
 31
0.0
 12
309.7489200256147
 22
112.9966896828538
 32
0.0
 13
309.7489200256147
 23
112.9966896828538
 33
0.0
  0
SOLID
  5
906E
330
7AC6
100
AcDbEntity
  8
0
  6
ByBlock
 62
     6
100
AcDbTrace
 10
309.332253358948
 20
117.4966896828535
 30
0.0
 11
310.1655866922814
 21
117.4966896828535
 31
0.0
 12
309.7489200256147
 22
114.9966896828535
 32
0.0
 13
309.7489200256147
 23
114.9966896828535
 33
0.0
  0
POINT
  5
906F
330
7AC6
100
AcDbEntity
  8
DEFPOINTS
  6
ByBlock
 62
     0
100
AcDbPoint
 10
313.5311849191344
 20
112.9966896828538
 30
0.0
  0
POINT
  5
9070
330
7AC6
100
AcDbEntity
  8
DEFPOINTS
  6
ByBlock
 62
     0
100
AcDbPoint
 10
313.5311849191344
 20
114.9966896828535
 30
0.0
  0
POINT
  5
9071
330
7AC6
100
AcDbEntity
  8
DEFPOINTS
  6
ByBlock
 62
     0
100
AcDbPoint
 10
309.7489200256147
 20
114.9966896828535
 30
0.0
  0
ENDBLK
  5
9072
330
7AC6
100
AcDbEntity
  8
0
100
AcDbBlockEnd
  0
BLOCK
  5
AA62
330
9E46
100
AcDbEntity
  8
0
100
AcDbBlockBegin
  2
*D10
 70
     1
 10
0.0
 20
0.0
 30
0.0
  3
*D10
  1

  0
LINE
  5
AA63
330
9E46
100
AcDbEntity
  8
0
  6
ByBlock
 62
     6
100
AcDbLine
 10
312.5413381368033
 20
258.3955957091179
 30
0.0
 11
312.5413381368033
 21
208.5008903465508
 31
0.0
  0
LINE
  5
AA64
330
9E46
100
AcDbEntity
  8
0
  6
ByBlock
 62
     6
100
AcDbLine
 10
316.5290919635996
 20
258.395595709118
 30
0.0
 11
316.5290919635996
 21
208.5008903465508
 31
0.0
  0
LINE
  5
AA65
330
9E46
100
AcDbEntity
  8
0
  6
ByBlock
 62
     6
100
AcDbLine
 10
310.0413381368033
 20
209.5008903465508
 30
0.0
 11
307.5413381368033
 21
209.5008903465508
 31
0.0
  0
LINE
  5
AA66
330
9E46
100
AcDbEntity
  8
0
  6
ByBlock
 62
     6
100
AcDbLine
 10
319.0290919635996
 20
209.5008903465508
 30
0.0
 11
321.5290919635996
 21
209.5008903465508
 31
0.0
  0
MTEXT
  5
AA67
330
9E46
100
AcDbEntity
  8
0
  6
ByBlock
 62
     3
100
AcDbMText
 10
321.5290919635996
 20
212.0008903465508
 30
0.0
 40
3.0
 41
0.0
 71
     5
 72
     1
  1
\A1;4
  7
TXT
 73
     1
 44
1.0
  0
LINE
  5
AA68
330
9E46
100
AcDbEntity
  8
0
  6
ByBlock
 62
     6
100
AcDbLine
 10
312.5413381368033
 20
209.5008903465508
 30
0.0
 11
316.5290919635996
 21
209.5008903465508
 31
0.0
  0
SOLID
  5
AA69
330
9E46
100
AcDbEntity
  8
0
  6
ByBlock
 62
     6
100
AcDbTrace
 10
310.0413381368033
 20
209.9175570132175
 30
0.0
 11
310.0413381368033
 21
209.0842236798842
 31
0.0
 12
312.5413381368033
 22
209.5008903465508
 32
0.0
 13
312.5413381368033
 23
209.5008903465508
 33
0.0
  0
SOLID
  5
AA6A
330
9E46
100
AcDbEntity
  8
0
  6
ByBlock
 62
     6
100
AcDbTrace
 10
319.0290919635996
 20
209.9175570132175
 30
0.0
 11
319.0290919635996
 21
209.0842236798842
 31
0.0
 12
316.5290919635996
 22
209.5008903465508
 32
0.0
 13
316.5290919635996
 23
209.5008903465508
 33
0.0
  0
POINT
  5
AA6B
330
9E46
100
AcDbEntity
  8
DEFPOINTS
  6
ByBlock
 62
     0
100
AcDbPoint
 10
312.5413381368033
 20
259.3955957091179
 30
0.0
  0
POINT
  5
AA6C
330
9E46
100
AcDbEntity
  8
DEFPOINTS
  6
ByBlock
 62
     0
100
AcDbPoint
 10
316.5290919635996
 20
259.395595709118
 30
0.0
  0
POINT
  5
AA6D
330
9E46
100
AcDbEntity
  8
DEFPOINTS
  6
ByBlock
 62
     0
100
AcDbPoint
 10
316.5290919635996
 20
209.5008903465508
 30
0.0
  0
ENDBLK
  5
AA6E
330
9E46
100
AcDbEntity
  8
0
100
AcDbBlockEnd
  0
BLOCK
  5
AA4A
330
9E54
100
AcDbEntity
  8
0
100
AcDbBlockBegin
  2
*D11
 70
     1
 10
0.0
 20
0.0
 30
0.0
  3
*D11
  1

  0
LINE
  5
AA4B
330
9E54
100
AcDbEntity
  8
0
  6
ByBlock
 62
     6
100
AcDbLine
 10
312.1033350140413
 20
259.395595709118
 30
0.0
 11
301.5801955641109
 21
259.395595709118
 31
0.0
  0
LINE
  5
AA4C
330
9E54
100
AcDbEntity
  8
0
  6
ByBlock
 62
     6
100
AcDbLine
 10
312.1033350140413
 20
269.3955957091179
 30
0.0
 11
301.5801955641109
 21
269.3955957091179
 31
0.0
  0
LINE
  5
AA4D
330
9E54
100
AcDbEntity
  8
0
  6
ByBlock
 62
     6
100
AcDbLine
 10
302.5801955641108
 20
261.895595709118
 30
0.0
 11
302.5801955641108
 21
266.8955957091179
 31
0.0
  0
MTEXT
  5
AA4E
330
9E54
100
AcDbEntity
  8
0
  6
ByBlock
 62
     3
100
AcDbMText
 10
299.2057915232551
 20
277.0964788744734
 30
0.0
 40
3.0
 41
0.0
 71
     5
 72
     1
  1
\A1;10      (3等分)
  7
TXT
 11
0.0000000000000001
 21
1.0
 31
0.0
 73
     1
 44
1.0
  0
SOLID
  5
AA4F
330
9E54
100
AcDbEntity
  8
0
  6
ByBlock
 62
     6
100
AcDbTrace
 10
302.1635288974442
 20
261.895595709118
 30
0.0
 11
302.9968622307775
 21
261.895595709118
 31
0.0
 12
302.5801955641108
 22
259.395595709118
 32
0.0
 13
302.5801955641108
 23
259.395595709118
 33
0.0
  0
SOLID
  5
AA50
330
9E54
100
AcDbEntity
  8
0
  6
ByBlock
 62
     6
100
AcDbTrace
 10
302.1635288974442
 20
266.8955957091179
 30
0.0
 11
302.9968622307775
 21
266.8955957091179
 31
0.0
 12
302.5801955641108
 22
269.3955957091179
 32
0.0
 13
302.5801955641108
 23
269.3955957091179
 33
0.0
  0
POINT
  5
AA51
330
9E54
100
AcDbEntity
  8
DEFPOINTS
  6
ByBlock
 62
     0
100
AcDbPoint
 10
313.1033350140413
 20
259.395595709118
 30
0.0
  0
POINT
  5
AA52
330
9E54
100
AcDbEntity
  8
DEFPOINTS
  6
ByBlock
 62
     0
100
AcDbPoint
 10
313.1033350140413
 20
269.3955957091179
 30
0.0
  0
POINT
  5
AA53
330
9E54
100
AcDbEntity
  8
DEFPOINTS
  6
ByBlock
 62
     0
100
AcDbPoint
 10
302.5801955641108
 20
269.3955957091179
 30
0.0
  0
ENDBLK
  5
AA54
330
9E54
100
AcDbEntity
  8
0
100
AcDbBlockEnd
  0
BLOCK
  5
AAF6
330
AAF5
100
AcDbEntity
  8
0
100
AcDbBlockBegin
  2
*D12
 70
     1
 10
0.0
 20
0.0
 30
0.0
  3
*D12
  1

  0
LINE
  5
AAF7
330
AAF5
100
AcDbEntity
  8
0
  6
ByBlock
 62
     6
100
AcDbLine
 10
430.6278382837841
 20
73.25088010026184
 30
0.0
 11
466.3721678737855
 21
52.61388178947192
 31
0.0
  0
LINE
  5
AAF8
330
AAF5
100
AcDbEntity
  8
0
  6
ByBlock
 62
     6
100
AcDbLine
 10
426.4290919635995
 20
96.62898606576185
 30
0.0
 11
478.1659795193891
 21
96.62898606576195
 31
0.0
  0
ARC
  5
AAF9
330
AAF5
100
AcDbEntity
  8
0
  6
ByBlock
 62
     6
100
AcDbCircle
 10
390.1357709668084
 20
96.62898606576192
 30
0.0
 40
87.03020855258063
100
AcDbArc
 50
331.645915555687
 51
358.3540844443133
  0
SOLID
  5
AAFA
330
AAF5
100
AcDbEntity
  8
0
  6
ByBlock
 62
     6
100
AcDbTrace
 10
467.0887160476445
 20
55.09354640310131
 30
0.0
 11
466.3611181417299
 21
55.49980461132998
 31
0.0
 12
465.5061424700011
 22
53.11388178947192
 32
0.0
 13
465.5061424700011
 23
53.11388178947192
 33
0.0
  0
SOLID
  5
AAFB
330
AAF5
100
AcDbEntity
  8
0
  6
ByBlock
 62
     6
100
AcDbTrace
 10
476.7134487597949
 20
94.13522845469946
 30
0.0
 11
477.5466961341715
 21
94.12325943056414
 31
0.0
 12
477.165979519389
 22
96.62898606576195
 32
0.0
 13
477.165979519389
 23
96.62898606576195
 33
0.0
  0
MTEXT
  5
AAFC
330
AAF5
100
AcDbEntity
  8
0
  6
ByBlock
 62
     3
100
AcDbMText
 10
471.7856825093472
 20
74.75095820586623
 30
0.0
 40
3.0
 41
0.0
 71
     5
 72
     1
  1
\A1;30°
  7
TXT
 11
0.2588190451025171
 21
0.9659258262890693
 31
0.0
 73
     1
 44
1.0
  0
POINT
  5
AAFD
330
AAF5
100
AcDbEntity
  8
DEFPOINTS
  6
ByBlock
 62
     0
100
AcDbPoint
 10
471.9174157291272
 20
66.86290166294567
 30
0.0
  0
POINT
  5
AAFE
330
AAF5
100
AcDbEntity
  8
DEFPOINTS
  6
ByBlock
 62
     0
100
AcDbPoint
 10
317.4290919635995
 20
96.62898606576186
 30
0.0
  0
POINT
  5
AAFF
330
AAF5
100
AcDbEntity
  8
DEFPOINTS
  6
ByBlock
 62
     0
100
AcDbPoint
 10
429.7618128799996
 20
73.75088010026184
 30
0.0
  0
POINT
  5
AB00
330
AAF5
100
AcDbEntity
  8
DEFPOINTS
  6
ByBlock
 62
     0
100
AcDbPoint
 10
414.1090493818187
 20
82.78800731949806
 30
0.0
  0
POINT
  5
AB01
330
AAF5
100
AcDbEntity
  8
DEFPOINTS
  6
ByBlock
 62
     0
100
AcDbPoint
 10
425.4290919635995
 20
96.62898606576185
 30
0.0
  0
ENDBLK
  5
AB02
330
AAF5
100
AcDbEntity
  8
0
100
AcDbBlockEnd
  0
ENDSEC
  0
SECTION
  2
ENTITIES
  0
MTEXT
  5
C0
330
18
100
AcDbEntity
  8
0
100
AcDbMText
 10
41.26970765600413
 20
233.6950877649332
 30
0.0
 40
2.5
 41
0.0
 71
     1
 72
     5
  1

  7
ISOCP3
 73
     1
 44
1.0
  0
MTEXT
  5
503F
330
18
100
AcDbEntity
  8
公差
100
AcDbMText
 10
81.15360650138189
 20
116.8152124615435
 30
0.0
 40
2.0
 41
11.48459459716352
 71
     1
 72
     5
  1
+0\P-0.2
  7
TXT
 73
     1
 44
1.0
  0
LINE
  5
5AD6
330
18
100
AcDbEntity
  8
DIM
100
AcDbLine
 10
166.5812118852727
 20
86.71559033392098
 30
0.0
 11
166.5812118852727
 21
103.2423167890447
 31
0.0
  0
LINE
  5
5AD7
330
18
100
AcDbEntity
  8
DIM
100
AcDbLine
 10
166.5812118852727
 20
103.2423167890447
 30
0.0
 11
176.6962654899737
 21
103.2423167890447
 31
0.0
  0
LINE
  5
5ADA
330
18
100
AcDbEntity
  8
DIM
100
AcDbLine
 10
32.5389150852468
 20
43.69309516992703
 30
0.0
 11
32.5389150852468
 21
36.41155998018226
 31
0.0
  0
TOLERANCE
  5
5E6E
330
18
100
AcDbEntity
  8
DIM
  6
ByBlock
100
AcDbFcf
  3
A
 10
176.6962654899737
 20
103.2932552251757
 30
0.0
  1
{\Fgdt;h}%%v0.005%%v%%vA%%v%%v
1001
ACAD
1000
DSTYLE
1002
{
1070
   140
1040
2.743999999999999
1070
   147
1040
0.6859999999999999
1002
}
  0
MTEXT
  5
608E
330
18
100
AcDbEntity
  8
0
100
AcDbMText
 10
17.81948278949767
 20
19.37399834316261
 30
0.0
 40
5.0
 41
0.0
 71
     1
 72
     5
  1
\Ftxt.shx,bigfont.shx|c128;呉銘宏
  7
JL
 73
     1
 44
1.0
  0
MTEXT
  5
6095
330
18
100
AcDbEntity
  8
0
100
AcDbMText
 10
81.23517665196368
 20
29.2278230533891
 30
0.0
 40
4.5
 41
0.0
 71
     1
 72
     5
  1
\Ftxt.shx,bigfont.shx|c128;1 : 1
  7
JL
 73
     1
 44
1.0
  0
MTEXT
  5
6098
330
18
100
AcDbEntity
  8
0
 48
2.0
370
    25
100
AcDbMText
 10
146.1234268906314
 20
3.636969934829039
 30
0.0
 40
4.5
 41
0.0
 71
     5
 72
     1
  1
\Ftxt.shx,bigfont.shx|c128;N L 4 0 0 1 6
 73
     1
 44
1.0
  0
MTEXT
  5
609C
330
18
100
AcDbEntity
  8
0
 48
2.0
100
AcDbMText
 10
178.1300746997774
 20
22.17550270047843
 30
0.0
 40
4.5
 41
0.0
 71
     5
 72
     1
  1
\P\Ftxt.shx,bigfont.shx|c128;    MF95X2.0P
 73
     1
 44
1.0
  0
MTEXT
  5
635A
330
18
100
AcDbEntity
  8
0
100
AcDbMText
 10
16.02348109109539
 20
28.64592585511957
 30
0.0
 40
4.5
 41
0.0
 71
     1
 72
     5
  1
\Ftxt.shx,bigfont.shx|c128;05.03.03
  7
JL
 73
     1
 44
1.0
  0
INSERT
  5
63A3
330
18
100
AcDbEntity
  8
0
100
AcDbBlockReference
  2
A$C255C26A2
 10
101.0970501896004
 20
86.64431387603213
 30
0.0
  0
MTEXT
  5
63A4
330
18
100
AcDbEntity
  8
0
 62
     7
 48
2.0
100
AcDbMText
 10
105.1908529384566
 20
91.53986484305075
 30
0.0
 40
3.0
 41
0.0
 71
     5
 72
     1
  1
G
 73
     1
 44
1.0
  0
LEADER
  5
63CA
330
18
100
AcDbEntity
  8
DIM
 62
     6
100
AcDbLeader
  3
A
 76
     2
 10
128.4547418349959
 20
72.98074739532143
 30
0.0
 10
150.37141048766
 20
110.5187800391581
 30
0.0
  0
LEADER
  5
63CB
330
18
100
AcDbEntity
  8
DIM
 62
     6
100
AcDbLeader
  3
A
 76
     2
 10
139.2589150852462
 20
64.75731345972464
 30
0.0
 10
150.453177462388
 20
41.78820295081869
 30
0.0
  0
MTEXT
  5
63CC
330
18
100
AcDbEntity
  8
DIM
100
AcDbMText
 10
149.3898606276772
 20
116.1816909669507
 30
0.0
 40
5.0
 41
1.0
 71
     1
 72
     5
  1
\Ftxt.shx,bigfont.shx|c128;3
 73
     1
 44
1.0
  0
MTEXT
  5
63CE
330
18
100
AcDbEntity
  8
DIM
100
AcDbMText
 10
149.5130933612118
 20
40.56035427202478
 30
0.0
 40
5.0
 41
1.0
 71
     1
 72
     5
  1
\Ftxt.shx,bigfont.shx|c128;2
 73
     1
 44
1.0
  0
LINE
  5
63CF
330
18
100
AcDbEntity
  8
DIM
100
AcDbLine
 10
32.5389150852468
 20
36.41155998018226
 30
0.0
 11
33.45137343347238
 21
35.43368588445719
 31
0.0
  0
HATCH
  5
63D0
330
18
100
AcDbEntity
  8
DIM
  6
Continuous
100
AcDbHatch
 10
0.0
 20
0.0
 30
0.0
210
0.0
220
0.0
230
1.0
  2
SOLID
 70
     1
 71
     0
 91
        1
 92
        7
 72
     0
 73
     1
 93
        3
 10
32.53779097079422
 20
34.42787158520176
 10
33.45652305939427
 20
35.41267938044548
 10
32.53779097079422
 20
36.39748717568921
 97
        0
 75
     0
 76
     1
 47
0.2359147607200769
 98
        1
 10
32.82560696702501
 20
35.62415538613701
450
        0
451
        0
460
0.0
461
0.0
452
        0
462
0.0
453
        0
470

  0
LINE
  5
63D1
330
18
100
AcDbEntity
  8
DIM
100
AcDbLine
 10
38.19846624016845
 20
33.62003208029768
 30
0.0
 11
38.19846624016845
 21
37.26633087031883
 31
0.0
  0
LINE
  5
63D2
330
18
100
AcDbEntity
  8
DIM
100
AcDbLine
 10
38.19846624016845
 20
37.26633087031883
 30
0.0
 11
42.00710148567913
 21
37.26633087031883
 31
0.0
  0
LINE
  5
63D3
330
18
100
AcDbEntity
  8
DIM
100
AcDbLine
 10
42.00710148567913
 20
33.62003208029768
 30
0.0
 11
42.00710148567913
 21
37.26633087031883
 31
0.0
  0
LINE
  5
63D4
330
18
100
AcDbEntity
  8
DIM
100
AcDbLine
 10
38.19846624016845
 20
33.62003208029768
 30
0.0
 11
42.00710148567913
 21
33.62003208029768
 31
0.0
  0
LINE
  5
63D5
330
18
100
AcDbEntity
  8
DIM
100
AcDbLine
 10
38.19846624016845
 20
35.44318147530825
 30
0.0
 11
33.43767240444538
 21
35.44318147530825
 31
0.0
  0
MTEXT
  5
63D6
330
18
100
AcDbEntity
  8
DIM
100
AcDbMText
 10
39.15570396260807
 20
36.9349991545453
 30
0.0
 40
3.0
 41
2.354875985554478
 71
     1
 72
     5
  1
A
  7
ISOCP3
 73
     1
 44
1.0
  0
LINE
  5
64AF
330
18
100
AcDbEntity
  8
図框線
100
AcDbLine
 10
197.9999999999997
 20
289.9999999999999
 30
0.0
 11
197.9999999999997
 21
-0.0000000000000568
 31
0.0
  0
LINE
  5
64B0
330
18
100
AcDbEntity
  8
図框線
370
    30
100
AcDbLine
 10
-0.0000000000002274
 20
0.0
 30
0.0
 11
-0.0000000000002274
 21
290.0
 31
0.0
  0
LINE
  5
64B1
330
18
100
AcDbEntity
  8
0
 62
     7
 48
5.0
100
AcDbLine
 39
4.0
 10
49.94750515634314
 20
27.8953239783782
 30
0.0
 11
55.27930887205229
 21
29.22827490730549
 31
0.0
  0
MTEXT
  5
64B2
330
18
100
AcDbEntity
  8
0
100
AcDbMText
 10
15.97866977158742
 20
9.63134010478825
 30
0.0
 40
6.0
 41
0.0
 71
     1
 72
     5
  1
\Ftxt.shx,bigfont.shx|c128;日機株式会社
  7
LKK
 73
     1
 44
1.0
  0
LINE
  5
64B3
330
18
100
AcDbEntity
  8
図框線
100
AcDbLine
 10
0.0
 20
0.0
 30
0.0
 11
197.9999999999997
 21
0.0
 31
0.0
  0
LINE
  5
64B7
330
18
100
AcDbEntity
  8
図框線
100
AcDbLine
 10
0.0
 20
12.0
 30
0.0
 11
197.9999999999997
 21
12.00000000000005
 31
0.0
  0
LINE
  5
64B8
330
18
100
AcDbEntity
  8
図框線
100
AcDbLine
 10
0.0
 20
22.0
 30
0.0
 11
96.0
 21
22.0
 31
0.0
  0
LINE
  5
64B9
330
18
100
AcDbEntity
  8
図框線
100
AcDbLine
 10
0.0
 20
32.0
 30
0.0
 11
197.9999999999997
 21
32.0
 31
0.0
  0
LINE
  5
64BA
330
18
100
AcDbEntity
  8
図框線
100
AcDbLine
 10
12.0
 20
32.0
 30
0.0
 11
12.0
 21
12.0
 31
0.0
  0
LINE
  5
64BB
330
18
100
AcDbEntity
  8
図框線
100
AcDbLine
 10
32.0
 20
32.0
 30
0.0
 11
32.0
 21
12.0
 31
0.0
  0
MTEXT
  5
64BC
330
18
100
AcDbEntity
  8
0
100
AcDbMText
 10
2.949444248820782
 20
29.04715033351227
 30
0.0
 40
4.5
 41
0.0
 71
     1
 72
     5
  1
\Ftxt.shx,bigfont.shx|c128;日 付
  7
JL
 73
     1
 44
1.0
  0
MTEXT
  5
64BD
330
18
100
AcDbEntity
  8
0
100
AcDbMText
 10
3.095712364910014
 20
19.83833899470915
 30
0.0
 40
4.5
 41
0.0
 71
     1
 72
     5
  1
\Ftxt.shx,bigfont.shx|c128;製 図
  7
JL
 73
     1
 44
1.0
  0
LINE
  5
64C0
330
18
100
AcDbEntity
  8
0
 62
     7
370
    25
100
AcDbLine
 10
55.27930887205229
 20
23.89647119159633
 30
0.0
 11
55.27930887205229
 21
29.22827490730549
 31
0.0
  0
MTEXT
  5
64C1
330
18
100
AcDbEntity
  8
0
100
AcDbMText
 10
66.70254067332553
 20
29.42231870267847
 30
0.0
 40
4.5
 41
0.0
 71
     1
 72
     5
  1
\Ftxt.shx,bigfont.shx|c128;尺 度
  7
JL
 73
     1
 44
1.0
  0
LINE
  5
64C2
330
18
100
AcDbEntity
  8
図框線
100
AcDbLine
 10
64.0
 20
32.0
 30
0.0
 11
64.0
 21
12.0
 31
0.0
  0
LINE
  5
64C3
330
18
100
AcDbEntity
  8
0
 62
     7
370
    25
100
AcDbLine
 10
41.2833241183157
 20
23.23894871736115
 30
0.0
 11
41.2833241183157
 21
29.67466750005656
 31
0.0
  0
CIRCLE
  5
64C4
330
18
100
AcDbEntity
  8
0
 62
     7
100
AcDbCircle
 10
41.2833241183157
 20
26.5623730494508
 30
0.0
 40
2.665901857854641
  0
LINE
  5
64C6
330
18
100
AcDbEntity
  8
0
 62
     7
370
    25
100
AcDbLine
 10
49.18030281106076
 20
26.56237304945091
 30
0.0
 11
55.75797321903156
 21
26.56237304945091
 31
0.0
  0
LINE
  5
64C7
330
18
100
AcDbEntity
  8
0
 62
     7
100
AcDbLine
 10
49.94750515634314
 20
25.22942212052362
 30
0.0
 11
55.27930887205229
 21
23.89647119159633
 31
0.0
  0
LINE
  5
64C8
330
18
100
AcDbEntity
  8
図框線
100
AcDbLine
 10
44.0
 20
21.99999999999989
 30
0.0
 11
44.0
 21
12.0
 31
0.0
  0
LINE
  5
64C9
330
18
100
AcDbEntity
  8
0
 62
     7
370
    25
100
AcDbLine
 10
37.95172532843935
 20
26.5623730494508
 30
0.0
 11
44.81391594676916
 21
26.56237304945091
 31
0.0
  0
CIRCLE
  5
64CA
330
18
100
AcDbEntity
  8
0
 62
     7
100
AcDbCircle
 10
41.2833241183157
 20
26.5623730494508
 30
0.0
 40
1.33295092892732
  0
MTEXT
  5
64CB
330
18
100
AcDbEntity
  8
0
100
AcDbMText
 10
35.12086518039769
 20
19.39982343168049
 30
0.0
 40
4.5
 41
0.0
 71
     1
 72
     5
  1
\Ftxt.shx,bigfont.shx|c128;検 図
  7
JL
 73
     1
 44
1.0
  0
LINE
  5
64CC
330
18
100
AcDbEntity
  8
0
 62
     7
370
    25
100
AcDbLine
 10
49.94750515634314
 20
25.22942212052362
 30
0.0
 11
49.94750515634314
 21
27.8953239783782
 31
0.0
  0
MTEXT
  5
64CD
330
18
100
AcDbEntity
  8
0
100
AcDbMText
 10
66.99507418337498
 20
19.62882052001464
 30
0.0
 40
4.5
 41
0.0
 71
     1
 72
     5
  1
\Ftxt.shx,bigfont.shx|c128;承 認
  7
JL
 73
     1
 44
1.0
  0
LINE
  5
64CE
330
18
100
AcDbEntity
  8
図框線
100
AcDbLine
 10
135.4848583349512
 20
231.5666682905289
 30
0.0
 11
195.4848583349512
 21
231.5666682905288
 31
0.0
  0
LINE
  5
64CF
330
18
100
AcDbEntity
  8
図框線
100
AcDbLine
 10
135.4848583349512
 20
238.766668290529
 30
0.0
 11
195.4848583349512
 21
238.766668290529
 31
0.0
  0
LINE
  5
64D0
330
18
100
AcDbEntity
  8
図框線
100
AcDbLine
 10
135.4848583349512
 20
245.9666682905289
 30
0.0
 11
195.4848583349512
 21
245.9666682905288
 31
0.0
  0
LINE
  5
64D1
330
18
100
AcDbEntity
  8
図框線
100
AcDbLine
 10
135.4848583349512
 20
253.166668290529
 30
0.0
 11
195.4848583349512
 21
253.1666682905288
 31
0.0
  0
LINE
  5
64D2
330
18
100
AcDbEntity
  8
図框線
100
AcDbLine
 10
135.4848583349512
 20
224.3666682905289
 30
0.0
 11
195.4848583349512
 21
224.3666682905289
 31
0.0
  0
MTEXT
  5
64D3
330
18
100
AcDbEntity
  8
0
 62
     7
 48
2.0
100
AcDbMText
 10
165.3702583008225
 20
253.9598367011131
 30
0.0
 40
4.8
 41
0.0
 71
     5
 72
     1
  1
\P\Ftxt.shx,bigfont.shx|c128;諸　　　　元
 73
     1
 44
1.0
  0
LINE
  5
64D5
330
18
100
AcDbEntity
  8
図框線
100
AcDbLine
 10
135.4848583349512
 20
253.1666682905288
 30
0.0
 11
135.4848583349512
 21
224.3666682905289
 31
0.0
  0
MTEXT
  5
64D6
330
18
100
AcDbEntity
  8
0
100
AcDbMText
 10
139.0072941486314
 20
244.4401591234081
 30
0.0
 40
4.4
 41
163.916286842249
 71
     1
 72
     5
  1
\Ftxt.shx,bigfont.shx|c128;熱　処　理
  7
JL
 73
     1
 44
1.0
  0
LINE
  5
64D7
330
18
100
AcDbEntity
  8
図框線
100
AcDbLine
 10
159.4848583349512
 20
245.9666682905288
 30
0.0
 11
159.4848583349512
 21
224.3666682905289
 31
0.0
  0
MTEXT
  5
64D8
330
18
100
AcDbEntity
  8
0
100
AcDbMText
 10
97.65702556263818
 20
11.15332144655735
 30
0.0
 40
5.0
 41
0.0
 71
     1
 72
     5
  1
\Ftxt.shx,bigfont.shx|c128;図  面  番  号
  7
JL
 73
     1
 44
1.0
  0
MTEXT
  5
64D9
330
18
100
AcDbEntity
  8
0
 62
     7
 48
2.0
100
AcDbMText
 10
121.8260850653862
 20
22.29156825453561
 30
0.0
 40
4.5
 41
0.0
 71
     5
 72
     1
  1
\P\Ftxt.shx,bigfont.shx|c128;    精密ロックナット
 73
     1
 44
1.0
  0
MTEXT
  5
64DA
330
18
100
AcDbEntity
  8
0
370
    25
100
AcDbMText
 10
98.8002923053598
 20
29.80688815403971
 30
0.0
 40
5.0
 41
0.0
 71
     1
 72
     5
  1
\Ftxt.shx,bigfont.shx|c128;品  名
  7
JL
 73
     1
 44
1.0
  0
LINE
  5
64DB
330
18
100
AcDbEntity
  8
図框線
100
AcDbLine
 10
96.0
 20
32.0
 30
0.0
 11
96.0
 21
0.19104161092514
 31
0.0
  0
LINE
  5
64DC
330
18
100
AcDbEntity
  8
図框線
100
AcDbLine
 10
76.0
 20
32.0
 30
0.0
 11
76.0
 21
12.0
 31
0.0
  0
LINE
  5
64DE
330
18
100
AcDbEntity
  8
図框線
100
AcDbLine
 10
153.2235601908683
 20
32.0
 30
0.0
 11
153.2235601908683
 21
12.0
 31
0.0
  0
MTEXT
  5
64DF
330
18
100
AcDbEntity
  8
0
100
AcDbMText
 10
138.7270197812522
 20
237.437930676148
 30
0.0
 40
4.4
 41
163.6058628849672
 71
     1
 72
     5
  1
\Ftxt.shx,bigfont.shx|c128;表 面 処 理
  7
JL
 73
     1
 44
1.0
  0
MTEXT
  5
64E0
330
18
100
AcDbEntity
  8
0
100
AcDbMText
 10
139.0170856296872
 20
230.1494578225401
 30
0.0
 40
4.4
 41
166.1718
 71
     1
 72
     5
  1
\Ftxt.shx,bigfont.shx|c128;等     　級
  7
JL
 73
     1
 44
1.0
  0
LINE
  5
64E1
330
18
100
AcDbEntity
  8
図框線
100
AcDbLine
 10
195.4848583349512
 20
253.1666682905288
 30
0.0
 11
195.4848583349512
 21
224.366668290529
 31
0.0
  0
MTEXT
  5
64E2
330
18
100
AcDbEntity
  8
0
100
AcDbMText
 10
164.2318616443938
 20
244.2652012159984
 30
0.0
 40
4.4
 41
291.8960056857887
 71
     1
 72
     5
  1
\Ftxt.shx,bigfont.shx|c128;調質　HRC30%%d%%p２%%d
  7
JL
 73
     1
 44
1.0
  0
MTEXT
  5
64E4
330
18
100
AcDbEntity
  8
0
370
    25
100
AcDbMText
 10
157.2494735287423
 20
29.58569764093568
 30
0.0
 40
5.0
 41
0.0
 71
     1
 72
     5
  1
\Ftxt.shx,bigfont.shx|c128;型  番
  7
JL
 73
     1
 44
1.0
  0
MTEXT
  5
64E5
330
18
100
AcDbEntity
  8
0
100
AcDbMText
 10
172.787265122339
 20
11.23700203391422
 30
0.0
 40
5.0
 41
0.0
 71
     1
 72
     5
  1
\Ftxt.shx,bigfont.shx|c128;変更
  7
JL
 73
     1
 44
1.0
  0
LINE
  5
64E6
330
18
100
AcDbEntity
  8
図框線
100
AcDbLine
 10
171.0
 20
12.00907027842731
 30
0.0
 11
171.0
 21
0.0
 31
0.0
  0
MTEXT
  5
64E7
330
18
100
AcDbEntity
  8
0
100
AcDbMText
 10
164.4925006458302
 20
230.1500683939912
 30
0.0
 40
4.4
 41
290.783364796891
 71
     1
 72
     5
  1
\Ftxt.shx,bigfont.shx|c128;ＩＳＯ - ４Ｈ
  7
JL
 73
     1
 44
1.0
  0
MTEXT
  5
64E8
330
18
100
AcDbEntity
  8
0
100
AcDbMText
 10
164.6669618439605
 20
237.0850377391931
 30
0.0
 40
4.4
 41
291.4548
 71
     1
 72
     5
  1
\Ftxt.shx,bigfont.shx|c128;黒  　    染
  7
JL
 73
     1
 44
1.0
  0
MTEXT
  5
64EA
330
18
100
AcDbEntity
  8
0
100
AcDbMText
 10
60.06318600759005
 20
270.095850257545
 30
0.0
 40
5.0
 41
0.0
 71
     1
 72
     5
  1
\Ftxt.shx,bigfont.shx|c128;M8X1.25-10L
  7
JL
 73
     1
 44
1.0
  0
MTEXT
  5
64EB
330
18
100
AcDbEntity
  8
0
100
AcDbMText
 10
60.06318600759005
 20
262.095850257545
 30
0.0
 40
5.0
 41
0.0
 71
     1
 72
     5
  1
\Ftxt.shx,bigfont.shx|c128;%%c7X7L
  7
JL
 73
     1
 44
1.0
  0
LINE
  5
64EC
330
18
100
AcDbEntity
  8
図框線
100
AcDbLine
 10
-0.0000000000002274
 20
263.9999999999999
 30
0.0
 11
197.9999999999997
 21
263.9999999999999
 31
0.0
  0
LINE
  5
64ED
330
18
100
AcDbEntity
  8
図框線
100
AcDbLine
 10
-0.0000000000002274
 20
271.9999999999999
 30
0.0
 11
197.9999999999997
 21
271.9999999999999
 31
0.0
  0
LINE
  5
64EE
330
18
100
AcDbEntity
  8
図框線
 62
     9
100
AcDbLine
 10
-0.0000000000002274
 20
279.9999999999999
 30
0.0
 11
197.9999999999997
 21
279.9999999999999
 31
0.0
  0
LINE
  5
64EF
330
18
100
AcDbEntity
  8
図框線
100
AcDbLine
 10
-0.0000000000002274
 20
290.0
 30
0.0
 11
197.9999999999997
 21
290.0
 31
0.0
  0
MTEXT
  5
64F0
330
18
100
AcDbEntity
  8
0
100
AcDbMText
 10
59.41630259681733
 20
287.3155952051104
 30
0.0
 40
5.0
 41
0.0
 71
     1
 72
     5
  1
\Ftxt.shx,bigfont.shx|c128;図    番 / 規　　格
  7
JL
 73
     1
 44
1.0
  0
LINE
  5
64F1
330
18
100
AcDbEntity
  8
図框線
100
AcDbLine
 10
-0.0000000000002274
 20
263.9999999999999
 30
0.0
 11
197.9999999999997
 21
263.9999999999999
 31
0.0
  0
LINE
  5
64F2
330
18
100
AcDbEntity
  8
図框線
100
AcDbLine
 10
-0.0000000000002274
 20
255.9999999999999
 30
0.0
 11
197.9999999999997
 21
255.9999999999999
 31
0.0
  0
MTEXT
  5
64F3
330
18
100
AcDbEntity
  8
0
100
AcDbMText
 10
22.01434914141237
 20
286.7888025819827
 30
0.0
 40
5.0
 41
0.0
 71
     1
 72
     5
  1
\Ftxt.shx,bigfont.shx|c128;品　          名
  7
JL
 73
     1
 44
1.0
  0
MTEXT
  5
64F4
330
18
100
AcDbEntity
  8
0
100
AcDbMText
 10
18.8650376130422
 20
270.5298549795346
 30
0.0
 40
6.0
 41
0.0
 71
     1
 72
     5
  1
\Ftxt.shx,bigfont.shx|c128;セットスクリュ-
  7
JL
 73
     1
 44
1.0
  0
MTEXT
  5
64F5
330
18
100
AcDbEntity
  8
0
100
AcDbMText
 10
18.66941459004738
 20
278.3660650505403
 30
0.0
 40
6.0
 41
0.0
 71
     1
 72
     5
  1
\Ftxt.shx,bigfont.shx|c128;ロックナット　  
  7
JL
 73
     1
 44
1.0
  0
MTEXT
  5
64F6
330
18
100
AcDbEntity
  8
0
100
AcDbMText
 10
18.8650376130422
 20
262.5298549795346
 30
0.0
 40
6.0
 41
0.0
 71
     1
 72
     5
  1
\Ftxt.shx,bigfont.shx|c128;ロックピン 
  7
JL
 73
     1
 44
1.0
  0
LINE
  5
64F7
330
18
100
AcDbEntity
  8
図框線
100
AcDbLine
 10
14.99999999999977
 20
289.9999999999998
 30
0.0
 11
15.00000000000011
 21
255.9999999999999
 31
0.0
  0
LINE
  5
64F8
330
18
100
AcDbEntity
  8
0
100
AcDbLine
 10
14.99999999999977
 20
289.9999999999998
 30
0.0
 11
14.99999999999977
 21
263.9999999999999
 31
0.0
  0
MTEXT
  5
64F9
330
18
100
AcDbEntity
  8
0
100
AcDbMText
 10
6.215289087390488
 20
262.7436409356394
 30
0.0
 40
5.0
 41
0.0
 71
     1
 72
     5
  1
\Ftxt.shx,bigfont.shx|c128;3
  7
JL
 73
     1
 44
1.0
  0
MTEXT
  5
64FA
330
18
100
AcDbEntity
  8
0
100
AcDbMText
 10
7.101957026666809
 20
278.5798510066454
 30
0.0
 40
5.0
 41
0.0
 71
     1
 72
     5
  1
\Ftxt.shx,bigfont.shx|c128;1
  7
JL
 73
     1
 44
1.0
  0
MTEXT
  5
64FB
330
18
100
AcDbEntity
  8
0
100
AcDbMText
 10
6.215289087390488
 20
270.7436409356394
 30
0.0
 40
5.0
 41
0.0
 71
     1
 72
     5
  1
\Ftxt.shx,bigfont.shx|c128;2
  7
JL
 73
     1
 44
1.0
  0
MTEXT
  5
64FC
330
18
100
AcDbEntity
  8
0
100
AcDbMText
 10
2.209083991842362
 20
287.0885254164057
 30
0.0
 40
5.0
 41
0.0
 71
     1
 72
     5
  1
\Ftxt.shx,bigfont.shx|c128;照   号
  7
JL
 73
     1
 44
1.0
  0
LINE
  5
64FD
330
18
100
AcDbEntity
  8
図框線
 62
     9
100
AcDbLine
 10
54.99999999999977
 20
289.9999999999998
 30
0.0
 11
54.99999999999977
 21
256.0
 31
0.0
  0
MTEXT
  5
64FE
330
18
100
AcDbEntity
  8
0
100
AcDbMText
 10
146.3353765925378
 20
287.5804049742369
 30
0.0
 40
5.0
 41
0.0
 71
     1
 72
     5
  1
\Ftxt.shx,bigfont.shx|c128;備           考
  7
JL
 73
     1
 44
1.0
  0
LINE
  5
64FF
330
18
100
AcDbEntity
  8
図框線
 62
     9
100
AcDbLine
 10
94.99999999999976
 20
289.9999999999999
 30
0.0
 11
94.99999999999976
 21
255.9999999999999
 31
0.0
  0
MTEXT
  5
6500
330
18
100
AcDbEntity
  8
0
100
AcDbMText
 10
96.78387029776377
 20
262.3660650505403
 30
0.0
 40
5.0
 41
0.0
 71
     1
 72
     5
  1
\Ftxt.shx,bigfont.shx|c128;C3604
  7
JL
 73
     1
 44
1.0
  0
MTEXT
  5
6501
330
18
100
AcDbEntity
  8
0
100
AcDbMText
 10
96.78387029776377
 20
278.3660650505403
 30
0.0
 40
5.0
 41
0.0
 71
     1
 72
     5
  1
\Ftxt.shx,bigfont.shx|c128;SCM-440
  7
JL
 73
     1
 44
1.0
  0
MTEXT
  5
6502
330
18
100
AcDbEntity
  8
0
100
AcDbMText
 10
96.78387029776377
 20
270.3660650505403
 30
0.0
 40
5.0
 41
0.0
 71
     1
 72
     5
  1
\Ftxt.shx,bigfont.shx|c128;SCM435
  7
JL
 73
     1
 44
1.0
  0
MTEXT
  5
6503
330
18
100
AcDbEntity
  8
0
100
AcDbMText
 10
99.80032499445407
 20
287.5804049742369
 30
0.0
 40
5.0
 41
0.0
 71
     1
 72
     5
  1
\Ftxt.shx,bigfont.shx|c128;材　質
  7
JL
 73
     1
 44
1.0
  0
LINE
  5
6504
330
18
100
AcDbEntity
  8
図框線
 62
     9
100
AcDbLine
 10
114.9999999999997
 20
289.9999999999999
 30
0.0
 11
114.9999999999997
 21
255.9999999999999
 31
0.0
  0
LINE
  5
6505
330
18
100
AcDbEntity
  8
図框線
100
AcDbLine
 10
129.9999999999998
 20
289.9999999999999
 30
0.0
 11
129.9999999999998
 21
255.9999999999999
 31
0.0
  0
MTEXT
  5
6506
330
18
100
AcDbEntity
  8
0
100
AcDbMText
 10
121.2152890873904
 20
262.7436409356394
 30
0.0
 40
5.0
 41
0.0
 71
     1
 72
     5
  1
\Ftxt.shx,bigfont.shx|c128;3
  7
JL
 73
     1
 44
1.0
  0
MTEXT
  5
6507
330
18
100
AcDbEntity
  8
0
100
AcDbMText
 10
122.1019570266667
 20
278.5798510066454
 30
0.0
 40
5.0
 41
0.0
 71
     1
 72
     5
  1
\Ftxt.shx,bigfont.shx|c128;1
  7
JL
 73
     1
 44
1.0
  0
MTEXT
  5
6508
330
18
100
AcDbEntity
  8
0
100
AcDbMText
 10
121.2152890873904
 20
270.7436409356394
 30
0.0
 40
5.0
 41
0.0
 71
     1
 72
     5
  1
\Ftxt.shx,bigfont.shx|c128;3
  7
JL
 73
     1
 44
1.0
  0
MTEXT
  5
6509
330
18
100
AcDbEntity
  8
0
100
AcDbMText
 10
116.433740311917
 20
287.5804049742369
 30
0.0
 40
5.0
 41
0.0
 71
     1
 72
     5
  1
\Ftxt.shx,bigfont.shx|c128;数   量
  7
JL
 73
     1
 44
1.0
  0
DIMENSION
  5
6770
330
18
100
AcDbEntity
  8
0
100
AcDbDimension
  2
*D1
 10
127.5389150852464
 20
43.69309516992703
 30
0.0
 11
80.0389150852464
 21
43.69309516992703
 31
0.0
 12
-271.5142415188518
 22
0.0
 32
0.0
 70
   160
  1
M<>X2.0P
 71
     5
 42
-1.0
  3
A
100
AcDbAlignedDimension
 13
32.53891508524623
 23
61.31098123667986
 33
0.0
 14
127.5389150852464
 24
61.31098123668007
 34
0.0
100
AcDbRotatedDimension
  0
LEADER
  5
6B85
330
18
100
AcDbEntity
  8
DIM
 62
     6
100
AcDbLeader
  3
A
 73
     0
 74
     0
 75
     1
 40
3.0
 41
4.999999999999999
 76
     3
 10
32.78891508524629
 20
83.64431457001328
 30
0.0
 10
40.76175072429203
 20
91.4805411840749
 30
0.0
 10
43.26175072429203
 20
91.4805411840749
 30
0.0
340
6B86
  0
MTEXT
  5
6B86
102
{ACAD_REACTORS
330
6B85
102
}
330
18
100
AcDbEntity
  8
DIM
 62
     3
100
AcDbMText
 10
44.26175072429202
 20
93.9805411840749
 30
0.0
 40
3.0
 41
0.0
 71
     4
 72
     1
  1
\A1;C2
  7
TXT
 73
     1
 44
1.0
  0
DIMENSION
  5
6C92
330
18
100
AcDbEntity
  8
DIM
100
AcDbDimension
  2
*D2
 10
136.5389150852463
 20
104.8355377881688
 30
0.0
 11
80.03891508524635
 21
107.3355377881688
 31
0.0
 12
-271.5142415188518
 22
0.0
 32
0.0
 70
    32
  1
%%c<>%%p0.5
 71
     5
 42
-1.0
  3
A
100
AcDbAlignedDimension
 13
23.53891508524634
 23
86.64431457001327
 33
0.0
 14
136.5389150852463
 24
86.64431457001327
 34
0.0
100
AcDbRotatedDimension
  0
DIMENSION
  5
6CAA
330
18
100
AcDbEntity
  8
DIM
100
AcDbDimension
  2
*D3
 10
141.5389150852465
 20
110.3430078785837
 30
0.0
 11
75.96985895733246
 21
111.169128628469
 31
0.0
 12
-271.5142415188518
 22
0.0
 32
0.0
 70
   160
  1
%%c<>
 71
     5
 42
-1.0
  3
A
100
AcDbAlignedDimension
 13
18.53891508524646
 23
84.14431457001327
 33
0.0
 14
141.5389150852465
 24
84.14431457001359
 34
0.0
100
AcDbRotatedDimension
  0
DIMENSION
  5
6F74
330
18
100
AcDbEntity
  8
0
100
AcDbDimension
  2
*D4
 10
165.692155287421
 20
44.10812531052019
 30
0.0
 11
176.1882276624335
 21
62.28785594396184
 31
0.0
 12
14.03330256666135
 22
-32.28033857532242
 32
0.0
 70
   161
  1
9%%p0.5
 71
     5
 42
-1.0
  3
A
100
AcDbAlignedDimension
 13
141.5458643834222
 23
68.71842583849939
 33
0.0
 14
136.9258643834222
 24
60.7163511075311
 34
0.0
  0
MTEXT
  5
72FF
102
{ACAD_REACTORS
330
7300
102
}
330
18
100
AcDbEntity
  8
DIM
 62
     3
100
AcDbMText
 10
113.6503732394664
 20
53.81445667349564
 30
0.0
 40
3.0
 41
0.0
 71
     6
 72
     1
  1
\A1;C2
  7
TXT
 73
     1
 44
1.0
  0
LEADER
  5
7300
330
18
100
AcDbEntity
  8
DIM
 62
     6
100
AcDbLeader
  3
A
 73
     0
 75
     1
 40
3.0
 41
4.999999999999999
 76
     3
 10
127.2889150852463
 20
61.64431457001327
 30
0.0
 10
117.1503732394663
 20
51.31445667349564
 30
0.0
 10
114.6503732394664
 20
51.31445667349564
 30
0.0
340
72FF
  0
MTEXT
  5
7303
102
{ACAD_REACTORS
330
7304
102
}
330
18
100
AcDbEntity
  8
DIM
 62
     3
100
AcDbMText
 10
157.1612997504596
 20
100.7340171771369
 30
0.0
 40
3.0
 41
0.0
 71
     4
 72
     1
  1
\A1;R2
  7
TXT
 73
     1
 44
1.0
  0
LEADER
  5
7304
330
18
100
AcDbEntity
  8
DIM
 62
     6
100
AcDbLeader
  3
A
 73
     0
 74
     0
 75
     1
 40
3.0
 41
4.999999999999999
 76
     3
 10
140.9596387129471
 20
85.62980389629441
 30
0.0
 10
153.6612997504596
 20
98.23401717713693
 30
0.0
 10
156.1612997504596
 20
98.23401717713693
 30
0.0
340
7303
1001
ACAD
1000
DSTYLE
1002
{
1070
    45
1040
0.0
1002
}
  0
DIMENSION
  5
74C6
330
18
100
AcDbEntity
  8
0
100
AcDbDimension
  2
*D5
 10
14.23784602920619
 20
86.14431457001328
 30
0.0
 11
14.23784602920619
 21
99.46527035878034
 31
0.0
 12
-271.5142415188518
 22
0.0
 32
0.0
 70
   160
 71
     5
 42
-1.0
  3
A
100
AcDbAlignedDimension
 13
23.53891508524634
 23
86.64431457001327
 33
0.0
 14
20.53891508524634
 24
86.14431457001328
 34
0.0
 50
90.0
100
AcDbRotatedDimension
  0
DIMENSION
  5
750D
330
18
100
AcDbEntity
  8
DIM
100
AcDbDimension
  2
*D6
 10
128.0389150852464
 20
98.99244297654025
 30
0.0
 11
80.03891508524635
 21
101.4924429765402
 31
0.0
 12
-271.5142415188518
 22
0.0
 32
0.0
 70
    32
  1
%%c<>
 71
     5
 42
-1.0
  3
A
100
AcDbAlignedDimension
 13
32.03891508524623
 23
86.64431457001327
 33
0.0
 14
128.0389150852464
 24
86.64431457001327
 34
0.0
100
AcDbRotatedDimension
  0
DIMENSION
  5
7568
330
18
100
AcDbEntity
  8
DIM
100
AcDbDimension
  2
*D7
 10
156.4321909588845
 20
64.75731345972464
 30
0.0
 11
153.9321909588845
 21
75.73081401486892
 31
0.0
 12
-288.8901768783532
 22
-9.92467149574864
 32
0.0
 70
    32
 71
     5
 42
-1.0
  3
A
100
AcDbAlignedDimension
 13
136.5389150852463
 23
86.70431457001321
 33
0.0
 14
139.2589150852462
 24
64.75731345972464
 34
0.0
 50
90.0
100
AcDbRotatedDimension
  0
DIMENSION
  5
7575
330
18
100
AcDbEntity
  8
DIM
100
AcDbDimension
  2
*D8
 10
166.5812118852727
 20
86.70431457001321
 30
0.0
 11
164.0812118852727
 21
73.71033283877214
 31
0.0
 12
-288.8901768783532
 22
-9.92467149574864
 32
0.0
 70
    32
  1
<>%%p0.2
 71
     5
 42
-1.0
  3
A
100
AcDbAlignedDimension
 13
136.9258643834222
 23
60.7163511075311
 33
0.0
 14
136.5389150852463
 24
86.70431457001321
 34
0.0
 50
90.0
100
AcDbRotatedDimension
  0
DIMENSION
  5
7AD6
330
18
100
AcDbEntity
  8
DIM
100
AcDbDimension
  2
*D9
 10
89.25665019172658
 20
86.64431457001331
 30
0.0
 11
89.25665019172658
 21
94.23012825768557
 31
0.0
 12
-220.4922698338881
 22
-28.35237511284024
 32
0.0
 70
   160
 71
     5
 42
-1.0
  3
A
100
AcDbAlignedDimension
 13
93.03891508524634
 23
84.64431457001357
 33
0.0
 14
93.03891508524634
 24
86.64431457001331
 34
0.0
 50
90.0
100
AcDbRotatedDimension
  0
MTEXT
  5
9E3E
330
18
100
AcDbEntity
  8
公差
100
AcDbMText
 10
32.37031523475923
 20
139.4496970235477
 30
0.0
 40
2.0
 41
9.555074525974475
 71
     1
 72
     5
  1
+0.15\P+0
  7
TXT
 73
     1
 44
1.0
  0
MTEXT
  5
9E3F
330
18
100
AcDbEntity
  8
公差
100
AcDbMText
 10
1.842656378372566
 20
194.0438366654545
 30
0.0
 40
2.0
 41
8.84945634767439
 71
     1
 72
     5
  1
+0.15\P+0
  7
TXT
 11
0.0000000000000001
 21
1.0
 31
0.0
 73
     1
 44
1.0
  0
LEADER
  5
9E40
330
18
100
AcDbEntity
  8
DIM
 62
     6
100
AcDbLeader
  3
A
 76
     2
 10
140.6347030940886
 20
198.9242061259153
 30
0.0
 10
154.468011551734
 20
206.9009699781902
 30
0.0
  0
MTEXT
  5
9E41
330
18
100
AcDbEntity
  8
DIM
100
AcDbMText
 10
155.67892816566
 20
210.4547817240275
 30
0.0
 40
5.0
 41
1.0
 71
     1
 72
     5
  1
\Ftxt.shx,bigfont.shx|c128;1
 73
     1
 44
1.0
  0
DIMENSION
  5
9E42
330
18
100
AcDbEntity
  8
0
100
AcDbDimension
  2
*D10
 10
22.63891508524614
 20
133.5223377024907
 30
0.0
 11
27.63891508524614
 21
133.5223377024907
 31
0.0
 12
-293.8901768783535
 22
-75.97855264406004
 32
0.0
 70
   160
 71
     5
 42
-1.0
  3
A
100
AcDbAlignedDimension
 13
18.65116125844986
 23
183.4170430650578
 33
0.0
 14
22.63891508524614
 24
183.4170430650579
 34
0.0
100
AcDbRotatedDimension
  0
DIMENSION
  5
9E43
330
18
100
AcDbEntity
  8
DIM
100
AcDbDimension
  2
*D11
 10
8.690018685757422
 20
193.4170430650578
 30
0.0
 11
7.815614644901643
 21
201.1179262304133
 31
0.0
 12
-293.8901768783535
 22
-75.97855264406004
 32
0.0
 70
   160
  1
<>      (3等分)
 71
     5
 42
-1.0
  3
A
100
AcDbAlignedDimension
 13
19.21315813568788
 23
183.4170430650579
 33
0.0
 14
19.21315813568788
 24
193.4170430650578
 34
0.0
 50
90.0
100
AcDbRotatedDimension
  0
LINE
  5
9E44
330
18
100
AcDbEntity
  8
DIM
 62
     6
100
AcDbLine
 10
8.690018685757422
 20
190.417043065058
 30
0.0
 11
8.690018685757422
 21
217.0850452808348
 31
0.0
  0
LINE
  5
9E45
330
18
100
AcDbEntity
  8
DIM
 62
     6
100
AcDbLine
 10
27.63891508524614
 20
133.5223377024907
 30
0.0
 11
39.44213839607528
 21
133.5223377024907
 31
0.0
  0
DIMENSION
  5
AB03
330
18
100
AcDbEntity
  8
DIM
100
AcDbDimension
  2
*D12
 10
136.5389150852463
 20
86.70431457001319
 30
0.0
 11
182.895505630994
 21
64.82628671011757
 31
0.0
 12
-288.8901768783532
 22
-9.92467149574864
 32
0.0
 70
    34
 71
     5
 42
-1.0
  3
A
100
AcDb2LineAngularDimension
 13
140.8716360016464
 23
63.82620860451318
 33
0.0
 14
125.2188725034654
 24
72.86333582374941
 34
0.0
 15
28.53891508524629
 25
86.70431457001321
 35
0.0
 16
183.027238850774
 26
56.93823016719702
 36
0.0
1001
ACAD
1000
DSTYLE
1002
{
1070
    79
1070
     2
1070
   179
1070
     1
1002
}
  0
ARC
  5
AC3E
330
18
100
AcDbEntity
  8
本体外線
100
AcDbCircle
 10
80.03891508524635
 20
188.4170430650577
 30
0.0
 40
61.5
100
AcDbArc
 50
64.6633404187377
 51
175.3366595812622
  0
CIRCLE
  5
AC3F
330
18
100
AcDbEntity
  8
本体外線
100
AcDbCircle
 10
80.03891508524635
 20
188.4170430650577
 30
0.0
 40
56.5
  0
ARC
  5
AC40
330
18
100
AcDbEntity
  8
0
100
AcDbCircle
 10
80.03891508524635
 20
188.4170430650577
 30
0.0
 40
47.5
100
AcDbArc
 50
167.2349235720178
 51
101.4061429529124
  0
CIRCLE
  5
AC41
330
18
100
AcDbEntity
  8
本体外線
100
AcDbCircle
 10
80.03891508524635
 20
188.4170430650577
 30
0.0
 40
46.5
  0
LINE
  5
AC42
102
{ACAD_REACTORS
330
AE17
102
}
330
18
100
AcDbEntity
  8
本体外線
100
AcDbLine
 10
23.53891508524634
 20
86.64431457001327
 30
0.0
 11
136.5389150852463
 21
86.64431457001327
 31
0.0
  0
LINE
  5
AC43
330
18
100
AcDbEntity
  8
本体外線
100
AcDbLine
 10
18.53891508524646
 20
84.14431457001327
 30
0.0
 11
18.53891508524634
 21
68.70638930098161
 31
0.0
  0
LINE
  5
AC44
102
{ACAD_REACTORS
330
AE17
102
}
330
18
100
AcDbEntity
  8
本体外線
100
AcDbLine
 10
23.53891508524634
 20
86.64431457001327
 30
0.0
 11
23.53891508524634
 21
86.14431457001328
 31
0.0
  0
LINE
  5
AC45
102
{ACAD_REACTORS
330
AE17
102
}
330
18
100
AcDbEntity
  8
本体外線
100
AcDbLine
 10
33.53891508524629
 20
82.64431457001331
 30
0.0
 11
33.53891508524617
 21
62.64431457001325
 31
0.0
  0
LINE
  5
AC47
102
{ACAD_REACTORS
330
AE17
102
}
330
18
100
AcDbEntity
  8
本体外線
100
AcDbLine
 10
23.1935561013978
 20
60.64431457001328
 30
0.0
 11
136.8842740690949
 21
60.64431457001328
 31
0.0
  0
LINE
  5
AC48
102
{ACAD_REACTORS
330
AE17
102
}
330
18
100
AcDbEntity
  8
本体外線
100
AcDbLine
 10
141.5389150852465
 20
84.14431457001322
 30
0.0
 11
141.5389150852463
 21
68.64431457001328
 31
0.0
  0
LINE
  5
AC49
102
{ACAD_REACTORS
330
AE17
102
}
330
18
100
AcDbEntity
  8
本体外線
100
AcDbLine
 10
136.5389150852463
 20
86.64431457001327
 30
0.0
 11
136.5389150852463
 21
86.14431457001328
 31
0.0
  0
LINE
  5
AC4A
102
{ACAD_REACTORS
330
ACB3
330
AE17
102
}
330
18
100
AcDbEntity
  8
本体外線
100
AcDbLine
 10
126.5389150852463
 20
82.64431457001327
 30
0.0
 11
126.5389150852464
 21
62.64431457001328
 31
0.0
  0
LINE
  5
AC4B
330
18
100
AcDbEntity
  8
本体外線
100
AcDbLine
 10
104.4087880663242
 20
240.6269012422846
 30
0.0
 11
113.0690421041686
 21
235.6269012422846
 31
0.0
  0
LINE
  5
AC4C
330
18
100
AcDbEntity
  8
中心線
  6
CENTER
 48
0.15
100
AcDbLine
 10
80.03891508524635
 20
251.9170430650578
 30
0.0
 11
80.03891508524629
 21
124.9170430650577
 31
0.0
  0
LINE
  5
AC4D
330
18
100
AcDbEntity
  8
本体外線
100
AcDbLine
 10
106.3569935602842
 20
244.0012921414082
 30
0.0
 11
104.4087880663242
 21
240.6269012422846
 31
0.0
  0
LINE
  5
AC4E
330
18
100
AcDbEntity
  8
本体外線
100
AcDbLine
 10
106.3569935602842
 20
244.0012921414082
 30
0.0
 11
104.4087880663242
 21
240.6269012422846
 31
0.0
  0
LINE
  5
AC4F
330
18
100
AcDbEntity
  8
本体外線
100
AcDbLine
 10
115.0172475981286
 20
239.0012921414081
 30
0.0
 11
113.0690421041686
 21
235.6269012422846
 31
0.0
  0
LINE
  5
AC52
330
18
100
AcDbEntity
  8
中心線
  6
CENTER
 48
0.15
100
AcDbLine
 10
16.53891508524634
 20
188.4170430650579
 30
0.0
 11
143.5389150852463
 21
188.417043065057
 31
0.0
  0
LINE
  5
AC53
330
18
100
AcDbEntity
  8
本体外線
100
AcDbLine
 10
22.63891508524637
 20
183.4170430650579
 30
0.0
 11
22.63891508524637
 21
193.4170430650579
 31
0.0
  0
LINE
  5
AC54
330
18
100
AcDbEntity
  8
本体外線
100
AcDbLine
 10
18.74250409732644
 20
183.4170430650578
 30
0.0
 11
22.63891508524637
 21
183.4170430650579
 31
0.0
  0
LINE
  5
AC55
330
18
100
AcDbEntity
  8
本体外線
100
AcDbLine
 10
18.74250409732644
 20
183.4170430650578
 30
0.0
 11
22.63891508524637
 21
183.4170430650579
 31
0.0
  0
LINE
  5
AC56
330
18
100
AcDbEntity
  8
本体外線
100
AcDbLine
 10
18.74250409732644
 20
193.4170430650578
 30
0.0
 11
22.63891508524637
 21
193.4170430650578
 31
0.0
  0
LINE
  5
AC57
330
18
100
AcDbEntity
  8
中心線
  6
CENTER
 48
0.15
100
AcDbLine
 10
48.28891508524629
 20
133.4244299247459
 30
0.0
 11
57.78891508524612
 21
149.8789125966504
 31
0.0
  0
LINE
  5
AC58
330
18
100
AcDbEntity
  8
本体外線
100
AcDbLine
 10
113.0690421041683
 20
141.2071848878309
 30
0.0
 11
104.408788066324
 21
136.207184887831
 31
0.0
  0
LINE
  5
AC59
330
18
100
AcDbEntity
  8
本体外線
100
AcDbLine
 10
115.0172475981285
 20
137.8327939887074
 30
0.0
 11
113.0690421041685
 21
141.2071848878309
 31
0.0
  0
LINE
  5
AC5A
330
18
100
AcDbEntity
  8
本体外線
100
AcDbLine
 10
115.0172475981285
 20
137.8327939887074
 30
0.0
 11
113.0690421041685
 21
141.2071848878309
 31
0.0
  0
LINE
  5
AC5B
330
18
100
AcDbEntity
  8
本体外線
100
AcDbLine
 10
106.356993560284
 20
132.8327939887074
 30
0.0
 11
104.4087880663242
 21
136.207184887831
 31
0.0
  0
ARC
  5
AC5C
330
18
100
AcDbEntity
  8
本体外線
100
AcDbCircle
 10
80.03891508524635
 20
188.4170430650577
 30
0.0
 40
61.5
100
AcDbArc
 50
184.6633404187377
 51
295.3366595812623
  0
ARC
  5
AC5D
330
18
100
AcDbEntity
  8
本体外線
100
AcDbCircle
 10
80.03891508524635
 20
188.4170430650577
 30
0.0
 40
61.5
100
AcDbArc
 50
304.6633404187377
 51
55.33665958126222
  0
LINE
  5
AC5E
330
18
100
AcDbEntity
  8
本体内線
  6
HIDDEN
 48
0.2
100
AcDbLine
 10
60.33919793058704
 20
146.2961320584518
 30
0.0
 11
52.8181262818083
 21
133.2692538354012
 31
0.0
  0
LINE
  5
AC5F
330
18
100
AcDbEntity
  8
本体内線
  6
HIDDEN
 48
0.2
100
AcDbLine
 10
53.41099470031156
 20
150.2961320584518
 30
0.0
 11
45.88992305153283
 21
137.2692538354012
 31
0.0
  0
LINE
  5
AC60
330
18
100
AcDbEntity
  8
本体内線
  6
HIDDEN
 48
0.2
100
AcDbLine
 10
53.92740013217576
 20
149.940572503745
 30
0.0
 11
46.41241761552407
 21
136.9242409669125
 31
0.0
  0
LINE
  5
AC61
330
18
100
AcDbEntity
  8
本体内線
  6
HIDDEN
 48
0.2
100
AcDbLine
 10
59.77307160772068
 20
146.565572503745
 30
0.0
 11
52.25808909106899
 21
133.5492409669125
 31
0.0
  0
LINE
  5
AC62
330
18
100
AcDbEntity
  8
本体内線
  6
HIDDEN
 48
0.2
100
AcDbLine
 10
126.3665526248404
 20
192.4170430650578
 30
0.0
 11
141.4086959223979
 21
192.4170430650578
 31
0.0
  0
LINE
  5
AC63
330
18
100
AcDbEntity
  8
本体内線
  6
HIDDEN
 48
0.2
100
AcDbLine
 10
126.3665526248404
 20
184.4170430650576
 30
0.0
 11
141.4086959223979
 21
184.4170430650578
 31
0.0
  0
LINE
  5
AC64
330
18
100
AcDbEntity
  8
本体内線
  6
HIDDEN
 48
0.2
100
AcDbLine
 10
126.4162735158426
 20
185.0420430650578
 30
0.0
 11
141.4462385491461
 21
185.0420430650578
 31
0.0
  0
LINE
  5
AC65
330
18
100
AcDbEntity
  8
本体内線
  6
HIDDEN
 48
0.2
100
AcDbLine
 10
126.4162735158427
 20
191.7920430650578
 30
0.0
 11
141.4462385491461
 21
191.7920430650578
 31
0.0
  0
LINE
  5
AC66
330
18
100
AcDbEntity
  8
中心線
  6
CENTER
 48
0.15
100
AcDbLine
 10
57.78891508524629
 20
226.9551735334653
 30
0.0
 11
48.28891508524645
 21
243.4096562053697
 31
0.0
  0
LINE
  5
AC67
330
18
100
AcDbEntity
  8
本体内線
  6
HIDDEN
 48
0.2
100
AcDbLine
 10
53.41099470031167
 20
226.5379540716637
 30
0.0
 11
45.88992305153294
 21
239.5648322947144
 31
0.0
  0
LINE
  5
AC68
330
18
100
AcDbEntity
  8
本体内線
  6
HIDDEN
 48
0.2
100
AcDbLine
 10
60.33919793058714
 20
230.5379540716639
 30
0.0
 11
52.81812628180841
 21
243.5648322947144
 31
0.0
  0
LINE
  5
AC69
330
18
100
AcDbEntity
  8
本体内線
  6
HIDDEN
 48
0.2
100
AcDbLine
 10
59.77307160772068
 20
230.2685136263706
 30
0.0
 11
52.25808909106911
 21
243.2848451632032
 31
0.0
  0
LINE
  5
AC6A
330
18
100
AcDbEntity
  8
本体内線
  6
HIDDEN
 48
0.2
100
AcDbLine
 10
53.92740013217576
 20
226.8935136263706
 30
0.0
 11
46.41241761552419
 21
239.9098451632032
 31
0.0
  0
LINE
  5
AC6F
102
{ACAD_REACTORS
330
AE17
102
}
330
18
100
AcDbEntity
  8
本体外線
100
AcDbLine
 10
20.53891508524646
 20
86.14431457001328
 30
0.0
 11
23.53891508524634
 21
86.14431457001328
 31
0.0
  0
ARC
  5
AC70
330
18
100
AcDbEntity
  8
本体外線
100
AcDbCircle
 10
20.53891508524646
 20
84.14431457001327
 30
0.0
 40
2.0
100
AcDbArc
 50
90.00000000000003
 51
179.9999999999998
  0
ARC
  5
AC71
102
{ACAD_REACTORS
330
AE17
102
}
330
18
100
AcDbEntity
  8
本体外線
100
AcDbCircle
 10
139.5389150852466
 20
84.14431457001327
 30
0.0
 40
2.0
100
AcDbArc
 50
359.9999999999998
 51
90.0
  0
LINE
  5
AC72
102
{ACAD_REACTORS
330
AE17
102
}
330
18
100
AcDbEntity
  8
本体外線
100
AcDbLine
 10
136.5389150852463
 20
86.14431457001328
 30
0.0
 11
139.5389150852466
 21
86.14431457001328
 31
0.0
  0
LINE
  5
AC73
102
{ACAD_REACTORS
330
AE17
102
}
330
18
100
AcDbEntity
  8
本体外線
100
AcDbLine
 10
33.53891508524635
 20
82.64431457001327
 30
0.0
 11
32.03891508524623
 21
84.64431457001328
 31
0.0
  0
LINE
  5
AC76
102
{ACAD_REACTORS
330
AE17
102
}
330
18
100
AcDbEntity
  8
本体外線
100
AcDbLine
 10
126.5389150852463
 20
82.64431457001327
 30
0.0
 11
128.0389150852464
 21
84.64431457001328
 31
0.0
  0
LINE
  5
AC77
330
18
100
AcDbEntity
  8
本体外線
100
AcDbLine
 10
32.03891508524623
 20
84.64431457001332
 30
0.0
 11
128.0389150852464
 21
84.64431457001328
 31
0.0
  0
LINE
  5
AC78
330
18
100
AcDbEntity
  8
本体外線
100
AcDbLine
 10
33.53891508524623
 20
62.64431457001328
 30
0.0
 11
126.5389150852464
 21
62.64431457001328
 31
0.0
  0
POINT
  5
AC7C
330
18
100
AcDbEntity
  8
本体外線
100
AcDbPoint
 10
136.5389150852463
 20
86.64431457001327
 30
0.0
  0
POINT
  5
AC7D
330
18
100
AcDbEntity
  8
0
100
AcDbPoint
 10
136.5389150852463
 20
60.64431457001328
 30
0.0
  0
LINE
  5
AC87
330
18
100
AcDbEntity
  8
中心線
  6
CENTER
 48
0.15
100
AcDbLine
 10
80.03891508524635
 20
89.64431457001328
 30
0.0
 11
80.03891508524635
 21
57.64431457001328
 31
0.0
  0
POINT
  5
AC8B
330
18
100
AcDbEntity
  8
本体外線
100
AcDbPoint
 10
134.5383656549597
 20
86.64431457001327
 30
0.0
  0
POINT
  5
AC8C
330
18
100
AcDbEntity
  8
0
100
AcDbPoint
 10
134.5383656549597
 20
60.64431457001328
 30
0.0
  0
LINE
  5
AC90
102
{ACAD_REACTORS
330
AE17
102
}
330
18
100
AcDbEntity
  8
本体外線
100
AcDbLine
 10
22.63891508524637
 20
86.14431457001328
 30
0.0
 11
22.63891508524637
 21
61.60498098994918
 31
0.0
  0
LINE
  5
AC91
102
{ACAD_REACTORS
330
AE17
102
}
330
18
100
AcDbEntity
  8
本体外線
100
AcDbLine
 10
22.63891508524637
 20
86.10003990155744
 30
0.0
 11
22.68318975370221
 21
86.14431457001328
 31
0.0
  0
POINT
  5
AC93
330
18
100
AcDbEntity
  8
0
100
AcDbPoint
 10
133.9439130311015
 20
60.70431457001333
 30
0.0
  0
LINE
  5
AC94
330
18
100
AcDbEntity
  8
0
100
AcDbLine
 10
136.5360947622189
 20
61.64125032035994
 30
0.0
 11
140.5360947622191
 21
68.56945355063593
 31
0.0
  0
LINE
  5
AC95
330
18
100
AcDbEntity
  8
0
 48
0.2
100
AcDbLine
 10
137.9761383355148
 20
67.60727572414356
 30
0.0
 11
136.0893869895672
 21
66.51795932666644
 31
0.0
  0
LINE
  5
AC96
330
18
100
AcDbEntity
  8
0
 48
0.2
100
AcDbLine
 10
136.0893869895671
 20
66.51795932666622
 30
0.0
 11
136.0893869895668
 21
64.33932653171211
 31
0.0
  0
LWPOLYLINE
  5
AC97
102
{ACAD_REACTORS
330
AE17
102
}
330
18
100
AcDbEntity
  8
本体外線
100
AcDbPolyline
 90
        2
 70
     0
 43
0.0
 10
136.8842740690949
 20
60.64431457001328
 10
141.5389150852463
 20
68.70638930098152
  0
LINE
  5
AC9A
102
{ACAD_REACTORS
330
ACB3
102
}
330
18
100
AcDbEntity
  8
中心線
  6
CENTER
 48
0.15
100
AcDbLine
 10
140.8716360016465
 20
63.82620860451317
 30
0.0
 11
125.2386837093993
 21
72.8518978186705
 31
0.0
  0
LINE
  5
AC9B
330
18
100
AcDbEntity
  8
0
 48
0.2
100
AcDbLine
 10
140.1722907582203
 20
66.33932653171291
 30
0.0
 11
137.9761383355147
 21
67.60727572414353
 31
0.0
  0
LINE
  5
AC9C
330
18
100
AcDbEntity
  8
0
 48
0.2
100
AcDbLine
 10
138.2855394122723
 20
63.07137733928152
 30
0.0
 11
136.0893869895668
 21
64.33932653171197
 31
0.0
  0
LINE
  5
AC9D
330
18
100
AcDbEntity
  8
0
100
AcDbLine
 10
132.3306623252817
 20
70.99746110015991
 30
0.0
 11
135.0627131328505
 21
71.72951190772881
 31
0.0
  0
LINE
  5
AC9E
330
18
100
AcDbEntity
  8
0
100
AcDbLine
 10
130.3306623252817
 20
67.5333594850222
 30
0.0
 11
131.0627131328506
 21
64.8013086774533
 31
0.0
  0
LINE
  5
AC9F
330
18
100
AcDbEntity
  8
0
100
AcDbLine
 10
135.0627131328505
 20
71.72951190772877
 30
0.0
 11
131.0627131328506
 21
64.80130867745327
 31
0.0
  0
LINE
  5
ACA0
330
18
100
AcDbEntity
  8
0
100
AcDbLine
 10
140.5360947622191
 20
66.96945355063485
 30
0.0
 11
133.1698928098224
 21
71.22233223075619
 31
0.0
  0
LINE
  5
ACA1
330
18
100
AcDbEntity
  8
0
100
AcDbLine
 10
137.9217354082739
 20
62.44125032036001
 30
0.0
 11
130.5555334558782
 21
66.6941290004807
 31
0.0
  0
LINE
  5
ACA2
102
{ACAD_REACTORS
330
ACB3
102
}
330
18
100
AcDbEntity
  8
0
100
AcDbLine
 10
133.0806623252819
 20
72.29649920583625
 30
0.0
 11
129.580662325282
 21
66.23432137934532
 31
0.0
  0
LINE
  5
ACA3
102
{ACAD_REACTORS
330
ACB3
102
}
330
18
100
AcDbEntity
  8
0
100
AcDbLine
 10
133.080662325282
 20
72.29649920583629
 30
0.0
 11
126.5389150852464
 21
76.07337873584123
 31
0.0
  0
LINE
  5
ACA4
102
{ACAD_REACTORS
330
ACB3
102
}
330
18
100
AcDbEntity
  8
0
100
AcDbLine
 10
129.580662325282
 20
66.23432137934528
 30
0.0
 11
126.5389150852463
 21
67.99047496718668
 31
0.0
  0
LWPOLYLINE
  5
ACA5
102
{ACAD_REACTORS
330
AE17
102
}
330
18
100
AcDbEntity
  8
0
100
AcDbPolyline
 90
        3
 70
     0
 43
0.0
 10
140.5360947622191
 20
66.96945355063559
 10
140.5360947622191
 20
68.56945355063519
 10
126.5389150852463
 20
76.65072900503094
  0
LWPOLYLINE
  5
ACA6
102
{ACAD_REACTORS
330
AE17
102
}
330
18
100
AcDbEntity
  8
0
100
AcDbPolyline
 90
        3
 70
     0
 43
0.0
 10
137.9217354082739
 20
62.44125032036001
 10
136.5360947622189
 20
61.64125032035991
 10
126.5389150852464
 20
67.41312469799698
  0
LINE
  5
ACAE
330
18
100
AcDbEntity
  8
本体外線
100
AcDbLine
 10
33.53891508524635
 20
82.64431457001327
 30
0.0
 11
126.5389150852463
 21
82.64431457001327
 31
0.0
  0
LWPOLYLINE
  5
ACAF
102
{ACAD_REACTORS
330
AE17
102
}
330
18
100
AcDbEntity
  8
本体外線
100
AcDbPolyline
 90
        2
 70
     0
 43
0.0
 10
23.1935561013978
 20
60.64431457001328
 10
18.53891508524634
 20
68.70638930098152
  0
HATCH
  5
ACB3
330
18
100
AcDbEntity
  8
0
100
AcDbHatch
 10
0.0
 20
0.0
 30
0.0
210
0.0
220
0.0
230
1.0
  2
AR-SAND
 70
     0
 71
     1
 91
        2
 92
        7
 72
     0
 73
     1
 93
        4
 10
133.080662325282
 20
72.29649920583631
 10
126.5389150852464
 20
76.07337873584123
 10
126.5389150852464
 20
72.10120888381642
 10
131.3606623252818
 20
69.31737181681765
 97
        4
330
ACA3
330
AC4A
330
AC9A
330
ACA2
 92
        7
 72
     0
 73
     1
 93
        4
 10
126.5389150852464
 20
72.10120888381642
 10
126.5389150852464
 20
67.99047496718663
 10
129.5806623252819
 20
66.23432137934532
 10
131.3606623252818
 20
69.31737181681764
 97
        4
330
AC4A
330
ACA4
330
ACA2
330
AC9A
 75
     0
 76
     1
 52
0.0
 41
0.06
 77
     0
 78
     4
 53
37.5
 43
-107.1905485891261
 44
-145.0156315524621
 45
-0.0960018777590428
 46
2.936479423976054
 79
     6
 49
0.0
 49
-2.31648
 49
0.0
 49
-2.590799999999999
 49
0.0
 49
-2.476499999999999
 53
7.499999999999999
 43
-107.1905485891261
 44
-145.0156315524621
 45
2.697139698828015
 46
4.300950603410125
 79
     6
 49
0.0
 49
-1.24968
 49
0.0
 49
-2.08788
 49
0.0
 49
-0.8001000000000001
 53
327.5
 43
-109.0650685891261
 44
-145.0156315524621
 45
4.745954221448747
 46
0.0086231080712741
 79
     6
 49
0.0
 49
-0.762
 49
0.0
 49
-2.743199999999999
 49
0.0
 49
-3.581399999999999
 53
317.5
 43
-109.0650685891261
 44
-145.0156315524621
 45
4.581338714833782
 46
1.337575939543297
 79
     6
 49
0.0
 49
-0.381
 49
0.0
 49
-1.798319999999999
 49
0.0
 49
-2.057399999999999
 47
0.1149795913551454
 98
        2
 10
131.1413174412269
 20
71.05603159699035
 10
129.4146601871139
 20
69.33133806089859
  0
LINE
  5
ACB4
330
18
100
AcDbEntity
  8
0
 48
0.2
100
AcDbLine
 10
136.0893869895668
 20
64.33932653171211
 30
0.0
 11
137.9761383355148
 21
67.60727572414356
 31
0.0
  0
LINE
  5
ADE8
102
{ACAD_REACTORS
330
AE17
102
}
330
18
100
AcDbEntity
  8
0
100
AcDbLine
 10
32.53891508524629
 20
83.9776479033466
 30
0.0
 11
32.53891508524623
 21
61.31098123667986
 31
0.0
  0
LINE
  5
ADE9
102
{ACAD_REACTORS
330
AE17
102
}
330
18
100
AcDbEntity
  8
0
100
AcDbLine
 10
127.5389150852463
 20
83.97764790334649
 30
0.0
 11
127.5389150852463
 21
76.07337873584128
 31
0.0
  0
LINE
  5
ADEA
102
{ACAD_REACTORS
330
AE17
102
}
330
18
100
AcDbEntity
  8
本体外線
100
AcDbLine
 10
32.03891508524623
 20
86.64431457001327
 30
0.0
 11
32.03891508524623
 21
84.64431457001332
 31
0.0
  0
LINE
  5
ADEB
102
{ACAD_REACTORS
330
AE17
102
}
330
18
100
AcDbEntity
  8
本体外線
100
AcDbLine
 10
128.0389150852464
 20
86.64431457001327
 30
0.0
 11
128.0389150852464
 21
84.64431457001328
 31
0.0
  0
LINE
  5
ADEC
102
{ACAD_REACTORS
330
AE17
102
}
330
18
100
AcDbEntity
  8
本体外線
100
AcDbLine
 10
33.53891508524635
 20
62.64431457001328
 30
0.0
 11
32.03891508524623
 21
60.64431457001328
 31
0.0
  0
LINE
  5
ADED
102
{ACAD_REACTORS
330
AE17
102
}
330
18
100
AcDbEntity
  8
本体外線
100
AcDbLine
 10
126.5389150852463
 20
62.64431457001328
 30
0.0
 11
128.0389150852464
 21
60.64431457001328
 31
0.0
  0
LINE
  5
ADEE
102
{ACAD_REACTORS
330
AE17
102
}
330
18
100
AcDbEntity
  8
0
100
AcDbLine
 10
127.5389150852464
 20
66.83577442880739
 30
0.0
 11
127.5389150852464
 21
61.31098123667988
 31
0.0
  0
HATCH
  5
AE17
330
18
100
AcDbEntity
  8
剖面線
100
AcDbHatch
 10
0.0
 20
0.0
 30
0.0
210
0.0
220
0.0
230
1.0
  2
ANSI31
 70
     0
 71
     1
 91
        6
 92
        7
 72
     0
 73
     1
 93
       11
 10
32.53891508524629
 20
83.9776479033466
 10
32.03891508524623
 20
84.64431457001328
 10
32.03891508524623
 20
86.64431457001327
 10
23.53891508524634
 20
86.64431457001327
 10
23.53891508524634
 20
86.14431457001328
 10
22.68318975370221
 20
86.14431457001327
 10
22.63891508524637
 20
86.10003990155744
 10
22.63891508524636
 20
61.60498098994919
 10
23.1935561013978
 20
60.64431457001328
 10
32.03891508524624
 20
60.64431457001328
 10
32.53891508524623
 20
61.31098123667989
 97
       11
330
AC73
330
ADEA
330
AC42
330
AC44
330
AC6F
330
AC91
330
AC90
330
ACAF
330
AC47
330
ADEC
330
ADE8
 92
        7
 72
     0
 73
     1
 93
        4
 10
32.53891508524623
 20
61.31098123667988
 10
33.53891508524617
 20
62.64431457001306
 10
33.53891508524629
 20
82.64431457001334
 10
32.5389150852463
 20
83.9776479033466
 97
        4
330
AC73
330
ADE8
330
ADEC
330
AC45
 92
        7
 72
     1
 73
     1
 93
       11
 10
140.5360947622191
 20
68.56945355063517
 42
0.0
 10
140.5360947622191
 20
66.96945355063582
 42
0.0
 10
141.5389150852464
 20
68.70638930098156
 42
0.0
 10
141.5389150852465
 20
84.14431457001326
 42
0.4142135623730982
 10
139.5389150852466
 20
86.14431457001328
 42
0.0
 10
136.5389150852463
 20
86.14431457001328
 42
0.0
 10
136.5389150852463
 20
86.64431457001327
 42
0.0
 10
128.0389150852464
 20
86.64431457001327
 42
0.0
 10
128.0389150852464
 20
84.64431457001328
 42
0.0
 10
127.5389150852463
 20
83.97764790334658
 42
0.0
 10
127.5389150852463
 20
76.07337873584135
 42
0.0
 97
       10
330
AC71
330
AC72
330
AC49
330
AC42
330
ADEB
330
AC76
330
ADE9
330
ACA5
330
AC97
330
AC48
 92
        7
 72
     0
 73
     1
 93
        6
 10
127.5389150852464
 20
66.83577442880738
 10
127.5389150852464
 20
61.31098123667991
 10
128.0389150852464
 20
60.64431457001329
 10
136.8842740690948
 20
60.6443145700133
 10
137.9217354082741
 20
62.44125032036013
 10
136.5360947622189
 20
61.64125032035993
 97
        5
330
ADEE
330
ADED
330
AC47
330
AC97
330
ACA6
 92
        7
 72
     0
 73
     1
 93
        4
 10
127.5389150852464
 20
66.83577442880739
 10
126.5389150852464
 20
67.41312469799698
 10
126.5389150852464
 20
62.64431457001317
 10
127.5389150852464
 20
61.31098123667987
 97
        4
330
ACA6
330
AC4A
330
ADED
330
ADEE
 92
        7
 72
     0
 73
     1
 93
        4
 10
127.5389150852463
 20
83.97764790334655
 10
126.5389150852463
 20
82.64431457001327
 10
126.5389150852463
 20
76.65072900503092
 10
127.5389150852463
 20
76.07337873584133
 97
        4
330
AC76
330
AC4A
330
ACA5
330
ADE9
 75
     0
 76
     1
 52
0.0
 41
0.5
 77
     0
 78
     1
 53
45.0
 43
-271.5142415188518
 44
0.0
 45
-1.122532015133643
 46
1.122532015133644
 79
     0
 47
0.1520738633364082
 98
        6
 10
30.31707562991755
 20
73.64852531309077
 10
32.9044051757237
 20
74.86511649653187
 10
132.5926607524047
 20
76.53792904723241
 10
131.3750937326724
 20
62.85128106345576
 10
127.1136121326112
 20
64.37201982506974
 10
127.1136121326112
 20
78.36281538701928
  0
MTEXT
  5
AEB3
330
18
100
AcDbEntity
  8
0
100
AcDbMText
 10
49.81948278949767
 20
19.37399834316261
 30
0.0
 40
5.0
 41
0.0
 71
     1
 72
     5
  1
\Ftxt.shx,bigfont.shx|c128;小柳
  7
JL
 73
     1
 44
1.0
  0
ENDSEC
  0
SECTION
  2
OBJECTS
  0
DICTIONARY
  5
C
330
0
100
AcDbDictionary
281
     1
  3
ACAD_COLOR
350
AEB7
  3
ACAD_GROUP
350
D
  3
ACAD_LAYOUT
350
5CF3
  3
ACAD_MATERIAL
350
AEB6
  3
ACAD_MLINESTYLE
350
1B
  3
ACAD_PLOTSETTINGS
350
5CF4
  3
ACAD_PLOTSTYLENAME
350
5CF1
  3
ACAD_TABLESTYLE
350
AEB8
  3
ACDBVARIABLEDICTIONARY
350
45D
  0
DICTIONARY
  5
45F
330
18
100
AcDbDictionary
280
     1
281
     1
  3
ACAD_LAYOUTSELFREF
360
5D8B
  3
ACAD_SORTENTS
360
460
  0
DICTIONARY
  5
5D89
330
15
100
AcDbDictionary
280
     1
281
     1
  3
ACAD_LAYOUTSELFREF
360
5D8A
  0
DICTIONARY
  5
AEB7
102
{ACAD_REACTORS
330
C
102
}
330
C
100
AcDbDictionary
281
     1
  0
DICTIONARY
  5
D
102
{ACAD_REACTORS
330
C
102
}
330
C
100
AcDbDictionary
281
     1
  0
DICTIONARY
  5
5CF3
102
{ACAD_REACTORS
330
C
102
}
330
C
100
AcDbDictionary
281
     1
  3
Model
350
5CF5
  3
配置1
350
5CF6
  0
DICTIONARY
  5
AEB6
102
{ACAD_REACTORS
330
C
102
}
330
C
100
AcDbDictionary
281
     1
  0
DICTIONARY
  5
1B
102
{ACAD_REACTORS
330
C
102
}
330
C
100
AcDbDictionary
281
     1
  3
STANDARD
350
1C
  0
DICTIONARY
  5
5CF4
102
{ACAD_REACTORS
330
C
102
}
330
C
100
AcDbDictionary
281
     1
  0
ACDBDICTIONARYWDFLT
  5
5CF1
102
{ACAD_REACTORS
330
C
102
}
330
C
100
AcDbDictionary
281
     1
  3
Normal
350
5CF2
100
AcDbDictionaryWithDefault
340
5CF2
  0
DICTIONARY
  5
AEB8
102
{ACAD_REACTORS
330
C
102
}
330
C
100
AcDbDictionary
281
     1
  3
Standard
350
AEB9
  0
DICTIONARY
  5
45D
102
{ACAD_REACTORS
330
C
102
}
330
C
100
AcDbDictionary
281
     1
  3
CTABLESTYLE
350
AEC1
  3
SORTENTS
350
45E
  0
XRECORD
  5
5D8B
102
{ACAD_REACTORS
330
45F
102
}
330
45F
100
AcDbXrecord
280
     1
340
18
  0
SORTENTSTABLE
  5
460
102
{ACAD_REACTORS
330
45F
102
}
330
45F
100
AcDbSortentsTable
330
18
331
C0
  5
CB
  0
XRECORD
  5
5D8A
102
{ACAD_REACTORS
330
5D89
102
}
330
5D89
100
AcDbXrecord
280
     1
340
15
  0
LAYOUT
  5
5CF5
102
{ACAD_REACTORS
330
5CF3
102
}
330
5CF3
100
AcDbPlotSettings
  1

  2
EPSON STYLUS COLOR 440
  4

  6

 40
0.0
 41
0.0
 42
0.0
 43
0.0
 44
0.0
 45
0.0
 46
0.0
 47
0.0
 48
0.0
 49
0.0
140
0.0
141
0.0
142
1.0
143
1.0
 70
  1712
 72
     0
 73
     0
 74
     0
  7
a.ctb
 75
     0
147
1.0
 76
     0
 77
     2
 78
   300
148
0.0
149
0.0
100
AcDbLayout
  1
Model
 70
     1
 71
     0
 10
0.0
 20
0.0
 11
12.0
 21
9.0
 12
0.0
 22
0.0
 32
0.0
 14
0.0
 24
0.0
 34
0.0
 15
0.0
 25
0.0
 35
0.0
146
0.0
 13
0.0
 23
0.0
 33
0.0
 16
1.0
 26
0.0
 36
0.0
 17
0.0
 27
1.0
 37
0.0
 76
     0
330
18
  0
LAYOUT
  5
5CF6
102
{ACAD_REACTORS
330
5CF3
102
}
330
5CF3
100
AcDbPlotSettings
  1

  2
EPSON STYLUS COLOR 440
  4

  6

 40
0.0
 41
0.0
 42
0.0
 43
0.0
 44
0.0
 45
0.0
 46
0.0
 47
0.0
 48
0.0
 49
0.0
140
0.0
141
0.0
142
1.0
143
1.0
 70
   688
 72
     0
 73
     0
 74
     5
  7
a.ctb
 75
    16
147
1.0
 76
     0
 77
     2
 78
   300
148
0.0
149
0.0
100
AcDbLayout
  1
ｰtｸm1
 70
     1
 71
     1
 10
0.0
 20
0.0
 11
420.0
 21
297.0
 12
0.0
 22
0.0
 32
0.0
 14
1.000000000000000E+20
 24
1.000000000000000E+20
 34
1.000000000000000E+20
 15
-1.000000000000000E+20
 25
-1.000000000000000E+20
 35
-1.000000000000000E+20
146
0.0
 13
0.0
 23
0.0
 33
0.0
 16
1.0
 26
0.0
 36
0.0
 17
0.0
 27
1.0
 37
0.0
 76
     0
330
15
  0
MLINESTYLE
  5
1C
102
{ACAD_REACTORS
330
1B
102
}
330
1B
100
AcDbMlineStyle
  2
STANDARD
 70
     0
  3

 62
   256
 51
90.0
 52
90.0
 71
     2
 49
0.5
 62
   256
  6
BYLAYER
 49
-0.5
 62
   256
  6
BYLAYER
  0
ACDBPLACEHOLDER
  5
5CF2
102
{ACAD_REACTORS
330
5CF1
102
}
330
5CF1
  0
TABLESTYLE
  5
AEB9
102
{ACAD_REACTORS
330
AEB8
102
}
330
AEB8
100
AcDbTableStyle
  3
Standard
 70
     0
 71
     8
 40
1.5
 41
1.5
280
     0
281
     0
  7
STANDARD
140
4.5
170
     2
 62
     0
 63
     7
283
     0
274
    -2
284
     1
 64
     0
275
    -2
285
     1
 65
     0
276
    -2
286
     1
 66
     0
277
    -2
287
     1
 67
     0
278
    -2
288
     1
 68
     0
279
    -2
289
     1
 69
     0
  7
STANDARD
140
6.0
170
     5
 62
     0
 63
     7
283
     0
274
    -2
284
     1
 64
     0
275
    -2
285
     1
 65
     0
276
    -2
286
     1
 66
     0
277
    -2
287
     1
 67
     0
278
    -2
288
     1
 68
     0
279
    -2
289
     1
 69
     0
  7
STANDARD
140
4.5
170
     5
 62
     0
 63
     7
283
     0
274
    -2
284
     1
 64
     0
275
    -2
285
     1
 65
     0
276
    -2
286
     1
 66
     0
277
    -2
287
     1
 67
     0
278
    -2
288
     1
 68
     0
279
    -2
289
     1
 69
     0
  0
DICTIONARYVAR
  5
AEC1
102
{ACAD_REACTORS
330
45D
102
}
330
45D
100
DictionaryVariables
280
     0
  1
STANDARD
  0
DICTIONARYVAR
  5
45E
102
{ACAD_REACTORS
330
45D
102
}
330
45D
100
DictionaryVariables
280
     0
  1
127
  0
ENDSEC
  0
EOF
