  0
SECTION
  2
HEADER
  9
$ACADVER
  1
AC1018
  9
$ACADMAINTVER
 70
    76
  9
$DWGCODEPAGE
  3
ANSI_932
  9
$INSBASE
 10
0.0
 20
0.0
 30
0.0
  9
$EXTMIN
 10
0.0
 20
0.0
 30
0.0
  9
$EXTMAX
 10
95.0
 20
140.0
 30
1.919191919191921
  9
$LIMMIN
 10
0.0
 20
0.0
  9
$LIMMAX
 10
420.0
 20
297.0
  9
$ORTHOMODE
 70
     1
  9
$REGENMODE
 70
     1
  9
$FILLMODE
 70
     1
  9
$QTEXTMODE
 70
     0
  9
$MIRRTEXT
 70
     1
  9
$LTSCALE
 40
1.0
  9
$ATTMODE
 70
     1
  9
$TEXTSIZE
 40
1.25
  9
$TRACEWID
 40
1.0
  9
$TEXTSTYLE
  7
TXT
  9
$CLAYER
  8
mark
  9
$CELTYPE
  6
BYLAYER
  9
$CECOLOR
 62
   256
  9
$CELTSCALE
 40
1.0
  9
$DISPSILH
 70
     0
  9
$DIMSCALE
 40
1.0
  9
$DIMASZ
 40
1.25
  9
$DIMEXO
 40
0.4
  9
$DIMDLI
 40
0.38
  9
$DIMRND
 40
0.0
  9
$DIMDLE
 40
0.0
  9
$DIMEXE
 40
0.4
  9
$DIMTP
 40
0.0
  9
$DIMTM
 40
0.0
  9
$DIMTXT
 40
1.25
  9
$DIMCEN
 40
0.09
  9
$DIMTSZ
 40
0.0
  9
$DIMTOL
 70
     0
  9
$DIMLIM
 70
     0
  9
$DIMTIH
 70
     0
  9
$DIMTOH
 70
     0
  9
$DIMSE1
 70
     0
  9
$DIMSE2
 70
     0
  9
$DIMTAD
 70
     3
  9
$DIMZIN
 70
     8
  9
$DIMBLK
  1
Open30
  9
$DIMASO
 70
     1
  9
$DIMSHO
 70
     1
  9
$DIMPOST
  1

  9
$DIMAPOST
  1

  9
$DIMALT
 70
     0
  9
$DIMALTD
 70
     2
  9
$DIMALTF
 40
25.4
  9
$DIMLFAC
 40
1.0
  9
$DIMTOFL
 70
     1
  9
$DIMTVP
 40
0.0
  9
$DIMTIX
 70
     0
  9
$DIMSOXD
 70
     0
  9
$DIMSAH
 70
     0
  9
$DIMBLK1
  1

  9
$DIMBLK2
  1

  9
$DIMSTYLE
  2
STANDARD
  9
$DIMCLRD
 70
   256
  9
$DIMCLRE
 70
   256
  9
$DIMCLRT
 70
     3
  9
$DIMTFAC
 40
1.0
  9
$DIMGAP
 40
0.4
  9
$DIMJUST
 70
     0
  9
$DIMSD1
 70
     0
  9
$DIMSD2
 70
     0
  9
$DIMTOLJ
 70
     1
  9
$DIMTZIN
 70
     0
  9
$DIMALTZ
 70
     0
  9
$DIMALTTZ
 70
     0
  9
$DIMUPT
 70
     0
  9
$DIMDEC
 70
     2
  9
$DIMTDEC
 70
     2
  9
$DIMALTU
 70
     2
  9
$DIMALTTD
 70
     2
  9
$DIMTXSTY
  7
STANDARD
  9
$DIMAUNIT
 70
     0
  9
$DIMADEC
 70
     2
  9
$DIMALTRND
 40
0.0
  9
$DIMAZIN
 70
     2
  9
$DIMDSEP
 70
    46
  9
$DIMATFIT
 70
     3
  9
$DIMFRAC
 70
     0
  9
$DIMLDRBLK
  1
Open30
  9
$DIMLUNIT
 70
     2
  9
$DIMLWD
 70
    -2
  9
$DIMLWE
 70
    -2
  9
$DIMTMOVE
 70
     0
  9
$LUNITS
 70
     2
  9
$LUPREC
 70
     2
  9
$SKETCHINC
 40
1.0
  9
$FILLETRAD
 40
1.0
  9
$AUNITS
 70
     0
  9
$AUPREC
 70
     2
  9
$MENU
  1
.
  9
$ELEVATION
 40
0.0
  9
$PELEVATION
 40
0.0
  9
$THICKNESS
 40
0.0
  9
$LIMCHECK
 70
     0
  9
$CHAMFERA
 40
0.5
  9
$CHAMFERB
 40
0.5
  9
$CHAMFERC
 40
1.75
  9
$CHAMFERD
 40
0.0174532925199433
  9
$SKPOLY
 70
     0
  9
$TDCREATE
 40
2451555.620234838
  9
$TDUCREATE
 40
2451555.245234838
  9
$TDUPDATE
 40
2455846.616737466
  9
$TDUUPDATE
 40
2455846.241737466
  9
$TDINDWG
 40
2.6396066782
  9
$TDUSRTIMER
 40
2.6396066782
  9
$USRTIMER
 70
     1
  9
$ANGBASE
 50
0.0
  9
$ANGDIR
 70
     0
  9
$PDMODE
 70
     0
  9
$PDSIZE
 40
0.0
  9
$PLINEWID
 40
0.0
  9
$SPLFRAME
 70
     0
  9
$SPLINETYPE
 70
     6
  9
$SPLINESEGS
 70
     8
  9
$HANDSEED
  5
A16A
  9
$SURFTAB1
 70
     6
  9
$SURFTAB2
 70
     6
  9
$SURFTYPE
 70
     6
  9
$SURFU
 70
     6
  9
$SURFV
 70
     6
  9
$UCSBASE
  2

  9
$UCSNAME
  2

  9
$UCSORG
 10
0.0
 20
0.0
 30
0.0
  9
$UCSXDIR
 10
1.0
 20
0.0
 30
0.0
  9
$UCSYDIR
 10
0.0
 20
1.0
 30
0.0
  9
$UCSORTHOREF
  2

  9
$UCSORTHOVIEW
 70
     1
  9
$UCSORGTOP
 10
0.0
 20
0.0
 30
0.0
  9
$UCSORGBOTTOM
 10
0.0
 20
0.0
 30
0.0
  9
$UCSORGLEFT
 10
0.0
 20
0.0
 30
0.0
  9
$UCSORGRIGHT
 10
0.0
 20
0.0
 30
0.0
  9
$UCSORGFRONT
 10
0.0
 20
0.0
 30
0.0
  9
$UCSORGBACK
 10
0.0
 20
0.0
 30
0.0
  9
$PUCSBASE
  2

  9
$PUCSNAME
  2

  9
$PUCSORG
 10
0.0
 20
0.0
 30
0.0
  9
$PUCSXDIR
 10
1.0
 20
0.0
 30
0.0
  9
$PUCSYDIR
 10
0.0
 20
1.0
 30
0.0
  9
$PUCSORTHOREF
  2

  9
$PUCSORTHOVIEW
 70
     0
  9
$PUCSORGTOP
 10
0.0
 20
0.0
 30
0.0
  9
$PUCSORGBOTTOM
 10
0.0
 20
0.0
 30
0.0
  9
$PUCSORGLEFT
 10
0.0
 20
0.0
 30
0.0
  9
$PUCSORGRIGHT
 10
0.0
 20
0.0
 30
0.0
  9
$PUCSORGFRONT
 10
0.0
 20
0.0
 30
0.0
  9
$PUCSORGBACK
 10
0.0
 20
0.0
 30
0.0
  9
$USERI1
 70
     0
  9
$USERI2
 70
     0
  9
$USERI3
 70
     0
  9
$USERI4
 70
     0
  9
$USERI5
 70
     0
  9
$USERR1
 40
0.0
  9
$USERR2
 40
0.0
  9
$USERR3
 40
0.0
  9
$USERR4
 40
0.0
  9
$USERR5
 40
0.0
  9
$WORLDVIEW
 70
     1
  9
$SHADEDGE
 70
     3
  9
$SHADEDIF
 70
    70
  9
$TILEMODE
 70
     1
  9
$MAXACTVP
 70
    48
  9
$PINSBASE
 10
0.0
 20
0.0
 30
0.0
  9
$PLIMCHECK
 70
     0
  9
$PEXTMIN
 10
1.000000000000000E+20
 20
1.000000000000000E+20
 30
1.000000000000000E+20
  9
$PEXTMAX
 10
-1.000000000000000E+20
 20
-1.000000000000000E+20
 30
-1.000000000000000E+20
  9
$PLIMMIN
 10
0.0
 20
0.0
  9
$PLIMMAX
 10
420.0
 20
297.0
  9
$UNITMODE
 70
     0
  9
$VISRETAIN
 70
     1
  9
$PLINEGEN
 70
     0
  9
$PSLTSCALE
 70
     1
  9
$TREEDEPTH
 70
  3020
  9
$CMLSTYLE
  2
STANDARD
  9
$CMLJUST
 70
     0
  9
$CMLSCALE
 40
20.0
  9
$PROXYGRAPHICS
 70
     1
  9
$MEASUREMENT
 70
     1
  9
$CELWEIGHT
370
    -1
  9
$ENDCAPS
280
     0
  9
$JOINSTYLE
280
     0
  9
$LWDISPLAY
290
     0
  9
$INSUNITS
 70
     0
  9
$HYPERLINKBASE
  1

  9
$STYLESHEET
  1
monochrome.ctb
  9
$XEDIT
290
     1
  9
$CEPSNTYPE
380
     0
  9
$PSTYLEMODE
290
     1
  9
$FINGERPRINTGUID
  2
{1CF51E8A-A506-11D4-A7D9-AF69F5C20846}
  9
$VERSIONGUID
  2
{C0B995E0-2518-418E-9095-363FB29C602C}
  9
$EXTNAMES
290
     1
  9
$PSVPSCALE
 40
0.0
  9
$OLESTARTUP
290
     0
  9
$SORTENTS
280
   127
  9
$INDEXCTL
280
     0
  9
$HIDETEXT
280
     0
  9
$XCLIPFRAME
290
     0
  9
$HALOGAP
280
     0
  9
$OBSCOLOR
 70
   257
  9
$OBSLTYPE
280
     0
  9
$INTERSECTIONDISPLAY
280
     0
  9
$INTERSECTIONCOLOR
 70
   257
  9
$DIMASSOC
280
     1
  9
$PROJECTNAME
  1

  0
ENDSEC
  0
SECTION
  2
CLASSES
  0
CLASS
  1
DICTIONARYVAR
  2
AcDbDictionaryVar
  3
ObjectDBX Classes
 90
        0
 91
        2
280
     0
281
     0
  0
CLASS
  1
SORTENTSTABLE
  2
AcDbSortentsTable
  3
ObjectDBX Classes
 90
        0
 91
        1
280
     0
281
     0
  0
CLASS
  1
ACDBDICTIONARYWDFLT
  2
AcDbDictionaryWithDefault
  3
ObjectDBX Classes
 90
        0
 91
        1
280
     0
281
     0
  0
CLASS
  1
TABLESTYLE
  2
AcDbTableStyle
  3
ObjectDBX Classes
 90
     2047
 91
        1
280
     0
281
     0
  0
ENDSEC
  0
SECTION
  2
TABLES
  0
TABLE
  2
VPORT
  5
8
330
0
100
AcDbSymbolTable
 70
     2
  0
VPORT
  5
A169
330
8
100
AcDbSymbolTableRecord
100
AcDbViewportTableRecord
  2
*Active
 70
     0
 10
0.0
 20
0.0
 11
1.0
 21
1.0
 12
90.43653341086459
 22
73.01116729392909
 13
0.0
 23
0.0
 14
10.0
 24
10.0
 15
10.0
 25
10.0
 16
0.0
 26
0.0
 36
1.0
 17
0.0
 27
0.0
 37
0.0
 40
141.7396334034689
 41
2.47104247104247
 42
50.0
 43
0.0
 44
0.0
 50
0.0
 51
0.0
 71
     0
 72
 20000
 73
     1
 74
     1
 75
     0
 76
     0
 77
     0
 78
     0
281
     0
 65
     1
110
0.0
120
0.0
130
0.0
111
1.0
121
0.0
131
0.0
112
0.0
122
1.0
132
0.0
 79
     1
146
0.0
  0
ENDTAB
  0
TABLE
  2
LTYPE
  5
5
330
0
100
AcDbSymbolTable
 70
     7
  0
LTYPE
  5
12
330
5
100
AcDbSymbolTableRecord
100
AcDbLinetypeTableRecord
  2
BYBLOCK
 70
     0
  3

 72
    65
 73
     0
 40
0.0
  0
LTYPE
  5
13
330
5
100
AcDbSymbolTableRecord
100
AcDbLinetypeTableRecord
  2
BYLAYER
 70
     0
  3

 72
    65
 73
     0
 40
0.0
  0
LTYPE
  5
14
330
5
100
AcDbSymbolTableRecord
100
AcDbLinetypeTableRecord
  2
CONTINUOUS
 70
     0
  3
Solid line
 72
    65
 73
     0
 40
0.0
  0
LTYPE
  5
9D
330
5
100
AcDbSymbolTableRecord
100
AcDbLinetypeTableRecord
  2
CENTERX2
 70
     0
  3
Center (2x) ________  __  ________  __  _____
 72
    65
 73
     4
 40
101.6
 49
63.5
 74
     0
 49
-12.7
 74
     0
 49
12.7
 74
     0
 49
-12.7
 74
     0
  0
LTYPE
  5
A1
330
5
100
AcDbSymbolTableRecord
100
AcDbLinetypeTableRecord
  2
DASHED
 70
     0
  3
Dashed __ __ __ __ __ __ __ __ __ __ __ __ __ _
 72
    65
 73
     2
 40
19.05
 49
12.7
 74
     0
 49
-6.349999999999999
 74
     0
  0
LTYPE
  5
A2
330
5
100
AcDbSymbolTableRecord
100
AcDbLinetypeTableRecord
  2
DASHED2
 70
     0
  3
Dashed (.5x) _ _ _ _ _ _ _ _ _ _ _ _ _ _ _ _ _
 72
    65
 73
     2
 40
9.524999999999998
 49
6.349999999999999
 74
     0
 49
-3.174999999999999
 74
     0
  0
LTYPE
  5
A5
330
5
100
AcDbSymbolTableRecord
100
AcDbLinetypeTableRecord
  2
DIVIDE2
 70
     0
  3
Divide (.5x) __..__..__..__..__..__..__..__.._
 72
    65
 73
     6
 40
15.875
 49
6.349999999999999
 74
     0
 49
-3.174999999999999
 74
     0
 49
0.0
 74
     0
 49
-3.174999999999999
 74
     0
 49
0.0
 74
     0
 49
-3.174999999999999
 74
     0
  0
LTYPE
  5
650B
330
5
100
AcDbSymbolTableRecord
100
AcDbLinetypeTableRecord
  2
CENTER
 70
     0
  3
Center ____ _ ____ _ ____ _ ____ _ ____ _ ____
 72
    65
 73
     4
 40
50.8
 49
31.75
 74
     0
 49
-6.349999999999999
 74
     0
 49
6.349999999999999
 74
     0
 49
-6.349999999999999
 74
     0
  0
LTYPE
  5
650C
330
5
100
AcDbSymbolTableRecord
100
AcDbLinetypeTableRecord
  2
HIDDEN
 70
     0
  3
Hidden __ __ __ __ __ __ __ __ __ __ __ __ __ _
 72
    65
 73
     2
 40
9.524999999999998
 49
6.349999999999999
 74
     0
 49
-3.174999999999999
 74
     0
  0
ENDTAB
  0
TABLE
  2
LAYER
  5
2
102
{ACAD_XDICTIONARY
360
7BFE
102
}
330
0
100
AcDbSymbolTable
 70
     9
  0
LAYER
  5
E
330
2
100
AcDbSymbolTableRecord
100
AcDbLayerTableRecord
  2
0
 70
     0
 62
     7
  6
CONTINUOUS
370
    -3
390
5CF2
  0
LAYER
  5
B9
330
2
100
AcDbSymbolTableRecord
100
AcDbLayerTableRecord
  2
dim
 70
     0
 62
     3
  6
CONTINUOUS
370
    -3
390
5CF2
  0
LAYER
  5
F2
330
2
100
AcDbSymbolTableRecord
100
AcDbLayerTableRecord
  2
DEFPOINTS
 70
     0
 62
     4
  6
CONTINUOUS
290
     0
370
    -3
390
5CF2
  0
LAYER
  5
5F8B
330
2
100
AcDbSymbolTableRecord
100
AcDbLayerTableRecord
  2
mark
 70
     0
 62
     6
  6
CONTINUOUS
370
    -3
390
5CF2
  0
LAYER
  5
644E
330
2
100
AcDbSymbolTableRecord
100
AcDbLayerTableRecord
  2
frame
 70
     0
 62
     9
  6
CONTINUOUS
370
    -3
390
5CF2
  0
LAYER
  5
650D
330
2
100
AcDbSymbolTableRecord
100
AcDbLayerTableRecord
  2
center
 70
     0
 62
     1
  6
CENTER
370
    -3
390
5CF2
  0
LAYER
  5
650E
330
2
100
AcDbSymbolTableRecord
100
AcDbLayerTableRecord
  2
bowle
 70
     0
 62
     4
  6
HIDDEN
370
    -3
390
5CF2
  0
LAYER
  5
650F
330
2
100
AcDbSymbolTableRecord
100
AcDbLayerTableRecord
  2
contour
 70
     0
 62
     2
  6
CONTINUOUS
370
    -3
390
5CF2
  0
LAYER
  5
6510
330
2
100
AcDbSymbolTableRecord
100
AcDbLayerTableRecord
  2
section
 70
     0
 62
     5
  6
CONTINUOUS
370
    -3
390
5CF2
  0
ENDTAB
  0
TABLE
  2
STYLE
  5
3
330
0
100
AcDbSymbolTable
 70
     5
  0
STYLE
  5
F
330
3
100
AcDbSymbolTableRecord
100
AcDbTextStyleTableRecord
  2
STANDARD
 70
     0
 40
0.0
 41
1.0
 50
0.0
 71
     0
 42
2.5
  3
txt
  4

  0
STYLE
  5
BE
330
3
100
AcDbSymbolTableRecord
100
AcDbTextStyleTableRecord
  2
ISOCP3
 70
     0
 40
0.0
 41
1.0
 50
0.0
 71
     0
 42
2.5
  3
isocp3.shx
  4

  0
STYLE
  5
2A37
330
3
100
AcDbSymbolTableRecord
100
AcDbTextStyleTableRecord
  2
TXT
 70
     0
 40
0.0
 41
1.0
 50
0.0
 71
     0
 42
1.25
  3
txt.shx
  4
bigfont.shx
  0
STYLE
  5
5DCB
330
3
100
AcDbSymbolTableRecord
100
AcDbTextStyleTableRecord
  2
LKK
 70
     0
 40
50.0
 41
1.5
 50
0.0
 71
     0
 42
50.0
  3
MS PGothic.ttf
  4

1001
ACAD
1000
MS PGothic
1071
    32818
  0
STYLE
  5
5DCC
330
3
100
AcDbSymbolTableRecord
100
AcDbTextStyleTableRecord
  2
JL
 70
     0
 40
10.0
 41
0.5
 50
0.0
 71
     0
 42
5.0
  3
MS Mincho.ttf
  4

1001
ACAD
1000
MS Mincho
1071
    32785
  0
ENDTAB
  0
TABLE
  2
VIEW
  5
6
330
0
100
AcDbSymbolTable
 70
     0
  0
ENDTAB
  0
TABLE
  2
UCS
  5
7
330
0
100
AcDbSymbolTable
 70
     0
  0
ENDTAB
  0
TABLE
  2
APPID
  5
9
330
0
100
AcDbSymbolTable
 70
    11
  0
APPID
  5
10
330
9
100
AcDbSymbolTableRecord
100
AcDbRegAppTableRecord
  2
ACAD
 70
     0
  0
APPID
  5
7C91
330
9
100
AcDbSymbolTableRecord
100
AcDbRegAppTableRecord
  2
ACAD_DSTYLE_DIMEXT_LENGTH
 70
     0
  0
APPID
  5
7C92
330
9
100
AcDbSymbolTableRecord
100
AcDbRegAppTableRecord
  2
ACAD_DSTYLE_DIMEXT_ENABLED
 70
     0
  0
APPID
  5
7C93
330
9
100
AcDbSymbolTableRecord
100
AcDbRegAppTableRecord
  2
ACAD_DSTYLE_DIMJOGGED_JOGANGLE_SYMBOL
 70
     0
  0
APPID
  5
7C94
330
9
100
AcDbSymbolTableRecord
100
AcDbRegAppTableRecord
  2
ACAD_DSTYLE_DIMARC_LENGTH_SYMBOL
 70
     0
  0
APPID
  5
7F1C
330
9
100
AcDbSymbolTableRecord
100
AcDbRegAppTableRecord
  2
ACAD_EXEMPT_FROM_CAD_STANDARDS
 70
     0
  0
APPID
  5
7F49
330
9
100
AcDbSymbolTableRecord
100
AcDbRegAppTableRecord
  2
ACAD_DSTYLE_DIMTEXT_FILL
 70
     0
  0
APPID
  5
7F4C
330
9
100
AcDbSymbolTableRecord
100
AcDbRegAppTableRecord
  2
ACAD_DSTYLE_DIM_LINETYPE
 70
     0
  0
APPID
  5
7F4D
330
9
100
AcDbSymbolTableRecord
100
AcDbRegAppTableRecord
  2
ACAD_DSTYLE_DIM_EXT1_LINETYPE
 70
     0
  0
APPID
  5
7F4E
330
9
100
AcDbSymbolTableRecord
100
AcDbRegAppTableRecord
  2
ACAD_DSTYLE_DIM_EXT2_LINETYPE
 70
     0
  0
APPID
  5
8C73
330
9
100
AcDbSymbolTableRecord
100
AcDbRegAppTableRecord
  2
ACAD_PSEXT
 70
     0
  0
ENDTAB
  0
TABLE
  2
DIMSTYLE
  5
A
330
0
100
AcDbSymbolTable
 70
     1
100
AcDbDimStyleTable
 71
     1
340
1D
  0
DIMSTYLE
105
1D
102
{ACAD_REACTORS
330
9C15
330
9C2B
330
9C38
330
9C47
330
9C54
330
9C61
330
9C6E
330
9CA3
330
A0E4
102
}
330
A
100
AcDbSymbolTableRecord
100
AcDbDimStyleTableRecord
  2
STANDARD
 70
     0
 41
1.25
 42
0.4
 44
0.4
 73
     0
 74
     0
 77
     3
 78
     8
 79
     2
140
1.25
147
0.4
172
     1
176
   256
177
   256
178
     3
179
     2
271
     2
272
     2
340
F
341
7C04
342
7C04
1001
ACAD_DSTYLE_DIMEXT_LENGTH
1070
   378
1040
0.18
1001
ACAD_DSTYLE_DIMEXT_ENABLED
1070
   383
1070
     0
1001
ACAD_DSTYLE_DIMARC_LENGTH_SYMBOL
1070
   379
1070
     0
1001
ACAD_DSTYLE_DIMJOGGED_JOGANGLE_SYMBOL
1070
   384
1040
1.570796326794896
  0
ENDTAB
  0
TABLE
  2
BLOCK_RECORD
  5
1
330
0
100
AcDbSymbolTable
 70
    14
  0
BLOCK_RECORD
  5
18
102
{ACAD_XDICTIONARY
360
45F
102
}
330
1
100
AcDbSymbolTableRecord
100
AcDbBlockTableRecord
  2
*MODEL_SPACE
340
5CF5
  0
BLOCK_RECORD
  5
15
102
{ACAD_XDICTIONARY
360
5D89
102
}
330
1
100
AcDbSymbolTableRecord
100
AcDbBlockTableRecord
  2
*PAPER_SPACE
340
5CF6
  0
BLOCK_RECORD
  5
639D
330
1
100
AcDbSymbolTableRecord
100
AcDbBlockTableRecord
  2
A$C255C26A2
340
0
  0
BLOCK_RECORD
  5
7C04
330
1
100
AcDbSymbolTableRecord
100
AcDbBlockTableRecord
  2
_Open30
340
0
102
{BLKREFS
331
A03A
331
A03B
331
A043
331
A044
331
A04E
331
A04F
331
A057
331
A058
331
A060
331
A061
331
A069
331
A06A
331
A074
331
A075
331
A07D
331
A0FF
331
A100
102
}
  0
BLOCK_RECORD
  5
7C0A
102
{ACAD_XDICTIONARY
360
7C0B
102
}
330
1
100
AcDbSymbolTableRecord
100
AcDbBlockTableRecord
  2
A
340
0
310
2800000020000000200000000100080000000000000400000000000000000000000000000000000000000000000080000080000000808000800000008000800080800000C0C0C000C0DCC000F0CAA6000020400000206000002080000020A0000020C0000020E00000400000004020000040400000406000004080000040A0
310
000040C0000040E00000600000006020000060400000606000006080000060A0000060C0000060E00000800000008020000080400000806000008080000080A0000080C0000080E00000A0000000A0200000A0400000A0600000A0800000A0A00000A0C00000A0E00000C0000000C0200000C0400000C0600000C0800000C0
310
A00000C0C00000C0E00000E0000000E0200000E0400000E0600000E0800000E0A00000E0C00000E0E00040000000400020004000400040006000400080004000A0004000C0004000E00040200000402020004020400040206000402080004020A0004020C0004020E000404000004040200040404000404060004040800040
310
40A0004040C0004040E00040600000406020004060400040606000406080004060A0004060C0004060E00040800000408020004080400040806000408080004080A0004080C0004080E00040A0000040A0200040A0400040A0600040A0800040A0A00040A0C00040A0E00040C0000040C0200040C0400040C0600040C08000
310
40C0A00040C0C00040C0E00040E0000040E0200040E0400040E0600040E0800040E0A00040E0C00040E0E00080000000800020008000400080006000800080008000A0008000C0008000E00080200000802020008020400080206000802080008020A0008020C0008020E00080400000804020008040400080406000804080
310
008040A0008040C0008040E00080600000806020008060400080606000806080008060A0008060C0008060E00080800000808020008080400080806000808080008080A0008080C0008080E00080A0000080A0200080A0400080A0600080A0800080A0A00080A0C00080A0E00080C0000080C0200080C0400080C0600080C0
310
800080C0A00080C0C00080C0E00080E0000080E0200080E0400080E0600080E0800080E0A00080E0C00080E0E000C0000000C0002000C0004000C0006000C0008000C000A000C000C000C000E000C0200000C0202000C0204000C0206000C0208000C020A000C020C000C020E000C0400000C0402000C0404000C0406000C0
310
408000C040A000C040C000C040E000C0600000C0602000C0604000C0606000C0608000C060A000C060C000C060E000C0800000C0802000C0804000C0806000C0808000C080A000C080C000C080E000C0A00000C0A02000C0A04000C0A06000C0A08000C0A0A000C0A0C000C0A0E000C0C00000C0C02000C0C04000C0C06000
310
C0C08000C0C0A000F0FBFF00A4A0A000808080000000FF0000FF000000FFFF00FF000000FF00FF00FFFF0000FFFFFF0000000000000000000000000000000000000000000000000000000000000000000000000000000000000000000000000000000000000000000000000000000000000000000000000000000000000000
310
00000000000000000000000000000000000000000000000000000000000000000000000000000000000000000000000000000000000000000000000000000000000000000000000000000000000000000000000000000000000000000000000000000000000000000000000000000000000000000000000000000000000000
310
00000000000000000000000000000000000000000000000000000000000000000000000000000000000000000000000000000000000000000000000000000000000000000000000000000000000000000000000000000000000000000000000000000000000000000000000000000000000000000000000000000000000000
310
000000000000FDFDFDFDFDFDFDFDFDFDFDFD0000FD0000000000000000000000000000000000FD0000FA0000000000FA00FD0000FDFD00000000000000000000000000000000FD0000FA0000000000FA00FD0000FDFDFD000000000000000000000000000000FD0000FA0000000000FA00FD0000FDFDFDFD00000000000000
310
00000000000000FD0000FAFAFAFAFAFAFA00FD0000FDFDFDFDFD00000000000000000000000000FD000000FA00000000FA00FD0000FDFDFDFDFDFDFDFDFDFDFDFDFDFDFDFDFDFDFD000000FA000000FA0000FD0000FDFDFDFDFD00000000000000000000000000FD00000000FA0000FA0000FD0000FDFDFDFD000000000000
310
0000000000000000FD00000000FA00FA000000FD0000FDFD00000000000000000000000000000000FD0000000000FAFA000000FD0000FD0000000000000000000000000000000000FD0000000000FA00000000FD0000000000000000000000000000000000000000FDFDFDFDFDFDFDFDFDFDFDFD0000000000000000000000
310
00000000000000000000000000000000000000000000000000000000000000000000000000000000000000000000000000000000000000000000000000000000000000000000000000000000000000000000000000000000000000000000000000000000000000000000000000000000000000000000000000000000000000
310
00000000000000000000000000000000000000000000000000000000000000000000000000000000000000000000000000000000000000000000000000000000000000000000000000000000000000000000000000000000000000000000000000000000000000000000000000000000000000000000000000000000000000
310
0000000000000000000000000000000000000000000000000000000000000000000000000000000000000000000000000000000000000000
  0
BLOCK_RECORD
  5
8E72
102
{ACAD_XDICTIONARY
360
8E73
102
}
330
1
100
AcDbSymbolTableRecord
100
AcDbBlockTableRecord
  2
LS
340
0
310
2800000020000000200000000100080000000000000400000000000000000000000000000000000000000000000080000080000000808000800000008000800080800000C0C0C000C0DCC000F0CAA6000020400000206000002080000020A0000020C0000020E00000400000004020000040400000406000004080000040A0
310
000040C0000040E00000600000006020000060400000606000006080000060A0000060C0000060E00000800000008020000080400000806000008080000080A0000080C0000080E00000A0000000A0200000A0400000A0600000A0800000A0A00000A0C00000A0E00000C0000000C0200000C0400000C0600000C0800000C0
310
A00000C0C00000C0E00000E0000000E0200000E0400000E0600000E0800000E0A00000E0C00000E0E00040000000400020004000400040006000400080004000A0004000C0004000E00040200000402020004020400040206000402080004020A0004020C0004020E000404000004040200040404000404060004040800040
310
40A0004040C0004040E00040600000406020004060400040606000406080004060A0004060C0004060E00040800000408020004080400040806000408080004080A0004080C0004080E00040A0000040A0200040A0400040A0600040A0800040A0A00040A0C00040A0E00040C0000040C0200040C0400040C0600040C08000
310
40C0A00040C0C00040C0E00040E0000040E0200040E0400040E0600040E0800040E0A00040E0C00040E0E00080000000800020008000400080006000800080008000A0008000C0008000E00080200000802020008020400080206000802080008020A0008020C0008020E00080400000804020008040400080406000804080
310
008040A0008040C0008040E00080600000806020008060400080606000806080008060A0008060C0008060E00080800000808020008080400080806000808080008080A0008080C0008080E00080A0000080A0200080A0400080A0600080A0800080A0A00080A0C00080A0E00080C0000080C0200080C0400080C0600080C0
310
800080C0A00080C0C00080C0E00080E0000080E0200080E0400080E0600080E0800080E0A00080E0C00080E0E000C0000000C0002000C0004000C0006000C0008000C000A000C000C000C000E000C0200000C0202000C0204000C0206000C0208000C020A000C020C000C020E000C0400000C0402000C0404000C0406000C0
310
408000C040A000C040C000C040E000C0600000C0602000C0604000C0606000C0608000C060A000C060C000C060E000C0800000C0802000C0804000C0806000C0808000C080A000C080C000C080E000C0A00000C0A02000C0A04000C0A06000C0A08000C0A0A000C0A0C000C0A0E000C0C00000C0C02000C0C04000C0C06000
310
C0C08000C0C0A000F0FBFF00A4A0A000808080000000FF0000FF000000FFFF00FF000000FF00FF00FFFF0000FFFFFF00000000000000000000000000000000000000000000000000000000000000000000000000000000000000FBFBFEFBFEFBFBFEFBFEFBFB00000000000000000000000000000000000000FBFBFBFEFBFE
310
FBFBFEFBFEFBFBFB000000000000000000000000000000000000FB0000FE00FE0000FE00FE0000FB000000000000000000000000000000000000FB0000FE00FE0000FE00FE0000FB000000000000000000000000000000000000FB0000FEFEFEFEFEFEFEFE0000FB000000000000000000000000000000000000FB000000FE
310
FE0000FEFE000000FB000000000000000000000000000000000000FB0000000000FEFE0000000000FB000000000000000000000000000000000000FBFBFBFEFBFBFBFBFBFBFEFBFBFB000000000000000000000000000000000000000000FBFE0000000000FE000000000000000000000000000000000000000000000000FB
310
FBFBFBFBFBFEFB000000000000000000000000000000000000000000000000FBFE00000000FEFB000000000000000000000000000000000000000000000000FBFE00000000FEFB000000000000000000000000000000000000000000000000FBFE00000000FEFB000000000000000000000000000000000000000000000000
310
FBFE00000000FEFB000000000000000000000000000000000000000000000000FBFE00000000FEFB000000000000000000000000000000000000000000000000FBFE00000000FEFB000000000000000000000000000000000000000000000000FBFE00000000FEFB0000000000000000000000000000000000000000000000
310
00FBFE00000000FEFB000000000000000000000000000000000000000000000000FBFE00000000FEFB000000000000000000000000000000000000000000000000FBFE00000000FEFB000000000000000000000000000000000000000000000000FBFE00000000FEFB00000000000000000000000000000000000000000000
310
0000FBFE00000000FEFB000000000000000000000000000000000000000000000000FBFE00000000FEFB000000000000000000000000000000000000000000000000FBFE00000000FEFB000000000000000000000000000000000000000000000000FBFE00000000FEFB000000000000000000000000000000000000000000
310
000000FBFE00000000FEFB000000000000000000000000000000000000000000000000FBFE00000000FEFB000000000000000000000000000000000000000000000000FBFEFBFBFBFBFEFB00000000000000000000000000000000000000000000000000FE00000000FEFB0000000000000000000000000000000000000000
310
0000000000FBFBFBFBFBFB000000000000000000000000000000000000000000000000000000000000000000000000000000000000000000
  0
BLOCK_RECORD
  5
9B29
102
{ACAD_XDICTIONARY
360
9B2A
102
}
330
1
100
AcDbSymbolTableRecord
100
AcDbBlockTableRecord
  2
lss
340
0
310
2800000020000000200000000100080000000000000400000000000000000000000000000000000000000000000080000080000000808000800000008000800080800000C0C0C000C0DCC000F0CAA6000020400000206000002080000020A0000020C0000020E00000400000004020000040400000406000004080000040A0
310
000040C0000040E00000600000006020000060400000606000006080000060A0000060C0000060E00000800000008020000080400000806000008080000080A0000080C0000080E00000A0000000A0200000A0400000A0600000A0800000A0A00000A0C00000A0E00000C0000000C0200000C0400000C0600000C0800000C0
310
A00000C0C00000C0E00000E0000000E0200000E0400000E0600000E0800000E0A00000E0C00000E0E00040000000400020004000400040006000400080004000A0004000C0004000E00040200000402020004020400040206000402080004020A0004020C0004020E000404000004040200040404000404060004040800040
310
40A0004040C0004040E00040600000406020004060400040606000406080004060A0004060C0004060E00040800000408020004080400040806000408080004080A0004080C0004080E00040A0000040A0200040A0400040A0600040A0800040A0A00040A0C00040A0E00040C0000040C0200040C0400040C0600040C08000
310
40C0A00040C0C00040C0E00040E0000040E0200040E0400040E0600040E0800040E0A00040E0C00040E0E00080000000800020008000400080006000800080008000A0008000C0008000E00080200000802020008020400080206000802080008020A0008020C0008020E00080400000804020008040400080406000804080
310
008040A0008040C0008040E00080600000806020008060400080606000806080008060A0008060C0008060E00080800000808020008080400080806000808080008080A0008080C0008080E00080A0000080A0200080A0400080A0600080A0800080A0A00080A0C00080A0E00080C0000080C0200080C0400080C0600080C0
310
800080C0A00080C0C00080C0E00080E0000080E0200080E0400080E0600080E0800080E0A00080E0C00080E0E000C0000000C0002000C0004000C0006000C0008000C000A000C000C000C000E000C0200000C0202000C0204000C0206000C0208000C020A000C020C000C020E000C0400000C0402000C0404000C0406000C0
310
408000C040A000C040C000C040E000C0600000C0602000C0604000C0606000C0608000C060A000C060C000C060E000C0800000C0802000C0804000C0806000C0808000C080A000C080C000C080E000C0A00000C0A02000C0A04000C0A06000C0A08000C0A0A000C0A0C000C0A0E000C0C00000C0C02000C0C04000C0C06000
310
C0C08000C0C0A000F0FBFF00A4A0A000808080000000FF0000FF000000FFFF00FF000000FF00FF00FFFF0000FFFFFF000000000000000000000000000000000000000000000000000000000000000000000000000000000000FBFBFBFEFBFEFBFBFEFBFEFBFBFB0000000000000000000000000000000000FBFBFBFBFEFBFE
310
FBFBFEFBFEFBFBFBFB00000000000000000000000000000000FB000000FE00FE0000FE00FE000000FB00000000000000000000000000000000FB000000FE00FE0000FE00FE000000FB00000000000000000000000000000000FB000000FE00FE0000FE00FE000000FB00000000000000000000000000000000FB000000FEFE
310
FEFEFEFEFEFE000000FB00000000000000000000000000000000FB00000000FEFE0000FEFE00000000FB00000000000000000000000000000000FB000000000000FEFE000000000000FB00000000000000000000000000000000FBFBFBFEFBFBFBFBFBFBFBFBFEFBFBFB00000000000000000000000000000000000000FBFE
310
00000000000000FE00000000000000000000000000000000000000000000FBFEFBFBFBFBFBFBFBFB00000000000000000000000000000000000000000000FBFE000000000000FEFB00000000000000000000000000000000000000000000FBFE000000000000FEFB00000000000000000000000000000000000000000000FB
310
FE000000000000FEFB00000000000000000000000000000000000000000000FBFE000000000000FEFB00000000000000000000000000000000000000000000FBFE000000000000FEFB00000000000000000000000000000000000000000000FBFE000000000000FEFB00000000000000000000000000000000000000000000
310
FBFE000000000000FEFB00000000000000000000000000000000000000000000FBFE000000000000FEFB00000000000000000000000000000000000000000000FBFE000000000000FEFB00000000000000000000000000000000000000000000FBFE000000000000FEFB000000000000000000000000000000000000000000
310
00FBFE000000000000FEFB00000000000000000000000000000000000000000000FBFE000000000000FEFB00000000000000000000000000000000000000000000FBFE000000000000FEFB00000000000000000000000000000000000000000000FBFE000000000000FEFB0000000000000000000000000000000000000000
310
0000FBFE000000000000FEFB00000000000000000000000000000000000000000000FBFE000000000000FEFB00000000000000000000000000000000000000000000FBFEFBFBFBFBFBFBFEFB0000000000000000000000000000000000000000000000FE000000000000FE0000000000000000000000000000000000000000
310
0000000000FBFBFBFBFBFB000000000000000000000000000000000000000000000000000000000000000000000000000000000000000000
102
{BLKREFS
331
9B48
102
}
  0
BLOCK_RECORD
  5
9C16
330
1
100
AcDbSymbolTableRecord
100
AcDbBlockTableRecord
  2
*D5
340
0
  0
BLOCK_RECORD
  5
9C2C
330
1
100
AcDbSymbolTableRecord
100
AcDbBlockTableRecord
  2
*D6
340
0
  0
BLOCK_RECORD
  5
9C39
330
1
100
AcDbSymbolTableRecord
100
AcDbBlockTableRecord
  2
*D7
340
0
  0
BLOCK_RECORD
  5
9C48
330
1
100
AcDbSymbolTableRecord
100
AcDbBlockTableRecord
  2
*D8
340
0
  0
BLOCK_RECORD
  5
9C55
330
1
100
AcDbSymbolTableRecord
100
AcDbBlockTableRecord
  2
*D9
340
0
  0
BLOCK_RECORD
  5
9C62
330
1
100
AcDbSymbolTableRecord
100
AcDbBlockTableRecord
  2
*D10
340
0
  0
BLOCK_RECORD
  5
9C6F
330
1
100
AcDbSymbolTableRecord
100
AcDbBlockTableRecord
  2
*D11
340
0
  0
BLOCK_RECORD
  5
9CA4
330
1
100
AcDbSymbolTableRecord
100
AcDbBlockTableRecord
  2
*D12
340
0
  0
BLOCK_RECORD
  5
A0E5
330
1
100
AcDbSymbolTableRecord
100
AcDbBlockTableRecord
  2
*D13
340
0
  0
ENDTAB
  0
ENDSEC
  0
SECTION
  2
BLOCKS
  0
BLOCK
  5
19
330
18
100
AcDbEntity
  8
0
100
AcDbBlockBegin
  2
*MODEL_SPACE
 70
     0
 10
0.0
 20
0.0
 30
0.0
  3
*MODEL_SPACE
  1

  0
ENDBLK
  5
1A
330
18
100
AcDbEntity
  8
0
100
AcDbBlockEnd
  0
BLOCK
  5
16
330
15
100
AcDbEntity
 67
     1
  8
0
100
AcDbBlockBegin
  2
*PAPER_SPACE
 70
     0
 10
0.0
 20
0.0
 30
0.0
  3
*PAPER_SPACE
  1

  0
ENDBLK
  5
17
330
15
100
AcDbEntity
 67
     1
  8
0
100
AcDbBlockEnd
  0
BLOCK
  5
63A1
330
639D
100
AcDbEntity
  8
0
100
AcDbBlockBegin
  2
A$C255C26A2
 70
     0
 10
0.0
 20
0.0
 30
0.0
  3
A$C255C26A2
  1

  0
LWPOLYLINE
  5
639E
330
639D
100
AcDbEntity
  8
0
100
AcDbPolyline
 90
        3
 70
     1
 43
0.0
 10
7.014806023851633
 20
0.0000006939811783
 10
5.611844869720698
 20
2.430000693981241
 10
8.417767177982568
 20
2.430000693981241
  0
LWPOLYLINE
  5
639F
330
639D
100
AcDbEntity
  8
0
100
AcDbPolyline
 90
        3
 70
     1
 43
0.0
 10
4.20888371558999
 20
0.0000006939811783
 10
2.805922561459283
 20
2.430000693981241
 10
5.611844869720698
 20
2.430000693981241
  0
LWPOLYLINE
  5
63A0
330
639D
100
AcDbEntity
  8
0
100
AcDbPolyline
 90
        3
 70
     1
 43
0.0
 10
1.402961407328348
 20
0.0000006939811783
 10
0.0000002531974133
 20
2.430000693981241
 10
2.805922561459283
 20
2.430000693981241
  0
ENDBLK
  5
63A2
330
639D
100
AcDbEntity
  8
0
100
AcDbBlockEnd
  0
BLOCK
  5
7C05
330
7C04
100
AcDbEntity
  8
0
100
AcDbBlockBegin
  2
_Open30
 70
     0
 10
0.0
 20
0.0
 30
0.0
  3
_Open30
  1

  0
LINE
  5
7C06
330
7C04
100
AcDbEntity
  8
0
  6
ByBlock
 62
     0
370
    -2
100
AcDbLine
 10
-1.0
 20
0.26794919
 30
0.0
 11
0.0
 21
0.0
 31
0.0
  0
LINE
  5
7C07
330
7C04
100
AcDbEntity
  8
0
  6
ByBlock
 62
     0
370
    -2
100
AcDbLine
 10
0.0
 20
0.0
 30
0.0
 11
-1.0
 21
-0.26794919
 31
0.0
  0
LINE
  5
7C08
330
7C04
100
AcDbEntity
  8
0
  6
ByBlock
 62
     0
370
    -2
100
AcDbLine
 10
0.0
 20
0.0
 30
0.0
 11
-1.0
 21
0.0
 31
0.0
  0
ENDBLK
  5
7C09
330
7C04
100
AcDbEntity
  8
0
100
AcDbBlockEnd
  0
BLOCK
  5
7C0E
330
7C0A
100
AcDbEntity
  8
0
100
AcDbBlockBegin
  2
A
 70
     0
 10
0.0
 20
0.0
 30
0.0
  3
A
  1

  0
MTEXT
  5
7C0F
330
7C0A
100
AcDbEntity
  8
mark
 62
     3
100
AcDbMText
 10
10.65641897020822
 20
-5.596245361730467
 30
0.0
 40
2.5
 41
0.0
 71
     5
 72
     1
  1
A
 73
     1
 44
1.0
1001
ACAD
1000
ACAD_MTEXT_DEFINED_HEIGHT_BEGIN
1070
    46
1040
0.0
1000
ACAD_MTEXT_DEFINED_HEIGHT_END
  0
LWPOLYLINE
  5
7C10
330
7C0A
100
AcDbEntity
  8
mark
100
AcDbPolyline
 90
        4
 70
     1
 43
0.0
 10
9.07926800414657
 20
-7.141145101782569
 10
12.07926800414657
 20
-7.141145101782569
 10
12.07926800414657
 20
-4.141145101782569
 10
9.07926800414657
 20
-4.141145101782569
  0
HATCH
  5
7C11
330
7C0A
100
AcDbEntity
  8
mark
100
AcDbHatch
 10
0.0
 20
0.0
 30
0.0
210
0.0
220
0.0
230
1.0
  2
SOLID
 70
     1
 71
     0
 91
        1
 92
        7
 72
     0
 73
     1
 93
        3
 10
5.32926800414657
 20
-5.641145101782569
 10
4.07926800414657
 20
-4.391145101782541
 10
4.07926800414657
 20
-6.891145101782541
 97
        0
 75
     0
 76
     1
 47
0.0398277943677868
 98
        1
 10
4.589689734415287
 20
-5.732163331855076
450
        0
451
        0
460
0.0
461
0.0
452
        1
462
1.0
453
        2
463
0.0
 63
     5
421
      255
463
1.0
 63
     7
421
 16777215
470
LINEAR
1001
ACAD
1010
0.0
1020
0.0
1030
0.0
  0
LINE
  5
7C12
330
7C0A
100
AcDbEntity
  8
mark
100
AcDbLine
 10
5.32926800414657
 20
-5.641145101782569
 30
0.0
 11
9.07926800414657
 21
-5.641145101782569
 31
0.0
  0
LINE
  5
7C13
330
7C0A
100
AcDbEntity
  8
mark
100
AcDbLine
 10
5.32926800414657
 20
-5.641145101782569
 30
0.0
 11
4.07926800414657
 21
-4.391145101782569
 31
0.0
  0
LINE
  5
7C14
330
7C0A
100
AcDbEntity
  8
mark
100
AcDbLine
 10
5.32926800414657
 20
-5.641145101782569
 30
0.0
 11
4.07926800414657
 21
-6.891145101782569
 31
0.0
  0
ENDBLK
  5
7C15
330
7C0A
100
AcDbEntity
  8
0
100
AcDbBlockEnd
  0
BLOCK
  5
8E76
330
8E72
100
AcDbEntity
  8
0
100
AcDbBlockBegin
  2
LS
 70
     0
 10
0.0
 20
0.0
 30
0.0
  3
LS
  1

  0
LINE
  5
8E78
330
8E72
100
AcDbEntity
  8
contour
100
AcDbLine
 10
310.7457309951603
 20
181.0160360664828
 30
0.0
 11
310.7457309951603
 21
184.7160360664827
 31
0.0
  0
LINE
  5
8E79
330
8E72
100
AcDbEntity
  8
contour
100
AcDbLine
 10
310.7457309951603
 20
184.7160360664827
 30
0.0
 11
303.7457309951603
 21
184.7160360664827
 31
0.0
  0
LINE
  5
8E7A
330
8E72
100
AcDbEntity
  8
contour
100
AcDbLine
 10
308.4457309951603
 20
196.7160360664827
 30
0.0
 11
306.0457309951603
 21
196.7160360664826
 31
0.0
  0
LINE
  5
8E7B
330
8E72
100
AcDbEntity
  8
contour
100
AcDbLine
 10
309.2457309951603
 20
195.9160360664826
 30
0.0
 11
308.4457309951603
 21
196.7160360664826
 31
0.0
  0
LINE
  5
8E7C
330
8E72
100
AcDbEntity
  8
contour
100
AcDbLine
 10
303.7457309951603
 20
184.7160360664827
 30
0.0
 11
303.7457309951603
 21
181.0160360664827
 31
0.0
  0
LINE
  5
8E7D
330
8E72
100
AcDbEntity
  8
contour
100
AcDbLine
 10
304.0457309951603
 20
180.7160360664827
 30
0.0
 11
310.4457309951603
 21
180.7160360664828
 31
0.0
  0
LINE
  5
8E7E
330
8E72
100
AcDbEntity
  8
contour
100
AcDbLine
 10
310.7457309951603
 20
181.0160360664828
 30
0.0
 11
310.4457309951603
 21
180.7160360664828
 31
0.0
  0
LINE
  5
8E7F
330
8E72
100
AcDbEntity
  8
contour
100
AcDbLine
 10
303.7457309951603
 20
181.0160360664827
 30
0.0
 11
304.0457309951603
 21
180.7160360664827
 31
0.0
  0
LINE
  5
8E80
330
8E72
100
AcDbEntity
  8
contour
100
AcDbLine
 10
309.2457309951603
 20
184.7160360664826
 30
0.0
 11
309.2457309951603
 21
195.9160360664827
 31
0.0
  0
LINE
  5
8E81
330
8E72
100
AcDbEntity
  8
contour
100
AcDbLine
 10
305.2457309951603
 20
184.7160360664826
 30
0.0
 11
305.2457309951603
 21
195.9160360664827
 31
0.0
  0
LINE
  5
8E82
330
8E72
100
AcDbEntity
  8
contour
100
AcDbLine
 10
306.0457309951603
 20
196.7160360664826
 30
0.0
 11
305.2457309951603
 21
195.9160360664826
 31
0.0
  0
LINE
  5
8E83
330
8E72
100
AcDbEntity
  8
contour
100
AcDbLine
 10
309.2457309951603
 20
195.9160360664827
 30
0.0
 11
305.2457309951603
 21
195.9160360664827
 31
0.0
  0
LINE
  5
8E84
330
8E72
100
AcDbEntity
  8
contour
 62
     4
100
AcDbLine
 10
308.8667309951603
 20
185.3724833225513
 30
0.0
 11
308.8667309951603
 21
196.2950360664826
 31
0.0
  0
LINE
  5
8E85
330
8E72
100
AcDbEntity
  8
contour
 62
     4
100
AcDbLine
 10
305.6247309951603
 20
185.3724833225513
 30
0.0
 11
305.6247309951603
 21
196.2950360664826
 31
0.0
  0
LINE
  5
8E86
330
8E72
100
AcDbEntity
  8
contour
100
AcDbLine
 10
310.7457309951603
 20
181.0160360664828
 30
0.0
 11
303.7457309951603
 21
181.0160360664828
 31
0.0
  0
LINE
  5
8E87
330
8E72
100
AcDbEntity
  8
bowle
 48
0.1
100
AcDbLine
 10
308.1117563989447
 20
180.7160360664827
 30
0.0
 11
308.1117563989447
 21
182.9160360664827
 31
0.0
  0
LINE
  5
8E88
330
8E72
100
AcDbEntity
  8
bowle
 48
0.1
100
AcDbLine
 10
308.9777818027293
 20
180.7160360664827
 30
0.0
 11
308.9777818027293
 21
182.9160360664827
 31
0.0
  0
LINE
  5
8E89
330
8E72
100
AcDbEntity
  8
bowle
 48
0.1
100
AcDbLine
 10
306.3797055913759
 20
180.7160360664827
 30
0.0
 11
306.3797055913759
 21
182.9160360664826
 31
0.0
  0
LINE
  5
8E8A
330
8E72
100
AcDbEntity
  8
bowle
 48
0.1
100
AcDbLine
 10
305.5136801875914
 20
180.7160360664827
 30
0.0
 11
305.5136801875914
 21
182.9160360664826
 31
0.0
  0
LINE
  5
8E8B
330
8E72
100
AcDbEntity
  8
bowle
 48
0.1
100
AcDbLine
 10
308.9777818027292
 20
182.9160360664827
 30
0.0
 11
305.5136801875914
 21
182.9160360664827
 31
0.0
  0
LINE
  5
8E8C
330
8E72
100
AcDbEntity
  8
bowle
 48
0.1
100
AcDbLine
 10
305.5136801875914
 20
182.9160360664826
 30
0.0
 11
307.2457309951603
 21
183.9160360664826
 31
0.0
  0
LINE
  5
8E8D
330
8E72
100
AcDbEntity
  8
bowle
 48
0.1
100
AcDbLine
 10
308.9777818027292
 20
182.9160360664826
 30
0.0
 11
307.2457309951603
 21
183.9160360664826
 31
0.0
  0
LINE
  5
8E8E
330
8E72
100
AcDbEntity
  8
contour
 62
     4
100
AcDbLine
 10
305.6247309951603
 20
185.3724833225513
 30
0.0
 11
305.2457309951603
 21
184.7160360664826
 31
0.0
  0
LINE
  5
8E8F
330
8E72
100
AcDbEntity
  8
contour
100
AcDbLine
 10
305.2457309951603
 20
185.3724833225513
 30
0.0
 11
309.2457309951603
 21
185.3724833225513
 31
0.0
  0
LINE
  5
8E90
330
8E72
100
AcDbEntity
  8
contour
 62
     4
100
AcDbLine
 10
309.2457309951603
 20
184.7160360664827
 30
0.0
 11
308.8667309951603
 21
185.3724833225513
 31
0.0
  0
ENDBLK
  5
8E77
330
8E72
100
AcDbEntity
  8
0
100
AcDbBlockEnd
  0
BLOCK
  5
9B2D
330
9B29
100
AcDbEntity
  8
0
100
AcDbBlockBegin
  2
lss
 70
     0
 10
0.0
 20
0.0
 30
0.0
  3
lss
  1

  0
LINE
  5
9B2F
330
9B29
100
AcDbEntity
  8
contour
100
AcDbLine
 10
123.114219209448
 20
44.71793401399771
 30
0.0
 11
123.114219209448
 21
48.41793401399764
 31
0.0
  0
LINE
  5
9B30
330
9B29
100
AcDbEntity
  8
contour
100
AcDbLine
 10
123.114219209448
 20
48.41793401399764
 30
0.0
 11
130.114219209448
 21
48.41793401399764
 31
0.0
  0
LINE
  5
9B31
330
9B29
100
AcDbEntity
  8
contour
100
AcDbLine
 10
125.4142192094481
 20
58.41793401399764
 30
0.0
 11
127.814219209448
 21
58.41793401399758
 31
0.0
  0
LINE
  5
9B32
330
9B29
100
AcDbEntity
  8
contour
100
AcDbLine
 10
124.614219209448
 20
57.61793401399756
 30
0.0
 11
125.414219209448
 21
58.41793401399758
 31
0.0
  0
LINE
  5
9B33
330
9B29
100
AcDbEntity
  8
contour
100
AcDbLine
 10
130.114219209448
 20
48.41793401399764
 30
0.0
 11
130.114219209448
 21
44.71793401399759
 31
0.0
  0
LINE
  5
9B34
330
9B29
100
AcDbEntity
  8
contour
100
AcDbLine
 10
129.814219209448
 20
44.41793401399758
 30
0.0
 11
123.414219209448
 21
44.41793401399769
 31
0.0
  0
LINE
  5
9B35
330
9B29
100
AcDbEntity
  8
contour
100
AcDbLine
 10
123.114219209448
 20
44.71793401399771
 30
0.0
 11
123.414219209448
 21
44.41793401399769
 31
0.0
  0
LINE
  5
9B36
330
9B29
100
AcDbEntity
  8
contour
100
AcDbLine
 10
130.114219209448
 20
44.71793401399759
 30
0.0
 11
129.814219209448
 21
44.41793401399758
 31
0.0
  0
LINE
  5
9B37
330
9B29
100
AcDbEntity
  8
contour
100
AcDbLine
 10
124.614219209448
 20
48.41793401399758
 30
0.0
 11
124.614219209448
 21
57.61793401399756
 31
0.0
  0
LINE
  5
9B38
330
9B29
100
AcDbEntity
  8
contour
100
AcDbLine
 10
128.614219209448
 20
48.41793401399758
 30
0.0
 11
128.614219209448
 21
57.6179340139976
 31
0.0
  0
LINE
  5
9B39
330
9B29
100
AcDbEntity
  8
contour
100
AcDbLine
 10
127.814219209448
 20
58.41793401399758
 30
0.0
 11
128.614219209448
 21
57.61793401399756
 31
0.0
  0
LINE
  5
9B3A
330
9B29
100
AcDbEntity
  8
contour
100
AcDbLine
 10
124.614219209448
 20
57.61793401399763
 30
0.0
 11
128.614219209448
 21
57.61793401399763
 31
0.0
  0
LINE
  5
9B3B
330
9B29
100
AcDbEntity
  8
contour
 62
     4
100
AcDbLine
 10
124.993219209448
 20
49.07438127006617
 30
0.0
 11
124.9932192094479
 21
57.99693401399752
 31
0.0
  0
LINE
  5
9B3C
330
9B29
100
AcDbEntity
  8
contour
 62
     4
100
AcDbLine
 10
128.235219209448
 20
49.07438127006617
 30
0.0
 11
128.235219209448
 21
57.9969340139976
 31
0.0
  0
LINE
  5
9B3D
330
9B29
100
AcDbEntity
  8
contour
100
AcDbLine
 10
123.114219209448
 20
44.71793401399771
 30
0.0
 11
130.114219209448
 21
44.71793401399776
 31
0.0
  0
LINE
  5
9B3E
330
9B29
100
AcDbEntity
  8
bowle
 48
0.1
100
AcDbLine
 10
125.7481938056636
 20
44.41793401399763
 30
0.0
 11
125.7481938056636
 21
46.61793401399762
 31
0.0
  0
LINE
  5
9B3F
330
9B29
100
AcDbEntity
  8
bowle
 48
0.1
100
AcDbLine
 10
124.8821684018791
 20
44.41793401399758
 30
0.0
 11
124.8821684018791
 21
46.61793401399762
 31
0.0
  0
LINE
  5
9B40
330
9B29
100
AcDbEntity
  8
bowle
 48
0.1
100
AcDbLine
 10
127.4802446132324
 20
44.41793401399763
 30
0.0
 11
127.4802446132324
 21
46.61793401399757
 31
0.0
  0
LINE
  5
9B41
330
9B29
100
AcDbEntity
  8
bowle
 48
0.1
100
AcDbLine
 10
128.3462700170169
 20
44.41793401399758
 30
0.0
 11
128.346270017017
 21
46.61793401399757
 31
0.0
  0
LINE
  5
9B42
330
9B29
100
AcDbEntity
  8
bowle
 48
0.1
100
AcDbLine
 10
124.8821684018791
 20
46.61793401399762
 30
0.0
 11
128.346270017017
 21
46.61793401399762
 31
0.0
  0
LINE
  5
9B43
330
9B29
100
AcDbEntity
  8
bowle
 48
0.1
100
AcDbLine
 10
128.346270017017
 20
46.61793401399757
 30
0.0
 11
126.6142192094481
 21
47.61793401399756
 31
0.0
  0
LINE
  5
9B44
330
9B29
100
AcDbEntity
  8
bowle
 48
0.1
100
AcDbLine
 10
124.8821684018791
 20
46.61793401399757
 30
0.0
 11
126.6142192094481
 21
47.61793401399756
 31
0.0
  0
LINE
  5
9B45
330
9B29
100
AcDbEntity
  8
contour
 62
     4
100
AcDbLine
 10
128.235219209448
 20
49.07438127006622
 30
0.0
 11
128.614219209448
 21
48.41793401399758
 31
0.0
  0
LINE
  5
9B46
330
9B29
100
AcDbEntity
  8
contour
100
AcDbLine
 10
128.614219209448
 20
49.07438127006617
 30
0.0
 11
124.614219209448
 21
49.07438127006617
 31
0.0
  0
LINE
  5
9B47
330
9B29
100
AcDbEntity
  8
contour
 62
     4
100
AcDbLine
 10
124.614219209448
 20
48.41793401399764
 30
0.0
 11
124.993219209448
 21
49.07438127006617
 31
0.0
  0
ENDBLK
  5
9B2E
330
9B29
100
AcDbEntity
  8
0
100
AcDbBlockEnd
  0
BLOCK
  5
9C20
330
9C16
100
AcDbEntity
  8
0
100
AcDbBlockBegin
  2
*D5
 70
     1
 10
0.0
 20
0.0
 30
0.0
  3
*D5
  1

  0
LINE
  5
A037
330
9C16
100
AcDbEntity
  8
mark
370
    -2
100
AcDbLine
 10
40.49999999999997
 20
53.77497404055539
 30
0.0
 11
40.49999999999997
 21
45.76992988766134
 31
0.0
  0
LINE
  5
A038
330
9C16
100
AcDbEntity
  8
mark
370
    -2
100
AcDbLine
 10
54.5
 20
53.77497404055539
 30
0.0
 11
54.5
 21
45.76992988766134
 31
0.0
  0
LINE
  5
A039
330
9C16
100
AcDbEntity
  8
mark
370
    -2
100
AcDbLine
 10
41.74999999999997
 20
46.16992988766134
 30
0.0
 11
53.25
 21
46.16992988766134
 31
0.0
  0
INSERT
  5
A03A
330
9C16
100
AcDbEntity
  8
mark
370
    -2
100
AcDbBlockReference
  2
_Open30
 10
40.49999999999997
 20
46.16992988766134
 30
0.0
 41
1.25
 42
1.25
 43
1.25
 50
180.0
  0
INSERT
  5
A03B
330
9C16
100
AcDbEntity
  8
mark
370
    -2
100
AcDbBlockReference
  2
_Open30
 10
54.5
 20
46.16992988766134
 30
0.0
 41
1.25
 42
1.25
 43
1.25
  0
MTEXT
  5
A03C
330
9C16
100
AcDbEntity
  8
mark
 62
     3
100
AcDbMText
 10
47.49999999999999
 20
47.19492988766133
 30
0.0
 40
1.25
 41
0.0
 71
     5
 72
     1
  1
\A1;M14X1.5P
 73
     1
 44
1.0
  0
POINT
  5
A03D
330
9C16
100
AcDbEntity
  8
DEFPOINTS
 62
     0
100
AcDbPoint
 10
40.49999999999997
 20
54.17497404055538
 30
0.0
  0
POINT
  5
A03E
330
9C16
100
AcDbEntity
  8
DEFPOINTS
 62
     0
100
AcDbPoint
 10
54.5
 20
54.17497404055538
 30
0.0
  0
POINT
  5
A03F
330
9C16
100
AcDbEntity
  8
DEFPOINTS
 62
     0
100
AcDbPoint
 10
54.5
 20
46.16992988766134
 30
0.0
  0
ENDBLK
  5
9C21
330
9C16
100
AcDbEntity
  8
0
100
AcDbBlockEnd
  0
BLOCK
  5
9C36
330
9C2C
100
AcDbEntity
  8
0
100
AcDbBlockBegin
  2
*D6
 70
     1
 10
0.0
 20
0.0
 30
0.0
  3
*D6
  1

  0
LINE
  5
A040
330
9C2C
100
AcDbEntity
  8
mark
370
    -2
100
AcDbLine
 10
61.90000000000003
 20
69.48697404055542
 30
0.0
 11
68.26565325664458
 21
69.48697404055542
 31
0.0
  0
LINE
  5
A041
330
9C2C
100
AcDbEntity
  8
mark
370
    -2
100
AcDbLine
 10
61.90000000000003
 20
64.48697404055542
 30
0.0
 11
68.26565325664458
 21
64.48697404055542
 31
0.0
  0
LINE
  5
A042
330
9C2C
100
AcDbEntity
  8
mark
370
    -2
100
AcDbLine
 10
67.86565325664458
 20
68.23697404055542
 30
0.0
 11
67.86565325664458
 21
65.73697404055542
 31
0.0
  0
INSERT
  5
A043
330
9C2C
100
AcDbEntity
  8
mark
370
    -2
100
AcDbBlockReference
  2
_Open30
 10
67.86565325664458
 20
69.48697404055542
 30
0.0
 41
1.25
 42
1.25
 43
1.25
 50
90.0
  0
INSERT
  5
A044
330
9C2C
100
AcDbEntity
  8
mark
370
    -2
100
AcDbBlockReference
  2
_Open30
 10
67.86565325664458
 20
64.48697404055542
 30
0.0
 41
1.25
 42
1.25
 43
1.25
 50
270.0
  0
MTEXT
  5
A045
330
9C2C
100
AcDbEntity
  8
mark
 62
     3
100
AcDbMText
 10
66.84065325664455
 20
66.98697404055543
 30
0.0
 40
1.25
 41
0.0
 71
     5
 72
     1
  1
\A1;5
 11
0.0000000000000001
 21
1.0
 31
0.0
 73
     1
 44
1.0
  0
POINT
  5
A046
330
9C2C
100
AcDbEntity
  8
DEFPOINTS
 62
     0
100
AcDbPoint
 10
61.50000000000003
 20
69.48697404055542
 30
0.0
  0
POINT
  5
A047
330
9C2C
100
AcDbEntity
  8
DEFPOINTS
 62
     0
100
AcDbPoint
 10
61.50000000000003
 20
64.48697404055542
 30
0.0
  0
POINT
  5
A048
330
9C2C
100
AcDbEntity
  8
DEFPOINTS
 62
     0
100
AcDbPoint
 10
67.86565325664458
 20
64.48697404055542
 30
0.0
  0
ENDBLK
  5
9C37
330
9C2C
100
AcDbEntity
  8
0
100
AcDbBlockEnd
  0
BLOCK
  5
9C45
330
9C39
100
AcDbEntity
  8
0
100
AcDbBlockBegin
  2
*D7
 70
     1
 10
0.0
 20
0.0
 30
0.0
  3
*D7
  1

  0
LINE
  5
A049
330
9C39
100
AcDbEntity
  8
mark
370
    -2
100
AcDbLine
 10
61.90000000000003
 20
64.48697404055542
 30
0.0
 11
68.26565325664458
 21
64.48697404055542
 31
0.0
  0
LINE
  5
A04A
330
9C39
100
AcDbEntity
  8
mark
370
    -2
100
AcDbLine
 10
62.89999999999994
 20
62.48697404055542
 30
0.0
 11
68.26565325664458
 21
62.48697404055542
 31
0.0
  0
LINE
  5
A04B
330
9C39
100
AcDbEntity
  8
mark
370
    -2
100
AcDbLine
 10
67.86565325664458
 20
65.73697404055542
 30
0.0
 11
67.86565325664458
 21
66.98697404055542
 31
0.0
  0
LINE
  5
A04C
330
9C39
100
AcDbEntity
  8
mark
370
    -2
100
AcDbLine
 10
67.86565325664458
 20
61.23697404055542
 30
0.0
 11
67.86565325664458
 21
59.98697404055542
 31
0.0
  0
LINE
  5
A04D
330
9C39
100
AcDbEntity
  8
mark
370
    -2
100
AcDbLine
 10
67.86565325664458
 20
64.48697404055542
 30
0.0
 11
67.86565325664458
 21
62.48697404055542
 31
0.0
  0
INSERT
  5
A04E
330
9C39
100
AcDbEntity
  8
mark
370
    -2
100
AcDbBlockReference
  2
_Open30
 10
67.86565325664458
 20
64.48697404055542
 30
0.0
 41
1.25
 42
1.25
 43
1.25
 50
270.0
  0
INSERT
  5
A04F
330
9C39
100
AcDbEntity
  8
mark
370
    -2
100
AcDbBlockReference
  2
_Open30
 10
67.86565325664458
 20
62.48697404055542
 30
0.0
 41
1.25
 42
1.25
 43
1.25
 50
90.0
  0
MTEXT
  5
A050
330
9C39
100
AcDbEntity
  8
mark
 62
     3
100
AcDbMText
 10
66.84065325664455
 20
63.48697404055543
 30
0.0
 40
1.25
 41
0.0
 71
     5
 72
     1
  1
\A1;2
 11
0.0000000000000001
 21
1.0
 31
0.0
 73
     1
 44
1.0
  0
POINT
  5
A051
330
9C39
100
AcDbEntity
  8
DEFPOINTS
 62
     0
100
AcDbPoint
 10
61.50000000000003
 20
64.48697404055542
 30
0.0
  0
POINT
  5
A052
330
9C39
100
AcDbEntity
  8
DEFPOINTS
 62
     0
100
AcDbPoint
 10
62.49999999999994
 20
62.48697404055542
 30
0.0
  0
POINT
  5
A053
330
9C39
100
AcDbEntity
  8
DEFPOINTS
 62
     0
100
AcDbPoint
 10
67.86565325664458
 20
62.48697404055542
 30
0.0
  0
ENDBLK
  5
9C46
330
9C39
100
AcDbEntity
  8
0
100
AcDbBlockEnd
  0
BLOCK
  5
9C52
330
9C48
100
AcDbEntity
  8
0
100
AcDbBlockBegin
  2
*D8
 70
     1
 10
0.0
 20
0.0
 30
0.0
  3
*D8
  1

  0
LINE
  5
A054
330
9C48
100
AcDbEntity
  8
mark
370
    -2
100
AcDbLine
 10
61.90000000000003
 20
69.48697404055542
 30
0.0
 11
72.14298815417945
 21
69.48697404055542
 31
0.0
  0
LINE
  5
A055
330
9C48
100
AcDbEntity
  8
mark
370
    -2
100
AcDbLine
 10
62.96651901052379
 20
53.48918888269881
 30
0.0
 11
72.14298815417945
 21
53.48918888269881
 31
0.0
  0
LINE
  5
A056
330
9C48
100
AcDbEntity
  8
mark
370
    -2
100
AcDbLine
 10
71.74298815417945
 20
68.23697404055542
 30
0.0
 11
71.74298815417945
 21
54.73918888269881
 31
0.0
  0
INSERT
  5
A057
330
9C48
100
AcDbEntity
  8
mark
370
    -2
100
AcDbBlockReference
  2
_Open30
 10
71.74298815417945
 20
69.48697404055542
 30
0.0
 41
1.25
 42
1.25
 43
1.25
 50
90.0
  0
INSERT
  5
A058
330
9C48
100
AcDbEntity
  8
mark
370
    -2
100
AcDbBlockReference
  2
_Open30
 10
71.74298815417945
 20
53.48918888269881
 30
0.0
 41
1.25
 42
1.25
 43
1.25
 50
270.0
  0
MTEXT
  5
A059
330
9C48
100
AcDbEntity
  8
mark
 62
     3
100
AcDbMText
 10
70.71798815417942
 20
61.48808146162712
 30
0.0
 40
1.25
 41
0.0
 71
     5
 72
     1
  1
\A1;16%%p0.2
 11
0.0000000000000001
 21
1.0
 31
0.0
 73
     1
 44
1.0
  0
POINT
  5
A05A
330
9C48
100
AcDbEntity
  8
DEFPOINTS
 62
     0
100
AcDbPoint
 10
61.50000000000003
 20
69.48697404055542
 30
0.0
  0
POINT
  5
A05B
330
9C48
100
AcDbEntity
  8
DEFPOINTS
 62
     0
100
AcDbPoint
 10
62.56651901052379
 20
53.48918888269881
 30
0.0
  0
POINT
  5
A05C
330
9C48
100
AcDbEntity
  8
DEFPOINTS
 62
     0
100
AcDbPoint
 10
71.74298815417945
 20
53.48918888269881
 30
0.0
  0
ENDBLK
  5
9C53
330
9C48
100
AcDbEntity
  8
0
100
AcDbBlockEnd
  0
BLOCK
  5
9C5F
330
9C55
100
AcDbEntity
  8
0
100
AcDbBlockBegin
  2
*D9
 70
     1
 10
0.0
 20
0.0
 30
0.0
  3
*D9
  1

  0
LINE
  5
A05D
330
9C55
100
AcDbEntity
  8
mark
370
    -2
100
AcDbLine
 10
32.5
 20
68.88697404055543
 30
0.0
 11
32.5
 21
75.87943862053084
 31
0.0
  0
LINE
  5
A05E
330
9C55
100
AcDbEntity
  8
mark
370
    -2
100
AcDbLine
 10
62.50000000000003
 20
68.88697404055543
 30
0.0
 11
62.50000000000003
 21
75.87943862053084
 31
0.0
  0
LINE
  5
A05F
330
9C55
100
AcDbEntity
  8
mark
370
    -2
100
AcDbLine
 10
33.75
 20
75.47943862053083
 30
0.0
 11
61.25000000000003
 21
75.47943862053083
 31
0.0
  0
INSERT
  5
A060
330
9C55
100
AcDbEntity
  8
mark
370
    -2
100
AcDbBlockReference
  2
_Open30
 10
32.5
 20
75.47943862053083
 30
0.0
 41
1.25
 42
1.25
 43
1.25
 50
180.0
  0
INSERT
  5
A061
330
9C55
100
AcDbEntity
  8
mark
370
    -2
100
AcDbBlockReference
  2
_Open30
 10
62.50000000000003
 20
75.47943862053083
 30
0.0
 41
1.25
 42
1.25
 43
1.25
  0
MTEXT
  5
A062
330
9C55
100
AcDbEntity
  8
mark
 62
     3
100
AcDbMText
 10
47.50000000000001
 20
76.50443862053084
 30
0.0
 40
1.25
 41
0.0
 71
     5
 72
     1
  1
\A1;%%C30
 73
     1
 44
1.0
  0
POINT
  5
A063
330
9C55
100
AcDbEntity
  8
DEFPOINTS
 62
     0
100
AcDbPoint
 10
32.5
 20
68.48697404055542
 30
0.0
  0
POINT
  5
A064
330
9C55
100
AcDbEntity
  8
DEFPOINTS
 62
     0
100
AcDbPoint
 10
62.50000000000003
 20
68.48697404055542
 30
0.0
  0
POINT
  5
A065
330
9C55
100
AcDbEntity
  8
DEFPOINTS
 62
     0
100
AcDbPoint
 10
62.50000000000003
 20
75.47943862053083
 30
0.0
  0
ENDBLK
  5
9C60
330
9C55
100
AcDbEntity
  8
0
100
AcDbBlockEnd
  0
BLOCK
  5
9C6C
330
9C62
100
AcDbEntity
  8
0
100
AcDbBlockBegin
  2
*D10
 70
     1
 10
0.0
 20
0.0
 30
0.0
  3
*D10
  1

  0
LINE
  5
A066
330
9C62
100
AcDbEntity
  8
mark
370
    -2
100
AcDbLine
 10
31.5
 20
54.08697404055542
 30
0.0
 11
31.5
 21
35.38236663786908
 31
0.0
  0
LINE
  5
A067
330
9C62
100
AcDbEntity
  8
mark
370
    -2
100
AcDbLine
 10
63.50000000000005
 20
54.08697404055581
 30
0.0
 11
63.50000000000005
 21
35.38236663786908
 31
0.0
  0
LINE
  5
A068
330
9C62
100
AcDbEntity
  8
mark
370
    -2
100
AcDbLine
 10
32.75
 20
35.78236663786908
 30
0.0
 11
62.25000000000005
 21
35.78236663786908
 31
0.0
  0
INSERT
  5
A069
330
9C62
100
AcDbEntity
  8
mark
370
    -2
100
AcDbBlockReference
  2
_Open30
 10
31.5
 20
35.78236663786908
 30
0.0
 41
1.25
 42
1.25
 43
1.25
 50
180.0
  0
INSERT
  5
A06A
330
9C62
100
AcDbEntity
  8
mark
370
    -2
100
AcDbBlockReference
  2
_Open30
 10
63.50000000000005
 20
35.78236663786908
 30
0.0
 41
1.25
 42
1.25
 43
1.25
  0
MTEXT
  5
A06B
330
9C62
100
AcDbEntity
  8
mark
 62
     3
100
AcDbMText
 10
47.50000000000002
 20
36.80736663786908
 30
0.0
 40
1.25
 41
0.0
 71
     5
 72
     1
  1
\A1;%%c32
 73
     1
 44
1.0
  0
POINT
  5
A06C
330
9C62
100
AcDbEntity
  8
DEFPOINTS
 62
     0
100
AcDbPoint
 10
31.5
 20
54.48697404055542
 30
0.0
  0
POINT
  5
A06D
330
9C62
100
AcDbEntity
  8
DEFPOINTS
 62
     0
100
AcDbPoint
 10
63.50000000000005
 20
54.48697404055581
 30
0.0
  0
POINT
  5
A06E
330
9C62
100
AcDbEntity
  8
DEFPOINTS
 62
     0
100
AcDbPoint
 10
63.50000000000005
 20
35.78236663786908
 30
0.0
  0
ENDBLK
  5
9C6D
330
9C62
100
AcDbEntity
  8
0
100
AcDbBlockEnd
  0
BLOCK
  5
9C7B
330
9C6F
100
AcDbEntity
  8
0
100
AcDbBlockBegin
  2
*D11
 70
     1
 10
0.0
 20
0.0
 30
0.0
  3
*D11
  1

  0
LINE
  5
A06F
330
9C6F
100
AcDbEntity
  8
mark
370
    -2
100
AcDbLine
 10
33.1
 20
69.48697404055542
 30
0.0
 11
28.79225124227092
 21
69.48697404055543
 31
0.0
  0
LINE
  5
A070
330
9C6F
100
AcDbEntity
  8
mark
370
    -2
100
AcDbLine
 10
31.09999999999998
 20
66.98697404055548
 30
0.0
 11
28.79225124227092
 21
66.98697404055548
 31
0.0
  0
LINE
  5
A071
330
9C6F
100
AcDbEntity
  8
mark
370
    -2
100
AcDbLine
 10
29.19225124227093
 20
70.73697404055543
 30
0.0
 11
29.19225124227093
 21
71.98697404055543
 31
0.0
  0
LINE
  5
A072
330
9C6F
100
AcDbEntity
  8
mark
370
    -2
100
AcDbLine
 10
29.19225124227093
 20
65.73697404055548
 30
0.0
 11
29.19225124227093
 21
64.48697404055548
 31
0.0
  0
LINE
  5
A073
330
9C6F
100
AcDbEntity
  8
mark
370
    -2
100
AcDbLine
 10
29.19225124227093
 20
69.48697404055543
 30
0.0
 11
29.19225124227093
 21
66.98697404055548
 31
0.0
  0
INSERT
  5
A074
330
9C6F
100
AcDbEntity
  8
mark
370
    -2
100
AcDbBlockReference
  2
_Open30
 10
29.19225124227093
 20
69.48697404055543
 30
0.0
 41
1.25
 42
1.25
 43
1.25
 50
270.0
  0
INSERT
  5
A075
330
9C6F
100
AcDbEntity
  8
mark
370
    -2
100
AcDbBlockReference
  2
_Open30
 10
29.19225124227093
 20
66.98697404055548
 30
0.0
 41
1.25
 42
1.25
 43
1.25
 50
90.0
  0
MTEXT
  5
A076
330
9C6F
100
AcDbEntity
  8
mark
 62
     3
100
AcDbMText
 10
28.16725124227092
 20
68.23697404055545
 30
0.0
 40
1.25
 41
0.0
 71
     5
 72
     1
  1
\A1;2.5
 11
0.0000000000000001
 21
1.0
 31
0.0
 73
     1
 44
1.0
  0
POINT
  5
A077
330
9C6F
100
AcDbEntity
  8
DEFPOINTS
 62
     0
100
AcDbPoint
 10
33.5
 20
69.48697404055542
 30
0.0
  0
POINT
  5
A078
330
9C6F
100
AcDbEntity
  8
DEFPOINTS
 62
     0
100
AcDbPoint
 10
31.49999999999997
 20
66.98697404055548
 30
0.0
  0
POINT
  5
A079
330
9C6F
100
AcDbEntity
  8
DEFPOINTS
 62
     0
100
AcDbPoint
 10
29.19225124227093
 20
66.98697404055548
 30
0.0
  0
ENDBLK
  5
9C7C
330
9C6F
100
AcDbEntity
  8
0
100
AcDbBlockEnd
  0
BLOCK
  5
9CAB
330
9CA4
100
AcDbEntity
  8
0
100
AcDbBlockBegin
  2
*D12
 70
     1
 10
0.0
 20
0.0
 30
0.0
  3
*D12
  1

  0
LINE
  5
A07A
330
9CA4
100
AcDbEntity
  8
mark
370
    -2
100
AcDbLine
 10
28.28092953892016
 20
50.26790357947582
 30
0.0
 11
30.90900974233025
 21
52.89598378288573
 31
0.0
  0
MTEXT
  5
A07B
330
9CA4
100
AcDbEntity
  8
mark
 62
     3
100
AcDbMText
 10
28.42824345166741
 20
51.86478639365543
 30
0.0
 40
1.25
 41
0.0
 71
     5
 72
     1
  1
\A1;R1
 11
0.7071067811865712
 21
0.7071067811865239
 31
0.0
 73
     1
 44
1.0
  0
LINE
  5
A07C
330
9CA4
100
AcDbEntity
  8
mark
370
    -2
100
AcDbLine
 10
32.50000000000007
 20
54.48697404055545
 30
0.0
 11
31.79289321881346
 21
53.77986725936889
 31
0.0
  0
INSERT
  5
A07D
330
9CA4
100
AcDbEntity
  8
mark
370
    -2
100
AcDbBlockReference
  2
_Open30
 10
31.79289321881346
 20
53.77986725936889
 30
0.0
 41
1.25
 42
1.25
 43
1.25
 50
44.99999999999808
  0
POINT
  5
A07E
330
9CA4
100
AcDbEntity
  8
DEFPOINTS
 62
     0
100
AcDbPoint
 10
31.79289321881346
 20
53.77986725936889
 30
0.0
  0
POINT
  5
A07F
330
9CA4
100
AcDbEntity
  8
DEFPOINTS
 62
     0
100
AcDbPoint
 10
32.50000000000007
 20
54.48697404055545
 30
0.0
  0
ENDBLK
  5
9CAC
330
9CA4
100
AcDbEntity
  8
0
100
AcDbBlockEnd
  0
BLOCK
  5
A0EE
330
A0E5
100
AcDbEntity
  8
0
100
AcDbBlockBegin
  2
*D13
 70
     1
 10
0.0
 20
0.0
 30
0.0
  3
*D13
  1

  0
LINE
  5
A0FB
330
A0E5
100
AcDbEntity
  8
mark
370
    -2
100
AcDbLine
 10
20.99580802953095
 20
110.4390987767294
 30
0.0
 11
35.49744915346244
 21
106.2209334595656
 31
0.0
  0
LINE
  5
A0FC
330
A0E5
100
AcDbEntity
  8
mark
370
    -2
100
AcDbLine
 10
59.50255084653756
 20
99.23844875101652
 30
0.0
 11
60.70280593119132
 21
98.88932451558908
 31
0.0
  0
MTEXT
  5
A0FD
330
A0E5
100
AcDbEntity
  8
mark
 62
     3
100
AcDbMText
 10
26.26714935417673
 20
109.9732786216701
 30
0.0
 40
1.25
 41
0.0
 71
     5
 72
     1
  1
\A1;P.C.D 22.5
 11
0.9602040677230048
 21
-0.2792993883419639
 31
0.0
 73
     1
 44
1.0
  0
LINE
  5
A0FE
330
A0E5
100
AcDbEntity
  8
mark
370
    -2
100
AcDbLine
 10
58.30229576188381
 20
99.58757298644398
 30
0.0
 11
36.69770423811619
 21
105.8718092241381
 31
0.0
  0
INSERT
  5
A0FF
330
A0E5
100
AcDbEntity
  8
mark
370
    -2
100
AcDbBlockReference
  2
_Open30
 10
58.30229576188381
 20
99.58757298644398
 30
0.0
 41
1.25
 42
1.25
 43
1.25
 50
163.7816055242321
  0
INSERT
  5
A100
330
A0E5
100
AcDbEntity
  8
mark
370
    -2
100
AcDbBlockReference
  2
_Open30
 10
36.69770423811619
 20
105.8718092241381
 30
0.0
 41
1.25
 42
1.25
 43
1.25
 50
343.7816055242322
  0
POINT
  5
A101
330
A0E5
100
AcDbEntity
  8
DEFPOINTS
 62
     0
100
AcDbPoint
 10
36.69770423811619
 20
105.8718092241381
 30
0.0
  0
POINT
  5
A102
330
A0E5
100
AcDbEntity
  8
DEFPOINTS
 62
     0
100
AcDbPoint
 10
58.30229576188381
 20
99.58757298644398
 30
0.0
  0
ENDBLK
  5
A0EF
330
A0E5
100
AcDbEntity
  8
0
100
AcDbBlockEnd
  0
ENDSEC
  0
SECTION
  2
ENTITIES
  0
MTEXT
  5
C0
330
18
100
AcDbEntity
  8
0
100
AcDbMText
 10
41.26970765600413
 20
233.6950877649332
 30
0.0
 40
2.5
 41
0.0
 71
     1
 72
     5
  1

  7
ISOCP3
 73
     1
 44
1.0
  0
LWPOLYLINE
  5
7D6C
330
18
100
AcDbEntity
  8
frame
100
AcDbPolyline
 90
        4
 70
     1
 43
0.0
 10
95.0
 20
140.0
 10
0.0
 20
140.0
 10
0.0
 20
0.0
 10
95.0
 20
0.0
  0
MTEXT
  5
7D6D
330
18
100
AcDbEntity
  8
0
100
AcDbMText
 10
8.549751843445875
 20
9.53802950808307
 30
0.0
 40
2.25
 41
0.0
 71
     1
 72
     5
  1
{\Ftxt,bigfont|c128;林彦旭}
  7
JL
 73
     1
 44
1.0
1001
ACAD
1000
ACAD_MTEXT_DEFINED_HEIGHT_BEGIN
1070
    46
1040
0.0
1000
ACAD_MTEXT_DEFINED_HEIGHT_END
  0
MTEXT
  5
7D6E
330
18
100
AcDbEntity
  8
0
100
AcDbMText
 10
38.97647364614426
 20
14.46789489935338
 30
0.0
 40
2.25
 41
0.0
 71
     1
 72
     5
  1
{\Ftxt,bigfont|c128;2 : 1}
  7
JL
 73
     1
 44
1.0
1001
ACAD
1000
ACAD_MTEXT_DEFINED_HEIGHT_BEGIN
1070
    46
1040
0.0
1000
ACAD_MTEXT_DEFINED_HEIGHT_END
  0
MTEXT
  5
7D6F
330
18
100
AcDbEntity
  8
0
 48
2.0
370
    25
100
AcDbMText
 10
70.1097250232828
 20
1.745010827316946
 30
0.0
 40
2.25
 41
0.0
 71
     5
 72
     1
  1
{\Ftxt,bigfont|c128;N L 4 0 2 5 8}
 73
     1
 44
1.0
1001
ACAD
1000
ACAD_MTEXT_DEFINED_HEIGHT_BEGIN
1070
    46
1040
0.0
1000
ACAD_MTEXT_DEFINED_HEIGHT_END
  0
MTEXT
  5
7D70
330
18
100
AcDbEntity
  8
0
 48
2.0
100
AcDbMText
 10
85.46644998221655
 20
10.88218563911846
 30
0.0
 40
2.159090909090911
 41
0.0
 71
     5
 72
     1
  1
\P{\Ftxt,bigfont|c128;MKR14X1.5P}
 73
     1
 44
1.0
1001
ACAD
1000
ACAD_MTEXT_DEFINED_HEIGHT_BEGIN
1070
    46
1040
0.0
1000
ACAD_MTEXT_DEFINED_HEIGHT_END
  0
MTEXT
  5
7D71
330
18
100
AcDbEntity
  8
0
100
AcDbMText
 10
7.6880338568387
 20
14.18870179917354
 30
0.0
 40
2.25
 41
0.0
 71
     1
 72
     5
  1
{\Ftxt,bigfont|c128;06.07.06}
  7
JL
 73
     1
 44
1.0
1001
ACAD
1000
ACAD_MTEXT_DEFINED_HEIGHT_BEGIN
1070
    46
1040
0.0
1000
ACAD_MTEXT_DEFINED_HEIGHT_END
  0
LINE
  5
7D72
330
18
100
AcDbEntity
  8
0
 62
     7
 48
5.0
100
AcDbLine
 39
1.919191919191921
 10
23.96471206996267
 20
13.82856453508043
 30
0.0
 11
26.52290072143927
 21
14.46811169794961
 31
0.0
  0
MTEXT
  5
7D73
330
18
100
AcDbEntity
  8
0
100
AcDbMText
 10
7.456177741632075
 20
4.621097525024651
 30
0.0
 40
3.0
 41
0.0
 71
     1
 72
     5
  1
\Ftxt.shx,bigfont.shx|c128;日機株式会社
  7
LKK
 73
     1
 44
1.0
  0
LINE
  5
7D74
330
18
100
AcDbEntity
  8
frame
100
AcDbLine
 10
0.0
 20
6.0
 30
0.0
 11
95.0
 21
6.000000000000028
 31
0.0
  0
LINE
  5
7D75
330
18
100
AcDbEntity
  8
frame
100
AcDbLine
 10
0.0
 20
11.0
 30
0.0
 11
46.06060606060611
 21
11.0
 31
0.0
  0
LINE
  5
7D76
330
18
100
AcDbEntity
  8
frame
100
AcDbLine
 10
0.0
 20
16.0
 30
0.0
 11
95.0
 21
16.0
 31
0.0
  0
LINE
  5
7D77
330
18
100
AcDbEntity
  8
frame
100
AcDbLine
 10
6.095386662468996
 20
16.0
 30
0.0
 11
6.095386662468996
 21
6.0
 31
0.0
  0
LINE
  5
7D78
330
18
100
AcDbEntity
  8
frame
100
AcDbLine
 10
15.35353535353533
 20
16.0
 30
0.0
 11
15.35353535353539
 21
6.0
 31
0.0
  0
MTEXT
  5
7D79
330
18
100
AcDbEntity
  8
0
100
AcDbMText
 10
1.415137392110977
 20
14.54095044791415
 30
0.0
 40
2.25
 41
0.0
 71
     1
 72
     5
  1
\Ftxt.shx,bigfont.shx|c128;日 付
  7
JL
 73
     1
 44
1.0
  0
MTEXT
  5
7D7A
330
18
100
AcDbEntity
  8
0
100
AcDbMText
 10
1.485316538719445
 20
9.760819214633187
 30
0.0
 40
2.25
 41
0.0
 71
     1
 72
     5
  1
\Ftxt.shx,bigfont.shx|c128;製 図
  7
JL
 73
     1
 44
1.0
  0
LINE
  5
7D7B
330
18
100
AcDbEntity
  8
0
 62
     7
370
    25
100
AcDbLine
 10
26.52290072143927
 20
11.90992304647298
 30
0.0
 11
26.52290072143927
 21
14.46811169794961
 31
0.0
  0
MTEXT
  5
7D7C
330
18
100
AcDbEntity
  8
0
100
AcDbMText
 10
32.00374426245418
 20
14.56121351896189
 30
0.0
 40
2.25
 41
0.0
 71
     1
 72
     5
  1
\Ftxt.shx,bigfont.shx|c128;尺 度
  7
JL
 73
     1
 44
1.0
  0
LINE
  5
7D7D
330
18
100
AcDbEntity
  8
frame
100
AcDbLine
 10
30.70707070707073
 20
16.0
 30
0.0
 11
30.70707070707073
 21
6.0
 31
0.0
  0
LINE
  5
7D7E
330
18
100
AcDbEntity
  8
0
 62
     7
370
    25
100
AcDbLine
 10
19.8076555113131
 20
11.59444509166317
 30
0.0
 11
19.8076555113131
 21
14.68228996214836
 31
0.0
  0
CIRCLE
  5
7D7F
330
18
100
AcDbEntity
  8
0
 62
     7
100
AcDbCircle
 10
19.8076555113131
 20
13.18901737221125
 30
0.0
 40
1.279094325738339
  0
LINE
  5
7D80
330
18
100
AcDbEntity
  8
0
 62
     7
370
    25
100
AcDbLine
 10
23.59660993459988
 20
13.18901737221131
 30
0.0
 11
26.75256290812121
 21
13.18901737221131
 31
0.0
  0
LINE
  5
7D81
330
18
100
AcDbEntity
  8
0
 62
     7
100
AcDbLine
 10
23.96471206996267
 20
12.54947020934213
 30
0.0
 11
26.52290072143927
 21
11.90992304647298
 31
0.0
  0
LINE
  5
7D82
330
18
100
AcDbEntity
  8
frame
100
AcDbLine
 10
21.3711209799755
 20
11.0
 30
0.0
 11
21.3711209799755
 21
6.0
 31
0.0
  0
LINE
  5
7D83
330
18
100
AcDbEntity
  8
0
 62
     7
370
    25
100
AcDbLine
 10
18.20916114243306
 20
13.18901737221125
 30
0.0
 11
21.50162633809634
 21
13.18901737221131
 31
0.0
  0
CIRCLE
  5
7D84
330
18
100
AcDbEntity
  8
0
 62
     7
100
AcDbCircle
 10
19.8076555113131
 20
13.18901737221125
 30
0.0
 40
0.6395471628691697
  0
MTEXT
  5
7D85
330
18
100
AcDbEntity
  8
0
100
AcDbMText
 10
16.85092016231203
 20
9.705069078926328
 30
0.0
 40
2.25
 41
0.0
 71
     1
 72
     5
  1
\Ftxt.shx,bigfont.shx|c128;検 図
  7
JL
 73
     1
 44
1.0
  0
LINE
  5
7D86
330
18
100
AcDbEntity
  8
0
 62
     7
370
    25
100
AcDbLine
 10
23.96471206996267
 20
12.54947020934213
 30
0.0
 11
23.96471206996267
 21
13.82856453508043
 31
0.0
  0
MTEXT
  5
7D87
330
18
100
AcDbEntity
  8
0
100
AcDbMText
 10
32.14410124959915
 20
9.660292673744407
 30
0.0
 40
2.25
 41
0.0
 71
     1
 72
     5
  1
\Ftxt.shx,bigfont.shx|c128;承 認
  7
JL
 73
     1
 44
1.0
  0
MTEXT
  5
7D88
330
18
100
AcDbEntity
  8
0
100
AcDbMText
 10
46.85564357803349
 20
5.351341098095701
 30
0.0
 40
2.25
 41
0.0
 71
     1
 72
     5
  1
\Ftxt.shx,bigfont.shx|c128;図  面  番  号
  7
JL
 73
     1
 44
1.0
  0
MTEXT
  5
7D89
330
18
100
AcDbEntity
  8
0
 48
2.0
100
AcDbMText
 10
58.45190950106922
 20
10.9378736574792
 30
0.0
 40
2.25
 41
0.0
 71
     5
 72
     1
  1
\P\Ftxt.shx,bigfont.shx|c128;    精密ロックナット
 73
     1
 44
1.0
  0
MTEXT
  5
7D8A
330
18
100
AcDbEntity
  8
0
100
AcDbMText
 10
47.4041806515616
 20
14.51931228986637
 30
0.0
 40
2.25
 41
0.0
 71
     1
 72
     5
  1
\Ftxt.shx,bigfont.shx|c128;品  名
  7
JL
 73
     1
 44
1.0
  0
LINE
  5
7D8B
330
18
100
AcDbEntity
  8
frame
100
AcDbLine
 10
46.06060606060611
 20
16.0
 30
0.0
 11
46.06060606060611
 21
0.0916613789792393
 31
0.0
  0
LINE
  5
7D8C
330
18
100
AcDbEntity
  8
frame
100
AcDbLine
 10
36.70707070707073
 20
16.0
 30
0.0
 11
36.70707070707073
 21
6.0
 31
0.0
  0
LINE
  5
7D8D
330
18
100
AcDbEntity
  8
frame
100
AcDbLine
 10
73.51635463703281
 20
16.0
 30
0.0
 11
73.51635463703286
 21
6.0
 31
0.0
  0
MTEXT
  5
7D8E
330
18
100
AcDbEntity
  8
0
100
AcDbMText
 10
75.44797972338654
 20
14.52258891415195
 30
0.0
 40
2.25
 41
0.0
 71
     1
 72
     5
  1
\Ftxt.shx,bigfont.shx|c128;型  番
  7
JL
 73
     1
 44
1.0
  0
MTEXT
  5
7D8F
330
18
100
AcDbEntity
  8
0
100
AcDbMText
 10
82.90298074051628
 20
5.391490874857822
 30
0.0
 40
2.25
 41
0.0
 71
     1
 72
     5
  1
\Ftxt.shx,bigfont.shx|c128;変更
  7
JL
 73
     1
 44
1.0
  0
LINE
  5
7D90
330
18
100
AcDbEntity
  8
frame
100
AcDbLine
 10
82.04545454545462
 20
6.000000000000028
 30
0.0
 11
82.04545454545467
 21
0.0
 31
0.0
  0
LINE
  5
7D91
330
18
100
AcDbEntity
  8
frame
100
AcDbLine
 10
62.30789503931965
 20
21.56745674462246
 30
0.0
 11
92.30789503931964
 21
21.56745674462241
 31
0.0
  0
LINE
  5
7D92
330
18
100
AcDbEntity
  8
frame
100
AcDbLine
 10
62.30789503931965
 20
25.16745674462248
 30
0.0
 11
92.30789503931964
 21
25.16745674462248
 31
0.0
  0
LINE
  5
7D93
330
18
100
AcDbEntity
  8
frame
100
AcDbLine
 10
62.30789503931965
 20
28.76745674462245
 30
0.0
 11
92.30789503931964
 21
28.7674567446224
 31
0.0
  0
LINE
  5
7D94
330
18
100
AcDbEntity
  8
frame
100
AcDbLine
 10
62.30789503931965
 20
32.36745674462247
 30
0.0
 11
92.30789503931964
 21
32.36745674462242
 31
0.0
  0
LINE
  5
7D95
330
18
100
AcDbEntity
  8
frame
100
AcDbLine
 10
62.30789503931965
 20
17.96745674462244
 30
0.0
 11
92.30789503931964
 21
17.96745674462244
 31
0.0
  0
MTEXT
  5
7D96
330
18
100
AcDbEntity
  8
0
 62
     7
 48
2.0
100
AcDbMText
 10
77.25059502225531
 20
32.76404094991455
 30
0.0
 40
2.4
 41
0.0
 71
     5
 72
     1
  1
\P\Ftxt.shx,bigfont.shx|c128;諸　　　　元
 73
     1
 44
1.0
  0
LINE
  5
7D97
330
18
100
AcDbEntity
  8
frame
100
AcDbLine
 10
62.30789503931965
 20
32.36745674462242
 30
0.0
 11
62.30789503931965
 21
17.96745674462244
 31
0.0
  0
MTEXT
  5
7D98
330
18
100
AcDbEntity
  8
0
100
AcDbMText
 10
64.06911294615975
 20
28.00420216106204
 30
0.0
 40
2.2
 41
81.95814342112454
 71
     1
 72
     5
  1
\Ftxt.shx,bigfont.shx|c128;熱　処　理
  7
JL
 73
     1
 44
1.0
  0
LINE
  5
7D99
330
18
100
AcDbEntity
  8
frame
100
AcDbLine
 10
74.30789503931965
 20
28.7674567446224
 30
0.0
 11
74.30789503931965
 21
17.96745674462244
 31
0.0
  0
MTEXT
  5
7D9A
330
18
100
AcDbEntity
  8
0
100
AcDbMText
 10
63.92897576247015
 20
24.50308793743199
 30
0.0
 40
2.2
 41
81.80293144248363
 71
     1
 72
     5
  1
\Ftxt.shx,bigfont.shx|c128;表 面 処 理
  7
JL
 73
     1
 44
1.0
  0
MTEXT
  5
7D9B
330
18
100
AcDbEntity
  8
0
100
AcDbMText
 10
64.07400868668765
 20
20.85885151062803
 30
0.0
 40
2.2
 41
83.0859
 71
     1
 72
     5
  1
\Ftxt.shx,bigfont.shx|c128;等     　級
  7
JL
 73
     1
 44
1.0
  0
LINE
  5
7D9C
330
18
100
AcDbEntity
  8
frame
100
AcDbLine
 10
92.30789503931964
 20
32.36745674462242
 30
0.0
 11
92.30789503931964
 21
17.96745674462249
 31
0.0
  0
MTEXT
  5
7D9D
330
18
100
AcDbEntity
  8
0
100
AcDbMText
 10
76.68139669404093
 20
27.91672320735723
 30
0.0
 40
2.2
 41
145.9480028428943
 71
     1
 72
     5
  1
\Ftxt.shx,bigfont.shx|c128;調質　HRC30%%d%%p２%%d
  7
JL
 73
     1
 44
1.0
  0
MTEXT
  5
7D9E
330
18
100
AcDbEntity
  8
0
100
AcDbMText
 10
76.81171619475913
 20
20.8591567963536
 30
0.0
 40
2.2
 41
145.3916823984455
 71
     1
 72
     5
  1
\Ftxt.shx,bigfont.shx|c128;ＩＳＯ - ４Ｈ
  7
JL
 73
     1
 44
1.0
  0
MTEXT
  5
7D9F
330
18
100
AcDbEntity
  8
0
100
AcDbMText
 10
76.89894679382428
 20
24.32664146895457
 30
0.0
 40
2.2
 41
145.7274
 71
     1
 72
     5
  1
\Ftxt.shx,bigfont.shx|c128;黒  　    染
  7
JL
 73
     1
 44
1.0
  0
MTEXT
  5
7DA0
330
18
100
AcDbEntity
  8
0
100
AcDbMText
 10
28.81819530667213
 20
130.4500291639737
 30
0.0
 40
2.5
 41
0.0
 71
     1
 72
     5
  1
{\Ftxt,bigfont|c128;M4X0.7P-10L}
  7
JL
 73
     1
 44
1.0
1001
ACAD
1000
ACAD_MTEXT_DEFINED_HEIGHT_BEGIN
1070
    46
1040
0.0
1000
ACAD_MTEXT_DEFINED_HEIGHT_END
  0
LINE
  5
7DA2
330
18
100
AcDbEntity
  8
frame
100
AcDbLine
 10
0.0
 20
127.0
 30
0.0
 11
95.0
 21
127.0
 31
0.0
  0
LINE
  5
7DA3
330
18
100
AcDbEntity
  8
frame
100
AcDbLine
 10
0.0
 20
131.0
 30
0.0
 11
95.0
 21
131.0
 31
0.0
  0
LINE
  5
7DA4
330
18
100
AcDbEntity
  8
frame
 62
     9
100
AcDbLine
 10
0.0
 20
135.0
 30
0.0
 11
95.0
 21
135.0
 31
0.0
  0
MTEXT
  5
7DA5
330
18
100
AcDbEntity
  8
0
100
AcDbMText
 10
28.50782195301855
 20
138.712028002452
 30
0.0
 40
2.5
 41
0.0
 71
     1
 72
     5
  1
\Ftxt.shx,bigfont.shx|c128;図    番 / 規　　格
  7
JL
 73
     1
 44
1.0
  0
LINE
  5
7DA6
330
18
100
AcDbEntity
  8
frame
100
AcDbLine
 10
0.0
 20
127.0
 30
0.0
 11
95.0
 21
127.0
 31
0.0
  0
MTEXT
  5
7DA8
330
18
100
AcDbEntity
  8
0
100
AcDbMText
 10
10.56244024461716
 20
138.7318990693371
 30
0.0
 40
2.5
 41
0.0
 71
     1
 72
     5
  1
\Ftxt.shx,bigfont.shx|c128;品　          名
  7
JL
 73
     1
 44
1.0
  0
MTEXT
  5
7DA9
330
18
100
AcDbEntity
  8
0
100
AcDbMText
 10
9.051406935550659
 20
130.3953618644555
 30
0.0
 40
2.5
 41
0.0
 71
     1
 72
     5
  1
\Ftxt.shx,bigfont.shx|c128;セットスクリュ-
  7
JL
 73
     1
 44
1.0
  0
MTEXT
  5
7DAA
330
18
100
AcDbEntity
  8
0
100
AcDbMText
 10
8.957547404315789
 20
134.4180615141482
 30
0.0
 40
2.5
 41
0.0
 71
     1
 72
     5
  1
\Ftxt.shx,bigfont.shx|c128;ロックナット　  
  7
JL
 73
     1
 44
1.0
  0
LINE
  5
7DAC
330
18
100
AcDbEntity
  8
frame
 62
     9
100
AcDbLine
 10
7.196969696969688
 20
139.9999999999999
 30
0.0
 11
7.196969696969818
 21
127.0
 31
0.0
  0
LINE
  5
7DAD
330
18
100
AcDbEntity
  8
frame
 62
     9
100
AcDbLine
 10
7.196969696969688
 20
139.9999999999999
 30
0.0
 11
7.196969696969688
 21
127.5252525252525
 31
0.0
  0
MTEXT
  5
7DAE
330
18
100
AcDbEntity
  8
0
100
AcDbMText
 10
3.407504634006897
 20
134.364083721706
 30
0.0
 40
2.5
 41
0.0
 71
     1
 72
     5
  1
\Ftxt.shx,bigfont.shx|c128;1
  7
JL
 73
     1
 44
1.0
  0
MTEXT
  5
7DAF
330
18
100
AcDbEntity
  8
0
100
AcDbMText
 10
1.059914036490113
 20
138.7367391319745
 30
0.0
 40
2.5
 41
0.0
 71
     1
 72
     5
  1
\Ftxt.shx,bigfont.shx|c128;照   号
  7
JL
 73
     1
 44
1.0
  0
LINE
  5
7DB0
330
18
100
AcDbEntity
  8
frame
 62
     9
100
AcDbLine
 10
26.38888888888891
 20
139.9999999999999
 30
0.0
 11
26.38888888888892
 21
127.0
 31
0.0
  0
MTEXT
  5
7DB1
330
18
100
AcDbEntity
  8
0
100
AcDbMText
 10
72.78681871864256
 20
138.8390831947097
 30
0.0
 40
2.5
 41
0.0
 71
     1
 72
     5
  1
\Ftxt.shx,bigfont.shx|c128;備           考
  7
JL
 73
     1
 44
1.0
  0
LINE
  5
7DB2
330
18
100
AcDbEntity
  8
frame
 62
     9
100
AcDbLine
 10
45.58080808080808
 20
140.0
 30
0.0
 11
45.58080808080808
 21
127.0
 31
0.0
  0
MTEXT
  5
7DB4
330
18
100
AcDbEntity
  8
0
100
AcDbMText
 10
46.43670544589684
 20
134.4180615141482
 30
0.0
 40
2.5
 41
0.0
 71
     1
 72
     5
  1
\Ftxt.shx,bigfont.shx|c128;SCM-440
  7
JL
 73
     1
 44
1.0
  0
MTEXT
  5
7DB5
330
18
100
AcDbEntity
  8
0
100
AcDbMText
 10
46.43670544589684
 20
130.382501006292
 30
0.0
 40
2.5
 41
0.0
 71
     1
 72
     5
  1
\Ftxt.shx,bigfont.shx|c128;SCM435
  7
JL
 73
     1
 44
1.0
  0
MTEXT
  5
7DB6
330
18
100
AcDbEntity
  8
0
100
AcDbMText
 10
47.88399431552096
 20
138.7822749741459
 30
0.0
 40
2.5
 41
0.0
 71
     1
 72
     5
  1
\Ftxt.shx,bigfont.shx|c128;材　質
  7
JL
 73
     1
 44
1.0
  0
LINE
  5
7DB7
330
18
100
AcDbEntity
  8
frame
 62
     9
100
AcDbLine
 10
55.17676767676772
 20
140.0
 30
0.0
 11
55.17676767676773
 21
127.0
 31
0.0
  0
LINE
  5
7DB8
330
18
100
AcDbEntity
  8
frame
100
AcDbLine
 10
62.37373737373736
 20
140.0
 30
0.0
 11
62.37373737373741
 21
127.0
 31
0.0
  0
MTEXT
  5
7DBA
330
18
100
AcDbEntity
  8
0
100
AcDbMText
 10
58.58427231077456
 20
134.5206355839966
 30
0.0
 40
2.5
 41
0.0
 71
     1
 72
     5
  1
\Ftxt.shx,bigfont.shx|c128;1
  7
JL
 73
     1
 44
1.0
  0
MTEXT
  5
7DBB
330
18
100
AcDbEntity
  8
0
100
AcDbMText
 10
58.29695351334419
 20
130.2546145075339
 30
0.0
 40
2.5
 41
0.0
 71
     1
 72
     5
  1
{\Ftxt,bigfont|c128;3}
  7
JL
 73
     1
 44
1.0
1001
ACAD
1000
ACAD_MTEXT_DEFINED_HEIGHT_BEGIN
1070
    46
1040
0.0
1000
ACAD_MTEXT_DEFINED_HEIGHT_END
  0
MTEXT
  5
7DBC
330
18
100
AcDbEntity
  8
0
100
AcDbMText
 10
56.21119479596313
 20
138.7822749741459
 30
0.0
 40
2.5
 41
0.0
 71
     1
 72
     5
  1
\Ftxt.shx,bigfont.shx|c128;数   量
  7
JL
 73
     1
 44
1.0
  0
MTEXT
  5
7DBD
330
18
100
AcDbEntity
  8
0
100
AcDbMText
 10
3.202009849527996
 20
130.364083721706
 30
0.0
 40
2.5
 41
0.0
 71
     1
 72
     5
  1
{\Ftxt,bigfont|c128;2}
  7
JL
 73
     1
 44
1.0
1001
ACAD
1000
ACAD_MTEXT_DEFINED_HEIGHT_BEGIN
1070
    46
1040
0.0
1000
ACAD_MTEXT_DEFINED_HEIGHT_END
  0
TOLERANCE
  5
98A8
330
18
100
AcDbEntity
  8
mark
100
AcDbFcf
  3
STANDARD
 10
74.57364218644926
 20
72.31762807282525
 30
0.0
  1
{\Fgdt;h}%%v0.005%%v%%vA%%v%%v
  0
LINE
  5
9AC3
330
18
100
AcDbEntity
  8
contour
100
AcDbLine
 10
32.5
 20
53.48697404055542
 30
0.0
 11
62.50000000000003
 21
53.48697404055542
 31
0.0
  0
LINE
  5
9AC4
330
18
100
AcDbEntity
  8
contour
100
AcDbLine
 10
63.50000000000003
 20
54.48697404055542
 30
0.0
 11
63.49999999999994
 21
61.48697404055543
 31
0.0
  0
LINE
  5
9AC5
330
18
100
AcDbEntity
  8
contour
100
AcDbLine
 10
61.50000000000003
 20
69.48697404055542
 30
0.0
 11
33.5
 21
69.48697404055542
 31
0.0
  0
LINE
  5
9AC6
330
18
100
AcDbEntity
  8
contour
100
AcDbLine
 10
31.50000000000003
 20
61.48697404055543
 30
0.0
 11
31.5
 21
54.48697404055542
 31
0.0
  0
LINE
  5
9ACA
330
18
100
AcDbEntity
  8
contour
100
AcDbLine
 10
32.5
 20
68.48697404055542
 30
0.0
 11
32.5
 21
65.48697404055542
 31
0.0
  0
LINE
  5
9ACB
330
18
100
AcDbEntity
  8
contour
100
AcDbLine
 10
62.50000000000003
 20
68.48697404055542
 30
0.0
 11
62.50000000000003
 21
65.48697404055542
 31
0.0
  0
LINE
  5
9ACD
330
18
100
AcDbEntity
  8
contour
100
AcDbLine
 10
39.00000000000003
 20
64.48697404055542
 30
0.0
 11
39.0
 21
62.48697404055542
 31
0.0
  0
ARC
  5
9ACF
330
18
100
AcDbEntity
  8
contour
100
AcDbCircle
 10
32.5
 20
54.48697404055542
 30
0.0
 40
1.0
100
AcDbArc
 50
180.0000000000002
 51
270.0
  0
ARC
  5
9AD2
330
18
100
AcDbEntity
  8
contour
100
AcDbCircle
 10
33.5
 20
68.48697404055542
 30
0.0
 40
1.0
100
AcDbArc
 50
90.0
 51
180.0
  0
ARC
  5
9AD3
330
18
100
AcDbEntity
  8
contour
100
AcDbCircle
 10
61.50000000000003
 20
68.48697404055542
 30
0.0
 40
1.0
100
AcDbArc
 50
359.9999999999998
 51
90.0
  0
ARC
  5
9AD6
330
18
100
AcDbEntity
  8
contour
100
AcDbCircle
 10
62.50000000000003
 20
54.48697404055542
 30
0.0
 40
1.0
100
AcDbArc
 50
270.0
 51
0.0000000000002036
  0
LINE
  5
9AD8
330
18
100
AcDbEntity
  8
center
 48
0.1
100
AcDbLine
 10
47.5
 20
70.48697404055542
 30
0.0
 11
47.5
 21
52.48697404055542
 31
0.0
  0
LINE
  5
9AE1
330
18
100
AcDbEntity
  8
contour
100
AcDbLine
 10
55.99999999999997
 20
64.48697404055542
 30
0.0
 11
55.99999999999997
 21
62.48697404055542
 31
0.0
  0
LINE
  5
9AE3
330
18
100
AcDbEntity
  8
contour
100
AcDbLine
 10
62.49999999999994
 20
62.48697404055542
 30
0.0
 11
60.74999999999997
 21
62.48697404055542
 31
0.0
  0
LINE
  5
9AE4
330
18
100
AcDbEntity
  8
contour
100
AcDbLine
 10
61.50000000000003
 20
64.48697404055542
 30
0.0
 11
60.74999999999997
 21
64.48697404055542
 31
0.0
  0
ARC
  5
9AE5
330
18
100
AcDbEntity
  8
contour
100
AcDbCircle
 10
32.50000000000003
 20
61.48697404055543
 30
0.0
 40
1.0
100
AcDbArc
 50
90.0
 51
180.0
  0
ARC
  5
9AE6
330
18
100
AcDbEntity
  8
contour
100
AcDbCircle
 10
33.50000000000003
 20
65.48697404055542
 30
0.0
 40
1.0
100
AcDbArc
 50
180.0000000000004
 51
270.0
  0
ARC
  5
9AE7
330
18
100
AcDbEntity
  8
contour
100
AcDbCircle
 10
61.50000000000003
 20
65.48697404055542
 30
0.0
 40
1.0
100
AcDbArc
 50
270.0
 51
359.9999999999996
  0
ARC
  5
9AE8
330
18
100
AcDbEntity
  8
contour
100
AcDbCircle
 10
62.49999999999994
 20
61.48697404055543
 30
0.0
 40
1.0
100
AcDbArc
 50
0.0000000000006107
 51
90.0
  0
LINE
  5
9AF0
330
18
100
AcDbEntity
  8
contour
100
AcDbLine
 10
56.75
 20
60.88697404055543
 30
0.0
 11
33.75
 21
60.88697404055541
 31
0.0
  0
LINE
  5
9AF1
330
18
100
AcDbEntity
  8
contour
100
AcDbLine
 10
56.75
 20
59.78697404055542
 30
0.0
 11
33.75
 21
59.78697404055542
 31
0.0
  0
LINE
  5
9AF3
330
18
100
AcDbEntity
  8
contour
100
AcDbLine
 10
61.25
 20
59.78697404055542
 30
0.0
 11
61.25
 21
60.88697404055543
 31
0.0
  0
LINE
  5
9AF4
330
18
100
AcDbEntity
  8
contour
100
AcDbLine
 10
33.75
 20
59.78697404055542
 30
0.0
 11
33.75
 21
60.88697404055543
 31
0.0
  0
LINE
  5
9AF5
330
18
100
AcDbEntity
  8
contour
100
AcDbLine
 10
39.0
 20
64.48697404055542
 30
0.0
 11
33.50000000000003
 21
64.48697404055542
 31
0.0
  0
LINE
  5
9AF6
330
18
100
AcDbEntity
  8
contour
100
AcDbLine
 10
39.0
 20
62.48697404055542
 30
0.0
 11
32.50000000000003
 21
62.48697404055542
 31
0.0
  0
LINE
  5
9AF8
330
18
100
AcDbEntity
  8
contour
 62
     4
100
AcDbLine
 10
40.49999999999999
 20
68.7989740405554
 30
0.0
 11
40.49999999999999
 21
61.57497404055546
 31
0.0
  0
LINE
  5
9AF9
330
18
100
AcDbEntity
  8
contour
 62
     4
100
AcDbLine
 10
54.5
 20
68.79897404055544
 30
0.0
 11
54.5
 21
61.57497404055539
 31
0.0
  0
LINE
  5
9AFB
330
18
100
AcDbEntity
  8
contour
100
AcDbLine
 10
41.31200000000001
 20
67.98697404055539
 30
0.0
 11
41.31200000000001
 21
62.38697404055546
 31
0.0
  0
LINE
  5
9AFC
330
18
100
AcDbEntity
  8
contour
100
AcDbLine
 10
53.68799999999999
 20
67.98697404055542
 30
0.0
 11
53.68799999999999
 21
62.3869740405554
 31
0.0
  0
LINE
  5
9AFD
330
18
100
AcDbEntity
  8
contour
100
AcDbLine
 10
41.31200000000001
 20
67.98697404055542
 30
0.0
 11
39.81200000000001
 21
69.48697404055542
 31
0.0
  0
LINE
  5
9AFE
330
18
100
AcDbEntity
  8
contour
100
AcDbLine
 10
41.31199999999998
 20
62.38697404055542
 30
0.0
 11
39.81199999999999
 21
60.88697404055542
 31
0.0
  0
LINE
  5
9AFF
330
18
100
AcDbEntity
  8
contour
100
AcDbLine
 10
39.81199999999999
 20
59.78697404055542
 30
0.0
 11
41.31199999999998
 21
58.28697404055542
 31
0.0
  0
LINE
  5
9B00
330
18
100
AcDbEntity
  8
contour
100
AcDbLine
 10
41.31200000000001
 20
54.98697404055542
 30
0.0
 11
39.81200000000001
 21
53.48697404055542
 31
0.0
  0
LINE
  5
9B01
330
18
100
AcDbEntity
  8
contour
100
AcDbLine
 10
55.18799999999998
 20
69.48697404055542
 30
0.0
 11
53.68799999999999
 21
67.98697404055542
 31
0.0
  0
LINE
  5
9B02
330
18
100
AcDbEntity
  8
contour
100
AcDbLine
 10
53.68799999999999
 20
62.38697404055542
 30
0.0
 11
55.18799999999998
 21
60.88697404055542
 31
0.0
  0
LINE
  5
9B03
330
18
100
AcDbEntity
  8
contour
100
AcDbLine
 10
55.18799999999998
 20
59.78697404055542
 30
0.0
 11
53.68799999999999
 21
58.28697404055542
 31
0.0
  0
LINE
  5
9B04
330
18
100
AcDbEntity
  8
contour
100
AcDbLine
 10
53.68799999999999
 20
54.98697404055542
 30
0.0
 11
55.18799999999998
 21
53.48697404055542
 31
0.0
  0
LINE
  5
9B05
330
18
100
AcDbEntity
  8
contour
100
AcDbLine
 10
41.31200000000001
 20
58.28697404055539
 30
0.0
 11
41.31200000000001
 21
54.98697404055542
 31
0.0
  0
LINE
  5
9B06
330
18
100
AcDbEntity
  8
contour
 62
     4
100
AcDbLine
 10
40.49999999999999
 20
59.09897404055542
 30
0.0
 11
40.49999999999997
 21
54.1749740405554
 31
0.0
  0
LINE
  5
9B07
330
18
100
AcDbEntity
  8
contour
100
AcDbLine
 10
53.68799999999999
 20
58.28697404055542
 30
0.0
 11
53.68799999999999
 21
54.98697404055547
 31
0.0
  0
LINE
  5
9B08
330
18
100
AcDbEntity
  8
contour
 62
     4
100
AcDbLine
 10
54.5
 20
59.09897404055541
 30
0.0
 11
54.5
 21
54.17497404055541
 31
0.0
  0
LINE
  5
9B09
330
18
100
AcDbEntity
  8
contour
100
AcDbLine
 10
41.31200000000001
 20
67.98697404055539
 30
0.0
 11
53.68799999999996
 21
67.98697404055539
 31
0.0
  0
LINE
  5
9B0A
330
18
100
AcDbEntity
  8
contour
100
AcDbLine
 10
53.68799999999999
 20
62.38697404055542
 30
0.0
 11
41.31200000000001
 21
62.38697404055546
 31
0.0
  0
LINE
  5
9B0B
330
18
100
AcDbEntity
  8
contour
100
AcDbLine
 10
41.31200000000001
 20
58.28697404055539
 30
0.0
 11
53.68800000000002
 21
58.28697404055539
 31
0.0
  0
LINE
  5
9B0C
330
18
100
AcDbEntity
  8
contour
100
AcDbLine
 10
41.31200000000001
 20
54.98697404055542
 30
0.0
 11
53.68799999999999
 21
54.98697404055542
 31
0.0
  0
LINE
  5
9B0E
330
18
100
AcDbEntity
  8
center
 48
0.1
100
AcDbLine
 10
58.75
 20
70.48697404055542
 30
0.0
 11
58.75
 21
52.48697404055542
 31
0.0
  0
LINE
  5
9B0F
330
18
100
AcDbEntity
  8
center
 48
0.1
100
AcDbLine
 10
36.25
 20
59.48697404055542
 30
0.0
 11
36.25
 21
52.48697404055542
 31
0.0
  0
INSERT
  5
9B48
330
18
100
AcDbEntity
  8
contour
100
AcDbBlockReference
  2
lss
 10
-67.86421920944803
 20
9.069040026557782
 30
0.0
  0
LINE
  5
9B49
330
18
100
AcDbEntity
  8
contour
100
AcDbLine
 10
61.25
 20
60.88697404055543
 30
0.0
 11
60.75
 21
60.88697404055543
 31
0.0
  0
LINE
  5
9B4A
330
18
100
AcDbEntity
  8
contour
100
AcDbLine
 10
61.25
 20
59.78697404055542
 30
0.0
 11
60.75
 21
59.78697404055542
 31
0.0
  0
LINE
  5
9B4B
330
18
100
AcDbEntity
  8
contour
100
AcDbLine
 10
55.25
 20
53.78697404055549
 30
0.0
 11
55.25
 21
53.48697404055542
 31
0.0
  0
LINE
  5
9B4C
330
18
100
AcDbEntity
  8
contour
100
AcDbLine
 10
62.25
 20
53.78697404055555
 30
0.0
 11
62.24999999999997
 21
53.48697404055542
 31
0.0
  0
LINE
  5
9B4D
330
18
100
AcDbEntity
  8
contour
100
AcDbLine
 10
55.99999999999997
 20
64.48697404055542
 30
0.0
 11
56.75
 21
64.48697404055542
 31
0.0
  0
LINE
  5
9B4E
330
18
100
AcDbEntity
  8
contour
100
AcDbLine
 10
55.99999999999997
 20
62.48697404055542
 30
0.0
 11
56.75
 21
62.48697404055542
 31
0.0
  0
LINE
  5
9B4F
330
18
100
AcDbEntity
  8
contour
100
AcDbLine
 10
57.12899999999994
 20
67.0659740405553
 30
0.0
 11
57.12899999999994
 21
69.48697404055542
 31
0.0
  0
LINE
  5
9B50
330
18
100
AcDbEntity
  8
contour
 62
     4
100
AcDbLine
 10
56.75
 20
66.68697404055534
 30
0.0
 11
56.75000000000003
 21
69.48697404055542
 31
0.0
  0
LINE
  5
9B51
330
18
100
AcDbEntity
  8
contour
100
AcDbLine
 10
60.37099999999998
 20
67.06597404055539
 30
0.0
 11
60.37099999999998
 21
69.48697404055542
 31
0.0
  0
LINE
  5
9B52
330
18
100
AcDbEntity
  8
contour
 62
     4
100
AcDbLine
 10
60.74999999999997
 20
66.68697404055539
 30
0.0
 11
60.74999999999997
 21
69.48697404055542
 31
0.0
  0
LINE
  5
9B54
330
18
100
AcDbEntity
  8
contour
100
AcDbLine
 10
34.09999999999997
 20
53.98697404055545
 30
0.0
 11
34.1
 21
57.24567096179772
 31
0.0
  0
LINE
  5
9B55
330
18
100
AcDbEntity
  8
contour
100
AcDbLine
 10
38.39999999999998
 20
53.98697404055548
 30
0.0
 11
38.39999999999998
 21
57.24567096179772
 31
0.0
  0
LINE
  5
9B57
330
18
100
AcDbEntity
  8
contour
100
AcDbLine
 10
36.25
 20
58.48697404055542
 30
0.0
 11
34.1
 21
57.24567096179772
 31
0.0
  0
LINE
  5
9B58
330
18
100
AcDbEntity
  8
contour
100
AcDbLine
 10
36.25
 20
58.48697404055542
 30
0.0
 11
38.40000000000001
 21
57.24567096179772
 31
0.0
  0
LINE
  5
9B59
330
18
100
AcDbEntity
  8
contour
100
AcDbLine
 10
38.40000000000001
 20
57.24567096179772
 30
0.0
 11
34.1
 21
57.24567096179772
 31
0.0
  0
LINE
  5
9B5A
330
18
100
AcDbEntity
  8
contour
100
AcDbLine
 10
33.59999999999997
 20
53.48697404055542
 30
0.0
 11
34.09999999999997
 21
53.98697404055543
 31
0.0
  0
LINE
  5
9B5B
330
18
100
AcDbEntity
  8
contour
100
AcDbLine
 10
38.9
 20
53.48697404055542
 30
0.0
 11
38.40000000000001
 21
53.98697404055543
 31
0.0
  0
LINE
  5
9B5C
330
18
100
AcDbEntity
  8
contour
100
AcDbLine
 10
34.1
 20
53.98697404055545
 30
0.0
 11
38.40000000000001
 21
53.98697404055549
 31
0.0
  0
LINE
  5
9BB0
330
18
100
AcDbEntity
  8
contour
100
AcDbLine
 10
37.5
 20
66.98697404055548
 30
0.0
 11
36.34529946162079
 21
68.98697404055543
 31
0.0
  0
LINE
  5
9BB1
330
18
100
AcDbEntity
  8
contour
100
AcDbLine
 10
37.5
 20
66.98697404055548
 30
0.0
 11
36.3452994616207
 21
64.98697404055542
 31
0.0
  0
LINE
  5
9BB2
330
18
100
AcDbEntity
  8
contour
100
AcDbLine
 10
36.34529946162079
 20
68.98697404055543
 30
0.0
 11
32.99999999999997
 21
68.98697404055543
 31
0.0
  0
LINE
  5
9BB3
330
18
100
AcDbEntity
  8
contour
100
AcDbLine
 10
36.34529946162073
 20
64.98697404055542
 30
0.0
 11
33.00000000000003
 21
64.98697404055542
 31
0.0
  0
LINE
  5
9BB4
330
18
100
AcDbEntity
  8
contour
100
AcDbLine
 10
36.3452994616208
 20
68.98697404055541
 30
0.0
 11
36.34529946162067
 21
64.98697404055542
 31
0.0
  0
LINE
  5
9BB5
330
18
100
AcDbEntity
  8
contour
100
AcDbLine
 10
32.79289321881345
 20
69.19408082174197
 30
0.0
 11
33.0
 21
68.98697404055543
 31
0.0
  0
LINE
  5
9BB6
330
18
100
AcDbEntity
  8
contour
100
AcDbLine
 10
32.79289321881347
 20
64.7798672593689
 30
0.0
 11
33.0
 21
64.98697404055542
 31
0.0
  0
LINE
  5
9BB7
330
18
100
AcDbEntity
  8
contour
100
AcDbLine
 10
33.00000000000001
 20
68.98697404055543
 30
0.0
 11
33.00000000000004
 21
64.98697404055542
 31
0.0
  0
LINE
  5
9BB8
330
18
100
AcDbEntity
  8
center
 48
0.1
100
AcDbLine
 10
38.5
 20
66.98697404055548
 30
0.0
 11
31.49999999999997
 21
66.98697404055548
 31
0.0
  0
DIMENSION
  5
9C15
330
18
100
AcDbEntity
  8
mark
100
AcDbDimension
  2
*D5
 10
54.5
 20
46.16992988766134
 30
0.0
 11
47.49999999999999
 21
47.19492988766133
 31
0.0
 70
    32
  1
M14X1.5P
 71
     5
 42
14.00000000000003
  3
STANDARD
100
AcDbAlignedDimension
 13
40.49999999999997
 23
54.17497404055538
 33
0.0
 14
54.5
 24
54.17497404055538
 34
0.0
100
AcDbRotatedDimension
  0
DIMENSION
  5
9C2B
330
18
100
AcDbEntity
  8
mark
100
AcDbDimension
  2
*D6
 10
67.86565325664458
 20
64.48697404055542
 30
0.0
 11
66.84065325664455
 21
66.98697404055543
 31
0.0
 70
    32
 71
     5
 42
5.0
  3
STANDARD
100
AcDbAlignedDimension
 13
61.50000000000003
 23
69.48697404055542
 33
0.0
 14
61.50000000000003
 24
64.48697404055542
 34
0.0
 50
90.0
100
AcDbRotatedDimension
  0
DIMENSION
  5
9C38
330
18
100
AcDbEntity
  8
mark
100
AcDbDimension
  2
*D7
 10
67.86565325664458
 20
62.48697404055542
 30
0.0
 11
66.84065325664455
 21
63.48697404055543
 31
0.0
 70
    32
 71
     5
 42
2.0
  3
STANDARD
100
AcDbAlignedDimension
 13
61.50000000000003
 23
64.48697404055542
 33
0.0
 14
62.49999999999994
 24
62.48697404055542
 34
0.0
 50
90.0
100
AcDbRotatedDimension
  0
DIMENSION
  5
9C47
330
18
100
AcDbEntity
  8
mark
100
AcDbDimension
  2
*D8
 10
71.74298815417945
 20
53.48918888269881
 30
0.0
 11
70.71798815417942
 21
61.48808146162712
 31
0.0
 70
    32
  1
16%%p0.2
 71
     5
 42
15.99778515785661
  3
STANDARD
100
AcDbAlignedDimension
 13
61.50000000000003
 23
69.48697404055542
 33
0.0
 14
62.56651901052379
 24
53.48918888269881
 34
0.0
 50
90.0
100
AcDbRotatedDimension
  0
DIMENSION
  5
9C54
330
18
100
AcDbEntity
  8
mark
100
AcDbDimension
  2
*D9
 10
62.50000000000003
 20
75.47943862053083
 30
0.0
 11
47.50000000000001
 21
76.50443862053084
 31
0.0
 70
    32
  1
%%C30
 71
     5
 42
30.00000000000003
  3
STANDARD
100
AcDbAlignedDimension
 13
32.5
 23
68.48697404055542
 33
0.0
 14
62.50000000000003
 24
68.48697404055542
 34
0.0
100
AcDbRotatedDimension
  0
DIMENSION
  5
9C61
330
18
100
AcDbEntity
  8
mark
100
AcDbDimension
  2
*D10
 10
63.50000000000005
 20
35.78236663786908
 30
0.0
 11
47.50000000000002
 21
36.80736663786908
 31
0.0
 70
    32
  1
%%c32
 71
     5
 42
32.00000000000006
  3
STANDARD
100
AcDbAlignedDimension
 13
31.5
 23
54.48697404055542
 33
0.0
 14
63.50000000000005
 24
54.48697404055581
 34
0.0
100
AcDbRotatedDimension
  0
DIMENSION
  5
9C6E
330
18
100
AcDbEntity
  8
mark
100
AcDbDimension
  2
*D11
 10
29.19225124227093
 20
66.98697404055548
 30
0.0
 11
29.19225124227092
 21
68.23697404055545
 31
0.0
 70
   160
 71
     5
 42
2.499999999999957
  3
STANDARD
100
AcDbAlignedDimension
 13
33.5
 23
69.48697404055542
 33
0.0
 14
31.49999999999997
 24
66.98697404055548
 34
0.0
 50
90.0
100
AcDbRotatedDimension
  0
HATCH
  5
9C98
330
18
100
AcDbEntity
  8
mark
100
AcDbHatch
 10
0.0
 20
0.0
 30
0.0
210
0.0
220
0.0
230
1.0
  2
SOLID
 70
     1
 71
     0
 91
        1
 92
        7
 72
     0
 73
     1
 93
        3
 10
40.49999999999997
 20
40.12826322099466
 10
40.49999999999997
 20
42.21159655432801
 10
41.54166666666663
 20
41.16992988766134
 97
        0
 75
     0
 76
     1
 47
0.0340840503434746
 98
        1
 10
40.99421191841043
 20
41.0736308019918
450
        0
451
        0
460
0.0
461
0.0
452
        1
462
1.0
453
        2
463
0.0
 63
     5
421
      255
463
1.0
 63
     7
421
 16777215
470
LINEAR
1001
ACAD
1010
0.0
1020
0.0
1030
0.0
  0
TOLERANCE
  5
9C99
330
18
100
AcDbEntity
  8
mark
100
AcDbFcf
  3
STANDARD
 10
46.74999999999999
 20
42.21159655432799
 30
0.0
  1
%%v%%v%%vA%%v%%v
 11
-0.0000000000000002
 21
-1.0
 31
0.0
  0
LINE
  5
9C9A
330
18
100
AcDbEntity
  8
mark
100
AcDbLine
 10
45.49999999999999
 20
41.16992988766134
 30
0.0
 11
41.54166666666663
 21
41.16992988766134
 31
0.0
  0
LINE
  5
9C9B
330
18
100
AcDbEntity
  8
mark
100
AcDbLine
 10
40.49999999999997
 20
40.12826322099466
 30
0.0
 11
41.54166666666663
 21
41.16992988766134
 31
0.0
  0
LINE
  5
9C9C
330
18
100
AcDbEntity
  8
mark
100
AcDbLine
 10
41.54166666666663
 20
41.16992988766134
 30
0.0
 11
40.49999999999997
 21
42.21159655432801
 31
0.0
  0
LINE
  5
9C9D
330
18
100
AcDbEntity
  8
mark
100
AcDbLine
 10
40.49999999999997
 20
46.16992988766134
 30
0.0
 11
40.49999999999997
 21
42.21159655432801
 31
0.0
  0
LEADER
  5
9C9E
330
18
100
AcDbEntity
  8
mark
100
AcDbLeader
  3
STANDARD
 76
     2
 10
54.43799999999999
 20
54.23697404055542
 30
0.0
 10
49.31219640390271
 20
49.11117044445814
 30
0.0
211
0.7071067811865476
221
0.7071067811865475
231
0.0
1001
ACAD
1000
DSTYLE
1002
{
1070
   147
1040
0.4
1070
    77
1070
     0
1002
}
  0
MTEXT
  5
9C9F
330
18
100
AcDbEntity
  8
mark
 62
     3
100
AcDbMText
 10
49.81835079733079
 20
51.2805732242079
 30
0.0
 40
1.25
 41
0.0
 71
     5
 72
     1
  1
C1.5
 11
0.7071067811865476
 21
0.7071067811865475
 31
0.0
 73
     1
 44
1.0
1001
ACAD
1000
ACAD_MTEXT_DEFINED_HEIGHT_BEGIN
1070
    46
1040
0.0
1000
ACAD_MTEXT_DEFINED_HEIGHT_END
  0
TEXT
  5
9CA1
330
18
100
AcDbEntity
  8
dim
100
AcDbText
 10
18.08088172516673
 20
46.57328016420905
 30
0.0
 40
1.25
  1
3-%%C4.3深さ5
  7
TXT
100
AcDbText
  0
DIMENSION
  5
9CA3
330
18
100
AcDbEntity
  8
mark
100
AcDbDimension
  2
*D12
 10
32.50000000000007
 20
54.48697404055545
 30
0.0
 11
28.42824345166741
 21
51.86478639365543
 31
0.0
 70
    36
 71
     5
 42
1.000000000000056
  3
STANDARD
100
AcDbRadialDimension
 15
31.79289321881346
 25
53.77986725936889
 35
0.0
 40
0.0
1001
ACAD
1000
DSTYLE
1002
{
1070
   288
1070
     1
1002
}
  0
LEADER
  5
9CE0
330
18
100
AcDbEntity
  8
mark
100
AcDbLeader
  3
STANDARD
 76
     3
 10
36.25
 20
53.48697404055542
 30
0.0
 10
28.93295584710597
 20
46.16992988766134
 30
0.0
 10
18.16508845159922
 20
46.16992988766134
 30
0.0
1001
ACAD
1000
DSTYLE
1002
{
1070
   147
1040
0.4
1070
    77
1070
     0
1002
}
  0
TEXT
  5
9CE3
330
18
100
AcDbEntity
  8
dim
100
AcDbText
 10
15.74516853222448
 20
60.07328016420911
 30
0.0
 40
1.25
  1
3-%%C4深さ5
  7
TXT
100
AcDbText
  0
LEADER
  5
9CE4
330
18
100
AcDbEntity
  8
mark
100
AcDbLeader
  3
STANDARD
 76
     3
 10
32.5
 20
66.98697404055548
 30
0.0
 10
25.18295584710597
 20
59.6699298876614
 30
0.0
 10
15.81171273033112
 20
59.6699298876614
 30
0.0
1001
ACAD
1000
DSTYLE
1002
{
1070
   147
1040
0.4
1070
    77
1070
     0
1002
}
  0
LINE
  5
9D11
330
18
100
AcDbEntity
  8
mark
100
AcDbLine
 10
71.74298815417945
 20
69.48697404055542
 30
0.0
 11
71.74298815417945
 21
72.31762807282525
 31
0.0
  0
LINE
  5
9D37
330
18
100
AcDbEntity
  8
mark
100
AcDbLine
 10
71.74298815417945
 20
72.31762807282525
 30
0.0
 11
74.57364218644926
 21
72.31762807282525
 31
0.0
  0
TEXT
  5
9E02
330
18
100
AcDbEntity
  8
dim
100
AcDbText
 10
72.60852567743873
 20
44.71104930350335
 30
0.0
 40
2.5
  1
2
  7
TXT
100
AcDbText
  0
LEADER
  5
9E03
330
18
100
AcDbEntity
  8
mark
100
AcDbLeader
  3
STANDARD
 76
     2
 10
58.75
 20
53.48697404055542
 30
0.0
 10
71.74298815417945
 20
45.98546883216228
 30
0.0
211
0.5000000000000002
221
0.8660254037844385
231
0.0
1001
ACAD
1000
DSTYLE
1002
{
1070
   147
1040
0.4
1070
    77
1070
     0
1002
}
  0
MTEXT
  5
9F1F
330
18
100
AcDbEntity
  8
mark
 62
     3
100
AcDbMText
 10
49.55221777117049
 20
76.50443862053084
 30
0.0
 40
0.63
 41
0.0
 71
     4
 72
     1
  1
+0\P-0.2
 73
     1
 44
1.0
1001
ACAD
1000
ACAD_MTEXT_DEFINED_HEIGHT_BEGIN
1070
    46
1040
0.0
1000
ACAD_MTEXT_DEFINED_HEIGHT_END
  0
MTEXT
  5
9F20
330
18
100
AcDbEntity
  8
mark
 62
     3
100
AcDbMText
 10
49.5522177711705
 20
36.8608441451299
 30
0.0
 40
0.63
 41
0.0
 71
     4
 72
     1
  1
+0\P-0.2
 73
     1
 44
1.0
1001
ACAD
1000
ACAD_MTEXT_DEFINED_HEIGHT_BEGIN
1070
    46
1040
0.0
1000
ACAD_MTEXT_DEFINED_HEIGHT_END
  0
HATCH
  5
A034
330
18
100
AcDbEntity
  8
section
100
AcDbHatch
 10
0.0
 20
0.0
 30
0.0
210
0.0
220
0.0
230
1.0
  2
ANSI31
 70
     0
 71
     0
 91
       11
 92
        7
 72
     1
 73
     1
 93
       32
 10
40.5
 20
68.79897404055545
 42
0.0
 10
39.81200000000001
 20
69.48697404055542
 42
0.0
 10
33.5
 20
69.48697404055542
 42
0.1989123673796571
 10
32.79289321881345
 20
69.19408082174197
 42
0.0
 10
33.0
 20
68.98697404055543
 42
0.0
 10
36.34529946162079
 20
68.98697404055543
 42
0.0
 10
37.5
 20
66.9869740405555
 42
0.0
 10
36.3452994616207
 20
64.98697404055542
 42
0.0
 10
33.00000000000001
 20
64.98697404055542
 42
0.0
 10
32.79289321881346
 20
64.77986725936888
 42
0.1989123673796633
 10
33.50000000000003
 20
64.48697404055542
 42
0.0
 10
39.00000000000003
 20
64.48697404055542
 42
0.0
 10
39.0
 20
62.48697404055542
 42
0.0
 10
32.50000000000003
 20
62.48697404055542
 42
0.414213562373093
 10
31.50000000000003
 20
61.48697404055543
 42
0.0
 10
31.5
 20
54.48697404055542
 42
0.414213562373094
 10
32.5
 20
53.48697404055542
 42
0.0
 10
33.59999999999998
 20
53.48697404055543
 42
0.0
 10
34.09999999999997
 20
53.98697404055543
 42
0.0
 10
34.1
 20
57.24567096179772
 42
0.0
 10
36.25
 20
58.48697404055542
 42
0.0
 10
38.39999999999998
 20
57.24567096179775
 42
0.0
 10
38.39999999999998
 20
53.98697404055546
 42
0.0
 10
38.9
 20
53.48697404055542
 42
0.0
 10
39.81200000000001
 20
53.48697404055542
 42
0.0
 10
40.49999999999996
 20
54.17497404055538
 42
0.0
 10
40.49999999999999
 20
59.09897404055538
 42
0.0
 10
39.81199999999999
 20
59.78697404055542
 42
0.0
 10
33.75
 20
59.78697404055543
 42
0.0
 10
33.75000000000001
 20
60.8869740405554
 42
0.0
 10
39.81199999999997
 20
60.88697404055543
 42
0.0
 10
40.49999999999999
 20
61.57497404055543
 42
0.0
 97
        0
 92
        7
 72
     0
 73
     1
 93
        4
 10
41.31200000000002
 20
67.98697404055541
 10
40.49999999999999
 20
68.79897404055544
 10
40.49999999999999
 20
61.57497404055544
 10
41.31200000000001
 20
62.38697404055546
 97
        0
 92
        7
 72
     0
 73
     1
 93
        4
 10
41.312
 20
58.28697404055539
 10
40.5
 20
59.09897404055539
 10
40.49999999999997
 20
54.17497404055538
 10
41.31200000000002
 20
54.98697404055542
 97
        0
 92
        7
 72
     0
 73
     1
 93
        4
 10
54.5
 20
59.09897404055542
 10
53.68799999999999
 20
58.28697404055542
 10
53.688
 20
54.98697404055542
 10
54.49999999999999
 20
54.17497404055542
 97
        0
 92
        7
 72
     0
 73
     1
 93
        9
 10
56.74999999999998
 20
59.78697404055541
 10
55.18799999999997
 20
59.7869740405554
 10
54.5
 20
59.09897404055542
 10
54.49999999999999
 20
54.17497404055541
 10
55.18799999999997
 20
53.48697404055542
 10
55.25
 20
53.48697404055542
 10
55.25
 20
53.78697404055549
 10
55.25
 20
57.48697404055542
 10
56.74999999999999
 20
57.48697404055542
 97
        0
 92
        7
 72
     1
 73
     1
 93
       13
 10
63.49999999999994
 20
61.48697404055543
 42
0.4142135623730942
 10
62.49999999999994
 20
62.48697404055542
 42
0.0
 10
60.74999999999999
 20
62.48697404055543
 42
0.0
 10
60.74999999999999
 20
60.88697404055542
 42
0.0
 10
61.25
 20
60.88697404055544
 42
0.0
 10
61.25
 20
59.78697404055542
 42
0.0
 10
60.74999999999999
 20
59.78697404055542
 42
0.0
 10
60.75
 20
57.48697404055542
 42
0.0
 10
62.25000000000001
 20
57.48697404055542
 42
0.0
 10
62.25
 20
53.78697404055538
 42
0.0
 10
62.24999999999997
 20
53.48697404055542
 42
0.0
 10
62.50000000000003
 20
53.48697404055542
 42
0.4142135623731001
 10
63.50000000000003
 20
54.48697404055543
 42
0.0
 97
        0
 92
        7
 72
     0
 73
     1
 93
       11
 10
56.74999999999998
 20
62.48697404055541
 10
55.99999999999996
 20
62.48697404055542
 10
55.99999999999997
 20
64.48697404055542
 10
56.75
 20
64.48697404055542
 10
56.74999999999998
 20
66.68697404055534
 10
56.75000000000001
 20
69.48697404055542
 10
55.18799999999998
 20
69.48697404055542
 10
54.49999999999999
 20
68.79897404055542
 10
54.5
 20
61.57497404055543
 10
55.18799999999998
 20
60.88697404055541
 10
56.74999999999999
 20
60.88697404055543
 97
        0
 92
        7
 72
     1
 73
     1
 93
        7
 10
62.50000000000003
 20
68.48697404055542
 42
0.414213562373096
 10
61.50000000000003
 20
69.48697404055542
 42
0.0
 10
60.74999999999996
 20
69.48697404055542
 42
0.0
 10
60.74999999999997
 20
66.68697404055539
 42
0.0
 10
60.74999999999998
 20
64.48697404055542
 42
0.0
 10
61.50000000000003
 20
64.48697404055542
 42
0.4142135623730971
 10
62.50000000000003
 20
65.48697404055542
 42
0.0
 97
        0
 92
        7
 72
     0
 73
     1
 93
        4
 10
60.74999999999996
 20
69.48697404055542
 10
60.37099999999997
 20
69.48697404055541
 10
60.37099999999998
 20
67.06597404055537
 10
60.74999999999997
 20
66.68697404055539
 97
        0
 92
        7
 72
     0
 73
     1
 93
        4
 10
57.12899999999994
 20
69.48697404055542
 10
56.75000000000003
 20
69.48697404055542
 10
56.74999999999999
 20
66.68697404055535
 10
57.12899999999994
 20
67.06597404055528
 97
        0
 92
        7
 72
     0
 73
     1
 93
        4
 10
54.5
 20
68.79897404055544
 10
53.688
 20
67.98697404055544
 10
53.688
 20
62.38697404055542
 10
54.50000000000001
 20
61.57497404055541
 97
        0
 75
     0
 76
     1
 52
0.0
 41
0.5
 77
     0
 78
     1
 53
45.0
 43
0.0
 44
0.0
 45
-1.122532015133643
 46
1.122532015133644
 79
     0
 47
0.0664943212174816
 98
       11
 10
38.33825647204463
 20
65.34520234013462
 10
40.79932506901179
 20
64.94623646135091
 10
40.86584077447059
 20
56.8339292815271
 10
54.2631191824417
 20
57.56663781829792
 10
56.19206526199059
 20
58.43106405197739
 10
62.77708727676463
 20
58.43106405197739
 10
55.5269113336547
 20
61.48980278194864
 10
61.57981083101049
 20
67.40779746548065
 10
60.51556462382933
 20
68.27222369916012
 10
56.85721879954496
 20
68.27222369916012
 10
54.13008855308715
 20
66.60986570791329
1001
ACAD
1010
0.0
1020
0.0
1030
0.0
  0
LINE
  5
A0A5
330
18
100
AcDbEntity
  8
center
 48
0.15
100
AcDbLine
 10
47.5
 20
85.72969110529113
 30
0.0
 11
47.5
 21
119.729691105291
 31
0.0
  0
LINE
  5
A0A6
330
18
100
AcDbEntity
  8
center
 48
0.15
100
AcDbLine
 10
30.50000000000006
 20
102.729691105291
 30
0.0
 11
64.49999999999994
 21
102.729691105291
 31
0.0
  0
CIRCLE
  5
A0AF
330
18
100
AcDbEntity
  8
contour
100
AcDbCircle
 10
47.5
 20
102.729691105291
 30
0.0
 40
6.187999999999995
  0
ARC
  5
A0B0
330
18
100
AcDbEntity
  8
contour
 62
     4
100
AcDbCircle
 10
47.5
 20
102.729691105291
 30
0.0
 40
7.000000000000007
100
AcDbArc
 50
168.4630409671845
 51
101.5369590328154
  0
CIRCLE
  5
A0B1
330
18
100
AcDbEntity
  8
contour
100
AcDbCircle
 10
47.5
 20
102.729691105291
 30
0.0
 40
7.750000000000007
  0
CIRCLE
  5
A0B4
330
18
100
AcDbEntity
  8
center
 48
0.15
100
AcDbCircle
 10
47.5
 20
102.729691105291
 30
0.0
 40
11.25
  0
CIRCLE
  5
A0B5
330
18
100
AcDbEntity
  8
contour
100
AcDbCircle
 10
47.5
 20
102.729691105291
 30
0.0
 40
15.00000000000003
  0
CIRCLE
  5
A0B6
330
18
100
AcDbEntity
  8
contour
100
AcDbCircle
 10
47.5
 20
102.729691105291
 30
0.0
 40
15.99999999999994
  0
CIRCLE
  5
A0B8
330
18
100
AcDbEntity
  8
contour
100
AcDbCircle
 10
58.75
 20
102.729691105291
 30
0.0
 40
1.621000000000073
  0
ARC
  5
A0B9
330
18
100
AcDbEntity
  8
contour
 62
     4
100
AcDbCircle
 10
58.75
 20
102.729691105291
 30
0.0
 40
1.999999999999985
100
AcDbArc
 50
168.4630409671842
 51
101.5369590328157
  0
CIRCLE
  5
A0BA
330
18
100
AcDbEntity
  8
bowle
 48
0.1
100
AcDbCircle
 10
58.75
 20
102.729691105291
 30
0.0
 40
3.5
  0
CIRCLE
  5
A0BE
330
18
100
AcDbEntity
  8
contour
100
AcDbCircle
 10
41.87499999999999
 20
112.472476897866
 30
0.0
 40
1.621000000000073
  0
CIRCLE
  5
A0BF
330
18
100
AcDbEntity
  8
bowle
 48
0.1
100
AcDbCircle
 10
41.87499999999999
 20
112.472476897866
 30
0.0
 40
3.499999999999999
  0
CIRCLE
  5
A0C0
330
18
100
AcDbEntity
  8
contour
100
AcDbCircle
 10
41.87500000000001
 20
92.9869053127161
 30
0.0
 40
1.621000000000073
  0
CIRCLE
  5
A0C1
330
18
100
AcDbEntity
  8
bowle
 48
0.1
100
AcDbCircle
 10
41.87500000000001
 20
92.9869053127161
 30
0.0
 40
3.5
  0
ARC
  5
A0C2
330
18
100
AcDbEntity
  8
contour
 62
     4
100
AcDbCircle
 10
41.87499999999999
 20
112.472476897866
 30
0.0
 40
1.999999999999985
100
AcDbArc
 50
168.4630409671842
 51
101.5369590328156
  0
ARC
  5
A0C3
330
18
100
AcDbEntity
  8
contour
 62
     4
100
AcDbCircle
 10
41.87500000000001
 20
92.9869053127161
 30
0.0
 40
1.999999999999985
100
AcDbArc
 50
168.4630409671842
 51
101.5369590328156
  0
CIRCLE
  5
A0C6
330
18
100
AcDbEntity
  8
bowle
 48
0.1
100
AcDbCircle
 10
36.25
 20
102.729691105291
 30
0.0
 40
2.150000000000005
  0
CIRCLE
  5
A0C7
330
18
100
AcDbEntity
  8
bowle
 48
0.1
100
AcDbCircle
 10
36.25
 20
102.729691105291
 30
0.0
 40
2.650000000000034
  0
LINE
  5
A0C8
330
18
100
AcDbEntity
  8
bowle
 48
0.1
100
AcDbLine
 10
36.34529946162069
 20
100.729691105291
 30
0.0
 11
32.99999999999999
 21
100.729691105291
 31
0.0
  0
LINE
  5
A0C9
330
18
100
AcDbEntity
  8
bowle
 48
0.1
100
AcDbLine
 10
32.68043174949866
 20
100.4101228547898
 30
0.0
 11
32.99999999999997
 21
100.729691105291
 31
0.0
  0
LINE
  5
A0CA
330
18
100
AcDbEntity
  8
bowle
 48
0.1
100
AcDbLine
 10
36.34529946162075
 20
104.729691105291
 30
0.0
 11
32.99999999999994
 21
104.729691105291
 31
0.0
  0
LINE
  5
A0CB
330
18
100
AcDbEntity
  8
bowle
 48
0.1
100
AcDbLine
 10
32.68043174949866
 20
105.0492593557924
 30
0.0
 11
32.99999999999997
 21
104.729691105291
 31
0.0
  0
LINE
  5
A0CC
330
18
100
AcDbEntity
  8
bowle
 48
0.1
100
AcDbLine
 10
37.49999999999996
 20
102.7296911052911
 30
0.0
 11
36.34529946162075
 21
104.729691105291
 31
0.0
  0
LINE
  5
A0CD
330
18
100
AcDbEntity
  8
bowle
 48
0.1
100
AcDbLine
 10
37.49999999999996
 20
102.7296911052911
 30
0.0
 11
36.34529946162067
 21
100.729691105291
 31
0.0
  0
LINE
  5
A0CE
330
18
100
AcDbEntity
  8
bowle
 48
0.1
100
AcDbLine
 10
36.34529946162076
 20
104.729691105291
 30
0.0
 11
36.34529946162063
 21
100.729691105291
 31
0.0
  0
LINE
  5
A0CF
330
18
100
AcDbEntity
  8
bowle
 48
0.1
100
AcDbLine
 10
32.99999999999997
 20
104.729691105291
 30
0.0
 11
33.0
 21
100.729691105291
 31
0.0
  0
CIRCLE
  5
A0D0
330
18
100
AcDbEntity
  8
bowle
 48
0.1
100
AcDbCircle
 10
53.12499999999999
 20
92.98690531271612
 30
0.0
 40
2.150000000000005
  0
CIRCLE
  5
A0D1
330
18
100
AcDbEntity
  8
bowle
 48
0.1
100
AcDbCircle
 10
53.12499999999999
 20
92.98690531271612
 30
0.0
 40
2.650000000000033
  0
LINE
  5
A0D2
330
18
100
AcDbEntity
  8
bowle
 48
0.1
100
AcDbLine
 10
54.80940107675852
 20
94.06943706744661
 30
0.0
 11
56.48205080756887
 21
91.17232275041668
 31
0.0
  0
LINE
  5
A0D3
330
18
100
AcDbEntity
  8
bowle
 48
0.1
100
AcDbLine
 10
56.91858915599659
 20
91.05535265249022
 30
0.0
 11
56.48205080756888
 21
91.17232275041667
 31
0.0
  0
LINE
  5
A0D4
330
18
100
AcDbEntity
  8
bowle
 48
0.1
100
AcDbLine
 10
51.34529946162074
 20
92.06943706744667
 30
0.0
 11
53.01794919243114
 21
89.17232275041664
 31
0.0
  0
LINE
  5
A0D5
330
18
100
AcDbEntity
  8
bowle
 48
0.1
100
AcDbLine
 10
52.90097909450469
 20
88.73578440198892
 30
0.0
 11
53.01794919243113
 21
89.17232275041667
 31
0.0
  0
LINE
  5
A0D6
330
18
100
AcDbEntity
  8
bowle
 48
0.1
100
AcDbLine
 10
52.49999999999996
 20
94.06943706744661
 30
0.0
 11
51.34529946162074
 21
92.06943706744667
 31
0.0
  0
LINE
  5
A0D7
330
18
100
AcDbEntity
  8
bowle
 48
0.1
100
AcDbLine
 10
52.49999999999996
 20
94.06943706744661
 30
0.0
 11
54.80940107675853
 21
94.06943706744659
 31
0.0
  0
LINE
  5
A0D8
330
18
100
AcDbEntity
  8
bowle
 48
0.1
100
AcDbLine
 10
51.34529946162074
 20
92.06943706744668
 30
0.0
 11
54.80940107675855
 21
94.06943706744655
 31
0.0
  0
LINE
  5
A0D9
330
18
100
AcDbEntity
  8
bowle
 48
0.1
100
AcDbLine
 10
53.01794919243113
 20
89.17232275041667
 30
0.0
 11
56.48205080756887
 21
91.1723227504167
 31
0.0
  0
CIRCLE
  5
A0DA
330
18
100
AcDbEntity
  8
bowle
 48
0.1
100
AcDbCircle
 10
53.12500000000003
 20
112.4724768978659
 30
0.0
 40
2.150000000000005
  0
CIRCLE
  5
A0DB
330
18
100
AcDbEntity
  8
bowle
 48
0.1
100
AcDbCircle
 10
53.12500000000003
 20
112.4724768978659
 30
0.0
 40
2.650000000000034
  0
LINE
  5
A0DC
330
18
100
AcDbEntity
  8
bowle
 48
0.1
100
AcDbLine
 10
51.34529946162079
 20
113.3899451431354
 30
0.0
 11
53.01794919243114
 21
116.2870594601654
 31
0.0
  0
LINE
  5
A0DD
330
18
100
AcDbEntity
  8
bowle
 48
0.1
100
AcDbLine
 10
52.90097909450475
 20
116.7235978085931
 30
0.0
 11
53.01794919243116
 21
116.2870594601654
 31
0.0
  0
LINE
  5
A0DE
330
18
100
AcDbEntity
  8
bowle
 48
0.1
100
AcDbLine
 10
54.80940107675853
 20
111.3899451431354
 30
0.0
 11
56.48205080756894
 21
114.2870594601654
 31
0.0
  0
LINE
  5
A0DF
330
18
100
AcDbEntity
  8
bowle
 48
0.1
100
AcDbLine
 10
56.91858915599667
 20
114.4040295580918
 30
0.0
 11
56.48205080756892
 21
114.2870594601654
 31
0.0
  0
LINE
  5
A0E0
330
18
100
AcDbEntity
  8
bowle
 48
0.1
100
AcDbLine
 10
52.50000000000008
 20
111.3899451431354
 30
0.0
 11
54.80940107675853
 21
111.3899451431354
 31
0.0
  0
LINE
  5
A0E1
330
18
100
AcDbEntity
  8
bowle
 48
0.1
100
AcDbLine
 10
52.50000000000008
 20
111.3899451431354
 30
0.0
 11
51.34529946162081
 21
113.3899451431355
 31
0.0
  0
LINE
  5
A0E2
330
18
100
AcDbEntity
  8
bowle
 48
0.1
100
AcDbLine
 10
54.80940107675852
 20
111.3899451431354
 30
0.0
 11
51.34529946162082
 21
113.3899451431355
 31
0.0
  0
LINE
  5
A0E3
330
18
100
AcDbEntity
  8
bowle
 48
0.1
100
AcDbLine
 10
56.48205080756892
 20
114.2870594601654
 30
0.0
 11
53.01794919243114
 21
116.2870594601654
 31
0.0
  0
DIMENSION
  5
A0E4
330
18
100
AcDbEntity
  8
mark
100
AcDbDimension
  2
*D13
 10
58.30229576188381
 20
99.58757298644398
 30
0.0
 11
25.98086748112621
 21
108.989069452254
 31
0.0
 70
   163
  1
P.C.D 22.5
 71
     5
 42
22.50000000000001
  3
STANDARD
100
AcDbDiametricDimension
 15
36.69770423811619
 25
105.8718092241381
 35
0.0
 40
0.0
1001
ACAD
1000
DSTYLE
1002
{
1070
   288
1070
     1
1002
}
  0
LINE
  5
A0F0
330
18
100
AcDbEntity
  8
center
 48
0.15
100
AcDbLine
 10
55.99999999999998
 20
117.4521229696265
 30
0.0
 11
50.0940000000001
 21
107.2226309001246
 31
0.0
  0
LINE
  5
A0F5
330
18
100
AcDbEntity
  8
center
 48
0.15
100
AcDbLine
 10
39.00000000000023
 20
117.4521229696263
 30
0.0
 11
44.90600000000023
 21
107.2226309001246
 31
0.0
  0
LINE
  5
A0F6
330
18
100
AcDbEntity
  8
center
 48
0.15
100
AcDbLine
 10
55.99999999999998
 20
88.00725924095566
 30
0.0
 11
50.0940000000001
 21
98.23675131045746
 31
0.0
  0
LINE
  5
A0F7
330
18
100
AcDbEntity
  8
center
 48
0.15
100
AcDbLine
 10
39.00000000000023
 20
88.00725924095578
 30
0.0
 11
44.90600000000023
 21
98.23675131045751
 31
0.0
  0
TEXT
  5
A0F9
330
18
100
AcDbEntity
  8
dim
100
AcDbText
 10
72.60852567743873
 20
82.56800655905434
 30
0.0
 40
2.5
  1
1
  7
TXT
100
AcDbText
  0
LEADER
  5
A0FA
330
18
100
AcDbEntity
  8
mark
100
AcDbLeader
  3
STANDARD
 76
     2
 10
58.75
 20
91.34393129610641
 30
0.0
 10
71.74298815417945
 20
83.84242608771328
 30
0.0
211
0.5000000000000002
221
0.8660254037844385
231
0.0
1001
ACAD
1000
DSTYLE
1002
{
1070
   147
1040
0.4
1070
    77
1070
     0
1002
}
  0
MTEXT
  5
A11E
330
18
100
AcDbEntity
  8
0
100
AcDbMText
 10
23.82548616095238
 20
9.53802950808307
 30
0.0
 40
2.25
 41
0.0
 71
     1
 72
     5
  1
{\Ftxt,bigfont|c128;小\~柳}
  7
JL
 73
     1
 44
1.0
1001
ACAD
1000
ACAD_MTEXT_DEFINED_HEIGHT_BEGIN
1070
    46
1040
0.0
1000
ACAD_MTEXT_DEFINED_HEIGHT_END
  0
LWPOLYLINE
  5
A147
330
18
100
AcDbEntity
  8
mark
100
AcDbPolyline
 90
        3
 70
     1
 43
0.0
 10
4.282428426927029
 20
17.6405780213805
 10
2.839052753952972
 20
20.1405780213805
 10
1.395677080978901
 20
17.6405780213805
  0
MTEXT
  5
A148
330
18
100
AcDbEntity
  8
dim
100
AcDbMText
 10
2.665078284426942
 20
19.31468190872168
 30
0.0
 40
1.25
 41
4.581557073439626
 71
     1
 72
     5
  1
1
 73
     1
 44
1.0
1001
ACAD
1000
ACAD_MTEXT_DEFINED_HEIGHT_BEGIN
1070
    46
1040
0.0
1000
ACAD_MTEXT_DEFINED_HEIGHT_END
  0
MTEXT
  5
A149
330
18
100
AcDbEntity
  8
dim
100
AcDbMText
 10
5.164027682662862
 20
19.87085701260565
 30
0.0
 40
2.25
 41
0.0
 71
     1
 72
     5
  1
{\Ftxt,bigfont|c128;08.08.08 振れ精度の変更  林}
  7
JL
 73
     1
 44
1.0
1001
ACAD
1000
ACAD_MTEXT_DEFINED_HEIGHT_BEGIN
1070
    46
1040
0.0
1000
ACAD_MTEXT_DEFINED_HEIGHT_END
  0
CIRCLE
  5
A14A
330
18
100
AcDbEntity
  8
dim
100
AcDbCircle
 10
24.05117932967574
 20
18.71594770262226
 30
0.0
 40
1.381204854054431
  0
LWPOLYLINE
  5
A14B
330
18
100
AcDbEntity
  8
mark
100
AcDbPolyline
 90
        3
 70
     1
 43
0.0
 10
90.88910136134588
 20
1.053236819810138
 10
89.44572568837182
 20
3.553236819810138
 10
88.00235001539775
 20
1.053236819810138
  0
MTEXT
  5
A14C
330
18
100
AcDbEntity
  8
dim
100
AcDbMText
 10
89.27175121884578
 20
2.727340707151313
 30
0.0
 40
1.25
 41
4.581557073439626
 71
     1
 72
     5
  1
1
 73
     1
 44
1.0
1001
ACAD
1000
ACAD_MTEXT_DEFINED_HEIGHT_BEGIN
1070
    46
1040
0.0
1000
ACAD_MTEXT_DEFINED_HEIGHT_END
  0
LWPOLYLINE
  5
A14D
330
18
100
AcDbEntity
  8
mark
100
AcDbPolyline
 90
        3
 70
     1
 43
0.0
 10
77.57945074522457
 20
74.21265384617368
 10
76.13607507225052
 20
76.71265384617368
 10
74.69269939927645
 20
74.21265384617368
  0
MTEXT
  5
A14E
330
18
100
AcDbEntity
  8
dim
100
AcDbMText
 10
75.96210060272449
 20
75.88675773351486
 30
0.0
 40
1.25
 41
4.581557073439626
 71
     1
 72
     5
  1
1
 73
     1
 44
1.0
1001
ACAD
1000
ACAD_MTEXT_DEFINED_HEIGHT_BEGIN
1070
    46
1040
0.0
1000
ACAD_MTEXT_DEFINED_HEIGHT_END
  0
LINE
  5
A14F
330
18
100
AcDbEntity
  8
mark
 62
     1
100
AcDbLine
 10
77.84348000634953
 20
72.54707909261395
 30
0.0
 11
83.0642739648921
 21
72.54707909261395
 31
0.0
  0
LINE
  5
A157
330
18
100
AcDbEntity
  8
mark
 62
     1
100
AcDbLine
 10
77.84348000634953
 20
72.09336242346381
 30
0.0
 11
83.0642739648921
 21
72.09336242346381
 31
0.0
  0
MTEXT
  5
A158
330
18
100
AcDbEntity
  8
dim
100
AcDbMText
 10
78.30791837346919
 20
75.88675773351486
 30
0.0
 40
1.25
 41
4.581557073439626
 71
     1
 72
     5
  1
0.007
 73
     1
 44
1.0
1001
ACAD
1000
ACAD_MTEXT_DEFINED_HEIGHT_BEGIN
1070
    46
1040
0.0
1000
ACAD_MTEXT_DEFINED_HEIGHT_END
  0
ENDSEC
  0
SECTION
  2
OBJECTS
  0
DICTIONARY
  5
C
330
0
100
AcDbDictionary
281
     1
  3
ACAD_COLOR
350
7873
  3
ACAD_GROUP
350
D
  3
ACAD_LAYOUT
350
5CF3
  3
ACAD_MATERIAL
350
7872
  3
ACAD_MLINESTYLE
350
1B
  3
ACAD_PLOTSETTINGS
350
5CF4
  3
ACAD_PLOTSTYLENAME
350
5CF1
  3
ACAD_TABLESTYLE
350
7874
  3
AcadDim
350
A0F8
  3
ACDBVARIABLEDICTIONARY
350
45D
  0
DICTIONARY
  5
7BFE
330
2
100
AcDbDictionary
280
     1
281
     1
  3
ACAD_LAYERFILTERS
360
7C00
  3
ACLYDICTIONARY
360
7BFF
  0
DICTIONARY
  5
45F
330
18
100
AcDbDictionary
280
     1
281
     1
  3
ACAD_LAYOUTSELFREF
360
5D8B
  3
ACAD_SORTENTS
360
460
  0
DICTIONARY
  5
5D89
330
15
100
AcDbDictionary
280
     1
281
     1
  3
ACAD_LAYOUTSELFREF
360
5D8A
  0
DICTIONARY
  5
7C0B
330
7C0A
100
AcDbDictionary
280
     1
281
     1
  3
AcDbBlockTableRecordData
360
7C0C
  0
DICTIONARY
  5
8E73
330
8E72
100
AcDbDictionary
280
     1
281
     1
  3
AcDbBlockTableRecordData
360
8E74
  0
DICTIONARY
  5
9B2A
330
9B29
100
AcDbDictionary
280
     1
281
     1
  3
AcDbBlockTableRecordData
360
9B2B
  0
DICTIONARY
  5
7873
102
{ACAD_REACTORS
330
C
102
}
330
C
100
AcDbDictionary
281
     1
  0
DICTIONARY
  5
D
102
{ACAD_REACTORS
330
C
102
}
330
C
100
AcDbDictionary
281
     1
  0
DICTIONARY
  5
5CF3
102
{ACAD_REACTORS
330
C
102
}
330
C
100
AcDbDictionary
281
     1
  3
Model
350
5CF5
  3
配置1
350
5CF6
  0
DICTIONARY
  5
7872
102
{ACAD_REACTORS
330
C
102
}
330
C
100
AcDbDictionary
281
     1
  0
DICTIONARY
  5
1B
102
{ACAD_REACTORS
330
C
102
}
330
C
100
AcDbDictionary
281
     1
  3
STANDARD
350
1C
  0
DICTIONARY
  5
5CF4
102
{ACAD_REACTORS
330
C
102
}
330
C
100
AcDbDictionary
281
     1
  0
ACDBDICTIONARYWDFLT
  5
5CF1
102
{ACAD_REACTORS
330
C
102
}
330
C
100
AcDbDictionary
281
     1
  3
Normal
350
5CF2
100
AcDbDictionaryWithDefault
340
5CF2
  0
DICTIONARY
  5
7874
102
{ACAD_REACTORS
330
C
102
}
330
C
100
AcDbDictionary
281
     1
  3
Standard
350
7875
  0
XRECORD
  5
A0F8
102
{ACAD_REACTORS
330
C
102
}
330
C
100
AcDbXrecord
280
     1
 90
   990106
  3

 60
     0
 61
     0
 62
     1
 63
     3
 64
     0
 65
     0
 66
     0
 67
     3
 68
     1
 69
     0
 70
     0
 71
     0
 72
     0
 40
0.0
170
     0
  0
DICTIONARY
  5
45D
102
{ACAD_REACTORS
330
C
102
}
330
C
100
AcDbDictionary
281
     1
  3
CTABLESTYLE
350
7880
  3
SORTENTS
350
45E
  0
DICTIONARY
  5
7C00
102
{ACAD_REACTORS
330
7BFE
102
}
330
7BFE
100
AcDbDictionary
281
     1
  0
DICTIONARY
  5
7BFF
102
{ACAD_REACTORS
330
7BFE
102
}
330
7BFE
100
AcDbDictionary
281
     1
1001
ACAD
1000
<All
  0
XRECORD
  5
5D8B
102
{ACAD_REACTORS
330
45F
102
}
330
45F
100
AcDbXrecord
280
     1
340
18
  0
SORTENTSTABLE
  5
460
102
{ACAD_REACTORS
330
45F
102
}
330
45F
100
AcDbSortentsTable
330
18
331
9ACA
  5
9B1D
331
9B09
  5
9B4F
331
9B58
  5
9BB3
331
7D9C
  5
7D9C
331
9C9E
  5
9CA1
331
A0C3
  5
A0C7
331
9C47
  5
9C61
331
9AD2
  5
9B15
331
9BB0
  5
9BB6
331
C0
  5
CB
331
7D6D
  5
7D6D
331
7DA4
  5
7DA4
331
A0CB
  5
A0CD
331
9BB8
  5
9BC0
331
7DAC
  5
7DAC
331
7D75
  5
7D75
331
A0D3
  5
A0D5
331
7DB4
  5
7DB4
331
7D7D
  5
7D7D
331
7DBC
  5
7DBC
331
A0DB
  5
A0DE
331
7D85
  5
7D85
331
A0E3
  5
A0F1
331
9B49
  5
9B55
331
7D8D
  5
7D8D
331
A0B4
  5
A0B9
331
9B02
  5
9B0B
331
9AC3
  5
9AFB
331
9B51
  5
9BAC
331
9C38
  5
9C54
331
7D95
  5
7D95
331
9ACB
  5
9B1A
331
9B0A
  5
9B50
331
9B59
  5
9BB4
331
7D9D
  5
7D9D
331
9C9F
  5
9CA3
331
9AD3
  5
9B1C
331
9BB1
  5
9BB7
331
7DA5
  5
7DA5
331
7D6E
  5
7D6E
331
A0CC
  5
A0CE
331
7DAD
  5
7DAD
331
7D76
  5
7D76
331
A0D4
  5
A0D6
331
9AE3
  5
9B0F
331
7DB5
  5
7DB5
331
7DBD
  5
7DBD
331
7D7E
  5
7D7E
331
A0A5
  5
A0A5
331
A0DC
  5
A0DF
331
9AF3
  5
9B27
331
7D86
  5
7D86
331
9D37
  5
9E02
331
A0E4
  5
A0F2
331
9AFB
  5
9B48
331
9B4A
  5
9B57
331
7D8E
  5
7D8E
331
A0B5
  5
A0BA
331
9B03
  5
9B4D
331
9AC4
  5
9AFE
331
9B52
  5
9BAD
331
7D96
  5
7D96
331
9F1F
  5
9F20
331
9C98
  5
9C9A
331
9B0B
  5
9B51
331
9B5A
  5
9BAF
331
7D9E
  5
7D9E
331
9BB2
  5
9B07
331
7D6F
  5
7D6F
331
7DA6
  5
7DA6
331
A0CD
  5
A0CF
331
7DAE
  5
7DAE
331
7D77
  5
7D77
331
A0D5
  5
A0D7
331
9CE0
  5
9CE4
331
9AE4
  5
9B13
331
7DB6
  5
7DB6
331
7D7F
  5
7D7F
331
9C61
  5
9C98
331
A0A6
  5
A0B0
331
A0DD
  5
A0E0
331
9AF4
  5
9B28
331
7D87
  5
7D87
331
9AFC
  5
9B4B
331
9B4B
  5
9B58
331
7D8F
  5
7D8F
331
A0B6
  5
A0BB
331
9B04
  5
9AFC
331
9AC5
  5
9B03
331
7D97
  5
7D97
331
A0BE
  5
A0C2
331
9C99
  5
9C9B
331
9F20
  5
9F2A
331
9B0C
  5
9B52
331
9ACD
  5
9B18
331
9B5B
  5
9BB1
331
7D9F
  5
7D9F
331
9CA1
  5
9CCE
331
A0C6
  5
A0C8
331
9BB3
  5
9B05
331
7D70
  5
7D70
331
A0CE
  5
A0D0
331
7DAF
  5
7DAF
331
A0D6
  5
A0D8
331
9AE5
  5
9B12
331
7DB7
  5
7DB7
331
7D78
  5
7D78
331
9D11
  5
9DFF
331
7D80
  5
7D80
331
A0DE
  5
A0E1
331
9AF5
  5
9B14
331
9C2B
  5
9C47
331
7D88
  5
7D88
331
A0AF
  5
A0B2
331
9AFD
  5
9B09
331
9B4C
  5
9B59
331
7D90
  5
7D90
331
9AC6
  5
9B16
331
9B05
  5
9B49
331
9B54
  5
9BAE
331
A0BF
  5
A0C3
331
7D98
  5
7D98
331
9B5C
  5
9BB5
331
7DA0
  5
7DA0
331
9C9A
  5
9C9C
331
9AD6
  5
9B02
331
9BB4
  5
9BB8
331
7DA8
  5
7DA8
331
7D71
  5
7D71
331
A0C7
  5
A0C9
331
7DB0
  5
7DB0
331
A0CF
  5
A0D1
331
9AE6
  5
9B1E
331
A0D7
  5
A0D9
331
7D79
  5
7D79
331
7DB8
  5
7DB8
331
7D81
  5
7D81
331
9AF6
  5
9B10
331
7D89
  5
7D89
331
A0DF
  5
A0E2
331
9AFE
  5
9B0C
331
9B4D
  5
9B5A
331
7D91
  5
7D91
331
9E02
  5
9E23
331
A0B0
  5
A0B6
331
9B06
  5
9B25
331
9B55
  5
9BB0
331
A0B8
  5
A0BF
331
7D99
  5
7D99
331
9ACF
  5
9B17
331
9B0E
  5
9B21
331
9C9B
  5
9C9D
331
A0C0
  5
A0C4
331
9BB5
  5
9B08
331
7DA9
  5
7DA9
331
7D72
  5
7D72
331
9CA3
  5
9CE3
331
A0C8
  5
A0CA
331
7DB1
  5
7DB1
331
9C54
  5
9C6E
331
A0D0
  5
A0D2
331
9AE7
  5
9B1B
331
9C15
  5
9C38
331
9CE3
  5
9CE5
331
7D7A
  5
7D7A
331
7D82
  5
7D82
331
A0D8
  5
A0DA
331
7D8A
  5
7D8A
331
98A8
  5
9AF4
331
A0E0
  5
A0E3
331
9AFF
  5
9B4A
331
9B4E
  5
9B5B
331
7D92
  5
7D92
331
9E03
  5
9EC7
331
A0B1
  5
A0B8
331
A0F0
  5
A0F4
331
9B07
  5
9B4C
331
A0B9
  5
A0C0
331
7D9A
  5
7D9A
331
9B0F
  5
9B20
331
7DA2
  5
7DA2
331
9C9C
  5
9C9E
331
A0C1
  5
A0C5
331
9AD8
  5
9B1F
331
9BB6
  5
9B06
331
7D73
  5
7D73
331
7DAA
  5
7DAA
331
A0C9
  5
A0CB
331
7DB2
  5
7DB2
331
A0D1
  5
A0D3
331
9CE4
  5
9D11
331
9AE8
  5
9B11
331
7D7B
  5
7D7B
331
7DBA
  5
7DBA
331
9AF0
  5
9B0A
331
7D83
  5
7D83
331
A0D9
  5
A0DB
331
9AF8
  5
9B24
331
7D8B
  5
7D8B
331
A0E1
  5
A0E4
331
9B00
  5
9AFD
331
9B4F
  5
9B5C
331
7D93
  5
7D93
331
9B57
  5
9BB2
331
A0BA
  5
A0C1
331
9B08
  5
9B23
331
7D9B
  5
7D9B
331
7DA3
  5
7DA3
331
7D6C
  5
7D6C
331
9C9D
  5
9C9F
331
A0C2
  5
A0C6
331
9BB7
  5
9BB9
331
7D74
  5
7D74
331
A034
  5
9AF9
331
A0CA
  5
A0CC
331
9AE1
  5
9B26
331
A0D2
  5
A0D4
331
7DBB
  5
7DBB
331
7D7C
  5
7D7C
331
9AF1
  5
9B0E
331
7D84
  5
7D84
331
A0DA
  5
A0DD
331
9AF9
  5
9B22
331
9B48
  5
9B54
331
7D8C
  5
7D8C
331
A0E2
  5
A0F0
331
9C6E
  5
9C99
331
7D94
  5
7D94
331
9B01
  5
9B4E
331
9B50
  5
9B5D
  0
XRECORD
  5
5D8A
102
{ACAD_REACTORS
330
5D89
102
}
330
5D89
100
AcDbXrecord
280
     1
340
15
  0
DICTIONARY
  5
7C0C
102
{ACAD_REACTORS
330
7C0B
102
}
330
7C0B
100
AcDbDictionary
280
     1
281
     1
  3
Edit
360
7C0D
  0
DICTIONARY
  5
8E74
102
{ACAD_REACTORS
330
8E73
102
}
330
8E73
100
AcDbDictionary
280
     1
281
     1
  3
Edit
360
8E75
  0
DICTIONARY
  5
9B2B
102
{ACAD_REACTORS
330
9B2A
102
}
330
9B2A
100
AcDbDictionary
280
     1
281
     1
  3
Edit
360
9B2C
  0
LAYOUT
  5
5CF5
102
{ACAD_REACTORS
330
5CF3
102
}
330
5CF3
100
AcDbPlotSettings
  1

  2
hp LaserJet 1300 PCL 6
  4
A4
  6

 40
5.027083396911621
 41
5.069413185119628
 42
5.027084350585937
 43
5.027069091796875
 44
209.9733276367187
 45
296.9683227539062
 46
4.959579944610595
 47
3.435920238494873
 48
0.0
 49
0.0
140
95.0
141
140.0
142
1.0
143
0.5
 70
 11956
 72
     1
 73
     0
 74
     4
  7
LIN.ctb
 75
    27
147
2.0
 76
     0
 77
     2
 78
   300
148
0.0
149
0.0
100
AcDbLayout
  1
Model
 70
     1
 71
     0
 10
0.0
 20
0.0
 11
12.0
 21
9.0
 12
0.0
 22
0.0
 32
0.0
 14
0.0
 24
0.0
 34
0.0
 15
0.0
 25
0.0
 35
0.0
146
0.0
 13
0.0
 23
0.0
 33
0.0
 16
1.0
 26
0.0
 36
0.0
 17
0.0
 27
1.0
 37
0.0
 76
     0
330
18
1001
ACAD_PSEXT
1000
hp LaserJet 1300 PCL 6
1000
hp LaserJet 1300 PCL 6
1000
HP 1300
1000

1070
     0
  0
LAYOUT
  5
5CF6
102
{ACAD_REACTORS
330
5CF3
102
}
330
5CF3
100
AcDbPlotSettings
  1

  2
EPSON STYLUS COLOR 440
  4

  6

 40
0.0
 41
0.0
 42
0.0
 43
0.0
 44
0.0
 45
0.0
 46
0.0
 47
0.0
 48
0.0
 49
0.0
140
0.0
141
0.0
142
1.0
143
1.0
 70
   688
 72
     0
 73
     0
 74
     5
  7
LIN.ctb
 75
    16
147
1.0
 76
     0
 77
     2
 78
   300
148
0.0
149
0.0
100
AcDbLayout
  1
ｰtｸm1
 70
     1
 71
     1
 10
0.0
 20
0.0
 11
420.0
 21
297.0
 12
0.0
 22
0.0
 32
0.0
 14
1.000000000000000E+20
 24
1.000000000000000E+20
 34
1.000000000000000E+20
 15
-1.000000000000000E+20
 25
-1.000000000000000E+20
 35
-1.000000000000000E+20
146
0.0
 13
0.0
 23
0.0
 33
0.0
 16
1.0
 26
0.0
 36
0.0
 17
0.0
 27
1.0
 37
0.0
 76
     0
330
15
  0
MLINESTYLE
  5
1C
102
{ACAD_REACTORS
330
1B
102
}
330
1B
100
AcDbMlineStyle
  2
STANDARD
 70
     0
  3

 62
   256
 51
90.0
 52
90.0
 71
     2
 49
0.5
 62
   256
  6
BYLAYER
 49
-0.5
 62
   256
  6
BYLAYER
  0
ACDBPLACEHOLDER
  5
5CF2
102
{ACAD_REACTORS
330
5CF1
102
}
330
5CF1
  0
TABLESTYLE
  5
7875
102
{ACAD_REACTORS
330
7874
102
}
330
7874
100
AcDbTableStyle
  3
Standard
 70
     0
 71
     8
 40
1.5
 41
1.5
280
     0
281
     0
  7
STANDARD
140
4.5
170
     2
 62
     0
 63
     7
283
     0
274
    -2
284
     1
 64
     0
275
    -2
285
     1
 65
     0
276
    -2
286
     1
 66
     0
277
    -2
287
     1
 67
     0
278
    -2
288
     1
 68
     0
279
    -2
289
     1
 69
     0
  7
STANDARD
140
6.0
170
     5
 62
     0
 63
     7
283
     0
274
    -2
284
     1
 64
     0
275
    -2
285
     1
 65
     0
276
    -2
286
     1
 66
     0
277
    -2
287
     1
 67
     0
278
    -2
288
     1
 68
     0
279
    -2
289
     1
 69
     0
  7
STANDARD
140
4.5
170
     5
 62
     0
 63
     7
283
     0
274
    -2
284
     1
 64
     0
275
    -2
285
     1
 65
     0
276
    -2
286
     1
 66
     0
277
    -2
287
     1
 67
     0
278
    -2
288
     1
 68
     0
279
    -2
289
     1
 69
     0
  0
DICTIONARYVAR
  5
7880
102
{ACAD_REACTORS
330
45D
102
}
330
45D
100
DictionaryVariables
280
     0
  1
STANDARD
  0
DICTIONARYVAR
  5
45E
102
{ACAD_REACTORS
330
45D
102
}
330
45D
100
DictionaryVariables
280
     0
  1
127
  0
XRECORD
  5
7C0D
102
{ACAD_REACTORS
330
7C0C
102
}
330
7C0C
100
AcDbXrecord
280
     1
1070
     0
1070
     1
1070
     1
  0
XRECORD
  5
8E75
102
{ACAD_REACTORS
330
8E74
102
}
330
8E74
100
AcDbXrecord
280
     1
1070
     0
1070
     1
1070
     1
  0
XRECORD
  5
9B2C
102
{ACAD_REACTORS
330
9B2B
102
}
330
9B2B
100
AcDbXrecord
280
     1
1070
     0
1070
     1
1070
     1
  0
ENDSEC
  0
EOF
