  0
SECTION
  2
HEADER
  9
$ACADVER
  1
AC1018
  9
$ACADMAINTVER
 70
   104
  9
$DWGCODEPAGE
  3
ANSI_932
  9
$LASTSAVEDBY
  1
eigyo taro
  9
$INSBASE
 10
0.0
 20
0.0
 30
0.0
  9
$EXTMIN
 10
0.0
 20
0.0
 30
0.0
  9
$EXTMAX
 10
95.0
 20
140.0
 30
1.919191919191921
  9
$LIMMIN
 10
0.0
 20
0.0
  9
$LIMMAX
 10
420.0
 20
297.0
  9
$ORTHOMODE
 70
     1
  9
$REGENMODE
 70
     1
  9
$FILLMODE
 70
     1
  9
$QTEXTMODE
 70
     0
  9
$MIRRTEXT
 70
     1
  9
$LTSCALE
 40
1.0
  9
$ATTMODE
 70
     1
  9
$TEXTSIZE
 40
1.25
  9
$TRACEWID
 40
1.0
  9
$TEXTSTYLE
  7
TXT
  9
$CLAYER
  8
mark
  9
$CELTYPE
  6
BYLAYER
  9
$CECOLOR
 62
   256
  9
$CELTSCALE
 40
1.0
  9
$DISPSILH
 70
     0
  9
$DIMSCALE
 40
1.0
  9
$DIMASZ
 40
1.25
  9
$DIMEXO
 40
0.4
  9
$DIMDLI
 40
0.38
  9
$DIMRND
 40
0.0
  9
$DIMDLE
 40
0.0
  9
$DIMEXE
 40
0.4
  9
$DIMTP
 40
0.0
  9
$DIMTM
 40
0.0
  9
$DIMTXT
 40
1.25
  9
$DIMCEN
 40
0.09
  9
$DIMTSZ
 40
0.0
  9
$DIMTOL
 70
     0
  9
$DIMLIM
 70
     0
  9
$DIMTIH
 70
     0
  9
$DIMTOH
 70
     0
  9
$DIMSE1
 70
     0
  9
$DIMSE2
 70
     0
  9
$DIMTAD
 70
     3
  9
$DIMZIN
 70
     8
  9
$DIMBLK
  1
Open30
  9
$DIMASO
 70
     1
  9
$DIMSHO
 70
     1
  9
$DIMPOST
  1

  9
$DIMAPOST
  1

  9
$DIMALT
 70
     0
  9
$DIMALTD
 70
     2
  9
$DIMALTF
 40
25.4
  9
$DIMLFAC
 40
1.0
  9
$DIMTOFL
 70
     1
  9
$DIMTVP
 40
0.0
  9
$DIMTIX
 70
     0
  9
$DIMSOXD
 70
     0
  9
$DIMSAH
 70
     0
  9
$DIMBLK1
  1

  9
$DIMBLK2
  1

  9
$DIMSTYLE
  2
STANDARD
  9
$DIMCLRD
 70
   256
  9
$DIMCLRE
 70
   256
  9
$DIMCLRT
 70
     3
  9
$DIMTFAC
 40
1.0
  9
$DIMGAP
 40
0.4
  9
$DIMJUST
 70
     0
  9
$DIMSD1
 70
     0
  9
$DIMSD2
 70
     0
  9
$DIMTOLJ
 70
     1
  9
$DIMTZIN
 70
     0
  9
$DIMALTZ
 70
     0
  9
$DIMALTTZ
 70
     0
  9
$DIMUPT
 70
     0
  9
$DIMDEC
 70
     2
  9
$DIMTDEC
 70
     2
  9
$DIMALTU
 70
     2
  9
$DIMALTTD
 70
     2
  9
$DIMTXSTY
  7
STANDARD
  9
$DIMAUNIT
 70
     0
  9
$DIMADEC
 70
     2
  9
$DIMALTRND
 40
0.0
  9
$DIMAZIN
 70
     2
  9
$DIMDSEP
 70
    46
  9
$DIMATFIT
 70
     3
  9
$DIMFRAC
 70
     0
  9
$DIMLDRBLK
  1
Open30
  9
$DIMLUNIT
 70
     2
  9
$DIMLWD
 70
    -2
  9
$DIMLWE
 70
    -2
  9
$DIMTMOVE
 70
     0
  9
$LUNITS
 70
     2
  9
$LUPREC
 70
     2
  9
$SKETCHINC
 40
1.0
  9
$FILLETRAD
 40
0.5
  9
$AUNITS
 70
     0
  9
$AUPREC
 70
     2
  9
$MENU
  1
.
  9
$ELEVATION
 40
0.0
  9
$PELEVATION
 40
0.0
  9
$THICKNESS
 40
0.0
  9
$LIMCHECK
 70
     0
  9
$CHAMFERA
 40
1.0
  9
$CHAMFERB
 40
1.0
  9
$CHAMFERC
 40
1.75
  9
$CHAMFERD
 40
0.0174532925199433
  9
$SKPOLY
 70
     0
  9
$TDCREATE
 40
2451555.620231482
  9
$TDUCREATE
 40
2451555.245234838
  9
$TDUPDATE
 40
2458138.434687500
  9
$TDUUPDATE
 40
2458138.059687500
  9
$TDINDWG
 40
2.5865126736
  9
$TDUSRTIMER
 40
2.5865126736
  9
$USRTIMER
 70
     1
  9
$ANGBASE
 50
0.0
  9
$ANGDIR
 70
     0
  9
$PDMODE
 70
     0
  9
$PDSIZE
 40
0.0
  9
$PLINEWID
 40
0.0
  9
$SPLFRAME
 70
     0
  9
$SPLINETYPE
 70
     6
  9
$SPLINESEGS
 70
     8
  9
$HANDSEED
  5
AE47
  9
$SURFTAB1
 70
     6
  9
$SURFTAB2
 70
     6
  9
$SURFTYPE
 70
     6
  9
$SURFU
 70
     6
  9
$SURFV
 70
     6
  9
$UCSBASE
  2

  9
$UCSNAME
  2

  9
$UCSORG
 10
0.0
 20
0.0
 30
0.0
  9
$UCSXDIR
 10
1.0
 20
0.0
 30
0.0
  9
$UCSYDIR
 10
0.0
 20
1.0
 30
0.0
  9
$UCSORTHOREF
  2

  9
$UCSORTHOVIEW
 70
     0
  9
$UCSORGTOP
 10
0.0
 20
0.0
 30
0.0
  9
$UCSORGBOTTOM
 10
0.0
 20
0.0
 30
0.0
  9
$UCSORGLEFT
 10
0.0
 20
0.0
 30
0.0
  9
$UCSORGRIGHT
 10
0.0
 20
0.0
 30
0.0
  9
$UCSORGFRONT
 10
0.0
 20
0.0
 30
0.0
  9
$UCSORGBACK
 10
0.0
 20
0.0
 30
0.0
  9
$PUCSBASE
  2

  9
$PUCSNAME
  2

  9
$PUCSORG
 10
0.0
 20
0.0
 30
0.0
  9
$PUCSXDIR
 10
1.0
 20
0.0
 30
0.0
  9
$PUCSYDIR
 10
0.0
 20
1.0
 30
0.0
  9
$PUCSORTHOREF
  2

  9
$PUCSORTHOVIEW
 70
     0
  9
$PUCSORGTOP
 10
0.0
 20
0.0
 30
0.0
  9
$PUCSORGBOTTOM
 10
0.0
 20
0.0
 30
0.0
  9
$PUCSORGLEFT
 10
0.0
 20
0.0
 30
0.0
  9
$PUCSORGRIGHT
 10
0.0
 20
0.0
 30
0.0
  9
$PUCSORGFRONT
 10
0.0
 20
0.0
 30
0.0
  9
$PUCSORGBACK
 10
0.0
 20
0.0
 30
0.0
  9
$USERI1
 70
     0
  9
$USERI2
 70
     0
  9
$USERI3
 70
     0
  9
$USERI4
 70
     0
  9
$USERI5
 70
     0
  9
$USERR1
 40
0.0
  9
$USERR2
 40
0.0
  9
$USERR3
 40
0.0
  9
$USERR4
 40
0.0
  9
$USERR5
 40
0.0
  9
$WORLDVIEW
 70
     1
  9
$SHADEDGE
 70
     3
  9
$SHADEDIF
 70
    70
  9
$TILEMODE
 70
     1
  9
$MAXACTVP
 70
    48
  9
$PINSBASE
 10
0.0
 20
0.0
 30
0.0
  9
$PLIMCHECK
 70
     0
  9
$PEXTMIN
 10
1.000000000000000E+20
 20
1.000000000000000E+20
 30
1.000000000000000E+20
  9
$PEXTMAX
 10
-1.000000000000000E+20
 20
-1.000000000000000E+20
 30
-1.000000000000000E+20
  9
$PLIMMIN
 10
0.0
 20
0.0
  9
$PLIMMAX
 10
420.0
 20
297.0
  9
$UNITMODE
 70
     0
  9
$VISRETAIN
 70
     1
  9
$PLINEGEN
 70
     0
  9
$PSLTSCALE
 70
     1
  9
$TREEDEPTH
 70
  3020
  9
$CMLSTYLE
  2
STANDARD
  9
$CMLJUST
 70
     0
  9
$CMLSCALE
 40
20.0
  9
$PROXYGRAPHICS
 70
     1
  9
$MEASUREMENT
 70
     1
  9
$CELWEIGHT
370
    -1
  9
$ENDCAPS
280
     0
  9
$JOINSTYLE
280
     0
  9
$LWDISPLAY
290
     0
  9
$INSUNITS
 70
     0
  9
$HYPERLINKBASE
  1

  9
$STYLESHEET
  1
LIN.ctb
  9
$XEDIT
290
     1
  9
$CEPSNTYPE
380
     0
  9
$PSTYLEMODE
290
     1
  9
$FINGERPRINTGUID
  2
{1CF51E8A-A506-11D4-A7D9-AF69F5C20846}
  9
$VERSIONGUID
  2
{6A98478B-492F-45EC-BFC5-C520C7A8AA45}
  9
$EXTNAMES
290
     1
  9
$PSVPSCALE
 40
0.0
  9
$OLESTARTUP
290
     0
  9
$SORTENTS
280
   127
  9
$INDEXCTL
280
     0
  9
$HIDETEXT
280
     0
  9
$XCLIPFRAME
290
     0
  9
$HALOGAP
280
     0
  9
$OBSCOLOR
 70
   257
  9
$OBSLTYPE
280
     0
  9
$INTERSECTIONDISPLAY
280
     0
  9
$INTERSECTIONCOLOR
 70
   257
  9
$DIMASSOC
280
     1
  9
$PROJECTNAME
  1

  0
ENDSEC
  0
SECTION
  2
CLASSES
  0
CLASS
  1
DICTIONARYVAR
  2
AcDbDictionaryVar
  3
ObjectDBX Classes
 90
        0
 91
       10
280
     0
281
     0
  0
CLASS
  1
SORTENTSTABLE
  2
AcDbSortentsTable
  3
ObjectDBX Classes
 90
        0
 91
        2
280
     0
281
     0
  0
CLASS
  1
ACDBDICTIONARYWDFLT
  2
AcDbDictionaryWithDefault
  3
ObjectDBX Classes
 90
        0
 91
        1
280
     0
281
     0
  0
CLASS
  1
TABLESTYLE
  2
AcDbTableStyle
  3
ObjectDBX Classes
 90
     4095
 91
        1
280
     0
281
     0
  0
CLASS
  1
MATERIAL
  2
AcDbMaterial
  3
ObjectDBX Classes
 90
     1153
 91
        3
280
     0
281
     0
  0
CLASS
  1
VISUALSTYLE
  2
AcDbVisualStyle
  3
ObjectDBX Classes
 90
     4095
 91
       24
280
     0
281
     0
  0
CLASS
  1
SCALE
  2
AcDbScale
  3
ObjectDBX Classes
 90
     1153
 91
       17
280
     0
281
     0
  0
CLASS
  1
MLEADERSTYLE
  2
AcDbMLeaderStyle
  3
ACDB_MLEADERSTYLE_CLASS
 90
     4095
 91
        1
280
     0
281
     0
  0
CLASS
  1
ACME_DOCUMENT
  2
AcMeDbDoc
  3
AcMeServices
 90
     1024
 91
        0
280
     0
281
     0
  0
CLASS
  1
AMGSETTINGSOBJ
  2
AmgSettingsObj
  3
"AcadM|Product Description: AutoCAD Mechanical|Company: Autodesk, Inc."
 90
     1024
 91
        0
280
     0
281
     0
  0
CLASS
  1
ACMESCOPE
  2
AcMeScope
  3
AcMeServices
 90
     1024
 91
        0
280
     0
281
     0
  0
CLASS
  1
ACMECOMMANDHISTORY
  2
AcMeCommandHistory
  3
AcMeServices
 90
     1024
 91
        0
280
     0
281
     0
  0
CLASS
  1
ACIMSYSVARMAN
  2
AcImSysVarManager
  3
AcMeServices
 90
     1024
 91
        0
280
     0
281
     0
  0
CLASS
  1
ACIMINTSYSVAR
  2
AcImIntSysVar
  3
AcMeServices
 90
     1024
 91
        0
280
     0
281
     0
  0
CLASS
  1
ACMESTATEMGR
  2
AcMeStateMgr
  3
AcMeServices
 90
     1024
 91
        0
280
     0
281
     0
  0
CLASS
  1
ACDBENTITYCACHE
  2
AcMeEntityCache
  3
AcMeServices
 90
     1024
 91
        0
280
     0
281
     0
  0
CLASS
  1
ACGREFMASTER
  2
AcGrefMaster
  3
AcAttribServices
 90
     1024
 91
        0
280
     0
281
     0
  0
CLASS
  1
AM_DRAWING_MGR
  2
AcDmDwgMgr
  3
AcMechDwgViewMgmt
 90
     1024
 91
        0
280
     0
281
     0
  0
CLASS
  1
AM_DWG_DOCUMENT
  2
AcDmDwgDocument
  3
AcMechDwgViewMgmt
 90
     1024
 91
        0
280
     0
281
     0
  0
CLASS
  1
AM_DWG_SHEET
  2
AcDmSheet
  3
AcMechDwgViewMgmt
 90
     1024
 91
        0
280
     0
281
     0
  0
CLASS
  1
AM_VIEWDIMPARMAP
  2
AcDmViewDimParMap
  3
AcMechDwgViewMgmt
 90
     1024
 91
        0
280
     0
281
     0
  0
CLASS
  1
AMDTINTERNALREACTOR
  2
AmdtInternalReactor
  3
AcMeServices
 90
     1024
 91
        0
280
     0
281
     0
  0
CLASS
  1
ACIMREALSYSVAR
  2
AcImRealSysVar
  3
AcMeServices
 90
     1024
 91
        0
280
     0
281
     0
  0
CLASS
  1
AM_DWGMGR_NAME
  2
AcDmDwgMgrName
  3
AcMechDwgViewMgmt
 90
     1024
 91
        0
280
     0
281
     0
  0
CLASS
  1
ACME_DATABASE
  2
AcMeDbDatabase
  3
AcMeServices
 90
     1024
 91
        0
280
     0
281
     0
  0
CLASS
  1
ACRFINSADJUSTERMGR
  2
AcRfInsAdjusterMgr
  3
AcMeServices
 90
     1024
 91
        0
280
     0
281
     0
  0
CLASS
  1
ACGREFACADMASTER
  2
AcGrefacadMaster
  3
AcGrefServices
 90
     1024
 91
        0
280
     0
281
     0
  0
CLASS
  1
AMDTMENUSTATEMGR
  2
AmdtMenuStateMgr
  3
McadcomServices
 90
     1024
 91
        0
280
     0
281
     0
  0
CLASS
  1
AMDTMCOMMENUSTATE
  2
AmdtMcomMenuState
  3
McadcomServices
 90
     1024
 91
        0
280
     0
281
     0
  0
CLASS
  1
AMIMASTER
  2
AmiMaster
  3
AmiServices
 90
     1024
 91
        0
280
     0
281
     0
  0
CLASS
  1
MAPIAMMOUDLE
  2
MApiAmModule
  3
MApiAmServices
 90
     1024
 91
        0
280
     0
281
     0
  0
CLASS
  1
ACIMSTRSYSVAR
  2
AcImStrSysVar
  3
AcMeServices
 90
     1024
 91
        0
280
     0
281
     0
  0
CLASS
  1
AMDTDMMENUSTATE
  2
AmdtDmMenuState
  3
AcMechDwgViewMgmt
 90
     1024
 91
        0
280
     0
281
     0
  0
CLASS
  1
AMDTAMMENUSTATE
  2
AmdtAmMenuState
  3
DesignerAssemblies
 90
     1024
 91
        0
280
     0
281
     0
  0
CLASS
  1
ACAMPROJECT
  2
AcAmProject
  3
DesignerAssemblies
 90
     1024
 91
        0
280
     0
281
     0
  0
CLASS
  1
ACAMGRCOMPDEF
  2
AcAmGrCompDef
  3
DesignerAssemblies
 90
     1024
 91
        0
280
     0
281
     0
  0
CLASS
  1
ACAMCOMPDEF
  2
AcAmCompDef
  3
DesignerAssemblies
 90
     1024
 91
        0
280
     0
281
     0
  0
CLASS
  1
ACAMCOMPDEFMGR
  2
AcAmCompDefMgr
  3
DesignerAssemblies
 90
     1024
 91
        0
280
     0
281
     0
  0
CLASS
  1
AMCONTEXTMGR
  2
AcAmContextMgr
  3
DesignerAssemblies
 90
     1024
 91
        0
280
     0
281
     0
  0
CLASS
  1
ACAMCONTEXTMODELER
  2
AcAmContextModeler
  3
DesignerAssemblies
 90
     1024
 91
        0
280
     0
281
     0
  0
CLASS
  1
ACMDATADICTIONARY
  2
AcmDataDictionary
  3
"AcmSymBB|Product Description: AutoCAD Mechanical|Company: Autodesk, Inc."
 90
     1024
 91
        0
280
     0
281
     0
  0
CLASS
  1
ACAMGRCOMPDEFSET
  2
AcAmGrCompDefSet
  3
DesignerAssemblies
 90
     1024
 91
        0
280
     0
281
     0
  0
CLASS
  1
AMDTBROWSERDBTAB
  2
AmdtBrowserDbTab
  3
McadcomServices
 90
     1024
 91
        0
280
     0
281
     0
  0
CLASS
  1
CBROWSERAPPOBJECT
  2
CBrowserAppObject
  3
McadcomServices
 90
     1024
 91
        0
280
     0
281
     0
  0
CLASS
  1
DM_PLACEHOLDER
  2
AcDmSelsetPlaceholder
  3
AcMechDwgViewMgmt
 90
     1024
 91
        0
280
     0
281
     0
  0
CLASS
  1
EXACXREFPANELOBJECT
  2
ExAcXREFPanelObject
  3
EXAC_ESW
 90
     1025
 91
        0
280
     0
281
     0
  0
CLASS
  1
NPOCOLLECTION
  2
AcDbImpNonPersistentObjectsCollection
  3
ObjectDBX Classes
 90
     1153
 91
        0
280
     0
281
     0
  0
CLASS
  1
ACMSTANDARDISO
  2
AcmStandardISO
  3
"Amdt_StdImp|Product Description: AutoCAD Mechanical|Company: Autodesk, Inc."
 90
     1024
 91
        0
280
     0
281
     0
  0
CLASS
  1
AMDTEDGESTANDARDISO13715
  2
AmdtEdgeStdISO13715
  3
"Amdt_StdImp|Product Description: AutoCAD Mechanical|Company: Autodesk, Inc."
 90
     1024
 91
        0
280
     0
281
     0
  0
CLASS
  1
ACMSURFSTANDARDISO2002
  2
AcmSurfTextStdISO2002
  3
"Amdt_StdImp|Product Description: AutoCAD Mechanical|Company: Autodesk, Inc."
 90
     1024
 91
        0
280
     0
281
     0
  0
CLASS
  1
ACMFCFSTANDARDISO
  2
AcmFCFStdISO
  3
"Amdt_StdImp|Product Description: AutoCAD Mechanical|Company: Autodesk, Inc."
 90
     1024
 91
        0
280
     0
281
     0
  0
CLASS
  1
ACMWELDSTANDARDISO
  2
AcmWeldingStdISO
  3
"Amdt_StdImp|Product Description: AutoCAD Mechanical|Company: Autodesk, Inc."
 90
     1024
 91
        0
280
     0
281
     0
  0
CLASS
  1
ACMIDSTANDARDISO
  2
AcmIdStdISO
  3
"Amdt_StdImp|Product Description: AutoCAD Mechanical|Company: Autodesk, Inc."
 90
     1024
 91
        0
280
     0
281
     0
  0
CLASS
  1
ACMDATUMSTANDARDISO
  2
AcmDatumStdISO
  3
"Amdt_StdImp|Product Description: AutoCAD Mechanical|Company: Autodesk, Inc."
 90
     1024
 91
        0
280
     0
281
     0
  0
CLASS
  1
ACMBOMSTANDARDISO
  2
AcmBOMStdISO
  3
"Amdt_StdImp|Product Description: AutoCAD Mechanical|Company: Autodesk, Inc."
 90
     1024
 91
        0
280
     0
281
     0
  0
CLASS
  1
ACMDETAILSTANDARDISO
  2
AmdtDetailSymStdISO
  3
"Amdt_StdImp|Product Description: AutoCAD Mechanical|Company: Autodesk, Inc."
 90
     1024
 91
        0
280
     0
281
     0
  0
CLASS
  1
ACMSECTIONSTANDARDISO2001
  2
AmdtSectionSymStdISO2001
  3
"Amdt_StdImp|Product Description: AutoCAD Mechanical|Company: Autodesk, Inc."
 90
     1024
 91
        0
280
     0
281
     0
  0
CLASS
  1
ACMCENTERLINESTANDARDISO
  2
AmdtCenterLineStdISO
  3
"Amdt_StdImp|Product Description: AutoCAD Mechanical|Company: Autodesk, Inc."
 90
     1024
 91
        0
280
     0
281
     0
  0
CLASS
  1
ACMTHREADLINESTANDARDISO
  2
AmdtThreadLineStdISO
  3
"Amdt_StdImp|Product Description: AutoCAD Mechanical|Company: Autodesk, Inc."
 90
     1024
 91
        0
280
     0
281
     0
  0
CLASS
  1
ACMNOTESTANDARDISO
  2
AmdtNoteStdISO
  3
"Amdt_StdImp|Product Description: AutoCAD Mechanical|Company: Autodesk, Inc."
 90
     1024
 91
        0
280
     0
281
     0
  0
CLASS
  1
ACMTAPERSTANDARDISO
  2
AcmTaperStdISO
  3
"Amdt_StdImp|Product Description: AutoCAD Mechanical|Company: Autodesk, Inc."
 90
     1024
 91
        0
280
     0
281
     0
  0
CLASS
  1
ACMANOOTATIONVIEWSTANDARDISO
  2
AmdtAnViewStdISO
  3
"Amdt_StdImp|Product Description: AutoCAD Mechanical|Company: Autodesk, Inc."
 90
     1024
 91
        0
280
     0
281
     0
  0
CLASS
  1
ACAMGLAYSTD
  2
AcAmgLayStd
  3
"AmgLay|Product Description: AutoCAD Mechanical|Company: Autodesk, Inc."
 90
     1024
 91
        0
280
     0
281
     0
  0
CLASS
  1
ACAMGDIMSTD
  2
AcAmgDimStd
  3
"AmgDim|Product Description: AutoCAD Mechanical|Company: Autodesk, Inc."
 90
     1024
 91
        0
280
     0
281
     0
  0
CLASS
  1
AMGOBJPROPCFG
  2
AmgObjPropCfg
  3
"AmgLay|Product Description: AutoCAD Mechanical|Company: Autodesk, Inc."
 90
     1025
 91
        0
280
     0
281
     0
  0
CLASS
  1
ACAMGHOLECHARTSTDISO
  2
AcAmgHoleChartStdISO
  3
AmgDim|Product Description: AutoCAD Mechanical|Company: Autodesk, Inc.
 90
     1024
 91
        0
280
     0
281
     0
  0
CLASS
  1
ACAMGTITLESTD
  2
AcAmgTitleStd
  3
"AmgTitle|Product Description: AutoCAD Mechanical|Company: Autodesk, Inc."
 90
     4095
 91
        0
280
     0
281
     0
  0
CLASS
  1
AMDTNOTETEMPLATEDB
  2
AmdtNoteTemplateDB
  3
AcmSymBB|Product Description: AutoCAD Mechanical|Company: Autodesk, Inc.
 90
     1024
 91
        0
280
     0
281
     0
  0
CLASS
  1
ACAMGFILTERDAT
  2
AcAmgFilterDat
  3
"AcadM|Product Description: AutoCAD Mechanical|Company: Autodesk, Inc."
 90
     1024
 91
        0
280
     0
281
     0
  0
CLASS
  1
CELLSTYLEMAP
  2
AcDbCellStyleMap
  3
ObjectDBX Classes
 90
     1152
 91
        2
280
     0
281
     0
  0
CLASS
  1
MULTILEADER
  2
AcDbMLeader
  3
ACDB_MLEADER_CLASS
 90
     1025
 91
        0
280
     0
281
     1
  0
CLASS
  1
CAMSSTRUCTBTNSTATE
  2
StructBtnState
  3
DesignerAssemblies
 90
     1024
 91
        0
280
     0
281
     0
  0
CLASS
  1
ACDBSECTIONVIEWSTYLE
  2
AcDbSectionViewStyle
  3
ObjectDBX Classes
 90
     1025
 91
        1
280
     0
281
     0
  0
CLASS
  1
ACDBDETAILVIEWSTYLE
  2
AcDbDetailViewStyle
  3
ObjectDBX Classes
 90
     1025
 91
        1
280
     0
281
     0
  0
ENDSEC
  0
SECTION
  2
TABLES
  0
TABLE
  2
VPORT
  5
8
102
{ACAD_XDICTIONARY
360
9F9F
102
}
330
0
100
AcDbSymbolTable
 70
     1
  0
VPORT
  5
9BF7
330
8
100
AcDbSymbolTableRecord
100
AcDbViewportTableRecord
  2
*Active
 70
     0
 10
0.0
 20
0.0
 11
1.0
 21
1.0
 12
80.50199327364733
 22
65.4281238717256
 13
0.0
 23
0.0
 14
10.0
 24
10.0
 15
10.0
 25
10.0
 16
0.0
 26
0.0
 36
1.0
 17
0.0
 27
0.0
 37
0.0
 40
65.87291442604075
 41
2.584761904761904
 42
50.0
 43
0.0
 44
0.0
 50
0.0
 51
0.0
 71
     0
 72
 20000
 73
     1
 74
     1
 75
     0
 76
     0
 77
     0
 78
     0
281
     0
 65
     1
110
0.0
120
0.0
130
0.0
111
1.0
121
0.0
131
0.0
112
0.0
122
1.0
132
0.0
 79
     0
146
0.0
1001
ACAD_NAV_VCDISPLAY
1070
     3
  0
ENDTAB
  0
TABLE
  2
LTYPE
  5
5
330
0
100
AcDbSymbolTable
 70
    18
  0
LTYPE
  5
12
330
5
100
AcDbSymbolTableRecord
100
AcDbLinetypeTableRecord
  2
BYBLOCK
 70
     0
  3

 72
    65
 73
     0
 40
0.0
  0
LTYPE
  5
13
330
5
100
AcDbSymbolTableRecord
100
AcDbLinetypeTableRecord
  2
BYLAYER
 70
     0
  3

 72
    65
 73
     0
 40
0.0
  0
LTYPE
  5
14
330
5
100
AcDbSymbolTableRecord
100
AcDbLinetypeTableRecord
  2
CONTINUOUS
 70
     0
  3
Solid line
 72
    65
 73
     0
 40
0.0
  0
LTYPE
  5
9D
330
5
100
AcDbSymbolTableRecord
100
AcDbLinetypeTableRecord
  2
CENTERX2
 70
     0
  3
Center (2x) ________  __  ________  __  _____
 72
    65
 73
     4
 40
101.6
 49
63.5
 74
     0
 49
-12.7
 74
     0
 49
12.7
 74
     0
 49
-12.7
 74
     0
  0
LTYPE
  5
A1
330
5
100
AcDbSymbolTableRecord
100
AcDbLinetypeTableRecord
  2
DASHED
 70
     0
  3
Dashed __ __ __ __ __ __ __ __ __ __ __ __ __ _
 72
    65
 73
     2
 40
19.05
 49
12.7
 74
     0
 49
-6.349999999999999
 74
     0
  0
LTYPE
  5
A2
330
5
100
AcDbSymbolTableRecord
100
AcDbLinetypeTableRecord
  2
DASHED2
 70
     0
  3
Dashed (.5x) _ _ _ _ _ _ _ _ _ _ _ _ _ _ _ _ _
 72
    65
 73
     2
 40
9.524999999999998
 49
6.349999999999999
 74
     0
 49
-3.174999999999999
 74
     0
  0
LTYPE
  5
A5
330
5
100
AcDbSymbolTableRecord
100
AcDbLinetypeTableRecord
  2
DIVIDE2
 70
     0
  3
Divide (.5x) __..__..__..__..__..__..__..__.._
 72
    65
 73
     6
 40
15.875
 49
6.349999999999999
 74
     0
 49
-3.174999999999999
 74
     0
 49
0.0
 74
     0
 49
-3.174999999999999
 74
     0
 49
0.0
 74
     0
 49
-3.174999999999999
 74
     0
  0
LTYPE
  5
650B
330
5
100
AcDbSymbolTableRecord
100
AcDbLinetypeTableRecord
  2
CENTER
 70
     0
  3
Center ____ _ ____ _ ____ _ ____ _ ____ _ ____
 72
    65
 73
     4
 40
50.8
 49
31.75
 74
     0
 49
-6.349999999999999
 74
     0
 49
6.349999999999999
 74
     0
 49
-6.349999999999999
 74
     0
  0
LTYPE
  5
650C
330
5
100
AcDbSymbolTableRecord
100
AcDbLinetypeTableRecord
  2
HIDDEN
 70
     0
  3
Hidden __ __ __ __ __ __ __ __ __ __ __ __ __ _
 72
    65
 73
     2
 40
9.524999999999998
 49
6.349999999999999
 74
     0
 49
-3.174999999999999
 74
     0
  0
LTYPE
  5
9C78
330
5
100
AcDbSymbolTableRecord
100
AcDbLinetypeTableRecord
  2
PHANTOM2
 70
     0
  3
Phantom (.5x) ___ _ _ ___ _ _ ___ _ _ ___ _ _
 72
    65
 73
     6
 40
31.75
 49
15.875
 74
     0
 49
-3.174999999999999
 74
     0
 49
3.174999999999999
 74
     0
 49
-3.174999999999999
 74
     0
 49
3.174999999999999
 74
     0
 49
-3.174999999999999
 74
     0
  0
LTYPE
  5
9CB8
330
5
100
AcDbSymbolTableRecord
100
AcDbLinetypeTableRecord
  2
AM_ISO02W050
 70
     0
  3
__ __ __ __ __ __ __ __ __ __ __ __ __ __ __
 72
    65
 73
     2
 40
7.5
 49
6.0
 74
     0
 49
-1.5
 74
     0
  0
LTYPE
  5
9CB9
330
5
100
AcDbSymbolTableRecord
100
AcDbLinetypeTableRecord
  2
AM_ISO08W050
 70
     0
  3
____ . ____ . ____ . ____ . ____ . ____ . ____
 72
    65
 73
     4
 40
18.0
 49
12.0
 74
     0
 49
-1.5
 74
     0
 49
3.0
 74
     0
 49
-1.5
 74
     0
  0
LTYPE
  5
9CBA
330
5
100
AcDbSymbolTableRecord
100
AcDbLinetypeTableRecord
  2
AM_ISO09W050
 70
     0
  3
_____ . . _____ . . _____ . . ____ .. ____
 72
    65
 73
     6
 40
22.5
 49
12.0
 74
     0
 49
-1.5
 74
     0
 49
3.0
 74
     0
 49
-1.5
 74
     0
 49
3.0
 74
     0
 49
-1.5
 74
     0
  0
LTYPE
  5
9CBB
330
5
100
AcDbSymbolTableRecord
100
AcDbLinetypeTableRecord
  2
Amconstr
 70
     0
  3
_______________________
 72
    65
 73
     2
 40
9999.0
 49
9999.0
 74
     0
 49
0.0
 74
     0
  0
LTYPE
  5
9CBC
330
5
100
AcDbSymbolTableRecord
100
AcDbLinetypeTableRecord
  2
AM_ISO08W050x2
 70
     0
  3
__ . __ . __ . __ . __ . __
 72
    65
 73
     4
 40
9.0
 49
6.0
 74
     0
 49
-0.75
 74
     0
 49
1.5
 74
     0
 49
-0.75
 74
     0
  0
LTYPE
  5
9CBD
330
5
100
AcDbSymbolTableRecord
100
AcDbLinetypeTableRecord
  2
AM_ISO02W050x2
 70
     0
  3
 _ _ _ _ _ _ _ _ _ _ _ _
 72
    65
 73
     2
 40
3.75
 49
3.0
 74
     0
 49
-0.75
 74
     0
  0
LTYPE
  5
9CC0
330
5
100
AcDbSymbolTableRecord
100
AcDbLinetypeTableRecord
  2
Amzigzag
 70
     0
  3
/\/-/\/-/\/-/\/-/\/-/\/
 72
    65
 73
     2
 40
11.0001
 49
0.0001
 74
     4
 75
   136
340
9CBF
 46
0.04
 50
0.0
 44
0.0
 45
0.0
 49
-11.0
 74
     0
  0
LTYPE
  5
9CCF
330
5
100
AcDbSymbolTableRecord
100
AcDbLinetypeTableRecord
  2
ACISOWELD
 70
     0
  3
_ _ _ _ _
 72
    65
 73
     2
 40
2.0
 49
2.0
 74
     0
 49
-1.0
 74
     0
  0
LTYPE
  5
9CD0
330
5
100
AcDbSymbolTableRecord
100
AcDbLinetypeTableRecord
  2
ACISOTGB
 70
     0
  3
__ . . __ . .
 72
    65
 73
     6
 40
9.0
 49
4.0
 74
     0
 49
-1.0
 74
     0
 49
1.0
 74
     0
 49
-1.0
 74
     0
 49
1.0
 74
     0
 49
-1.0
 74
     0
  0
LTYPE
  5
9CD1
330
5
100
AcDbSymbolTableRecord
100
AcDbLinetypeTableRecord
  2
ACISOTGL
 70
     0
  3
_ _ _ _ _
 72
    65
 73
     2
 40
3.0
 49
2.0
 74
     0
 49
-1.0
 74
     0
  0
ENDTAB
  0
TABLE
  2
LAYER
  5
2
102
{ACAD_XDICTIONARY
360
7BFE
102
}
330
0
100
AcDbSymbolTable
 70
     9
  0
LAYER
  5
E
102
{ACAD_XDICTIONARY
360
9F80
102
}
330
2
100
AcDbSymbolTableRecord
100
AcDbLayerTableRecord
  2
0
 70
     0
 62
     7
  6
CONTINUOUS
370
    -3
390
5CF2
  0
LAYER
  5
B9
102
{ACAD_XDICTIONARY
360
9F82
102
}
330
2
100
AcDbSymbolTableRecord
100
AcDbLayerTableRecord
  2
dim
 70
     0
 62
     3
  6
CONTINUOUS
370
    -3
390
5CF2
  0
LAYER
  5
F2
330
2
100
AcDbSymbolTableRecord
100
AcDbLayerTableRecord
  2
DEFPOINTS
 70
     0
 62
     4
  6
CONTINUOUS
290
     0
370
    -3
390
5CF2
  0
LAYER
  5
5F8B
102
{ACAD_XDICTIONARY
360
9F84
102
}
330
2
100
AcDbSymbolTableRecord
100
AcDbLayerTableRecord
  2
mark
 70
     0
 62
     6
  6
CONTINUOUS
370
    -3
390
5CF2
  0
LAYER
  5
644E
102
{ACAD_XDICTIONARY
360
9F86
102
}
330
2
100
AcDbSymbolTableRecord
100
AcDbLayerTableRecord
  2
frame
 70
     0
 62
     9
  6
CONTINUOUS
370
    -3
390
5CF2
  0
LAYER
  5
650D
102
{ACAD_XDICTIONARY
360
9F88
102
}
330
2
100
AcDbSymbolTableRecord
100
AcDbLayerTableRecord
  2
center
 70
     0
 62
     1
  6
CENTER
370
    -3
390
5CF2
  0
LAYER
  5
650E
102
{ACAD_XDICTIONARY
360
9F8A
102
}
330
2
100
AcDbSymbolTableRecord
100
AcDbLayerTableRecord
  2
bowle
 70
     0
 62
     4
  6
HIDDEN
370
    -3
390
5CF2
  0
LAYER
  5
650F
102
{ACAD_XDICTIONARY
360
9F8C
102
}
330
2
100
AcDbSymbolTableRecord
100
AcDbLayerTableRecord
  2
contour
 70
     0
 62
     2
  6
CONTINUOUS
370
    -3
390
5CF2
  0
LAYER
  5
6510
102
{ACAD_XDICTIONARY
360
9F8E
102
}
330
2
100
AcDbSymbolTableRecord
100
AcDbLayerTableRecord
  2
section
 70
     0
 62
     5
  6
CONTINUOUS
370
    -3
390
5CF2
  0
ENDTAB
  0
TABLE
  2
STYLE
  5
3
330
0
100
AcDbSymbolTable
 70
     8
  0
STYLE
  5
F
330
3
100
AcDbSymbolTableRecord
100
AcDbTextStyleTableRecord
  2
STANDARD
 70
     0
 40
0.0
 41
1.0
 50
0.0
 71
     0
 42
2.5
  3
txt
  4

  0
STYLE
  5
BE
330
3
100
AcDbSymbolTableRecord
100
AcDbTextStyleTableRecord
  2
ISOCP3
 70
     0
 40
0.0
 41
1.0
 50
0.0
 71
     0
 42
2.5
  3
isocp3.shx
  4

  0
STYLE
  5
2A37
330
3
100
AcDbSymbolTableRecord
100
AcDbTextStyleTableRecord
  2
TXT
 70
     0
 40
0.0
 41
1.0
 50
0.0
 71
     0
 42
1.25
  3
txt.shx
  4
bigfont.shx
  0
STYLE
  5
5DCB
330
3
100
AcDbSymbolTableRecord
100
AcDbTextStyleTableRecord
  2
LKK
 70
     0
 40
50.0
 41
1.5
 50
0.0
 71
     0
 42
50.0
  3
MS PGothic.ttf
  4

1001
ACAD
1000
MS PGothic
1071
    32818
  0
STYLE
  5
5DCC
330
3
100
AcDbSymbolTableRecord
100
AcDbTextStyleTableRecord
  2
JL
 70
     0
 40
10.0
 41
0.5
 50
0.0
 71
     0
 42
5.0
  3
MS Mincho.ttf
  4

1001
ACAD
1000
MS Mincho
1071
    32785
  0
STYLE
  5
9CBF
330
3
100
AcDbSymbolTableRecord
100
AcDbTextStyleTableRecord
  2

 70
     1
 40
0.0
 41
1.0
 50
0.0
 71
     0
 42
1.25
  3
genltshp.shx
  4

  0
STYLE
  5
9CCD
330
3
100
AcDbSymbolTableRecord
100
AcDbTextStyleTableRecord
  2
ACISOTS
 70
     0
 40
1.0
 41
1.0
 50
0.0
 71
     0
 42
1.25
  3
isocp.shx
  4
chineset.shx
  0
STYLE
  5
9CCE
330
3
100
AcDbSymbolTableRecord
100
AcDbTextStyleTableRecord
  2
ACISOGDT
 70
     0
 40
0.0
 41
1.0
 50
0.0
 71
     0
 42
1.25
  3
amgdt.shx
  4

  0
ENDTAB
  0
TABLE
  2
VIEW
  5
6
330
0
100
AcDbSymbolTable
 70
     0
  0
ENDTAB
  0
TABLE
  2
UCS
  5
7
330
0
100
AcDbSymbolTable
 70
     0
  0
ENDTAB
  0
TABLE
  2
APPID
  5
9
330
0
100
AcDbSymbolTable
 70
    27
  0
APPID
  5
10
330
9
100
AcDbSymbolTableRecord
100
AcDbRegAppTableRecord
  2
ACAD
 70
     0
  0
APPID
  5
7C91
330
9
100
AcDbSymbolTableRecord
100
AcDbRegAppTableRecord
  2
ACAD_DSTYLE_DIMEXT_LENGTH
 70
     0
  0
APPID
  5
7C92
330
9
100
AcDbSymbolTableRecord
100
AcDbRegAppTableRecord
  2
ACAD_DSTYLE_DIMEXT_ENABLED
 70
     0
  0
APPID
  5
7C93
330
9
100
AcDbSymbolTableRecord
100
AcDbRegAppTableRecord
  2
ACAD_DSTYLE_DIMJOGGED_JOGANGLE_SYMBOL
 70
     0
  0
APPID
  5
7C94
330
9
100
AcDbSymbolTableRecord
100
AcDbRegAppTableRecord
  2
ACAD_DSTYLE_DIMARC_LENGTH_SYMBOL
 70
     0
  0
APPID
  5
7F1C
330
9
100
AcDbSymbolTableRecord
100
AcDbRegAppTableRecord
  2
ACAD_EXEMPT_FROM_CAD_STANDARDS
 70
     0
  0
APPID
  5
7F49
330
9
100
AcDbSymbolTableRecord
100
AcDbRegAppTableRecord
  2
ACAD_DSTYLE_DIMTEXT_FILL
 70
     0
  0
APPID
  5
7F4C
330
9
100
AcDbSymbolTableRecord
100
AcDbRegAppTableRecord
  2
ACAD_DSTYLE_DIM_LINETYPE
 70
     0
  0
APPID
  5
7F4D
330
9
100
AcDbSymbolTableRecord
100
AcDbRegAppTableRecord
  2
ACAD_DSTYLE_DIM_EXT1_LINETYPE
 70
     0
  0
APPID
  5
7F4E
330
9
100
AcDbSymbolTableRecord
100
AcDbRegAppTableRecord
  2
ACAD_DSTYLE_DIM_EXT2_LINETYPE
 70
     0
  0
APPID
  5
8C73
330
9
100
AcDbSymbolTableRecord
100
AcDbRegAppTableRecord
  2
ACAD_PSEXT
 70
     0
  0
APPID
  5
9C3E
330
9
100
AcDbSymbolTableRecord
100
AcDbRegAppTableRecord
  2
ACADSTRINGINFO
 70
     0
  0
APPID
  5
9C4F
330
9
100
AcDbSymbolTableRecord
100
AcDbRegAppTableRecord
  2
MCAD_NO_VIS
 70
     0
  0
APPID
  5
9C50
330
9
100
AcDbSymbolTableRecord
100
AcDbRegAppTableRecord
  2
ACAD_TEMP_GRAPHIC
 70
     0
  0
APPID
  5
9C7A
330
9
100
AcDbSymbolTableRecord
100
AcDbRegAppTableRecord
  2
AD_DRAW
 70
     0
  0
APPID
  5
9C7D
330
9
100
AcDbSymbolTableRecord
100
AcDbRegAppTableRecord
  2
ACATTRIBSERVICES
 70
     0
  0
APPID
  5
9C96
330
9
100
AcDbSymbolTableRecord
100
AcDbRegAppTableRecord
  2
DESIGNERASSEMBLIES
 70
     0
  0
APPID
  5
9C9B
330
9
100
AcDbSymbolTableRecord
100
AcDbRegAppTableRecord
  2
ACADM_DIM_EDIT
 70
     0
  0
APPID
  5
9C9C
330
9
100
AcDbSymbolTableRecord
100
AcDbRegAppTableRecord
  2
AMDT_DM_ADJ
 70
     0
  0
APPID
  5
9CB5
330
9
100
AcDbSymbolTableRecord
100
AcDbRegAppTableRecord
  2
ACAD_DSTYLE_DIMJAG
 70
     0
  0
APPID
  5
9CB6
330
9
100
AcDbSymbolTableRecord
100
AcDbRegAppTableRecord
  2
ACAD_DSTYLE_DIMBREAK
 70
     0
  0
APPID
  5
A019
330
9
100
AcDbSymbolTableRecord
100
AcDbRegAppTableRecord
  2
ACAD_MLEADERVER
 70
     0
  0
APPID
  5
A473
330
9
100
AcDbSymbolTableRecord
100
AcDbRegAppTableRecord
  2
ACAD_DSTYLE_DIMRADIAL_EXTENSION
 70
     0
  0
APPID
  5
A474
330
9
100
AcDbSymbolTableRecord
100
AcDbRegAppTableRecord
  2
ACAD_DSTYLE_DIMTALN
 70
     0
  0
APPID
  5
A976
330
9
100
AcDbSymbolTableRecord
100
AcDbRegAppTableRecord
  2
GradientColor1ACI
 70
     0
  0
APPID
  5
A977
330
9
100
AcDbSymbolTableRecord
100
AcDbRegAppTableRecord
  2
GradientColor2ACI
 70
     0
  0
APPID
  5
ADFF
330
9
100
AcDbSymbolTableRecord
100
AcDbRegAppTableRecord
  2
ACAD_NAV_VCDISPLAY
 70
     0
  0
ENDTAB
  0
TABLE
  2
DIMSTYLE
  5
A
330
0
100
AcDbSymbolTable
 70
    10
100
AcDbDimStyleTable
 71
     1
340
1D
  0
DIMSTYLE
105
1D
102
{ACAD_REACTORS
330
A7E7
330
A7F6
330
A80A
330
A819
330
A826
330
A984
102
}
330
A
100
AcDbSymbolTableRecord
100
AcDbDimStyleTableRecord
  2
STANDARD
 70
     0
 41
1.25
 42
0.4
 44
0.4
 73
     0
 74
     0
 77
     3
 78
     8
 79
     2
140
1.25
147
0.4
172
     1
176
   256
177
   256
178
     3
179
     2
271
     2
272
     2
340
F
341
7C04
342
7C04
1001
ACAD_DSTYLE_DIMEXT_LENGTH
1070
   378
1040
0.18
1001
ACAD_DSTYLE_DIMJOGGED_JOGANGLE_SYMBOL
1070
   384
1040
1.570796326794896
  0
DIMSTYLE
105
9B78
330
A
100
AcDbSymbolTableRecord
100
AcDbDimStyleTableRecord
  2
A
 70
     0
 41
1.25
 42
1.0
 43
3.0
 44
1.0
 73
     0
 74
     0
 77
     3
 78
     8
140
1.75
141
0.0
147
0.5
176
     6
177
     6
178
     3
271
     1
272
     1
279
     1
340
2A37
  0
DIMSTYLE
105
9CB4
330
A
100
AcDbSymbolTableRecord
100
AcDbDimStyleTableRecord
  2
AM_ISO
 70
     0
  4
"
 41
3.5
 42
1.0
 43
10.0
 44
1.0
 47
0.1
 48
0.1
 73
     0
 74
     0
 77
     1
 78
     8
 79
     2
140
3.5
141
0.0
143
0.0393701
146
0.71
147
1.5
172
     1
176
   256
177
   256
178
     2
271
     2
272
     3
274
     4
283
     0
284
     8
340
F
371
    -1
372
    -1
1001
ACAD_DSTYLE_DIMJAG
1070
   388
1040
1.5
1001
ACAD_DSTYLE_DIMBREAK
1070
   391
1040
3.75
1001
ACAD_DSTYLE_DIMARC_LENGTH_SYMBOL
1070
   379
1070
     1
1001
ACAD_DSTYLE_DIM_LINETYPE
1070
   380
1005
12
1001
ACAD_DSTYLE_DIM_EXT1_LINETYPE
1070
   381
1005
12
1001
ACAD_DSTYLE_DIM_EXT2_LINETYPE
1070
   382
1005
12
  0
DIMSTYLE
105
9CC1
330
A
100
AcDbSymbolTableRecord
100
AcDbDimStyleTableRecord
  2
AM_ISO$3
 70
     0
  4
"
 41
3.5
 42
1.0
 43
10.0
 44
1.0
 47
0.1
 48
0.1
 73
     0
 77
     1
 78
     8
 79
     2
140
3.5
141
0.0
143
0.0393701
146
0.71
147
1.5
176
   256
177
   256
178
     2
271
     2
272
     3
274
     4
283
     0
284
     8
288
     1
289
     0
340
F
371
    -1
372
    -1
1001
ACAD_DSTYLE_DIMBREAK
1070
   391
1040
3.75
1001
ACAD_DSTYLE_DIMJAG
1070
   388
1040
1.5
1001
ACAD_DSTYLE_DIMARC_LENGTH_SYMBOL
1070
   379
1070
     1
1001
ACAD_DSTYLE_DIM_LINETYPE
1070
   380
1005
12
1001
ACAD_DSTYLE_DIM_EXT1_LINETYPE
1070
   381
1005
12
1001
ACAD_DSTYLE_DIM_EXT2_LINETYPE
1070
   382
1005
12
  0
DIMSTYLE
105
9CC2
330
A
100
AcDbSymbolTableRecord
100
AcDbDimStyleTableRecord
  2
AM_ISO$4
 70
     0
  4
"
 41
3.5
 42
1.0
 43
10.0
 44
1.0
 47
0.1
 48
0.1
 73
     0
 77
     1
 78
     8
 79
     2
140
3.5
141
0.0
143
0.0393701
146
0.71
147
1.5
176
   256
177
   256
178
     2
271
     2
272
     3
274
     4
283
     0
284
     8
288
     1
289
     0
340
F
371
    -1
372
    -1
1001
ACAD_DSTYLE_DIMBREAK
1070
   391
1040
3.75
1001
ACAD_DSTYLE_DIMJAG
1070
   388
1040
1.5
1001
ACAD_DSTYLE_DIMARC_LENGTH_SYMBOL
1070
   379
1070
     1
1001
ACAD_DSTYLE_DIM_LINETYPE
1070
   380
1005
12
1001
ACAD_DSTYLE_DIM_EXT1_LINETYPE
1070
   381
1005
12
1001
ACAD_DSTYLE_DIM_EXT2_LINETYPE
1070
   382
1005
12
  0
DIMSTYLE
105
9CC3
330
A
100
AcDbSymbolTableRecord
100
AcDbDimStyleTableRecord
  2
AM_ISO$6
 70
     0
  4
"
 41
3.5
 42
1.0
 43
10.0
 44
1.0
 47
0.1
 48
0.1
 73
     0
 74
     0
 78
     8
 79
     2
140
3.5
141
0.0
143
0.0393701
146
0.71
147
1.5
172
     1
176
   256
177
   256
178
     2
271
     2
272
     3
274
     4
283
     0
284
     8
340
F
371
    -1
372
    -1
1001
ACAD_DSTYLE_DIMBREAK
1070
   391
1040
3.75
1001
ACAD_DSTYLE_DIMJAG
1070
   388
1040
1.5
1001
ACAD_DSTYLE_DIMARC_LENGTH_SYMBOL
1070
   379
1070
     1
1001
ACAD_DSTYLE_DIM_LINETYPE
1070
   380
1005
12
1001
ACAD_DSTYLE_DIM_EXT1_LINETYPE
1070
   381
1005
12
1001
ACAD_DSTYLE_DIM_EXT2_LINETYPE
1070
   382
1005
12
  0
DIMSTYLE
105
9CC4
330
A
100
AcDbSymbolTableRecord
100
AcDbDimStyleTableRecord
  2
AM_ISO$7
 70
     0
  4
"
 41
3.5
 42
1.0
 43
10.0
 44
1.0
 47
0.1
 48
0.1
 73
     0
 74
     0
 77
     1
 78
     8
 79
     2
140
3.5
141
0.0
143
0.0393701
146
0.71
147
1.5
172
     1
176
   256
177
   256
178
     2
271
     2
272
     3
274
     4
283
     0
284
     8
340
F
371
    -1
372
    -1
1001
ACAD_DSTYLE_DIMBREAK
1070
   391
1040
3.75
1001
ACAD_DSTYLE_DIMJAG
1070
   388
1040
1.5
1001
ACAD_DSTYLE_DIMARC_LENGTH_SYMBOL
1070
   379
1070
     1
1001
ACAD_DSTYLE_DIM_LINETYPE
1070
   380
1005
12
1001
ACAD_DSTYLE_DIM_EXT1_LINETYPE
1070
   381
1005
12
1001
ACAD_DSTYLE_DIM_EXT2_LINETYPE
1070
   382
1005
12
  0
DIMSTYLE
105
9CC5
330
A
100
AcDbSymbolTableRecord
100
AcDbDimStyleTableRecord
  2
AM_ISO$SF
 70
     0
  4
"
 41
3.5
 42
1.0
 43
10.0
 44
1.0
 47
0.1
 48
0.1
 73
     0
 74
     0
 75
     1
 76
     1
 77
     1
 78
     8
 79
     2
140
3.5
141
0.0
143
0.0393701
146
0.71
147
1.5
172
     1
176
   256
177
   256
178
     2
271
     2
272
     3
274
     4
283
     0
284
     8
340
F
371
    -1
372
    -1
1001
ACAD_DSTYLE_DIMBREAK
1070
   391
1040
3.75
1001
ACAD_DSTYLE_DIMJAG
1070
   388
1040
1.5
1001
ACAD_DSTYLE_DIMARC_LENGTH_SYMBOL
1070
   379
1070
     1
1001
ACAD_DSTYLE_DIM_LINETYPE
1070
   380
1005
12
1001
ACAD_DSTYLE_DIM_EXT1_LINETYPE
1070
   381
1005
12
1001
ACAD_DSTYLE_DIM_EXT2_LINETYPE
1070
   382
1005
12
  0
DIMSTYLE
105
9CCA
330
A
100
AcDbSymbolTableRecord
100
AcDbDimStyleTableRecord
  2
AM_ISO$SH
 70
     0
  4
"
 41
3.5
 42
1.0
 43
10.0
 44
1.0
 47
0.1
 48
0.1
 73
     0
 74
     0
 75
     1
 76
     1
 77
     1
 78
     8
 79
     2
140
3.5
141
0.0
143
0.0393701
144
2.0
146
0.71
147
1.5
172
     1
173
     1
176
   256
177
   256
178
     2
271
     2
272
     3
274
     4
283
     0
284
     8
340
F
343
9CC6
371
    -1
372
    -1
1001
ACAD_DSTYLE_DIMBREAK
1070
   391
1040
3.75
1001
ACAD_DSTYLE_DIMJAG
1070
   388
1040
1.5
1001
ACAD_DSTYLE_DIMARC_LENGTH_SYMBOL
1070
   379
1070
     1
1001
ACAD_DSTYLE_DIM_LINETYPE
1070
   380
1005
12
1001
ACAD_DSTYLE_DIM_EXT1_LINETYPE
1070
   381
1005
12
1001
ACAD_DSTYLE_DIM_EXT2_LINETYPE
1070
   382
1005
12
  0
DIMSTYLE
105
A472
330
A
100
AcDbSymbolTableRecord
100
AcDbDimStyleTableRecord
  2
ISO-25
 70
     0
 41
2.0
 42
0.8
 43
3.75
 44
0.8
 73
     0
 74
     0
 77
     1
 78
     8
140
1.5
141
2.5
143
0.03937007874016
147
0.8
171
     3
172
     1
271
     2
272
     2
274
     3
283
     0
284
     8
340
F
1001
ACAD_DSTYLE_DIMJAG
1070
   388
1040
1.5
1001
ACAD_DSTYLE_DIMTALN
1070
   392
1070
     0
  0
ENDTAB
  0
TABLE
  2
BLOCK_RECORD
  5
1
330
0
100
AcDbSymbolTable
 70
    56
  0
BLOCK_RECORD
  5
18
102
{ACAD_XDICTIONARY
360
45F
102
}
330
1
100
AcDbSymbolTableRecord
100
AcDbBlockTableRecord
  2
*MODEL_SPACE
340
5CF5
  0
BLOCK_RECORD
  5
15
102
{ACAD_XDICTIONARY
360
5D89
102
}
330
1
100
AcDbSymbolTableRecord
100
AcDbBlockTableRecord
  2
*PAPER_SPACE
340
5CF6
  0
BLOCK_RECORD
  5
639D
330
1
100
AcDbSymbolTableRecord
100
AcDbBlockTableRecord
  2
A$C255C26A2
340
0
  0
BLOCK_RECORD
  5
7C04
330
1
100
AcDbSymbolTableRecord
100
AcDbBlockTableRecord
  2
_Open30
340
0
102
{BLKREFS
331
AAB2
331
AAB3
331
AB8D
331
AB8E
331
AB95
331
AB96
331
AB9E
331
AB9F
331
ABA9
331
ABAA
331
ABB2
331
ABB3
331
ABBB
331
ABBC
331
ABC5
331
ABC6
102
}
  0
BLOCK_RECORD
  5
7C0A
102
{ACAD_XDICTIONARY
360
7C0B
102
}
330
1
100
AcDbSymbolTableRecord
100
AcDbBlockTableRecord
  2
A
340
0
310
2800000020000000200000000100080000000000000400000000000000000000000000000000000000000000000080000080000000808000800000008000800080800000C0C0C000C0DCC000F0CAA6000020400000206000002080000020A0000020C0000020E00000400000004020000040400000406000004080000040A0
310
000040C0000040E00000600000006020000060400000606000006080000060A0000060C0000060E00000800000008020000080400000806000008080000080A0000080C0000080E00000A0000000A0200000A0400000A0600000A0800000A0A00000A0C00000A0E00000C0000000C0200000C0400000C0600000C0800000C0
310
A00000C0C00000C0E00000E0000000E0200000E0400000E0600000E0800000E0A00000E0C00000E0E00040000000400020004000400040006000400080004000A0004000C0004000E00040200000402020004020400040206000402080004020A0004020C0004020E000404000004040200040404000404060004040800040
310
40A0004040C0004040E00040600000406020004060400040606000406080004060A0004060C0004060E00040800000408020004080400040806000408080004080A0004080C0004080E00040A0000040A0200040A0400040A0600040A0800040A0A00040A0C00040A0E00040C0000040C0200040C0400040C0600040C08000
310
40C0A00040C0C00040C0E00040E0000040E0200040E0400040E0600040E0800040E0A00040E0C00040E0E00080000000800020008000400080006000800080008000A0008000C0008000E00080200000802020008020400080206000802080008020A0008020C0008020E00080400000804020008040400080406000804080
310
008040A0008040C0008040E00080600000806020008060400080606000806080008060A0008060C0008060E00080800000808020008080400080806000808080008080A0008080C0008080E00080A0000080A0200080A0400080A0600080A0800080A0A00080A0C00080A0E00080C0000080C0200080C0400080C0600080C0
310
800080C0A00080C0C00080C0E00080E0000080E0200080E0400080E0600080E0800080E0A00080E0C00080E0E000C0000000C0002000C0004000C0006000C0008000C000A000C000C000C000E000C0200000C0202000C0204000C0206000C0208000C020A000C020C000C020E000C0400000C0402000C0404000C0406000C0
310
408000C040A000C040C000C040E000C0600000C0602000C0604000C0606000C0608000C060A000C060C000C060E000C0800000C0802000C0804000C0806000C0808000C080A000C080C000C080E000C0A00000C0A02000C0A04000C0A06000C0A08000C0A0A000C0A0C000C0A0E000C0C00000C0C02000C0C04000C0C06000
310
C0C08000C0C0A000F0FBFF00A4A0A000808080000000FF0000FF000000FFFF00FF000000FF00FF00FFFF0000FFFFFF0000000000000000000000000000000000000000000000000000000000000000000000000000000000000000000000000000000000000000000000000000000000000000000000000000000000000000
310
00000000000000000000000000000000000000000000000000000000000000000000000000000000000000000000000000000000000000000000000000000000000000000000000000000000000000000000000000000000000000000000000000000000000000000000000000000000000000000000000000000000000000
310
00000000000000000000000000000000000000000000000000000000000000000000000000000000000000000000000000000000000000000000000000000000000000000000000000000000000000000000000000000000000000000000000000000000000000000000000000000000000000000000000000000000000000
310
000000000000FDFDFDFDFDFDFDFDFDFDFDFD0000FD0000000000000000000000000000000000FD0000FA0000000000FA00FD0000FDFD00000000000000000000000000000000FD0000FA0000000000FA00FD0000FDFDFD000000000000000000000000000000FD0000FA0000000000FA00FD0000FDFDFDFD00000000000000
310
00000000000000FD0000FAFAFAFAFAFAFA00FD0000FDFDFDFDFD00000000000000000000000000FD000000FA00000000FA00FD0000FDFDFDFDFDFDFDFDFDFDFDFDFDFDFDFDFDFDFD000000FA000000FA0000FD0000FDFDFDFDFD00000000000000000000000000FD00000000FA0000FA0000FD0000FDFDFDFD000000000000
310
0000000000000000FD00000000FA00FA000000FD0000FDFD00000000000000000000000000000000FD0000000000FAFA000000FD0000FD0000000000000000000000000000000000FD0000000000FA00000000FD0000000000000000000000000000000000000000FDFDFDFDFDFDFDFDFDFDFDFD0000000000000000000000
310
00000000000000000000000000000000000000000000000000000000000000000000000000000000000000000000000000000000000000000000000000000000000000000000000000000000000000000000000000000000000000000000000000000000000000000000000000000000000000000000000000000000000000
310
00000000000000000000000000000000000000000000000000000000000000000000000000000000000000000000000000000000000000000000000000000000000000000000000000000000000000000000000000000000000000000000000000000000000000000000000000000000000000000000000000000000000000
310
0000000000000000000000000000000000000000000000000000000000000000000000000000000000000000000000000000000000000000
  0
BLOCK_RECORD
  5
8E72
102
{ACAD_XDICTIONARY
360
8E73
102
}
330
1
100
AcDbSymbolTableRecord
100
AcDbBlockTableRecord
  2
LS
340
0
310
2800000020000000200000000100080000000000000400000000000000000000000000000000000000000000000080000080000000808000800000008000800080800000C0C0C000C0DCC000F0CAA6000020400000206000002080000020A0000020C0000020E00000400000004020000040400000406000004080000040A0
310
000040C0000040E00000600000006020000060400000606000006080000060A0000060C0000060E00000800000008020000080400000806000008080000080A0000080C0000080E00000A0000000A0200000A0400000A0600000A0800000A0A00000A0C00000A0E00000C0000000C0200000C0400000C0600000C0800000C0
310
A00000C0C00000C0E00000E0000000E0200000E0400000E0600000E0800000E0A00000E0C00000E0E00040000000400020004000400040006000400080004000A0004000C0004000E00040200000402020004020400040206000402080004020A0004020C0004020E000404000004040200040404000404060004040800040
310
40A0004040C0004040E00040600000406020004060400040606000406080004060A0004060C0004060E00040800000408020004080400040806000408080004080A0004080C0004080E00040A0000040A0200040A0400040A0600040A0800040A0A00040A0C00040A0E00040C0000040C0200040C0400040C0600040C08000
310
40C0A00040C0C00040C0E00040E0000040E0200040E0400040E0600040E0800040E0A00040E0C00040E0E00080000000800020008000400080006000800080008000A0008000C0008000E00080200000802020008020400080206000802080008020A0008020C0008020E00080400000804020008040400080406000804080
310
008040A0008040C0008040E00080600000806020008060400080606000806080008060A0008060C0008060E00080800000808020008080400080806000808080008080A0008080C0008080E00080A0000080A0200080A0400080A0600080A0800080A0A00080A0C00080A0E00080C0000080C0200080C0400080C0600080C0
310
800080C0A00080C0C00080C0E00080E0000080E0200080E0400080E0600080E0800080E0A00080E0C00080E0E000C0000000C0002000C0004000C0006000C0008000C000A000C000C000C000E000C0200000C0202000C0204000C0206000C0208000C020A000C020C000C020E000C0400000C0402000C0404000C0406000C0
310
408000C040A000C040C000C040E000C0600000C0602000C0604000C0606000C0608000C060A000C060C000C060E000C0800000C0802000C0804000C0806000C0808000C080A000C080C000C080E000C0A00000C0A02000C0A04000C0A06000C0A08000C0A0A000C0A0C000C0A0E000C0C00000C0C02000C0C04000C0C06000
310
C0C08000C0C0A000F0FBFF00A4A0A000808080000000FF0000FF000000FFFF00FF000000FF00FF00FFFF0000FFFFFF00000000000000000000000000000000000000000000000000000000000000000000000000000000000000FBFBFEFBFEFBFBFEFBFEFBFB00000000000000000000000000000000000000FBFBFBFEFBFE
310
FBFBFEFBFEFBFBFB000000000000000000000000000000000000FB0000FE00FE0000FE00FE0000FB000000000000000000000000000000000000FB0000FE00FE0000FE00FE0000FB000000000000000000000000000000000000FB0000FEFEFEFEFEFEFEFE0000FB000000000000000000000000000000000000FB000000FE
310
FE0000FEFE000000FB000000000000000000000000000000000000FB0000000000FEFE0000000000FB000000000000000000000000000000000000FBFBFBFEFBFBFBFBFBFBFEFBFBFB000000000000000000000000000000000000000000FBFE0000000000FE000000000000000000000000000000000000000000000000FB
310
FBFBFBFBFBFEFB000000000000000000000000000000000000000000000000FBFE00000000FEFB000000000000000000000000000000000000000000000000FBFE00000000FEFB000000000000000000000000000000000000000000000000FBFE00000000FEFB000000000000000000000000000000000000000000000000
310
FBFE00000000FEFB000000000000000000000000000000000000000000000000FBFE00000000FEFB000000000000000000000000000000000000000000000000FBFE00000000FEFB000000000000000000000000000000000000000000000000FBFE00000000FEFB0000000000000000000000000000000000000000000000
310
00FBFE00000000FEFB000000000000000000000000000000000000000000000000FBFE00000000FEFB000000000000000000000000000000000000000000000000FBFE00000000FEFB000000000000000000000000000000000000000000000000FBFE00000000FEFB00000000000000000000000000000000000000000000
310
0000FBFE00000000FEFB000000000000000000000000000000000000000000000000FBFE00000000FEFB000000000000000000000000000000000000000000000000FBFE00000000FEFB000000000000000000000000000000000000000000000000FBFE00000000FEFB000000000000000000000000000000000000000000
310
000000FBFE00000000FEFB000000000000000000000000000000000000000000000000FBFE00000000FEFB000000000000000000000000000000000000000000000000FBFEFBFBFBFBFEFB00000000000000000000000000000000000000000000000000FE00000000FEFB0000000000000000000000000000000000000000
310
0000000000FBFBFBFBFBFB000000000000000000000000000000000000000000000000000000000000000000000000000000000000000000
  0
BLOCK_RECORD
  5
9CC6
330
1
100
AcDbSymbolTableRecord
100
AcDbBlockTableRecord
  2
GENAXEH
340
0
  0
BLOCK_RECORD
  5
A397
102
{ACAD_XDICTIONARY
360
A398
102
}
330
1
100
AcDbSymbolTableRecord
100
AcDbBlockTableRecord
  2
A4-1
340
0
1001
ACAD
1000
DesignCenter Data
1002
{
1070
     1
1070
     4
1002
}
  0
BLOCK_RECORD
  5
A7E8
330
1
100
AcDbSymbolTableRecord
100
AcDbBlockTableRecord
  2
*D49
340
0
  0
BLOCK_RECORD
  5
A7F7
330
1
100
AcDbSymbolTableRecord
100
AcDbBlockTableRecord
  2
*D50
340
0
  0
BLOCK_RECORD
  5
A80B
330
1
100
AcDbSymbolTableRecord
100
AcDbBlockTableRecord
  2
*D51
340
0
  0
BLOCK_RECORD
  5
A81A
330
1
100
AcDbSymbolTableRecord
100
AcDbBlockTableRecord
  2
*D52
340
0
  0
BLOCK_RECORD
  5
A827
330
1
100
AcDbSymbolTableRecord
100
AcDbBlockTableRecord
  2
*D53
340
0
  0
BLOCK_RECORD
  5
A985
330
1
100
AcDbSymbolTableRecord
100
AcDbBlockTableRecord
  2
*D54
340
0
  0
ENDTAB
  0
ENDSEC
  0
SECTION
  2
BLOCKS
  0
BLOCK
  5
19
330
18
100
AcDbEntity
  8
0
100
AcDbBlockBegin
  2
*MODEL_SPACE
 70
     0
 10
0.0
 20
0.0
 30
0.0
  3
*MODEL_SPACE
  1

  0
ENDBLK
  5
1A
330
18
100
AcDbEntity
  8
0
100
AcDbBlockEnd
  0
BLOCK
  5
16
330
15
100
AcDbEntity
 67
     1
  8
0
100
AcDbBlockBegin
  2
*PAPER_SPACE
 70
     0
 10
0.0
 20
0.0
 30
0.0
  3
*PAPER_SPACE
  1

  0
ENDBLK
  5
17
330
15
100
AcDbEntity
 67
     1
  8
0
100
AcDbBlockEnd
  0
BLOCK
  5
63A1
330
639D
100
AcDbEntity
  8
0
100
AcDbBlockBegin
  2
A$C255C26A2
 70
     0
 10
0.0
 20
0.0
 30
0.0
  3
A$C255C26A2
  1

  0
LWPOLYLINE
  5
639E
330
639D
100
AcDbEntity
  8
0
100
AcDbPolyline
 90
        3
 70
     1
 43
0.0
 10
7.014806023851633
 20
0.0000006939811783
 10
5.611844869720698
 20
2.430000693981241
 10
8.417767177982568
 20
2.430000693981241
  0
LWPOLYLINE
  5
639F
330
639D
100
AcDbEntity
  8
0
100
AcDbPolyline
 90
        3
 70
     1
 43
0.0
 10
4.20888371558999
 20
0.0000006939811783
 10
2.805922561459283
 20
2.430000693981241
 10
5.611844869720698
 20
2.430000693981241
  0
LWPOLYLINE
  5
63A0
330
639D
100
AcDbEntity
  8
0
100
AcDbPolyline
 90
        3
 70
     1
 43
0.0
 10
1.402961407328348
 20
0.0000006939811783
 10
0.0000002531974133
 20
2.430000693981241
 10
2.805922561459283
 20
2.430000693981241
  0
ENDBLK
  5
63A2
330
639D
100
AcDbEntity
  8
0
100
AcDbBlockEnd
  0
BLOCK
  5
7C05
330
7C04
100
AcDbEntity
  8
0
100
AcDbBlockBegin
  2
_Open30
 70
     0
 10
0.0
 20
0.0
 30
0.0
  3
_Open30
  1

  0
LINE
  5
7C06
330
7C04
100
AcDbEntity
  8
0
  6
ByBlock
 62
     0
370
    -2
100
AcDbLine
 10
-1.0
 20
0.26794919
 30
0.0
 11
0.0
 21
0.0
 31
0.0
  0
LINE
  5
7C07
330
7C04
100
AcDbEntity
  8
0
  6
ByBlock
 62
     0
370
    -2
100
AcDbLine
 10
0.0
 20
0.0
 30
0.0
 11
-1.0
 21
-0.26794919
 31
0.0
  0
LINE
  5
7C08
330
7C04
100
AcDbEntity
  8
0
  6
ByBlock
 62
     0
370
    -2
100
AcDbLine
 10
0.0
 20
0.0
 30
0.0
 11
-1.0
 21
0.0
 31
0.0
  0
ENDBLK
  5
7C09
330
7C04
100
AcDbEntity
  8
0
100
AcDbBlockEnd
  0
BLOCK
  5
7C0E
330
7C0A
100
AcDbEntity
  8
0
100
AcDbBlockBegin
  2
A
 70
     0
 10
0.0
 20
0.0
 30
0.0
  3
A
  1

  0
MTEXT
  5
7C0F
330
7C0A
100
AcDbEntity
  8
mark
 62
     3
100
AcDbMText
 10
10.65641897020822
 20
-5.596245361730467
 30
0.0
 40
2.5
 41
0.0
 71
     5
 72
     1
  1
A
 73
     1
 44
1.0
  0
LWPOLYLINE
  5
7C10
330
7C0A
100
AcDbEntity
  8
mark
100
AcDbPolyline
 90
        4
 70
     1
 43
0.0
 10
9.07926800414657
 20
-7.141145101782569
 10
12.07926800414657
 20
-7.141145101782569
 10
12.07926800414657
 20
-4.141145101782569
 10
9.07926800414657
 20
-4.141145101782569
  0
HATCH
  5
7C11
330
7C0A
100
AcDbEntity
  8
mark
100
AcDbHatch
 10
0.0
 20
0.0
 30
0.0
210
0.0
220
0.0
230
1.0
  2
SOLID
 70
     1
 71
     0
 91
        1
 92
        7
 72
     0
 73
     1
 93
        3
 10
5.32926800414657
 20
-5.641145101782569
 10
4.07926800414657
 20
-4.391145101782541
 10
4.07926800414657
 20
-6.891145101782541
 97
        0
 75
     0
 76
     1
 47
0.0398277943677868
 98
        1
 10
4.589689734415287
 20
-5.732163331855076
450
        0
451
        0
460
0.0
461
0.0
452
        0
462
0.0
453
        0
470

1001
ACAD
1010
0.0
1020
0.0
1030
0.0
  0
LINE
  5
7C12
330
7C0A
100
AcDbEntity
  8
mark
100
AcDbLine
 10
5.32926800414657
 20
-5.641145101782569
 30
0.0
 11
9.07926800414657
 21
-5.641145101782569
 31
0.0
  0
LINE
  5
7C13
330
7C0A
100
AcDbEntity
  8
mark
100
AcDbLine
 10
5.32926800414657
 20
-5.641145101782569
 30
0.0
 11
4.07926800414657
 21
-4.391145101782569
 31
0.0
  0
LINE
  5
7C14
330
7C0A
100
AcDbEntity
  8
mark
100
AcDbLine
 10
5.32926800414657
 20
-5.641145101782569
 30
0.0
 11
4.07926800414657
 21
-6.891145101782569
 31
0.0
  0
ENDBLK
  5
7C15
330
7C0A
100
AcDbEntity
  8
0
100
AcDbBlockEnd
  0
BLOCK
  5
8E76
330
8E72
100
AcDbEntity
  8
0
100
AcDbBlockBegin
  2
LS
 70
     0
 10
0.0
 20
0.0
 30
0.0
  3
LS
  1

  0
LINE
  5
8E78
330
8E72
100
AcDbEntity
  8
contour
100
AcDbLine
 10
310.7457309951603
 20
181.0160360664828
 30
0.0
 11
310.7457309951603
 21
184.7160360664827
 31
0.0
  0
LINE
  5
8E79
330
8E72
100
AcDbEntity
  8
contour
100
AcDbLine
 10
310.7457309951603
 20
184.7160360664827
 30
0.0
 11
303.7457309951603
 21
184.7160360664827
 31
0.0
  0
LINE
  5
8E7A
330
8E72
100
AcDbEntity
  8
contour
100
AcDbLine
 10
308.4457309951603
 20
196.7160360664827
 30
0.0
 11
306.0457309951603
 21
196.7160360664826
 31
0.0
  0
LINE
  5
8E7B
330
8E72
100
AcDbEntity
  8
contour
100
AcDbLine
 10
309.2457309951603
 20
195.9160360664826
 30
0.0
 11
308.4457309951603
 21
196.7160360664826
 31
0.0
  0
LINE
  5
8E7C
330
8E72
100
AcDbEntity
  8
contour
100
AcDbLine
 10
303.7457309951603
 20
184.7160360664827
 30
0.0
 11
303.7457309951603
 21
181.0160360664827
 31
0.0
  0
LINE
  5
8E7D
330
8E72
100
AcDbEntity
  8
contour
100
AcDbLine
 10
304.0457309951603
 20
180.7160360664827
 30
0.0
 11
310.4457309951603
 21
180.7160360664828
 31
0.0
  0
LINE
  5
8E7E
330
8E72
100
AcDbEntity
  8
contour
100
AcDbLine
 10
310.7457309951603
 20
181.0160360664828
 30
0.0
 11
310.4457309951603
 21
180.7160360664828
 31
0.0
  0
LINE
  5
8E7F
330
8E72
100
AcDbEntity
  8
contour
100
AcDbLine
 10
303.7457309951603
 20
181.0160360664827
 30
0.0
 11
304.0457309951603
 21
180.7160360664827
 31
0.0
  0
LINE
  5
8E80
330
8E72
100
AcDbEntity
  8
contour
100
AcDbLine
 10
309.2457309951603
 20
184.7160360664826
 30
0.0
 11
309.2457309951603
 21
195.9160360664827
 31
0.0
  0
LINE
  5
8E81
330
8E72
100
AcDbEntity
  8
contour
100
AcDbLine
 10
305.2457309951603
 20
184.7160360664826
 30
0.0
 11
305.2457309951603
 21
195.9160360664827
 31
0.0
  0
LINE
  5
8E82
330
8E72
100
AcDbEntity
  8
contour
100
AcDbLine
 10
306.0457309951603
 20
196.7160360664826
 30
0.0
 11
305.2457309951603
 21
195.9160360664826
 31
0.0
  0
LINE
  5
8E83
330
8E72
100
AcDbEntity
  8
contour
100
AcDbLine
 10
309.2457309951603
 20
195.9160360664827
 30
0.0
 11
305.2457309951603
 21
195.9160360664827
 31
0.0
  0
LINE
  5
8E84
330
8E72
100
AcDbEntity
  8
contour
 62
     4
100
AcDbLine
 10
308.8667309951603
 20
185.3724833225513
 30
0.0
 11
308.8667309951603
 21
196.2950360664826
 31
0.0
  0
LINE
  5
8E85
330
8E72
100
AcDbEntity
  8
contour
 62
     4
100
AcDbLine
 10
305.6247309951603
 20
185.3724833225513
 30
0.0
 11
305.6247309951603
 21
196.2950360664826
 31
0.0
  0
LINE
  5
8E86
330
8E72
100
AcDbEntity
  8
contour
100
AcDbLine
 10
310.7457309951603
 20
181.0160360664828
 30
0.0
 11
303.7457309951603
 21
181.0160360664828
 31
0.0
  0
LINE
  5
8E87
330
8E72
100
AcDbEntity
  8
bowle
 48
0.1
100
AcDbLine
 10
308.1117563989447
 20
180.7160360664827
 30
0.0
 11
308.1117563989447
 21
182.9160360664827
 31
0.0
  0
LINE
  5
8E88
330
8E72
100
AcDbEntity
  8
bowle
 48
0.1
100
AcDbLine
 10
308.9777818027293
 20
180.7160360664827
 30
0.0
 11
308.9777818027293
 21
182.9160360664827
 31
0.0
  0
LINE
  5
8E89
330
8E72
100
AcDbEntity
  8
bowle
 48
0.1
100
AcDbLine
 10
306.3797055913759
 20
180.7160360664827
 30
0.0
 11
306.3797055913759
 21
182.9160360664826
 31
0.0
  0
LINE
  5
8E8A
330
8E72
100
AcDbEntity
  8
bowle
 48
0.1
100
AcDbLine
 10
305.5136801875914
 20
180.7160360664827
 30
0.0
 11
305.5136801875914
 21
182.9160360664826
 31
0.0
  0
LINE
  5
8E8B
330
8E72
100
AcDbEntity
  8
bowle
 48
0.1
100
AcDbLine
 10
308.9777818027292
 20
182.9160360664827
 30
0.0
 11
305.5136801875914
 21
182.9160360664827
 31
0.0
  0
LINE
  5
8E8C
330
8E72
100
AcDbEntity
  8
bowle
 48
0.1
100
AcDbLine
 10
305.5136801875914
 20
182.9160360664826
 30
0.0
 11
307.2457309951603
 21
183.9160360664826
 31
0.0
  0
LINE
  5
8E8D
330
8E72
100
AcDbEntity
  8
bowle
 48
0.1
100
AcDbLine
 10
308.9777818027292
 20
182.9160360664826
 30
0.0
 11
307.2457309951603
 21
183.9160360664826
 31
0.0
  0
LINE
  5
8E8E
330
8E72
100
AcDbEntity
  8
contour
 62
     4
100
AcDbLine
 10
305.6247309951603
 20
185.3724833225513
 30
0.0
 11
305.2457309951603
 21
184.7160360664826
 31
0.0
  0
LINE
  5
8E8F
330
8E72
100
AcDbEntity
  8
contour
100
AcDbLine
 10
305.2457309951603
 20
185.3724833225513
 30
0.0
 11
309.2457309951603
 21
185.3724833225513
 31
0.0
  0
LINE
  5
8E90
330
8E72
100
AcDbEntity
  8
contour
 62
     4
100
AcDbLine
 10
309.2457309951603
 20
184.7160360664827
 30
0.0
 11
308.8667309951603
 21
185.3724833225513
 31
0.0
  0
ENDBLK
  5
8E77
330
8E72
100
AcDbEntity
  8
0
100
AcDbBlockEnd
  0
BLOCK
  5
9CC8
330
9CC6
100
AcDbEntity
  8
0
100
AcDbBlockBegin
  2
GENAXEH
 70
     0
 10
0.0
 20
0.0
 30
0.0
  3
GENAXEH
  1

  0
LINE
  5
9CC7
330
9CC6
100
AcDbEntity
  8
0
100
AcDbLine
 10
-1.0
 20
0.0
 30
0.0
 11
1.0
 21
0.0
 31
0.0
  0
ENDBLK
  5
9CC9
330
9CC6
100
AcDbEntity
  8
0
100
AcDbBlockEnd
  0
BLOCK
  5
A39A
330
A397
100
AcDbEntity
  8
0
 48
0.8
370
    15
100
AcDbBlockBegin
  2
A4-1
 70
     0
 10
0.0
 20
0.0
 30
0.0
  3
A4-1
  1

  0
LINE
  5
A39B
330
A397
100
AcDbEntity
  8
0
 62
     5
100
AcDbLine
 10
230.217408334927
 20
14.46716126965782
 30
0.0
 11
174.5069028989907
 21
14.46716126965782
 31
0.0
  0
LINE
  5
A39C
330
A397
100
AcDbEntity
  8
0
 62
     5
100
AcDbLine
 10
230.2174083349271
 20
23.16767837502226
 30
0.0
 11
174.5069028989907
 21
23.16767837502226
 31
0.0
  0
LINE
  5
A39D
330
A397
100
AcDbEntity
  8
0
 62
     5
100
AcDbLine
 10
276.7436087962579
 20
36.31443325309096
 30
0.0
 11
81.77838202908549
 21
36.31443325309096
 31
0.0
  0
LINE
  5
A39E
330
A397
100
AcDbEntity
  8
0
 62
     4
100
AcDbLine
 39
0.7
 10
276.7436087962579
 20
36.31443325309096
 30
0.0
 11
81.77838202908549
 21
36.31443325309096
 31
0.0
  0
LINE
  5
A39F
330
A397
100
AcDbEntity
  8
0
 62
     5
100
AcDbLine
 10
230.2174083349271
 20
36.31443325309096
 30
0.0
 11
230.2174083349271
 21
9.423490755382147
 31
0.0
  0
LINE
  5
A3A0
330
A397
100
AcDbEntity
  8
0
 62
     4
100
AcDbLine
 39
0.7
 10
81.77838202908549
 20
36.31443325309096
 30
0.0
 11
81.77838202908549
 21
9.423490755382147
 31
0.0
  0
LINE
  5
A3A1
330
A397
100
AcDbEntity
  8
0
 62
     5
100
AcDbLine
 10
142.9038561259967
 20
36.31443325309096
 30
0.0
 11
142.9038561259967
 21
9.423490755382147
 31
0.0
  0
LINE
  5
A3A2
330
A397
100
AcDbEntity
  8
0
 62
     5
100
AcDbLine
 10
213.9504533856369
 20
36.31443325309096
 30
0.0
 11
213.9504533856369
 21
9.423490755382147
 31
0.0
  0
LINE
  5
A3A3
330
A397
100
AcDbEntity
  8
0
 62
     5
100
AcDbLine
 10
142.9038561259967
 20
36.31443325309096
 30
0.0
 11
142.9038561259967
 21
9.423490755382147
 31
0.0
  0
MTEXT
  5
A3A4
330
A397
100
AcDbEntity
  8
0
100
AcDbMText
 10
52.09857641970632
 20
7.201179977531694
 30
0.0
 40
0.8838383838383839
 41
6.0
 71
     1
 72
     5
  1

 73
     1
 44
1.0
  0
MTEXT
  5
A3A5
330
A397
100
AcDbEntity
  8
0
 62
     5
100
AcDbMText
 10
98.82288556374431
 20
11.66235501480243
 30
0.0
 40
1.131313131313131
 41
0.0
 71
     1
 72
     5
  1
{\f新細明體|b0|i0|c136|p2;EXPLAIN}
 73
     1
 44
1.0
  0
LINE
  5
A3A6
330
A397
100
AcDbEntity
  8
0
 62
     5
100
AcDbLine
 10
158.4606425129406
 20
30.61956275998535
 30
0.0
 11
158.4606425129406
 21
23.16767837502226
 31
0.0
  0
MTEXT
  5
A3A7
330
A397
100
AcDbEntity
  8
0
 62
     5
100
AcDbMText
 10
231.0283193090395
 20
27.10671808364345
 30
0.0
 40
1.32322909090909
 41
0.0
 71
     1
 72
     5
  1
{\fPMingLiU|b0|i0|c136|p2;TYPE NO.}
 73
     1
 44
1.0
  0
MTEXT
  5
A3A8
330
A397
100
AcDbEntity
  8
0
 62
     4
100
AcDbMText
 10
232.6206820190832
 20
13.91245630584558
 30
0.0
 40
2.315834181818182
 41
0.0
 71
     1
 72
     5
  1
{\f新細明體|b0|i0|c136|p2;HSIANG KAI  FU  CO.,  LTD.}
 73
     1
 44
1.0
  0
LWPOLYLINE
  5
A3A9
330
A397
100
AcDbEntity
  8
0
 62
     4
100
AcDbPolyline
 90
        4
 70
     1
 43
0.0
 39
0.7
 10
7.628621603919329
 20
9.423490755382147
 10
7.628621603919327
 20
200.0937165081384
 10
276.7436087962579
 20
200.0937165081384
 10
276.7436087962579
 20
9.423490755382147
  0
MTEXT
  5
A3AA
330
A397
100
AcDbEntity
  8
0
 62
     7
100
AcDbMText
 10
239.2991063025177
 20
33.32791765364395
 30
0.0
 40
1.979345454545454
 41
0.0
 71
     1
 72
     5
  1
{\f新細明體|b0|i0|c136|p2;PRECISION   LOCKNUTS}
 73
     1
 44
1.0
  0
MTEXT
  5
A3AB
330
A397
100
AcDbEntity
  8
0
100
AcDbMText
 10
217.8754786300925
 20
21.74009260787899
 30
0.0
 40
1.590909090909091
 41
0.0
 71
     1
 72
     5
  1
{\fRomantic|b0|i0|c2|p2;SCM440}
 73
     1
 44
1.0
  0
MTEXT
  5
A3AC
330
A397
100
AcDbEntity
  8
0
100
AcDbMText
 10
217.1226873827973
 20
17.33404973155046
 30
0.0
 40
1.590909090909091
 41
0.0
 71
     1
 72
     5
  1
{\fRomantic|b0|i0|c2|p2;HRC28-32}
 73
     1
 44
1.0
  0
MTEXT
  5
A3AD
330
A397
100
AcDbEntity
  8
0
100
AcDbMText
 10
219.9781127101417
 20
26.96593793243194
 30
0.0
 40
2.061818181818181
 41
0.0
 71
     1
 72
     5
  1
{\fRomantic|b0|i0|c2|p2;mm}
 73
     1
 44
1.0
  0
MTEXT
  5
A3AE
330
A397
100
AcDbEntity
  8
0
 62
     4
100
AcDbMText
 10
232.6950689920786
 20
19.03984294867123
 30
0.0
 40
3.859723636363636
 41
0.0
 71
     1
 72
     5
  1
{\fArial Black|b0|i0|c0|p34;NIKKI}
 73
     1
 44
1.0
  0
MTEXT
  5
A3AF
330
A397
100
AcDbEntity
  8
0
 62
     5
100
AcDbMText
 10
231.0283193090395
 20
35.15005777303538
 30
0.0
 40
1.32322909090909
 41
0.0
 71
     1
 72
     5
  1
{\fPMingLiU|b0|i0|c136|p2;TITLE:}
 73
     1
 44
1.0
  0
MTEXT
  5
A3B0
330
A397
100
AcDbEntity
  8
0
 62
     5
100
AcDbMText
 10
203.0600231079758
 20
21.62192593627281
 30
0.0
 40
1.429087418181818
 41
0.0
 71
     1
 72
     5
  1
{\fPMingLiU|b0|i0|c136|p2;MATERIAL}
 73
     1
 44
1.0
  0
MTEXT
  5
A3B1
330
A397
100
AcDbEntity
  8
0
 62
     5
100
AcDbMText
 10
205.3001914547634
 20
26.61797839276295
 30
0.0
 40
1.429087418181818
 41
0.0
 71
     1
 72
     5
  1
{\fPMingLiU|b0|i0|c136|p2;UNIT}
 73
     1
 44
1.0
  0
MTEXT
  5
A3B2
330
A397
100
AcDbEntity
  8
0
 62
     5
100
AcDbMText
 10
205.1168872554573
 20
17.55932396695345
 30
0.0
 40
1.429087418181818
 41
0.0
 71
     1
 72
     5
  1
{\fPMingLiU|b0|i0|c136|p2;HEAT}
 73
     1
 44
1.0
  0
MTEXT
  5
A3B3
330
A397
100
AcDbEntity
  8
0
 62
     5
100
AcDbMText
 10
203.3121893518798
 20
13.95253280778329
 30
0.0
 40
1.3440567168
 41
0.0
 71
     1
 72
     5
  1
{\fPMingLiU|b0|i0|c136|p2;SURFACE}
 73
     1
 44
1.0
  0
LINE
  5
A3B4
330
A397
100
AcDbEntity
  8
0
 62
     5
100
AcDbLine
 10
276.7436087962579
 20
28.21637358106507
 30
0.0
 11
230.2174083349271
 21
28.21637358106507
 31
0.0
  0
LINE
  5
A3B5
330
A397
100
AcDbEntity
  8
0
 62
     5
100
AcDbLine
 10
276.6599075500765
 20
20.55124455954945
 30
0.0
 11
230.1337070887457
 21
20.55124455954945
 31
0.0
  0
LINE
  5
A3B6
330
A397
100
AcDbEntity
  8
0
 62
     5
100
AcDbLine
 10
230.2174083349271
 20
18.67390896566837
 30
0.0
 11
174.5069028989907
 21
18.67390896566837
 31
0.0
  0
MTEXT
  5
A3B7
330
A397
100
AcDbEntity
  8
0
 62
     5
100
AcDbMText
 10
202.5835212177642
 20
11.61683171438094
 30
0.0
 40
1.3099968
 41
0.0
 71
     1
 72
     5
  1
{\fPMingLiU|b0|i0|c136|p2;TREATMENT}
 73
     1
 44
1.0
  0
MTEXT
  5
A3B8
330
A397
100
AcDbEntity
  8
0
 62
     5
100
AcDbMText
 10
204.5442386789007
 20
35.10013977884729
 30
0.0
 40
1.429087418181818
 41
0.0
 71
     1
 72
     5
  1
{\fPMingLiU|b0|i0|c136|p2;SCALE}
 73
     1
 44
1.0
  0
LINE
  5
A3B9
330
A397
100
AcDbEntity
  8
0
 62
     5
100
AcDbLine
 10
201.8318558768918
 20
36.31443325309096
 30
0.0
 11
201.8318558768918
 21
9.423490755382147
 31
0.0
  0
LINE
  5
A3BA
330
A397
100
AcDbEntity
  8
0
 62
     5
100
AcDbLine
 10
230.2174083349271
 20
31.93106038898454
 30
0.0
 11
201.8318558768918
 21
31.93106038898453
 31
0.0
  0
MTEXT
  5
A3BB
330
A397
100
AcDbEntity
  8
0
 62
     5
100
AcDbMText
 10
202.8320338497069
 20
30.8178242173206
 30
0.0
 40
1.429087418181818
 41
0.0
 71
     1
 72
     5
  1
{\fPMingLiU|b0|i0|c136|p2;QUANTITY}
 73
     1
 44
1.0
  0
LINE
  5
A3BC
330
A397
100
AcDbEntity
  8
0
 62
     5
100
AcDbLine
 10
186.3361645349974
 20
36.31443325309096
 30
0.0
 11
186.3361645349974
 21
9.423490755382147
 31
0.0
  0
LINE
  5
A3BD
330
A397
100
AcDbEntity
  8
0
 62
     5
100
AcDbLine
 10
174.5069028989907
 20
36.31443325309096
 30
0.0
 11
174.5069028989907
 21
9.423490755382147
 31
0.0
  0
LINE
  5
A3BE
330
A397
100
AcDbEntity
  8
0
 62
     5
100
AcDbLine
 10
169.0890530427488
 20
30.61956275998535
 30
0.0
 11
169.0890530427488
 21
23.16767837502226
 31
0.0
  0
MTEXT
  5
A3BF
330
A397
100
AcDbEntity
  8
0
 62
     5
100
AcDbMText
 10
175.7229640775444
 20
21.67264136890537
 30
0.0
 40
1.429087418181818
 41
0.0
 71
     1
 72
     5
  1
{\fPMingLiU|b0|i0|c136|p2;DRAWER}
 73
     1
 44
1.0
  0
MTEXT
  5
A3C0
330
A397
100
AcDbEntity
  8
0
 62
     5
100
AcDbMText
 10
175.006037505883
 20
12.83915587928981
 30
0.0
 40
1.429087418181818
 41
0.0
 71
     1
 72
     5
  1
{\fPMingLiU|b0|i0|c136|p2;APPROVED}
 73
     1
 44
1.0
  0
LINE
  5
A3C1
330
A397
100
AcDbEntity
  8
0
 62
     5
100
AcDbLine
 10
230.2174083349271
 20
27.61951629559429
 30
0.0
 11
174.5069028989907
 21
27.61951629559428
 31
0.0
  0
MTEXT
  5
A3C2
330
A397
100
AcDbEntity
  8
0
 62
     5
100
AcDbMText
 10
177.3010893694832
 20
17.48785630108154
 30
0.0
 40
1.429087418181818
 41
0.0
 71
     1
 72
     5
  1
{\fPMingLiU|b0|i0|c136|p2;DATE}
 73
     1
 44
1.0
  0
MTEXT
  5
A3C3
330
A397
100
AcDbEntity
  8
0
100
AcDbMText
 10
221.0535001315969
 20
31.02456738381228
 30
0.0
 40
2.061818181818181
 41
0.0
 71
     1
 72
     5
  1
{\fRomantic|b0|i0|c2|p2;1}
 73
     1
 44
1.0
  0
MTEXT
  5
A3C4
330
A397
100
AcDbEntity
  8
0
 62
     5
100
AcDbMText
 10
176.9178390985407
 20
34.56475675900743
 30
0.0
 40
1.429087418181818
 41
0.0
 71
     1
 72
     5
  1
{\fPMingLiU|b0|i0|c136|p2;THIRD}
 73
     1
 44
1.0
  0
MTEXT
  5
A3C5
330
A397
100
AcDbEntity
  8
0
 62
     5
100
AcDbMText
 10
176.9178390985407
 20
31.34172768692878
 30
0.0
 40
1.429087418181818
 41
0.0
 71
     1
 72
     5
  1
{\fPMingLiU|b0|i0|c136|p2;ANGLE}
 73
     1
 44
1.0
  0
LINE
  5
A3C6
330
A397
100
AcDbEntity
  8
0
 62
     5
100
AcDbLine
 10
174.5069028989907
 20
30.61956275998535
 30
0.0
 11
142.9038561259967
 21
30.61956275998535
 31
0.0
  0
LINE
  5
A3C7
330
A397
100
AcDbEntity
  8
0
 48
0.8
100
AcDbLine
 10
188.2047449454813
 20
31.80734890957837
 30
0.0
 11
193.2767826339444
 21
31.80734890957837
 31
0.0
  0
LINE
  5
A3C8
330
A397
100
AcDbEntity
  8
0
 48
0.8
100
AcDbLine
 10
190.6545310142052
 20
34.26751799671216
 30
0.0
 11
190.6545310142052
 21
29.3471798224445
 31
0.0
  0
CIRCLE
  5
A3C9
330
A397
100
AcDbEntity
  8
0
 48
0.8
100
AcDbCircle
 10
190.6545310142052
 20
31.80734890957837
 30
0.0
 40
1.76486420543606
  0
CIRCLE
  5
A3CA
330
A397
100
AcDbEntity
  8
0
 48
0.8
100
AcDbCircle
 10
190.6545310142052
 20
31.80734890957837
 30
0.0
 40
0.7692225632165219
  0
LINE
  5
A3CB
330
A397
100
AcDbEntity
  8
0
 48
0.8
100
AcDbLine
 10
195.198853777746
 20
32.57657147279488
 30
0.0
 11
195.198853777746
 21
31.03812634636185
 31
0.0
  0
LINE
  5
A3CC
330
A397
100
AcDbEntity
  8
0
 48
0.8
100
AcDbLine
 10
194.4170988130979
 20
31.80734890957837
 30
0.0
 11
200.0426258639385
 21
31.80734890957837
 31
0.0
  0
LINE
  5
A3CD
330
A397
100
AcDbEntity
  8
0
 48
0.8
100
AcDbLine
 10
199.0024970528553
 20
33.57221311501443
 30
0.0
 11
199.0024970528553
 21
30.04248470414231
 31
0.0
  0
LINE
  5
A3CE
330
A397
100
AcDbEntity
  8
0
 48
0.8
100
AcDbLine
 10
195.198853777746
 20
32.57657147279489
 30
0.0
 11
199.0024970528553
 21
33.57221311501443
 31
0.0
  0
LINE
  5
A3CF
330
A397
100
AcDbEntity
  8
0
 48
0.8
100
AcDbLine
 10
195.198853777746
 20
31.03812634636184
 30
0.0
 11
199.0024970528553
 21
30.04248470414231
 31
0.0
  0
MTEXT
  5
A3D0
330
A397
100
AcDbEntity
  8
0
 62
     5
100
AcDbMText
 10
148.7138573572125
 20
35.21063448522444
 30
0.0
 40
1.10668529664
 41
0.0
 71
     1
 72
     5
  1
{\fPMingLiU|b0|i0|c136|p2;PERMISSIBLE MACHINING}
 73
     1
 44
1.0
  0
MTEXT
  5
A3D1
330
A397
100
AcDbEntity
  8
0
 62
     5
100
AcDbMText
 10
143.1916534460237
 20
25.96538389267085
 30
0.0
 40
1.143269934545454
 41
0.0
 71
     1
 72
     5
  1
{\fPMingLiU|b0|i0|c136|p2;%%P0.05}
 73
     1
 44
1.0
  0
MTEXT
  5
A3D2
330
A397
100
AcDbEntity
  8
0
 62
     5
100
AcDbMText
 10
148.7006519998089
 20
26.04204543382372
 30
0.0
 40
1.143269934545454
 41
0.0
 71
     1
 72
     5
  1
{\fPMingLiU|b0|i0|c136|p2;%%P0.1}
 73
     1
 44
1.0
  0
MTEXT
  5
A3D3
330
A397
100
AcDbEntity
  8
0
 62
     5
100
AcDbMText
 10
153.9840414006111
 20
25.90756347618583
 30
0.0
 40
1.143269934545454
 41
0.0
 71
     1
 72
     5
  1
{\fPMingLiU|b0|i0|c136|p2;%%P0.2}
 73
     1
 44
1.0
  0
LINE
  5
A3D4
330
A397
100
AcDbEntity
  8
0
 62
     5
100
AcDbLine
 10
147.6682545583534
 20
30.61956275998535
 30
0.0
 11
147.6682545583534
 21
23.16767837502226
 31
0.0
  0
LINE
  5
A3D5
330
A397
100
AcDbEntity
  8
0
 62
     5
100
AcDbLine
 10
152.8769092768149
 20
30.61956275998535
 30
0.0
 11
152.8769092768149
 21
23.16767837502226
 31
0.0
  0
LINE
  5
A3D6
330
A397
100
AcDbEntity
  8
0
 62
     5
100
AcDbLine
 10
163.7721145446809
 20
30.61956275998535
 30
0.0
 11
163.7721145446809
 21
23.16767837502226
 31
0.0
  0
LINE
  5
A3D7
330
A397
100
AcDbEntity
  8
0
 62
     5
100
AcDbLine
 10
174.5069028989907
 20
27.02629093248527
 30
0.0
 11
142.9038561259967
 21
27.02629093248527
 31
0.0
  0
LINE
  5
A3D8
330
A397
100
AcDbEntity
  8
0
 62
     5
100
AcDbLine
 10
174.5069028989907
 20
16.61298322188565
 30
0.0
 11
142.9038561259967
 21
16.61298322188565
 31
0.0
  0
LINE
  5
A3D9
330
A397
100
AcDbEntity
  8
0
 62
     5
100
AcDbLine
 10
174.5069028989907
 20
13.24934181817684
 30
0.0
 11
142.9038561259967
 21
13.24934181817684
 31
0.0
  0
MTEXT
  5
A3DA
330
A397
100
AcDbEntity
  8
0
 62
     5
100
AcDbMText
 10
144.0455651815477
 20
29.56710565453926
 30
0.0
 40
1.143269934545454
 41
0.0
 71
     1
 72
     5
  1
{\fPMingLiU|b0|i0|c136|p2;>0}
 73
     1
 44
1.0
  0
MTEXT
  5
A3DB
330
A397
100
AcDbEntity
  8
0
 62
     5
100
AcDbMText
 10
149.3199051932621
 20
29.56710565453926
 30
0.0
 40
1.143269934545454
 41
0.0
 71
     1
 72
     5
  1
{\fPMingLiU|b0|i0|c136|p2;>6}
 73
     1
 44
1.0
  0
MTEXT
  5
A3DC
330
A397
100
AcDbEntity
  8
0
 62
     5
100
AcDbMText
 10
154.8003514482356
 20
29.56710565453926
 30
0.0
 40
1.143269934545454
 41
0.0
 71
     1
 72
     5
  1
{\fPMingLiU|b0|i0|c136|p2;>30}
 73
     1
 44
1.0
  0
MTEXT
  5
A3DD
330
A397
100
AcDbEntity
  8
0
 62
     5
100
AcDbMText
 10
159.5116054772021
 20
29.56710565453926
 30
0.0
 40
1.143269934545454
 41
0.0
 71
     1
 72
     5
  1
{\fPMingLiU|b0|i0|c136|p2;>100}
 73
     1
 44
1.0
  0
MTEXT
  5
A3DE
330
A397
100
AcDbEntity
  8
0
 62
     5
100
AcDbMText
 10
164.8701982538038
 20
29.56710565453926
 30
0.0
 40
1.143269934545454
 41
0.0
 71
     1
 72
     5
  1
{\fPMingLiU|b0|i0|c136|p2;>300}
 73
     1
 44
1.0
  0
MTEXT
  5
A3DF
330
A397
100
AcDbEntity
  8
0
 62
     5
100
AcDbMText
 10
169.8908464815969
 20
29.56710565453926
 30
0.0
 40
1.143269934545454
 41
0.0
 71
     1
 72
     5
  1
{\fPMingLiU|b0|i0|c136|p2;>1000}
 73
     1
 44
1.0
  0
MTEXT
  5
A3E0
330
A397
100
AcDbEntity
  8
0
 62
     5
100
AcDbMText
 10
159.5677736623221
 20
25.96613860985127
 30
0.0
 40
1.143269934545454
 41
0.0
 71
     1
 72
     5
  1
{\fPMingLiU|b0|i0|c136|p2;%%P0.3}
 73
     1
 44
1.0
  0
MTEXT
  5
A3E1
330
A397
100
AcDbEntity
  8
0
 62
     5
100
AcDbMText
 10
165.0106182293963
 20
25.84898744430797
 30
0.0
 40
1.143269934545454
 41
0.0
 71
     1
 72
     5
  1
{\fPMingLiU|b0|i0|c136|p2;%%P0.5}
 73
     1
 44
1.0
  0
MTEXT
  5
A3E2
330
A397
100
AcDbEntity
  8
0
 62
     5
100
AcDbMText
 10
170.4915322034145
 20
25.85481234972798
 30
0.0
 40
1.143269934545454
 41
0.0
 71
     1
 72
     5
  1
{\fPMingLiU|b0|i0|c136|p2;%%P0.6}
 73
     1
 44
1.0
  0
LINE
  5
A3E3
330
A397
100
AcDbEntity
  8
0
 62
     5
100
AcDbLine
 10
174.5069028989907
 20
23.16767837502226
 30
0.0
 11
142.9038561259967
 21
23.16767837502226
 31
0.0
  0
MTEXT
  5
A3E4
330
A397
100
AcDbEntity
  8
0
 62
     5
100
AcDbMText
 10
150.6577402121705
 20
21.57194924469566
 30
0.0
 40
1.108403677082419
 41
0.0
 71
     1
 72
     5
  1
{\fPMingLiU|b0|i0|c136|p2;PERMISSIBLE ANGLE  }
 73
     1
 44
1.0
  0
LINE
  5
A3E5
330
A397
100
AcDbEntity
  8
0
 62
     5
100
AcDbLine
 10
150.681486753489
 20
16.61298322188565
 30
0.0
 11
150.681486753489
 21
9.423490755382147
 31
0.0
  0
LINE
  5
A3E6
330
A397
100
AcDbEntity
  8
0
 62
     5
100
AcDbLine
 10
158.6280440308887
 20
16.61298322188565
 30
0.0
 11
158.6280440308886
 21
9.423490755382147
 31
0.0
  0
LINE
  5
A3E7
330
A397
100
AcDbEntity
  8
0
 62
     5
100
AcDbLine
 10
166.410623883509
 20
16.61298322188565
 30
0.0
 11
166.410623883509
 21
9.423490755382147
 31
0.0
  0
MTEXT
  5
A3E8
330
A397
100
AcDbEntity
  8
0
 62
     5
100
AcDbMText
 10
145.2004755590572
 20
12.19465362345721
 30
0.0
 40
1.143269934545454
 41
0.0
 71
     1
 72
     5
  1
{\fPMingLiU|b0|i0|c136|p2;%%P0.1%%D}
 73
     1
 44
1.0
  0
MTEXT
  5
A3E9
330
A397
100
AcDbEntity
  8
0
 62
     5
100
AcDbMText
 10
145.3010790021937
 20
15.58575218203958
 30
0.0
 40
1.143269934545454
 41
0.0
 71
     1
 72
     5
  1
{\fPMingLiU|b0|i0|c136|p2;<10}
 73
     1
 44
1.0
  0
MTEXT
  5
A3EA
330
A397
100
AcDbEntity
  8
0
 62
     5
100
AcDbMText
 10
146.7159664540418
 20
33.16749776112536
 30
0.0
 40
1.10668529664
 41
0.0
 71
     1
 72
     5
  1
{\fPMingLiU|b0|i0|c136|p2;BASIC DIMENSION DEVIATIONS}
 73
     1
 44
1.0
  0
MTEXT
  5
A3EB
330
A397
100
AcDbEntity
  8
0
 62
     5
100
AcDbMText
 10
153.1520598417659
 20
12.19465362345721
 30
0.0
 40
1.143269934545454
 41
0.0
 71
     1
 72
     5
  1
{\fPMingLiU|b0|i0|c136|p2;%%P30%%D}
 73
     1
 44
1.0
  0
MTEXT
  5
A3EC
330
A397
100
AcDbEntity
  8
0
 62
     5
100
AcDbMText
 10
153.2526632849024
 20
15.58575218203958
 30
0.0
 40
1.143269934545454
 41
0.0
 71
     1
 72
     5
  1
{\fPMingLiU|b0|i0|c136|p2;10-50}
 73
     1
 44
1.0
  0
MTEXT
  5
A3ED
330
A397
100
AcDbEntity
  8
0
 62
     5
100
AcDbMText
 10
161.2710466168375
 20
12.19465362345721
 30
0.0
 40
1.143269934545454
 41
0.0
 71
     1
 72
     5
  1
{\fPMingLiU|b0|i0|c136|p2;%%P20%%D}
 73
     1
 44
1.0
  0
MTEXT
  5
A3EE
330
A397
100
AcDbEntity
  8
0
 62
     5
100
AcDbMText
 10
159.8650334751988
 20
15.58575218203958
 30
0.0
 40
1.143269934545454
 41
0.0
 71
     1
 72
     5
  1
{\fPMingLiU|b0|i0|c136|p2;50-100}
 73
     1
 44
1.0
  0
MTEXT
  5
A3EF
330
A397
100
AcDbEntity
  8
0
 62
     5
100
AcDbMText
 10
168.8878278636504
 20
12.19465362345721
 30
0.0
 40
1.143269934545454
 41
0.0
 71
     1
 72
     5
  1
{\fPMingLiU|b0|i0|c136|p2;%%P10%%D}
 73
     1
 44
1.0
  0
MTEXT
  5
A3F0
330
A397
100
AcDbEntity
  8
0
 62
     5
100
AcDbMText
 10
168.9884313067869
 20
15.58575218203958
 30
0.0
 40
1.143269934545454
 41
0.0
 71
     1
 72
     5
  1
{\fPMingLiU|b0|i0|c136|p2;100<}
 73
     1
 44
1.0
  0
LINE
  5
A3F1
330
A397
100
AcDbEntity
  8
0
 62
     5
100
AcDbLine
 10
142.9038561259967
 20
12.42634021691577
 30
0.0
 11
81.77838202908549
 21
12.42634021691577
 31
0.0
  0
LINE
  5
A3F2
330
A397
100
AcDbEntity
  8
0
 62
     5
100
AcDbLine
 10
86.33151271564589
 20
36.31443325309096
 30
0.0
 11
86.33151271564589
 21
9.423490755382147
 31
0.0
  0
LINE
  5
A3F3
330
A397
100
AcDbEntity
  8
0
 62
     5
100
AcDbLine
 10
135.2888928214914
 20
36.31443325309096
 30
0.0
 11
135.2888928214914
 21
9.423490755382147
 31
0.0
  0
LINE
  5
A3F4
330
A397
100
AcDbEntity
  8
0
 62
     5
100
AcDbLine
 10
124.6971524391537
 20
36.31443325309096
 30
0.0
 11
124.6971524391537
 21
9.423490755382147
 31
0.0
  0
MTEXT
  5
A3F5
330
A397
100
AcDbEntity
  8
0
 62
     5
100
AcDbMText
 10
136.9112322856071
 20
11.8528888000372
 30
0.0
 40
1.143269934545454
 41
0.0
 71
     1
 72
     5
  1
{\fPMingLiU|b0|i0|c136|p2;DATE}
 73
     1
 44
1.0
  0
MTEXT
  5
A3F6
330
A397
100
AcDbEntity
  8
0
 62
     5
100
AcDbMText
 10
125.2131038141228
 20
11.73162228020629
 30
0.0
 40
1.143269934545454
 41
0.0
 71
     1
 72
     5
  1
{\fPMingLiU|b0|i0|c136|p2;APPROVED}
 73
     1
 44
1.0
  0
MTEXT
  5
A3F7
330
A397
100
AcDbEntity
  8
0
 62
     5
100
AcDbMText
 10
83.08151214955557
 20
11.73162228020629
 30
0.0
 40
1.143269934545454
 41
0.0
 71
     1
 72
     5
  1
{\fPMingLiU|b0|i0|c136|p2;N0.}
 73
     1
 44
1.0
  0
LINE
  5
A3F8
330
A397
100
AcDbEntity
  8
0
 62
     5
100
AcDbLine
 10
142.9038561259967
 20
15.4291896784494
 30
0.0
 11
81.77838202908549
 21
15.4291896784494
 31
0.0
  0
LINE
  5
A3F9
330
A397
100
AcDbEntity
  8
0
 62
     5
100
AcDbLine
 10
142.9038561259967
 20
18.43203913998303
 30
0.0
 11
81.77838202908549
 21
18.43203913998303
 31
0.0
  0
LINE
  5
A3FA
330
A397
100
AcDbEntity
  8
0
 62
     5
100
AcDbLine
 10
142.9038561259967
 20
21.43488860151666
 30
0.0
 11
81.77838202908549
 21
21.43488860151666
 31
0.0
  0
LINE
  5
A3FB
330
A397
100
AcDbEntity
  8
0
 62
     5
100
AcDbLine
 10
142.9038561259967
 20
24.43773806305029
 30
0.0
 11
81.77838202908549
 21
24.43773806305029
 31
0.0
  0
LINE
  5
A3FC
330
A397
100
AcDbEntity
  8
0
 62
     5
100
AcDbLine
 10
142.9038561259967
 20
27.44058752458392
 30
0.0
 11
81.77838202908549
 21
27.44058752458392
 31
0.0
  0
LINE
  5
A3FD
330
A397
100
AcDbEntity
  8
0
 62
     5
100
AcDbLine
 10
142.9038561259967
 20
30.44343698611755
 30
0.0
 11
81.77838202908549
 21
30.44343698611755
 31
0.0
  0
LINE
  5
A3FE
330
A397
100
AcDbEntity
  8
0
 62
     5
100
AcDbLine
 10
142.9038561259967
 20
33.44628644765118
 30
0.0
 11
81.77838202908549
 21
33.44628644765118
 31
0.0
  0
MTEXT
  5
A3FF
330
A397
100
AcDbEntity
  8
0
 62
     5
100
AcDbMText
 10
149.2834273422318
 20
19.34410545862582
 30
0.0
 40
1.10668529664
 41
0.0
 71
     1
 72
     5
  1
{\fPMingLiU|b0|i0|c136|p2;DIMENSION DEVIATIONS}
 73
     1
 44
1.0
  0
ENDBLK
  5
A400
330
A397
100
AcDbEntity
  8
0
 48
0.8
370
    15
100
AcDbBlockEnd
  0
BLOCK
  5
A7E9
330
A7E8
100
AcDbEntity
  8
0
100
AcDbBlockBegin
  2
*D49
 70
     1
 10
0.0
 20
0.0
 30
0.0
  3
*D49
  1

  0
LINE
  5
AB90
330
A7E8
100
AcDbEntity
  8
mark
  6
ByBlock
440
 16777216
370
    -2
100
AcDbLine
 10
32.1
 20
66.7682263743358
 30
0.0
 11
26.03187258601677
 21
66.76822637433581
 31
0.0
  0
LINE
  5
AB91
330
A7E8
100
AcDbEntity
  8
mark
  6
ByBlock
440
 16777216
370
    -2
100
AcDbLine
 10
30.59999999999995
 20
63.76822637433576
 30
0.0
 11
26.03187258601677
 21
63.76822637433576
 31
0.0
  0
LINE
  5
AB92
330
A7E8
100
AcDbEntity
  8
mark
  6
ByBlock
440
 16777216
370
    -2
100
AcDbLine
 10
26.43187258601677
 20
68.01822637433581
 30
0.0
 11
26.43187258601677
 21
69.26822637433581
 31
0.0
  0
LINE
  5
AB93
330
A7E8
100
AcDbEntity
  8
mark
  6
ByBlock
440
 16777216
370
    -2
100
AcDbLine
 10
26.43187258601677
 20
62.51822637433576
 30
0.0
 11
26.43187258601677
 21
61.26822637433576
 31
0.0
  0
LINE
  5
AB94
330
A7E8
100
AcDbEntity
  8
mark
  6
ByBlock
440
 16777216
370
    -2
100
AcDbLine
 10
26.43187258601677
 20
66.76822637433581
 30
0.0
 11
26.43187258601677
 21
63.76822637433576
 31
0.0
  0
INSERT
  5
AB95
330
A7E8
100
AcDbEntity
  8
mark
440
 16777216
370
    -2
100
AcDbBlockReference
  2
_Open30
 10
26.43187258601677
 20
66.76822637433581
 30
0.0
 41
1.25
 42
1.25
 43
1.25
 50
270.0
  0
INSERT
  5
AB96
330
A7E8
100
AcDbEntity
  8
mark
440
 16777216
370
    -2
100
AcDbBlockReference
  2
_Open30
 10
26.43187258601677
 20
63.76822637433576
 30
0.0
 41
1.25
 42
1.25
 43
1.25
 50
90.0
  0
MTEXT
  5
AB97
330
A7E8
100
AcDbEntity
  8
mark
 62
     3
440
 16777216
100
AcDbMText
 10
25.40687258601676
 20
65.26822637433579
 30
0.0
 40
1.25
 41
0.0
 71
     5
 72
     1
  1
\A1;3
 11
0.0000000000000001
 21
1.0
 31
0.0
 73
     1
 44
1.0
  0
POINT
  5
AB98
330
A7E8
100
AcDbEntity
  8
DEFPOINTS
 62
     0
440
 16777216
100
AcDbPoint
 10
32.5
 20
66.7682263743358
 30
0.0
  0
POINT
  5
AB99
330
A7E8
100
AcDbEntity
  8
DEFPOINTS
 62
     0
440
 16777216
100
AcDbPoint
 10
30.99999999999994
 20
63.76822637433576
 30
0.0
  0
POINT
  5
AB9A
330
A7E8
100
AcDbEntity
  8
DEFPOINTS
 62
     0
440
 16777216
100
AcDbPoint
 10
26.43187258601677
 20
63.76822637433576
 30
0.0
  0
ENDBLK
  5
A7EA
330
A7E8
100
AcDbEntity
  8
0
100
AcDbBlockEnd
  0
BLOCK
  5
A7F8
330
A7F7
100
AcDbEntity
  8
0
100
AcDbBlockBegin
  2
*D50
 70
     1
 10
0.0
 20
0.0
 30
0.0
  3
*D50
  1

  0
LINE
  5
AB9B
330
A7F7
100
AcDbEntity
  8
mark
  6
ByBlock
440
 16777216
370
    -2
100
AcDbLine
 10
62.9
 20
66.76822637433578
 30
0.0
 11
68.94579444979925
 21
66.76822637433578
 31
0.0
  0
LINE
  5
AB9C
330
A7F7
100
AcDbEntity
  8
mark
  6
ByBlock
440
 16777216
370
    -2
100
AcDbLine
 10
62.9
 20
61.16822637433583
 30
0.0
 11
68.94579444979925
 21
61.16822637433583
 31
0.0
  0
LINE
  5
AB9D
330
A7F7
100
AcDbEntity
  8
mark
  6
ByBlock
440
 16777216
370
    -2
100
AcDbLine
 10
68.54579444979925
 20
65.51822637433578
 30
0.0
 11
68.54579444979925
 21
62.41822637433583
 31
0.0
  0
INSERT
  5
AB9E
330
A7F7
100
AcDbEntity
  8
mark
440
 16777216
370
    -2
100
AcDbBlockReference
  2
_Open30
 10
68.54579444979925
 20
66.76822637433578
 30
0.0
 41
1.25
 42
1.25
 43
1.25
 50
90.0
  0
INSERT
  5
AB9F
330
A7F7
100
AcDbEntity
  8
mark
440
 16777216
370
    -2
100
AcDbBlockReference
  2
_Open30
 10
68.54579444979925
 20
61.16822637433583
 30
0.0
 41
1.25
 42
1.25
 43
1.25
 50
270.0
  0
MTEXT
  5
ABA0
330
A7F7
100
AcDbEntity
  8
mark
 62
     3
440
 16777216
100
AcDbMText
 10
67.52079444979923
 20
63.96822637433581
 30
0.0
 40
1.25
 41
0.0
 71
     5
 72
     1
  1
\A1;5.6
 11
0.0000000000000001
 21
1.0
 31
0.0
 73
     1
 44
1.0
  0
POINT
  5
ABA1
330
A7F7
100
AcDbEntity
  8
DEFPOINTS
 62
     0
440
 16777216
100
AcDbPoint
 10
62.5
 20
66.76822637433578
 30
0.0
  0
POINT
  5
ABA2
330
A7F7
100
AcDbEntity
  8
DEFPOINTS
 62
     0
440
 16777216
100
AcDbPoint
 10
62.5
 20
61.16822637433583
 30
0.0
  0
POINT
  5
ABA3
330
A7F7
100
AcDbEntity
  8
DEFPOINTS
 62
     0
440
 16777216
100
AcDbPoint
 10
68.54579444979925
 20
61.16822637433583
 30
0.0
  0
ENDBLK
  5
A7F9
330
A7F7
100
AcDbEntity
  8
0
100
AcDbBlockEnd
  0
BLOCK
  5
A80C
330
A80B
100
AcDbEntity
  8
0
100
AcDbBlockBegin
  2
*D51
 70
     1
 10
0.0
 20
0.0
 30
0.0
  3
*D51
  1

  0
LINE
  5
ABA4
330
A80B
100
AcDbEntity
  8
mark
  6
ByBlock
440
 16777216
370
    -2
100
AcDbLine
 10
62.9
 20
61.16822637433583
 30
0.0
 11
68.94579444979925
 21
61.16822637433583
 31
0.0
  0
LINE
  5
ABA5
330
A80B
100
AcDbEntity
  8
mark
  6
ByBlock
440
 16777216
370
    -2
100
AcDbLine
 10
63.9
 20
59.16822637433583
 30
0.0
 11
68.94579444979925
 21
59.16822637433583
 31
0.0
  0
LINE
  5
ABA6
330
A80B
100
AcDbEntity
  8
mark
  6
ByBlock
440
 16777216
370
    -2
100
AcDbLine
 10
68.54579444979925
 20
62.41822637433583
 30
0.0
 11
68.54579444979925
 21
63.66822637433583
 31
0.0
  0
LINE
  5
ABA7
330
A80B
100
AcDbEntity
  8
mark
  6
ByBlock
440
 16777216
370
    -2
100
AcDbLine
 10
68.54579444979925
 20
57.91822637433583
 30
0.0
 11
68.54579444979925
 21
56.66822637433583
 31
0.0
  0
LINE
  5
ABA8
330
A80B
100
AcDbEntity
  8
mark
  6
ByBlock
440
 16777216
370
    -2
100
AcDbLine
 10
68.54579444979925
 20
61.16822637433583
 30
0.0
 11
68.54579444979925
 21
59.16822637433583
 31
0.0
  0
INSERT
  5
ABA9
330
A80B
100
AcDbEntity
  8
mark
440
 16777216
370
    -2
100
AcDbBlockReference
  2
_Open30
 10
68.54579444979925
 20
61.16822637433583
 30
0.0
 41
1.25
 42
1.25
 43
1.25
 50
270.0
  0
INSERT
  5
ABAA
330
A80B
100
AcDbEntity
  8
mark
440
 16777216
370
    -2
100
AcDbBlockReference
  2
_Open30
 10
68.54579444979925
 20
59.16822637433583
 30
0.0
 41
1.25
 42
1.25
 43
1.25
 50
90.0
  0
MTEXT
  5
ABAB
330
A80B
100
AcDbEntity
  8
mark
 62
     3
440
 16777216
100
AcDbMText
 10
67.52079444979923
 20
60.16822637433584
 30
0.0
 40
1.25
 41
0.0
 71
     5
 72
     1
  1
\A1;2
 11
0.0000000000000001
 21
1.0
 31
0.0
 73
     1
 44
1.0
  0
POINT
  5
ABAC
330
A80B
100
AcDbEntity
  8
DEFPOINTS
 62
     0
440
 16777216
100
AcDbPoint
 10
62.5
 20
61.16822637433583
 30
0.0
  0
POINT
  5
ABAD
330
A80B
100
AcDbEntity
  8
DEFPOINTS
 62
     0
440
 16777216
100
AcDbPoint
 10
63.5
 20
59.16822637433583
 30
0.0
  0
POINT
  5
ABAE
330
A80B
100
AcDbEntity
  8
DEFPOINTS
 62
     0
440
 16777216
100
AcDbPoint
 10
68.54579444979925
 20
59.16822637433583
 30
0.0
  0
ENDBLK
  5
A80D
330
A80B
100
AcDbEntity
  8
0
100
AcDbBlockEnd
  0
BLOCK
  5
A81B
330
A81A
100
AcDbEntity
  8
0
100
AcDbBlockBegin
  2
*D52
 70
     1
 10
0.0
 20
0.0
 30
0.0
  3
*D52
  1

  0
LINE
  5
ABAF
330
A81A
100
AcDbEntity
  8
mark
  6
ByBlock
440
 16777216
370
    -2
100
AcDbLine
 10
62.9
 20
66.76822637433578
 30
0.0
 11
74.21544216897522
 21
66.76822637433578
 31
0.0
  0
LINE
  5
ABB0
330
A81A
100
AcDbEntity
  8
mark
  6
ByBlock
440
 16777216
370
    -2
100
AcDbLine
 10
63.93219113899899
 20
50.76926371985156
 30
0.0
 11
74.21544216897522
 21
50.76926371985156
 31
0.0
  0
LINE
  5
ABB1
330
A81A
100
AcDbEntity
  8
mark
  6
ByBlock
440
 16777216
370
    -2
100
AcDbLine
 10
73.81544216897521
 20
65.51822637433578
 30
0.0
 11
73.81544216897521
 21
52.01926371985156
 31
0.0
  0
INSERT
  5
ABB2
330
A81A
100
AcDbEntity
  8
mark
440
 16777216
370
    -2
100
AcDbBlockReference
  2
_Open30
 10
73.81544216897521
 20
66.76822637433578
 30
0.0
 41
1.25
 42
1.25
 43
1.25
 50
90.0
  0
INSERT
  5
ABB3
330
A81A
100
AcDbEntity
  8
mark
440
 16777216
370
    -2
100
AcDbBlockReference
  2
_Open30
 10
73.81544216897521
 20
50.76926371985156
 30
0.0
 41
1.25
 42
1.25
 43
1.25
 50
270.0
  0
MTEXT
  5
ABB4
330
A81A
100
AcDbEntity
  8
mark
 62
     3
440
 16777216
100
AcDbMText
 10
72.79044216897519
 20
58.76874504709368
 30
0.0
 40
1.25
 41
0.0
 71
     5
 72
     1
  1
\A1;16%%P0.2
 11
0.0000000000000001
 21
1.0
 31
0.0
 73
     1
 44
1.0
  0
POINT
  5
ABB5
330
A81A
100
AcDbEntity
  8
DEFPOINTS
 62
     0
440
 16777216
100
AcDbPoint
 10
62.5
 20
66.76822637433578
 30
0.0
  0
POINT
  5
ABB6
330
A81A
100
AcDbEntity
  8
DEFPOINTS
 62
     0
440
 16777216
100
AcDbPoint
 10
63.532191138999
 20
50.76926371985156
 30
0.0
  0
POINT
  5
ABB7
330
A81A
100
AcDbEntity
  8
DEFPOINTS
 62
     0
440
 16777216
100
AcDbPoint
 10
73.81544216897521
 20
50.76926371985156
 30
0.0
  0
ENDBLK
  5
A81C
330
A81A
100
AcDbEntity
  8
0
100
AcDbBlockEnd
  0
BLOCK
  5
A828
330
A827
100
AcDbEntity
  8
0
100
AcDbBlockBegin
  2
*D53
 70
     1
 10
0.0
 20
0.0
 30
0.0
  3
*D53
  1

  0
LINE
  5
ABB8
330
A827
100
AcDbEntity
  8
mark
  6
ByBlock
440
 16777216
370
    -2
100
AcDbLine
 10
55.0
 20
50.8682263743358
 30
0.0
 11
55.0
 21
45.24356752973015
 31
0.0
  0
LINE
  5
ABB9
330
A827
100
AcDbEntity
  8
mark
  6
ByBlock
440
 16777216
370
    -2
100
AcDbLine
 10
40.0
 20
50.86822637433582
 30
0.0
 11
40.0
 21
45.24356752973015
 31
0.0
  0
LINE
  5
ABBA
330
A827
100
AcDbEntity
  8
mark
  6
ByBlock
440
 16777216
370
    -2
100
AcDbLine
 10
53.75
 20
45.64356752973014
 30
0.0
 11
41.25
 21
45.64356752973014
 31
0.0
  0
INSERT
  5
ABBB
330
A827
100
AcDbEntity
  8
mark
440
 16777216
370
    -2
100
AcDbBlockReference
  2
_Open30
 10
55.0
 20
45.64356752973014
 30
0.0
 41
1.25
 42
1.25
 43
1.25
  0
INSERT
  5
ABBC
330
A827
100
AcDbEntity
  8
mark
440
 16777216
370
    -2
100
AcDbBlockReference
  2
_Open30
 10
40.0
 20
45.64356752973014
 30
0.0
 41
1.25
 42
1.25
 43
1.25
 50
180.0
  0
MTEXT
  5
ABBD
330
A827
100
AcDbEntity
  8
mark
 62
     3
440
 16777216
100
AcDbMText
 10
47.5
 20
46.66856752973014
 30
0.0
 40
1.25
 41
0.0
 71
     5
 72
     1
  1
\A1;M15x1.0P
 73
     1
 44
1.0
  0
POINT
  5
ABBE
330
A827
100
AcDbEntity
  8
DEFPOINTS
 62
     0
440
 16777216
100
AcDbPoint
 10
55.0
 20
51.2682263743358
 30
0.0
  0
POINT
  5
ABBF
330
A827
100
AcDbEntity
  8
DEFPOINTS
 62
     0
440
 16777216
100
AcDbPoint
 10
40.0
 20
51.26822637433583
 30
0.0
  0
POINT
  5
ABC0
330
A827
100
AcDbEntity
  8
DEFPOINTS
 62
     0
440
 16777216
100
AcDbPoint
 10
40.0
 20
45.64356752973014
 30
0.0
  0
ENDBLK
  5
A829
330
A827
100
AcDbEntity
  8
0
100
AcDbBlockEnd
  0
BLOCK
  5
A986
330
A985
100
AcDbEntity
  8
0
100
AcDbBlockBegin
  2
*D54
 70
     1
 10
0.0
 20
0.0
 30
0.0
  3
*D54
  1

  0
LINE
  5
ABC1
330
A985
100
AcDbEntity
  8
mark
  6
ByBlock
440
 16777216
370
    -2
100
AcDbLine
 10
23.22503114227158
 20
117.9972763009605
 30
0.0
 11
36.24166975080226
 21
110.4821164963812
 31
0.0
  0
LINE
  5
ABC2
330
A985
100
AcDbEntity
  8
mark
  6
ByBlock
440
 16777216
370
    -2
100
AcDbLine
 10
58.75833024919768
 20
97.48211649638129
 30
0.0
 11
59.84086200392823
 21
96.85711649638129
 31
0.0
  0
MTEXT
  5
ABC3
330
A985
100
AcDbEntity
  8
mark
 62
     3
440
 16777216
100
AcDbMText
 10
28.2336463635858
 20
116.2891190065062
 30
0.0
 40
1.25
 41
0.0
 71
     5
 72
     1
  1
\A1;P.C.D 23.5
 11
0.866025403784439
 21
-0.4999999999999996
 31
0.0
 73
     1
 44
1.0
  0
LINE
  5
ABC4
330
A985
100
AcDbEntity
  8
mark
  6
ByBlock
440
 16777216
370
    -2
100
AcDbLine
 10
57.67579849446713
 20
98.10711649638129
 30
0.0
 11
37.32420150553281
 21
109.8571164963812
 31
0.0
  0
INSERT
  5
ABC5
330
A985
100
AcDbEntity
  8
mark
440
 16777216
370
    -2
100
AcDbBlockReference
  2
_Open30
 10
57.67579849446713
 20
98.10711649638129
 30
0.0
 41
1.25
 42
1.25
 43
1.25
 50
150.0
  0
INSERT
  5
ABC6
330
A985
100
AcDbEntity
  8
mark
440
 16777216
370
    -2
100
AcDbBlockReference
  2
_Open30
 10
37.32420150553281
 20
109.8571164963812
 30
0.0
 41
1.25
 42
1.25
 43
1.25
 50
330.0000000000001
  0
POINT
  5
ABC7
330
A985
100
AcDbEntity
  8
DEFPOINTS
 62
     0
440
 16777216
100
AcDbPoint
 10
37.32420150553281
 20
109.8571164963812
 30
0.0
  0
POINT
  5
ABC8
330
A985
100
AcDbEntity
  8
DEFPOINTS
 62
     0
440
 16777216
100
AcDbPoint
 10
57.67579849446713
 20
98.10711649638129
 30
0.0
  0
ENDBLK
  5
A987
330
A985
100
AcDbEntity
  8
0
100
AcDbBlockEnd
  0
ENDSEC
  0
SECTION
  2
ENTITIES
  0
MTEXT
  5
C0
330
18
100
AcDbEntity
  8
0
100
AcDbMText
 10
41.26970765600413
 20
233.6950877649332
 30
0.0
 40
2.5
 41
0.0
 71
     1
 72
     5
  1

  7
ISOCP3
 73
     1
 44
1.0
  0
LWPOLYLINE
  5
A1DE
330
18
100
AcDbEntity
  8
frame
100
AcDbPolyline
 90
        4
 70
     1
 43
0.0
 10
95.0
 20
140.0
 10
0.0
 20
140.0
 10
0.0
 20
0.0
 10
95.0
 20
0.0
  0
MTEXT
  5
A1DF
102
{ACAD_XDICTIONARY
360
ADA7
102
}
330
18
100
AcDbEntity
  8
0
100
AcDbMText
 10
8.549751843445875
 20
9.53802950808307
 30
0.0
 40
2.25
 41
0.0
 71
     1
 72
     5
  1
{\Ftxt,bigfont|c128;林彦旭}
  7
JL
 73
     1
 44
1.0
  0
MTEXT
  5
A1E0
330
18
100
AcDbEntity
  8
0
100
AcDbMText
 10
38.97647364614426
 20
14.46789489935338
 30
0.0
 40
2.25
 41
0.0
 71
     1
 72
     5
  1
{\Ftxt,bigfont|c128;2 : 1}
  7
JL
 73
     1
 44
1.0
  0
MTEXT
  5
A1E1
330
18
100
AcDbEntity
  8
0
 48
2.0
370
    25
100
AcDbMText
 10
70.1097250232828
 20
1.745010827316946
 30
0.0
 40
2.25
 41
0.0
 71
     5
 72
     1
  1
{\Ftxt,bigfont|c128;N L 4 0 \Ftxt,bigfont|c136;3\Ftxt,bigfont|c128; \Ftxt,bigfont|c136;7\Ftxt,bigfont|c128; \Ftxt,bigfont|c136;7}
 73
     1
 44
1.0
  0
MTEXT
  5
A1E2
330
18
100
AcDbEntity
  8
0
 48
2.0
100
AcDbMText
 10
84.48817727122786
 20
10.88218563911846
 30
0.0
 40
2.159090909090911
 41
0.0
 71
     5
 72
     1
  1
\P{\Ftxt,bigfont|c128;MKR1\Ftxt,bigfont|c136;5x\Ftxt,bigfont|c128;1.\Ftxt,bigfont|c136;0\Ftxt,bigfont|c128;P}
 73
     1
 44
1.0
  0
MTEXT
  5
A1E3
330
18
100
AcDbEntity
  8
0
100
AcDbMText
 10
7.6880338568387
 20
14.18870179917354
 30
0.0
 40
2.25
 41
0.0
 71
     1
 72
     5
  1
{\Ftxt,bigfont|c136;14\Ftxt,bigfont|c128;.0\Ftxt,bigfont|c136;6\Ftxt,bigfont|c128;.\Ftxt,bigfont|c136;30}
  7
JL
 73
     1
 44
1.0
  0
LINE
  5
A1E4
330
18
100
AcDbEntity
  8
0
 62
     7
 48
5.0
100
AcDbLine
 39
1.919191919191921
 10
23.96471206996267
 20
13.82856453508043
 30
0.0
 11
26.52290072143927
 21
14.46811169794961
 31
0.0
  0
MTEXT
  5
A1E5
102
{ACAD_XDICTIONARY
360
ADA9
102
}
330
18
100
AcDbEntity
  8
0
100
AcDbMText
 10
7.456177741632075
 20
4.621097525024651
 30
0.0
 40
3.0
 41
0.0
 71
     1
 72
     5
  1
\Ftxt.shx,bigfont.shx|c128;日機株式会社
  7
LKK
 73
     1
 44
1.0
  0
LINE
  5
A1E6
330
18
100
AcDbEntity
  8
frame
100
AcDbLine
 10
0.0
 20
6.0
 30
0.0
 11
95.0
 21
6.000000000000028
 31
0.0
  0
LINE
  5
A1E7
330
18
100
AcDbEntity
  8
frame
100
AcDbLine
 10
0.0
 20
11.0
 30
0.0
 11
46.06060606060611
 21
11.0
 31
0.0
  0
LINE
  5
A1E8
330
18
100
AcDbEntity
  8
frame
100
AcDbLine
 10
0.0
 20
16.0
 30
0.0
 11
95.0
 21
16.0
 31
0.0
  0
LINE
  5
A1E9
330
18
100
AcDbEntity
  8
frame
100
AcDbLine
 10
6.095386662468996
 20
16.0
 30
0.0
 11
6.095386662468996
 21
6.0
 31
0.0
  0
LINE
  5
A1EA
330
18
100
AcDbEntity
  8
frame
100
AcDbLine
 10
15.35353535353533
 20
16.0
 30
0.0
 11
15.35353535353539
 21
6.0
 31
0.0
  0
MTEXT
  5
A1EB
102
{ACAD_XDICTIONARY
360
ADAB
102
}
330
18
100
AcDbEntity
  8
0
100
AcDbMText
 10
1.415137392110977
 20
14.54095044791415
 30
0.0
 40
2.25
 41
0.0
 71
     1
 72
     5
  1
\Ftxt.shx,bigfont.shx|c128;日 付
  7
JL
 73
     1
 44
1.0
  0
MTEXT
  5
A1EC
102
{ACAD_XDICTIONARY
360
ADAD
102
}
330
18
100
AcDbEntity
  8
0
100
AcDbMText
 10
1.485316538719445
 20
9.760819214633187
 30
0.0
 40
2.25
 41
0.0
 71
     1
 72
     5
  1
\Ftxt.shx,bigfont.shx|c128;製 図
  7
JL
 73
     1
 44
1.0
  0
LINE
  5
A1ED
330
18
100
AcDbEntity
  8
0
 62
     7
370
    25
100
AcDbLine
 10
26.52290072143927
 20
11.90992304647298
 30
0.0
 11
26.52290072143927
 21
14.46811169794961
 31
0.0
  0
MTEXT
  5
A1EE
102
{ACAD_XDICTIONARY
360
ADAF
102
}
330
18
100
AcDbEntity
  8
0
100
AcDbMText
 10
32.00374426245418
 20
14.56121351896189
 30
0.0
 40
2.25
 41
0.0
 71
     1
 72
     5
  1
\Ftxt.shx,bigfont.shx|c128;尺 度
  7
JL
 73
     1
 44
1.0
  0
LINE
  5
A1EF
330
18
100
AcDbEntity
  8
frame
100
AcDbLine
 10
30.70707070707073
 20
16.0
 30
0.0
 11
30.70707070707073
 21
6.0
 31
0.0
  0
LINE
  5
A1F0
330
18
100
AcDbEntity
  8
0
 62
     7
370
    25
100
AcDbLine
 10
19.8076555113131
 20
11.59444509166317
 30
0.0
 11
19.8076555113131
 21
14.68228996214836
 31
0.0
  0
CIRCLE
  5
A1F1
330
18
100
AcDbEntity
  8
0
 62
     7
100
AcDbCircle
 10
19.8076555113131
 20
13.18901737221125
 30
0.0
 40
1.279094325738339
  0
LINE
  5
A1F2
330
18
100
AcDbEntity
  8
0
 62
     7
370
    25
100
AcDbLine
 10
23.59660993459988
 20
13.18901737221131
 30
0.0
 11
26.75256290812121
 21
13.18901737221131
 31
0.0
  0
LINE
  5
A1F3
330
18
100
AcDbEntity
  8
0
 62
     7
100
AcDbLine
 10
23.96471206996267
 20
12.54947020934213
 30
0.0
 11
26.52290072143927
 21
11.90992304647298
 31
0.0
  0
LINE
  5
A1F4
330
18
100
AcDbEntity
  8
frame
100
AcDbLine
 10
21.3711209799755
 20
11.0
 30
0.0
 11
21.3711209799755
 21
6.0
 31
0.0
  0
LINE
  5
A1F5
330
18
100
AcDbEntity
  8
0
 62
     7
370
    25
100
AcDbLine
 10
18.20916114243306
 20
13.18901737221125
 30
0.0
 11
21.50162633809634
 21
13.18901737221131
 31
0.0
  0
CIRCLE
  5
A1F6
330
18
100
AcDbEntity
  8
0
 62
     7
100
AcDbCircle
 10
19.8076555113131
 20
13.18901737221125
 30
0.0
 40
0.6395471628691697
  0
MTEXT
  5
A1F7
102
{ACAD_XDICTIONARY
360
ADB1
102
}
330
18
100
AcDbEntity
  8
0
100
AcDbMText
 10
16.85092016231203
 20
9.705069078926328
 30
0.0
 40
2.25
 41
0.0
 71
     1
 72
     5
  1
\Ftxt.shx,bigfont.shx|c128;検 図
  7
JL
 73
     1
 44
1.0
  0
LINE
  5
A1F8
330
18
100
AcDbEntity
  8
0
 62
     7
370
    25
100
AcDbLine
 10
23.96471206996267
 20
12.54947020934213
 30
0.0
 11
23.96471206996267
 21
13.82856453508043
 31
0.0
  0
MTEXT
  5
A1F9
102
{ACAD_XDICTIONARY
360
ADB3
102
}
330
18
100
AcDbEntity
  8
0
100
AcDbMText
 10
32.14410124959915
 20
9.660292673744407
 30
0.0
 40
2.25
 41
0.0
 71
     1
 72
     5
  1
\Ftxt.shx,bigfont.shx|c128;承 認
  7
JL
 73
     1
 44
1.0
  0
MTEXT
  5
A1FA
102
{ACAD_XDICTIONARY
360
ADB5
102
}
330
18
100
AcDbEntity
  8
0
100
AcDbMText
 10
46.85564357803349
 20
5.351341098095701
 30
0.0
 40
2.25
 41
0.0
 71
     1
 72
     5
  1
\Ftxt.shx,bigfont.shx|c128;図  面  番  号
  7
JL
 73
     1
 44
1.0
  0
MTEXT
  5
A1FB
102
{ACAD_XDICTIONARY
360
ADB7
102
}
330
18
100
AcDbEntity
  8
0
 48
2.0
100
AcDbMText
 10
58.45190950106922
 20
10.9378736574792
 30
0.0
 40
2.25
 41
0.0
 71
     5
 72
     1
  1
\P\Ftxt.shx,bigfont.shx|c128;    精密ロックナット
 73
     1
 44
1.0
  0
MTEXT
  5
A1FC
102
{ACAD_XDICTIONARY
360
ADB9
102
}
330
18
100
AcDbEntity
  8
0
100
AcDbMText
 10
47.4041806515616
 20
14.51931228986637
 30
0.0
 40
2.25
 41
0.0
 71
     1
 72
     5
  1
\Ftxt.shx,bigfont.shx|c128;品  名
  7
JL
 73
     1
 44
1.0
  0
LINE
  5
A1FD
330
18
100
AcDbEntity
  8
frame
100
AcDbLine
 10
46.06060606060611
 20
16.0
 30
0.0
 11
46.06060606060611
 21
0.0916613789792393
 31
0.0
  0
LINE
  5
A1FE
330
18
100
AcDbEntity
  8
frame
100
AcDbLine
 10
36.70707070707073
 20
16.0
 30
0.0
 11
36.70707070707073
 21
6.0
 31
0.0
  0
LINE
  5
A1FF
330
18
100
AcDbEntity
  8
frame
100
AcDbLine
 10
73.51635463703281
 20
16.0
 30
0.0
 11
73.51635463703286
 21
6.0
 31
0.0
  0
MTEXT
  5
A200
102
{ACAD_XDICTIONARY
360
ADBB
102
}
330
18
100
AcDbEntity
  8
0
100
AcDbMText
 10
75.44797972338654
 20
14.52258891415195
 30
0.0
 40
2.25
 41
0.0
 71
     1
 72
     5
  1
\Ftxt.shx,bigfont.shx|c128;型  番
  7
JL
 73
     1
 44
1.0
  0
MTEXT
  5
A201
102
{ACAD_XDICTIONARY
360
ADBD
102
}
330
18
100
AcDbEntity
  8
0
100
AcDbMText
 10
82.90298074051628
 20
5.391490874857822
 30
0.0
 40
2.25
 41
0.0
 71
     1
 72
     5
  1
\Ftxt.shx,bigfont.shx|c128;変更
  7
JL
 73
     1
 44
1.0
  0
LINE
  5
A202
330
18
100
AcDbEntity
  8
frame
100
AcDbLine
 10
82.04545454545462
 20
6.000000000000028
 30
0.0
 11
82.04545454545467
 21
0.0
 31
0.0
  0
LINE
  5
A203
330
18
100
AcDbEntity
  8
frame
100
AcDbLine
 10
62.30789503931965
 20
21.56745674462246
 30
0.0
 11
92.30789503931964
 21
21.56745674462241
 31
0.0
  0
LINE
  5
A204
330
18
100
AcDbEntity
  8
frame
100
AcDbLine
 10
62.30789503931965
 20
25.16745674462248
 30
0.0
 11
92.30789503931964
 21
25.16745674462248
 31
0.0
  0
LINE
  5
A205
330
18
100
AcDbEntity
  8
frame
100
AcDbLine
 10
62.30789503931965
 20
28.76745674462245
 30
0.0
 11
92.30789503931964
 21
28.7674567446224
 31
0.0
  0
LINE
  5
A206
330
18
100
AcDbEntity
  8
frame
100
AcDbLine
 10
62.30789503931965
 20
32.36745674462247
 30
0.0
 11
92.30789503931964
 21
32.36745674462242
 31
0.0
  0
LINE
  5
A207
330
18
100
AcDbEntity
  8
frame
100
AcDbLine
 10
62.30789503931965
 20
17.96745674462244
 30
0.0
 11
92.30789503931964
 21
17.96745674462244
 31
0.0
  0
MTEXT
  5
A208
102
{ACAD_XDICTIONARY
360
ADBF
102
}
330
18
100
AcDbEntity
  8
0
 62
     7
 48
2.0
100
AcDbMText
 10
77.25059502225531
 20
32.76404094991455
 30
0.0
 40
2.4
 41
0.0
 71
     5
 72
     1
  1
\P\Ftxt.shx,bigfont.shx|c128;諸　　　　元
 73
     1
 44
1.0
  0
LINE
  5
A209
330
18
100
AcDbEntity
  8
frame
100
AcDbLine
 10
62.30789503931965
 20
32.36745674462242
 30
0.0
 11
62.30789503931965
 21
17.96745674462244
 31
0.0
  0
MTEXT
  5
A20A
102
{ACAD_XDICTIONARY
360
ADC1
102
}
330
18
100
AcDbEntity
  8
0
100
AcDbMText
 10
64.06911294615975
 20
28.00420216106204
 30
0.0
 40
2.2
 41
81.95814342112454
 71
     1
 72
     5
  1
\Ftxt.shx,bigfont.shx|c128;熱　処　理
  7
JL
 73
     1
 44
1.0
  0
LINE
  5
A20B
330
18
100
AcDbEntity
  8
frame
100
AcDbLine
 10
74.30789503931965
 20
28.7674567446224
 30
0.0
 11
74.30789503931965
 21
17.96745674462244
 31
0.0
  0
MTEXT
  5
A20C
102
{ACAD_XDICTIONARY
360
ADC3
102
}
330
18
100
AcDbEntity
  8
0
100
AcDbMText
 10
63.92897576247015
 20
24.50308793743199
 30
0.0
 40
2.2
 41
81.80293144248363
 71
     1
 72
     5
  1
\Ftxt.shx,bigfont.shx|c128;表 面 処 理
  7
JL
 73
     1
 44
1.0
  0
MTEXT
  5
A20D
102
{ACAD_XDICTIONARY
360
ADC5
102
}
330
18
100
AcDbEntity
  8
0
100
AcDbMText
 10
64.07400868668765
 20
20.85885151062803
 30
0.0
 40
2.2
 41
83.0859
 71
     1
 72
     5
  1
\Ftxt.shx,bigfont.shx|c128;等     　級
  7
JL
 73
     1
 44
1.0
  0
LINE
  5
A20E
330
18
100
AcDbEntity
  8
frame
100
AcDbLine
 10
92.30789503931964
 20
32.36745674462242
 30
0.0
 11
92.30789503931964
 21
17.96745674462249
 31
0.0
  0
MTEXT
  5
A20F
102
{ACAD_XDICTIONARY
360
ADC7
102
}
330
18
100
AcDbEntity
  8
0
100
AcDbMText
 10
76.68139669404093
 20
27.91672320735723
 30
0.0
 40
2.2
 41
145.9480028428943
 71
     1
 72
     5
  1
\Ftxt.shx,bigfont.shx|c128;調質　HRC30%%d%%p２%%d
  7
JL
 73
     1
 44
1.0
  0
MTEXT
  5
A210
102
{ACAD_XDICTIONARY
360
ADC9
102
}
330
18
100
AcDbEntity
  8
0
100
AcDbMText
 10
76.81171619475913
 20
20.8591567963536
 30
0.0
 40
2.2
 41
145.3916823984455
 71
     1
 72
     5
  1
\Ftxt.shx,bigfont.shx|c128;ＩＳＯ - ４Ｈ
  7
JL
 73
     1
 44
1.0
  0
MTEXT
  5
A211
102
{ACAD_XDICTIONARY
360
ADCB
102
}
330
18
100
AcDbEntity
  8
0
100
AcDbMText
 10
76.89894679382428
 20
24.32664146895457
 30
0.0
 40
2.2
 41
145.7274
 71
     1
 72
     5
  1
\Ftxt.shx,bigfont.shx|c128;黒  　    染
  7
JL
 73
     1
 44
1.0
  0
MTEXT
  5
A212
330
18
100
AcDbEntity
  8
0
100
AcDbMText
 10
28.81819530667213
 20
130.4500291639737
 30
0.0
 40
2.5
 41
0.0
 71
     1
 72
     5
  1
{\Ftxt,bigfont|c128;M4\Ftxt,bigfont|c136;x\Ftxt,bigfont|c128;0.7P-1\Ftxt,bigfont|c136;0\Ftxt,bigfont|c128;L}
  7
JL
 73
     1
 44
1.0
  0
LINE
  5
A213
330
18
100
AcDbEntity
  8
frame
100
AcDbLine
 10
0.0
 20
127.0
 30
0.0
 11
95.0
 21
127.0
 31
0.0
  0
LINE
  5
A214
330
18
100
AcDbEntity
  8
frame
100
AcDbLine
 10
0.0
 20
131.0
 30
0.0
 11
95.0
 21
131.0
 31
0.0
  0
LINE
  5
A215
330
18
100
AcDbEntity
  8
frame
 62
     9
100
AcDbLine
 10
0.0
 20
135.0
 30
0.0
 11
95.0
 21
135.0
 31
0.0
  0
MTEXT
  5
A216
102
{ACAD_XDICTIONARY
360
ADCD
102
}
330
18
100
AcDbEntity
  8
0
100
AcDbMText
 10
28.50782195301855
 20
138.712028002452
 30
0.0
 40
2.5
 41
0.0
 71
     1
 72
     5
  1
\Ftxt.shx,bigfont.shx|c128;図    番 / 規　　格
  7
JL
 73
     1
 44
1.0
  0
LINE
  5
A217
330
18
100
AcDbEntity
  8
frame
100
AcDbLine
 10
0.0
 20
127.0
 30
0.0
 11
95.0
 21
127.0
 31
0.0
  0
MTEXT
  5
A218
102
{ACAD_XDICTIONARY
360
ADCF
102
}
330
18
100
AcDbEntity
  8
0
100
AcDbMText
 10
10.56244024461716
 20
138.7318990693371
 30
0.0
 40
2.5
 41
0.0
 71
     1
 72
     5
  1
\Ftxt.shx,bigfont.shx|c128;品　          名
  7
JL
 73
     1
 44
1.0
  0
MTEXT
  5
A219
102
{ACAD_XDICTIONARY
360
ADD1
102
}
330
18
100
AcDbEntity
  8
0
100
AcDbMText
 10
9.051406935550659
 20
130.3953618644555
 30
0.0
 40
2.5
 41
0.0
 71
     1
 72
     5
  1
\Ftxt.shx,bigfont.shx|c128;セットスクリュ-
  7
JL
 73
     1
 44
1.0
  0
MTEXT
  5
A21A
102
{ACAD_XDICTIONARY
360
ADD3
102
}
330
18
100
AcDbEntity
  8
0
100
AcDbMText
 10
8.957547404315789
 20
134.4180615141482
 30
0.0
 40
2.5
 41
0.0
 71
     1
 72
     5
  1
\Ftxt.shx,bigfont.shx|c128;ロックナット　  
  7
JL
 73
     1
 44
1.0
  0
LINE
  5
A21B
330
18
100
AcDbEntity
  8
frame
 62
     9
100
AcDbLine
 10
7.196969696969688
 20
139.9999999999999
 30
0.0
 11
7.196969696969816
 21
127.0
 31
0.0
  0
LINE
  5
A21C
330
18
100
AcDbEntity
  8
frame
 62
     9
100
AcDbLine
 10
7.196969696969688
 20
139.9999999999999
 30
0.0
 11
7.196969696969688
 21
127.5252525252525
 31
0.0
  0
MTEXT
  5
A21D
330
18
100
AcDbEntity
  8
0
100
AcDbMText
 10
3.407504634006897
 20
134.364083721706
 30
0.0
 40
2.5
 41
0.0
 71
     1
 72
     5
  1
\Ftxt.shx,bigfont.shx|c128;1
  7
JL
 73
     1
 44
1.0
  0
MTEXT
  5
A21E
102
{ACAD_XDICTIONARY
360
ADD5
102
}
330
18
100
AcDbEntity
  8
0
100
AcDbMText
 10
1.059914036490113
 20
138.7367391319745
 30
0.0
 40
2.5
 41
0.0
 71
     1
 72
     5
  1
\Ftxt.shx,bigfont.shx|c128;照   号
  7
JL
 73
     1
 44
1.0
  0
LINE
  5
A21F
330
18
100
AcDbEntity
  8
frame
 62
     9
100
AcDbLine
 10
26.38888888888891
 20
139.9999999999999
 30
0.0
 11
26.38888888888891
 21
127.0
 31
0.0
  0
MTEXT
  5
A220
102
{ACAD_XDICTIONARY
360
ADD7
102
}
330
18
100
AcDbEntity
  8
0
100
AcDbMText
 10
72.78681871864256
 20
138.8390831947097
 30
0.0
 40
2.5
 41
0.0
 71
     1
 72
     5
  1
\Ftxt.shx,bigfont.shx|c128;備           考
  7
JL
 73
     1
 44
1.0
  0
LINE
  5
A221
330
18
100
AcDbEntity
  8
frame
 62
     9
100
AcDbLine
 10
45.58080808080808
 20
140.0
 30
0.0
 11
45.58080808080808
 21
127.0
 31
0.0
  0
MTEXT
  5
A222
330
18
100
AcDbEntity
  8
0
100
AcDbMText
 10
46.43670544589684
 20
134.4180615141482
 30
0.0
 40
2.5
 41
0.0
 71
     1
 72
     5
  1
{\Ftxt,bigfont|c128;SCM440}
  7
JL
 73
     1
 44
1.0
  0
MTEXT
  5
A223
330
18
100
AcDbEntity
  8
0
100
AcDbMText
 10
46.43670544589684
 20
130.382501006292
 30
0.0
 40
2.5
 41
0.0
 71
     1
 72
     5
  1
\Ftxt.shx,bigfont.shx|c128;SCM435
  7
JL
 73
     1
 44
1.0
  0
MTEXT
  5
A224
102
{ACAD_XDICTIONARY
360
ADD9
102
}
330
18
100
AcDbEntity
  8
0
100
AcDbMText
 10
47.88399431552096
 20
138.7822749741459
 30
0.0
 40
2.5
 41
0.0
 71
     1
 72
     5
  1
\Ftxt.shx,bigfont.shx|c128;材　質
  7
JL
 73
     1
 44
1.0
  0
LINE
  5
A225
330
18
100
AcDbEntity
  8
frame
 62
     9
100
AcDbLine
 10
55.17676767676772
 20
140.0
 30
0.0
 11
55.17676767676772
 21
127.0
 31
0.0
  0
LINE
  5
A226
330
18
100
AcDbEntity
  8
frame
100
AcDbLine
 10
62.37373737373736
 20
140.0
 30
0.0
 11
62.37373737373741
 21
127.0
 31
0.0
  0
MTEXT
  5
A227
330
18
100
AcDbEntity
  8
0
100
AcDbMText
 10
58.58427231077456
 20
134.5206355839966
 30
0.0
 40
2.5
 41
0.0
 71
     1
 72
     5
  1
\Ftxt.shx,bigfont.shx|c128;1
  7
JL
 73
     1
 44
1.0
  0
MTEXT
  5
A228
330
18
100
AcDbEntity
  8
0
100
AcDbMText
 10
58.29695351334419
 20
130.2546145075339
 30
0.0
 40
2.5
 41
0.0
 71
     1
 72
     5
  1
{\Ftxt,bigfont|c136;3}
  7
JL
 73
     1
 44
1.0
  0
MTEXT
  5
A229
102
{ACAD_XDICTIONARY
360
ADDB
102
}
330
18
100
AcDbEntity
  8
0
100
AcDbMText
 10
56.21119479596313
 20
138.7822749741459
 30
0.0
 40
2.5
 41
0.0
 71
     1
 72
     5
  1
\Ftxt.shx,bigfont.shx|c128;数   量
  7
JL
 73
     1
 44
1.0
  0
MTEXT
  5
A22A
330
18
100
AcDbEntity
  8
0
100
AcDbMText
 10
3.202009849527996
 20
130.364083721706
 30
0.0
 40
2.5
 41
0.0
 71
     1
 72
     5
  1
{\Ftxt,bigfont|c128;2}
  7
JL
 73
     1
 44
1.0
  0
MTEXT
  5
A6BC
102
{ACAD_XDICTIONARY
360
ADE3
102
}
330
18
100
AcDbEntity
  8
0
100
AcDbMText
 10
22.86850578875217
 20
9.705069078926328
 30
0.0
 40
2.25
 41
0.0
 71
     1
 72
     5
  1
{\Ftxt,bigfont|c128;李国慶}
  7
JL
 73
     1
 44
1.0
  0
LINE
  5
A6BE
330
18
100
AcDbEntity
  8
contour
100
AcDbLine
 10
62.5
 20
66.76822637433578
 30
0.0
 11
32.5
 21
66.7682263743358
 31
0.0
  0
LINE
  5
A6C1
330
18
100
AcDbEntity
  8
contour
100
AcDbLine
 10
64.0
 20
51.2682263743358
 30
0.0
 11
64.0
 21
58.66822637433583
 31
0.0
  0
LINE
  5
A6C2
330
18
100
AcDbEntity
  8
contour
100
AcDbLine
 10
62.5
 20
61.16822637433583
 30
0.0
 11
61.25
 21
61.16822637433583
 31
0.0
  0
LINE
  5
A6C3
330
18
100
AcDbEntity
  8
contour
100
AcDbLine
 10
63.5
 20
59.16822637433583
 30
0.0
 11
61.25
 21
59.16822637433583
 31
0.0
  0
LINE
  5
A6C8
330
18
100
AcDbEntity
  8
contour
 62
     4
100
AcDbLine
 10
55.0
 20
51.2682263743358
 30
0.0
 11
55.00000000000006
 21
56.66822637433597
 31
0.0
  0
LINE
  5
A6CB
330
18
100
AcDbEntity
  8
contour
100
AcDbLine
 10
54.5
 20
51.7682263743358
 30
0.0
 11
54.5
 21
56.16822637433592
 31
0.0
  0
LINE
  5
A6CD
330
18
100
AcDbEntity
  8
contour
100
AcDbLine
 10
54.5
 20
51.7682263743358
 30
0.0
 11
55.5
 21
50.76822637433579
 31
0.0
  0
LINE
  5
A6CE
330
18
100
AcDbEntity
  8
contour
100
AcDbLine
 10
54.5
 20
65.76822637433579
 30
0.0
 11
55.5
 21
66.7682263743358
 31
0.0
  0
LINE
  5
A6CF
330
18
100
AcDbEntity
  8
center
 48
0.1
100
AcDbLine
 10
47.5
 20
49.76822637433582
 30
0.0
 11
47.5
 21
67.72970007334328
 31
0.0
  0
LINE
  5
A6D1
330
18
100
AcDbEntity
  8
contour
100
AcDbLine
 10
40.49999999999999
 20
65.76822637433583
 30
0.0
 11
39.5
 21
66.76822637433582
 31
0.0
  0
LINE
  5
A6D2
330
18
100
AcDbEntity
  8
contour
100
AcDbLine
 10
63.5
 20
50.76822637433579
 30
0.0
 11
31.5
 21
50.76822637433583
 31
0.0
  0
LINE
  5
A6D3
330
18
100
AcDbEntity
  8
contour
100
AcDbLine
 10
40.49999999999999
 20
51.76822637433582
 30
0.0
 11
39.5
 21
50.76822637433583
 31
0.0
  0
LINE
  5
A6D4
330
18
100
AcDbEntity
  8
contour
100
AcDbLine
 10
31.0
 20
51.26822637433583
 30
0.0
 11
31.0
 21
58.66822637433583
 31
0.0
  0
LINE
  5
A6D5
330
18
100
AcDbEntity
  8
contour
 62
     4
100
AcDbLine
 10
40.0
 20
51.26822637433583
 30
0.0
 11
40.0
 21
56.66822637433594
 31
0.0
  0
LINE
  5
A6D6
330
18
100
AcDbEntity
  8
contour
100
AcDbLine
 10
40.49999999999999
 20
51.76822637433582
 30
0.0
 11
40.50000000000006
 21
56.16822637433583
 31
0.0
  0
LINE
  5
A6DE
330
18
100
AcDbEntity
  8
contour
100
AcDbLine
 10
55.75
 20
51.06822637433586
 30
0.0
 11
55.75
 21
54.76822637433579
 31
0.0
  0
LINE
  5
A6DF
330
18
100
AcDbEntity
  8
contour
100
AcDbLine
 10
55.75
 20
54.76822637433579
 30
0.0
 11
62.75
 21
54.76822637433579
 31
0.0
  0
LINE
  5
A6E0
330
18
100
AcDbEntity
  8
contour
100
AcDbLine
 10
58.05000000000006
 20
64.76822637433579
 30
0.0
 11
60.44999999999999
 21
64.76822637433574
 31
0.0
  0
LINE
  5
A6E1
330
18
100
AcDbEntity
  8
contour
100
AcDbLine
 10
57.25
 20
63.96822637433572
 30
0.0
 11
58.05000000000001
 21
64.76822637433574
 31
0.0
  0
LINE
  5
A6E2
330
18
100
AcDbEntity
  8
contour
100
AcDbLine
 10
62.75
 20
54.76822637433579
 30
0.0
 11
62.75
 21
51.06822637433575
 31
0.0
  0
LINE
  5
A6E3
330
18
100
AcDbEntity
  8
contour
100
AcDbLine
 10
62.44999999999999
 20
50.76822637433574
 30
0.0
 11
56.05000000000001
 21
50.76822637433585
 31
0.0
  0
LINE
  5
A6E4
330
18
100
AcDbEntity
  8
contour
100
AcDbLine
 10
55.75
 20
51.06822637433586
 30
0.0
 11
56.05000000000001
 21
50.76822637433585
 31
0.0
  0
LINE
  5
A6E5
330
18
100
AcDbEntity
  8
contour
100
AcDbLine
 10
62.75
 20
51.06822637433575
 30
0.0
 11
62.44999999999999
 21
50.76822637433574
 31
0.0
  0
LINE
  5
A6E6
330
18
100
AcDbEntity
  8
contour
100
AcDbLine
 10
57.25
 20
54.76822637433574
 30
0.0
 11
57.25
 21
63.9682263743357
 31
0.0
  0
LINE
  5
A6E7
330
18
100
AcDbEntity
  8
contour
100
AcDbLine
 10
61.25
 20
54.76822637433574
 30
0.0
 11
61.25
 21
63.96822637433572
 31
0.0
  0
LINE
  5
A6E8
330
18
100
AcDbEntity
  8
contour
100
AcDbLine
 10
60.44999999999999
 20
64.76822637433574
 30
0.0
 11
61.25
 21
63.96822637433572
 31
0.0
  0
LINE
  5
A6E9
330
18
100
AcDbEntity
  8
contour
100
AcDbLine
 10
57.25
 20
63.96822637433579
 30
0.0
 11
61.25
 21
63.96822637433579
 31
0.0
  0
LINE
  5
A6EA
330
18
100
AcDbEntity
  8
contour
 62
     4
100
AcDbLine
 10
57.62900000000001
 20
55.42467363040433
 30
0.0
 11
57.62899999999991
 21
64.34722637433569
 31
0.0
  0
LINE
  5
A6EB
330
18
100
AcDbEntity
  8
contour
 62
     4
100
AcDbLine
 10
60.87099999999998
 20
55.42467363040433
 30
0.0
 11
60.87100000000003
 21
64.34722637433569
 31
0.0
  0
LINE
  5
A6EC
330
18
100
AcDbEntity
  8
contour
100
AcDbLine
 10
55.75
 20
51.06822637433586
 30
0.0
 11
62.75
 21
51.06822637433592
 31
0.0
  0
LINE
  5
A6ED
330
18
100
AcDbEntity
  8
bowle
 48
0.1
100
AcDbLine
 10
58.38397459621558
 20
50.76822637433579
 30
0.0
 11
58.38397459621558
 21
52.96822637433578
 31
0.0
  0
LINE
  5
A6EE
330
18
100
AcDbEntity
  8
bowle
 48
0.1
100
AcDbLine
 10
57.51794919243105
 20
50.76822637433574
 30
0.0
 11
57.51794919243105
 21
52.96822637433578
 31
0.0
  0
LINE
  5
A6EF
330
18
100
AcDbEntity
  8
bowle
 48
0.1
100
AcDbLine
 10
60.11602540378442
 20
50.76822637433579
 30
0.0
 11
60.11602540378442
 21
52.96822637433573
 31
0.0
  0
LINE
  5
A6F0
330
18
100
AcDbEntity
  8
bowle
 48
0.1
100
AcDbLine
 10
60.9820508075689
 20
50.76822637433574
 30
0.0
 11
60.98205080756895
 21
52.96822637433573
 31
0.0
  0
LINE
  5
A6F1
330
18
100
AcDbEntity
  8
bowle
 48
0.1
100
AcDbLine
 10
57.5179491924311
 20
52.96822637433578
 30
0.0
 11
60.98205080756895
 21
52.96822637433578
 31
0.0
  0
LINE
  5
A6F2
330
18
100
AcDbEntity
  8
bowle
 48
0.1
100
AcDbLine
 10
60.98205080756895
 20
52.96822637433573
 30
0.0
 11
59.25000000000006
 21
53.96822637433572
 31
0.0
  0
LINE
  5
A6F3
330
18
100
AcDbEntity
  8
bowle
 48
0.1
100
AcDbLine
 10
57.5179491924311
 20
52.96822637433573
 30
0.0
 11
59.25000000000006
 21
53.96822637433572
 31
0.0
  0
LINE
  5
A6F4
330
18
100
AcDbEntity
  8
contour
 62
     4
100
AcDbLine
 10
60.87099999999998
 20
55.42467363040438
 30
0.0
 11
61.25
 21
54.76822637433574
 31
0.0
  0
LINE
  5
A6F5
330
18
100
AcDbEntity
  8
contour
100
AcDbLine
 10
61.25
 20
55.42467363040433
 30
0.0
 11
57.25
 21
55.42467363040433
 31
0.0
  0
LINE
  5
A6F6
330
18
100
AcDbEntity
  8
contour
 62
     4
100
AcDbLine
 10
57.25
 20
54.76822637433579
 30
0.0
 11
57.62900000000001
 21
55.42467363040433
 31
0.0
  0
LINE
  5
A6F7
330
18
100
AcDbEntity
  8
contour
 62
     4
100
AcDbLine
 10
57.25
 20
63.9682263743357
 30
0.0
 11
57.25
 21
66.7682263743358
 31
0.0
  0
LINE
  5
A6F8
330
18
100
AcDbEntity
  8
contour
100
AcDbLine
 10
57.62899999999991
 20
64.34722637433569
 30
0.0
 11
57.62899999999991
 21
66.7682263743358
 31
0.0
  0
LINE
  5
A6F9
330
18
100
AcDbEntity
  8
contour
100
AcDbLine
 10
60.87100000000003
 20
64.34722637433569
 30
0.0
 11
60.87100000000003
 21
66.7682263743358
 31
0.0
  0
LINE
  5
A6FA
330
18
100
AcDbEntity
  8
contour
 62
     4
100
AcDbLine
 10
61.25
 20
63.96822637433572
 30
0.0
 11
61.25
 21
66.7682263743358
 31
0.0
  0
LINE
  5
A6FB
330
18
100
AcDbEntity
  8
contour
100
AcDbLine
 10
40.49999999999999
 20
51.76822637433582
 30
0.0
 11
54.5
 21
51.7682263743358
 31
0.0
  0
LINE
  5
A6FD
330
18
100
AcDbEntity
  8
contour
100
AcDbLine
 10
38.5
 20
59.16822637433583
 30
0.0
 11
38.5
 21
61.16822637433583
 31
0.0
  0
LINE
  5
A6FE
330
18
100
AcDbEntity
  8
contour
100
AcDbLine
 10
56.5
 20
59.16822637433583
 30
0.0
 11
56.5
 21
61.16822637433583
 31
0.0
  0
LINE
  5
A6FF
330
18
100
AcDbEntity
  8
contour
100
AcDbLine
 10
32.0
 20
61.66822637433583
 30
0.0
 11
32.0
 21
66.2682263743358
 31
0.0
  0
LINE
  5
A700
330
18
100
AcDbEntity
  8
contour
100
AcDbLine
 10
63.0
 20
61.66822637433583
 30
0.0
 11
63.0
 21
66.2682263743358
 31
0.0
  0
LINE
  5
A701
330
18
100
AcDbEntity
  8
contour
100
AcDbLine
 10
38.5
 20
59.16822637433583
 30
0.0
 11
31.5
 21
59.16822637433583
 31
0.0
  0
LINE
  5
A702
330
18
100
AcDbEntity
  8
contour
100
AcDbLine
 10
38.5
 20
61.16822637433583
 30
0.0
 11
32.5
 21
61.16822637433583
 31
0.0
  0
LINE
  5
A704
330
18
100
AcDbEntity
  8
contour
100
AcDbLine
 10
61.5
 20
58.16822637433583
 30
0.0
 11
61.25
 21
58.16822637433583
 31
0.0
  0
LINE
  5
A707
330
18
100
AcDbEntity
  8
contour
100
AcDbLine
 10
33.5
 20
58.16822637433583
 30
0.0
 11
33.5
 21
57.16822637433583
 31
0.0
  0
LINE
  5
A708
330
18
100
AcDbEntity
  8
contour
100
AcDbLine
 10
33.5
 20
57.16822637433583
 30
0.0
 11
57.25000000000005
 21
57.16822637433583
 31
0.0
  0
LINE
  5
A70A
330
18
100
AcDbEntity
  8
center
 48
0.1
100
AcDbLine
 10
59.25
 20
49.76822637433582
 30
0.0
 11
59.25
 21
67.76822637433579
 31
0.0
  0
LINE
  5
A70B
330
18
100
AcDbEntity
  8
contour
100
AcDbLine
 10
61.5
 20
57.16822637433583
 30
0.0
 11
61.5
 21
58.16822637433583
 31
0.0
  0
LINE
  5
A70C
330
18
100
AcDbEntity
  8
contour
100
AcDbLine
 10
40.49999999999999
 20
65.76822637433583
 30
0.0
 11
54.5
 21
65.76822637433579
 31
0.0
  0
LINE
  5
A715
330
18
100
AcDbEntity
  8
contour
 62
     4
100
AcDbLine
 10
55.00000000000006
 20
58.66822637433577
 30
0.0
 11
55.0
 21
66.2682263743358
 31
0.0
  0
LINE
  5
A716
330
18
100
AcDbEntity
  8
contour
100
AcDbLine
 10
54.5
 20
59.16822637433583
 30
0.0
 11
54.5
 21
65.76822637433579
 31
0.0
  0
LINE
  5
A717
330
18
100
AcDbEntity
  8
contour
100
AcDbLine
 10
40.50000000000006
 20
59.16822637433583
 30
0.0
 11
40.49999999999999
 21
65.76822637433583
 31
0.0
  0
LINE
  5
A718
330
18
100
AcDbEntity
  8
contour
 62
     4
100
AcDbLine
 10
40.0
 20
58.66822637433583
 30
0.0
 11
40.0
 21
66.2682263743358
 31
0.0
  0
LINE
  5
A719
330
18
100
AcDbEntity
  8
contour
100
AcDbLine
 10
39.50000000000006
 20
57.16822637433583
 30
0.0
 11
40.50000000000006
 21
56.16822637433583
 31
0.0
  0
LINE
  5
A71A
330
18
100
AcDbEntity
  8
contour
100
AcDbLine
 10
55.49999999999994
 20
57.16822637433583
 30
0.0
 11
54.49999999999994
 21
56.16822637433583
 31
0.0
  0
LINE
  5
A71C
330
18
100
AcDbEntity
  8
contour
100
AcDbLine
 10
61.25
 20
57.16822637433583
 30
0.0
 11
61.5
 21
57.16822637433583
 31
0.0
  0
LINE
  5
A71D
330
18
100
AcDbEntity
  8
contour
100
AcDbLine
 10
57.25000000000005
 20
58.16822637433583
 30
0.0
 11
33.5
 21
58.16822637433583
 31
0.0
  0
LINE
  5
A71E
330
18
100
AcDbEntity
  8
contour
100
AcDbLine
 10
40.50000000000006
 20
56.16822637433583
 30
0.0
 11
54.5
 21
56.16822637433583
 31
0.0
  0
LINE
  5
A71F
330
18
100
AcDbEntity
  8
contour
100
AcDbLine
 10
40.50000000000006
 20
59.16822637433583
 30
0.0
 11
39.50000000000006
 21
58.16822637433583
 31
0.0
  0
LINE
  5
A720
330
18
100
AcDbEntity
  8
contour
100
AcDbLine
 10
55.5
 20
58.16822637433583
 30
0.0
 11
54.5
 21
59.16822637433583
 31
0.0
  0
LINE
  5
A721
330
18
100
AcDbEntity
  8
contour
100
AcDbLine
 10
40.50000000000006
 20
59.16822637433583
 30
0.0
 11
54.5
 21
59.16822637433583
 31
0.0
  0
ARC
  5
A722
330
18
100
AcDbEntity
  8
contour
100
AcDbCircle
 10
32.5
 20
66.2682263743358
 30
0.0
 40
0.5
100
AcDbArc
 50
90.0
 51
180.0
  0
ARC
  5
A723
330
18
100
AcDbEntity
  8
contour
100
AcDbCircle
 10
32.5
 20
61.66822637433583
 30
0.0
 40
0.5
100
AcDbArc
 50
180.0
 51
270.0
  0
ARC
  5
A724
330
18
100
AcDbEntity
  8
contour
100
AcDbCircle
 10
31.5
 20
58.66822637433583
 30
0.0
 40
0.5
100
AcDbArc
 50
90.0
 51
180.0
  0
ARC
  5
A725
330
18
100
AcDbEntity
  8
contour
100
AcDbCircle
 10
31.5
 20
51.26822637433583
 30
0.0
 40
0.5
100
AcDbArc
 50
180.0
 51
270.0
  0
ARC
  5
A726
330
18
100
AcDbEntity
  8
contour
100
AcDbCircle
 10
63.5
 20
51.2682263743358
 30
0.0
 40
0.5
100
AcDbArc
 50
270.0
 51
0.0
  0
ARC
  5
A727
330
18
100
AcDbEntity
  8
contour
100
AcDbCircle
 10
63.5
 20
58.66822637433583
 30
0.0
 40
0.5
100
AcDbArc
 50
0.0
 51
90.0
  0
ARC
  5
A728
330
18
100
AcDbEntity
  8
contour
100
AcDbCircle
 10
62.5
 20
61.66822637433583
 30
0.0
 40
0.5
100
AcDbArc
 50
270.0
 51
0.0
  0
ARC
  5
A729
330
18
100
AcDbEntity
  8
contour
100
AcDbCircle
 10
62.5
 20
66.2682263743358
 30
0.0
 40
0.5
100
AcDbArc
 50
0.0
 51
90.0
  0
LINE
  5
A72F
330
18
100
AcDbEntity
  8
contour
100
AcDbLine
 10
36.99154759474232
 20
63.7682263743358
 30
0.0
 11
35.83684705636307
 21
61.7682263743358
 31
0.0
  0
LINE
  5
A730
330
18
100
AcDbEntity
  8
contour
100
AcDbLine
 10
36.99154759474226
 20
63.7682263743358
 30
0.0
 11
35.83684705636307
 21
65.76822637433579
 31
0.0
  0
LINE
  5
A731
330
18
100
AcDbEntity
  8
contour
100
AcDbLine
 10
35.83684705636307
 20
61.7682263743358
 30
0.0
 11
35.83684705636307
 21
65.76822637433579
 31
0.0
  0
LINE
  5
A732
330
18
100
AcDbEntity
  8
contour
100
AcDbLine
 10
35.83684705636301
 20
65.76822637433579
 30
0.0
 11
32.59154759474228
 21
65.76822637433579
 31
0.0
  0
LINE
  5
A733
330
18
100
AcDbEntity
  8
contour
100
AcDbLine
 10
35.83684705636301
 20
61.7682263743358
 30
0.0
 11
32.59154759474228
 21
61.7682263743358
 31
0.0
  0
LINE
  5
A734
330
18
100
AcDbEntity
  8
contour
100
AcDbLine
 10
32.59154759474228
 20
65.76822637433579
 30
0.0
 11
32.00717085532133
 21
66.35260311375667
 31
0.0
  0
LINE
  5
A735
330
18
100
AcDbEntity
  8
contour
100
AcDbLine
 10
32.59154759474228
 20
61.7682263743358
 30
0.0
 11
32.59154759474228
 21
65.76822637433579
 31
0.0
  0
LINE
  5
A737
330
18
100
AcDbEntity
  8
contour
100
AcDbLine
 10
32.59154759474228
 20
61.7682263743358
 30
0.0
 11
32.14224566664979
 21
61.31892444624336
 31
0.0
  0
LINE
  5
A73B
330
18
100
AcDbEntity
  8
contour
100
AcDbLine
 10
38.5
 20
50.76822637433583
 30
0.0
 11
37.89999999999998
 21
51.36822637433579
 31
0.0
  0
LINE
  5
A73C
330
18
100
AcDbEntity
  8
contour
100
AcDbLine
 10
33.00000000000006
 20
50.76822637433583
 30
0.0
 11
33.60000000000002
 21
51.36822637433579
 31
0.0
  0
LINE
  5
A73D
330
18
100
AcDbEntity
  8
contour
100
AcDbLine
 10
37.89999999999998
 20
54.52692329557812
 30
0.0
 11
33.60000000000002
 21
54.52692329557812
 31
0.0
  0
LINE
  5
A73E
330
18
100
AcDbEntity
  8
contour
100
AcDbLine
 10
37.89999999999998
 20
54.52692329557812
 30
0.0
 11
35.75
 21
55.76822637433583
 31
0.0
  0
LINE
  5
A73F
330
18
100
AcDbEntity
  8
contour
100
AcDbLine
 10
33.60000000000002
 20
54.52692329557812
 30
0.0
 11
35.75
 21
55.76822637433583
 31
0.0
  0
LINE
  5
A740
330
18
100
AcDbEntity
  8
contour
100
AcDbLine
 10
37.89999999999998
 20
51.36822637433579
 30
0.0
 11
37.90000000000004
 21
54.52692329557805
 31
0.0
  0
LINE
  5
A741
330
18
100
AcDbEntity
  8
contour
100
AcDbLine
 10
33.60000000000002
 20
51.36822637433579
 30
0.0
 11
33.60000000000002
 21
54.52692329557805
 31
0.0
  0
LINE
  5
A742
330
18
100
AcDbEntity
  8
contour
100
AcDbLine
 10
37.89999999999998
 20
51.36822637433579
 30
0.0
 11
33.60000000000002
 21
51.36822637433579
 31
0.0
  0
LINE
  5
A744
330
18
100
AcDbEntity
  8
contour
100
AcDbLine
 10
62.75
 20
51.06822637433575
 30
0.0
 11
62.75
 21
50.76822637433579
 31
0.0
  0
LINE
  5
A745
330
18
100
AcDbEntity
  8
contour
100
AcDbLine
 10
55.75
 20
51.06822637433586
 30
0.0
 11
55.75
 21
50.76822637433579
 31
0.0
  0
LINE
  5
A746
330
18
100
AcDbEntity
  8
center
 48
0.1
100
AcDbLine
 10
30.99999999999994
 20
63.76822637433576
 30
0.0
 11
37.99154759474226
 21
63.76822637433576
 31
0.0
  0
LINE
  5
A747
330
18
100
AcDbEntity
  8
center
 48
0.1
100
AcDbLine
 10
35.75
 20
49.76822637433582
 30
0.0
 11
35.75
 21
56.76822637433582
 31
0.0
  0
LINE
  5
A749
330
18
100
AcDbEntity
  8
contour
100
AcDbLine
 10
57.25000000000003
 20
59.16822637433583
 30
0.0
 11
56.5
 21
59.16822637433583
 31
0.0
  0
LINE
  5
A74A
330
18
100
AcDbEntity
  8
contour
100
AcDbLine
 10
57.25000000000003
 20
61.16822637433584
 30
0.0
 11
56.5
 21
61.16822637433583
 31
0.0
  0
LINE
  5
A74B
330
18
100
AcDbEntity
  8
center
 48
0.1
100
AcDbLine
 10
47.5
 20
86.48211649638131
 30
0.0
 11
47.5
 21
121.4821164963813
 31
0.0
  0
CIRCLE
  5
A74D
330
18
100
AcDbEntity
  8
contour
100
AcDbCircle
 10
47.5
 20
103.9821164963813
 30
0.0
 40
16.5
  0
CIRCLE
  5
A74E
330
18
100
AcDbEntity
  8
contour
100
AcDbCircle
 10
47.5
 20
103.9821164963813
 30
0.0
 40
15.5
  0
CIRCLE
  5
A74F
330
18
100
AcDbEntity
  8
center
 48
0.1
100
AcDbCircle
 10
47.5
 20
103.9821164963813
 30
0.0
 40
11.75
  0
ARC
  5
A750
330
18
100
AcDbEntity
  8
contour
 62
     4
100
AcDbCircle
 10
47.5
 20
103.9821164963813
 30
0.0
 40
7.5
100
AcDbArc
 50
168.4630409671845
 51
101.5369590328156
  0
CIRCLE
  5
A751
330
18
100
AcDbEntity
  8
contour
100
AcDbCircle
 10
47.5
 20
103.9821164963813
 30
0.0
 40
7.0
  0
CIRCLE
  5
A752
330
18
100
AcDbEntity
  8
contour
100
AcDbCircle
 10
47.5
 20
103.9821164963813
 30
0.0
 40
8.0
  0
LINE
  5
A754
330
18
100
AcDbEntity
  8
center
 48
0.1
100
AcDbLine
 10
30.0
 20
103.9821164963813
 30
0.0
 11
65.0
 21
103.9821164963813
 31
0.0
  0
ARC
  5
A757
330
18
100
AcDbEntity
  8
contour
 62
     4
100
AcDbCircle
 10
59.25
 20
103.9821164963813
 30
0.0
 40
2.0
100
AcDbArc
 50
168.4630409671845
 51
101.5369590328156
  0
CIRCLE
  5
A758
330
18
100
AcDbEntity
  8
contour
100
AcDbCircle
 10
59.25
 20
103.9821164963813
 30
0.0
 40
1.649999999999999
  0
CIRCLE
  5
A759
330
18
100
AcDbEntity
  8
bowle
 48
0.1
100
AcDbCircle
 10
59.25
 20
103.9821164963813
 30
0.0
 40
3.5
  0
LINE
  5
A7AB
330
18
100
AcDbEntity
  8
bowle
 48
0.1
100
AcDbLine
 10
36.99154759474235
 20
103.9821164963814
 30
0.0
 11
35.8368470563631
 21
101.9821164963813
 31
0.0
  0
LINE
  5
A7AC
330
18
100
AcDbEntity
  8
bowle
 48
0.1
100
AcDbLine
 10
36.99154759474223
 20
103.9821164963813
 30
0.0
 11
35.83684705636304
 21
105.9821164963813
 31
0.0
  0
LINE
  5
A7AD
330
18
100
AcDbEntity
  8
bowle
 48
0.1
100
AcDbLine
 10
35.8368470563631
 20
101.9821164963813
 30
0.0
 11
35.83684705636304
 21
105.9821164963813
 31
0.0
  0
LINE
  5
A7AE
330
18
100
AcDbEntity
  8
bowle
 48
0.1
100
AcDbLine
 10
35.83684705636301
 20
105.9821164963814
 30
0.0
 11
32.59154759474228
 21
105.9821164963814
 31
0.0
  0
LINE
  5
A7AF
330
18
100
AcDbEntity
  8
bowle
 48
0.1
100
AcDbLine
 10
35.83684705636301
 20
101.9821164963813
 30
0.0
 11
32.59154759474228
 21
101.9821164963813
 31
0.0
  0
LINE
  5
A7B0
330
18
100
AcDbEntity
  8
bowle
 48
0.1
100
AcDbLine
 10
32.59154759474228
 20
105.9821164963814
 30
0.0
 11
32.18755929752416
 21
106.3861047935994
 31
0.0
  0
LINE
  5
A7B1
330
18
100
AcDbEntity
  8
bowle
 48
0.1
100
AcDbLine
 10
32.59154759474228
 20
101.9821164963813
 30
0.0
 11
32.59154759474228
 21
105.9821164963814
 31
0.0
  0
LINE
  5
A7B2
330
18
100
AcDbEntity
  8
bowle
 48
0.1
100
AcDbLine
 10
32.59154759474228
 20
101.9821164963813
 30
0.0
 11
32.18755929752419
 21
101.5781281991633
 31
0.0
  0
CIRCLE
  5
A7B3
330
18
100
AcDbEntity
  8
bowle
 48
0.1
100
AcDbCircle
 10
35.75
 20
103.9821164963813
 30
0.0
 40
2.149999999999999
  0
CIRCLE
  5
A7B4
330
18
100
AcDbEntity
  8
bowle
 48
0.1
100
AcDbCircle
 10
35.75
 20
103.9821164963813
 30
0.0
 40
2.75
  0
ARC
  5
A7BC
330
18
100
AcDbEntity
  8
contour
 62
     4
100
AcDbCircle
 10
41.625
 20
114.1579149908485
 30
0.0
 40
1.999999999999999
100
AcDbArc
 50
288.4630409671852
 51
221.536959032815
  0
CIRCLE
  5
A7BD
330
18
100
AcDbEntity
  8
contour
100
AcDbCircle
 10
41.625
 20
114.1579149908485
 30
0.0
 40
1.649999999999999
  0
CIRCLE
  5
A7BE
330
18
100
AcDbEntity
  8
bowle
 48
0.1
100
AcDbCircle
 10
41.625
 20
114.1579149908485
 30
0.0
 40
3.499999999999999
  0
ARC
  5
A7BF
330
18
100
AcDbEntity
  8
contour
 62
     4
100
AcDbCircle
 10
41.62499999999994
 20
93.80631800191412
 30
0.0
 40
2.0
100
AcDbArc
 50
48.46304096718486
 51
341.536959032815
  0
CIRCLE
  5
A7C0
330
18
100
AcDbEntity
  8
contour
100
AcDbCircle
 10
41.62499999999994
 20
93.80631800191412
 30
0.0
 40
1.649999999999999
  0
CIRCLE
  5
A7C1
330
18
100
AcDbEntity
  8
bowle
 48
0.1
100
AcDbCircle
 10
41.62499999999994
 20
93.80631800191412
 30
0.0
 40
3.5
  0
LINE
  5
A7C2
330
18
100
AcDbEntity
  8
bowle
 48
0.1
100
AcDbLine
 10
52.75422620262872
 20
94.88152975896849
 30
0.0
 11
55.06362727938728
 21
94.8815297589685
 31
0.0
  0
LINE
  5
A7C3
330
18
100
AcDbEntity
  8
bowle
 48
0.1
100
AcDbLine
 10
52.75422620262884
 20
94.8815297589684
 30
0.0
 11
51.59952566424954
 21
92.88152975896846
 31
0.0
  0
LINE
  5
A7C4
330
18
100
AcDbEntity
  8
bowle
 48
0.1
100
AcDbLine
 10
55.06362727938728
 20
94.8815297589685
 30
0.0
 11
51.59952566424954
 21
92.88152975896846
 31
0.0
  0
LINE
  5
A7C5
330
18
100
AcDbEntity
  8
bowle
 48
0.1
100
AcDbLine
 10
51.59952566424954
 20
92.8815297589684
 30
0.0
 11
53.22217539505988
 21
90.07101798231687
 31
0.0
  0
LINE
  5
A7C6
330
18
100
AcDbEntity
  8
bowle
 48
0.1
100
AcDbLine
 10
55.06362727938733
 20
94.88152975896843
 30
0.0
 11
56.68627701019767
 21
92.0710179823169
 31
0.0
  0
LINE
  5
A7C7
330
18
100
AcDbEntity
  8
bowle
 48
0.1
100
AcDbLine
 10
53.22217539505988
 20
90.07101798231687
 30
0.0
 11
53.07430541544653
 21
89.51915970548537
 31
0.0
  0
LINE
  5
A7C8
330
18
100
AcDbEntity
  8
bowle
 48
0.1
100
AcDbLine
 10
56.68627701019767
 20
92.0710179823169
 30
0.0
 11
53.22217539505988
 21
90.07101798231687
 31
0.0
  0
LINE
  5
A7C9
330
18
100
AcDbEntity
  8
bowle
 48
0.1
100
AcDbLine
 10
56.68627701019767
 20
92.0710179823169
 30
0.0
 11
57.23813528702916
 21
91.92314800270343
 31
0.0
  0
CIRCLE
  5
A7CA
330
18
100
AcDbEntity
  8
bowle
 48
0.1
100
AcDbCircle
 10
53.37499999999997
 20
93.80631800191416
 30
0.0
 40
2.149999999999999
  0
CIRCLE
  5
A7CB
330
18
100
AcDbEntity
  8
bowle
 48
0.1
100
AcDbCircle
 10
53.37499999999997
 20
93.80631800191416
 30
0.0
 40
2.749999999999999
  0
LINE
  5
A7CC
330
18
100
AcDbEntity
  8
center
 48
0.1
100
AcDbLine
 10
50.49999999999994
 20
98.78596407367467
 30
0.0
 11
56.24999999999997
 21
88.82667193015365
 31
0.0
  0
LINE
  5
A7CD
330
18
100
AcDbEntity
  8
bowle
 48
0.1
100
AcDbLine
 10
52.75422620262884
 20
113.082703233794
 30
0.0
 11
51.59952566424959
 21
115.082703233794
 31
0.0
  0
LINE
  5
A7CE
330
18
100
AcDbEntity
  8
bowle
 48
0.1
100
AcDbLine
 10
52.75422620262887
 20
113.0827032337941
 30
0.0
 11
55.06362727938733
 21
113.0827032337941
 31
0.0
  0
LINE
  5
A7CF
330
18
100
AcDbEntity
  8
bowle
 48
0.1
100
AcDbLine
 10
51.59952566424959
 20
115.082703233794
 30
0.0
 11
55.06362727938733
 21
113.0827032337941
 31
0.0
  0
LINE
  5
A7D0
330
18
100
AcDbEntity
  8
bowle
 48
0.1
100
AcDbLine
 10
55.06362727938739
 20
113.0827032337941
 30
0.0
 11
56.68627701019778
 21
115.8932150104456
 31
0.0
  0
LINE
  5
A7D1
330
18
100
AcDbEntity
  8
bowle
 48
0.1
100
AcDbLine
 10
51.59952566424959
 20
115.0827032337941
 30
0.0
 11
53.22217539505999
 21
117.8932150104456
 31
0.0
  0
LINE
  5
A7D2
330
18
100
AcDbEntity
  8
bowle
 48
0.1
100
AcDbLine
 10
56.68627701019778
 20
115.8932150104456
 30
0.0
 11
57.23813528702925
 21
116.0410849900591
 31
0.0
  0
LINE
  5
A7D3
330
18
100
AcDbEntity
  8
bowle
 48
0.1
100
AcDbLine
 10
53.22217539505999
 20
117.8932150104456
 30
0.0
 11
56.68627701019778
 21
115.8932150104456
 31
0.0
  0
LINE
  5
A7D4
330
18
100
AcDbEntity
  8
bowle
 48
0.1
100
AcDbLine
 10
53.22217539505999
 20
117.8932150104456
 30
0.0
 11
53.07430541544658
 21
118.4450732872771
 31
0.0
  0
CIRCLE
  5
A7D5
330
18
100
AcDbEntity
  8
bowle
 48
0.1
100
AcDbCircle
 10
53.37499999999997
 20
114.1579149908484
 30
0.0
 40
2.149999999999999
  0
CIRCLE
  5
A7D6
330
18
100
AcDbEntity
  8
bowle
 48
0.1
100
AcDbCircle
 10
53.37499999999997
 20
114.1579149908484
 30
0.0
 40
2.75
  0
LINE
  5
A7D7
330
18
100
AcDbEntity
  8
center
 48
0.1
100
AcDbLine
 10
50.5
 20
109.1782689190879
 30
0.0
 11
56.24999999999997
 21
119.1375610626089
 31
0.0
  0
LINE
  5
A7D8
330
18
100
AcDbEntity
  8
center
 48
0.1
100
AcDbLine
 10
44.5
 20
109.1782689190879
 30
0.0
 11
38.75000000000003
 21
119.1375610626089
 31
0.0
  0
LINE
  5
A7D9
330
18
100
AcDbEntity
  8
center
 48
0.1
100
AcDbLine
 10
44.50000000000005
 20
98.78596407367467
 30
0.0
 11
38.75000000000003
 21
88.82667193015365
 31
0.0
  0
DIMENSION
  5
A7E7
330
18
100
AcDbEntity
  8
mark
100
AcDbDimension
  2
*D49
 10
26.43187258601677
 20
63.76822637433576
 30
0.0
 11
25.40687258601676
 21
65.26822637433579
 31
0.0
 70
    32
 71
     5
 42
3.000000000000035
  3
STANDARD
100
AcDbAlignedDimension
 13
32.5
 23
66.7682263743358
 33
0.0
 14
30.99999999999994
 24
63.76822637433576
 34
0.0
 50
90.0
100
AcDbRotatedDimension
1001
ACAD
1000
DSTYLE
1002
{
1070
    90
1070
     1
1070
   345
1005
12
1070
   346
1005
12
1070
   347
1005
12
1002
}
  0
DIMENSION
  5
A7F6
330
18
100
AcDbEntity
  8
mark
100
AcDbDimension
  2
*D50
 10
68.54579444979925
 20
61.16822637433583
 30
0.0
 11
67.52079444979923
 21
63.96822637433581
 31
0.0
 70
    32
 71
     5
 42
5.599999999999951
  3
STANDARD
100
AcDbAlignedDimension
 13
62.5
 23
66.76822637433578
 33
0.0
 14
62.5
 24
61.16822637433583
 34
0.0
 50
90.0
100
AcDbRotatedDimension
1001
ACAD
1000
DSTYLE
1002
{
1070
    90
1070
     1
1070
   345
1005
12
1070
   346
1005
12
1070
   347
1005
12
1002
}
  0
DIMENSION
  5
A80A
330
18
100
AcDbEntity
  8
mark
100
AcDbDimension
  2
*D51
 10
68.54579444979925
 20
59.16822637433583
 30
0.0
 11
67.52079444979923
 21
60.16822637433584
 31
0.0
 70
    32
 71
     5
 42
2.0
  3
STANDARD
100
AcDbAlignedDimension
 13
62.5
 23
61.16822637433583
 33
0.0
 14
63.5
 24
59.16822637433583
 34
0.0
 50
90.0
100
AcDbRotatedDimension
1001
ACAD
1000
DSTYLE
1002
{
1070
    90
1070
     1
1070
   345
1005
12
1070
   346
1005
12
1070
   347
1005
12
1002
}
  0
DIMENSION
  5
A819
330
18
100
AcDbEntity
  8
mark
100
AcDbDimension
  2
*D52
 10
73.81544216897521
 20
50.76926371985156
 30
0.0
 11
72.79044216897519
 21
58.76874504709368
 31
0.0
 70
    32
  1
<>%%P0.2
 71
     5
 42
15.99896265448421
  3
STANDARD
100
AcDbAlignedDimension
 13
62.5
 23
66.76822637433578
 33
0.0
 14
63.532191138999
 24
50.76926371985156
 34
0.0
 50
90.0
100
AcDbRotatedDimension
1001
ACAD
1000
DSTYLE
1002
{
1070
    90
1070
     1
1070
   345
1005
12
1070
   346
1005
12
1070
   347
1005
12
1002
}
  0
DIMENSION
  5
A826
330
18
100
AcDbEntity
  8
mark
100
AcDbDimension
  2
*D53
 10
40.0
 20
45.64356752973014
 30
0.0
 11
47.5
 21
46.66856752973014
 31
0.0
 70
    32
  1
M15x1.0P
 71
     5
 42
15.0
  3
STANDARD
100
AcDbAlignedDimension
 13
55.0
 23
51.2682263743358
 33
0.0
 14
40.0
 24
51.26822637433583
 34
0.0
100
AcDbRotatedDimension
1001
ACAD
1000
DSTYLE
1002
{
1070
    90
1070
     1
1070
   345
1005
12
1070
   346
1005
12
1070
   347
1005
12
1002
}
  0
LINE
  5
A838
102
{ACAD_REACTORS
330
A983
102
}
330
18
100
AcDbEntity
  8
mark
100
AcDbLine
 10
40.0
 20
41.36525536621719
 30
0.0
 11
41.25
 21
40.64356752973014
 31
0.0
  0
LINE
  5
A839
102
{ACAD_REACTORS
330
A983
102
}
330
18
100
AcDbEntity
  8
mark
100
AcDbLine
 10
40.0
 20
45.24356752973015
 30
0.0
 11
40.0
 21
39.92187969324311
 31
0.0
  0
LINE
  5
A83B
330
18
100
AcDbEntity
  8
mark
100
AcDbLine
 10
41.25
 20
40.64356752973014
 30
0.0
 11
45.0
 21
40.64356752973014
 31
0.0
  0
TOLERANCE
  5
A83C
330
18
100
AcDbEntity
  8
mark
100
AcDbFcf
  3
STANDARD
 10
46.25
 20
41.68523419639681
 30
0.0
  1
%%v%%v%%vA%%v%%v
 11
-0.0000000000000002
 21
-1.0
 31
0.0
1001
ACAD
1000
DSTYLE
1002
{
1070
    90
1070
     1
1070
   345
1005
12
1070
   346
1005
12
1070
   347
1005
12
1002
}
  0
LINE
  5
A83F
102
{ACAD_REACTORS
330
A983
102
}
330
18
100
AcDbEntity
  8
mark
100
AcDbLine
 10
40.0
 20
39.92187969324311
 30
0.0
 11
41.25
 21
40.64356752973014
 31
0.0
  0
TOLERANCE
  5
A840
330
18
100
AcDbEntity
  8
mark
100
AcDbFcf
  3
STANDARD
 10
73.81544216897523
 20
71.76822637433578
 30
0.0
  1
{\Fgdt;h}%%v0.005%%v%%vA%%v%%v
 11
0.0000000000000001
 21
1.0
 31
0.0
1001
ACAD
1000
DSTYLE
1002
{
1070
    90
1070
     1
1070
   345
1005
12
1070
   346
1005
12
1070
   347
1005
12
1002
}
  0
LINE
  5
A84B
330
18
100
AcDbEntity
  8
mark
100
AcDbLine
 10
73.81544216897523
 20
66.76822637433578
 30
0.0
 11
73.81544216897523
 21
71.76822637433578
 31
0.0
  0
LEADER
  5
A84C
330
18
100
AcDbEntity
  8
mark
100
AcDbLeader
  3
STANDARD
 76
     3
 10
32.0
 20
63.76822637433576
 30
0.0
 10
26.09999999999999
 20
57.86822637433577
 30
0.0
 10
16.92268011676103
 20
57.86822637433577
 30
0.0
1001
ACAD
1000
DSTYLE
1002
{
1070
   147
1040
0.4
1070
    77
1070
     0
1002
}
  0
TEXT
  5
A84D
330
18
100
AcDbEntity
  8
dim
100
AcDbText
 10
16.99944883239371
 20
58.30344590637536
 30
0.0
 40
1.25
  1
3-%%C4深さ５
  7
TXT
100
AcDbText
  0
LEADER
  5
A84E
330
18
100
AcDbEntity
  8
mark
100
AcDbLeader
  3
STANDARD
 76
     3
 10
35.75
 20
50.76822637433582
 30
0.0
 10
29.84999999999999
 20
44.86822637433582
 30
0.0
 10
19.17839265112775
 20
44.86822637433582
 30
0.0
1001
ACAD
1000
DSTYLE
1002
{
1070
   147
1040
0.4
1070
    77
1070
     0
1002
}
  0
TEXT
  5
A84F
330
18
100
AcDbEntity
  8
dim
100
AcDbText
 10
19.22416230103172
 20
45.30344590637541
 30
0.0
 40
1.25
  1
3-%%C4.3深さ4
  7
TXT
100
AcDbText
  0
HATCH
  5
A978
330
18
100
AcDbEntity
  8
section
100
AcDbHatch
 10
0.0
 20
0.0
 30
0.0
210
0.0
220
0.0
230
1.0
  2
ANSI31
 70
     0
 71
     0
 91
       17
 92
        7
 72
     1
 73
     1
 93
       32
 10
40.0
 20
66.26822637433583
 42
0.0
 10
39.50000000000003
 20
66.7682263743358
 42
0.0
 10
32.5
 20
66.7682263743358
 42
0.365377418921986
 10
32.00717085532133
 20
66.35260311375667
 42
0.0
 10
32.59154759474228
 20
65.76822637433579
 42
0.0
 10
35.83684705636307
 20
65.76822637433579
 42
0.0
 10
36.99154759474229
 20
63.76822637433574
 42
0.0
 10
35.83684705636307
 20
61.7682263743358
 42
0.0
 10
32.59154759474228
 20
61.7682263743358
 42
0.0
 10
32.14224566664976
 20
61.31892444624334
 42
0.2020209134940009
 10
32.5
 20
61.16822637433583
 42
0.0
 10
38.5
 20
61.16822637433583
 42
0.0
 10
38.5
 20
59.16822637433583
 42
0.0
 10
31.5
 20
59.16822637433583
 42
0.4142135623730951
 10
31.0
 20
58.66822637433583
 42
0.0
 10
31.0
 20
51.26822637433583
 42
0.4142135623730951
 10
31.5
 20
50.76822637433583
 42
0.0
 10
33.00000000000006
 20
50.76822637433583
 42
0.0
 10
33.60000000000002
 20
51.36822637433579
 42
0.0
 10
33.60000000000002
 20
54.52692329557812
 42
0.0
 10
35.75
 20
55.76822637433583
 42
0.0
 10
37.90000000000004
 20
54.52692329557808
 42
0.0
 10
37.89999999999998
 20
51.36822637433579
 42
0.0
 10
38.5
 20
50.76822637433582
 42
0.0
 10
39.5
 20
50.76822637433582
 42
0.0
 10
40.0
 20
51.26822637433583
 42
0.0
 10
40.0
 20
56.66822637433589
 42
0.0
 10
39.50000000000006
 20
57.16822637433583
 42
0.0
 10
33.5
 20
57.16822637433583
 42
0.0
 10
33.5
 20
58.16822637433583
 42
0.0
 10
39.50000000000006
 20
58.16822637433583
 42
0.0
 10
40.0
 20
58.66822637433577
 42
0.0
 97
        0
 92
        7
 72
     0
 73
     1
 93
        4
 10
40.50000000000006
 20
56.16822637433583
 10
40.0
 20
56.66822637433589
 10
40.0
 20
51.26822637433583
 10
40.49999999999999
 20
51.76822637433582
 97
        0
 92
        7
 72
     0
 73
     1
 93
        4
 10
40.49999999999999
 20
65.76822637433583
 10
40.0
 20
66.26822637433583
 10
40.0
 20
58.66822637433577
 10
40.50000000000006
 20
59.16822637433583
 97
        0
 92
        7
 72
     1
 73
     1
 93
        7
 10
63.0
 20
66.2682263743358
 42
0.4142135623730951
 10
62.5
 20
66.7682263743358
 42
0.0
 10
61.25
 20
66.7682263743358
 42
0.0
 10
61.25
 20
63.96822637433572
 42
0.0
 10
61.25
 20
61.16822637433583
 42
0.0
 10
62.5
 20
61.16822637433583
 42
0.4142135623730951
 10
63.0
 20
61.66822637433583
 42
0.0
 97
        0
 92
        7
 72
     0
 73
     1
 93
       11
 10
57.25
 20
66.76822637433578
 10
55.5
 20
66.76822637433578
 10
55.0
 20
66.2682263743358
 10
55.00000000000006
 20
58.66822637433577
 10
55.5
 20
58.16822637433583
 10
57.25
 20
58.16822637433583
 10
57.25
 20
59.16822637433583
 10
56.5
 20
59.16822637433583
 10
56.5
 20
61.16822637433583
 10
57.25
 20
61.16822637433584
 10
57.25
 20
63.9682263743357
 97
        0
 92
        7
 72
     0
 73
     1
 93
        4
 10
55.0
 20
66.2682263743358
 10
54.5
 20
65.76822637433579
 10
54.5
 20
59.16822637433583
 10
55.00000000000006
 20
58.66822637433577
 97
        0
 92
        7
 72
     0
 73
     1
 93
        4
 10
55.00000000000006
 20
56.66822637433594
 10
54.5
 20
56.16822637433588
 10
54.5
 20
51.7682263743358
 10
55.0
 20
51.2682263743358
 97
        0
 92
        7
 72
     0
 73
     1
 93
        9
 10
57.25
 20
57.16822637433583
 10
55.49999999999994
 20
57.16822637433583
 10
55.00000000000006
 20
56.66822637433594
 10
55.0
 20
51.2682263743358
 10
55.5
 20
50.7682263743358
 10
55.75
 20
50.7682263743358
 10
55.75
 20
51.06822637433586
 10
55.75
 20
54.76822637433579
 10
57.25
 20
54.76822637433579
 97
        0
 92
        7
 72
     1
 73
     1
 93
       13
 10
64.0
 20
58.66822637433583
 42
0.4142135623730956
 10
63.5
 20
59.16822637433583
 42
0.0
 10
61.25
 20
59.16822637433583
 42
0.0
 10
61.25
 20
58.16822637433583
 42
0.0
 10
61.5
 20
58.16822637433583
 42
0.0
 10
61.5
 20
57.16822637433583
 42
0.0
 10
61.25
 20
57.16822637433583
 42
0.0
 10
61.25
 20
54.76822637433579
 42
0.0
 10
62.75
 20
54.76822637433579
 42
0.0
 10
62.75
 20
51.06822637433575
 42
0.0
 10
62.75
 20
50.76822637433579
 42
0.0
 10
63.5
 20
50.76822637433579
 42
0.4142135623730951
 10
64.0
 20
51.2682263743358
 42
0.0
 97
        0
 92
        7
 72
     0
 73
     1
 93
        3
 10
57.62900000000001
 20
55.42467363040433
 10
57.25
 20
55.42467363040433
 10
57.25
 20
54.7682263743358
 97
        0
 92
        7
 72
     0
 73
     1
 93
        4
 10
57.62899999999991
 20
63.96822637433579
 10
57.25
 20
63.96822637433579
 10
57.25
 20
55.42467363040433
 10
57.62900000000001
 20
55.42467363040433
 97
        0
 92
        7
 72
     0
 73
     1
 93
        3
 10
61.25
 20
55.42467363040433
 10
60.87100000000001
 20
55.42467363040433
 10
61.25
 20
54.76822637433573
 97
        0
 92
        7
 72
     0
 73
     1
 93
        5
 10
61.25
 20
57.16822637433583
 10
61.25
 20
63.96822637433579
 10
60.87100000000003
 20
63.96822637433579
 10
60.87099999999998
 20
55.42467363040433
 10
61.25
 20
55.42467363040433
 97
        0
 92
       23
 72
     0
 73
     1
 93
        3
 10
60.87100000000003
 20
64.34722637433569
 10
60.87100000000003
 20
63.96822637433579
 10
61.24999999999994
 20
63.96822637433579
 97
        0
 92
        7
 72
     0
 73
     1
 93
        4
 10
61.25
 20
66.76822637433578
 10
60.87100000000003
 20
66.76822637433578
 10
60.87100000000003
 20
64.34722637433569
 10
61.25
 20
63.96822637433572
 97
        0
 92
       23
 72
     0
 73
     1
 93
        3
 10
57.62899999999991
 20
64.34722637433563
 10
57.25000000000005
 20
63.96822637433579
 10
57.62899999999991
 20
63.96822637433579
 97
        0
 92
        7
 72
     0
 73
     1
 93
        4
 10
57.62899999999991
 20
66.76822637433578
 10
57.25
 20
66.76822637433578
 10
57.25
 20
63.96822637433572
 10
57.62899999999991
 20
64.34722637433563
 97
        0
 75
     1
 76
     1
 52
0.0
 41
0.3
 77
     0
 78
     1
 53
45.0
 43
-108.0263247820747
 44
2.537151759959499
 45
-0.6735192090801864
 46
0.6735192090801866
 79
     0
 47
0.1044027771786854
 98
       17
 10
38.44201652032314
 20
62.16856114880875
 10
40.15838409991715
 20
54.89075930046317
 10
40.41843910094041
 20
59.98522077946979
 10
62.66509109278809
 20
64.24458744320332
 10
56.64041837888385
 20
64.17159874428216
 10
54.7417332736328
 20
63.04027414246025
 10
54.7417332736328
 20
53.88019451095885
 10
55.83712868369662
 20
55.52243954231705
 10
62.59206445992436
 20
56.17933783260742
 10
57.46146539441395
 20
55.29934149444864
 10
57.30766606316752
 20
56.01670116338209
 10
61.10137963426485
 20
55.24810131970548
 10
61.07574722896913
 20
56.01670116338209
 10
60.97739849071444
 20
64.1240002970029
 10
61.13305063902419
 20
64.49115095527304
 10
57.49700698219647
 20
64.07421690582765
 10
57.4098421057746
 20
64.44136756409779
1001
GradientColor1ACI
1070
     5
1001
GradientColor2ACI
1070
     2
1001
ACAD
1010
0.0
1020
0.0
1030
0.0
  0
HATCH
  5
A983
330
18
100
AcDbEntity
  8
mark
100
AcDbHatch
 10
0.0
 20
0.0
 30
0.0
210
0.0
220
0.0
230
1.0
  2
SOLID
 70
     1
 71
     1
 91
        1
 92
        7
 72
     0
 73
     1
 93
        3
 10
40.0
 20
41.36525536621719
 10
40.0
 20
39.92187969324311
 10
41.25
 20
40.64356752973014
 97
        3
330
A839
330
A83F
330
A838
 75
     1
 76
     1
 47
0.0174410192676655
 98
        1
 10
40.81705770788334
 20
40.70596558015608
450
        0
451
        0
460
0.0
461
0.0
452
        0
462
0.0
453
        0
470

1001
GradientColor1ACI
1070
     5
1001
GradientColor2ACI
1070
     2
1001
ACAD
1010
0.0
1020
0.0
1030
0.0
  0
DIMENSION
  5
A984
330
18
100
AcDbEntity
  8
mark
100
AcDbDimension
  2
*D54
 10
57.67579849446713
 20
98.10711649638129
 30
0.0
 11
27.7211463635858
 21
115.4014429676271
 31
0.0
 70
   163
  1
P.C.D 23.5
 71
     5
 42
23.50000000000001
  3
STANDARD
100
AcDbDiametricDimension
 15
37.32420150553281
 25
109.8571164963812
 35
0.0
 40
0.0
1001
ACAD
1000
DSTYLE
1002
{
1070
    90
1070
     1
1070
   288
1070
     1
1070
   345
1005
12
1070
   346
1005
12
1070
   347
1005
12
1002
}
1001
ACAD_DSTYLE_DIMRADIAL_EXTENSION
1070
   387
1070
     1
1070
   388
1040
0.0
1070
   390
1040
0.0
  0
LINE
  5
AAAF
330
18
100
AcDbEntity
  8
mark
100
AcDbLine
 10
32.0
 20
66.6682263743358
 30
0.0
 11
32.0
 21
71.61585601321272
 31
0.0
  0
LINE
  5
AAB0
330
18
100
AcDbEntity
  8
mark
100
AcDbLine
 10
63.0
 20
66.6682263743358
 30
0.0
 11
63.0
 21
71.61585601321272
 31
0.0
  0
LINE
  5
AAB1
330
18
100
AcDbEntity
  8
mark
100
AcDbLine
 10
33.25
 20
71.21585601321271
 30
0.0
 11
61.75
 21
71.21585601321271
 31
0.0
  0
INSERT
  5
AAB2
330
18
100
AcDbEntity
  8
mark
100
AcDbBlockReference
  2
_Open30
 10
32.0
 20
71.21585601321271
 30
0.0
 41
1.25
 42
1.25
 43
1.25
 50
180.0
  0
INSERT
  5
AAB3
330
18
100
AcDbEntity
  8
mark
100
AcDbBlockReference
  2
_Open30
 10
63.0
 20
71.21585601321271
 30
0.0
 41
1.25
 42
1.25
 43
1.25
  0
MTEXT
  5
AAB4
330
18
100
AcDbEntity
  8
mark
 62
     3
100
AcDbMText
 10
47.5
 20
72.24085601321272
 30
0.0
 40
1.25
 41
0.0
 71
     5
 72
     1
  1
\A1;%%C31{\H0.448x;\S+0^ -0.2;}
 73
     1
 44
1.0
  0
LINE
  5
AB8A
330
18
100
AcDbEntity
  8
mark
100
AcDbLine
 10
64.0
 20
50.8682263743358
 30
0.0
 11
64.0
 21
35.11143876274472
 31
0.0
  0
LINE
  5
AB8B
330
18
100
AcDbEntity
  8
mark
100
AcDbLine
 10
31.0
 20
50.86822637433582
 30
0.0
 11
31.0
 21
35.11143876274472
 31
0.0
  0
LINE
  5
AB8C
330
18
100
AcDbEntity
  8
mark
100
AcDbLine
 10
62.75
 20
35.51143876274472
 30
0.0
 11
32.25
 21
35.51143876274472
 31
0.0
  0
INSERT
  5
AB8D
330
18
100
AcDbEntity
  8
mark
100
AcDbBlockReference
  2
_Open30
 10
64.0
 20
35.51143876274472
 30
0.0
 41
1.25
 42
1.25
 43
1.25
  0
INSERT
  5
AB8E
330
18
100
AcDbEntity
  8
mark
100
AcDbBlockReference
  2
_Open30
 10
31.0
 20
35.51143876274472
 30
0.0
 41
1.25
 42
1.25
 43
1.25
 50
180.0
  0
MTEXT
  5
AB8F
330
18
100
AcDbEntity
  8
mark
 62
     3
100
AcDbMText
 10
47.5
 20
36.53643876274472
 30
0.0
 40
1.25
 41
0.0
 71
     5
 72
     1
  1
\A1;%%C33{\H0.448x;\S+0^ -0.2;}
 73
     1
 44
1.0
  0
LEADER
  5
AC4F
330
18
100
AcDbEntity
  8
mark
100
AcDbLeader
  3
STANDARD
 76
     2
 10
61.78941916244323
 20
112.2321164963813
 30
0.0
 10
68.54579444979925
 20
116.1329115872824
 30
0.0
211
0.8660254037844387
221
0.5
231
0.0
1001
ACAD
1000
DSTYLE
1002
{
1070
   147
1040
0.4
1070
    77
1070
     0
1070
    90
1070
     1
1070
   345
1005
12
1070
   346
1005
12
1070
   347
1005
12
1002
}
  0
LEADER
  5
AC50
330
18
100
AcDbEntity
  8
mark
100
AcDbLeader
  3
STANDARD
 76
     2
 10
59.25
 20
50.76822637433579
 30
0.0
 10
68.54579444979925
 20
41.47243192453655
 30
0.0
211
0.7071067811865476
221
0.7071067811865475
231
0.0
1001
ACAD
1000
DSTYLE
1002
{
1070
   147
1040
0.4
1070
    77
1070
     0
1070
    90
1070
     1
1070
   345
1005
12
1070
   346
1005
12
1070
   347
1005
12
1002
}
  0
MTEXT
  5
AC52
330
18
100
AcDbEntity
  8
dim
100
AcDbMText
 10
69.36645241462679
 20
117.3037409413015
 30
0.0
 40
1.75
 41
2.853130049864148
 71
     1
 72
     5
  1
{\Ftxt,bigfont|c136;1}
  7
TXT
 73
     1
 44
1.0
1001
ACAD
1000
ACAD_MTEXT_COLUMN_INFO_BEGIN
1070
    75
1070
     2
1070
    79
1070
     0
1070
    76
1070
     1
1070
    78
1070
     0
1070
    48
1040
2.853130049864148
1070
    49
1040
6.25
1070
    50
1070
     1
1040
0.0
1000
ACAD_MTEXT_COLUMN_INFO_END
  0
MTEXT
  5
AC53
330
18
100
AcDbEntity
  8
dim
100
AcDbMText
 10
69.36645241462679
 20
42.64326127855565
 30
0.0
 40
1.75
 41
2.853130049864148
 71
     1
 72
     5
  1
{\Ftxt,bigfont|c136;2}
  7
TXT
 73
     1
 44
1.0
1001
ACAD
1000
ACAD_MTEXT_COLUMN_INFO_BEGIN
1070
    75
1070
     2
1070
    79
1070
     0
1070
    76
1070
     1
1070
    78
1070
     0
1070
    48
1040
2.853130049864148
1070
    49
1040
6.25
1070
    50
1070
     1
1040
0.0
1000
ACAD_MTEXT_COLUMN_INFO_END
  0
ENDSEC
  0
SECTION
  2
OBJECTS
  0
DICTIONARY
  5
C
330
0
100
AcDbDictionary
281
     1
  3
ACAD_2007HEADERVARS_RT
350
AE02
  3
ACAD_CIP_PREVIOUS_PRODUCT_INFO
350
ADFB
  3
ACAD_COLOR
350
7873
  3
ACAD_DETAILVIEWSTYLE
350
ADE9
  3
ACAD_GROUP
350
D
  3
ACAD_LAYOUT
350
5CF3
  3
ACAD_MATERIAL
350
7872
  3
ACAD_MLEADERSTYLE
350
9C3C
  3
ACAD_MLINESTYLE
350
1B
  3
ACAD_PLOTSETTINGS
350
5CF4
  3
ACAD_PLOTSTYLENAME
350
5CF1
  3
ACAD_SCALELIST
350
9C2A
  3
ACAD_SECTIONVIEWSTYLE
350
ADE7
  3
ACAD_TABLESTYLE
350
7874
  3
ACAD_VISUALSTYLE
350
9C11
  3
AcadDim
350
9A73
  3
ACDB_RECOMPOSE_DATA
350
AE01
  3
ACDBVARIABLEDICTIONARY
350
45D
  3
AcmDictionary
350
9C97
  3
AMG
350
9C4A
  3
AMGSNAPSETTINGS
350
9CD8
  0
DICTIONARY
  5
9F9F
330
8
100
AcDbDictionary
280
     1
281
     1
  0
DICTIONARY
  5
7BFE
330
2
100
AcDbDictionary
280
     1
281
     1
  3
ACAD_LAYERFILTERS
360
7C00
  3
ACAD_LAYERSTATES
360
9E8F
  3
ACLYDICTIONARY
360
7BFF
  0
DICTIONARY
  5
9F80
330
E
100
AcDbDictionary
280
     1
281
     1
  3
ADSK_XREC_LAYER_RECONCILED
360
9F81
  0
DICTIONARY
  5
9F82
330
B9
100
AcDbDictionary
280
     1
281
     1
  3
ADSK_XREC_LAYER_RECONCILED
360
9F83
  0
DICTIONARY
  5
9F84
330
5F8B
100
AcDbDictionary
280
     1
281
     1
  3
ADSK_XREC_LAYER_RECONCILED
360
9F85
  0
DICTIONARY
  5
9F86
330
644E
100
AcDbDictionary
280
     1
281
     1
  3
ADSK_XREC_LAYER_RECONCILED
360
9F87
  0
DICTIONARY
  5
9F88
330
650D
100
AcDbDictionary
280
     1
281
     1
  3
ADSK_XREC_LAYER_RECONCILED
360
9F89
  0
DICTIONARY
  5
9F8A
330
650E
100
AcDbDictionary
280
     1
281
     1
  3
ADSK_XREC_LAYER_RECONCILED
360
9F8B
  0
DICTIONARY
  5
9F8C
330
650F
100
AcDbDictionary
280
     1
281
     1
  3
ADSK_XREC_LAYER_RECONCILED
360
9F8D
  0
DICTIONARY
  5
9F8E
330
6510
100
AcDbDictionary
280
     1
281
     1
  3
ADSK_XREC_LAYER_RECONCILED
360
9F8F
  0
DICTIONARY
  5
45F
330
18
100
AcDbDictionary
280
     1
281
     1
  3
ACAD_LAYOUTSELFREF
360
5D8B
  3
ACAD_SORTENTS
360
460
  0
DICTIONARY
  5
5D89
330
15
100
AcDbDictionary
280
     1
281
     1
  3
ACAD_LAYOUTSELFREF
360
5D8A
  0
DICTIONARY
  5
7C0B
330
7C0A
100
AcDbDictionary
280
     1
281
     1
  3
AcDbBlockTableRecordData
360
AE0A
  0
DICTIONARY
  5
8E73
330
8E72
100
AcDbDictionary
280
     1
281
     1
  3
AcDbBlockTableRecordData
360
AE0C
  0
DICTIONARY
  5
A398
330
A397
100
AcDbDictionary
280
     1
281
     1
  3
ACAD_SORTENTS
360
A399
  0
DICTIONARY
  5
ADA7
330
A1DF
100
AcDbDictionary
280
     1
281
     1
  0
DICTIONARY
  5
ADA9
330
A1E5
100
AcDbDictionary
280
     1
281
     1
  0
DICTIONARY
  5
ADAB
330
A1EB
100
AcDbDictionary
280
     1
281
     1
  0
DICTIONARY
  5
ADAD
330
A1EC
100
AcDbDictionary
280
     1
281
     1
  0
DICTIONARY
  5
ADAF
330
A1EE
100
AcDbDictionary
280
     1
281
     1
  0
DICTIONARY
  5
ADB1
330
A1F7
100
AcDbDictionary
280
     1
281
     1
  0
DICTIONARY
  5
ADB3
330
A1F9
100
AcDbDictionary
280
     1
281
     1
  0
DICTIONARY
  5
ADB5
330
A1FA
100
AcDbDictionary
280
     1
281
     1
  0
DICTIONARY
  5
ADB7
330
A1FB
100
AcDbDictionary
280
     1
281
     1
  0
DICTIONARY
  5
ADB9
330
A1FC
100
AcDbDictionary
280
     1
281
     1
  0
DICTIONARY
  5
ADBB
330
A200
100
AcDbDictionary
280
     1
281
     1
  0
DICTIONARY
  5
ADBD
330
A201
100
AcDbDictionary
280
     1
281
     1
  0
DICTIONARY
  5
ADBF
330
A208
100
AcDbDictionary
280
     1
281
     1
  0
DICTIONARY
  5
ADC1
330
A20A
100
AcDbDictionary
280
     1
281
     1
  0
DICTIONARY
  5
ADC3
330
A20C
100
AcDbDictionary
280
     1
281
     1
  0
DICTIONARY
  5
ADC5
330
A20D
100
AcDbDictionary
280
     1
281
     1
  0
DICTIONARY
  5
ADC7
330
A20F
100
AcDbDictionary
280
     1
281
     1
  0
DICTIONARY
  5
ADC9
330
A210
100
AcDbDictionary
280
     1
281
     1
  0
DICTIONARY
  5
ADCB
330
A211
100
AcDbDictionary
280
     1
281
     1
  0
DICTIONARY
  5
ADCD
330
A216
100
AcDbDictionary
280
     1
281
     1
  0
DICTIONARY
  5
ADCF
330
A218
100
AcDbDictionary
280
     1
281
     1
  0
DICTIONARY
  5
ADD1
330
A219
100
AcDbDictionary
280
     1
281
     1
  0
DICTIONARY
  5
ADD3
330
A21A
100
AcDbDictionary
280
     1
281
     1
  0
DICTIONARY
  5
ADD5
330
A21E
100
AcDbDictionary
280
     1
281
     1
  0
DICTIONARY
  5
ADD7
330
A220
100
AcDbDictionary
280
     1
281
     1
  0
DICTIONARY
  5
ADD9
330
A224
100
AcDbDictionary
280
     1
281
     1
  0
DICTIONARY
  5
ADDB
330
A229
100
AcDbDictionary
280
     1
281
     1
  0
DICTIONARY
  5
ADE3
330
A6BC
100
AcDbDictionary
280
     1
281
     1
  0
DICTIONARY
  5
AE02
102
{ACAD_REACTORS
330
C
102
}
330
C
100
AcDbDictionary
281
     1
  3
DIMARCSYM
350
AE04
  3
DIMFXL
350
AE03
  3
DIMJOGANG
350
AE05
  3
DIMLTEX1
350
AE07
  3
DIMLTEX2
350
AE08
  3
DIMLTYPE
350
AE06
  0
XRECORD
  5
ADFB
102
{ACAD_REACTORS
330
C
102
}
330
C
100
AcDbXrecord
280
     1
300
ACDLT
300
2018
300
ACDLT_F_S
  0
DICTIONARY
  5
7873
102
{ACAD_REACTORS
330
C
102
}
330
C
100
AcDbDictionary
281
     1
  0
DICTIONARY
  5
ADE9
102
{ACAD_REACTORS
330
C
102
}
330
C
100
AcDbDictionary
281
     1
  3
Metric50
350
ADEA
  0
DICTIONARY
  5
D
102
{ACAD_REACTORS
330
C
102
}
330
C
100
AcDbDictionary
281
     1
  0
DICTIONARY
  5
5CF3
102
{ACAD_REACTORS
330
C
102
}
330
C
100
AcDbDictionary
281
     1
  3
Model
350
5CF5
  3
配置1
350
5CF6
1001
ACADSTRINGINFO
1000
MIFCodePage
1070
     1
  0
DICTIONARY
  5
7872
102
{ACAD_REACTORS
330
C
102
}
330
C
100
AcDbDictionary
281
     1
  3
ByBlock
350
9C01
  3
ByLayer
350
9BF9
  3
Global
350
9C09
  0
DICTIONARY
  5
9C3C
102
{ACAD_REACTORS
330
C
102
}
330
C
100
AcDbDictionary
281
     1
  3
Standard
350
9C3D
  0
DICTIONARY
  5
1B
102
{ACAD_REACTORS
330
C
102
}
330
C
100
AcDbDictionary
281
     1
  3
STANDARD
350
1C
  0
DICTIONARY
  5
5CF4
102
{ACAD_REACTORS
330
C
102
}
330
C
100
AcDbDictionary
281
     1
  0
ACDBDICTIONARYWDFLT
  5
5CF1
102
{ACAD_REACTORS
330
C
102
}
330
C
100
AcDbDictionary
281
     1
  3
Normal
350
5CF2
  3
黑
350
A475
100
AcDbDictionaryWithDefault
340
5CF2
1001
ACADSTRINGINFO
1000
MIFCodePage
1070
     2
  0
DICTIONARY
  5
9C2A
102
{ACAD_REACTORS
330
C
102
}
330
C
100
AcDbDictionary
281
     1
  3
A0
350
9C2B
  3
A1
350
9C2C
  3
A2
350
9C2D
  3
A3
350
9C2E
  3
A4
350
9C2F
  3
A5
350
9C30
  3
A6
350
9C31
  3
A7
350
9C32
  3
A8
350
9C33
  3
A9
350
9C34
  3
B0
350
9C35
  3
B1
350
9C36
  3
B2
350
9C37
  3
B3
350
9C38
  3
B4
350
9C39
  3
B5
350
9C3A
  3
B6
350
9C3B
  0
DICTIONARY
  5
ADE7
102
{ACAD_REACTORS
330
C
102
}
330
C
100
AcDbDictionary
281
     1
  3
Metric50
350
ADE8
  0
DICTIONARY
  5
7874
102
{ACAD_REACTORS
330
C
102
}
330
C
100
AcDbDictionary
281
     1
  3
Standard
350
7875
  0
DICTIONARY
  5
9C11
102
{ACAD_REACTORS
330
C
102
}
330
C
100
AcDbDictionary
281
     1
  3
2dWireframe
350
9C17
  3
Basic
350
9C16
  3
Brighten
350
9C1D
  3
ColorChange
350
9C21
  3
Conceptual
350
9C1A
  3
Dim
350
9C1C
  3
EdgeColorOff
350
9C29
  3
Facepattern
350
9C20
  3
Flat
350
9C12
  3
FlatWithEdges
350
9C13
  3
Gouraud
350
9C14
  3
GouraudWithEdges
350
9C15
  3
Hidden
350
9C19
  3
JitterOff
350
9C27
  3
Linepattern
350
9C1F
  3
OverhangOff
350
9C28
  3
Realistic
350
9C1B
  3
Shaded
350
9C26
  3
Shaded with edges
350
9C25
  3
Shades of Gray
350
9C22
  3
Sketchy
350
9C23
  3
Thicken
350
9C1E
  3
Wireframe
350
9C18
  3
X-Ray
350
9C24
  0
XRECORD
  5
9A73
102
{ACAD_REACTORS
330
C
102
}
330
C
100
AcDbXrecord
280
     1
 90
   990106
  3

 60
     0
 61
     0
 62
     1
 63
     3
 64
     0
 65
     0
 66
     0
 67
     3
 68
     1
 69
     0
 70
     0
 71
     0
 72
     0
 40
0.0
170
     0
  0
XRECORD
  5
AE01
102
{ACAD_REACTORS
330
C
102
}
330
C
100
AcDbXrecord
280
     1
 90
        1
330
7875
330
AC52
330
AC53
  0
DICTIONARY
  5
45D
102
{ACAD_REACTORS
330
C
102
}
330
C
100
AcDbDictionary
281
     1
  3
CANNOSCALE
350
A05B
  3
CMLEADERSTYLE
350
A05A
  3
CTABLESTYLE
350
7880
  3
CVIEWDETAILSTYLE
350
ADFC
  3
CVIEWSECTIONSTYLE
350
ADFD
  3
DIMASSOC
350
A05E
  3
INDEXCTL
350
A05C
  3
SORTENTS
350
45E
  3
XCLIPFRAME
350
ADFE
  0
DICTIONARY
  5
9C97
102
{ACAD_REACTORS
330
C
102
}
330
C
100
AcDbDictionary
281
     1
  3
AcmStdDictionary
350
9CA2
  0
DICTIONARY
  5
9C4A
102
{ACAD_REACTORS
330
C
102
}
330
C
100
AcDbDictionary
281
     1
  0
DICTIONARY
  5
9CD8
102
{ACAD_REACTORS
330
C
102
}
330
C
100
AcDbDictionary
281
     1
  0
DICTIONARY
  5
7C00
102
{ACAD_REACTORS
330
7BFE
102
}
330
7BFE
100
AcDbDictionary
281
     1
  0
DICTIONARY
  5
9E8F
102
{ACAD_REACTORS
330
7BFE
102
}
330
7BFE
100
AcDbDictionary
281
     1
  0
DICTIONARY
  5
7BFF
102
{ACAD_REACTORS
330
7BFE
102
}
330
7BFE
100
AcDbDictionary
281
     1
1001
ACAD
1000
<All
  0
XRECORD
  5
9F81
102
{ACAD_REACTORS
330
9F80
102
}
330
9F80
100
AcDbXrecord
280
     1
290
     1
  0
XRECORD
  5
9F83
102
{ACAD_REACTORS
330
9F82
102
}
330
9F82
100
AcDbXrecord
280
     1
290
     1
  0
XRECORD
  5
9F85
102
{ACAD_REACTORS
330
9F84
102
}
330
9F84
100
AcDbXrecord
280
     1
290
     1
  0
XRECORD
  5
9F87
102
{ACAD_REACTORS
330
9F86
102
}
330
9F86
100
AcDbXrecord
280
     1
290
     1
  0
XRECORD
  5
9F89
102
{ACAD_REACTORS
330
9F88
102
}
330
9F88
100
AcDbXrecord
280
     1
290
     1
  0
XRECORD
  5
9F8B
102
{ACAD_REACTORS
330
9F8A
102
}
330
9F8A
100
AcDbXrecord
280
     1
290
     1
  0
XRECORD
  5
9F8D
102
{ACAD_REACTORS
330
9F8C
102
}
330
9F8C
100
AcDbXrecord
280
     1
290
     1
  0
XRECORD
  5
9F8F
102
{ACAD_REACTORS
330
9F8E
102
}
330
9F8E
100
AcDbXrecord
280
     1
290
     1
  0
XRECORD
  5
5D8B
102
{ACAD_REACTORS
330
45F
102
}
330
45F
100
AcDbXrecord
280
     1
340
18
  0
SORTENTSTABLE
  5
460
102
{ACAD_REACTORS
330
45F
102
}
330
45F
100
AcDbSortentsTable
330
18
331
A212
  5
A212
331
A21A
  5
A21A
331
A1E3
  5
A1E3
331
A222
  5
A222
331
A1EB
  5
A1EB
331
A6C2
  5
A6DE
331
A6FF
  5
A702
331
A73E
  5
A7AB
331
A707
  5
A740
331
A746
  5
A7B2
331
A6D2
  5
A6FD
331
A74E
  5
A7BD
331
A717
  5
A70C
331
AAB1
  5
A8E1
331
A7AE
  5
A7C9
331
A1F3
  5
A1F3
331
A1FB
  5
A1FB
331
A203
  5
A203
331
A20B
  5
A20B
331
A71F
  5
A6EE
331
A6E0
  5
A719
331
A727
  5
A6E9
331
A6E8
  5
A723
331
A72F
  5
A74B
331
A6F0
  5
A730
331
A737
  5
A759
331
A7BE
  5
A7D2
331
A7C6
  5
A7DA
331
A7CE
  5
A83B
331
A7D6
  5
A84F
331
A213
  5
A213
331
A21B
  5
A21B
331
A1E4
  5
A1E4
331
A223
  5
A223
331
A1EC
  5
A1EC
331
A6F8
  5
A739
331
A6C3
  5
A6E5
331
A700
  5
A6F3
331
A73F
  5
A7AC
331
A6CB
  5
A6F7
331
A747
  5
A7B3
331
A708
  5
A741
331
A6D3
  5
A6FF
331
A74F
  5
A7BE
331
A757
  5
A7C3
331
AAB2
  5
A8E2
331
A83B
  5
A979
331
A7AF
  5
A7CA
331
A7F6
  5
A8E8
331
A1F4
  5
A1F4
331
A1FC
  5
A1FC
331
A204
  5
A204
331
A20C
  5
A20C
331
A718
  5
A705
331
A6E1
  5
A71A
331
A720
  5
A6F9
331
A6E9
  5
A724
331
A728
  5
A6F4
331
A6F1
  5
A731
331
A730
  5
A74F
331
A6BC
  5
A6BC
331
A84B
  5
AAAF
331
A7BF
  5
A7D3
331
AB8A
  5
AB8A
331
A7C7
  5
A7E7
331
A983
  5
A8EC
331
A7CF
  5
A83D
331
A7D7
  5
A850
331
A214
  5
A214
331
A21C
  5
A21C
331
A1E5
  5
A1E5
331
A224
  5
A224
331
A1ED
  5
A1ED
331
A6F9
  5
A73B
331
A701
  5
A6EA
331
A740
  5
A7AD
331
A6D4
  5
A700
331
A750
  5
A7BF
331
A758
  5
A7C4
331
AAB3
  5
A8E3
331
A83C
  5
A97E
331
A7E7
  5
A8E7
331
A7B0
  5
A7CB
331
A1F5
  5
A1F5
331
A1FD
  5
A1FD
331
A205
  5
A205
331
A20D
  5
A20D
331
A719
  5
A70B
331
A6E2
  5
A71C
331
A721
  5
A74A
331
A6EA
  5
A725
331
A729
  5
A6D3
331
A6F2
  5
A732
331
A731
  5
A751
331
A84C
  5
AAB0
331
AB8B
  5
AB8B
331
A7C0
  5
A7D4
331
A7C8
  5
A7F6
331
A7D0
  5
A83F
331
A984
  5
AAB4
331
A215
  5
A215
331
A1DE
  5
A1DE
331
A21D
  5
A21D
331
A1E6
  5
A1E6
331
A225
  5
A225
331
A1EE
  5
A1EE
331
A6FA
  5
A73C
331
A6CD
  5
A6EF
331
A702
  5
A6E3
331
A741
  5
A7AE
331
A6D5
  5
A704
331
A70A
  5
A742
331
A749
  5
A6E6
331
A7D8
  5
A851
331
A751
  5
A7C0
331
AAB4
  5
A8E6
331
A759
  5
A7C5
331
A7B1
  5
A7CC
331
A1F6
  5
A1F6
331
A1FE
  5
A1FE
331
A206
  5
A206
331
A20E
  5
A20E
331
A71A
  5
A746
331
A6E3
  5
A71E
331
A722
  5
A703
331
A6EB
  5
A726
331
A6BE
  5
A6D0
331
A6F3
  5
A733
331
A732
  5
A752
331
A84D
  5
AAB1
331
AB8C
  5
AB8C
331
A7C1
  5
A7D5
331
A7C9
  5
A80A
331
A7D1
  5
A840
331
A216
  5
A216
331
A1DF
  5
A1DF
331
A21E
  5
A21E
331
A1E7
  5
A1E7
331
A226
  5
A226
331
A1EF
  5
A1EF
331
A6FB
  5
A73D
331
A742
  5
A7AF
331
A6CE
  5
A6D4
331
A70B
  5
A744
331
A74A
  5
A6E2
331
A6D6
  5
A708
331
A752
  5
A7C1
331
A826
  5
A8EB
331
A7D9
  5
A8DD
331
A7B2
  5
A7CD
331
A228
  5
A228
331
A1F7
  5
A1F7
331
A1FF
  5
A1FF
331
A207
  5
A207
331
A20F
  5
A20F
331
A723
  5
A6E4
331
A6E4
  5
A71F
331
A6EC
  5
A727
331
A733
  5
A753
331
A6F4
  5
A734
331
A84E
  5
AAB2
331
AB8D
  5
AB8D
331
A7C2
  5
A7D6
331
A7CA
  5
A819
331
A819
  5
A8EA
331
A7D2
  5
A84B
331
A217
  5
A217
331
A21F
  5
A21F
331
A1E0
  5
A1E0
331
A1E8
  5
A1E8
331
A227
  5
A227
331
A73B
  5
A75A
331
A704
  5
A6EC
331
A6CF
  5
A6FA
331
C0
  5
CB
331
A70C
  5
A745
331
A74B
  5
A7B4
331
A83F
  5
A97F
331
A7AB
  5
A7C6
331
A7B3
  5
A7CE
331
A229
  5
A229
331
A1F0
  5
A1F0
331
A1F8
  5
A1F8
331
A200
  5
A200
331
A208
  5
A208
331
A71C
  5
A747
331
A6E5
  5
A720
331
A724
  5
A701
331
A6ED
  5
A728
331
A6F5
  5
A735
331
A734
  5
A754
331
A84F
  5
AAB3
331
A80A
  5
A8E9
331
AB8E
  5
AB8E
331
A7C3
  5
A7D7
331
A7CB
  5
A826
331
A7D3
  5
A84C
331
A210
  5
A210
331
A218
  5
A218
331
A1E1
  5
A1E1
331
A220
  5
A220
331
A1E9
  5
A1E9
331
A6FD
  5
A73E
331
A73C
  5
A773
331
A6C8
  5
A6F5
331
A744
  5
A7B0
331
A715
  5
A6F6
331
A754
  5
A7C2
331
AAAF
  5
A8DF
331
A838
  5
A8ED
331
A840
  5
A984
331
A7AC
  5
A7C7
331
A7B4
  5
A7CF
331
A22A
  5
A22A
331
A1F1
  5
A1F1
331
A1F9
  5
A1F9
331
A201
  5
A201
331
A209
  5
A209
331
A6DE
  5
A715
331
A71D
  5
A6ED
331
A6E6
  5
A721
331
A725
  5
A6FE
331
A6EE
  5
A729
331
A6F6
  5
A736
331
A735
  5
A758
331
A7BC
  5
A7D0
331
AB8F
  5
AB8F
331
A7C4
  5
A7D8
331
A978
  5
A6CC
331
A7CC
  5
A838
331
A7D4
  5
A84D
331
A211
  5
A211
331
A219
  5
A219
331
A1E2
  5
A1E2
331
A221
  5
A221
331
A1EA
  5
A1EA
331
A6C1
  5
A6F0
331
A6FE
  5
A73F
331
A73D
  5
A774
331
A6D1
  5
A6FB
331
A745
  5
A7B1
331
A74D
  5
A7BC
331
A716
  5
A6F8
331
AAB0
  5
A8E0
331
A839
  5
A8EE
331
A7AD
  5
A7C8
331
A1F2
  5
A1F2
331
A1FA
  5
A1FA
331
A202
  5
A202
331
A20A
  5
A20A
331
A6DF
  5
A718
331
A71E
  5
A749
331
A6E7
  5
A722
331
A726
  5
A6F2
331
A6EF
  5
A72F
331
A6F7
  5
A737
331
A7BD
  5
A7D1
331
A7C5
  5
A7D9
331
A7CD
  5
A839
331
A7D5
  5
A84E
  0
XRECORD
  5
5D8A
102
{ACAD_REACTORS
330
5D89
102
}
330
5D89
100
AcDbXrecord
280
     1
340
15
  0
DICTIONARY
  5
AE0A
102
{ACAD_REACTORS
330
7C0B
102
}
330
7C0B
100
AcDbDictionary
280
     1
281
     1
  3
Edit
360
AE0B
  0
DICTIONARY
  5
AE0C
102
{ACAD_REACTORS
330
8E73
102
}
330
8E73
100
AcDbDictionary
280
     1
281
     1
  3
Edit
360
AE0D
  0
SORTENTSTABLE
  5
A399
102
{ACAD_REACTORS
330
A398
102
}
330
A398
100
AcDbSortentsTable
330
A397
331
A3D3
  5
153
331
A3E6
  5
123
331
A3C1
  5
132
331
A3AF
  5
12C
331
A39C
  5
118
331
A3E2
  5
160
331
A3BD
  5
13E
331
A3AB
  5
128
331
A3B9
  5
139
331
A3A7
  5
124
331
A3CC
  5
14C
331
A3DE
  5
15C
331
A3B5
  5
134
331
A3A3
  5
11F
331
A3C8
  5
148
331
A3DA
  5
158
331
A3B1
  5
12E
331
A3D6
  5
157
331
A39F
  5
11B
331
A3C4
  5
145
331
A3D2
  5
152
331
A3C0
  5
142
331
A3AE
  5
12B
331
A3E5
  5
155
331
A3BC
  5
13D
331
A3AA
  5
127
331
A3CF
  5
14F
331
A3E1
  5
15F
331
A3B8
  5
138
331
A3DD
  5
15B
331
A3CB
  5
14B
331
A3A6
  5
122
331
A3B4
  5
131
331
A3D9
  5
117
331
A3C7
  5
147
331
A3A2
  5
11E
331
A3B0
  5
12D
331
A3D5
  5
156
331
A3C3
  5
144
331
A39E
  5
11A
331
A3D1
  5
151
331
A3E4
  5
162
331
A3BF
  5
141
331
A3AD
  5
12A
331
A3E0
  5
15E
331
A3BB
  5
13C
331
A3CE
  5
14E
331
A3A9
  5
126
331
A3B7
  5
137
331
A3A5
  5
121
331
A3CA
  5
14A
331
A3DC
  5
15A
331
A3B3
  5
130
331
A3A1
  5
11D
331
A3C6
  5
13B
331
A3D8
  5
136
331
A3D4
  5
154
331
A39D
  5
119
331
A3C2
  5
143
331
A3E7
  5
140
331
A3BE
  5
13F
331
A3D0
  5
150
331
A3AC
  5
129
331
A3E3
  5
161
331
A3BA
  5
13A
331
A3DF
  5
15D
331
A3CD
  5
14D
331
A3A8
  5
125
331
A3B6
  5
135
331
A3DB
  5
159
331
A3C9
  5
149
331
A3A4
  5
120
331
A3B2
  5
12F
331
A3D7
  5
133
331
A3C5
  5
146
331
A3A0
  5
11C
  0
XRECORD
  5
AE04
102
{ACAD_REACTORS
330
AE02
102
}
330
AE02
100
AcDbXrecord
280
     1
 70
     1
  0
XRECORD
  5
AE03
102
{ACAD_REACTORS
330
AE02
102
}
330
AE02
100
AcDbXrecord
280
     1
 40
0.18
  0
XRECORD
  5
AE05
102
{ACAD_REACTORS
330
AE02
102
}
330
AE02
100
AcDbXrecord
280
     1
 40
1.570796326794896
  0
XRECORD
  5
AE07
102
{ACAD_REACTORS
330
AE02
102
}
330
AE02
100
AcDbXrecord
280
     1
340
12
  0
XRECORD
  5
AE08
102
{ACAD_REACTORS
330
AE02
102
}
330
AE02
100
AcDbXrecord
280
     1
340
12
  0
XRECORD
  5
AE06
102
{ACAD_REACTORS
330
AE02
102
}
330
AE02
100
AcDbXrecord
280
     1
340
12
  0
ACDBDETAILVIEWSTYLE
  5
ADEA
102
{ACAD_XDICTIONARY
360
AE45
102
}
102
{ACAD_REACTORS
330
ADE9
102
}
330
ADE9
100
AcDbModelDocViewStyle
 70
     0
  3
Metric50
290
     0
100
AcDbDetailViewStyle
 70
     0
 71
     0
 90
        3
 71
     1
340
F
 62
   256
 40
5.0
340
0
 62
   256
 40
5.0
300

 40
0.0
280
     1
 71
     2
340
14
 90
       25
 62
   256
 71
     3
340
F
 62
   256
 40
5.0
 90
        0
 40
15.0
 90
        1
300
%<\AcVar ViewDetailId>% (%<\AcVar ViewScale \f "%sn">%)
 71
     4
340
14
 90
       25
 62
   256
340
14
 90
       25
 62
   256
280
     0
  0
LAYOUT
  5
5CF5
102
{ACAD_REACTORS
330
5CF3
102
}
330
5CF3
100
AcDbPlotSettings
  1

  2
hp LaserJet 1300 PCL 6
  4
A4
  6

 40
5.027083396911621
 41
5.069413185119628
 42
5.027084350585937
 43
5.027069091796875
 44
209.9733276367187
 45
296.9683227539062
 46
4.959579944610595
 47
3.435920238494873
 48
0.0
 49
0.0
140
95.0
141
140.0
142
1.0
143
0.5
 70
 11956
 72
     1
 73
     0
 74
     4
  7
LIN.ctb
 75
    27
147
2.0
 76
     0
 77
     2
 78
   300
148
0.0
149
0.0
100
AcDbLayout
  1
Model
 70
     1
 71
     0
 10
0.0
 20
0.0
 11
12.0
 21
9.0
 12
0.0
 22
0.0
 32
0.0
 14
0.0
 24
0.0
 34
0.0
 15
0.0
 25
0.0
 35
0.0
146
0.0
 13
0.0
 23
0.0
 33
0.0
 16
1.0
 26
0.0
 36
0.0
 17
0.0
 27
1.0
 37
0.0
 76
     0
330
18
331
9BF7
1001
ACAD_PSEXT
1000
hp LaserJet 1300 PCL 6
1000
hp LaserJet 1300 PCL 6
1000
HP 1300
1000

1070
     0
  0
LAYOUT
  5
5CF6
102
{ACAD_REACTORS
330
5CF3
102
}
330
5CF3
100
AcDbPlotSettings
  1

  2
EPSON STYLUS COLOR 440
  4

  6

 40
0.0
 41
0.0
 42
0.0
 43
0.0
 44
0.0
 45
0.0
 46
0.0
 47
0.0
 48
0.0
 49
0.0
140
0.0
141
0.0
142
1.0
143
1.0
 70
   688
 72
     0
 73
     0
 74
     5
  7
LIN.ctb
 75
    16
147
1.0
 76
     0
 77
     2
 78
   300
148
0.0
149
0.0
100
AcDbLayout
  1
ｰtｸm1
 70
     1
 71
     1
 10
0.0
 20
0.0
 11
420.0
 21
297.0
 12
0.0
 22
0.0
 32
0.0
 14
1.000000000000000E+20
 24
1.000000000000000E+20
 34
1.000000000000000E+20
 15
-1.000000000000000E+20
 25
-1.000000000000000E+20
 35
-1.000000000000000E+20
146
0.0
 13
0.0
 23
0.0
 33
0.0
 16
1.0
 26
0.0
 36
0.0
 17
0.0
 27
1.0
 37
0.0
 76
     0
330
15
1001
ACADSTRINGINFO
1000
MIFCodePage
1070
     1
  0
MATERIAL
  5
9C01
102
{ACAD_XDICTIONARY
360
9C02
102
}
102
{ACAD_REACTORS
330
7872
102
}
330
7872
100
AcDbMaterial
  1
ByBlock
 72
     0
 43
0.0208333333333333
 43
0.0
 43
0.0
 43
0.0
 43
0.0
 43
0.0208333333333333
 43
0.0
 43
0.0
 43
0.0
 43
0.0
 43
1.0
 43
0.0
 43
0.0
 43
0.0
 43
0.0
 43
1.0
 77
     0
 47
0.0208333333333333
 47
0.0
 47
0.0
 47
0.0
 47
0.0
 47
0.0208333333333333
 47
0.0
 47
0.0
 47
0.0
 47
0.0
 47
1.0
 47
0.0
 47
0.0
 47
0.0
 47
0.0
 47
1.0
171
     0
 49
0.0208333333333333
 49
0.0
 49
0.0
 49
0.0
 49
0.0
 49
0.0208333333333333
 49
0.0
 49
0.0
 49
0.0
 49
0.0
 49
1.0
 49
0.0
 49
0.0
 49
0.0
 49
0.0
 49
1.0
175
     0
142
0.0208333333333333
142
0.0
142
0.0
142
0.0
142
0.0
142
0.0208333333333333
142
0.0
142
0.0
142
0.0
142
0.0
142
1.0
142
0.0
142
0.0
142
0.0
142
0.0
142
1.0
179
     0
144
0.0208333333333333
144
0.0
144
0.0
144
0.0
144
0.0
144
0.0208333333333333
144
0.0
144
0.0
144
0.0
144
0.0
144
1.0
144
0.0
144
0.0
144
0.0
144
0.0
144
1.0
147
0.0208333333333333
147
0.0
147
0.0
147
0.0
147
0.0
147
0.0208333333333333
147
0.0
147
0.0
147
0.0
147
0.0
147
1.0
147
0.0
147
0.0
147
0.0
147
0.0
147
1.0
  0
MATERIAL
  5
9BF9
102
{ACAD_XDICTIONARY
360
9BFA
102
}
102
{ACAD_REACTORS
330
7872
102
}
330
7872
100
AcDbMaterial
  1
ByLayer
 72
     0
 43
0.0208333333333333
 43
0.0
 43
0.0
 43
0.0
 43
0.0
 43
0.0208333333333333
 43
0.0
 43
0.0
 43
0.0
 43
0.0
 43
1.0
 43
0.0
 43
0.0
 43
0.0
 43
0.0
 43
1.0
 77
     0
 47
0.0208333333333333
 47
0.0
 47
0.0
 47
0.0
 47
0.0
 47
0.0208333333333333
 47
0.0
 47
0.0
 47
0.0
 47
0.0
 47
1.0
 47
0.0
 47
0.0
 47
0.0
 47
0.0
 47
1.0
171
     0
 49
0.0208333333333333
 49
0.0
 49
0.0
 49
0.0
 49
0.0
 49
0.0208333333333333
 49
0.0
 49
0.0
 49
0.0
 49
0.0
 49
1.0
 49
0.0
 49
0.0
 49
0.0
 49
0.0
 49
1.0
175
     0
142
0.0208333333333333
142
0.0
142
0.0
142
0.0
142
0.0
142
0.0208333333333333
142
0.0
142
0.0
142
0.0
142
0.0
142
1.0
142
0.0
142
0.0
142
0.0
142
0.0
142
1.0
179
     0
144
0.0208333333333333
144
0.0
144
0.0
144
0.0
144
0.0
144
0.0208333333333333
144
0.0
144
0.0
144
0.0
144
0.0
144
1.0
144
0.0
144
0.0
144
0.0
144
0.0
144
1.0
147
0.0208333333333333
147
0.0
147
0.0
147
0.0
147
0.0
147
0.0208333333333333
147
0.0
147
0.0
147
0.0
147
0.0
147
1.0
147
0.0
147
0.0
147
0.0
147
0.0
147
1.0
  0
MATERIAL
  5
9C09
102
{ACAD_XDICTIONARY
360
9C0A
102
}
102
{ACAD_REACTORS
330
7872
102
}
330
7872
100
AcDbMaterial
  1
Global
 72
     0
 43
0.0208333333333333
 43
0.0
 43
0.0
 43
0.0
 43
0.0
 43
0.0208333333333333
 43
0.0
 43
0.0
 43
0.0
 43
0.0
 43
1.0
 43
0.0
 43
0.0
 43
0.0
 43
0.0
 43
1.0
 77
     0
 47
0.0208333333333333
 47
0.0
 47
0.0
 47
0.0
 47
0.0
 47
0.0208333333333333
 47
0.0
 47
0.0
 47
0.0
 47
0.0
 47
1.0
 47
0.0
 47
0.0
 47
0.0
 47
0.0
 47
1.0
171
     0
 49
0.0208333333333333
 49
0.0
 49
0.0
 49
0.0
 49
0.0
 49
0.0208333333333333
 49
0.0
 49
0.0
 49
0.0
 49
0.0
 49
1.0
 49
0.0
 49
0.0
 49
0.0
 49
0.0
 49
1.0
175
     0
142
0.0208333333333333
142
0.0
142
0.0
142
0.0
142
0.0
142
0.0208333333333333
142
0.0
142
0.0
142
0.0
142
0.0
142
1.0
142
0.0
142
0.0
142
0.0
142
0.0
142
1.0
179
     0
144
0.0208333333333333
144
0.0
144
0.0
144
0.0
144
0.0
144
0.0208333333333333
144
0.0
144
0.0
144
0.0
144
0.0
144
1.0
144
0.0
144
0.0
144
0.0
144
0.0
144
1.0
147
0.0208333333333333
147
0.0
147
0.0
147
0.0
147
0.0
147
0.0208333333333333
147
0.0
147
0.0
147
0.0
147
0.0
147
1.0
147
0.0
147
0.0
147
0.0
147
0.0
147
1.0
  0
MLEADERSTYLE
  5
9C3D
102
{ACAD_REACTORS
330
9C3C
102
}
330
9C3C
100
AcDbMLeaderStyle
170
     2
171
     1
172
     0
 90
        2
 40
0.0
 41
0.0
173
     1
 91
-1056964608
340
12
 92
       -2
290
     1
 42
2.0
291
     1
 43
0.36
  3
Standard
 44
4.0
300

342
F
174
     1
178
     6
175
     1
176
     0
 93
-1056964608
 45
4.0
292
     0
297
     0
 46
4.0
 94
-1056964608
 47
1.0
 49
1.0
140
1.0
293
     1
141
0.0
294
     1
177
     0
142
1.0
295
     0
296
     0
143
0.125
1001
ACAD_MLEADERVER
1070
     2
  0
MLINESTYLE
  5
1C
102
{ACAD_REACTORS
330
1B
102
}
330
1B
100
AcDbMlineStyle
  2
STANDARD
 70
     0
  3

 62
   256
 51
90.0
 52
90.0
 71
     2
 49
0.5
 62
   256
  6
BYLAYER
 49
-0.5
 62
   256
  6
BYLAYER
  0
ACDBPLACEHOLDER
  5
5CF2
102
{ACAD_REACTORS
330
5CF1
102
}
330
5CF1
  0
ACDBPLACEHOLDER
  5
A475
102
{ACAD_REACTORS
330
5CF1
102
}
330
5CF1
  0
SCALE
  5
9C2B
102
{ACAD_REACTORS
330
9C2A
102
}
330
9C2A
100
AcDbScale
 70
     0
300
1:1
140
1.0
141
1.0
290
     1
  0
SCALE
  5
9C2C
102
{ACAD_REACTORS
330
9C2A
102
}
330
9C2A
100
AcDbScale
 70
     0
300
1:2
140
1.0
141
2.0
290
     0
  0
SCALE
  5
9C2D
102
{ACAD_REACTORS
330
9C2A
102
}
330
9C2A
100
AcDbScale
 70
     0
300
1:4
140
1.0
141
4.0
290
     0
  0
SCALE
  5
9C2E
102
{ACAD_REACTORS
330
9C2A
102
}
330
9C2A
100
AcDbScale
 70
     0
300
1:5
140
1.0
141
5.0
290
     0
  0
SCALE
  5
9C2F
102
{ACAD_REACTORS
330
9C2A
102
}
330
9C2A
100
AcDbScale
 70
     0
300
1:8
140
1.0
141
8.0
290
     0
  0
SCALE
  5
9C30
102
{ACAD_REACTORS
330
9C2A
102
}
330
9C2A
100
AcDbScale
 70
     0
300
1:10
140
1.0
141
10.0
290
     0
  0
SCALE
  5
9C31
102
{ACAD_REACTORS
330
9C2A
102
}
330
9C2A
100
AcDbScale
 70
     0
300
1:16
140
1.0
141
16.0
290
     0
  0
SCALE
  5
9C32
102
{ACAD_REACTORS
330
9C2A
102
}
330
9C2A
100
AcDbScale
 70
     0
300
1:20
140
1.0
141
20.0
290
     0
  0
SCALE
  5
9C33
102
{ACAD_REACTORS
330
9C2A
102
}
330
9C2A
100
AcDbScale
 70
     0
300
1:30
140
1.0
141
30.0
290
     0
  0
SCALE
  5
9C34
102
{ACAD_REACTORS
330
9C2A
102
}
330
9C2A
100
AcDbScale
 70
     0
300
1:40
140
1.0
141
40.0
290
     0
  0
SCALE
  5
9C35
102
{ACAD_REACTORS
330
9C2A
102
}
330
9C2A
100
AcDbScale
 70
     0
300
1:50
140
1.0
141
50.0
290
     0
  0
SCALE
  5
9C36
102
{ACAD_REACTORS
330
9C2A
102
}
330
9C2A
100
AcDbScale
 70
     0
300
1:100
140
1.0
141
100.0
290
     0
  0
SCALE
  5
9C37
102
{ACAD_REACTORS
330
9C2A
102
}
330
9C2A
100
AcDbScale
 70
     0
300
2:1
140
2.0
141
1.0
290
     0
  0
SCALE
  5
9C38
102
{ACAD_REACTORS
330
9C2A
102
}
330
9C2A
100
AcDbScale
 70
     0
300
4:1
140
4.0
141
1.0
290
     0
  0
SCALE
  5
9C39
102
{ACAD_REACTORS
330
9C2A
102
}
330
9C2A
100
AcDbScale
 70
     0
300
8:1
140
8.0
141
1.0
290
     0
  0
SCALE
  5
9C3A
102
{ACAD_REACTORS
330
9C2A
102
}
330
9C2A
100
AcDbScale
 70
     0
300
10:1
140
10.0
141
1.0
290
     0
  0
SCALE
  5
9C3B
102
{ACAD_REACTORS
330
9C2A
102
}
330
9C2A
100
AcDbScale
 70
     0
300
100:1
140
100.0
141
1.0
290
     0
  0
ACDBSECTIONVIEWSTYLE
  5
ADE8
102
{ACAD_XDICTIONARY
360
AE43
102
}
102
{ACAD_REACTORS
330
ADE7
102
}
330
ADE7
100
AcDbModelDocViewStyle
 70
     0
  3
Metric50
290
     0
100
AcDbSectionViewStyle
 70
     0
 71
     0
 90
      102
 71
     1
340
F
 62
   256
 40
5.0
340
0
340
0
 62
   256
 40
5.0
300
I, O, Q, S, X, Z
 40
10.0
 90
        0
 40
2.5
 90
        0
 71
     2
340
14
 90
       25
 62
   256
340
14
 90
       50
 62
   256
 40
5.0
 40
2.5
 40
5.0
 71
     3
340
F
 62
   256
 40
5.0
 90
        0
 40
15.0
 90
        1
300
%<\AcVar ViewSectionStartId>%-%<\AcVar ViewSectionEndId>% (%<\AcVar ViewScale \f "%sn">%)
 71
     4
 62
   256
 62
   257
300
ANSI31
 40
1.0
 90
        0
290
     0
290
     0
 90
        6
 40
0.0
 40
1.570796326794896
 40
0.2617993877991494
 40
1.308996938995747
 40
-0.2617993877991494
 40
1.832595714594046
  0
TABLESTYLE
  5
7875
102
{ACAD_XDICTIONARY
360
9F98
102
}
102
{ACAD_REACTORS
330
7874
102
}
330
7874
100
AcDbTableStyle
  3
Standard
 70
     0
 71
     0
 40
1.5
 41
1.5
280
     0
281
     0
  7
STANDARD
140
4.5
170
     2
 62
     0
 63
     7
283
     0
274
    -2
284
     1
 64
     0
275
    -2
285
     1
 65
     0
276
    -2
286
     1
 66
     0
277
    -2
287
     1
 67
     0
278
    -2
288
     1
 68
     0
279
    -2
289
     1
 69
     0
  7
STANDARD
140
6.0
170
     5
 62
     0
 63
     7
283
     0
274
    -2
284
     1
 64
     0
275
    -2
285
     1
 65
     0
276
    -2
286
     1
 66
     0
277
    -2
287
     1
 67
     0
278
    -2
288
     1
 68
     0
279
    -2
289
     1
 69
     0
  7
STANDARD
140
4.5
170
     5
 62
     0
 63
     7
283
     0
274
    -2
284
     1
 64
     0
275
    -2
285
     1
 65
     0
276
    -2
286
     1
 66
     0
277
    -2
287
     1
 67
     0
278
    -2
288
     1
 68
     0
279
    -2
289
     1
 69
     0
  0
VISUALSTYLE
  5
9C17
102
{ACAD_XDICTIONARY
360
AE1B
102
}
102
{ACAD_REACTORS
330
9C11
102
}
330
9C11
100
AcDbVisualStyle
  2
2dWireframe
 70
     4
 71
     0
 72
     2
 73
     0
 90
        0
 40
-0.6
 41
-30.0
 62
     5
 63
     7
 74
     1
 91
        4
 64
     7
 65
   257
 75
     1
175
     1
 42
1.0
 92
        0
 66
   257
 43
1.0
 76
     1
 77
     6
 78
     2
 67
     7
 79
     5
170
     0
171
     0
290
     0
174
     0
 93
        1
 44
0.0
173
     0
291
     0
 45
0.0
1001
ACAD
1000
AcDbSavedByObjectVersion
1070
     0
  0
VISUALSTYLE
  5
9C16
102
{ACAD_XDICTIONARY
360
AE19
102
}
102
{ACAD_REACTORS
330
9C11
102
}
330
9C11
100
AcDbVisualStyle
  2
Basic
 70
     7
 71
     1
 72
     0
 73
     1
 90
        0
 40
-0.6
 41
-30.0
 62
     5
 63
     7
 74
     0
 91
        4
 64
     7
 65
   257
 75
     1
175
     1
 42
1.0
 92
        8
 66
     7
 43
1.0
 76
     1
 77
     6
 78
     2
 67
     7
 79
     5
170
     0
171
     0
290
     0
174
     0
 93
        1
 44
0.0
173
     0
291
     1
 45
0.0
1001
ACAD
1000
AcDbSavedByObjectVersion
1070
     0
  0
VISUALSTYLE
  5
9C1D
102
{ACAD_XDICTIONARY
360
AE27
102
}
102
{ACAD_REACTORS
330
9C11
102
}
330
9C11
100
AcDbVisualStyle
  2
Brighten
 70
    12
 71
     2
 72
     2
 73
     0
 90
        0
 40
-0.6
 41
-30.0
 62
     5
 63
     7
 74
     1
 91
        4
 64
     7
 65
   257
 75
     1
175
     1
 42
1.0
 92
        8
 66
     7
 43
1.0
 76
     1
 77
     6
 78
     2
 67
     7
 79
     5
170
     0
171
     0
290
     0
174
     0
 93
        1
 44
50.0
173
     0
291
     1
 45
0.0
1001
ACAD
1000
AcDbSavedByObjectVersion
1070
     0
  0
VISUALSTYLE
  5
9C21
102
{ACAD_XDICTIONARY
360
AE2F
102
}
102
{ACAD_REACTORS
330
9C11
102
}
330
9C11
100
AcDbVisualStyle
  2
ColorChange
 70
    16
 71
     2
 72
     2
 73
     3
 90
        0
 40
-0.6
 41
-30.0
 62
     5
 63
     8
 74
     1
 91
        4
 64
     7
 65
   257
 75
     1
175
     1
 42
1.0
 92
        8
 66
     8
 43
1.0
 76
     1
 77
     6
 78
     2
 67
     7
 79
     5
170
     0
171
     0
290
     0
174
     0
 93
        1
 44
0.0
173
     0
291
     1
 45
0.0
1001
ACAD
1000
AcDbSavedByObjectVersion
1070
     0
  0
VISUALSTYLE
  5
9C1A
102
{ACAD_XDICTIONARY
360
AE21
102
}
102
{ACAD_REACTORS
330
9C11
102
}
330
9C11
100
AcDbVisualStyle
  2
Conceptual
 70
     9
 71
     3
 72
     2
 73
     0
 90
        0
 40
-0.6
 41
-30.0
 62
     5
 63
     7
 74
     2
 91
        2
 64
     7
 65
   257
 75
     1
175
     1
 42
179.0
 92
        8
 66
     7
 43
1.0
 76
     1
 77
     6
 78
     2
 67
     7
 79
     3
170
     0
171
     0
290
     0
174
     0
 93
        1
 44
0.0
173
     0
291
     0
 45
0.0
1001
ACAD
1000
AcDbSavedByObjectVersion
1070
     0
  0
VISUALSTYLE
  5
9C1C
102
{ACAD_XDICTIONARY
360
AE25
102
}
102
{ACAD_REACTORS
330
9C11
102
}
330
9C11
100
AcDbVisualStyle
  2
Dim
 70
    11
 71
     2
 72
     2
 73
     0
 90
        0
 40
-0.6
 41
-30.0
 62
     5
 63
     7
 74
     1
 91
        4
 64
     7
 65
   257
 75
     1
175
     1
 42
1.0
 92
        8
 66
     7
 43
1.0
 76
     1
 77
     6
 78
     2
 67
     7
 79
     5
170
     0
171
     0
290
     0
174
     0
 93
        1
 44
-50.0
173
     0
291
     1
 45
0.0
1001
ACAD
1000
AcDbSavedByObjectVersion
1070
     0
  0
VISUALSTYLE
  5
9C29
102
{ACAD_XDICTIONARY
360
AE3F
102
}
102
{ACAD_REACTORS
330
9C11
102
}
330
9C11
100
AcDbVisualStyle
  2
EdgeColorOff
 70
    22
 71
     2
 72
     2
 73
     0
 90
        0
 40
-0.6
 41
-30.0
 62
     5
 63
     7
 74
     1
 91
        4
 64
     7
 65
   257
 75
     1
175
     1
 42
1.0
 92
        8
 66
     7
 43
1.0
 76
     1
 77
     6
 78
     2
 67
     7
 79
     5
170
     0
171
     0
290
     0
174
     0
 93
        1
 44
0.0
173
     0
291
     1
 45
0.0
1001
ACAD
1000
AcDbSavedByObjectVersion
1070
     0
  0
VISUALSTYLE
  5
9C20
102
{ACAD_XDICTIONARY
360
AE2D
102
}
102
{ACAD_REACTORS
330
9C11
102
}
330
9C11
100
AcDbVisualStyle
  2
Facepattern
 70
    15
 71
     2
 72
     2
 73
     0
 90
        0
 40
-0.6
 41
-30.0
 62
     5
 63
     7
 74
     1
 91
        4
 64
     7
 65
   257
 75
     1
175
     1
 42
1.0
 92
        8
 66
     7
 43
1.0
 76
     1
 77
     6
 78
     2
 67
     7
 79
     5
170
     0
171
     0
290
     0
174
     0
 93
        1
 44
0.0
173
     0
291
     1
 45
0.0
1001
ACAD
1000
AcDbSavedByObjectVersion
1070
     0
  0
VISUALSTYLE
  5
9C12
102
{ACAD_XDICTIONARY
360
AE11
102
}
102
{ACAD_REACTORS
330
9C11
102
}
330
9C11
100
AcDbVisualStyle
  2
Flat
 70
     0
 71
     2
 72
     1
 73
     1
 90
        2
 40
-0.6
 41
30.0
 62
     5
 63
     7
 74
     0
 91
        0
 64
     7
 65
   257
 75
     1
175
     1
 42
1.0
 92
        8
 66
     7
 43
1.0
 76
     1
 77
     6
 78
     2
 67
     7
 79
     5
170
     0
171
     0
290
     0
174
     0
 93
       13
 44
0.0
173
     0
291
     1
 45
0.0
1001
ACAD
1000
AcDbSavedByObjectVersion
1070
     0
  0
VISUALSTYLE
  5
9C13
102
{ACAD_XDICTIONARY
360
AE13
102
}
102
{ACAD_REACTORS
330
9C11
102
}
330
9C11
100
AcDbVisualStyle
  2
FlatWithEdges
 70
     1
 71
     2
 72
     1
 73
     1
 90
        2
 40
-0.6
 41
30.0
 62
     5
 63
     7
 74
     1
 91
        0
 64
     7
 65
   257
 75
     1
175
     1
 42
1.0
 92
        0
 66
   257
 43
1.0
 76
     1
 77
     6
 78
     2
 67
     7
 79
     5
170
     0
171
     0
290
     0
174
     0
 93
       13
 44
0.0
173
     0
291
     1
 45
0.0
1001
ACAD
1000
AcDbSavedByObjectVersion
1070
     0
  0
VISUALSTYLE
  5
9C14
102
{ACAD_XDICTIONARY
360
AE15
102
}
102
{ACAD_REACTORS
330
9C11
102
}
330
9C11
100
AcDbVisualStyle
  2
Gouraud
 70
     2
 71
     2
 72
     2
 73
     1
 90
        2
 40
-0.6
 41
30.0
 62
     5
 63
     7
 74
     0
 91
        0
 64
     7
 65
   257
 75
     1
175
     1
 42
1.0
 92
        0
 66
     7
 43
1.0
 76
     1
 77
     6
 78
     2
 67
     7
 79
     5
170
     0
171
     0
290
     0
174
     0
 93
       13
 44
0.0
173
     0
291
     1
 45
0.0
1001
ACAD
1000
AcDbSavedByObjectVersion
1070
     0
  0
VISUALSTYLE
  5
9C15
102
{ACAD_XDICTIONARY
360
AE17
102
}
102
{ACAD_REACTORS
330
9C11
102
}
330
9C11
100
AcDbVisualStyle
  2
GouraudWithEdges
 70
     3
 71
     2
 72
     2
 73
     1
 90
        2
 40
-0.6
 41
30.0
 62
     5
 63
     7
 74
     1
 91
        0
 64
     7
 65
   257
 75
     1
175
     1
 42
1.0
 92
        0
 66
   257
 43
1.0
 76
     1
 77
     6
 78
     2
 67
     7
 79
     5
170
     0
171
     0
290
     0
174
     0
 93
       13
 44
0.0
173
     0
291
     1
 45
0.0
1001
ACAD
1000
AcDbSavedByObjectVersion
1070
     0
  0
VISUALSTYLE
  5
9C19
102
{ACAD_XDICTIONARY
360
AE1F
102
}
102
{ACAD_REACTORS
330
9C11
102
}
330
9C11
100
AcDbVisualStyle
  2
Hidden
 70
     6
 71
     1
 72
     2
 73
     2
 90
        0
 40
-0.6
 41
-30.0
 62
     5
 63
     7
 74
     2
 91
        2
 64
     7
 65
   257
 75
     2
175
     1
 42
40.0
 92
        0
 66
   257
 43
1.0
 76
     1
 77
     6
 78
     2
 67
     7
 79
     3
170
     0
171
     0
290
     0
174
     0
 93
        1
 44
0.0
173
     0
291
     0
 45
0.0
1001
ACAD
1000
AcDbSavedByObjectVersion
1070
     0
  0
VISUALSTYLE
  5
9C27
102
{ACAD_XDICTIONARY
360
AE3B
102
}
102
{ACAD_REACTORS
330
9C11
102
}
330
9C11
100
AcDbVisualStyle
  2
JitterOff
 70
    20
 71
     2
 72
     2
 73
     0
 90
        0
 40
-0.6
 41
-30.0
 62
     5
 63
     7
 74
     1
 91
        4
 64
     7
 65
   257
 75
     1
175
     1
 42
1.0
 92
       10
 66
     7
 43
1.0
 76
     1
 77
     6
 78
     2
 67
     7
 79
     5
170
     0
171
     0
290
     0
174
     0
 93
        1
 44
0.0
173
     0
291
     1
 45
0.0
1001
ACAD
1000
AcDbSavedByObjectVersion
1070
     0
  0
VISUALSTYLE
  5
9C1F
102
{ACAD_XDICTIONARY
360
AE2B
102
}
102
{ACAD_REACTORS
330
9C11
102
}
330
9C11
100
AcDbVisualStyle
  2
Linepattern
 70
    14
 71
     2
 72
     2
 73
     0
 90
        0
 40
-0.6
 41
-30.0
 62
     5
 63
     7
 74
     1
 91
        4
 64
     7
 65
   257
 75
     7
175
     7
 42
1.0
 92
        8
 66
     7
 43
1.0
 76
     1
 77
     6
 78
     2
 67
     7
 79
     5
170
     0
171
     0
290
     0
174
     0
 93
        1
 44
0.0
173
     0
291
     1
 45
0.0
1001
ACAD
1000
AcDbSavedByObjectVersion
1070
     0
  0
VISUALSTYLE
  5
9C28
102
{ACAD_XDICTIONARY
360
AE3D
102
}
102
{ACAD_REACTORS
330
9C11
102
}
330
9C11
100
AcDbVisualStyle
  2
OverhangOff
 70
    21
 71
     2
 72
     2
 73
     0
 90
        0
 40
-0.6
 41
-30.0
 62
     5
 63
     7
 74
     1
 91
        4
 64
     7
 65
   257
 75
     1
175
     1
 42
1.0
 92
        9
 66
     7
 43
1.0
 76
     1
 77
     6
 78
     2
 67
     7
 79
     5
170
     0
171
     0
290
     0
174
     0
 93
        1
 44
0.0
173
     0
291
     1
 45
0.0
1001
ACAD
1000
AcDbSavedByObjectVersion
1070
     0
  0
VISUALSTYLE
  5
9C1B
102
{ACAD_XDICTIONARY
360
AE23
102
}
102
{ACAD_REACTORS
330
9C11
102
}
330
9C11
100
AcDbVisualStyle
  2
Realistic
 70
     8
 71
     2
 72
     2
 73
     0
 90
        2
 40
-0.6
 41
30.0
 62
     5
 63
     7
 74
     0
 91
        0
 64
     7
 65
   257
 75
     1
175
     1
 42
1.0
 92
        8
 66
   257
 43
1.0
 76
     1
 77
     6
 78
     2
 67
     7
 79
     3
170
     0
171
     0
290
     0
174
     0
 93
       13
 44
0.0
173
     0
291
     0
 45
0.0
1001
ACAD
1000
AcDbSavedByObjectVersion
1070
     0
  0
VISUALSTYLE
  5
9C26
102
{ACAD_XDICTIONARY
360
AE39
102
}
102
{ACAD_REACTORS
330
9C11
102
}
330
9C11
100
AcDbVisualStyle
  2
Shaded
 70
    27
 71
     2
 72
     2
 73
     1
 90
        2
 40
-0.6
 41
30.0
 62
     5
 63
     7
 74
     0
 91
        4
 64
     7
 65
   257
 75
     1
175
     1
 42
1.0
 92
        8
 66
   257
 43
1.0
 76
     1
 77
     6
 78
     2
 67
     8
 79
     3
170
     0
171
     0
290
     0
174
     0
 93
        5
 44
0.0
173
     0
291
     0
 45
0.0
1001
ACAD
1000
AcDbSavedByObjectVersion
1070
     0
  0
VISUALSTYLE
  5
9C25
102
{ACAD_XDICTIONARY
360
AE37
102
}
102
{ACAD_REACTORS
330
9C11
102
}
330
9C11
100
AcDbVisualStyle
  2
Shaded with edges
 70
    26
 71
     2
 72
     2
 73
     1
 90
        2
 40
-0.6
 41
30.0
 62
     5
 63
     7
 74
     1
 91
        2
 64
     7
 65
   257
 75
     2
175
     1
 42
1.0
 92
        8
 66
   257
 43
1.0
 76
     1
 77
     6
 78
     2
 67
     7
 79
     3
170
     0
171
     0
290
     0
174
     0
 93
        5
 44
0.0
173
     0
291
     0
 45
0.0
1001
ACAD
1000
AcDbSavedByObjectVersion
1070
     0
  0
VISUALSTYLE
  5
9C22
102
{ACAD_XDICTIONARY
360
AE31
102
}
102
{ACAD_REACTORS
330
9C11
102
}
330
9C11
100
AcDbVisualStyle
  2
Shades of Gray
 70
    23
 71
     2
 72
     2
 73
     3
 90
        0
 40
-0.6
 41
-30.0
 62
     5
 63
     7
 74
     2
 91
        2
 64
     7
 65
     7
 75
     1
175
     1
 42
40.0
 92
        8
 66
     7
 43
1.0
 76
     1
 77
     6
 78
     2
 67
     7
 79
     3
170
     0
171
     0
290
     0
174
     0
 93
        1
 44
0.0
173
     0
291
     0
 45
0.0
1001
ACAD
1000
AcDbSavedByObjectVersion
1070
     0
  0
VISUALSTYLE
  5
9C23
102
{ACAD_XDICTIONARY
360
AE33
102
}
102
{ACAD_REACTORS
330
9C11
102
}
330
9C11
100
AcDbVisualStyle
  2
Sketchy
 70
    24
 71
     1
 72
     2
 73
     2
 90
        0
 40
-0.6
 41
-30.0
 62
     5
 63
     7
 74
     2
 91
        2
 64
     7
 65
     7
 75
     1
175
     1
 42
40.0
 92
       11
 66
     7
 43
1.0
 76
     1
 77
     6
 78
     2
 67
     7
 79
     6
170
     0
171
     0
290
     0
174
     0
 93
        1
 44
0.0
173
     0
291
     0
 45
0.0
1001
ACAD
1000
AcDbSavedByObjectVersion
1070
     0
  0
VISUALSTYLE
  5
9C1E
102
{ACAD_XDICTIONARY
360
AE29
102
}
102
{ACAD_REACTORS
330
9C11
102
}
330
9C11
100
AcDbVisualStyle
  2
Thicken
 70
    13
 71
     2
 72
     2
 73
     0
 90
        0
 40
-0.6
 41
-30.0
 62
     5
 63
     7
 74
     1
 91
        4
 64
     7
 65
   257
 75
     1
175
     1
 42
1.0
 92
       12
 66
     7
 43
1.0
 76
     1
 77
     6
 78
     2
 67
     7
 79
     5
170
     0
171
     0
290
     0
174
     0
 93
        1
 44
0.0
173
     0
291
     1
 45
0.0
1001
ACAD
1000
AcDbSavedByObjectVersion
1070
     0
  0
VISUALSTYLE
  5
9C18
102
{ACAD_XDICTIONARY
360
AE1D
102
}
102
{ACAD_REACTORS
330
9C11
102
}
330
9C11
100
AcDbVisualStyle
  2
Wireframe
 70
     5
 71
     0
 72
     2
 73
     0
 90
        0
 40
-0.6
 41
-30.0
 62
     5
 63
     7
 74
     1
 91
        4
 64
     7
 65
   257
 75
     1
175
     1
 42
1.0
 92
        0
 66
   257
 43
1.0
 76
     1
 77
     6
 78
     2
 67
     7
 79
     3
170
     0
171
     0
290
     0
174
     0
 93
        1
 44
0.0
173
     0
291
     0
 45
0.0
1001
ACAD
1000
AcDbSavedByObjectVersion
1070
     0
  0
VISUALSTYLE
  5
9C24
102
{ACAD_XDICTIONARY
360
AE35
102
}
102
{ACAD_REACTORS
330
9C11
102
}
330
9C11
100
AcDbVisualStyle
  2
X-Ray
 70
    25
 71
     2
 72
     2
 73
     1
 90
        1
 40
0.5
 41
-30.0
 62
     5
 63
     7
 74
     1
 91
        0
 64
     7
 65
   257
 75
     1
175
     1
 42
1.0
 92
        8
 66
     7
 43
1.0
 76
     1
 77
     6
 78
     2
 67
     7
 79
     3
170
     0
171
     0
290
     0
174
     0
 93
       13
 44
0.0
173
     0
291
     0
 45
0.0
1001
ACAD
1000
AcDbSavedByObjectVersion
1070
     0
  0
DICTIONARYVAR
  5
A05B
102
{ACAD_REACTORS
330
45D
102
}
330
45D
100
DictionaryVariables
280
     0
  1
1:1
  0
DICTIONARYVAR
  5
A05A
102
{ACAD_REACTORS
330
45D
102
}
330
45D
100
DictionaryVariables
280
     0
  1
STANDARD
  0
DICTIONARYVAR
  5
7880
102
{ACAD_REACTORS
330
45D
102
}
330
45D
100
DictionaryVariables
280
     0
  1
STANDARD
  0
DICTIONARYVAR
  5
ADFC
102
{ACAD_REACTORS
330
45D
102
}
330
45D
100
DictionaryVariables
280
     0
  1
Metric50
  0
DICTIONARYVAR
  5
ADFD
102
{ACAD_REACTORS
330
45D
102
}
330
45D
100
DictionaryVariables
280
     0
  1
Metric50
  0
DICTIONARYVAR
  5
A05E
102
{ACAD_REACTORS
330
45D
102
}
330
45D
100
DictionaryVariables
280
     0
  1
1
  0
DICTIONARYVAR
  5
A05C
102
{ACAD_REACTORS
330
45D
102
}
330
45D
100
DictionaryVariables
280
     0
  1
0
  0
DICTIONARYVAR
  5
45E
102
{ACAD_REACTORS
330
45D
102
}
330
45D
100
DictionaryVariables
280
     0
  1
127
  0
DICTIONARYVAR
  5
ADFE
102
{ACAD_REACTORS
330
45D
102
}
330
45D
100
DictionaryVariables
280
     0
  1
2
  0
DICTIONARY
  5
9CA2
102
{ACAD_REACTORS
330
9C97
102
}
330
9C97
100
AcDbDictionary
281
     1
  0
XRECORD
  5
AE0B
102
{ACAD_REACTORS
330
AE0A
102
}
330
AE0A
100
AcDbXrecord
280
     1
1070
     0
1070
     1
1070
     1
  0
XRECORD
  5
AE0D
102
{ACAD_REACTORS
330
AE0C
102
}
330
AE0C
100
AcDbXrecord
280
     1
1070
     0
1070
     1
1070
     1
  0
DICTIONARY
  5
AE45
330
ADEA
100
AcDbDictionary
280
     1
281
     1
  3
ACAD_XREC_ROUNDTRIP
360
AE46
  0
DICTIONARY
  5
9C02
330
9C01
100
AcDbDictionary
280
     1
281
     1
  3
ACAD_XREC_ROUNDTRIP
360
AE0F
  3
BUMPTILE
360
9C04
  3
DIFFUSETILE
360
9C03
  3
OPACITYTILE
360
9C07
  3
REFLECTIONTILE
360
9C06
  3
REFRACTIONTILE
360
9C08
  3
SPECULARTILE
360
9C05
  0
DICTIONARY
  5
9BFA
330
9BF9
100
AcDbDictionary
280
     1
281
     1
  3
ACAD_XREC_ROUNDTRIP
360
AE0E
  3
BUMPTILE
360
9BFC
  3
DIFFUSETILE
360
9BFB
  3
OPACITYTILE
360
9BFF
  3
REFLECTIONTILE
360
9BFE
  3
REFRACTIONTILE
360
9C00
  3
SPECULARTILE
360
9BFD
  0
DICTIONARY
  5
9C0A
330
9C09
100
AcDbDictionary
280
     1
281
     1
  3
ACAD_XREC_ROUNDTRIP
360
AE10
  3
BUMPTILE
360
9C0C
  3
DIFFUSETILE
360
9C0B
  3
OPACITYTILE
360
9C0F
  3
REFLECTIONTILE
360
9C0E
  3
REFRACTIONTILE
360
9C10
  3
SPECULARTILE
360
9C0D
  0
DICTIONARY
  5
AE43
330
ADE8
100
AcDbDictionary
280
     1
281
     1
  3
ACAD_XREC_ROUNDTRIP
360
AE44
  0
DICTIONARY
  5
9F98
330
7875
100
AcDbDictionary
280
     1
281
     1
  3
ACAD_ROUNDTRIP_2008_TABLESTYLE_CELLSTYLEMAP
360
AE00
  3
ACAD_XREC_ROUNDTRIP
360
AE09
  0
DICTIONARY
  5
AE1B
330
9C17
100
AcDbDictionary
280
     1
281
     1
  3
ACAD_XREC_ROUNDTRIP
360
AE1C
  0
DICTIONARY
  5
AE19
330
9C16
100
AcDbDictionary
280
     1
281
     1
  3
ACAD_XREC_ROUNDTRIP
360
AE1A
  0
DICTIONARY
  5
AE27
330
9C1D
100
AcDbDictionary
280
     1
281
     1
  3
ACAD_XREC_ROUNDTRIP
360
AE28
  0
DICTIONARY
  5
AE2F
330
9C21
100
AcDbDictionary
280
     1
281
     1
  3
ACAD_XREC_ROUNDTRIP
360
AE30
  0
DICTIONARY
  5
AE21
330
9C1A
100
AcDbDictionary
280
     1
281
     1
  3
ACAD_XREC_ROUNDTRIP
360
AE22
  0
DICTIONARY
  5
AE25
330
9C1C
100
AcDbDictionary
280
     1
281
     1
  3
ACAD_XREC_ROUNDTRIP
360
AE26
  0
DICTIONARY
  5
AE3F
330
9C29
100
AcDbDictionary
280
     1
281
     1
  3
ACAD_XREC_ROUNDTRIP
360
AE40
  0
DICTIONARY
  5
AE2D
330
9C20
100
AcDbDictionary
280
     1
281
     1
  3
ACAD_XREC_ROUNDTRIP
360
AE2E
  0
DICTIONARY
  5
AE11
330
9C12
100
AcDbDictionary
280
     1
281
     1
  3
ACAD_XREC_ROUNDTRIP
360
AE12
  0
DICTIONARY
  5
AE13
330
9C13
100
AcDbDictionary
280
     1
281
     1
  3
ACAD_XREC_ROUNDTRIP
360
AE14
  0
DICTIONARY
  5
AE15
330
9C14
100
AcDbDictionary
280
     1
281
     1
  3
ACAD_XREC_ROUNDTRIP
360
AE16
  0
DICTIONARY
  5
AE17
330
9C15
100
AcDbDictionary
280
     1
281
     1
  3
ACAD_XREC_ROUNDTRIP
360
AE18
  0
DICTIONARY
  5
AE1F
330
9C19
100
AcDbDictionary
280
     1
281
     1
  3
ACAD_XREC_ROUNDTRIP
360
AE20
  0
DICTIONARY
  5
AE3B
330
9C27
100
AcDbDictionary
280
     1
281
     1
  3
ACAD_XREC_ROUNDTRIP
360
AE3C
  0
DICTIONARY
  5
AE2B
330
9C1F
100
AcDbDictionary
280
     1
281
     1
  3
ACAD_XREC_ROUNDTRIP
360
AE2C
  0
DICTIONARY
  5
AE3D
330
9C28
100
AcDbDictionary
280
     1
281
     1
  3
ACAD_XREC_ROUNDTRIP
360
AE3E
  0
DICTIONARY
  5
AE23
330
9C1B
100
AcDbDictionary
280
     1
281
     1
  3
ACAD_XREC_ROUNDTRIP
360
AE24
  0
DICTIONARY
  5
AE39
330
9C26
100
AcDbDictionary
280
     1
281
     1
  3
ACAD_XREC_ROUNDTRIP
360
AE3A
  0
DICTIONARY
  5
AE37
330
9C25
100
AcDbDictionary
280
     1
281
     1
  3
ACAD_XREC_ROUNDTRIP
360
AE38
  0
DICTIONARY
  5
AE31
330
9C22
100
AcDbDictionary
280
     1
281
     1
  3
ACAD_XREC_ROUNDTRIP
360
AE32
  0
DICTIONARY
  5
AE33
330
9C23
100
AcDbDictionary
280
     1
281
     1
  3
ACAD_XREC_ROUNDTRIP
360
AE34
  0
DICTIONARY
  5
AE29
330
9C1E
100
AcDbDictionary
280
     1
281
     1
  3
ACAD_XREC_ROUNDTRIP
360
AE2A
  0
DICTIONARY
  5
AE1D
330
9C18
100
AcDbDictionary
280
     1
281
     1
  3
ACAD_XREC_ROUNDTRIP
360
AE1E
  0
DICTIONARY
  5
AE35
330
9C24
100
AcDbDictionary
280
     1
281
     1
  3
ACAD_XREC_ROUNDTRIP
360
AE36
  0
XRECORD
  5
AE46
102
{ACAD_REACTORS
330
AE45
102
}
330
AE45
100
AcDbXrecord
280
     1
102
DISPLAYNAME
  1
Metric50
102
FLAGS
 90
        0
  0
XRECORD
  5
AE0F
102
{ACAD_REACTORS
330
9C02
102
}
330
9C02
100
AcDbXrecord
280
     1
102
MATERIAL
148
0.0
149
0.0
149
0.0
 93
        0
 94
      127
282
     0
 72
     0
 77
     0
171
     0
175
     0
179
     0
273
     0
  0
XRECORD
  5
9C04
102
{ACAD_REACTORS
330
9C02
102
}
330
9C02
100
AcDbXrecord
280
     1
270
     1
271
     1
  0
XRECORD
  5
9C03
102
{ACAD_REACTORS
330
9C02
102
}
330
9C02
100
AcDbXrecord
280
     1
270
     1
271
     1
  0
XRECORD
  5
9C07
102
{ACAD_REACTORS
330
9C02
102
}
330
9C02
100
AcDbXrecord
280
     1
270
     1
271
     1
  0
XRECORD
  5
9C06
102
{ACAD_REACTORS
330
9C02
102
}
330
9C02
100
AcDbXrecord
280
     1
270
     1
271
     1
  0
XRECORD
  5
9C08
102
{ACAD_REACTORS
330
9C02
102
}
330
9C02
100
AcDbXrecord
280
     1
270
     1
271
     1
  0
XRECORD
  5
9C05
102
{ACAD_REACTORS
330
9C02
102
}
330
9C02
100
AcDbXrecord
280
     1
270
     1
271
     1
  0
XRECORD
  5
AE0E
102
{ACAD_REACTORS
330
9BFA
102
}
330
9BFA
100
AcDbXrecord
280
     1
102
MATERIAL
148
0.0
149
0.0
149
0.0
 93
        0
 94
      127
282
     0
 72
     0
 77
     0
171
     0
175
     0
179
     0
273
     0
  0
XRECORD
  5
9BFC
102
{ACAD_REACTORS
330
9BFA
102
}
330
9BFA
100
AcDbXrecord
280
     1
270
     1
271
     1
  0
XRECORD
  5
9BFB
102
{ACAD_REACTORS
330
9BFA
102
}
330
9BFA
100
AcDbXrecord
280
     1
270
     1
271
     1
  0
XRECORD
  5
9BFF
102
{ACAD_REACTORS
330
9BFA
102
}
330
9BFA
100
AcDbXrecord
280
     1
270
     1
271
     1
  0
XRECORD
  5
9BFE
102
{ACAD_REACTORS
330
9BFA
102
}
330
9BFA
100
AcDbXrecord
280
     1
270
     1
271
     1
  0
XRECORD
  5
9C00
102
{ACAD_REACTORS
330
9BFA
102
}
330
9BFA
100
AcDbXrecord
280
     1
270
     1
271
     1
  0
XRECORD
  5
9BFD
102
{ACAD_REACTORS
330
9BFA
102
}
330
9BFA
100
AcDbXrecord
280
     1
270
     1
271
     1
  0
XRECORD
  5
AE10
102
{ACAD_REACTORS
330
9C0A
102
}
330
9C0A
100
AcDbXrecord
280
     1
102
MATERIAL
148
0.0
149
0.0
149
0.0
 93
        0
 94
      127
282
     0
 72
     0
 77
     0
171
     0
175
     0
179
     0
273
     0
  0
XRECORD
  5
9C0C
102
{ACAD_REACTORS
330
9C0A
102
}
330
9C0A
100
AcDbXrecord
280
     1
270
     1
271
     1
  0
XRECORD
  5
9C0B
102
{ACAD_REACTORS
330
9C0A
102
}
330
9C0A
100
AcDbXrecord
280
     1
270
     1
271
     1
  0
XRECORD
  5
9C0F
102
{ACAD_REACTORS
330
9C0A
102
}
330
9C0A
100
AcDbXrecord
280
     1
270
     1
271
     1
  0
XRECORD
  5
9C0E
102
{ACAD_REACTORS
330
9C0A
102
}
330
9C0A
100
AcDbXrecord
280
     1
270
     1
271
     1
  0
XRECORD
  5
9C10
102
{ACAD_REACTORS
330
9C0A
102
}
330
9C0A
100
AcDbXrecord
280
     1
270
     1
271
     1
  0
XRECORD
  5
9C0D
102
{ACAD_REACTORS
330
9C0A
102
}
330
9C0A
100
AcDbXrecord
280
     1
270
     1
271
     1
  0
XRECORD
  5
AE44
102
{ACAD_REACTORS
330
AE43
102
}
330
AE43
100
AcDbXrecord
280
     1
102
DISPLAYNAME
  1
Metric50
102
FLAGS
 90
        0
  0
CELLSTYLEMAP
  5
AE00
102
{ACAD_REACTORS
330
9F98
102
}
330
9F98
100
AcDbCellStyleMap
 90
        3
300
CELLSTYLE
  1
TABLEFORMAT_BEGIN
 90
        5
170
     1
 91
        0
 92
    32768
 62
   257
 93
        1
300
CONTENTFORMAT
  1
CONTENTFORMAT_BEGIN
 90
        0
 91
        0
 92
        4
 93
        0
300

 40
0.0
140
1.0
 94
        5
 62
     0
340
F
144
6.0
309
CONTENTFORMAT_END
171
     1
301
MARGIN
  1
CELLMARGIN_BEGIN
 40
1.5
 40
1.5
 40
1.5
 40
1.5
 40
0.18
 40
0.18
309
CELLMARGIN_END
 94
        6
 95
        1
302
GRIDFORMAT
  1
GRIDFORMAT_BEGIN
 90
        0
 91
        1
 62
     0
 92
       -2
340
0
 93
        0
 40
0.045
309
GRIDFORMAT_END
 95
        2
302
GRIDFORMAT
  1
GRIDFORMAT_BEGIN
 90
        0
 91
        1
 62
     0
 92
       -2
340
0
 93
        0
 40
0.045
309
GRIDFORMAT_END
 95
        4
302
GRIDFORMAT
  1
GRIDFORMAT_BEGIN
 90
        0
 91
        1
 62
     0
 92
       -2
340
0
 93
        0
 40
0.045
309
GRIDFORMAT_END
 95
        8
302
GRIDFORMAT
  1
GRIDFORMAT_BEGIN
 90
        0
 91
        1
 62
     0
 92
       -2
340
0
 93
        0
 40
0.045
309
GRIDFORMAT_END
 95
       16
302
GRIDFORMAT
  1
GRIDFORMAT_BEGIN
 90
        0
 91
        1
 62
     0
 92
       -2
340
0
 93
        0
 40
0.045
309
GRIDFORMAT_END
 95
       32
302
GRIDFORMAT
  1
GRIDFORMAT_BEGIN
 90
        0
 91
        1
 62
     0
 92
       -2
340
0
 93
        0
 40
0.045
309
GRIDFORMAT_END
309
TABLEFORMAT_END
  1
CELLSTYLE_BEGIN
 90
        1
 91
        1
300
_TITLE
309
CELLSTYLE_END
300
CELLSTYLE
  1
TABLEFORMAT_BEGIN
 90
        5
170
     1
 91
        0
 92
        0
 62
   257
 93
        1
300
CONTENTFORMAT
  1
CONTENTFORMAT_BEGIN
 90
        0
 91
        0
 92
        4
 93
        0
300

 40
0.0
140
1.0
 94
        5
 62
     0
340
F
144
4.5
309
CONTENTFORMAT_END
171
     1
301
MARGIN
  1
CELLMARGIN_BEGIN
 40
1.5
 40
1.5
 40
1.5
 40
1.5
 40
0.18
 40
0.18
309
CELLMARGIN_END
 94
        6
 95
        1
302
GRIDFORMAT
  1
GRIDFORMAT_BEGIN
 90
        0
 91
        1
 62
     0
 92
       -2
340
0
 93
        0
 40
0.045
309
GRIDFORMAT_END
 95
        2
302
GRIDFORMAT
  1
GRIDFORMAT_BEGIN
 90
        0
 91
        1
 62
     0
 92
       -2
340
0
 93
        0
 40
0.045
309
GRIDFORMAT_END
 95
        4
302
GRIDFORMAT
  1
GRIDFORMAT_BEGIN
 90
        0
 91
        1
 62
     0
 92
       -2
340
0
 93
        0
 40
0.045
309
GRIDFORMAT_END
 95
        8
302
GRIDFORMAT
  1
GRIDFORMAT_BEGIN
 90
        0
 91
        1
 62
     0
 92
       -2
340
0
 93
        0
 40
0.045
309
GRIDFORMAT_END
 95
       16
302
GRIDFORMAT
  1
GRIDFORMAT_BEGIN
 90
        0
 91
        1
 62
     0
 92
       -2
340
0
 93
        0
 40
0.045
309
GRIDFORMAT_END
 95
       32
302
GRIDFORMAT
  1
GRIDFORMAT_BEGIN
 90
        0
 91
        1
 62
     0
 92
       -2
340
0
 93
        0
 40
0.045
309
GRIDFORMAT_END
309
TABLEFORMAT_END
  1
CELLSTYLE_BEGIN
 90
        2
 91
        1
300
_HEADER
309
CELLSTYLE_END
300
CELLSTYLE
  1
TABLEFORMAT_BEGIN
 90
        5
170
     1
 91
        0
 92
        0
 62
   257
 93
        1
300
CONTENTFORMAT
  1
CONTENTFORMAT_BEGIN
 90
        0
 91
        0
 92
        4
 93
        0
300

 40
0.0
140
1.0
 94
        2
 62
     0
340
F
144
4.5
309
CONTENTFORMAT_END
171
     1
301
MARGIN
  1
CELLMARGIN_BEGIN
 40
1.5
 40
1.5
 40
1.5
 40
1.5
 40
0.18
 40
0.18
309
CELLMARGIN_END
 94
        6
 95
        1
302
GRIDFORMAT
  1
GRIDFORMAT_BEGIN
 90
        0
 91
        1
 62
     0
 92
       -2
340
0
 93
        0
 40
0.045
309
GRIDFORMAT_END
 95
        2
302
GRIDFORMAT
  1
GRIDFORMAT_BEGIN
 90
        0
 91
        1
 62
     0
 92
       -2
340
0
 93
        0
 40
0.045
309
GRIDFORMAT_END
 95
        4
302
GRIDFORMAT
  1
GRIDFORMAT_BEGIN
 90
        0
 91
        1
 62
     0
 92
       -2
340
0
 93
        0
 40
0.045
309
GRIDFORMAT_END
 95
        8
302
GRIDFORMAT
  1
GRIDFORMAT_BEGIN
 90
        0
 91
        1
 62
     0
 92
       -2
340
0
 93
        0
 40
0.045
309
GRIDFORMAT_END
 95
       16
302
GRIDFORMAT
  1
GRIDFORMAT_BEGIN
 90
        0
 91
        1
 62
     0
 92
       -2
340
0
 93
        0
 40
0.045
309
GRIDFORMAT_END
 95
       32
302
GRIDFORMAT
  1
GRIDFORMAT_BEGIN
 90
        0
 91
        1
 62
     0
 92
       -2
340
0
 93
        0
 40
0.045
309
GRIDFORMAT_END
309
TABLEFORMAT_END
  1
CELLSTYLE_BEGIN
 90
        3
 91
        2
300
_DATA
309
CELLSTYLE_END
  0
XRECORD
  5
AE09
102
{ACAD_REACTORS
330
9F98
102
}
330
9F98
100
AcDbXrecord
280
     1
102
ACAD_ROUNDTRIP_PRE2007_TABLESTYLE
 90
        4
 91
        0
  1

 92
        4
 93
        0
  2

 94
        4
 95
        0
  3

  0
XRECORD
  5
AE1C
102
{ACAD_REACTORS
330
AE1B
102
}
330
AE1B
100
AcDbXrecord
280
     1
102
RTVSPost2010Prop28
280
     1
102
RTVSPost2010PropOp28
 70
     1
102
RTVSPost2010Prop29
280
     1
102
RTVSPost2010PropOp29
 70
     1
102
RTVSPost2010Prop30
280
     0
102
RTVSPost2010PropOp30
 70
     1
102
RTVSPost2010Prop31
280
     0
102
RTVSPost2010PropOp31
 70
     1
102
RTVSPost2010Prop32
280
     0
102
RTVSPost2010PropOp32
 70
     1
102
RTVSPost2010Prop33
280
     0
102
RTVSPost2010PropOp33
 70
     1
102
RTVSPost2010Prop34
280
     0
102
RTVSPost2010PropOp34
 70
     1
102
RTVSPost2010Prop35
280
     0
102
RTVSPost2010PropOp35
 70
     1
102
RTVSPost2010Prop36
280
     0
102
RTVSPost2010PropOp36
 70
     1
102
RTVSPost2010Prop37
 90
       50
102
RTVSPost2010PropOp37
 70
     1
102
RTVSPost2010Prop38
140
0.0
102
RTVSPost2010PropOp38
 70
     1
102
RTVSPost2010Prop39
140
1.0
102
RTVSPost2010PropOp39
 70
     1
102
RTVSPost2010Prop40
 90
        0
102
RTVSPost2010PropOp40
 70
     1
102
RTVSPost2010Prop41ColorIndex
 90
       18
102
RTVSPost2010Prop41ColorRGB
 90
        0
102
RTVSPost2010PropOp41
 70
     1
102
RTVSPost2010Prop42
 90
       50
102
RTVSPost2010PropOp42
 70
     1
102
RTVSPost2010Prop43
 90
        3
102
RTVSPost2010PropOp43
 70
     1
102
RTVSPost2010Prop44ColorIndex
 90
        5
102
RTVSPost2010Prop44ColorRGB
 90
      255
102
RTVSPost2010PropOp44
 70
     1
102
RTVSPost2010Prop45
280
     0
102
RTVSPost2010PropOp45
 70
     1
102
RTVSPost2010Prop46
 90
       50
102
RTVSPost2010PropOp46
 70
     1
102
RTVSPost2010Prop47
 90
       50
102
RTVSPost2010PropOp47
 70
     1
102
RTVSPost2010Prop48
 90
       50
102
RTVSPost2010PropOp48
 70
     1
102
RTVSPost2010Prop49
280
     0
102
RTVSPost2010PropOp49
 70
     1
102
RTVSPost2010Prop50
 90
       50
102
RTVSPost2010PropOp50
 70
     1
102
RTVSPost2010Prop51ColorIndex
 90
      256
102
RTVSPost2010Prop51ColorRGB
 90
-16777216
102
RTVSPost2010PropOp51
 70
     0
102
RTVSPost2010Prop52
140
1.0
102
RTVSPost2010PropOp52
 70
     0
102
RTVSPost2010Prop53
 90
        2
102
RTVSPost2010PropOp53
 70
     1
102
RTVSPost2010Prop54
  1
strokes_ogs.tif
102
RTVSPost2010PropOp54
 70
     1
102
RTVSPost2010Prop55
280
     0
102
RTVSPost2010PropOp55
 70
     1
102
RTVSPost2010Prop56
140
1.0
102
RTVSPost2010PropOp56
 70
     1
102
RTVSPost2010Prop57
140
1.0
102
RTVSPost2010PropOp57
 70
     1
102
RTVSPropertyOp0
 70
     1
102
RTVSPropertyOp1
 70
     1
102
RTVSPropertyOp2
 70
     1
102
RTVSPropertyOp3
 70
     1
102
RTVSPropertyOp4
 70
     1
102
RTVSPropertyOp5
 70
     1
102
RTVSPropertyOp6
 70
     1
102
RTVSPropertyOp7
 70
     1
102
RTVSPropertyOp8
 70
     1
102
RTVSPropertyOp9
 70
     1
102
RTVSPropertyOp10
 70
     1
102
RTVSPropertyOp11
 70
     1
102
RTVSPropertyOp12
 70
     1
102
RTVSPropertyOp13
 70
     1
102
RTVSPropertyOp14
 70
     1
102
RTVSPropertyOp15
 70
     1
102
RTVSPropertyOp16
 70
     1
102
RTVSPropertyOp17
 70
     1
102
RTVSPropertyOp18
 70
     1
102
RTVSPropertyOp19
 70
     1
102
RTVSPropertyOp20
 70
     1
102
RTVSPropertyOp21
 70
     1
102
RTVSPropertyOp22
 70
     1
102
RTVSPropertyOp23
 70
     1
102
RTVSPropertyOp24
 70
     1
102
RTVSPropertyOp25
 70
     1
102
RTVSPropertyOp26
 70
     1
102
RTVSPropertyOp27
 70
     1
102
RTVSPropertyOp28
 70
     1
102
RTVSPropertyOp29
 70
     1
102
RTVSPropertyOp30
 70
     1
102
RTVSPropertyOp31
 70
     1
102
RTVSPropertyOp32
 70
     1
102
RTVSPropertyOp33
 70
     1
102
RTVSPropertyOp34
 70
     1
102
RTVSPropertyOp35
 70
     1
102
RTVSPropertyOp36
 70
     1
102
RTVSPropertyOp37
 70
     1
102
RTVSPropertyOp38
 70
     1
102
RTVSPropertyOp39
 70
     1
102
RTVSPropertyOp40
 70
     1
102
RTVSPropertyOp41
 70
     1
102
RTVSPropertyOp42
 70
     1
102
RTVSPropertyOp43
 70
     1
102
RTVSPropertyOp44
 70
     1
102
RTVSPropertyOp45
 70
     1
102
RTVSPropertyOp46
 70
     1
102
RTVSPropertyOp47
 70
     1
102
RTVSPropertyOp48
 70
     1
102
RTVSPropertyOp49
 70
     1
102
RTVSPropertyOp50
 70
     1
102
RTVSPropertyOp51
 70
     0
102
RTVSPropertyOp52
 70
     0
102
RTVSPropertyOp53
 70
     1
102
RTVSPropertyOp54
 70
     1
102
RTVSPropertyOp55
 70
     1
102
RTVSPropertyOp56
 70
     1
102
RTVSPropertyOp57
 70
     1
102
RTVSPropertyOp58
 70
     1
102
RTVSPropertyOp59
 70
     1
102
RTVSPropertyOp60
 70
     1
102
RTVSPropertyOp61
 70
     1
102
RTVSPropertyOp62
 70
     1
  0
XRECORD
  5
AE1A
102
{ACAD_REACTORS
330
AE19
102
}
330
AE19
100
AcDbXrecord
280
     1
102
RTVSPost2010Prop28
280
     0
102
RTVSPost2010PropOp28
 70
     1
102
RTVSPost2010Prop29
280
     1
102
RTVSPost2010PropOp29
 70
     1
102
RTVSPost2010Prop30
280
     1
102
RTVSPost2010PropOp30
 70
     1
102
RTVSPost2010Prop31
280
     0
102
RTVSPost2010PropOp31
 70
     1
102
RTVSPost2010Prop32
280
     0
102
RTVSPost2010PropOp32
 70
     1
102
RTVSPost2010Prop33
280
     0
102
RTVSPost2010PropOp33
 70
     1
102
RTVSPost2010Prop34
280
     0
102
RTVSPost2010PropOp34
 70
     1
102
RTVSPost2010Prop35
280
     0
102
RTVSPost2010PropOp35
 70
     1
102
RTVSPost2010Prop36
280
     0
102
RTVSPost2010PropOp36
 70
     1
102
RTVSPost2010Prop37
 90
       50
102
RTVSPost2010PropOp37
 70
     1
102
RTVSPost2010Prop38
140
0.0
102
RTVSPost2010PropOp38
 70
     1
102
RTVSPost2010Prop39
140
1.0
102
RTVSPost2010PropOp39
 70
     1
102
RTVSPost2010Prop40
 90
        0
102
RTVSPost2010PropOp40
 70
     1
102
RTVSPost2010Prop41ColorIndex
 90
       18
102
RTVSPost2010Prop41ColorRGB
 90
        0
102
RTVSPost2010PropOp41
 70
     1
102
RTVSPost2010Prop42
 90
       50
102
RTVSPost2010PropOp42
 70
     1
102
RTVSPost2010Prop43
 90
        3
102
RTVSPost2010PropOp43
 70
     1
102
RTVSPost2010Prop44ColorIndex
 90
        5
102
RTVSPost2010Prop44ColorRGB
 90
      255
102
RTVSPost2010PropOp44
 70
     1
102
RTVSPost2010Prop45
280
     0
102
RTVSPost2010PropOp45
 70
     1
102
RTVSPost2010Prop46
 90
       50
102
RTVSPost2010PropOp46
 70
     1
102
RTVSPost2010Prop47
 90
       50
102
RTVSPost2010PropOp47
 70
     1
102
RTVSPost2010Prop48
 90
       50
102
RTVSPost2010PropOp48
 70
     1
102
RTVSPost2010Prop49
280
     0
102
RTVSPost2010PropOp49
 70
     1
102
RTVSPost2010Prop50
 90
       50
102
RTVSPost2010PropOp50
 70
     1
102
RTVSPost2010Prop51ColorIndex
 90
      256
102
RTVSPost2010Prop51ColorRGB
 90
-16777216
102
RTVSPost2010PropOp51
 70
     0
102
RTVSPost2010Prop52
140
1.0
102
RTVSPost2010PropOp52
 70
     0
102
RTVSPost2010Prop53
 90
        2
102
RTVSPost2010PropOp53
 70
     1
102
RTVSPost2010Prop54
  1
strokes_ogs.tif
102
RTVSPost2010PropOp54
 70
     1
102
RTVSPost2010Prop55
280
     0
102
RTVSPost2010PropOp55
 70
     1
102
RTVSPost2010Prop56
140
1.0
102
RTVSPost2010PropOp56
 70
     1
102
RTVSPost2010Prop57
140
1.0
102
RTVSPost2010PropOp57
 70
     1
102
RTVSPropertyOp0
 70
     1
102
RTVSPropertyOp1
 70
     1
102
RTVSPropertyOp2
 70
     1
102
RTVSPropertyOp3
 70
     1
102
RTVSPropertyOp4
 70
     1
102
RTVSPropertyOp5
 70
     1
102
RTVSPropertyOp6
 70
     1
102
RTVSPropertyOp7
 70
     1
102
RTVSPropertyOp8
 70
     1
102
RTVSPropertyOp9
 70
     1
102
RTVSPropertyOp10
 70
     1
102
RTVSPropertyOp11
 70
     1
102
RTVSPropertyOp12
 70
     1
102
RTVSPropertyOp13
 70
     1
102
RTVSPropertyOp14
 70
     1
102
RTVSPropertyOp15
 70
     1
102
RTVSPropertyOp16
 70
     1
102
RTVSPropertyOp17
 70
     1
102
RTVSPropertyOp18
 70
     1
102
RTVSPropertyOp19
 70
     1
102
RTVSPropertyOp20
 70
     1
102
RTVSPropertyOp21
 70
     1
102
RTVSPropertyOp22
 70
     1
102
RTVSPropertyOp23
 70
     1
102
RTVSPropertyOp24
 70
     1
102
RTVSPropertyOp25
 70
     1
102
RTVSPropertyOp26
 70
     1
102
RTVSPropertyOp27
 70
     1
102
RTVSPropertyOp28
 70
     1
102
RTVSPropertyOp29
 70
     1
102
RTVSPropertyOp30
 70
     1
102
RTVSPropertyOp31
 70
     1
102
RTVSPropertyOp32
 70
     1
102
RTVSPropertyOp33
 70
     1
102
RTVSPropertyOp34
 70
     1
102
RTVSPropertyOp35
 70
     1
102
RTVSPropertyOp36
 70
     1
102
RTVSPropertyOp37
 70
     1
102
RTVSPropertyOp38
 70
     1
102
RTVSPropertyOp39
 70
     1
102
RTVSPropertyOp40
 70
     1
102
RTVSPropertyOp41
 70
     1
102
RTVSPropertyOp42
 70
     1
102
RTVSPropertyOp43
 70
     1
102
RTVSPropertyOp44
 70
     1
102
RTVSPropertyOp45
 70
     1
102
RTVSPropertyOp46
 70
     1
102
RTVSPropertyOp47
 70
     1
102
RTVSPropertyOp48
 70
     1
102
RTVSPropertyOp49
 70
     1
102
RTVSPropertyOp50
 70
     1
102
RTVSPropertyOp51
 70
     0
102
RTVSPropertyOp52
 70
     0
102
RTVSPropertyOp53
 70
     1
102
RTVSPropertyOp54
 70
     1
102
RTVSPropertyOp55
 70
     1
102
RTVSPropertyOp56
 70
     1
102
RTVSPropertyOp57
 70
     1
102
RTVSPropertyOp58
 70
     1
102
RTVSPropertyOp59
 70
     1
102
RTVSPropertyOp60
 70
     1
102
RTVSPropertyOp61
 70
     1
102
RTVSPropertyOp62
 70
     1
  0
XRECORD
  5
AE28
102
{ACAD_REACTORS
330
AE27
102
}
330
AE27
100
AcDbXrecord
280
     1
102
RTVSPost2010Prop28
280
     0
102
RTVSPost2010PropOp28
 70
     1
102
RTVSPost2010Prop29
280
     1
102
RTVSPost2010PropOp29
 70
     1
102
RTVSPost2010Prop30
280
     1
102
RTVSPost2010PropOp30
 70
     1
102
RTVSPost2010Prop31
280
     0
102
RTVSPost2010PropOp31
 70
     1
102
RTVSPost2010Prop32
280
     0
102
RTVSPost2010PropOp32
 70
     1
102
RTVSPost2010Prop33
280
     0
102
RTVSPost2010PropOp33
 70
     1
102
RTVSPost2010Prop34
280
     0
102
RTVSPost2010PropOp34
 70
     1
102
RTVSPost2010Prop35
280
     0
102
RTVSPost2010PropOp35
 70
     1
102
RTVSPost2010Prop36
280
     0
102
RTVSPost2010PropOp36
 70
     1
102
RTVSPost2010Prop37
 90
       50
102
RTVSPost2010PropOp37
 70
     1
102
RTVSPost2010Prop38
140
0.0
102
RTVSPost2010PropOp38
 70
     1
102
RTVSPost2010Prop39
140
1.0
102
RTVSPost2010PropOp39
 70
     1
102
RTVSPost2010Prop40
 90
        0
102
RTVSPost2010PropOp40
 70
     1
102
RTVSPost2010Prop41ColorIndex
 90
       18
102
RTVSPost2010Prop41ColorRGB
 90
        0
102
RTVSPost2010PropOp41
 70
     1
102
RTVSPost2010Prop42
 90
       50
102
RTVSPost2010PropOp42
 70
     1
102
RTVSPost2010Prop43
 90
        3
102
RTVSPost2010PropOp43
 70
     1
102
RTVSPost2010Prop44ColorIndex
 90
        5
102
RTVSPost2010Prop44ColorRGB
 90
      255
102
RTVSPost2010PropOp44
 70
     1
102
RTVSPost2010Prop45
280
     0
102
RTVSPost2010PropOp45
 70
     1
102
RTVSPost2010Prop46
 90
       50
102
RTVSPost2010PropOp46
 70
     1
102
RTVSPost2010Prop47
 90
       50
102
RTVSPost2010PropOp47
 70
     1
102
RTVSPost2010Prop48
 90
       50
102
RTVSPost2010PropOp48
 70
     1
102
RTVSPost2010Prop49
280
     0
102
RTVSPost2010PropOp49
 70
     1
102
RTVSPost2010Prop50
 90
       50
102
RTVSPost2010PropOp50
 70
     1
102
RTVSPost2010Prop51ColorIndex
 90
      256
102
RTVSPost2010Prop51ColorRGB
 90
-16777216
102
RTVSPost2010PropOp51
 70
     0
102
RTVSPost2010Prop52
140
1.0
102
RTVSPost2010PropOp52
 70
     0
102
RTVSPost2010Prop53
 90
        2
102
RTVSPost2010PropOp53
 70
     1
102
RTVSPost2010Prop54
  1
strokes_ogs.tif
102
RTVSPost2010PropOp54
 70
     1
102
RTVSPost2010Prop55
280
     0
102
RTVSPost2010PropOp55
 70
     1
102
RTVSPost2010Prop56
140
1.0
102
RTVSPost2010PropOp56
 70
     1
102
RTVSPost2010Prop57
140
1.0
102
RTVSPost2010PropOp57
 70
     1
102
RTVSPropertyOp0
 70
     1
102
RTVSPropertyOp1
 70
     1
102
RTVSPropertyOp2
 70
     1
102
RTVSPropertyOp3
 70
     1
102
RTVSPropertyOp4
 70
     1
102
RTVSPropertyOp5
 70
     1
102
RTVSPropertyOp6
 70
     1
102
RTVSPropertyOp7
 70
     1
102
RTVSPropertyOp8
 70
     1
102
RTVSPropertyOp9
 70
     1
102
RTVSPropertyOp10
 70
     1
102
RTVSPropertyOp11
 70
     1
102
RTVSPropertyOp12
 70
     1
102
RTVSPropertyOp13
 70
     1
102
RTVSPropertyOp14
 70
     1
102
RTVSPropertyOp15
 70
     1
102
RTVSPropertyOp16
 70
     1
102
RTVSPropertyOp17
 70
     1
102
RTVSPropertyOp18
 70
     1
102
RTVSPropertyOp19
 70
     1
102
RTVSPropertyOp20
 70
     1
102
RTVSPropertyOp21
 70
     1
102
RTVSPropertyOp22
 70
     1
102
RTVSPropertyOp23
 70
     1
102
RTVSPropertyOp24
 70
     1
102
RTVSPropertyOp25
 70
     1
102
RTVSPropertyOp26
 70
     1
102
RTVSPropertyOp27
 70
     1
102
RTVSPropertyOp28
 70
     1
102
RTVSPropertyOp29
 70
     1
102
RTVSPropertyOp30
 70
     1
102
RTVSPropertyOp31
 70
     1
102
RTVSPropertyOp32
 70
     1
102
RTVSPropertyOp33
 70
     1
102
RTVSPropertyOp34
 70
     1
102
RTVSPropertyOp35
 70
     1
102
RTVSPropertyOp36
 70
     1
102
RTVSPropertyOp37
 70
     1
102
RTVSPropertyOp38
 70
     1
102
RTVSPropertyOp39
 70
     1
102
RTVSPropertyOp40
 70
     1
102
RTVSPropertyOp41
 70
     1
102
RTVSPropertyOp42
 70
     1
102
RTVSPropertyOp43
 70
     1
102
RTVSPropertyOp44
 70
     1
102
RTVSPropertyOp45
 70
     1
102
RTVSPropertyOp46
 70
     1
102
RTVSPropertyOp47
 70
     1
102
RTVSPropertyOp48
 70
     1
102
RTVSPropertyOp49
 70
     1
102
RTVSPropertyOp50
 70
     1
102
RTVSPropertyOp51
 70
     0
102
RTVSPropertyOp52
 70
     0
102
RTVSPropertyOp53
 70
     1
102
RTVSPropertyOp54
 70
     1
102
RTVSPropertyOp55
 70
     1
102
RTVSPropertyOp56
 70
     1
102
RTVSPropertyOp57
 70
     1
102
RTVSPropertyOp58
 70
     1
102
RTVSPropertyOp59
 70
     1
102
RTVSPropertyOp60
 70
     1
102
RTVSPropertyOp61
 70
     1
102
RTVSPropertyOp62
 70
     1
  0
XRECORD
  5
AE30
102
{ACAD_REACTORS
330
AE2F
102
}
330
AE2F
100
AcDbXrecord
280
     1
102
RTVSPost2010Prop28
280
     0
102
RTVSPost2010PropOp28
 70
     1
102
RTVSPost2010Prop29
280
     1
102
RTVSPost2010PropOp29
 70
     1
102
RTVSPost2010Prop30
280
     1
102
RTVSPost2010PropOp30
 70
     1
102
RTVSPost2010Prop31
280
     0
102
RTVSPost2010PropOp31
 70
     1
102
RTVSPost2010Prop32
280
     0
102
RTVSPost2010PropOp32
 70
     1
102
RTVSPost2010Prop33
280
     0
102
RTVSPost2010PropOp33
 70
     1
102
RTVSPost2010Prop34
280
     0
102
RTVSPost2010PropOp34
 70
     1
102
RTVSPost2010Prop35
280
     0
102
RTVSPost2010PropOp35
 70
     1
102
RTVSPost2010Prop36
280
     0
102
RTVSPost2010PropOp36
 70
     1
102
RTVSPost2010Prop37
 90
       50
102
RTVSPost2010PropOp37
 70
     1
102
RTVSPost2010Prop38
140
0.0
102
RTVSPost2010PropOp38
 70
     1
102
RTVSPost2010Prop39
140
1.0
102
RTVSPost2010PropOp39
 70
     1
102
RTVSPost2010Prop40
 90
        0
102
RTVSPost2010PropOp40
 70
     1
102
RTVSPost2010Prop41ColorIndex
 90
       18
102
RTVSPost2010Prop41ColorRGB
 90
        0
102
RTVSPost2010PropOp41
 70
     1
102
RTVSPost2010Prop42
 90
       50
102
RTVSPost2010PropOp42
 70
     1
102
RTVSPost2010Prop43
 90
        3
102
RTVSPost2010PropOp43
 70
     1
102
RTVSPost2010Prop44ColorIndex
 90
        5
102
RTVSPost2010Prop44ColorRGB
 90
      255
102
RTVSPost2010PropOp44
 70
     1
102
RTVSPost2010Prop45
280
     0
102
RTVSPost2010PropOp45
 70
     1
102
RTVSPost2010Prop46
 90
       50
102
RTVSPost2010PropOp46
 70
     1
102
RTVSPost2010Prop47
 90
       50
102
RTVSPost2010PropOp47
 70
     1
102
RTVSPost2010Prop48
 90
       50
102
RTVSPost2010PropOp48
 70
     1
102
RTVSPost2010Prop49
280
     0
102
RTVSPost2010PropOp49
 70
     1
102
RTVSPost2010Prop50
 90
       50
102
RTVSPost2010PropOp50
 70
     1
102
RTVSPost2010Prop51ColorIndex
 90
      256
102
RTVSPost2010Prop51ColorRGB
 90
-16777216
102
RTVSPost2010PropOp51
 70
     0
102
RTVSPost2010Prop52
140
1.0
102
RTVSPost2010PropOp52
 70
     0
102
RTVSPost2010Prop53
 90
        2
102
RTVSPost2010PropOp53
 70
     1
102
RTVSPost2010Prop54
  1
strokes_ogs.tif
102
RTVSPost2010PropOp54
 70
     1
102
RTVSPost2010Prop55
280
     0
102
RTVSPost2010PropOp55
 70
     1
102
RTVSPost2010Prop56
140
1.0
102
RTVSPost2010PropOp56
 70
     1
102
RTVSPost2010Prop57
140
1.0
102
RTVSPost2010PropOp57
 70
     1
102
RTVSPropertyOp0
 70
     1
102
RTVSPropertyOp1
 70
     1
102
RTVSPropertyOp2
 70
     1
102
RTVSPropertyOp3
 70
     1
102
RTVSPropertyOp4
 70
     1
102
RTVSPropertyOp5
 70
     1
102
RTVSPropertyOp6
 70
     1
102
RTVSPropertyOp7
 70
     1
102
RTVSPropertyOp8
 70
     1
102
RTVSPropertyOp9
 70
     1
102
RTVSPropertyOp10
 70
     1
102
RTVSPropertyOp11
 70
     1
102
RTVSPropertyOp12
 70
     1
102
RTVSPropertyOp13
 70
     1
102
RTVSPropertyOp14
 70
     1
102
RTVSPropertyOp15
 70
     1
102
RTVSPropertyOp16
 70
     1
102
RTVSPropertyOp17
 70
     1
102
RTVSPropertyOp18
 70
     1
102
RTVSPropertyOp19
 70
     1
102
RTVSPropertyOp20
 70
     1
102
RTVSPropertyOp21
 70
     1
102
RTVSPropertyOp22
 70
     1
102
RTVSPropertyOp23
 70
     1
102
RTVSPropertyOp24
 70
     1
102
RTVSPropertyOp25
 70
     1
102
RTVSPropertyOp26
 70
     1
102
RTVSPropertyOp27
 70
     1
102
RTVSPropertyOp28
 70
     1
102
RTVSPropertyOp29
 70
     1
102
RTVSPropertyOp30
 70
     1
102
RTVSPropertyOp31
 70
     1
102
RTVSPropertyOp32
 70
     1
102
RTVSPropertyOp33
 70
     1
102
RTVSPropertyOp34
 70
     1
102
RTVSPropertyOp35
 70
     1
102
RTVSPropertyOp36
 70
     1
102
RTVSPropertyOp37
 70
     1
102
RTVSPropertyOp38
 70
     1
102
RTVSPropertyOp39
 70
     1
102
RTVSPropertyOp40
 70
     1
102
RTVSPropertyOp41
 70
     1
102
RTVSPropertyOp42
 70
     1
102
RTVSPropertyOp43
 70
     1
102
RTVSPropertyOp44
 70
     1
102
RTVSPropertyOp45
 70
     1
102
RTVSPropertyOp46
 70
     1
102
RTVSPropertyOp47
 70
     1
102
RTVSPropertyOp48
 70
     1
102
RTVSPropertyOp49
 70
     1
102
RTVSPropertyOp50
 70
     1
102
RTVSPropertyOp51
 70
     0
102
RTVSPropertyOp52
 70
     0
102
RTVSPropertyOp53
 70
     1
102
RTVSPropertyOp54
 70
     1
102
RTVSPropertyOp55
 70
     1
102
RTVSPropertyOp56
 70
     1
102
RTVSPropertyOp57
 70
     1
102
RTVSPropertyOp58
 70
     1
102
RTVSPropertyOp59
 70
     1
102
RTVSPropertyOp60
 70
     1
102
RTVSPropertyOp61
 70
     1
102
RTVSPropertyOp62
 70
     1
  0
XRECORD
  5
AE22
102
{ACAD_REACTORS
330
AE21
102
}
330
AE21
100
AcDbXrecord
280
     1
102
RTVSPost2010Prop28
280
     0
102
RTVSPost2010PropOp28
 70
     1
102
RTVSPost2010Prop29
280
     1
102
RTVSPost2010PropOp29
 70
     1
102
RTVSPost2010Prop30
280
     1
102
RTVSPost2010PropOp30
 70
     1
102
RTVSPost2010Prop31
280
     0
102
RTVSPost2010PropOp31
 70
     1
102
RTVSPost2010Prop32
280
     0
102
RTVSPost2010PropOp32
 70
     1
102
RTVSPost2010Prop33
280
     0
102
RTVSPost2010PropOp33
 70
     1
102
RTVSPost2010Prop34
280
     0
102
RTVSPost2010PropOp34
 70
     1
102
RTVSPost2010Prop35
280
     0
102
RTVSPost2010PropOp35
 70
     1
102
RTVSPost2010Prop36
280
     0
102
RTVSPost2010PropOp36
 70
     1
102
RTVSPost2010Prop37
 90
       50
102
RTVSPost2010PropOp37
 70
     1
102
RTVSPost2010Prop38
140
0.0
102
RTVSPost2010PropOp38
 70
     1
102
RTVSPost2010Prop39
140
1.0
102
RTVSPost2010PropOp39
 70
     1
102
RTVSPost2010Prop40
 90
        0
102
RTVSPost2010PropOp40
 70
     1
102
RTVSPost2010Prop41ColorIndex
 90
       18
102
RTVSPost2010Prop41ColorRGB
 90
        0
102
RTVSPost2010PropOp41
 70
     1
102
RTVSPost2010Prop42
 90
       50
102
RTVSPost2010PropOp42
 70
     1
102
RTVSPost2010Prop43
 90
        3
102
RTVSPost2010PropOp43
 70
     1
102
RTVSPost2010Prop44ColorIndex
 90
        5
102
RTVSPost2010Prop44ColorRGB
 90
      255
102
RTVSPost2010PropOp44
 70
     1
102
RTVSPost2010Prop45
280
     0
102
RTVSPost2010PropOp45
 70
     1
102
RTVSPost2010Prop46
 90
       50
102
RTVSPost2010PropOp46
 70
     1
102
RTVSPost2010Prop47
 90
       50
102
RTVSPost2010PropOp47
 70
     1
102
RTVSPost2010Prop48
 90
       50
102
RTVSPost2010PropOp48
 70
     1
102
RTVSPost2010Prop49
280
     0
102
RTVSPost2010PropOp49
 70
     1
102
RTVSPost2010Prop50
 90
       50
102
RTVSPost2010PropOp50
 70
     1
102
RTVSPost2010Prop51ColorIndex
 90
      256
102
RTVSPost2010Prop51ColorRGB
 90
-16777216
102
RTVSPost2010PropOp51
 70
     0
102
RTVSPost2010Prop52
140
1.0
102
RTVSPost2010PropOp52
 70
     0
102
RTVSPost2010Prop53
 90
        2
102
RTVSPost2010PropOp53
 70
     1
102
RTVSPost2010Prop54
  1
strokes_ogs.tif
102
RTVSPost2010PropOp54
 70
     1
102
RTVSPost2010Prop55
280
     0
102
RTVSPost2010PropOp55
 70
     1
102
RTVSPost2010Prop56
140
1.0
102
RTVSPost2010PropOp56
 70
     1
102
RTVSPost2010Prop57
140
1.0
102
RTVSPost2010PropOp57
 70
     1
102
RTVSPropertyOp0
 70
     1
102
RTVSPropertyOp1
 70
     1
102
RTVSPropertyOp2
 70
     1
102
RTVSPropertyOp3
 70
     1
102
RTVSPropertyOp4
 70
     1
102
RTVSPropertyOp5
 70
     1
102
RTVSPropertyOp6
 70
     1
102
RTVSPropertyOp7
 70
     1
102
RTVSPropertyOp8
 70
     1
102
RTVSPropertyOp9
 70
     1
102
RTVSPropertyOp10
 70
     1
102
RTVSPropertyOp11
 70
     1
102
RTVSPropertyOp12
 70
     1
102
RTVSPropertyOp13
 70
     1
102
RTVSPropertyOp14
 70
     1
102
RTVSPropertyOp15
 70
     1
102
RTVSPropertyOp16
 70
     1
102
RTVSPropertyOp17
 70
     1
102
RTVSPropertyOp18
 70
     1
102
RTVSPropertyOp19
 70
     1
102
RTVSPropertyOp20
 70
     1
102
RTVSPropertyOp21
 70
     1
102
RTVSPropertyOp22
 70
     1
102
RTVSPropertyOp23
 70
     1
102
RTVSPropertyOp24
 70
     1
102
RTVSPropertyOp25
 70
     1
102
RTVSPropertyOp26
 70
     1
102
RTVSPropertyOp27
 70
     1
102
RTVSPropertyOp28
 70
     1
102
RTVSPropertyOp29
 70
     1
102
RTVSPropertyOp30
 70
     1
102
RTVSPropertyOp31
 70
     1
102
RTVSPropertyOp32
 70
     1
102
RTVSPropertyOp33
 70
     1
102
RTVSPropertyOp34
 70
     1
102
RTVSPropertyOp35
 70
     1
102
RTVSPropertyOp36
 70
     1
102
RTVSPropertyOp37
 70
     1
102
RTVSPropertyOp38
 70
     1
102
RTVSPropertyOp39
 70
     1
102
RTVSPropertyOp40
 70
     1
102
RTVSPropertyOp41
 70
     1
102
RTVSPropertyOp42
 70
     1
102
RTVSPropertyOp43
 70
     1
102
RTVSPropertyOp44
 70
     1
102
RTVSPropertyOp45
 70
     1
102
RTVSPropertyOp46
 70
     1
102
RTVSPropertyOp47
 70
     1
102
RTVSPropertyOp48
 70
     1
102
RTVSPropertyOp49
 70
     1
102
RTVSPropertyOp50
 70
     1
102
RTVSPropertyOp51
 70
     0
102
RTVSPropertyOp52
 70
     0
102
RTVSPropertyOp53
 70
     1
102
RTVSPropertyOp54
 70
     1
102
RTVSPropertyOp55
 70
     1
102
RTVSPropertyOp56
 70
     1
102
RTVSPropertyOp57
 70
     1
102
RTVSPropertyOp58
 70
     1
102
RTVSPropertyOp59
 70
     1
102
RTVSPropertyOp60
 70
     1
102
RTVSPropertyOp61
 70
     1
102
RTVSPropertyOp62
 70
     1
  0
XRECORD
  5
AE26
102
{ACAD_REACTORS
330
AE25
102
}
330
AE25
100
AcDbXrecord
280
     1
102
RTVSPost2010Prop28
280
     0
102
RTVSPost2010PropOp28
 70
     1
102
RTVSPost2010Prop29
280
     1
102
RTVSPost2010PropOp29
 70
     1
102
RTVSPost2010Prop30
280
     1
102
RTVSPost2010PropOp30
 70
     1
102
RTVSPost2010Prop31
280
     0
102
RTVSPost2010PropOp31
 70
     1
102
RTVSPost2010Prop32
280
     0
102
RTVSPost2010PropOp32
 70
     1
102
RTVSPost2010Prop33
280
     0
102
RTVSPost2010PropOp33
 70
     1
102
RTVSPost2010Prop34
280
     0
102
RTVSPost2010PropOp34
 70
     1
102
RTVSPost2010Prop35
280
     0
102
RTVSPost2010PropOp35
 70
     1
102
RTVSPost2010Prop36
280
     0
102
RTVSPost2010PropOp36
 70
     1
102
RTVSPost2010Prop37
 90
       50
102
RTVSPost2010PropOp37
 70
     1
102
RTVSPost2010Prop38
140
0.0
102
RTVSPost2010PropOp38
 70
     1
102
RTVSPost2010Prop39
140
1.0
102
RTVSPost2010PropOp39
 70
     1
102
RTVSPost2010Prop40
 90
        0
102
RTVSPost2010PropOp40
 70
     1
102
RTVSPost2010Prop41ColorIndex
 90
       18
102
RTVSPost2010Prop41ColorRGB
 90
        0
102
RTVSPost2010PropOp41
 70
     1
102
RTVSPost2010Prop42
 90
       50
102
RTVSPost2010PropOp42
 70
     1
102
RTVSPost2010Prop43
 90
        3
102
RTVSPost2010PropOp43
 70
     1
102
RTVSPost2010Prop44ColorIndex
 90
        5
102
RTVSPost2010Prop44ColorRGB
 90
      255
102
RTVSPost2010PropOp44
 70
     1
102
RTVSPost2010Prop45
280
     0
102
RTVSPost2010PropOp45
 70
     1
102
RTVSPost2010Prop46
 90
       50
102
RTVSPost2010PropOp46
 70
     1
102
RTVSPost2010Prop47
 90
       50
102
RTVSPost2010PropOp47
 70
     1
102
RTVSPost2010Prop48
 90
       50
102
RTVSPost2010PropOp48
 70
     1
102
RTVSPost2010Prop49
280
     0
102
RTVSPost2010PropOp49
 70
     1
102
RTVSPost2010Prop50
 90
       50
102
RTVSPost2010PropOp50
 70
     1
102
RTVSPost2010Prop51ColorIndex
 90
      256
102
RTVSPost2010Prop51ColorRGB
 90
-16777216
102
RTVSPost2010PropOp51
 70
     0
102
RTVSPost2010Prop52
140
1.0
102
RTVSPost2010PropOp52
 70
     0
102
RTVSPost2010Prop53
 90
        2
102
RTVSPost2010PropOp53
 70
     1
102
RTVSPost2010Prop54
  1
strokes_ogs.tif
102
RTVSPost2010PropOp54
 70
     1
102
RTVSPost2010Prop55
280
     0
102
RTVSPost2010PropOp55
 70
     1
102
RTVSPost2010Prop56
140
1.0
102
RTVSPost2010PropOp56
 70
     1
102
RTVSPost2010Prop57
140
1.0
102
RTVSPost2010PropOp57
 70
     1
102
RTVSPropertyOp0
 70
     1
102
RTVSPropertyOp1
 70
     1
102
RTVSPropertyOp2
 70
     1
102
RTVSPropertyOp3
 70
     1
102
RTVSPropertyOp4
 70
     1
102
RTVSPropertyOp5
 70
     1
102
RTVSPropertyOp6
 70
     1
102
RTVSPropertyOp7
 70
     1
102
RTVSPropertyOp8
 70
     1
102
RTVSPropertyOp9
 70
     1
102
RTVSPropertyOp10
 70
     1
102
RTVSPropertyOp11
 70
     1
102
RTVSPropertyOp12
 70
     1
102
RTVSPropertyOp13
 70
     1
102
RTVSPropertyOp14
 70
     1
102
RTVSPropertyOp15
 70
     1
102
RTVSPropertyOp16
 70
     1
102
RTVSPropertyOp17
 70
     1
102
RTVSPropertyOp18
 70
     1
102
RTVSPropertyOp19
 70
     1
102
RTVSPropertyOp20
 70
     1
102
RTVSPropertyOp21
 70
     1
102
RTVSPropertyOp22
 70
     1
102
RTVSPropertyOp23
 70
     1
102
RTVSPropertyOp24
 70
     1
102
RTVSPropertyOp25
 70
     1
102
RTVSPropertyOp26
 70
     1
102
RTVSPropertyOp27
 70
     1
102
RTVSPropertyOp28
 70
     1
102
RTVSPropertyOp29
 70
     1
102
RTVSPropertyOp30
 70
     1
102
RTVSPropertyOp31
 70
     1
102
RTVSPropertyOp32
 70
     1
102
RTVSPropertyOp33
 70
     1
102
RTVSPropertyOp34
 70
     1
102
RTVSPropertyOp35
 70
     1
102
RTVSPropertyOp36
 70
     1
102
RTVSPropertyOp37
 70
     1
102
RTVSPropertyOp38
 70
     1
102
RTVSPropertyOp39
 70
     1
102
RTVSPropertyOp40
 70
     1
102
RTVSPropertyOp41
 70
     1
102
RTVSPropertyOp42
 70
     1
102
RTVSPropertyOp43
 70
     1
102
RTVSPropertyOp44
 70
     1
102
RTVSPropertyOp45
 70
     1
102
RTVSPropertyOp46
 70
     1
102
RTVSPropertyOp47
 70
     1
102
RTVSPropertyOp48
 70
     1
102
RTVSPropertyOp49
 70
     1
102
RTVSPropertyOp50
 70
     1
102
RTVSPropertyOp51
 70
     0
102
RTVSPropertyOp52
 70
     0
102
RTVSPropertyOp53
 70
     1
102
RTVSPropertyOp54
 70
     1
102
RTVSPropertyOp55
 70
     1
102
RTVSPropertyOp56
 70
     1
102
RTVSPropertyOp57
 70
     1
102
RTVSPropertyOp58
 70
     1
102
RTVSPropertyOp59
 70
     1
102
RTVSPropertyOp60
 70
     1
102
RTVSPropertyOp61
 70
     1
102
RTVSPropertyOp62
 70
     1
  0
XRECORD
  5
AE40
102
{ACAD_REACTORS
330
AE3F
102
}
330
AE3F
100
AcDbXrecord
280
     1
102
RTVSPost2010Prop28
280
     0
102
RTVSPost2010PropOp28
 70
     0
102
RTVSPost2010Prop29
280
     1
102
RTVSPost2010PropOp29
 70
     0
102
RTVSPost2010Prop30
280
     1
102
RTVSPost2010PropOp30
 70
     0
102
RTVSPost2010Prop31
280
     0
102
RTVSPost2010PropOp31
 70
     0
102
RTVSPost2010Prop32
280
     0
102
RTVSPost2010PropOp32
 70
     0
102
RTVSPost2010Prop33
280
     0
102
RTVSPost2010PropOp33
 70
     1
102
RTVSPost2010Prop34
280
     0
102
RTVSPost2010PropOp34
 70
     1
102
RTVSPost2010Prop35
280
     0
102
RTVSPost2010PropOp35
 70
     1
102
RTVSPost2010Prop36
280
     0
102
RTVSPost2010PropOp36
 70
     1
102
RTVSPost2010Prop37
 90
       50
102
RTVSPost2010PropOp37
 70
     1
102
RTVSPost2010Prop38
140
0.0
102
RTVSPost2010PropOp38
 70
     1
102
RTVSPost2010Prop39
140
1.0
102
RTVSPost2010PropOp39
 70
     1
102
RTVSPost2010Prop40
 90
        0
102
RTVSPost2010PropOp40
 70
     1
102
RTVSPost2010Prop41ColorIndex
 90
       18
102
RTVSPost2010Prop41ColorRGB
 90
        0
102
RTVSPost2010PropOp41
 70
     1
102
RTVSPost2010Prop42
 90
       50
102
RTVSPost2010PropOp42
 70
     1
102
RTVSPost2010Prop43
 90
        3
102
RTVSPost2010PropOp43
 70
     1
102
RTVSPost2010Prop44ColorIndex
 90
        5
102
RTVSPost2010Prop44ColorRGB
 90
      255
102
RTVSPost2010PropOp44
 70
     1
102
RTVSPost2010Prop45
280
     0
102
RTVSPost2010PropOp45
 70
     1
102
RTVSPost2010Prop46
 90
       50
102
RTVSPost2010PropOp46
 70
     1
102
RTVSPost2010Prop47
 90
       50
102
RTVSPost2010PropOp47
 70
     1
102
RTVSPost2010Prop48
 90
       50
102
RTVSPost2010PropOp48
 70
     1
102
RTVSPost2010Prop49
280
     0
102
RTVSPost2010PropOp49
 70
     1
102
RTVSPost2010Prop50
 90
       50
102
RTVSPost2010PropOp50
 70
     1
102
RTVSPost2010Prop51ColorIndex
 90
      256
102
RTVSPost2010Prop51ColorRGB
 90
-16777216
102
RTVSPost2010PropOp51
 70
     0
102
RTVSPost2010Prop52
140
1.0
102
RTVSPost2010PropOp52
 70
     0
102
RTVSPost2010Prop53
 90
        2
102
RTVSPost2010PropOp53
 70
     1
102
RTVSPost2010Prop54
  1
strokes_ogs.tif
102
RTVSPost2010PropOp54
 70
     1
102
RTVSPost2010Prop55
280
     0
102
RTVSPost2010PropOp55
 70
     1
102
RTVSPost2010Prop56
140
1.0
102
RTVSPost2010PropOp56
 70
     1
102
RTVSPost2010Prop57
140
1.0
102
RTVSPost2010PropOp57
 70
     1
102
RTVSPropertyOp0
 70
     0
102
RTVSPropertyOp1
 70
     0
102
RTVSPropertyOp2
 70
     0
102
RTVSPropertyOp3
 70
     0
102
RTVSPropertyOp4
 70
     0
102
RTVSPropertyOp5
 70
     0
102
RTVSPropertyOp6
 70
     0
102
RTVSPropertyOp7
 70
     0
102
RTVSPropertyOp8
 70
     0
102
RTVSPropertyOp9
 70
     0
102
RTVSPropertyOp10
 70
     0
102
RTVSPropertyOp11
 70
     0
102
RTVSPropertyOp12
 70
     0
102
RTVSPropertyOp13
 70
     0
102
RTVSPropertyOp14
 70
     2
102
RTVSPropertyOp15
 70
     0
102
RTVSPropertyOp16
 70
     0
102
RTVSPropertyOp17
 70
     0
102
RTVSPropertyOp18
 70
     0
102
RTVSPropertyOp19
 70
     0
102
RTVSPropertyOp20
 70
     0
102
RTVSPropertyOp21
 70
     0
102
RTVSPropertyOp22
 70
     0
102
RTVSPropertyOp23
 70
     0
102
RTVSPropertyOp24
 70
     0
102
RTVSPropertyOp25
 70
     0
102
RTVSPropertyOp26
 70
     0
102
RTVSPropertyOp27
 70
     0
102
RTVSPropertyOp28
 70
     0
102
RTVSPropertyOp29
 70
     0
102
RTVSPropertyOp30
 70
     0
102
RTVSPropertyOp31
 70
     0
102
RTVSPropertyOp32
 70
     0
102
RTVSPropertyOp33
 70
     1
102
RTVSPropertyOp34
 70
     1
102
RTVSPropertyOp35
 70
     1
102
RTVSPropertyOp36
 70
     1
102
RTVSPropertyOp37
 70
     1
102
RTVSPropertyOp38
 70
     1
102
RTVSPropertyOp39
 70
     1
102
RTVSPropertyOp40
 70
     1
102
RTVSPropertyOp41
 70
     1
102
RTVSPropertyOp42
 70
     1
102
RTVSPropertyOp43
 70
     1
102
RTVSPropertyOp44
 70
     1
102
RTVSPropertyOp45
 70
     1
102
RTVSPropertyOp46
 70
     1
102
RTVSPropertyOp47
 70
     1
102
RTVSPropertyOp48
 70
     1
102
RTVSPropertyOp49
 70
     1
102
RTVSPropertyOp50
 70
     1
102
RTVSPropertyOp51
 70
     0
102
RTVSPropertyOp52
 70
     0
102
RTVSPropertyOp53
 70
     1
102
RTVSPropertyOp54
 70
     1
102
RTVSPropertyOp55
 70
     1
102
RTVSPropertyOp56
 70
     1
102
RTVSPropertyOp57
 70
     1
102
RTVSPropertyOp58
 70
     1
102
RTVSPropertyOp59
 70
     1
102
RTVSPropertyOp60
 70
     1
102
RTVSPropertyOp61
 70
     1
102
RTVSPropertyOp62
 70
     1
  0
XRECORD
  5
AE2E
102
{ACAD_REACTORS
330
AE2D
102
}
330
AE2D
100
AcDbXrecord
280
     1
102
RTVSPost2010Prop28
280
     0
102
RTVSPost2010PropOp28
 70
     1
102
RTVSPost2010Prop29
280
     1
102
RTVSPost2010PropOp29
 70
     1
102
RTVSPost2010Prop30
280
     1
102
RTVSPost2010PropOp30
 70
     1
102
RTVSPost2010Prop31
280
     0
102
RTVSPost2010PropOp31
 70
     1
102
RTVSPost2010Prop32
280
     0
102
RTVSPost2010PropOp32
 70
     1
102
RTVSPost2010Prop33
280
     0
102
RTVSPost2010PropOp33
 70
     1
102
RTVSPost2010Prop34
280
     0
102
RTVSPost2010PropOp34
 70
     1
102
RTVSPost2010Prop35
280
     0
102
RTVSPost2010PropOp35
 70
     1
102
RTVSPost2010Prop36
280
     0
102
RTVSPost2010PropOp36
 70
     1
102
RTVSPost2010Prop37
 90
       50
102
RTVSPost2010PropOp37
 70
     1
102
RTVSPost2010Prop38
140
0.0
102
RTVSPost2010PropOp38
 70
     1
102
RTVSPost2010Prop39
140
1.0
102
RTVSPost2010PropOp39
 70
     1
102
RTVSPost2010Prop40
 90
        0
102
RTVSPost2010PropOp40
 70
     1
102
RTVSPost2010Prop41ColorIndex
 90
       18
102
RTVSPost2010Prop41ColorRGB
 90
        0
102
RTVSPost2010PropOp41
 70
     1
102
RTVSPost2010Prop42
 90
       50
102
RTVSPost2010PropOp42
 70
     1
102
RTVSPost2010Prop43
 90
        3
102
RTVSPost2010PropOp43
 70
     1
102
RTVSPost2010Prop44ColorIndex
 90
        5
102
RTVSPost2010Prop44ColorRGB
 90
      255
102
RTVSPost2010PropOp44
 70
     1
102
RTVSPost2010Prop45
280
     0
102
RTVSPost2010PropOp45
 70
     1
102
RTVSPost2010Prop46
 90
       50
102
RTVSPost2010PropOp46
 70
     1
102
RTVSPost2010Prop47
 90
       50
102
RTVSPost2010PropOp47
 70
     1
102
RTVSPost2010Prop48
 90
       50
102
RTVSPost2010PropOp48
 70
     1
102
RTVSPost2010Prop49
280
     0
102
RTVSPost2010PropOp49
 70
     1
102
RTVSPost2010Prop50
 90
       50
102
RTVSPost2010PropOp50
 70
     1
102
RTVSPost2010Prop51ColorIndex
 90
      256
102
RTVSPost2010Prop51ColorRGB
 90
-16777216
102
RTVSPost2010PropOp51
 70
     0
102
RTVSPost2010Prop52
140
1.0
102
RTVSPost2010PropOp52
 70
     0
102
RTVSPost2010Prop53
 90
        2
102
RTVSPost2010PropOp53
 70
     1
102
RTVSPost2010Prop54
  1
strokes_ogs.tif
102
RTVSPost2010PropOp54
 70
     1
102
RTVSPost2010Prop55
280
     0
102
RTVSPost2010PropOp55
 70
     1
102
RTVSPost2010Prop56
140
1.0
102
RTVSPost2010PropOp56
 70
     1
102
RTVSPost2010Prop57
140
1.0
102
RTVSPost2010PropOp57
 70
     1
102
RTVSPropertyOp0
 70
     1
102
RTVSPropertyOp1
 70
     1
102
RTVSPropertyOp2
 70
     1
102
RTVSPropertyOp3
 70
     1
102
RTVSPropertyOp4
 70
     1
102
RTVSPropertyOp5
 70
     1
102
RTVSPropertyOp6
 70
     1
102
RTVSPropertyOp7
 70
     1
102
RTVSPropertyOp8
 70
     1
102
RTVSPropertyOp9
 70
     1
102
RTVSPropertyOp10
 70
     1
102
RTVSPropertyOp11
 70
     1
102
RTVSPropertyOp12
 70
     1
102
RTVSPropertyOp13
 70
     1
102
RTVSPropertyOp14
 70
     1
102
RTVSPropertyOp15
 70
     1
102
RTVSPropertyOp16
 70
     1
102
RTVSPropertyOp17
 70
     1
102
RTVSPropertyOp18
 70
     1
102
RTVSPropertyOp19
 70
     1
102
RTVSPropertyOp20
 70
     1
102
RTVSPropertyOp21
 70
     1
102
RTVSPropertyOp22
 70
     1
102
RTVSPropertyOp23
 70
     1
102
RTVSPropertyOp24
 70
     1
102
RTVSPropertyOp25
 70
     1
102
RTVSPropertyOp26
 70
     1
102
RTVSPropertyOp27
 70
     1
102
RTVSPropertyOp28
 70
     1
102
RTVSPropertyOp29
 70
     1
102
RTVSPropertyOp30
 70
     1
102
RTVSPropertyOp31
 70
     1
102
RTVSPropertyOp32
 70
     1
102
RTVSPropertyOp33
 70
     1
102
RTVSPropertyOp34
 70
     1
102
RTVSPropertyOp35
 70
     1
102
RTVSPropertyOp36
 70
     1
102
RTVSPropertyOp37
 70
     1
102
RTVSPropertyOp38
 70
     1
102
RTVSPropertyOp39
 70
     1
102
RTVSPropertyOp40
 70
     1
102
RTVSPropertyOp41
 70
     1
102
RTVSPropertyOp42
 70
     1
102
RTVSPropertyOp43
 70
     1
102
RTVSPropertyOp44
 70
     1
102
RTVSPropertyOp45
 70
     1
102
RTVSPropertyOp46
 70
     1
102
RTVSPropertyOp47
 70
     1
102
RTVSPropertyOp48
 70
     1
102
RTVSPropertyOp49
 70
     1
102
RTVSPropertyOp50
 70
     1
102
RTVSPropertyOp51
 70
     0
102
RTVSPropertyOp52
 70
     0
102
RTVSPropertyOp53
 70
     1
102
RTVSPropertyOp54
 70
     1
102
RTVSPropertyOp55
 70
     1
102
RTVSPropertyOp56
 70
     1
102
RTVSPropertyOp57
 70
     1
102
RTVSPropertyOp58
 70
     1
102
RTVSPropertyOp59
 70
     1
102
RTVSPropertyOp60
 70
     1
102
RTVSPropertyOp61
 70
     1
102
RTVSPropertyOp62
 70
     1
  0
XRECORD
  5
AE12
102
{ACAD_REACTORS
330
AE11
102
}
330
AE11
100
AcDbXrecord
280
     1
102
RTVSPost2010Prop28
280
     0
102
RTVSPost2010PropOp28
 70
     1
102
RTVSPost2010Prop29
280
     1
102
RTVSPost2010PropOp29
 70
     1
102
RTVSPost2010Prop30
280
     1
102
RTVSPost2010PropOp30
 70
     1
102
RTVSPost2010Prop31
280
     0
102
RTVSPost2010PropOp31
 70
     1
102
RTVSPost2010Prop32
280
     0
102
RTVSPost2010PropOp32
 70
     1
102
RTVSPost2010Prop33
280
     0
102
RTVSPost2010PropOp33
 70
     1
102
RTVSPost2010Prop34
280
     0
102
RTVSPost2010PropOp34
 70
     1
102
RTVSPost2010Prop35
280
     0
102
RTVSPost2010PropOp35
 70
     1
102
RTVSPost2010Prop36
280
     0
102
RTVSPost2010PropOp36
 70
     1
102
RTVSPost2010Prop37
 90
       50
102
RTVSPost2010PropOp37
 70
     1
102
RTVSPost2010Prop38
140
0.0
102
RTVSPost2010PropOp38
 70
     1
102
RTVSPost2010Prop39
140
1.0
102
RTVSPost2010PropOp39
 70
     1
102
RTVSPost2010Prop40
 90
        0
102
RTVSPost2010PropOp40
 70
     1
102
RTVSPost2010Prop41ColorIndex
 90
       18
102
RTVSPost2010Prop41ColorRGB
 90
        0
102
RTVSPost2010PropOp41
 70
     1
102
RTVSPost2010Prop42
 90
       50
102
RTVSPost2010PropOp42
 70
     1
102
RTVSPost2010Prop43
 90
        3
102
RTVSPost2010PropOp43
 70
     1
102
RTVSPost2010Prop44ColorIndex
 90
        5
102
RTVSPost2010Prop44ColorRGB
 90
      255
102
RTVSPost2010PropOp44
 70
     1
102
RTVSPost2010Prop45
280
     0
102
RTVSPost2010PropOp45
 70
     1
102
RTVSPost2010Prop46
 90
       50
102
RTVSPost2010PropOp46
 70
     1
102
RTVSPost2010Prop47
 90
       50
102
RTVSPost2010PropOp47
 70
     1
102
RTVSPost2010Prop48
 90
       50
102
RTVSPost2010PropOp48
 70
     1
102
RTVSPost2010Prop49
280
     0
102
RTVSPost2010PropOp49
 70
     1
102
RTVSPost2010Prop50
 90
       50
102
RTVSPost2010PropOp50
 70
     1
102
RTVSPost2010Prop51ColorIndex
 90
      256
102
RTVSPost2010Prop51ColorRGB
 90
-16777216
102
RTVSPost2010PropOp51
 70
     0
102
RTVSPost2010Prop52
140
1.0
102
RTVSPost2010PropOp52
 70
     0
102
RTVSPost2010Prop53
 90
        2
102
RTVSPost2010PropOp53
 70
     1
102
RTVSPost2010Prop54
  1
strokes_ogs.tif
102
RTVSPost2010PropOp54
 70
     1
102
RTVSPost2010Prop55
280
     0
102
RTVSPost2010PropOp55
 70
     1
102
RTVSPost2010Prop56
140
1.0
102
RTVSPost2010PropOp56
 70
     1
102
RTVSPost2010Prop57
140
1.0
102
RTVSPost2010PropOp57
 70
     1
102
RTVSPropertyOp0
 70
     1
102
RTVSPropertyOp1
 70
     1
102
RTVSPropertyOp2
 70
     1
102
RTVSPropertyOp3
 70
     1
102
RTVSPropertyOp4
 70
     1
102
RTVSPropertyOp5
 70
     1
102
RTVSPropertyOp6
 70
     1
102
RTVSPropertyOp7
 70
     1
102
RTVSPropertyOp8
 70
     1
102
RTVSPropertyOp9
 70
     1
102
RTVSPropertyOp10
 70
     1
102
RTVSPropertyOp11
 70
     1
102
RTVSPropertyOp12
 70
     1
102
RTVSPropertyOp13
 70
     1
102
RTVSPropertyOp14
 70
     1
102
RTVSPropertyOp15
 70
     1
102
RTVSPropertyOp16
 70
     1
102
RTVSPropertyOp17
 70
     1
102
RTVSPropertyOp18
 70
     1
102
RTVSPropertyOp19
 70
     1
102
RTVSPropertyOp20
 70
     1
102
RTVSPropertyOp21
 70
     1
102
RTVSPropertyOp22
 70
     1
102
RTVSPropertyOp23
 70
     1
102
RTVSPropertyOp24
 70
     1
102
RTVSPropertyOp25
 70
     1
102
RTVSPropertyOp26
 70
     1
102
RTVSPropertyOp27
 70
     1
102
RTVSPropertyOp28
 70
     1
102
RTVSPropertyOp29
 70
     1
102
RTVSPropertyOp30
 70
     1
102
RTVSPropertyOp31
 70
     1
102
RTVSPropertyOp32
 70
     1
102
RTVSPropertyOp33
 70
     1
102
RTVSPropertyOp34
 70
     1
102
RTVSPropertyOp35
 70
     1
102
RTVSPropertyOp36
 70
     1
102
RTVSPropertyOp37
 70
     1
102
RTVSPropertyOp38
 70
     1
102
RTVSPropertyOp39
 70
     1
102
RTVSPropertyOp40
 70
     1
102
RTVSPropertyOp41
 70
     1
102
RTVSPropertyOp42
 70
     1
102
RTVSPropertyOp43
 70
     1
102
RTVSPropertyOp44
 70
     1
102
RTVSPropertyOp45
 70
     1
102
RTVSPropertyOp46
 70
     1
102
RTVSPropertyOp47
 70
     1
102
RTVSPropertyOp48
 70
     1
102
RTVSPropertyOp49
 70
     1
102
RTVSPropertyOp50
 70
     1
102
RTVSPropertyOp51
 70
     0
102
RTVSPropertyOp52
 70
     0
102
RTVSPropertyOp53
 70
     1
102
RTVSPropertyOp54
 70
     1
102
RTVSPropertyOp55
 70
     1
102
RTVSPropertyOp56
 70
     1
102
RTVSPropertyOp57
 70
     1
102
RTVSPropertyOp58
 70
     1
102
RTVSPropertyOp59
 70
     1
102
RTVSPropertyOp60
 70
     1
102
RTVSPropertyOp61
 70
     1
102
RTVSPropertyOp62
 70
     1
  0
XRECORD
  5
AE14
102
{ACAD_REACTORS
330
AE13
102
}
330
AE13
100
AcDbXrecord
280
     1
102
RTVSPost2010Prop28
280
     0
102
RTVSPost2010PropOp28
 70
     1
102
RTVSPost2010Prop29
280
     1
102
RTVSPost2010PropOp29
 70
     1
102
RTVSPost2010Prop30
280
     1
102
RTVSPost2010PropOp30
 70
     1
102
RTVSPost2010Prop31
280
     0
102
RTVSPost2010PropOp31
 70
     1
102
RTVSPost2010Prop32
280
     0
102
RTVSPost2010PropOp32
 70
     1
102
RTVSPost2010Prop33
280
     0
102
RTVSPost2010PropOp33
 70
     1
102
RTVSPost2010Prop34
280
     0
102
RTVSPost2010PropOp34
 70
     1
102
RTVSPost2010Prop35
280
     0
102
RTVSPost2010PropOp35
 70
     1
102
RTVSPost2010Prop36
280
     0
102
RTVSPost2010PropOp36
 70
     1
102
RTVSPost2010Prop37
 90
       50
102
RTVSPost2010PropOp37
 70
     1
102
RTVSPost2010Prop38
140
0.0
102
RTVSPost2010PropOp38
 70
     1
102
RTVSPost2010Prop39
140
1.0
102
RTVSPost2010PropOp39
 70
     1
102
RTVSPost2010Prop40
 90
        0
102
RTVSPost2010PropOp40
 70
     1
102
RTVSPost2010Prop41ColorIndex
 90
       18
102
RTVSPost2010Prop41ColorRGB
 90
        0
102
RTVSPost2010PropOp41
 70
     1
102
RTVSPost2010Prop42
 90
       50
102
RTVSPost2010PropOp42
 70
     1
102
RTVSPost2010Prop43
 90
        3
102
RTVSPost2010PropOp43
 70
     1
102
RTVSPost2010Prop44ColorIndex
 90
        5
102
RTVSPost2010Prop44ColorRGB
 90
      255
102
RTVSPost2010PropOp44
 70
     1
102
RTVSPost2010Prop45
280
     0
102
RTVSPost2010PropOp45
 70
     1
102
RTVSPost2010Prop46
 90
       50
102
RTVSPost2010PropOp46
 70
     1
102
RTVSPost2010Prop47
 90
       50
102
RTVSPost2010PropOp47
 70
     1
102
RTVSPost2010Prop48
 90
       50
102
RTVSPost2010PropOp48
 70
     1
102
RTVSPost2010Prop49
280
     0
102
RTVSPost2010PropOp49
 70
     1
102
RTVSPost2010Prop50
 90
       50
102
RTVSPost2010PropOp50
 70
     1
102
RTVSPost2010Prop51ColorIndex
 90
      256
102
RTVSPost2010Prop51ColorRGB
 90
-16777216
102
RTVSPost2010PropOp51
 70
     0
102
RTVSPost2010Prop52
140
1.0
102
RTVSPost2010PropOp52
 70
     0
102
RTVSPost2010Prop53
 90
        2
102
RTVSPost2010PropOp53
 70
     1
102
RTVSPost2010Prop54
  1
strokes_ogs.tif
102
RTVSPost2010PropOp54
 70
     1
102
RTVSPost2010Prop55
280
     0
102
RTVSPost2010PropOp55
 70
     1
102
RTVSPost2010Prop56
140
1.0
102
RTVSPost2010PropOp56
 70
     1
102
RTVSPost2010Prop57
140
1.0
102
RTVSPost2010PropOp57
 70
     1
102
RTVSPropertyOp0
 70
     1
102
RTVSPropertyOp1
 70
     1
102
RTVSPropertyOp2
 70
     1
102
RTVSPropertyOp3
 70
     1
102
RTVSPropertyOp4
 70
     1
102
RTVSPropertyOp5
 70
     1
102
RTVSPropertyOp6
 70
     1
102
RTVSPropertyOp7
 70
     1
102
RTVSPropertyOp8
 70
     1
102
RTVSPropertyOp9
 70
     1
102
RTVSPropertyOp10
 70
     1
102
RTVSPropertyOp11
 70
     1
102
RTVSPropertyOp12
 70
     1
102
RTVSPropertyOp13
 70
     1
102
RTVSPropertyOp14
 70
     1
102
RTVSPropertyOp15
 70
     1
102
RTVSPropertyOp16
 70
     1
102
RTVSPropertyOp17
 70
     1
102
RTVSPropertyOp18
 70
     1
102
RTVSPropertyOp19
 70
     1
102
RTVSPropertyOp20
 70
     1
102
RTVSPropertyOp21
 70
     1
102
RTVSPropertyOp22
 70
     1
102
RTVSPropertyOp23
 70
     1
102
RTVSPropertyOp24
 70
     1
102
RTVSPropertyOp25
 70
     1
102
RTVSPropertyOp26
 70
     1
102
RTVSPropertyOp27
 70
     1
102
RTVSPropertyOp28
 70
     1
102
RTVSPropertyOp29
 70
     1
102
RTVSPropertyOp30
 70
     1
102
RTVSPropertyOp31
 70
     1
102
RTVSPropertyOp32
 70
     1
102
RTVSPropertyOp33
 70
     1
102
RTVSPropertyOp34
 70
     1
102
RTVSPropertyOp35
 70
     1
102
RTVSPropertyOp36
 70
     1
102
RTVSPropertyOp37
 70
     1
102
RTVSPropertyOp38
 70
     1
102
RTVSPropertyOp39
 70
     1
102
RTVSPropertyOp40
 70
     1
102
RTVSPropertyOp41
 70
     1
102
RTVSPropertyOp42
 70
     1
102
RTVSPropertyOp43
 70
     1
102
RTVSPropertyOp44
 70
     1
102
RTVSPropertyOp45
 70
     1
102
RTVSPropertyOp46
 70
     1
102
RTVSPropertyOp47
 70
     1
102
RTVSPropertyOp48
 70
     1
102
RTVSPropertyOp49
 70
     1
102
RTVSPropertyOp50
 70
     1
102
RTVSPropertyOp51
 70
     0
102
RTVSPropertyOp52
 70
     0
102
RTVSPropertyOp53
 70
     1
102
RTVSPropertyOp54
 70
     1
102
RTVSPropertyOp55
 70
     1
102
RTVSPropertyOp56
 70
     1
102
RTVSPropertyOp57
 70
     1
102
RTVSPropertyOp58
 70
     1
102
RTVSPropertyOp59
 70
     1
102
RTVSPropertyOp60
 70
     1
102
RTVSPropertyOp61
 70
     1
102
RTVSPropertyOp62
 70
     1
  0
XRECORD
  5
AE16
102
{ACAD_REACTORS
330
AE15
102
}
330
AE15
100
AcDbXrecord
280
     1
102
RTVSPost2010Prop28
280
     0
102
RTVSPost2010PropOp28
 70
     1
102
RTVSPost2010Prop29
280
     1
102
RTVSPost2010PropOp29
 70
     1
102
RTVSPost2010Prop30
280
     1
102
RTVSPost2010PropOp30
 70
     1
102
RTVSPost2010Prop31
280
     0
102
RTVSPost2010PropOp31
 70
     1
102
RTVSPost2010Prop32
280
     0
102
RTVSPost2010PropOp32
 70
     1
102
RTVSPost2010Prop33
280
     0
102
RTVSPost2010PropOp33
 70
     1
102
RTVSPost2010Prop34
280
     0
102
RTVSPost2010PropOp34
 70
     1
102
RTVSPost2010Prop35
280
     0
102
RTVSPost2010PropOp35
 70
     1
102
RTVSPost2010Prop36
280
     0
102
RTVSPost2010PropOp36
 70
     1
102
RTVSPost2010Prop37
 90
       50
102
RTVSPost2010PropOp37
 70
     1
102
RTVSPost2010Prop38
140
0.0
102
RTVSPost2010PropOp38
 70
     1
102
RTVSPost2010Prop39
140
1.0
102
RTVSPost2010PropOp39
 70
     1
102
RTVSPost2010Prop40
 90
        0
102
RTVSPost2010PropOp40
 70
     1
102
RTVSPost2010Prop41ColorIndex
 90
       18
102
RTVSPost2010Prop41ColorRGB
 90
        0
102
RTVSPost2010PropOp41
 70
     1
102
RTVSPost2010Prop42
 90
       50
102
RTVSPost2010PropOp42
 70
     1
102
RTVSPost2010Prop43
 90
        3
102
RTVSPost2010PropOp43
 70
     1
102
RTVSPost2010Prop44ColorIndex
 90
        5
102
RTVSPost2010Prop44ColorRGB
 90
      255
102
RTVSPost2010PropOp44
 70
     1
102
RTVSPost2010Prop45
280
     0
102
RTVSPost2010PropOp45
 70
     1
102
RTVSPost2010Prop46
 90
       50
102
RTVSPost2010PropOp46
 70
     1
102
RTVSPost2010Prop47
 90
       50
102
RTVSPost2010PropOp47
 70
     1
102
RTVSPost2010Prop48
 90
       50
102
RTVSPost2010PropOp48
 70
     1
102
RTVSPost2010Prop49
280
     0
102
RTVSPost2010PropOp49
 70
     1
102
RTVSPost2010Prop50
 90
       50
102
RTVSPost2010PropOp50
 70
     1
102
RTVSPost2010Prop51ColorIndex
 90
      256
102
RTVSPost2010Prop51ColorRGB
 90
-16777216
102
RTVSPost2010PropOp51
 70
     0
102
RTVSPost2010Prop52
140
1.0
102
RTVSPost2010PropOp52
 70
     0
102
RTVSPost2010Prop53
 90
        2
102
RTVSPost2010PropOp53
 70
     1
102
RTVSPost2010Prop54
  1
strokes_ogs.tif
102
RTVSPost2010PropOp54
 70
     1
102
RTVSPost2010Prop55
280
     0
102
RTVSPost2010PropOp55
 70
     1
102
RTVSPost2010Prop56
140
1.0
102
RTVSPost2010PropOp56
 70
     1
102
RTVSPost2010Prop57
140
1.0
102
RTVSPost2010PropOp57
 70
     1
102
RTVSPropertyOp0
 70
     1
102
RTVSPropertyOp1
 70
     1
102
RTVSPropertyOp2
 70
     1
102
RTVSPropertyOp3
 70
     1
102
RTVSPropertyOp4
 70
     1
102
RTVSPropertyOp5
 70
     1
102
RTVSPropertyOp6
 70
     1
102
RTVSPropertyOp7
 70
     1
102
RTVSPropertyOp8
 70
     1
102
RTVSPropertyOp9
 70
     1
102
RTVSPropertyOp10
 70
     1
102
RTVSPropertyOp11
 70
     1
102
RTVSPropertyOp12
 70
     1
102
RTVSPropertyOp13
 70
     1
102
RTVSPropertyOp14
 70
     1
102
RTVSPropertyOp15
 70
     1
102
RTVSPropertyOp16
 70
     1
102
RTVSPropertyOp17
 70
     1
102
RTVSPropertyOp18
 70
     1
102
RTVSPropertyOp19
 70
     1
102
RTVSPropertyOp20
 70
     1
102
RTVSPropertyOp21
 70
     1
102
RTVSPropertyOp22
 70
     1
102
RTVSPropertyOp23
 70
     1
102
RTVSPropertyOp24
 70
     1
102
RTVSPropertyOp25
 70
     1
102
RTVSPropertyOp26
 70
     1
102
RTVSPropertyOp27
 70
     1
102
RTVSPropertyOp28
 70
     1
102
RTVSPropertyOp29
 70
     1
102
RTVSPropertyOp30
 70
     1
102
RTVSPropertyOp31
 70
     1
102
RTVSPropertyOp32
 70
     1
102
RTVSPropertyOp33
 70
     1
102
RTVSPropertyOp34
 70
     1
102
RTVSPropertyOp35
 70
     1
102
RTVSPropertyOp36
 70
     1
102
RTVSPropertyOp37
 70
     1
102
RTVSPropertyOp38
 70
     1
102
RTVSPropertyOp39
 70
     1
102
RTVSPropertyOp40
 70
     1
102
RTVSPropertyOp41
 70
     1
102
RTVSPropertyOp42
 70
     1
102
RTVSPropertyOp43
 70
     1
102
RTVSPropertyOp44
 70
     1
102
RTVSPropertyOp45
 70
     1
102
RTVSPropertyOp46
 70
     1
102
RTVSPropertyOp47
 70
     1
102
RTVSPropertyOp48
 70
     1
102
RTVSPropertyOp49
 70
     1
102
RTVSPropertyOp50
 70
     1
102
RTVSPropertyOp51
 70
     0
102
RTVSPropertyOp52
 70
     0
102
RTVSPropertyOp53
 70
     1
102
RTVSPropertyOp54
 70
     1
102
RTVSPropertyOp55
 70
     1
102
RTVSPropertyOp56
 70
     1
102
RTVSPropertyOp57
 70
     1
102
RTVSPropertyOp58
 70
     1
102
RTVSPropertyOp59
 70
     1
102
RTVSPropertyOp60
 70
     1
102
RTVSPropertyOp61
 70
     1
102
RTVSPropertyOp62
 70
     1
  0
XRECORD
  5
AE18
102
{ACAD_REACTORS
330
AE17
102
}
330
AE17
100
AcDbXrecord
280
     1
102
RTVSPost2010Prop28
280
     0
102
RTVSPost2010PropOp28
 70
     1
102
RTVSPost2010Prop29
280
     1
102
RTVSPost2010PropOp29
 70
     1
102
RTVSPost2010Prop30
280
     1
102
RTVSPost2010PropOp30
 70
     1
102
RTVSPost2010Prop31
280
     0
102
RTVSPost2010PropOp31
 70
     1
102
RTVSPost2010Prop32
280
     0
102
RTVSPost2010PropOp32
 70
     1
102
RTVSPost2010Prop33
280
     0
102
RTVSPost2010PropOp33
 70
     1
102
RTVSPost2010Prop34
280
     0
102
RTVSPost2010PropOp34
 70
     1
102
RTVSPost2010Prop35
280
     0
102
RTVSPost2010PropOp35
 70
     1
102
RTVSPost2010Prop36
280
     0
102
RTVSPost2010PropOp36
 70
     1
102
RTVSPost2010Prop37
 90
       50
102
RTVSPost2010PropOp37
 70
     1
102
RTVSPost2010Prop38
140
0.0
102
RTVSPost2010PropOp38
 70
     1
102
RTVSPost2010Prop39
140
1.0
102
RTVSPost2010PropOp39
 70
     1
102
RTVSPost2010Prop40
 90
        0
102
RTVSPost2010PropOp40
 70
     1
102
RTVSPost2010Prop41ColorIndex
 90
       18
102
RTVSPost2010Prop41ColorRGB
 90
        0
102
RTVSPost2010PropOp41
 70
     1
102
RTVSPost2010Prop42
 90
       50
102
RTVSPost2010PropOp42
 70
     1
102
RTVSPost2010Prop43
 90
        3
102
RTVSPost2010PropOp43
 70
     1
102
RTVSPost2010Prop44ColorIndex
 90
        5
102
RTVSPost2010Prop44ColorRGB
 90
      255
102
RTVSPost2010PropOp44
 70
     1
102
RTVSPost2010Prop45
280
     0
102
RTVSPost2010PropOp45
 70
     1
102
RTVSPost2010Prop46
 90
       50
102
RTVSPost2010PropOp46
 70
     1
102
RTVSPost2010Prop47
 90
       50
102
RTVSPost2010PropOp47
 70
     1
102
RTVSPost2010Prop48
 90
       50
102
RTVSPost2010PropOp48
 70
     1
102
RTVSPost2010Prop49
280
     0
102
RTVSPost2010PropOp49
 70
     1
102
RTVSPost2010Prop50
 90
       50
102
RTVSPost2010PropOp50
 70
     1
102
RTVSPost2010Prop51ColorIndex
 90
      256
102
RTVSPost2010Prop51ColorRGB
 90
-16777216
102
RTVSPost2010PropOp51
 70
     0
102
RTVSPost2010Prop52
140
1.0
102
RTVSPost2010PropOp52
 70
     0
102
RTVSPost2010Prop53
 90
        2
102
RTVSPost2010PropOp53
 70
     1
102
RTVSPost2010Prop54
  1
strokes_ogs.tif
102
RTVSPost2010PropOp54
 70
     1
102
RTVSPost2010Prop55
280
     0
102
RTVSPost2010PropOp55
 70
     1
102
RTVSPost2010Prop56
140
1.0
102
RTVSPost2010PropOp56
 70
     1
102
RTVSPost2010Prop57
140
1.0
102
RTVSPost2010PropOp57
 70
     1
102
RTVSPropertyOp0
 70
     1
102
RTVSPropertyOp1
 70
     1
102
RTVSPropertyOp2
 70
     1
102
RTVSPropertyOp3
 70
     1
102
RTVSPropertyOp4
 70
     1
102
RTVSPropertyOp5
 70
     1
102
RTVSPropertyOp6
 70
     1
102
RTVSPropertyOp7
 70
     1
102
RTVSPropertyOp8
 70
     1
102
RTVSPropertyOp9
 70
     1
102
RTVSPropertyOp10
 70
     1
102
RTVSPropertyOp11
 70
     1
102
RTVSPropertyOp12
 70
     1
102
RTVSPropertyOp13
 70
     1
102
RTVSPropertyOp14
 70
     1
102
RTVSPropertyOp15
 70
     1
102
RTVSPropertyOp16
 70
     1
102
RTVSPropertyOp17
 70
     1
102
RTVSPropertyOp18
 70
     1
102
RTVSPropertyOp19
 70
     1
102
RTVSPropertyOp20
 70
     1
102
RTVSPropertyOp21
 70
     1
102
RTVSPropertyOp22
 70
     1
102
RTVSPropertyOp23
 70
     1
102
RTVSPropertyOp24
 70
     1
102
RTVSPropertyOp25
 70
     1
102
RTVSPropertyOp26
 70
     1
102
RTVSPropertyOp27
 70
     1
102
RTVSPropertyOp28
 70
     1
102
RTVSPropertyOp29
 70
     1
102
RTVSPropertyOp30
 70
     1
102
RTVSPropertyOp31
 70
     1
102
RTVSPropertyOp32
 70
     1
102
RTVSPropertyOp33
 70
     1
102
RTVSPropertyOp34
 70
     1
102
RTVSPropertyOp35
 70
     1
102
RTVSPropertyOp36
 70
     1
102
RTVSPropertyOp37
 70
     1
102
RTVSPropertyOp38
 70
     1
102
RTVSPropertyOp39
 70
     1
102
RTVSPropertyOp40
 70
     1
102
RTVSPropertyOp41
 70
     1
102
RTVSPropertyOp42
 70
     1
102
RTVSPropertyOp43
 70
     1
102
RTVSPropertyOp44
 70
     1
102
RTVSPropertyOp45
 70
     1
102
RTVSPropertyOp46
 70
     1
102
RTVSPropertyOp47
 70
     1
102
RTVSPropertyOp48
 70
     1
102
RTVSPropertyOp49
 70
     1
102
RTVSPropertyOp50
 70
     1
102
RTVSPropertyOp51
 70
     0
102
RTVSPropertyOp52
 70
     0
102
RTVSPropertyOp53
 70
     1
102
RTVSPropertyOp54
 70
     1
102
RTVSPropertyOp55
 70
     1
102
RTVSPropertyOp56
 70
     1
102
RTVSPropertyOp57
 70
     1
102
RTVSPropertyOp58
 70
     1
102
RTVSPropertyOp59
 70
     1
102
RTVSPropertyOp60
 70
     1
102
RTVSPropertyOp61
 70
     1
102
RTVSPropertyOp62
 70
     1
  0
XRECORD
  5
AE20
102
{ACAD_REACTORS
330
AE1F
102
}
330
AE1F
100
AcDbXrecord
280
     1
102
RTVSPost2010Prop28
280
     0
102
RTVSPost2010PropOp28
 70
     1
102
RTVSPost2010Prop29
280
     1
102
RTVSPost2010PropOp29
 70
     1
102
RTVSPost2010Prop30
280
     1
102
RTVSPost2010PropOp30
 70
     1
102
RTVSPost2010Prop31
280
     0
102
RTVSPost2010PropOp31
 70
     1
102
RTVSPost2010Prop32
280
     0
102
RTVSPost2010PropOp32
 70
     1
102
RTVSPost2010Prop33
280
     0
102
RTVSPost2010PropOp33
 70
     1
102
RTVSPost2010Prop34
280
     0
102
RTVSPost2010PropOp34
 70
     1
102
RTVSPost2010Prop35
280
     0
102
RTVSPost2010PropOp35
 70
     1
102
RTVSPost2010Prop36
280
     0
102
RTVSPost2010PropOp36
 70
     1
102
RTVSPost2010Prop37
 90
       50
102
RTVSPost2010PropOp37
 70
     1
102
RTVSPost2010Prop38
140
0.0
102
RTVSPost2010PropOp38
 70
     1
102
RTVSPost2010Prop39
140
1.0
102
RTVSPost2010PropOp39
 70
     1
102
RTVSPost2010Prop40
 90
        0
102
RTVSPost2010PropOp40
 70
     1
102
RTVSPost2010Prop41ColorIndex
 90
       18
102
RTVSPost2010Prop41ColorRGB
 90
        0
102
RTVSPost2010PropOp41
 70
     1
102
RTVSPost2010Prop42
 90
       50
102
RTVSPost2010PropOp42
 70
     1
102
RTVSPost2010Prop43
 90
        3
102
RTVSPost2010PropOp43
 70
     1
102
RTVSPost2010Prop44ColorIndex
 90
        5
102
RTVSPost2010Prop44ColorRGB
 90
      255
102
RTVSPost2010PropOp44
 70
     1
102
RTVSPost2010Prop45
280
     0
102
RTVSPost2010PropOp45
 70
     1
102
RTVSPost2010Prop46
 90
       50
102
RTVSPost2010PropOp46
 70
     1
102
RTVSPost2010Prop47
 90
       50
102
RTVSPost2010PropOp47
 70
     1
102
RTVSPost2010Prop48
 90
       50
102
RTVSPost2010PropOp48
 70
     1
102
RTVSPost2010Prop49
280
     0
102
RTVSPost2010PropOp49
 70
     1
102
RTVSPost2010Prop50
 90
       50
102
RTVSPost2010PropOp50
 70
     1
102
RTVSPost2010Prop51ColorIndex
 90
      256
102
RTVSPost2010Prop51ColorRGB
 90
-16777216
102
RTVSPost2010PropOp51
 70
     0
102
RTVSPost2010Prop52
140
1.0
102
RTVSPost2010PropOp52
 70
     0
102
RTVSPost2010Prop53
 90
        2
102
RTVSPost2010PropOp53
 70
     1
102
RTVSPost2010Prop54
  1
strokes_ogs.tif
102
RTVSPost2010PropOp54
 70
     1
102
RTVSPost2010Prop55
280
     0
102
RTVSPost2010PropOp55
 70
     1
102
RTVSPost2010Prop56
140
1.0
102
RTVSPost2010PropOp56
 70
     1
102
RTVSPost2010Prop57
140
1.0
102
RTVSPost2010PropOp57
 70
     1
102
RTVSPropertyOp0
 70
     1
102
RTVSPropertyOp1
 70
     1
102
RTVSPropertyOp2
 70
     1
102
RTVSPropertyOp3
 70
     1
102
RTVSPropertyOp4
 70
     1
102
RTVSPropertyOp5
 70
     1
102
RTVSPropertyOp6
 70
     1
102
RTVSPropertyOp7
 70
     1
102
RTVSPropertyOp8
 70
     1
102
RTVSPropertyOp9
 70
     1
102
RTVSPropertyOp10
 70
     1
102
RTVSPropertyOp11
 70
     1
102
RTVSPropertyOp12
 70
     1
102
RTVSPropertyOp13
 70
     1
102
RTVSPropertyOp14
 70
     1
102
RTVSPropertyOp15
 70
     1
102
RTVSPropertyOp16
 70
     1
102
RTVSPropertyOp17
 70
     1
102
RTVSPropertyOp18
 70
     1
102
RTVSPropertyOp19
 70
     1
102
RTVSPropertyOp20
 70
     1
102
RTVSPropertyOp21
 70
     1
102
RTVSPropertyOp22
 70
     1
102
RTVSPropertyOp23
 70
     1
102
RTVSPropertyOp24
 70
     1
102
RTVSPropertyOp25
 70
     1
102
RTVSPropertyOp26
 70
     1
102
RTVSPropertyOp27
 70
     1
102
RTVSPropertyOp28
 70
     1
102
RTVSPropertyOp29
 70
     1
102
RTVSPropertyOp30
 70
     1
102
RTVSPropertyOp31
 70
     1
102
RTVSPropertyOp32
 70
     1
102
RTVSPropertyOp33
 70
     1
102
RTVSPropertyOp34
 70
     1
102
RTVSPropertyOp35
 70
     1
102
RTVSPropertyOp36
 70
     1
102
RTVSPropertyOp37
 70
     1
102
RTVSPropertyOp38
 70
     1
102
RTVSPropertyOp39
 70
     1
102
RTVSPropertyOp40
 70
     1
102
RTVSPropertyOp41
 70
     1
102
RTVSPropertyOp42
 70
     1
102
RTVSPropertyOp43
 70
     1
102
RTVSPropertyOp44
 70
     1
102
RTVSPropertyOp45
 70
     1
102
RTVSPropertyOp46
 70
     1
102
RTVSPropertyOp47
 70
     1
102
RTVSPropertyOp48
 70
     1
102
RTVSPropertyOp49
 70
     1
102
RTVSPropertyOp50
 70
     1
102
RTVSPropertyOp51
 70
     0
102
RTVSPropertyOp52
 70
     0
102
RTVSPropertyOp53
 70
     1
102
RTVSPropertyOp54
 70
     1
102
RTVSPropertyOp55
 70
     1
102
RTVSPropertyOp56
 70
     1
102
RTVSPropertyOp57
 70
     1
102
RTVSPropertyOp58
 70
     1
102
RTVSPropertyOp59
 70
     1
102
RTVSPropertyOp60
 70
     1
102
RTVSPropertyOp61
 70
     1
102
RTVSPropertyOp62
 70
     1
  0
XRECORD
  5
AE3C
102
{ACAD_REACTORS
330
AE3B
102
}
330
AE3B
100
AcDbXrecord
280
     1
102
RTVSPost2010Prop28
280
     0
102
RTVSPost2010PropOp28
 70
     0
102
RTVSPost2010Prop29
280
     1
102
RTVSPost2010PropOp29
 70
     0
102
RTVSPost2010Prop30
280
     1
102
RTVSPost2010PropOp30
 70
     0
102
RTVSPost2010Prop31
280
     0
102
RTVSPost2010PropOp31
 70
     0
102
RTVSPost2010Prop32
280
     0
102
RTVSPost2010PropOp32
 70
     0
102
RTVSPost2010Prop33
280
     0
102
RTVSPost2010PropOp33
 70
     1
102
RTVSPost2010Prop34
280
     0
102
RTVSPost2010PropOp34
 70
     1
102
RTVSPost2010Prop35
280
     0
102
RTVSPost2010PropOp35
 70
     1
102
RTVSPost2010Prop36
280
     0
102
RTVSPost2010PropOp36
 70
     1
102
RTVSPost2010Prop37
 90
       50
102
RTVSPost2010PropOp37
 70
     1
102
RTVSPost2010Prop38
140
0.0
102
RTVSPost2010PropOp38
 70
     1
102
RTVSPost2010Prop39
140
1.0
102
RTVSPost2010PropOp39
 70
     1
102
RTVSPost2010Prop40
 90
        0
102
RTVSPost2010PropOp40
 70
     1
102
RTVSPost2010Prop41ColorIndex
 90
       18
102
RTVSPost2010Prop41ColorRGB
 90
        0
102
RTVSPost2010PropOp41
 70
     1
102
RTVSPost2010Prop42
 90
       50
102
RTVSPost2010PropOp42
 70
     1
102
RTVSPost2010Prop43
 90
        3
102
RTVSPost2010PropOp43
 70
     1
102
RTVSPost2010Prop44ColorIndex
 90
        5
102
RTVSPost2010Prop44ColorRGB
 90
      255
102
RTVSPost2010PropOp44
 70
     1
102
RTVSPost2010Prop45
280
     0
102
RTVSPost2010PropOp45
 70
     1
102
RTVSPost2010Prop46
 90
       50
102
RTVSPost2010PropOp46
 70
     1
102
RTVSPost2010Prop47
 90
       50
102
RTVSPost2010PropOp47
 70
     1
102
RTVSPost2010Prop48
 90
       50
102
RTVSPost2010PropOp48
 70
     1
102
RTVSPost2010Prop49
280
     0
102
RTVSPost2010PropOp49
 70
     1
102
RTVSPost2010Prop50
 90
       50
102
RTVSPost2010PropOp50
 70
     1
102
RTVSPost2010Prop51ColorIndex
 90
      256
102
RTVSPost2010Prop51ColorRGB
 90
-16777216
102
RTVSPost2010PropOp51
 70
     0
102
RTVSPost2010Prop52
140
1.0
102
RTVSPost2010PropOp52
 70
     0
102
RTVSPost2010Prop53
 90
        2
102
RTVSPost2010PropOp53
 70
     1
102
RTVSPost2010Prop54
  1
strokes_ogs.tif
102
RTVSPost2010PropOp54
 70
     1
102
RTVSPost2010Prop55
280
     0
102
RTVSPost2010PropOp55
 70
     1
102
RTVSPost2010Prop56
140
1.0
102
RTVSPost2010PropOp56
 70
     1
102
RTVSPost2010Prop57
140
1.0
102
RTVSPost2010PropOp57
 70
     1
102
RTVSPropertyOp0
 70
     0
102
RTVSPropertyOp1
 70
     0
102
RTVSPropertyOp2
 70
     0
102
RTVSPropertyOp3
 70
     0
102
RTVSPropertyOp4
 70
     0
102
RTVSPropertyOp5
 70
     0
102
RTVSPropertyOp6
 70
     0
102
RTVSPropertyOp7
 70
     0
102
RTVSPropertyOp8
 70
     0
102
RTVSPropertyOp9
 70
     0
102
RTVSPropertyOp10
 70
     0
102
RTVSPropertyOp11
 70
     0
102
RTVSPropertyOp12
 70
     0
102
RTVSPropertyOp13
 70
     0
102
RTVSPropertyOp14
 70
     2
102
RTVSPropertyOp15
 70
     0
102
RTVSPropertyOp16
 70
     0
102
RTVSPropertyOp17
 70
     0
102
RTVSPropertyOp18
 70
     0
102
RTVSPropertyOp19
 70
     0
102
RTVSPropertyOp20
 70
     0
102
RTVSPropertyOp21
 70
     0
102
RTVSPropertyOp22
 70
     0
102
RTVSPropertyOp23
 70
     0
102
RTVSPropertyOp24
 70
     0
102
RTVSPropertyOp25
 70
     0
102
RTVSPropertyOp26
 70
     0
102
RTVSPropertyOp27
 70
     0
102
RTVSPropertyOp28
 70
     0
102
RTVSPropertyOp29
 70
     0
102
RTVSPropertyOp30
 70
     0
102
RTVSPropertyOp31
 70
     0
102
RTVSPropertyOp32
 70
     0
102
RTVSPropertyOp33
 70
     1
102
RTVSPropertyOp34
 70
     1
102
RTVSPropertyOp35
 70
     1
102
RTVSPropertyOp36
 70
     1
102
RTVSPropertyOp37
 70
     1
102
RTVSPropertyOp38
 70
     1
102
RTVSPropertyOp39
 70
     1
102
RTVSPropertyOp40
 70
     1
102
RTVSPropertyOp41
 70
     1
102
RTVSPropertyOp42
 70
     1
102
RTVSPropertyOp43
 70
     1
102
RTVSPropertyOp44
 70
     1
102
RTVSPropertyOp45
 70
     1
102
RTVSPropertyOp46
 70
     1
102
RTVSPropertyOp47
 70
     1
102
RTVSPropertyOp48
 70
     1
102
RTVSPropertyOp49
 70
     1
102
RTVSPropertyOp50
 70
     1
102
RTVSPropertyOp51
 70
     0
102
RTVSPropertyOp52
 70
     0
102
RTVSPropertyOp53
 70
     1
102
RTVSPropertyOp54
 70
     1
102
RTVSPropertyOp55
 70
     1
102
RTVSPropertyOp56
 70
     1
102
RTVSPropertyOp57
 70
     1
102
RTVSPropertyOp58
 70
     1
102
RTVSPropertyOp59
 70
     1
102
RTVSPropertyOp60
 70
     1
102
RTVSPropertyOp61
 70
     1
102
RTVSPropertyOp62
 70
     1
  0
XRECORD
  5
AE2C
102
{ACAD_REACTORS
330
AE2B
102
}
330
AE2B
100
AcDbXrecord
280
     1
102
RTVSPost2010Prop28
280
     0
102
RTVSPost2010PropOp28
 70
     1
102
RTVSPost2010Prop29
280
     1
102
RTVSPost2010PropOp29
 70
     1
102
RTVSPost2010Prop30
280
     1
102
RTVSPost2010PropOp30
 70
     1
102
RTVSPost2010Prop31
280
     0
102
RTVSPost2010PropOp31
 70
     1
102
RTVSPost2010Prop32
280
     0
102
RTVSPost2010PropOp32
 70
     1
102
RTVSPost2010Prop33
280
     0
102
RTVSPost2010PropOp33
 70
     1
102
RTVSPost2010Prop34
280
     0
102
RTVSPost2010PropOp34
 70
     1
102
RTVSPost2010Prop35
280
     0
102
RTVSPost2010PropOp35
 70
     1
102
RTVSPost2010Prop36
280
     0
102
RTVSPost2010PropOp36
 70
     1
102
RTVSPost2010Prop37
 90
       50
102
RTVSPost2010PropOp37
 70
     1
102
RTVSPost2010Prop38
140
0.0
102
RTVSPost2010PropOp38
 70
     1
102
RTVSPost2010Prop39
140
1.0
102
RTVSPost2010PropOp39
 70
     1
102
RTVSPost2010Prop40
 90
        0
102
RTVSPost2010PropOp40
 70
     1
102
RTVSPost2010Prop41ColorIndex
 90
       18
102
RTVSPost2010Prop41ColorRGB
 90
        0
102
RTVSPost2010PropOp41
 70
     1
102
RTVSPost2010Prop42
 90
       50
102
RTVSPost2010PropOp42
 70
     1
102
RTVSPost2010Prop43
 90
        3
102
RTVSPost2010PropOp43
 70
     1
102
RTVSPost2010Prop44ColorIndex
 90
        5
102
RTVSPost2010Prop44ColorRGB
 90
      255
102
RTVSPost2010PropOp44
 70
     1
102
RTVSPost2010Prop45
280
     0
102
RTVSPost2010PropOp45
 70
     1
102
RTVSPost2010Prop46
 90
       50
102
RTVSPost2010PropOp46
 70
     1
102
RTVSPost2010Prop47
 90
       50
102
RTVSPost2010PropOp47
 70
     1
102
RTVSPost2010Prop48
 90
       50
102
RTVSPost2010PropOp48
 70
     1
102
RTVSPost2010Prop49
280
     0
102
RTVSPost2010PropOp49
 70
     1
102
RTVSPost2010Prop50
 90
       50
102
RTVSPost2010PropOp50
 70
     1
102
RTVSPost2010Prop51ColorIndex
 90
      256
102
RTVSPost2010Prop51ColorRGB
 90
-16777216
102
RTVSPost2010PropOp51
 70
     0
102
RTVSPost2010Prop52
140
1.0
102
RTVSPost2010PropOp52
 70
     0
102
RTVSPost2010Prop53
 90
        2
102
RTVSPost2010PropOp53
 70
     1
102
RTVSPost2010Prop54
  1
strokes_ogs.tif
102
RTVSPost2010PropOp54
 70
     1
102
RTVSPost2010Prop55
280
     0
102
RTVSPost2010PropOp55
 70
     1
102
RTVSPost2010Prop56
140
1.0
102
RTVSPost2010PropOp56
 70
     1
102
RTVSPost2010Prop57
140
1.0
102
RTVSPost2010PropOp57
 70
     1
102
RTVSPropertyOp0
 70
     1
102
RTVSPropertyOp1
 70
     1
102
RTVSPropertyOp2
 70
     1
102
RTVSPropertyOp3
 70
     1
102
RTVSPropertyOp4
 70
     1
102
RTVSPropertyOp5
 70
     1
102
RTVSPropertyOp6
 70
     1
102
RTVSPropertyOp7
 70
     1
102
RTVSPropertyOp8
 70
     1
102
RTVSPropertyOp9
 70
     1
102
RTVSPropertyOp10
 70
     1
102
RTVSPropertyOp11
 70
     1
102
RTVSPropertyOp12
 70
     1
102
RTVSPropertyOp13
 70
     1
102
RTVSPropertyOp14
 70
     1
102
RTVSPropertyOp15
 70
     1
102
RTVSPropertyOp16
 70
     1
102
RTVSPropertyOp17
 70
     1
102
RTVSPropertyOp18
 70
     1
102
RTVSPropertyOp19
 70
     1
102
RTVSPropertyOp20
 70
     1
102
RTVSPropertyOp21
 70
     1
102
RTVSPropertyOp22
 70
     1
102
RTVSPropertyOp23
 70
     1
102
RTVSPropertyOp24
 70
     1
102
RTVSPropertyOp25
 70
     1
102
RTVSPropertyOp26
 70
     1
102
RTVSPropertyOp27
 70
     1
102
RTVSPropertyOp28
 70
     1
102
RTVSPropertyOp29
 70
     1
102
RTVSPropertyOp30
 70
     1
102
RTVSPropertyOp31
 70
     1
102
RTVSPropertyOp32
 70
     1
102
RTVSPropertyOp33
 70
     1
102
RTVSPropertyOp34
 70
     1
102
RTVSPropertyOp35
 70
     1
102
RTVSPropertyOp36
 70
     1
102
RTVSPropertyOp37
 70
     1
102
RTVSPropertyOp38
 70
     1
102
RTVSPropertyOp39
 70
     1
102
RTVSPropertyOp40
 70
     1
102
RTVSPropertyOp41
 70
     1
102
RTVSPropertyOp42
 70
     1
102
RTVSPropertyOp43
 70
     1
102
RTVSPropertyOp44
 70
     1
102
RTVSPropertyOp45
 70
     1
102
RTVSPropertyOp46
 70
     1
102
RTVSPropertyOp47
 70
     1
102
RTVSPropertyOp48
 70
     1
102
RTVSPropertyOp49
 70
     1
102
RTVSPropertyOp50
 70
     1
102
RTVSPropertyOp51
 70
     0
102
RTVSPropertyOp52
 70
     0
102
RTVSPropertyOp53
 70
     1
102
RTVSPropertyOp54
 70
     1
102
RTVSPropertyOp55
 70
     1
102
RTVSPropertyOp56
 70
     1
102
RTVSPropertyOp57
 70
     1
102
RTVSPropertyOp58
 70
     1
102
RTVSPropertyOp59
 70
     1
102
RTVSPropertyOp60
 70
     1
102
RTVSPropertyOp61
 70
     1
102
RTVSPropertyOp62
 70
     1
  0
XRECORD
  5
AE3E
102
{ACAD_REACTORS
330
AE3D
102
}
330
AE3D
100
AcDbXrecord
280
     1
102
RTVSPost2010Prop28
280
     0
102
RTVSPost2010PropOp28
 70
     0
102
RTVSPost2010Prop29
280
     1
102
RTVSPost2010PropOp29
 70
     0
102
RTVSPost2010Prop30
280
     1
102
RTVSPost2010PropOp30
 70
     0
102
RTVSPost2010Prop31
280
     0
102
RTVSPost2010PropOp31
 70
     0
102
RTVSPost2010Prop32
280
     0
102
RTVSPost2010PropOp32
 70
     0
102
RTVSPost2010Prop33
280
     0
102
RTVSPost2010PropOp33
 70
     1
102
RTVSPost2010Prop34
280
     0
102
RTVSPost2010PropOp34
 70
     1
102
RTVSPost2010Prop35
280
     0
102
RTVSPost2010PropOp35
 70
     1
102
RTVSPost2010Prop36
280
     0
102
RTVSPost2010PropOp36
 70
     1
102
RTVSPost2010Prop37
 90
       50
102
RTVSPost2010PropOp37
 70
     1
102
RTVSPost2010Prop38
140
0.0
102
RTVSPost2010PropOp38
 70
     1
102
RTVSPost2010Prop39
140
1.0
102
RTVSPost2010PropOp39
 70
     1
102
RTVSPost2010Prop40
 90
        0
102
RTVSPost2010PropOp40
 70
     1
102
RTVSPost2010Prop41ColorIndex
 90
       18
102
RTVSPost2010Prop41ColorRGB
 90
        0
102
RTVSPost2010PropOp41
 70
     1
102
RTVSPost2010Prop42
 90
       50
102
RTVSPost2010PropOp42
 70
     1
102
RTVSPost2010Prop43
 90
        3
102
RTVSPost2010PropOp43
 70
     1
102
RTVSPost2010Prop44ColorIndex
 90
        5
102
RTVSPost2010Prop44ColorRGB
 90
      255
102
RTVSPost2010PropOp44
 70
     1
102
RTVSPost2010Prop45
280
     0
102
RTVSPost2010PropOp45
 70
     1
102
RTVSPost2010Prop46
 90
       50
102
RTVSPost2010PropOp46
 70
     1
102
RTVSPost2010Prop47
 90
       50
102
RTVSPost2010PropOp47
 70
     1
102
RTVSPost2010Prop48
 90
       50
102
RTVSPost2010PropOp48
 70
     1
102
RTVSPost2010Prop49
280
     0
102
RTVSPost2010PropOp49
 70
     1
102
RTVSPost2010Prop50
 90
       50
102
RTVSPost2010PropOp50
 70
     1
102
RTVSPost2010Prop51ColorIndex
 90
      256
102
RTVSPost2010Prop51ColorRGB
 90
-16777216
102
RTVSPost2010PropOp51
 70
     0
102
RTVSPost2010Prop52
140
1.0
102
RTVSPost2010PropOp52
 70
     0
102
RTVSPost2010Prop53
 90
        2
102
RTVSPost2010PropOp53
 70
     1
102
RTVSPost2010Prop54
  1
strokes_ogs.tif
102
RTVSPost2010PropOp54
 70
     1
102
RTVSPost2010Prop55
280
     0
102
RTVSPost2010PropOp55
 70
     1
102
RTVSPost2010Prop56
140
1.0
102
RTVSPost2010PropOp56
 70
     1
102
RTVSPost2010Prop57
140
1.0
102
RTVSPost2010PropOp57
 70
     1
102
RTVSPropertyOp0
 70
     0
102
RTVSPropertyOp1
 70
     0
102
RTVSPropertyOp2
 70
     0
102
RTVSPropertyOp3
 70
     0
102
RTVSPropertyOp4
 70
     0
102
RTVSPropertyOp5
 70
     0
102
RTVSPropertyOp6
 70
     0
102
RTVSPropertyOp7
 70
     0
102
RTVSPropertyOp8
 70
     0
102
RTVSPropertyOp9
 70
     0
102
RTVSPropertyOp10
 70
     0
102
RTVSPropertyOp11
 70
     0
102
RTVSPropertyOp12
 70
     0
102
RTVSPropertyOp13
 70
     0
102
RTVSPropertyOp14
 70
     2
102
RTVSPropertyOp15
 70
     0
102
RTVSPropertyOp16
 70
     0
102
RTVSPropertyOp17
 70
     0
102
RTVSPropertyOp18
 70
     0
102
RTVSPropertyOp19
 70
     0
102
RTVSPropertyOp20
 70
     0
102
RTVSPropertyOp21
 70
     0
102
RTVSPropertyOp22
 70
     0
102
RTVSPropertyOp23
 70
     0
102
RTVSPropertyOp24
 70
     0
102
RTVSPropertyOp25
 70
     0
102
RTVSPropertyOp26
 70
     0
102
RTVSPropertyOp27
 70
     0
102
RTVSPropertyOp28
 70
     0
102
RTVSPropertyOp29
 70
     0
102
RTVSPropertyOp30
 70
     0
102
RTVSPropertyOp31
 70
     0
102
RTVSPropertyOp32
 70
     0
102
RTVSPropertyOp33
 70
     1
102
RTVSPropertyOp34
 70
     1
102
RTVSPropertyOp35
 70
     1
102
RTVSPropertyOp36
 70
     1
102
RTVSPropertyOp37
 70
     1
102
RTVSPropertyOp38
 70
     1
102
RTVSPropertyOp39
 70
     1
102
RTVSPropertyOp40
 70
     1
102
RTVSPropertyOp41
 70
     1
102
RTVSPropertyOp42
 70
     1
102
RTVSPropertyOp43
 70
     1
102
RTVSPropertyOp44
 70
     1
102
RTVSPropertyOp45
 70
     1
102
RTVSPropertyOp46
 70
     1
102
RTVSPropertyOp47
 70
     1
102
RTVSPropertyOp48
 70
     1
102
RTVSPropertyOp49
 70
     1
102
RTVSPropertyOp50
 70
     1
102
RTVSPropertyOp51
 70
     0
102
RTVSPropertyOp52
 70
     0
102
RTVSPropertyOp53
 70
     1
102
RTVSPropertyOp54
 70
     1
102
RTVSPropertyOp55
 70
     1
102
RTVSPropertyOp56
 70
     1
102
RTVSPropertyOp57
 70
     1
102
RTVSPropertyOp58
 70
     1
102
RTVSPropertyOp59
 70
     1
102
RTVSPropertyOp60
 70
     1
102
RTVSPropertyOp61
 70
     1
102
RTVSPropertyOp62
 70
     1
  0
XRECORD
  5
AE24
102
{ACAD_REACTORS
330
AE23
102
}
330
AE23
100
AcDbXrecord
280
     1
102
RTVSPost2010Prop28
280
     0
102
RTVSPost2010PropOp28
 70
     1
102
RTVSPost2010Prop29
280
     1
102
RTVSPost2010PropOp29
 70
     1
102
RTVSPost2010Prop30
280
     1
102
RTVSPost2010PropOp30
 70
     1
102
RTVSPost2010Prop31
280
     0
102
RTVSPost2010PropOp31
 70
     1
102
RTVSPost2010Prop32
280
     0
102
RTVSPost2010PropOp32
 70
     1
102
RTVSPost2010Prop33
280
     0
102
RTVSPost2010PropOp33
 70
     1
102
RTVSPost2010Prop34
280
     0
102
RTVSPost2010PropOp34
 70
     1
102
RTVSPost2010Prop35
280
     0
102
RTVSPost2010PropOp35
 70
     1
102
RTVSPost2010Prop36
280
     0
102
RTVSPost2010PropOp36
 70
     1
102
RTVSPost2010Prop37
 90
       50
102
RTVSPost2010PropOp37
 70
     1
102
RTVSPost2010Prop38
140
0.0
102
RTVSPost2010PropOp38
 70
     1
102
RTVSPost2010Prop39
140
1.0
102
RTVSPost2010PropOp39
 70
     1
102
RTVSPost2010Prop40
 90
        0
102
RTVSPost2010PropOp40
 70
     1
102
RTVSPost2010Prop41ColorIndex
 90
       18
102
RTVSPost2010Prop41ColorRGB
 90
        0
102
RTVSPost2010PropOp41
 70
     1
102
RTVSPost2010Prop42
 90
       50
102
RTVSPost2010PropOp42
 70
     1
102
RTVSPost2010Prop43
 90
        3
102
RTVSPost2010PropOp43
 70
     1
102
RTVSPost2010Prop44ColorIndex
 90
        5
102
RTVSPost2010Prop44ColorRGB
 90
      255
102
RTVSPost2010PropOp44
 70
     1
102
RTVSPost2010Prop45
280
     0
102
RTVSPost2010PropOp45
 70
     1
102
RTVSPost2010Prop46
 90
       50
102
RTVSPost2010PropOp46
 70
     1
102
RTVSPost2010Prop47
 90
       50
102
RTVSPost2010PropOp47
 70
     1
102
RTVSPost2010Prop48
 90
       50
102
RTVSPost2010PropOp48
 70
     1
102
RTVSPost2010Prop49
280
     0
102
RTVSPost2010PropOp49
 70
     1
102
RTVSPost2010Prop50
 90
       50
102
RTVSPost2010PropOp50
 70
     1
102
RTVSPost2010Prop51ColorIndex
 90
      256
102
RTVSPost2010Prop51ColorRGB
 90
-16777216
102
RTVSPost2010PropOp51
 70
     0
102
RTVSPost2010Prop52
140
1.0
102
RTVSPost2010PropOp52
 70
     0
102
RTVSPost2010Prop53
 90
        2
102
RTVSPost2010PropOp53
 70
     1
102
RTVSPost2010Prop54
  1
strokes_ogs.tif
102
RTVSPost2010PropOp54
 70
     1
102
RTVSPost2010Prop55
280
     0
102
RTVSPost2010PropOp55
 70
     1
102
RTVSPost2010Prop56
140
1.0
102
RTVSPost2010PropOp56
 70
     1
102
RTVSPost2010Prop57
140
1.0
102
RTVSPost2010PropOp57
 70
     1
102
RTVSPropertyOp0
 70
     1
102
RTVSPropertyOp1
 70
     1
102
RTVSPropertyOp2
 70
     1
102
RTVSPropertyOp3
 70
     1
102
RTVSPropertyOp4
 70
     1
102
RTVSPropertyOp5
 70
     1
102
RTVSPropertyOp6
 70
     1
102
RTVSPropertyOp7
 70
     1
102
RTVSPropertyOp8
 70
     1
102
RTVSPropertyOp9
 70
     1
102
RTVSPropertyOp10
 70
     1
102
RTVSPropertyOp11
 70
     1
102
RTVSPropertyOp12
 70
     1
102
RTVSPropertyOp13
 70
     1
102
RTVSPropertyOp14
 70
     1
102
RTVSPropertyOp15
 70
     1
102
RTVSPropertyOp16
 70
     1
102
RTVSPropertyOp17
 70
     1
102
RTVSPropertyOp18
 70
     1
102
RTVSPropertyOp19
 70
     1
102
RTVSPropertyOp20
 70
     1
102
RTVSPropertyOp21
 70
     1
102
RTVSPropertyOp22
 70
     1
102
RTVSPropertyOp23
 70
     1
102
RTVSPropertyOp24
 70
     1
102
RTVSPropertyOp25
 70
     1
102
RTVSPropertyOp26
 70
     1
102
RTVSPropertyOp27
 70
     1
102
RTVSPropertyOp28
 70
     1
102
RTVSPropertyOp29
 70
     1
102
RTVSPropertyOp30
 70
     1
102
RTVSPropertyOp31
 70
     1
102
RTVSPropertyOp32
 70
     1
102
RTVSPropertyOp33
 70
     1
102
RTVSPropertyOp34
 70
     1
102
RTVSPropertyOp35
 70
     1
102
RTVSPropertyOp36
 70
     1
102
RTVSPropertyOp37
 70
     1
102
RTVSPropertyOp38
 70
     1
102
RTVSPropertyOp39
 70
     1
102
RTVSPropertyOp40
 70
     1
102
RTVSPropertyOp41
 70
     1
102
RTVSPropertyOp42
 70
     1
102
RTVSPropertyOp43
 70
     1
102
RTVSPropertyOp44
 70
     1
102
RTVSPropertyOp45
 70
     1
102
RTVSPropertyOp46
 70
     1
102
RTVSPropertyOp47
 70
     1
102
RTVSPropertyOp48
 70
     1
102
RTVSPropertyOp49
 70
     1
102
RTVSPropertyOp50
 70
     1
102
RTVSPropertyOp51
 70
     0
102
RTVSPropertyOp52
 70
     0
102
RTVSPropertyOp53
 70
     1
102
RTVSPropertyOp54
 70
     1
102
RTVSPropertyOp55
 70
     1
102
RTVSPropertyOp56
 70
     1
102
RTVSPropertyOp57
 70
     1
102
RTVSPropertyOp58
 70
     1
102
RTVSPropertyOp59
 70
     1
102
RTVSPropertyOp60
 70
     1
102
RTVSPropertyOp61
 70
     1
102
RTVSPropertyOp62
 70
     1
  0
XRECORD
  5
AE3A
102
{ACAD_REACTORS
330
AE39
102
}
330
AE39
100
AcDbXrecord
280
     1
102
RTVSPost2010Prop28
280
     0
102
RTVSPost2010PropOp28
 70
     1
102
RTVSPost2010Prop29
280
     1
102
RTVSPost2010PropOp29
 70
     1
102
RTVSPost2010Prop30
280
     1
102
RTVSPost2010PropOp30
 70
     1
102
RTVSPost2010Prop31
280
     0
102
RTVSPost2010PropOp31
 70
     1
102
RTVSPost2010Prop32
280
     0
102
RTVSPost2010PropOp32
 70
     1
102
RTVSPost2010Prop33
280
     0
102
RTVSPost2010PropOp33
 70
     1
102
RTVSPost2010Prop34
280
     0
102
RTVSPost2010PropOp34
 70
     1
102
RTVSPost2010Prop35
280
     0
102
RTVSPost2010PropOp35
 70
     1
102
RTVSPost2010Prop36
280
     0
102
RTVSPost2010PropOp36
 70
     1
102
RTVSPost2010Prop37
 90
       50
102
RTVSPost2010PropOp37
 70
     1
102
RTVSPost2010Prop38
140
0.0
102
RTVSPost2010PropOp38
 70
     1
102
RTVSPost2010Prop39
140
1.0
102
RTVSPost2010PropOp39
 70
     1
102
RTVSPost2010Prop40
 90
        0
102
RTVSPost2010PropOp40
 70
     1
102
RTVSPost2010Prop41ColorIndex
 90
       18
102
RTVSPost2010Prop41ColorRGB
 90
        0
102
RTVSPost2010PropOp41
 70
     1
102
RTVSPost2010Prop42
 90
       50
102
RTVSPost2010PropOp42
 70
     1
102
RTVSPost2010Prop43
 90
        3
102
RTVSPost2010PropOp43
 70
     1
102
RTVSPost2010Prop44ColorIndex
 90
        5
102
RTVSPost2010Prop44ColorRGB
 90
      255
102
RTVSPost2010PropOp44
 70
     1
102
RTVSPost2010Prop45
280
     0
102
RTVSPost2010PropOp45
 70
     1
102
RTVSPost2010Prop46
 90
       50
102
RTVSPost2010PropOp46
 70
     1
102
RTVSPost2010Prop47
 90
       50
102
RTVSPost2010PropOp47
 70
     1
102
RTVSPost2010Prop48
 90
       50
102
RTVSPost2010PropOp48
 70
     1
102
RTVSPost2010Prop49
280
     0
102
RTVSPost2010PropOp49
 70
     1
102
RTVSPost2010Prop50
 90
       50
102
RTVSPost2010PropOp50
 70
     1
102
RTVSPost2010Prop51ColorIndex
 90
      256
102
RTVSPost2010Prop51ColorRGB
 90
-16777216
102
RTVSPost2010PropOp51
 70
     0
102
RTVSPost2010Prop52
140
1.0
102
RTVSPost2010PropOp52
 70
     0
102
RTVSPost2010Prop53
 90
        2
102
RTVSPost2010PropOp53
 70
     1
102
RTVSPost2010Prop54
  1
strokes_ogs.tif
102
RTVSPost2010PropOp54
 70
     1
102
RTVSPost2010Prop55
280
     0
102
RTVSPost2010PropOp55
 70
     1
102
RTVSPost2010Prop56
140
1.0
102
RTVSPost2010PropOp56
 70
     1
102
RTVSPost2010Prop57
140
1.0
102
RTVSPost2010PropOp57
 70
     1
102
RTVSPropertyOp0
 70
     1
102
RTVSPropertyOp1
 70
     1
102
RTVSPropertyOp2
 70
     1
102
RTVSPropertyOp3
 70
     1
102
RTVSPropertyOp4
 70
     1
102
RTVSPropertyOp5
 70
     1
102
RTVSPropertyOp6
 70
     1
102
RTVSPropertyOp7
 70
     1
102
RTVSPropertyOp8
 70
     1
102
RTVSPropertyOp9
 70
     1
102
RTVSPropertyOp10
 70
     1
102
RTVSPropertyOp11
 70
     1
102
RTVSPropertyOp12
 70
     1
102
RTVSPropertyOp13
 70
     1
102
RTVSPropertyOp14
 70
     1
102
RTVSPropertyOp15
 70
     1
102
RTVSPropertyOp16
 70
     1
102
RTVSPropertyOp17
 70
     1
102
RTVSPropertyOp18
 70
     1
102
RTVSPropertyOp19
 70
     1
102
RTVSPropertyOp20
 70
     1
102
RTVSPropertyOp21
 70
     1
102
RTVSPropertyOp22
 70
     1
102
RTVSPropertyOp23
 70
     1
102
RTVSPropertyOp24
 70
     1
102
RTVSPropertyOp25
 70
     1
102
RTVSPropertyOp26
 70
     1
102
RTVSPropertyOp27
 70
     1
102
RTVSPropertyOp28
 70
     1
102
RTVSPropertyOp29
 70
     1
102
RTVSPropertyOp30
 70
     1
102
RTVSPropertyOp31
 70
     1
102
RTVSPropertyOp32
 70
     1
102
RTVSPropertyOp33
 70
     1
102
RTVSPropertyOp34
 70
     1
102
RTVSPropertyOp35
 70
     1
102
RTVSPropertyOp36
 70
     1
102
RTVSPropertyOp37
 70
     1
102
RTVSPropertyOp38
 70
     1
102
RTVSPropertyOp39
 70
     1
102
RTVSPropertyOp40
 70
     1
102
RTVSPropertyOp41
 70
     1
102
RTVSPropertyOp42
 70
     1
102
RTVSPropertyOp43
 70
     1
102
RTVSPropertyOp44
 70
     1
102
RTVSPropertyOp45
 70
     1
102
RTVSPropertyOp46
 70
     1
102
RTVSPropertyOp47
 70
     1
102
RTVSPropertyOp48
 70
     1
102
RTVSPropertyOp49
 70
     1
102
RTVSPropertyOp50
 70
     1
102
RTVSPropertyOp51
 70
     0
102
RTVSPropertyOp52
 70
     0
102
RTVSPropertyOp53
 70
     1
102
RTVSPropertyOp54
 70
     1
102
RTVSPropertyOp55
 70
     1
102
RTVSPropertyOp56
 70
     1
102
RTVSPropertyOp57
 70
     1
102
RTVSPropertyOp58
 70
     1
102
RTVSPropertyOp59
 70
     1
102
RTVSPropertyOp60
 70
     1
102
RTVSPropertyOp61
 70
     1
102
RTVSPropertyOp62
 70
     1
  0
XRECORD
  5
AE38
102
{ACAD_REACTORS
330
AE37
102
}
330
AE37
100
AcDbXrecord
280
     1
102
RTVSPost2010Prop28
280
     0
102
RTVSPost2010PropOp28
 70
     1
102
RTVSPost2010Prop29
280
     1
102
RTVSPost2010PropOp29
 70
     1
102
RTVSPost2010Prop30
280
     1
102
RTVSPost2010PropOp30
 70
     1
102
RTVSPost2010Prop31
280
     0
102
RTVSPost2010PropOp31
 70
     1
102
RTVSPost2010Prop32
280
     0
102
RTVSPost2010PropOp32
 70
     1
102
RTVSPost2010Prop33
280
     0
102
RTVSPost2010PropOp33
 70
     1
102
RTVSPost2010Prop34
280
     0
102
RTVSPost2010PropOp34
 70
     1
102
RTVSPost2010Prop35
280
     0
102
RTVSPost2010PropOp35
 70
     1
102
RTVSPost2010Prop36
280
     0
102
RTVSPost2010PropOp36
 70
     1
102
RTVSPost2010Prop37
 90
       50
102
RTVSPost2010PropOp37
 70
     1
102
RTVSPost2010Prop38
140
0.0
102
RTVSPost2010PropOp38
 70
     1
102
RTVSPost2010Prop39
140
1.0
102
RTVSPost2010PropOp39
 70
     1
102
RTVSPost2010Prop40
 90
        0
102
RTVSPost2010PropOp40
 70
     1
102
RTVSPost2010Prop41ColorIndex
 90
       18
102
RTVSPost2010Prop41ColorRGB
 90
        0
102
RTVSPost2010PropOp41
 70
     1
102
RTVSPost2010Prop42
 90
       50
102
RTVSPost2010PropOp42
 70
     1
102
RTVSPost2010Prop43
 90
        3
102
RTVSPost2010PropOp43
 70
     1
102
RTVSPost2010Prop44ColorIndex
 90
        5
102
RTVSPost2010Prop44ColorRGB
 90
      255
102
RTVSPost2010PropOp44
 70
     1
102
RTVSPost2010Prop45
280
     0
102
RTVSPost2010PropOp45
 70
     1
102
RTVSPost2010Prop46
 90
       50
102
RTVSPost2010PropOp46
 70
     1
102
RTVSPost2010Prop47
 90
       50
102
RTVSPost2010PropOp47
 70
     1
102
RTVSPost2010Prop48
 90
       50
102
RTVSPost2010PropOp48
 70
     1
102
RTVSPost2010Prop49
280
     0
102
RTVSPost2010PropOp49
 70
     1
102
RTVSPost2010Prop50
 90
       50
102
RTVSPost2010PropOp50
 70
     1
102
RTVSPost2010Prop51ColorIndex
 90
      256
102
RTVSPost2010Prop51ColorRGB
 90
-16777216
102
RTVSPost2010PropOp51
 70
     0
102
RTVSPost2010Prop52
140
1.0
102
RTVSPost2010PropOp52
 70
     0
102
RTVSPost2010Prop53
 90
        2
102
RTVSPost2010PropOp53
 70
     1
102
RTVSPost2010Prop54
  1
strokes_ogs.tif
102
RTVSPost2010PropOp54
 70
     1
102
RTVSPost2010Prop55
280
     0
102
RTVSPost2010PropOp55
 70
     1
102
RTVSPost2010Prop56
140
1.0
102
RTVSPost2010PropOp56
 70
     1
102
RTVSPost2010Prop57
140
1.0
102
RTVSPost2010PropOp57
 70
     1
102
RTVSPropertyOp0
 70
     1
102
RTVSPropertyOp1
 70
     1
102
RTVSPropertyOp2
 70
     1
102
RTVSPropertyOp3
 70
     1
102
RTVSPropertyOp4
 70
     1
102
RTVSPropertyOp5
 70
     1
102
RTVSPropertyOp6
 70
     1
102
RTVSPropertyOp7
 70
     1
102
RTVSPropertyOp8
 70
     1
102
RTVSPropertyOp9
 70
     1
102
RTVSPropertyOp10
 70
     1
102
RTVSPropertyOp11
 70
     1
102
RTVSPropertyOp12
 70
     1
102
RTVSPropertyOp13
 70
     1
102
RTVSPropertyOp14
 70
     1
102
RTVSPropertyOp15
 70
     1
102
RTVSPropertyOp16
 70
     1
102
RTVSPropertyOp17
 70
     1
102
RTVSPropertyOp18
 70
     1
102
RTVSPropertyOp19
 70
     1
102
RTVSPropertyOp20
 70
     1
102
RTVSPropertyOp21
 70
     1
102
RTVSPropertyOp22
 70
     1
102
RTVSPropertyOp23
 70
     1
102
RTVSPropertyOp24
 70
     1
102
RTVSPropertyOp25
 70
     1
102
RTVSPropertyOp26
 70
     1
102
RTVSPropertyOp27
 70
     1
102
RTVSPropertyOp28
 70
     1
102
RTVSPropertyOp29
 70
     1
102
RTVSPropertyOp30
 70
     1
102
RTVSPropertyOp31
 70
     1
102
RTVSPropertyOp32
 70
     1
102
RTVSPropertyOp33
 70
     1
102
RTVSPropertyOp34
 70
     1
102
RTVSPropertyOp35
 70
     1
102
RTVSPropertyOp36
 70
     1
102
RTVSPropertyOp37
 70
     1
102
RTVSPropertyOp38
 70
     1
102
RTVSPropertyOp39
 70
     1
102
RTVSPropertyOp40
 70
     1
102
RTVSPropertyOp41
 70
     1
102
RTVSPropertyOp42
 70
     1
102
RTVSPropertyOp43
 70
     1
102
RTVSPropertyOp44
 70
     1
102
RTVSPropertyOp45
 70
     1
102
RTVSPropertyOp46
 70
     1
102
RTVSPropertyOp47
 70
     1
102
RTVSPropertyOp48
 70
     1
102
RTVSPropertyOp49
 70
     1
102
RTVSPropertyOp50
 70
     1
102
RTVSPropertyOp51
 70
     0
102
RTVSPropertyOp52
 70
     0
102
RTVSPropertyOp53
 70
     1
102
RTVSPropertyOp54
 70
     1
102
RTVSPropertyOp55
 70
     1
102
RTVSPropertyOp56
 70
     1
102
RTVSPropertyOp57
 70
     1
102
RTVSPropertyOp58
 70
     1
102
RTVSPropertyOp59
 70
     1
102
RTVSPropertyOp60
 70
     1
102
RTVSPropertyOp61
 70
     1
102
RTVSPropertyOp62
 70
     1
  0
XRECORD
  5
AE32
102
{ACAD_REACTORS
330
AE31
102
}
330
AE31
100
AcDbXrecord
280
     1
102
RTVSPost2010Prop28
280
     0
102
RTVSPost2010PropOp28
 70
     1
102
RTVSPost2010Prop29
280
     1
102
RTVSPost2010PropOp29
 70
     1
102
RTVSPost2010Prop30
280
     1
102
RTVSPost2010PropOp30
 70
     1
102
RTVSPost2010Prop31
280
     0
102
RTVSPost2010PropOp31
 70
     1
102
RTVSPost2010Prop32
280
     0
102
RTVSPost2010PropOp32
 70
     1
102
RTVSPost2010Prop33
280
     0
102
RTVSPost2010PropOp33
 70
     1
102
RTVSPost2010Prop34
280
     0
102
RTVSPost2010PropOp34
 70
     1
102
RTVSPost2010Prop35
280
     0
102
RTVSPost2010PropOp35
 70
     1
102
RTVSPost2010Prop36
280
     0
102
RTVSPost2010PropOp36
 70
     1
102
RTVSPost2010Prop37
 90
       50
102
RTVSPost2010PropOp37
 70
     1
102
RTVSPost2010Prop38
140
0.0
102
RTVSPost2010PropOp38
 70
     1
102
RTVSPost2010Prop39
140
1.0
102
RTVSPost2010PropOp39
 70
     1
102
RTVSPost2010Prop40
 90
        0
102
RTVSPost2010PropOp40
 70
     1
102
RTVSPost2010Prop41ColorIndex
 90
       18
102
RTVSPost2010Prop41ColorRGB
 90
        0
102
RTVSPost2010PropOp41
 70
     1
102
RTVSPost2010Prop42
 90
       50
102
RTVSPost2010PropOp42
 70
     1
102
RTVSPost2010Prop43
 90
        3
102
RTVSPost2010PropOp43
 70
     1
102
RTVSPost2010Prop44ColorIndex
 90
        5
102
RTVSPost2010Prop44ColorRGB
 90
      255
102
RTVSPost2010PropOp44
 70
     1
102
RTVSPost2010Prop45
280
     0
102
RTVSPost2010PropOp45
 70
     1
102
RTVSPost2010Prop46
 90
       50
102
RTVSPost2010PropOp46
 70
     1
102
RTVSPost2010Prop47
 90
       50
102
RTVSPost2010PropOp47
 70
     1
102
RTVSPost2010Prop48
 90
       50
102
RTVSPost2010PropOp48
 70
     1
102
RTVSPost2010Prop49
280
     0
102
RTVSPost2010PropOp49
 70
     1
102
RTVSPost2010Prop50
 90
       50
102
RTVSPost2010PropOp50
 70
     1
102
RTVSPost2010Prop51ColorIndex
 90
      256
102
RTVSPost2010Prop51ColorRGB
 90
-16777216
102
RTVSPost2010PropOp51
 70
     0
102
RTVSPost2010Prop52
140
1.0
102
RTVSPost2010PropOp52
 70
     0
102
RTVSPost2010Prop53
 90
        2
102
RTVSPost2010PropOp53
 70
     1
102
RTVSPost2010Prop54
  1
strokes_ogs.tif
102
RTVSPost2010PropOp54
 70
     1
102
RTVSPost2010Prop55
280
     0
102
RTVSPost2010PropOp55
 70
     1
102
RTVSPost2010Prop56
140
1.0
102
RTVSPost2010PropOp56
 70
     1
102
RTVSPost2010Prop57
140
1.0
102
RTVSPost2010PropOp57
 70
     1
102
RTVSPropertyOp0
 70
     1
102
RTVSPropertyOp1
 70
     1
102
RTVSPropertyOp2
 70
     1
102
RTVSPropertyOp3
 70
     1
102
RTVSPropertyOp4
 70
     1
102
RTVSPropertyOp5
 70
     1
102
RTVSPropertyOp6
 70
     1
102
RTVSPropertyOp7
 70
     1
102
RTVSPropertyOp8
 70
     1
102
RTVSPropertyOp9
 70
     1
102
RTVSPropertyOp10
 70
     1
102
RTVSPropertyOp11
 70
     1
102
RTVSPropertyOp12
 70
     1
102
RTVSPropertyOp13
 70
     1
102
RTVSPropertyOp14
 70
     1
102
RTVSPropertyOp15
 70
     1
102
RTVSPropertyOp16
 70
     1
102
RTVSPropertyOp17
 70
     1
102
RTVSPropertyOp18
 70
     1
102
RTVSPropertyOp19
 70
     1
102
RTVSPropertyOp20
 70
     1
102
RTVSPropertyOp21
 70
     1
102
RTVSPropertyOp22
 70
     1
102
RTVSPropertyOp23
 70
     1
102
RTVSPropertyOp24
 70
     1
102
RTVSPropertyOp25
 70
     1
102
RTVSPropertyOp26
 70
     1
102
RTVSPropertyOp27
 70
     1
102
RTVSPropertyOp28
 70
     1
102
RTVSPropertyOp29
 70
     1
102
RTVSPropertyOp30
 70
     1
102
RTVSPropertyOp31
 70
     1
102
RTVSPropertyOp32
 70
     1
102
RTVSPropertyOp33
 70
     1
102
RTVSPropertyOp34
 70
     1
102
RTVSPropertyOp35
 70
     1
102
RTVSPropertyOp36
 70
     1
102
RTVSPropertyOp37
 70
     1
102
RTVSPropertyOp38
 70
     1
102
RTVSPropertyOp39
 70
     1
102
RTVSPropertyOp40
 70
     1
102
RTVSPropertyOp41
 70
     1
102
RTVSPropertyOp42
 70
     1
102
RTVSPropertyOp43
 70
     1
102
RTVSPropertyOp44
 70
     1
102
RTVSPropertyOp45
 70
     1
102
RTVSPropertyOp46
 70
     1
102
RTVSPropertyOp47
 70
     1
102
RTVSPropertyOp48
 70
     1
102
RTVSPropertyOp49
 70
     1
102
RTVSPropertyOp50
 70
     1
102
RTVSPropertyOp51
 70
     0
102
RTVSPropertyOp52
 70
     0
102
RTVSPropertyOp53
 70
     1
102
RTVSPropertyOp54
 70
     1
102
RTVSPropertyOp55
 70
     1
102
RTVSPropertyOp56
 70
     1
102
RTVSPropertyOp57
 70
     1
102
RTVSPropertyOp58
 70
     1
102
RTVSPropertyOp59
 70
     1
102
RTVSPropertyOp60
 70
     1
102
RTVSPropertyOp61
 70
     1
102
RTVSPropertyOp62
 70
     1
  0
XRECORD
  5
AE34
102
{ACAD_REACTORS
330
AE33
102
}
330
AE33
100
AcDbXrecord
280
     1
102
RTVSPost2010Prop28
280
     0
102
RTVSPost2010PropOp28
 70
     1
102
RTVSPost2010Prop29
280
     1
102
RTVSPost2010PropOp29
 70
     1
102
RTVSPost2010Prop30
280
     1
102
RTVSPost2010PropOp30
 70
     1
102
RTVSPost2010Prop31
280
     0
102
RTVSPost2010PropOp31
 70
     1
102
RTVSPost2010Prop32
280
     0
102
RTVSPost2010PropOp32
 70
     1
102
RTVSPost2010Prop33
280
     0
102
RTVSPost2010PropOp33
 70
     1
102
RTVSPost2010Prop34
280
     0
102
RTVSPost2010PropOp34
 70
     1
102
RTVSPost2010Prop35
280
     0
102
RTVSPost2010PropOp35
 70
     1
102
RTVSPost2010Prop36
280
     0
102
RTVSPost2010PropOp36
 70
     1
102
RTVSPost2010Prop37
 90
       50
102
RTVSPost2010PropOp37
 70
     1
102
RTVSPost2010Prop38
140
0.0
102
RTVSPost2010PropOp38
 70
     1
102
RTVSPost2010Prop39
140
1.0
102
RTVSPost2010PropOp39
 70
     1
102
RTVSPost2010Prop40
 90
        0
102
RTVSPost2010PropOp40
 70
     1
102
RTVSPost2010Prop41ColorIndex
 90
       18
102
RTVSPost2010Prop41ColorRGB
 90
        0
102
RTVSPost2010PropOp41
 70
     1
102
RTVSPost2010Prop42
 90
       50
102
RTVSPost2010PropOp42
 70
     1
102
RTVSPost2010Prop43
 90
        3
102
RTVSPost2010PropOp43
 70
     1
102
RTVSPost2010Prop44ColorIndex
 90
        5
102
RTVSPost2010Prop44ColorRGB
 90
      255
102
RTVSPost2010PropOp44
 70
     1
102
RTVSPost2010Prop45
280
     0
102
RTVSPost2010PropOp45
 70
     1
102
RTVSPost2010Prop46
 90
       50
102
RTVSPost2010PropOp46
 70
     1
102
RTVSPost2010Prop47
 90
       50
102
RTVSPost2010PropOp47
 70
     1
102
RTVSPost2010Prop48
 90
       50
102
RTVSPost2010PropOp48
 70
     1
102
RTVSPost2010Prop49
280
     0
102
RTVSPost2010PropOp49
 70
     1
102
RTVSPost2010Prop50
 90
       50
102
RTVSPost2010PropOp50
 70
     1
102
RTVSPost2010Prop51ColorIndex
 90
      256
102
RTVSPost2010Prop51ColorRGB
 90
-16777216
102
RTVSPost2010PropOp51
 70
     0
102
RTVSPost2010Prop52
140
1.0
102
RTVSPost2010PropOp52
 70
     0
102
RTVSPost2010Prop53
 90
        2
102
RTVSPost2010PropOp53
 70
     1
102
RTVSPost2010Prop54
  1
strokes_ogs.tif
102
RTVSPost2010PropOp54
 70
     1
102
RTVSPost2010Prop55
280
     0
102
RTVSPost2010PropOp55
 70
     1
102
RTVSPost2010Prop56
140
1.0
102
RTVSPost2010PropOp56
 70
     1
102
RTVSPost2010Prop57
140
1.0
102
RTVSPost2010PropOp57
 70
     1
102
RTVSPropertyOp0
 70
     1
102
RTVSPropertyOp1
 70
     1
102
RTVSPropertyOp2
 70
     1
102
RTVSPropertyOp3
 70
     1
102
RTVSPropertyOp4
 70
     1
102
RTVSPropertyOp5
 70
     1
102
RTVSPropertyOp6
 70
     1
102
RTVSPropertyOp7
 70
     1
102
RTVSPropertyOp8
 70
     1
102
RTVSPropertyOp9
 70
     1
102
RTVSPropertyOp10
 70
     1
102
RTVSPropertyOp11
 70
     1
102
RTVSPropertyOp12
 70
     1
102
RTVSPropertyOp13
 70
     1
102
RTVSPropertyOp14
 70
     1
102
RTVSPropertyOp15
 70
     1
102
RTVSPropertyOp16
 70
     1
102
RTVSPropertyOp17
 70
     1
102
RTVSPropertyOp18
 70
     1
102
RTVSPropertyOp19
 70
     1
102
RTVSPropertyOp20
 70
     1
102
RTVSPropertyOp21
 70
     1
102
RTVSPropertyOp22
 70
     1
102
RTVSPropertyOp23
 70
     1
102
RTVSPropertyOp24
 70
     1
102
RTVSPropertyOp25
 70
     1
102
RTVSPropertyOp26
 70
     1
102
RTVSPropertyOp27
 70
     1
102
RTVSPropertyOp28
 70
     1
102
RTVSPropertyOp29
 70
     1
102
RTVSPropertyOp30
 70
     1
102
RTVSPropertyOp31
 70
     1
102
RTVSPropertyOp32
 70
     1
102
RTVSPropertyOp33
 70
     1
102
RTVSPropertyOp34
 70
     1
102
RTVSPropertyOp35
 70
     1
102
RTVSPropertyOp36
 70
     1
102
RTVSPropertyOp37
 70
     1
102
RTVSPropertyOp38
 70
     1
102
RTVSPropertyOp39
 70
     1
102
RTVSPropertyOp40
 70
     1
102
RTVSPropertyOp41
 70
     1
102
RTVSPropertyOp42
 70
     1
102
RTVSPropertyOp43
 70
     1
102
RTVSPropertyOp44
 70
     1
102
RTVSPropertyOp45
 70
     1
102
RTVSPropertyOp46
 70
     1
102
RTVSPropertyOp47
 70
     1
102
RTVSPropertyOp48
 70
     1
102
RTVSPropertyOp49
 70
     1
102
RTVSPropertyOp50
 70
     1
102
RTVSPropertyOp51
 70
     0
102
RTVSPropertyOp52
 70
     0
102
RTVSPropertyOp53
 70
     1
102
RTVSPropertyOp54
 70
     1
102
RTVSPropertyOp55
 70
     1
102
RTVSPropertyOp56
 70
     1
102
RTVSPropertyOp57
 70
     1
102
RTVSPropertyOp58
 70
     1
102
RTVSPropertyOp59
 70
     1
102
RTVSPropertyOp60
 70
     1
102
RTVSPropertyOp61
 70
     1
102
RTVSPropertyOp62
 70
     1
  0
XRECORD
  5
AE2A
102
{ACAD_REACTORS
330
AE29
102
}
330
AE29
100
AcDbXrecord
280
     1
102
RTVSPost2010Prop28
280
     0
102
RTVSPost2010PropOp28
 70
     1
102
RTVSPost2010Prop29
280
     1
102
RTVSPost2010PropOp29
 70
     1
102
RTVSPost2010Prop30
280
     1
102
RTVSPost2010PropOp30
 70
     1
102
RTVSPost2010Prop31
280
     0
102
RTVSPost2010PropOp31
 70
     1
102
RTVSPost2010Prop32
280
     0
102
RTVSPost2010PropOp32
 70
     1
102
RTVSPost2010Prop33
280
     0
102
RTVSPost2010PropOp33
 70
     1
102
RTVSPost2010Prop34
280
     0
102
RTVSPost2010PropOp34
 70
     1
102
RTVSPost2010Prop35
280
     0
102
RTVSPost2010PropOp35
 70
     1
102
RTVSPost2010Prop36
280
     0
102
RTVSPost2010PropOp36
 70
     1
102
RTVSPost2010Prop37
 90
       50
102
RTVSPost2010PropOp37
 70
     1
102
RTVSPost2010Prop38
140
0.0
102
RTVSPost2010PropOp38
 70
     1
102
RTVSPost2010Prop39
140
1.0
102
RTVSPost2010PropOp39
 70
     1
102
RTVSPost2010Prop40
 90
        0
102
RTVSPost2010PropOp40
 70
     1
102
RTVSPost2010Prop41ColorIndex
 90
       18
102
RTVSPost2010Prop41ColorRGB
 90
        0
102
RTVSPost2010PropOp41
 70
     1
102
RTVSPost2010Prop42
 90
       50
102
RTVSPost2010PropOp42
 70
     1
102
RTVSPost2010Prop43
 90
        3
102
RTVSPost2010PropOp43
 70
     1
102
RTVSPost2010Prop44ColorIndex
 90
        5
102
RTVSPost2010Prop44ColorRGB
 90
      255
102
RTVSPost2010PropOp44
 70
     1
102
RTVSPost2010Prop45
280
     0
102
RTVSPost2010PropOp45
 70
     1
102
RTVSPost2010Prop46
 90
       50
102
RTVSPost2010PropOp46
 70
     1
102
RTVSPost2010Prop47
 90
       50
102
RTVSPost2010PropOp47
 70
     1
102
RTVSPost2010Prop48
 90
       50
102
RTVSPost2010PropOp48
 70
     1
102
RTVSPost2010Prop49
280
     0
102
RTVSPost2010PropOp49
 70
     1
102
RTVSPost2010Prop50
 90
       50
102
RTVSPost2010PropOp50
 70
     1
102
RTVSPost2010Prop51ColorIndex
 90
      256
102
RTVSPost2010Prop51ColorRGB
 90
-16777216
102
RTVSPost2010PropOp51
 70
     0
102
RTVSPost2010Prop52
140
1.0
102
RTVSPost2010PropOp52
 70
     0
102
RTVSPost2010Prop53
 90
        2
102
RTVSPost2010PropOp53
 70
     1
102
RTVSPost2010Prop54
  1
strokes_ogs.tif
102
RTVSPost2010PropOp54
 70
     1
102
RTVSPost2010Prop55
280
     0
102
RTVSPost2010PropOp55
 70
     1
102
RTVSPost2010Prop56
140
1.0
102
RTVSPost2010PropOp56
 70
     1
102
RTVSPost2010Prop57
140
1.0
102
RTVSPost2010PropOp57
 70
     1
102
RTVSPropertyOp0
 70
     1
102
RTVSPropertyOp1
 70
     1
102
RTVSPropertyOp2
 70
     1
102
RTVSPropertyOp3
 70
     1
102
RTVSPropertyOp4
 70
     1
102
RTVSPropertyOp5
 70
     1
102
RTVSPropertyOp6
 70
     1
102
RTVSPropertyOp7
 70
     1
102
RTVSPropertyOp8
 70
     1
102
RTVSPropertyOp9
 70
     1
102
RTVSPropertyOp10
 70
     1
102
RTVSPropertyOp11
 70
     1
102
RTVSPropertyOp12
 70
     1
102
RTVSPropertyOp13
 70
     1
102
RTVSPropertyOp14
 70
     1
102
RTVSPropertyOp15
 70
     1
102
RTVSPropertyOp16
 70
     1
102
RTVSPropertyOp17
 70
     1
102
RTVSPropertyOp18
 70
     1
102
RTVSPropertyOp19
 70
     1
102
RTVSPropertyOp20
 70
     1
102
RTVSPropertyOp21
 70
     1
102
RTVSPropertyOp22
 70
     1
102
RTVSPropertyOp23
 70
     1
102
RTVSPropertyOp24
 70
     1
102
RTVSPropertyOp25
 70
     1
102
RTVSPropertyOp26
 70
     1
102
RTVSPropertyOp27
 70
     1
102
RTVSPropertyOp28
 70
     1
102
RTVSPropertyOp29
 70
     1
102
RTVSPropertyOp30
 70
     1
102
RTVSPropertyOp31
 70
     1
102
RTVSPropertyOp32
 70
     1
102
RTVSPropertyOp33
 70
     1
102
RTVSPropertyOp34
 70
     1
102
RTVSPropertyOp35
 70
     1
102
RTVSPropertyOp36
 70
     1
102
RTVSPropertyOp37
 70
     1
102
RTVSPropertyOp38
 70
     1
102
RTVSPropertyOp39
 70
     1
102
RTVSPropertyOp40
 70
     1
102
RTVSPropertyOp41
 70
     1
102
RTVSPropertyOp42
 70
     1
102
RTVSPropertyOp43
 70
     1
102
RTVSPropertyOp44
 70
     1
102
RTVSPropertyOp45
 70
     1
102
RTVSPropertyOp46
 70
     1
102
RTVSPropertyOp47
 70
     1
102
RTVSPropertyOp48
 70
     1
102
RTVSPropertyOp49
 70
     1
102
RTVSPropertyOp50
 70
     1
102
RTVSPropertyOp51
 70
     0
102
RTVSPropertyOp52
 70
     0
102
RTVSPropertyOp53
 70
     1
102
RTVSPropertyOp54
 70
     1
102
RTVSPropertyOp55
 70
     1
102
RTVSPropertyOp56
 70
     1
102
RTVSPropertyOp57
 70
     1
102
RTVSPropertyOp58
 70
     1
102
RTVSPropertyOp59
 70
     1
102
RTVSPropertyOp60
 70
     1
102
RTVSPropertyOp61
 70
     1
102
RTVSPropertyOp62
 70
     1
  0
XRECORD
  5
AE1E
102
{ACAD_REACTORS
330
AE1D
102
}
330
AE1D
100
AcDbXrecord
280
     1
102
RTVSPost2010Prop28
280
     0
102
RTVSPost2010PropOp28
 70
     1
102
RTVSPost2010Prop29
280
     1
102
RTVSPost2010PropOp29
 70
     1
102
RTVSPost2010Prop30
280
     1
102
RTVSPost2010PropOp30
 70
     1
102
RTVSPost2010Prop31
280
     0
102
RTVSPost2010PropOp31
 70
     1
102
RTVSPost2010Prop32
280
     0
102
RTVSPost2010PropOp32
 70
     1
102
RTVSPost2010Prop33
280
     0
102
RTVSPost2010PropOp33
 70
     1
102
RTVSPost2010Prop34
280
     0
102
RTVSPost2010PropOp34
 70
     1
102
RTVSPost2010Prop35
280
     0
102
RTVSPost2010PropOp35
 70
     1
102
RTVSPost2010Prop36
280
     0
102
RTVSPost2010PropOp36
 70
     1
102
RTVSPost2010Prop37
 90
       50
102
RTVSPost2010PropOp37
 70
     1
102
RTVSPost2010Prop38
140
0.0
102
RTVSPost2010PropOp38
 70
     1
102
RTVSPost2010Prop39
140
1.0
102
RTVSPost2010PropOp39
 70
     1
102
RTVSPost2010Prop40
 90
        0
102
RTVSPost2010PropOp40
 70
     1
102
RTVSPost2010Prop41ColorIndex
 90
       18
102
RTVSPost2010Prop41ColorRGB
 90
        0
102
RTVSPost2010PropOp41
 70
     1
102
RTVSPost2010Prop42
 90
       50
102
RTVSPost2010PropOp42
 70
     1
102
RTVSPost2010Prop43
 90
        3
102
RTVSPost2010PropOp43
 70
     1
102
RTVSPost2010Prop44ColorIndex
 90
        5
102
RTVSPost2010Prop44ColorRGB
 90
      255
102
RTVSPost2010PropOp44
 70
     1
102
RTVSPost2010Prop45
280
     0
102
RTVSPost2010PropOp45
 70
     1
102
RTVSPost2010Prop46
 90
       50
102
RTVSPost2010PropOp46
 70
     1
102
RTVSPost2010Prop47
 90
       50
102
RTVSPost2010PropOp47
 70
     1
102
RTVSPost2010Prop48
 90
       50
102
RTVSPost2010PropOp48
 70
     1
102
RTVSPost2010Prop49
280
     0
102
RTVSPost2010PropOp49
 70
     1
102
RTVSPost2010Prop50
 90
       50
102
RTVSPost2010PropOp50
 70
     1
102
RTVSPost2010Prop51ColorIndex
 90
      256
102
RTVSPost2010Prop51ColorRGB
 90
-16777216
102
RTVSPost2010PropOp51
 70
     0
102
RTVSPost2010Prop52
140
1.0
102
RTVSPost2010PropOp52
 70
     0
102
RTVSPost2010Prop53
 90
        2
102
RTVSPost2010PropOp53
 70
     1
102
RTVSPost2010Prop54
  1
strokes_ogs.tif
102
RTVSPost2010PropOp54
 70
     1
102
RTVSPost2010Prop55
280
     0
102
RTVSPost2010PropOp55
 70
     1
102
RTVSPost2010Prop56
140
1.0
102
RTVSPost2010PropOp56
 70
     1
102
RTVSPost2010Prop57
140
1.0
102
RTVSPost2010PropOp57
 70
     1
102
RTVSPropertyOp0
 70
     1
102
RTVSPropertyOp1
 70
     1
102
RTVSPropertyOp2
 70
     1
102
RTVSPropertyOp3
 70
     1
102
RTVSPropertyOp4
 70
     1
102
RTVSPropertyOp5
 70
     1
102
RTVSPropertyOp6
 70
     1
102
RTVSPropertyOp7
 70
     1
102
RTVSPropertyOp8
 70
     1
102
RTVSPropertyOp9
 70
     1
102
RTVSPropertyOp10
 70
     1
102
RTVSPropertyOp11
 70
     1
102
RTVSPropertyOp12
 70
     1
102
RTVSPropertyOp13
 70
     1
102
RTVSPropertyOp14
 70
     1
102
RTVSPropertyOp15
 70
     1
102
RTVSPropertyOp16
 70
     1
102
RTVSPropertyOp17
 70
     1
102
RTVSPropertyOp18
 70
     1
102
RTVSPropertyOp19
 70
     1
102
RTVSPropertyOp20
 70
     1
102
RTVSPropertyOp21
 70
     1
102
RTVSPropertyOp22
 70
     1
102
RTVSPropertyOp23
 70
     1
102
RTVSPropertyOp24
 70
     1
102
RTVSPropertyOp25
 70
     1
102
RTVSPropertyOp26
 70
     1
102
RTVSPropertyOp27
 70
     1
102
RTVSPropertyOp28
 70
     1
102
RTVSPropertyOp29
 70
     1
102
RTVSPropertyOp30
 70
     1
102
RTVSPropertyOp31
 70
     1
102
RTVSPropertyOp32
 70
     1
102
RTVSPropertyOp33
 70
     1
102
RTVSPropertyOp34
 70
     1
102
RTVSPropertyOp35
 70
     1
102
RTVSPropertyOp36
 70
     1
102
RTVSPropertyOp37
 70
     1
102
RTVSPropertyOp38
 70
     1
102
RTVSPropertyOp39
 70
     1
102
RTVSPropertyOp40
 70
     1
102
RTVSPropertyOp41
 70
     1
102
RTVSPropertyOp42
 70
     1
102
RTVSPropertyOp43
 70
     1
102
RTVSPropertyOp44
 70
     1
102
RTVSPropertyOp45
 70
     1
102
RTVSPropertyOp46
 70
     1
102
RTVSPropertyOp47
 70
     1
102
RTVSPropertyOp48
 70
     1
102
RTVSPropertyOp49
 70
     1
102
RTVSPropertyOp50
 70
     1
102
RTVSPropertyOp51
 70
     0
102
RTVSPropertyOp52
 70
     0
102
RTVSPropertyOp53
 70
     1
102
RTVSPropertyOp54
 70
     1
102
RTVSPropertyOp55
 70
     1
102
RTVSPropertyOp56
 70
     1
102
RTVSPropertyOp57
 70
     1
102
RTVSPropertyOp58
 70
     1
102
RTVSPropertyOp59
 70
     1
102
RTVSPropertyOp60
 70
     1
102
RTVSPropertyOp61
 70
     1
102
RTVSPropertyOp62
 70
     1
  0
XRECORD
  5
AE36
102
{ACAD_REACTORS
330
AE35
102
}
330
AE35
100
AcDbXrecord
280
     1
102
RTVSPost2010Prop28
280
     0
102
RTVSPost2010PropOp28
 70
     1
102
RTVSPost2010Prop29
280
     1
102
RTVSPost2010PropOp29
 70
     1
102
RTVSPost2010Prop30
280
     1
102
RTVSPost2010PropOp30
 70
     1
102
RTVSPost2010Prop31
280
     0
102
RTVSPost2010PropOp31
 70
     1
102
RTVSPost2010Prop32
280
     0
102
RTVSPost2010PropOp32
 70
     1
102
RTVSPost2010Prop33
280
     0
102
RTVSPost2010PropOp33
 70
     1
102
RTVSPost2010Prop34
280
     0
102
RTVSPost2010PropOp34
 70
     1
102
RTVSPost2010Prop35
280
     0
102
RTVSPost2010PropOp35
 70
     1
102
RTVSPost2010Prop36
280
     0
102
RTVSPost2010PropOp36
 70
     1
102
RTVSPost2010Prop37
 90
       50
102
RTVSPost2010PropOp37
 70
     1
102
RTVSPost2010Prop38
140
0.0
102
RTVSPost2010PropOp38
 70
     1
102
RTVSPost2010Prop39
140
1.0
102
RTVSPost2010PropOp39
 70
     1
102
RTVSPost2010Prop40
 90
        0
102
RTVSPost2010PropOp40
 70
     1
102
RTVSPost2010Prop41ColorIndex
 90
       18
102
RTVSPost2010Prop41ColorRGB
 90
        0
102
RTVSPost2010PropOp41
 70
     1
102
RTVSPost2010Prop42
 90
       50
102
RTVSPost2010PropOp42
 70
     1
102
RTVSPost2010Prop43
 90
        3
102
RTVSPost2010PropOp43
 70
     1
102
RTVSPost2010Prop44ColorIndex
 90
        5
102
RTVSPost2010Prop44ColorRGB
 90
      255
102
RTVSPost2010PropOp44
 70
     1
102
RTVSPost2010Prop45
280
     0
102
RTVSPost2010PropOp45
 70
     1
102
RTVSPost2010Prop46
 90
       50
102
RTVSPost2010PropOp46
 70
     1
102
RTVSPost2010Prop47
 90
       50
102
RTVSPost2010PropOp47
 70
     1
102
RTVSPost2010Prop48
 90
       50
102
RTVSPost2010PropOp48
 70
     1
102
RTVSPost2010Prop49
280
     0
102
RTVSPost2010PropOp49
 70
     1
102
RTVSPost2010Prop50
 90
       50
102
RTVSPost2010PropOp50
 70
     1
102
RTVSPost2010Prop51ColorIndex
 90
      256
102
RTVSPost2010Prop51ColorRGB
 90
-16777216
102
RTVSPost2010PropOp51
 70
     0
102
RTVSPost2010Prop52
140
1.0
102
RTVSPost2010PropOp52
 70
     0
102
RTVSPost2010Prop53
 90
        2
102
RTVSPost2010PropOp53
 70
     1
102
RTVSPost2010Prop54
  1
strokes_ogs.tif
102
RTVSPost2010PropOp54
 70
     1
102
RTVSPost2010Prop55
280
     0
102
RTVSPost2010PropOp55
 70
     1
102
RTVSPost2010Prop56
140
1.0
102
RTVSPost2010PropOp56
 70
     1
102
RTVSPost2010Prop57
140
1.0
102
RTVSPost2010PropOp57
 70
     1
102
RTVSPropertyOp0
 70
     1
102
RTVSPropertyOp1
 70
     1
102
RTVSPropertyOp2
 70
     1
102
RTVSPropertyOp3
 70
     1
102
RTVSPropertyOp4
 70
     1
102
RTVSPropertyOp5
 70
     1
102
RTVSPropertyOp6
 70
     1
102
RTVSPropertyOp7
 70
     1
102
RTVSPropertyOp8
 70
     1
102
RTVSPropertyOp9
 70
     1
102
RTVSPropertyOp10
 70
     1
102
RTVSPropertyOp11
 70
     1
102
RTVSPropertyOp12
 70
     1
102
RTVSPropertyOp13
 70
     1
102
RTVSPropertyOp14
 70
     1
102
RTVSPropertyOp15
 70
     1
102
RTVSPropertyOp16
 70
     1
102
RTVSPropertyOp17
 70
     1
102
RTVSPropertyOp18
 70
     1
102
RTVSPropertyOp19
 70
     1
102
RTVSPropertyOp20
 70
     1
102
RTVSPropertyOp21
 70
     1
102
RTVSPropertyOp22
 70
     1
102
RTVSPropertyOp23
 70
     1
102
RTVSPropertyOp24
 70
     1
102
RTVSPropertyOp25
 70
     1
102
RTVSPropertyOp26
 70
     1
102
RTVSPropertyOp27
 70
     1
102
RTVSPropertyOp28
 70
     1
102
RTVSPropertyOp29
 70
     1
102
RTVSPropertyOp30
 70
     1
102
RTVSPropertyOp31
 70
     1
102
RTVSPropertyOp32
 70
     1
102
RTVSPropertyOp33
 70
     1
102
RTVSPropertyOp34
 70
     1
102
RTVSPropertyOp35
 70
     1
102
RTVSPropertyOp36
 70
     1
102
RTVSPropertyOp37
 70
     1
102
RTVSPropertyOp38
 70
     1
102
RTVSPropertyOp39
 70
     1
102
RTVSPropertyOp40
 70
     1
102
RTVSPropertyOp41
 70
     1
102
RTVSPropertyOp42
 70
     1
102
RTVSPropertyOp43
 70
     1
102
RTVSPropertyOp44
 70
     1
102
RTVSPropertyOp45
 70
     1
102
RTVSPropertyOp46
 70
     1
102
RTVSPropertyOp47
 70
     1
102
RTVSPropertyOp48
 70
     1
102
RTVSPropertyOp49
 70
     1
102
RTVSPropertyOp50
 70
     1
102
RTVSPropertyOp51
 70
     0
102
RTVSPropertyOp52
 70
     0
102
RTVSPropertyOp53
 70
     1
102
RTVSPropertyOp54
 70
     1
102
RTVSPropertyOp55
 70
     1
102
RTVSPropertyOp56
 70
     1
102
RTVSPropertyOp57
 70
     1
102
RTVSPropertyOp58
 70
     1
102
RTVSPropertyOp59
 70
     1
102
RTVSPropertyOp60
 70
     1
102
RTVSPropertyOp61
 70
     1
102
RTVSPropertyOp62
 70
     1
  0
ENDSEC
  0
EOF
