  0
SECTION
  2
HEADER
  9
$ACADVER
  1
AC1018
  9
$ACADMAINTVER
 70
    76
  9
$DWGCODEPAGE
  3
ANSI_932
  9
$INSBASE
 10
0.0
 20
0.0
 30
0.0
  9
$EXTMIN
 10
0.0
 20
0.0
 30
0.0
  9
$EXTMAX
 10
95.0
 20
140.0
 30
1.919191919191921
  9
$LIMMIN
 10
0.0
 20
0.0
  9
$LIMMAX
 10
420.0
 20
297.0
  9
$ORTHOMODE
 70
     1
  9
$REGENMODE
 70
     1
  9
$FILLMODE
 70
     1
  9
$QTEXTMODE
 70
     0
  9
$MIRRTEXT
 70
     1
  9
$LTSCALE
 40
1.0
  9
$ATTMODE
 70
     1
  9
$TEXTSIZE
 40
1.25
  9
$TRACEWID
 40
1.0
  9
$TEXTSTYLE
  7
TXT
  9
$CLAYER
  8
mark
  9
$CELTYPE
  6
BYLAYER
  9
$CECOLOR
 62
   256
  9
$CELTSCALE
 40
1.0
  9
$DISPSILH
 70
     0
  9
$DIMSCALE
 40
1.0
  9
$DIMASZ
 40
1.25
  9
$DIMEXO
 40
0.4
  9
$DIMDLI
 40
0.38
  9
$DIMRND
 40
0.0
  9
$DIMDLE
 40
0.0
  9
$DIMEXE
 40
0.4
  9
$DIMTP
 40
0.0
  9
$DIMTM
 40
0.0
  9
$DIMTXT
 40
1.25
  9
$DIMCEN
 40
0.09
  9
$DIMTSZ
 40
0.0
  9
$DIMTOL
 70
     0
  9
$DIMLIM
 70
     0
  9
$DIMTIH
 70
     0
  9
$DIMTOH
 70
     0
  9
$DIMSE1
 70
     0
  9
$DIMSE2
 70
     0
  9
$DIMTAD
 70
     3
  9
$DIMZIN
 70
     8
  9
$DIMBLK
  1
Open30
  9
$DIMASO
 70
     1
  9
$DIMSHO
 70
     1
  9
$DIMPOST
  1

  9
$DIMAPOST
  1

  9
$DIMALT
 70
     0
  9
$DIMALTD
 70
     2
  9
$DIMALTF
 40
25.4
  9
$DIMLFAC
 40
1.0
  9
$DIMTOFL
 70
     1
  9
$DIMTVP
 40
0.0
  9
$DIMTIX
 70
     0
  9
$DIMSOXD
 70
     0
  9
$DIMSAH
 70
     0
  9
$DIMBLK1
  1

  9
$DIMBLK2
  1

  9
$DIMSTYLE
  2
STANDARD
  9
$DIMCLRD
 70
   256
  9
$DIMCLRE
 70
   256
  9
$DIMCLRT
 70
     3
  9
$DIMTFAC
 40
1.0
  9
$DIMGAP
 40
0.4
  9
$DIMJUST
 70
     0
  9
$DIMSD1
 70
     0
  9
$DIMSD2
 70
     0
  9
$DIMTOLJ
 70
     1
  9
$DIMTZIN
 70
     0
  9
$DIMALTZ
 70
     0
  9
$DIMALTTZ
 70
     0
  9
$DIMUPT
 70
     0
  9
$DIMDEC
 70
     2
  9
$DIMTDEC
 70
     2
  9
$DIMALTU
 70
     2
  9
$DIMALTTD
 70
     2
  9
$DIMTXSTY
  7
STANDARD
  9
$DIMAUNIT
 70
     0
  9
$DIMADEC
 70
     2
  9
$DIMALTRND
 40
0.0
  9
$DIMAZIN
 70
     2
  9
$DIMDSEP
 70
    46
  9
$DIMATFIT
 70
     3
  9
$DIMFRAC
 70
     0
  9
$DIMLDRBLK
  1
Open30
  9
$DIMLUNIT
 70
     2
  9
$DIMLWD
 70
    -2
  9
$DIMLWE
 70
    -2
  9
$DIMTMOVE
 70
     0
  9
$LUNITS
 70
     2
  9
$LUPREC
 70
     2
  9
$SKETCHINC
 40
1.0
  9
$FILLETRAD
 40
1.0
  9
$AUNITS
 70
     0
  9
$AUPREC
 70
     2
  9
$MENU
  1
.
  9
$ELEVATION
 40
0.0
  9
$PELEVATION
 40
0.0
  9
$THICKNESS
 40
0.0
  9
$LIMCHECK
 70
     0
  9
$CHAMFERA
 40
0.5
  9
$CHAMFERB
 40
0.5
  9
$CHAMFERC
 40
1.75
  9
$CHAMFERD
 40
0.0174532925199433
  9
$SKPOLY
 70
     0
  9
$TDCREATE
 40
2451555.620234838
  9
$TDUCREATE
 40
2451555.245234838
  9
$TDUPDATE
 40
2455846.616911980
  9
$TDUUPDATE
 40
2455846.241911979
  9
$TDINDWG
 40
2.5448401042
  9
$TDUSRTIMER
 40
2.5448401042
  9
$USRTIMER
 70
     1
  9
$ANGBASE
 50
0.0
  9
$ANGDIR
 70
     0
  9
$PDMODE
 70
     0
  9
$PDSIZE
 40
0.0
  9
$PLINEWID
 40
0.0
  9
$SPLFRAME
 70
     0
  9
$SPLINETYPE
 70
     6
  9
$SPLINESEGS
 70
     8
  9
$HANDSEED
  5
9C02
  9
$SURFTAB1
 70
     6
  9
$SURFTAB2
 70
     6
  9
$SURFTYPE
 70
     6
  9
$SURFU
 70
     6
  9
$SURFV
 70
     6
  9
$UCSBASE
  2

  9
$UCSNAME
  2

  9
$UCSORG
 10
0.0
 20
0.0
 30
0.0
  9
$UCSXDIR
 10
1.0
 20
0.0
 30
0.0
  9
$UCSYDIR
 10
0.0
 20
1.0
 30
0.0
  9
$UCSORTHOREF
  2

  9
$UCSORTHOVIEW
 70
     0
  9
$UCSORGTOP
 10
0.0
 20
0.0
 30
0.0
  9
$UCSORGBOTTOM
 10
0.0
 20
0.0
 30
0.0
  9
$UCSORGLEFT
 10
0.0
 20
0.0
 30
0.0
  9
$UCSORGRIGHT
 10
0.0
 20
0.0
 30
0.0
  9
$UCSORGFRONT
 10
0.0
 20
0.0
 30
0.0
  9
$UCSORGBACK
 10
0.0
 20
0.0
 30
0.0
  9
$PUCSBASE
  2

  9
$PUCSNAME
  2

  9
$PUCSORG
 10
0.0
 20
0.0
 30
0.0
  9
$PUCSXDIR
 10
1.0
 20
0.0
 30
0.0
  9
$PUCSYDIR
 10
0.0
 20
1.0
 30
0.0
  9
$PUCSORTHOREF
  2

  9
$PUCSORTHOVIEW
 70
     0
  9
$PUCSORGTOP
 10
0.0
 20
0.0
 30
0.0
  9
$PUCSORGBOTTOM
 10
0.0
 20
0.0
 30
0.0
  9
$PUCSORGLEFT
 10
0.0
 20
0.0
 30
0.0
  9
$PUCSORGRIGHT
 10
0.0
 20
0.0
 30
0.0
  9
$PUCSORGFRONT
 10
0.0
 20
0.0
 30
0.0
  9
$PUCSORGBACK
 10
0.0
 20
0.0
 30
0.0
  9
$USERI1
 70
     0
  9
$USERI2
 70
     0
  9
$USERI3
 70
     0
  9
$USERI4
 70
     0
  9
$USERI5
 70
     0
  9
$USERR1
 40
0.0
  9
$USERR2
 40
0.0
  9
$USERR3
 40
0.0
  9
$USERR4
 40
0.0
  9
$USERR5
 40
0.0
  9
$WORLDVIEW
 70
     1
  9
$SHADEDGE
 70
     3
  9
$SHADEDIF
 70
    70
  9
$TILEMODE
 70
     1
  9
$MAXACTVP
 70
    48
  9
$PINSBASE
 10
0.0
 20
0.0
 30
0.0
  9
$PLIMCHECK
 70
     0
  9
$PEXTMIN
 10
1.000000000000000E+20
 20
1.000000000000000E+20
 30
1.000000000000000E+20
  9
$PEXTMAX
 10
-1.000000000000000E+20
 20
-1.000000000000000E+20
 30
-1.000000000000000E+20
  9
$PLIMMIN
 10
0.0
 20
0.0
  9
$PLIMMAX
 10
420.0
 20
297.0
  9
$UNITMODE
 70
     0
  9
$VISRETAIN
 70
     1
  9
$PLINEGEN
 70
     0
  9
$PSLTSCALE
 70
     1
  9
$TREEDEPTH
 70
  3020
  9
$CMLSTYLE
  2
STANDARD
  9
$CMLJUST
 70
     0
  9
$CMLSCALE
 40
20.0
  9
$PROXYGRAPHICS
 70
     1
  9
$MEASUREMENT
 70
     1
  9
$CELWEIGHT
370
    -1
  9
$ENDCAPS
280
     0
  9
$JOINSTYLE
280
     0
  9
$LWDISPLAY
290
     0
  9
$INSUNITS
 70
     0
  9
$HYPERLINKBASE
  1

  9
$STYLESHEET
  1
monochrome.ctb
  9
$XEDIT
290
     1
  9
$CEPSNTYPE
380
     0
  9
$PSTYLEMODE
290
     1
  9
$FINGERPRINTGUID
  2
{1CF51E8A-A506-11D4-A7D9-AF69F5C20846}
  9
$VERSIONGUID
  2
{E9C8293A-E5AC-4B53-A7F3-4CBFB894B906}
  9
$EXTNAMES
290
     1
  9
$PSVPSCALE
 40
0.0
  9
$OLESTARTUP
290
     0
  9
$SORTENTS
280
   127
  9
$INDEXCTL
280
     0
  9
$HIDETEXT
280
     0
  9
$XCLIPFRAME
290
     0
  9
$HALOGAP
280
     0
  9
$OBSCOLOR
 70
   257
  9
$OBSLTYPE
280
     0
  9
$INTERSECTIONDISPLAY
280
     0
  9
$INTERSECTIONCOLOR
 70
   257
  9
$DIMASSOC
280
     1
  9
$PROJECTNAME
  1

  0
ENDSEC
  0
SECTION
  2
CLASSES
  0
CLASS
  1
DICTIONARYVAR
  2
AcDbDictionaryVar
  3
ObjectDBX Classes
 90
        0
 91
        2
280
     0
281
     0
  0
CLASS
  1
SORTENTSTABLE
  2
AcDbSortentsTable
  3
ObjectDBX Classes
 90
        0
 91
        1
280
     0
281
     0
  0
CLASS
  1
ACDBDICTIONARYWDFLT
  2
AcDbDictionaryWithDefault
  3
ObjectDBX Classes
 90
        0
 91
        1
280
     0
281
     0
  0
CLASS
  1
TABLESTYLE
  2
AcDbTableStyle
  3
ObjectDBX Classes
 90
     2047
 91
        1
280
     0
281
     0
  0
ENDSEC
  0
SECTION
  2
TABLES
  0
TABLE
  2
VPORT
  5
8
330
0
100
AcDbSymbolTable
 70
     2
  0
VPORT
  5
9C01
330
8
100
AcDbSymbolTableRecord
100
AcDbViewportTableRecord
  2
*Active
 70
     0
 10
0.0
 20
0.0
 11
1.0
 21
1.0
 12
122.9885538158435
 22
70.00219436736376
 13
0.0
 23
0.0
 14
10.0
 24
10.0
 15
10.0
 25
10.0
 16
0.0
 26
0.0
 36
1.0
 17
0.0
 27
0.0
 37
0.0
 40
141.7231840113913
 41
2.47104247104247
 42
50.0
 43
0.0
 44
0.0
 50
0.0
 51
0.0
 71
     0
 72
 20000
 73
     1
 74
     1
 75
     0
 76
     0
 77
     0
 78
     0
281
     0
 65
     1
110
0.0
120
0.0
130
0.0
111
1.0
121
0.0
131
0.0
112
0.0
122
1.0
132
0.0
 79
     0
146
0.0
  0
ENDTAB
  0
TABLE
  2
LTYPE
  5
5
330
0
100
AcDbSymbolTable
 70
     7
  0
LTYPE
  5
12
330
5
100
AcDbSymbolTableRecord
100
AcDbLinetypeTableRecord
  2
BYBLOCK
 70
     0
  3

 72
    65
 73
     0
 40
0.0
  0
LTYPE
  5
13
330
5
100
AcDbSymbolTableRecord
100
AcDbLinetypeTableRecord
  2
BYLAYER
 70
     0
  3

 72
    65
 73
     0
 40
0.0
  0
LTYPE
  5
14
330
5
100
AcDbSymbolTableRecord
100
AcDbLinetypeTableRecord
  2
CONTINUOUS
 70
     0
  3
Solid line
 72
    65
 73
     0
 40
0.0
  0
LTYPE
  5
9D
330
5
100
AcDbSymbolTableRecord
100
AcDbLinetypeTableRecord
  2
CENTERX2
 70
     0
  3
Center (2x) ________  __  ________  __  _____
 72
    65
 73
     4
 40
101.6
 49
63.5
 74
     0
 49
-12.7
 74
     0
 49
12.7
 74
     0
 49
-12.7
 74
     0
  0
LTYPE
  5
A1
330
5
100
AcDbSymbolTableRecord
100
AcDbLinetypeTableRecord
  2
DASHED
 70
     0
  3
Dashed __ __ __ __ __ __ __ __ __ __ __ __ __ _
 72
    65
 73
     2
 40
19.05
 49
12.7
 74
     0
 49
-6.349999999999999
 74
     0
  0
LTYPE
  5
A2
330
5
100
AcDbSymbolTableRecord
100
AcDbLinetypeTableRecord
  2
DASHED2
 70
     0
  3
Dashed (.5x) _ _ _ _ _ _ _ _ _ _ _ _ _ _ _ _ _
 72
    65
 73
     2
 40
9.524999999999998
 49
6.349999999999999
 74
     0
 49
-3.174999999999999
 74
     0
  0
LTYPE
  5
A5
330
5
100
AcDbSymbolTableRecord
100
AcDbLinetypeTableRecord
  2
DIVIDE2
 70
     0
  3
Divide (.5x) __..__..__..__..__..__..__..__.._
 72
    65
 73
     6
 40
15.875
 49
6.349999999999999
 74
     0
 49
-3.174999999999999
 74
     0
 49
0.0
 74
     0
 49
-3.174999999999999
 74
     0
 49
0.0
 74
     0
 49
-3.174999999999999
 74
     0
  0
LTYPE
  5
650B
330
5
100
AcDbSymbolTableRecord
100
AcDbLinetypeTableRecord
  2
CENTER
 70
     0
  3
Center ____ _ ____ _ ____ _ ____ _ ____ _ ____
 72
    65
 73
     4
 40
50.8
 49
31.75
 74
     0
 49
-6.349999999999999
 74
     0
 49
6.349999999999999
 74
     0
 49
-6.349999999999999
 74
     0
  0
LTYPE
  5
650C
330
5
100
AcDbSymbolTableRecord
100
AcDbLinetypeTableRecord
  2
HIDDEN
 70
     0
  3
Hidden __ __ __ __ __ __ __ __ __ __ __ __ __ _
 72
    65
 73
     2
 40
9.524999999999998
 49
6.349999999999999
 74
     0
 49
-3.174999999999999
 74
     0
  0
ENDTAB
  0
TABLE
  2
LAYER
  5
2
102
{ACAD_XDICTIONARY
360
7BFE
102
}
330
0
100
AcDbSymbolTable
 70
     9
  0
LAYER
  5
E
330
2
100
AcDbSymbolTableRecord
100
AcDbLayerTableRecord
  2
0
 70
     0
 62
     7
  6
CONTINUOUS
370
    -3
390
5CF2
  0
LAYER
  5
B9
330
2
100
AcDbSymbolTableRecord
100
AcDbLayerTableRecord
  2
dim
 70
     0
 62
     3
  6
CONTINUOUS
370
    -3
390
5CF2
  0
LAYER
  5
F2
330
2
100
AcDbSymbolTableRecord
100
AcDbLayerTableRecord
  2
DEFPOINTS
 70
     0
 62
     4
  6
CONTINUOUS
290
     0
370
    -3
390
5CF2
  0
LAYER
  5
5F8B
330
2
100
AcDbSymbolTableRecord
100
AcDbLayerTableRecord
  2
mark
 70
     0
 62
     6
  6
CONTINUOUS
370
    -3
390
5CF2
  0
LAYER
  5
644E
330
2
100
AcDbSymbolTableRecord
100
AcDbLayerTableRecord
  2
frame
 70
     0
 62
     9
  6
CONTINUOUS
370
    -3
390
5CF2
  0
LAYER
  5
650D
330
2
100
AcDbSymbolTableRecord
100
AcDbLayerTableRecord
  2
center
 70
     0
 62
     1
  6
CENTER
370
    -3
390
5CF2
  0
LAYER
  5
650E
330
2
100
AcDbSymbolTableRecord
100
AcDbLayerTableRecord
  2
bowle
 70
     0
 62
     4
  6
HIDDEN
370
    -3
390
5CF2
  0
LAYER
  5
650F
330
2
100
AcDbSymbolTableRecord
100
AcDbLayerTableRecord
  2
contour
 70
     0
 62
     2
  6
CONTINUOUS
370
    -3
390
5CF2
  0
LAYER
  5
6510
330
2
100
AcDbSymbolTableRecord
100
AcDbLayerTableRecord
  2
section
 70
     0
 62
     5
  6
CONTINUOUS
370
    -3
390
5CF2
  0
ENDTAB
  0
TABLE
  2
STYLE
  5
3
330
0
100
AcDbSymbolTable
 70
     5
  0
STYLE
  5
F
330
3
100
AcDbSymbolTableRecord
100
AcDbTextStyleTableRecord
  2
STANDARD
 70
     0
 40
0.0
 41
1.0
 50
0.0
 71
     0
 42
2.5
  3
txt
  4

  0
STYLE
  5
BE
330
3
100
AcDbSymbolTableRecord
100
AcDbTextStyleTableRecord
  2
ISOCP3
 70
     0
 40
0.0
 41
1.0
 50
0.0
 71
     0
 42
2.5
  3
isocp3.shx
  4

  0
STYLE
  5
2A37
330
3
100
AcDbSymbolTableRecord
100
AcDbTextStyleTableRecord
  2
TXT
 70
     0
 40
0.0
 41
1.0
 50
0.0
 71
     0
 42
1.25
  3
txt.shx
  4
bigfont.shx
  0
STYLE
  5
5DCB
330
3
100
AcDbSymbolTableRecord
100
AcDbTextStyleTableRecord
  2
LKK
 70
     0
 40
50.0
 41
1.5
 50
0.0
 71
     0
 42
50.0
  3
MS PGothic.ttf
  4

1001
ACAD
1000
MS PGothic
1071
    32818
  0
STYLE
  5
5DCC
330
3
100
AcDbSymbolTableRecord
100
AcDbTextStyleTableRecord
  2
JL
 70
     0
 40
10.0
 41
0.5
 50
0.0
 71
     0
 42
5.0
  3
MS Mincho.ttf
  4

1001
ACAD
1000
MS Mincho
1071
    32785
  0
ENDTAB
  0
TABLE
  2
VIEW
  5
6
330
0
100
AcDbSymbolTable
 70
     0
  0
ENDTAB
  0
TABLE
  2
UCS
  5
7
330
0
100
AcDbSymbolTable
 70
     0
  0
ENDTAB
  0
TABLE
  2
APPID
  5
9
330
0
100
AcDbSymbolTable
 70
    11
  0
APPID
  5
10
330
9
100
AcDbSymbolTableRecord
100
AcDbRegAppTableRecord
  2
ACAD
 70
     0
  0
APPID
  5
7C91
330
9
100
AcDbSymbolTableRecord
100
AcDbRegAppTableRecord
  2
ACAD_DSTYLE_DIMEXT_LENGTH
 70
     0
  0
APPID
  5
7C92
330
9
100
AcDbSymbolTableRecord
100
AcDbRegAppTableRecord
  2
ACAD_DSTYLE_DIMEXT_ENABLED
 70
     0
  0
APPID
  5
7C93
330
9
100
AcDbSymbolTableRecord
100
AcDbRegAppTableRecord
  2
ACAD_DSTYLE_DIMJOGGED_JOGANGLE_SYMBOL
 70
     0
  0
APPID
  5
7C94
330
9
100
AcDbSymbolTableRecord
100
AcDbRegAppTableRecord
  2
ACAD_DSTYLE_DIMARC_LENGTH_SYMBOL
 70
     0
  0
APPID
  5
7F1C
330
9
100
AcDbSymbolTableRecord
100
AcDbRegAppTableRecord
  2
ACAD_EXEMPT_FROM_CAD_STANDARDS
 70
     0
  0
APPID
  5
7F49
330
9
100
AcDbSymbolTableRecord
100
AcDbRegAppTableRecord
  2
ACAD_DSTYLE_DIMTEXT_FILL
 70
     0
  0
APPID
  5
7F4C
330
9
100
AcDbSymbolTableRecord
100
AcDbRegAppTableRecord
  2
ACAD_DSTYLE_DIM_LINETYPE
 70
     0
  0
APPID
  5
7F4D
330
9
100
AcDbSymbolTableRecord
100
AcDbRegAppTableRecord
  2
ACAD_DSTYLE_DIM_EXT1_LINETYPE
 70
     0
  0
APPID
  5
7F4E
330
9
100
AcDbSymbolTableRecord
100
AcDbRegAppTableRecord
  2
ACAD_DSTYLE_DIM_EXT2_LINETYPE
 70
     0
  0
APPID
  5
8C73
330
9
100
AcDbSymbolTableRecord
100
AcDbRegAppTableRecord
  2
ACAD_PSEXT
 70
     0
  0
ENDTAB
  0
TABLE
  2
DIMSTYLE
  5
A
330
0
100
AcDbSymbolTable
 70
     2
100
AcDbDimStyleTable
 71
     1
340
1D
  0
DIMSTYLE
105
1D
102
{ACAD_REACTORS
330
9827
330
982E
330
98B2
330
98BF
330
98EB
330
995F
330
9983
330
9A28
102
}
330
A
100
AcDbSymbolTableRecord
100
AcDbDimStyleTableRecord
  2
STANDARD
 70
     0
 41
1.25
 42
0.4
 44
0.4
 73
     0
 74
     0
 77
     3
 78
     8
 79
     2
140
1.25
147
0.4
172
     1
176
   256
177
   256
178
     3
179
     2
271
     2
272
     2
340
F
341
7C04
342
7C04
1001
ACAD_DSTYLE_DIMEXT_LENGTH
1070
   378
1040
0.18
1001
ACAD_DSTYLE_DIMEXT_ENABLED
1070
   383
1070
     0
1001
ACAD_DSTYLE_DIMARC_LENGTH_SYMBOL
1070
   379
1070
     0
1001
ACAD_DSTYLE_DIMJOGGED_JOGANGLE_SYMBOL
1070
   384
1040
1.570796326794896
  0
DIMSTYLE
105
9B78
330
A
100
AcDbSymbolTableRecord
100
AcDbDimStyleTableRecord
  2
A
 70
     0
 41
1.25
 42
1.0
 43
3.0
 44
1.0
 73
     0
 74
     0
 77
     3
 78
     8
140
1.75
141
0.0
147
0.5
176
     6
177
     6
178
     3
271
     1
272
     1
279
     1
340
2A37
  0
ENDTAB
  0
TABLE
  2
BLOCK_RECORD
  5
1
330
0
100
AcDbSymbolTable
 70
    12
  0
BLOCK_RECORD
  5
18
102
{ACAD_XDICTIONARY
360
45F
102
}
330
1
100
AcDbSymbolTableRecord
100
AcDbBlockTableRecord
  2
*MODEL_SPACE
340
5CF5
  0
BLOCK_RECORD
  5
15
102
{ACAD_XDICTIONARY
360
5D89
102
}
330
1
100
AcDbSymbolTableRecord
100
AcDbBlockTableRecord
  2
*PAPER_SPACE
340
5CF6
  0
BLOCK_RECORD
  5
639D
330
1
100
AcDbSymbolTableRecord
100
AcDbBlockTableRecord
  2
A$C255C26A2
340
0
  0
BLOCK_RECORD
  5
7C04
330
1
100
AcDbSymbolTableRecord
100
AcDbBlockTableRecord
  2
_Open30
340
0
102
{BLKREFS
331
9A41
331
9A42
331
9A4A
331
9A4B
331
9A55
331
9A56
331
9A5E
331
9A5F
331
9A67
331
9A68
331
9A70
331
9ADD
331
9ADE
331
9B1F
331
9B20
102
}
  0
BLOCK_RECORD
  5
7C0A
102
{ACAD_XDICTIONARY
360
7C0B
102
}
330
1
100
AcDbSymbolTableRecord
100
AcDbBlockTableRecord
  2
A
340
0
310
2800000020000000200000000100080000000000000400000000000000000000000000000000000000000000000080000080000000808000800000008000800080800000C0C0C000C0DCC000F0CAA6000020400000206000002080000020A0000020C0000020E00000400000004020000040400000406000004080000040A0
310
000040C0000040E00000600000006020000060400000606000006080000060A0000060C0000060E00000800000008020000080400000806000008080000080A0000080C0000080E00000A0000000A0200000A0400000A0600000A0800000A0A00000A0C00000A0E00000C0000000C0200000C0400000C0600000C0800000C0
310
A00000C0C00000C0E00000E0000000E0200000E0400000E0600000E0800000E0A00000E0C00000E0E00040000000400020004000400040006000400080004000A0004000C0004000E00040200000402020004020400040206000402080004020A0004020C0004020E000404000004040200040404000404060004040800040
310
40A0004040C0004040E00040600000406020004060400040606000406080004060A0004060C0004060E00040800000408020004080400040806000408080004080A0004080C0004080E00040A0000040A0200040A0400040A0600040A0800040A0A00040A0C00040A0E00040C0000040C0200040C0400040C0600040C08000
310
40C0A00040C0C00040C0E00040E0000040E0200040E0400040E0600040E0800040E0A00040E0C00040E0E00080000000800020008000400080006000800080008000A0008000C0008000E00080200000802020008020400080206000802080008020A0008020C0008020E00080400000804020008040400080406000804080
310
008040A0008040C0008040E00080600000806020008060400080606000806080008060A0008060C0008060E00080800000808020008080400080806000808080008080A0008080C0008080E00080A0000080A0200080A0400080A0600080A0800080A0A00080A0C00080A0E00080C0000080C0200080C0400080C0600080C0
310
800080C0A00080C0C00080C0E00080E0000080E0200080E0400080E0600080E0800080E0A00080E0C00080E0E000C0000000C0002000C0004000C0006000C0008000C000A000C000C000C000E000C0200000C0202000C0204000C0206000C0208000C020A000C020C000C020E000C0400000C0402000C0404000C0406000C0
310
408000C040A000C040C000C040E000C0600000C0602000C0604000C0606000C0608000C060A000C060C000C060E000C0800000C0802000C0804000C0806000C0808000C080A000C080C000C080E000C0A00000C0A02000C0A04000C0A06000C0A08000C0A0A000C0A0C000C0A0E000C0C00000C0C02000C0C04000C0C06000
310
C0C08000C0C0A000F0FBFF00A4A0A000808080000000FF0000FF000000FFFF00FF000000FF00FF00FFFF0000FFFFFF0000000000000000000000000000000000000000000000000000000000000000000000000000000000000000000000000000000000000000000000000000000000000000000000000000000000000000
310
00000000000000000000000000000000000000000000000000000000000000000000000000000000000000000000000000000000000000000000000000000000000000000000000000000000000000000000000000000000000000000000000000000000000000000000000000000000000000000000000000000000000000
310
00000000000000000000000000000000000000000000000000000000000000000000000000000000000000000000000000000000000000000000000000000000000000000000000000000000000000000000000000000000000000000000000000000000000000000000000000000000000000000000000000000000000000
310
000000000000FDFDFDFDFDFDFDFDFDFDFDFD0000FD0000000000000000000000000000000000FD0000FA0000000000FA00FD0000FDFD00000000000000000000000000000000FD0000FA0000000000FA00FD0000FDFDFD000000000000000000000000000000FD0000FA0000000000FA00FD0000FDFDFDFD00000000000000
310
00000000000000FD0000FAFAFAFAFAFAFA00FD0000FDFDFDFDFD00000000000000000000000000FD000000FA00000000FA00FD0000FDFDFDFDFDFDFDFDFDFDFDFDFDFDFDFDFDFDFD000000FA000000FA0000FD0000FDFDFDFDFD00000000000000000000000000FD00000000FA0000FA0000FD0000FDFDFDFD000000000000
310
0000000000000000FD00000000FA00FA000000FD0000FDFD00000000000000000000000000000000FD0000000000FAFA000000FD0000FD0000000000000000000000000000000000FD0000000000FA00000000FD0000000000000000000000000000000000000000FDFDFDFDFDFDFDFDFDFDFDFD0000000000000000000000
310
00000000000000000000000000000000000000000000000000000000000000000000000000000000000000000000000000000000000000000000000000000000000000000000000000000000000000000000000000000000000000000000000000000000000000000000000000000000000000000000000000000000000000
310
00000000000000000000000000000000000000000000000000000000000000000000000000000000000000000000000000000000000000000000000000000000000000000000000000000000000000000000000000000000000000000000000000000000000000000000000000000000000000000000000000000000000000
310
0000000000000000000000000000000000000000000000000000000000000000000000000000000000000000000000000000000000000000
  0
BLOCK_RECORD
  5
8E72
102
{ACAD_XDICTIONARY
360
8E73
102
}
330
1
100
AcDbSymbolTableRecord
100
AcDbBlockTableRecord
  2
LS
340
0
310
2800000020000000200000000100080000000000000400000000000000000000000000000000000000000000000080000080000000808000800000008000800080800000C0C0C000C0DCC000F0CAA6000020400000206000002080000020A0000020C0000020E00000400000004020000040400000406000004080000040A0
310
000040C0000040E00000600000006020000060400000606000006080000060A0000060C0000060E00000800000008020000080400000806000008080000080A0000080C0000080E00000A0000000A0200000A0400000A0600000A0800000A0A00000A0C00000A0E00000C0000000C0200000C0400000C0600000C0800000C0
310
A00000C0C00000C0E00000E0000000E0200000E0400000E0600000E0800000E0A00000E0C00000E0E00040000000400020004000400040006000400080004000A0004000C0004000E00040200000402020004020400040206000402080004020A0004020C0004020E000404000004040200040404000404060004040800040
310
40A0004040C0004040E00040600000406020004060400040606000406080004060A0004060C0004060E00040800000408020004080400040806000408080004080A0004080C0004080E00040A0000040A0200040A0400040A0600040A0800040A0A00040A0C00040A0E00040C0000040C0200040C0400040C0600040C08000
310
40C0A00040C0C00040C0E00040E0000040E0200040E0400040E0600040E0800040E0A00040E0C00040E0E00080000000800020008000400080006000800080008000A0008000C0008000E00080200000802020008020400080206000802080008020A0008020C0008020E00080400000804020008040400080406000804080
310
008040A0008040C0008040E00080600000806020008060400080606000806080008060A0008060C0008060E00080800000808020008080400080806000808080008080A0008080C0008080E00080A0000080A0200080A0400080A0600080A0800080A0A00080A0C00080A0E00080C0000080C0200080C0400080C0600080C0
310
800080C0A00080C0C00080C0E00080E0000080E0200080E0400080E0600080E0800080E0A00080E0C00080E0E000C0000000C0002000C0004000C0006000C0008000C000A000C000C000C000E000C0200000C0202000C0204000C0206000C0208000C020A000C020C000C020E000C0400000C0402000C0404000C0406000C0
310
408000C040A000C040C000C040E000C0600000C0602000C0604000C0606000C0608000C060A000C060C000C060E000C0800000C0802000C0804000C0806000C0808000C080A000C080C000C080E000C0A00000C0A02000C0A04000C0A06000C0A08000C0A0A000C0A0C000C0A0E000C0C00000C0C02000C0C04000C0C06000
310
C0C08000C0C0A000F0FBFF00A4A0A000808080000000FF0000FF000000FFFF00FF000000FF00FF00FFFF0000FFFFFF00000000000000000000000000000000000000000000000000000000000000000000000000000000000000FBFBFEFBFEFBFBFEFBFEFBFB00000000000000000000000000000000000000FBFBFBFEFBFE
310
FBFBFEFBFEFBFBFB000000000000000000000000000000000000FB0000FE00FE0000FE00FE0000FB000000000000000000000000000000000000FB0000FE00FE0000FE00FE0000FB000000000000000000000000000000000000FB0000FEFEFEFEFEFEFEFE0000FB000000000000000000000000000000000000FB000000FE
310
FE0000FEFE000000FB000000000000000000000000000000000000FB0000000000FEFE0000000000FB000000000000000000000000000000000000FBFBFBFEFBFBFBFBFBFBFEFBFBFB000000000000000000000000000000000000000000FBFE0000000000FE000000000000000000000000000000000000000000000000FB
310
FBFBFBFBFBFEFB000000000000000000000000000000000000000000000000FBFE00000000FEFB000000000000000000000000000000000000000000000000FBFE00000000FEFB000000000000000000000000000000000000000000000000FBFE00000000FEFB000000000000000000000000000000000000000000000000
310
FBFE00000000FEFB000000000000000000000000000000000000000000000000FBFE00000000FEFB000000000000000000000000000000000000000000000000FBFE00000000FEFB000000000000000000000000000000000000000000000000FBFE00000000FEFB0000000000000000000000000000000000000000000000
310
00FBFE00000000FEFB000000000000000000000000000000000000000000000000FBFE00000000FEFB000000000000000000000000000000000000000000000000FBFE00000000FEFB000000000000000000000000000000000000000000000000FBFE00000000FEFB00000000000000000000000000000000000000000000
310
0000FBFE00000000FEFB000000000000000000000000000000000000000000000000FBFE00000000FEFB000000000000000000000000000000000000000000000000FBFE00000000FEFB000000000000000000000000000000000000000000000000FBFE00000000FEFB000000000000000000000000000000000000000000
310
000000FBFE00000000FEFB000000000000000000000000000000000000000000000000FBFE00000000FEFB000000000000000000000000000000000000000000000000FBFEFBFBFBFBFEFB00000000000000000000000000000000000000000000000000FE00000000FEFB0000000000000000000000000000000000000000
310
0000000000FBFBFBFBFBFB000000000000000000000000000000000000000000000000000000000000000000000000000000000000000000
102
{BLKREFS
331
9811
102
}
  0
BLOCK_RECORD
  5
9847
330
1
100
AcDbSymbolTableRecord
100
AcDbBlockTableRecord
  2
*D4
340
0
  0
BLOCK_RECORD
  5
9853
330
1
100
AcDbSymbolTableRecord
100
AcDbBlockTableRecord
  2
*D5
340
0
  0
BLOCK_RECORD
  5
98B3
330
1
100
AcDbSymbolTableRecord
100
AcDbBlockTableRecord
  2
*D6
340
0
  0
BLOCK_RECORD
  5
98C0
330
1
100
AcDbSymbolTableRecord
100
AcDbBlockTableRecord
  2
*D7
340
0
  0
BLOCK_RECORD
  5
98EC
330
1
100
AcDbSymbolTableRecord
100
AcDbBlockTableRecord
  2
*D8
340
0
  0
BLOCK_RECORD
  5
9960
330
1
100
AcDbSymbolTableRecord
100
AcDbBlockTableRecord
  2
*D9
340
0
  0
BLOCK_RECORD
  5
9984
330
1
100
AcDbSymbolTableRecord
100
AcDbBlockTableRecord
  2
*D10
340
0
  0
BLOCK_RECORD
  5
9A29
330
1
100
AcDbSymbolTableRecord
100
AcDbBlockTableRecord
  2
*D11
340
0
  0
ENDTAB
  0
ENDSEC
  0
SECTION
  2
BLOCKS
  0
BLOCK
  5
19
330
18
100
AcDbEntity
  8
0
100
AcDbBlockBegin
  2
*MODEL_SPACE
 70
     0
 10
0.0
 20
0.0
 30
0.0
  3
*MODEL_SPACE
  1

  0
ENDBLK
  5
1A
330
18
100
AcDbEntity
  8
0
100
AcDbBlockEnd
  0
BLOCK
  5
16
330
15
100
AcDbEntity
 67
     1
  8
0
100
AcDbBlockBegin
  2
*PAPER_SPACE
 70
     0
 10
0.0
 20
0.0
 30
0.0
  3
*PAPER_SPACE
  1

  0
ENDBLK
  5
17
330
15
100
AcDbEntity
 67
     1
  8
0
100
AcDbBlockEnd
  0
BLOCK
  5
63A1
330
639D
100
AcDbEntity
  8
0
100
AcDbBlockBegin
  2
A$C255C26A2
 70
     0
 10
0.0
 20
0.0
 30
0.0
  3
A$C255C26A2
  1

  0
LWPOLYLINE
  5
639E
330
639D
100
AcDbEntity
  8
0
100
AcDbPolyline
 90
        3
 70
     1
 43
0.0
 10
7.014806023851633
 20
0.0000006939811783
 10
5.611844869720698
 20
2.430000693981241
 10
8.417767177982568
 20
2.430000693981241
  0
LWPOLYLINE
  5
639F
330
639D
100
AcDbEntity
  8
0
100
AcDbPolyline
 90
        3
 70
     1
 43
0.0
 10
4.20888371558999
 20
0.0000006939811783
 10
2.805922561459283
 20
2.430000693981241
 10
5.611844869720698
 20
2.430000693981241
  0
LWPOLYLINE
  5
63A0
330
639D
100
AcDbEntity
  8
0
100
AcDbPolyline
 90
        3
 70
     1
 43
0.0
 10
1.402961407328348
 20
0.0000006939811783
 10
0.0000002531974133
 20
2.430000693981241
 10
2.805922561459283
 20
2.430000693981241
  0
ENDBLK
  5
63A2
330
639D
100
AcDbEntity
  8
0
100
AcDbBlockEnd
  0
BLOCK
  5
7C05
330
7C04
100
AcDbEntity
  8
0
100
AcDbBlockBegin
  2
_Open30
 70
     0
 10
0.0
 20
0.0
 30
0.0
  3
_Open30
  1

  0
LINE
  5
7C06
330
7C04
100
AcDbEntity
  8
0
  6
ByBlock
 62
     0
370
    -2
100
AcDbLine
 10
-1.0
 20
0.26794919
 30
0.0
 11
0.0
 21
0.0
 31
0.0
  0
LINE
  5
7C07
330
7C04
100
AcDbEntity
  8
0
  6
ByBlock
 62
     0
370
    -2
100
AcDbLine
 10
0.0
 20
0.0
 30
0.0
 11
-1.0
 21
-0.26794919
 31
0.0
  0
LINE
  5
7C08
330
7C04
100
AcDbEntity
  8
0
  6
ByBlock
 62
     0
370
    -2
100
AcDbLine
 10
0.0
 20
0.0
 30
0.0
 11
-1.0
 21
0.0
 31
0.0
  0
ENDBLK
  5
7C09
330
7C04
100
AcDbEntity
  8
0
100
AcDbBlockEnd
  0
BLOCK
  5
7C0E
330
7C0A
100
AcDbEntity
  8
0
100
AcDbBlockBegin
  2
A
 70
     0
 10
0.0
 20
0.0
 30
0.0
  3
A
  1

  0
MTEXT
  5
7C0F
330
7C0A
100
AcDbEntity
  8
mark
 62
     3
100
AcDbMText
 10
10.65641897020822
 20
-5.596245361730467
 30
0.0
 40
2.5
 41
0.0
 71
     5
 72
     1
  1
A
 73
     1
 44
1.0
1001
ACAD
1000
ACAD_MTEXT_DEFINED_HEIGHT_BEGIN
1070
    46
1040
0.0
1000
ACAD_MTEXT_DEFINED_HEIGHT_END
  0
LWPOLYLINE
  5
7C10
330
7C0A
100
AcDbEntity
  8
mark
100
AcDbPolyline
 90
        4
 70
     1
 43
0.0
 10
9.07926800414657
 20
-7.141145101782569
 10
12.07926800414657
 20
-7.141145101782569
 10
12.07926800414657
 20
-4.141145101782569
 10
9.07926800414657
 20
-4.141145101782569
  0
HATCH
  5
7C11
330
7C0A
100
AcDbEntity
  8
mark
100
AcDbHatch
 10
0.0
 20
0.0
 30
0.0
210
0.0
220
0.0
230
1.0
  2
SOLID
 70
     1
 71
     0
 91
        1
 92
        7
 72
     0
 73
     1
 93
        3
 10
5.32926800414657
 20
-5.641145101782569
 10
4.07926800414657
 20
-4.391145101782541
 10
4.07926800414657
 20
-6.891145101782541
 97
        0
 75
     0
 76
     1
 47
0.0398277943677868
 98
        1
 10
4.589689734415287
 20
-5.732163331855076
450
        0
451
        0
460
0.0
461
0.0
452
        1
462
1.0
453
        2
463
0.0
 63
     5
421
      255
463
1.0
 63
     7
421
 16777215
470
LINEAR
1001
ACAD
1010
0.0
1020
0.0
1030
0.0
  0
LINE
  5
7C12
330
7C0A
100
AcDbEntity
  8
mark
100
AcDbLine
 10
5.32926800414657
 20
-5.641145101782569
 30
0.0
 11
9.07926800414657
 21
-5.641145101782569
 31
0.0
  0
LINE
  5
7C13
330
7C0A
100
AcDbEntity
  8
mark
100
AcDbLine
 10
5.32926800414657
 20
-5.641145101782569
 30
0.0
 11
4.07926800414657
 21
-4.391145101782569
 31
0.0
  0
LINE
  5
7C14
330
7C0A
100
AcDbEntity
  8
mark
100
AcDbLine
 10
5.32926800414657
 20
-5.641145101782569
 30
0.0
 11
4.07926800414657
 21
-6.891145101782569
 31
0.0
  0
ENDBLK
  5
7C15
330
7C0A
100
AcDbEntity
  8
0
100
AcDbBlockEnd
  0
BLOCK
  5
8E76
330
8E72
100
AcDbEntity
  8
0
100
AcDbBlockBegin
  2
LS
 70
     0
 10
0.0
 20
0.0
 30
0.0
  3
LS
  1

  0
LINE
  5
8E78
330
8E72
100
AcDbEntity
  8
contour
100
AcDbLine
 10
310.7457309951603
 20
181.0160360664828
 30
0.0
 11
310.7457309951603
 21
184.7160360664827
 31
0.0
  0
LINE
  5
8E79
330
8E72
100
AcDbEntity
  8
contour
100
AcDbLine
 10
310.7457309951603
 20
184.7160360664827
 30
0.0
 11
303.7457309951603
 21
184.7160360664827
 31
0.0
  0
LINE
  5
8E7A
330
8E72
100
AcDbEntity
  8
contour
100
AcDbLine
 10
308.4457309951603
 20
196.7160360664827
 30
0.0
 11
306.0457309951603
 21
196.7160360664826
 31
0.0
  0
LINE
  5
8E7B
330
8E72
100
AcDbEntity
  8
contour
100
AcDbLine
 10
309.2457309951603
 20
195.9160360664826
 30
0.0
 11
308.4457309951603
 21
196.7160360664826
 31
0.0
  0
LINE
  5
8E7C
330
8E72
100
AcDbEntity
  8
contour
100
AcDbLine
 10
303.7457309951603
 20
184.7160360664827
 30
0.0
 11
303.7457309951603
 21
181.0160360664827
 31
0.0
  0
LINE
  5
8E7D
330
8E72
100
AcDbEntity
  8
contour
100
AcDbLine
 10
304.0457309951603
 20
180.7160360664827
 30
0.0
 11
310.4457309951603
 21
180.7160360664828
 31
0.0
  0
LINE
  5
8E7E
330
8E72
100
AcDbEntity
  8
contour
100
AcDbLine
 10
310.7457309951603
 20
181.0160360664828
 30
0.0
 11
310.4457309951603
 21
180.7160360664828
 31
0.0
  0
LINE
  5
8E7F
330
8E72
100
AcDbEntity
  8
contour
100
AcDbLine
 10
303.7457309951603
 20
181.0160360664827
 30
0.0
 11
304.0457309951603
 21
180.7160360664827
 31
0.0
  0
LINE
  5
8E80
330
8E72
100
AcDbEntity
  8
contour
100
AcDbLine
 10
309.2457309951603
 20
184.7160360664826
 30
0.0
 11
309.2457309951603
 21
195.9160360664827
 31
0.0
  0
LINE
  5
8E81
330
8E72
100
AcDbEntity
  8
contour
100
AcDbLine
 10
305.2457309951603
 20
184.7160360664826
 30
0.0
 11
305.2457309951603
 21
195.9160360664827
 31
0.0
  0
LINE
  5
8E82
330
8E72
100
AcDbEntity
  8
contour
100
AcDbLine
 10
306.0457309951603
 20
196.7160360664826
 30
0.0
 11
305.2457309951603
 21
195.9160360664826
 31
0.0
  0
LINE
  5
8E83
330
8E72
100
AcDbEntity
  8
contour
100
AcDbLine
 10
309.2457309951603
 20
195.9160360664827
 30
0.0
 11
305.2457309951603
 21
195.9160360664827
 31
0.0
  0
LINE
  5
8E84
330
8E72
100
AcDbEntity
  8
contour
 62
     4
100
AcDbLine
 10
308.8667309951603
 20
185.3724833225513
 30
0.0
 11
308.8667309951603
 21
196.2950360664826
 31
0.0
  0
LINE
  5
8E85
330
8E72
100
AcDbEntity
  8
contour
 62
     4
100
AcDbLine
 10
305.6247309951603
 20
185.3724833225513
 30
0.0
 11
305.6247309951603
 21
196.2950360664826
 31
0.0
  0
LINE
  5
8E86
330
8E72
100
AcDbEntity
  8
contour
100
AcDbLine
 10
310.7457309951603
 20
181.0160360664828
 30
0.0
 11
303.7457309951603
 21
181.0160360664828
 31
0.0
  0
LINE
  5
8E87
330
8E72
100
AcDbEntity
  8
bowle
 48
0.1
100
AcDbLine
 10
308.1117563989447
 20
180.7160360664827
 30
0.0
 11
308.1117563989447
 21
182.9160360664827
 31
0.0
  0
LINE
  5
8E88
330
8E72
100
AcDbEntity
  8
bowle
 48
0.1
100
AcDbLine
 10
308.9777818027293
 20
180.7160360664827
 30
0.0
 11
308.9777818027293
 21
182.9160360664827
 31
0.0
  0
LINE
  5
8E89
330
8E72
100
AcDbEntity
  8
bowle
 48
0.1
100
AcDbLine
 10
306.3797055913759
 20
180.7160360664827
 30
0.0
 11
306.3797055913759
 21
182.9160360664826
 31
0.0
  0
LINE
  5
8E8A
330
8E72
100
AcDbEntity
  8
bowle
 48
0.1
100
AcDbLine
 10
305.5136801875914
 20
180.7160360664827
 30
0.0
 11
305.5136801875914
 21
182.9160360664826
 31
0.0
  0
LINE
  5
8E8B
330
8E72
100
AcDbEntity
  8
bowle
 48
0.1
100
AcDbLine
 10
308.9777818027292
 20
182.9160360664827
 30
0.0
 11
305.5136801875914
 21
182.9160360664827
 31
0.0
  0
LINE
  5
8E8C
330
8E72
100
AcDbEntity
  8
bowle
 48
0.1
100
AcDbLine
 10
305.5136801875914
 20
182.9160360664826
 30
0.0
 11
307.2457309951603
 21
183.9160360664826
 31
0.0
  0
LINE
  5
8E8D
330
8E72
100
AcDbEntity
  8
bowle
 48
0.1
100
AcDbLine
 10
308.9777818027292
 20
182.9160360664826
 30
0.0
 11
307.2457309951603
 21
183.9160360664826
 31
0.0
  0
LINE
  5
8E8E
330
8E72
100
AcDbEntity
  8
contour
 62
     4
100
AcDbLine
 10
305.6247309951603
 20
185.3724833225513
 30
0.0
 11
305.2457309951603
 21
184.7160360664826
 31
0.0
  0
LINE
  5
8E8F
330
8E72
100
AcDbEntity
  8
contour
100
AcDbLine
 10
305.2457309951603
 20
185.3724833225513
 30
0.0
 11
309.2457309951603
 21
185.3724833225513
 31
0.0
  0
LINE
  5
8E90
330
8E72
100
AcDbEntity
  8
contour
 62
     4
100
AcDbLine
 10
309.2457309951603
 20
184.7160360664827
 30
0.0
 11
308.8667309951603
 21
185.3724833225513
 31
0.0
  0
ENDBLK
  5
8E77
330
8E72
100
AcDbEntity
  8
0
100
AcDbBlockEnd
  0
BLOCK
  5
9851
330
9847
100
AcDbEntity
  8
0
100
AcDbBlockBegin
  2
*D4
 70
     1
 10
0.0
 20
0.0
 30
0.0
  3
*D4
  1

  0
LINE
  5
9ADA
330
9847
100
AcDbEntity
  8
mark
370
    -2
100
AcDbLine
 10
63.89999999999994
 20
62.41793401399764
 30
0.0
 11
73.30529543377796
 21
62.41793401399764
 31
0.0
  0
LINE
  5
9ADB
330
9847
100
AcDbEntity
  8
mark
370
    -2
100
AcDbLine
 10
63.89999999999997
 20
44.41793401399763
 30
0.0
 11
73.30529543377796
 21
44.41793401399763
 31
0.0
  0
LINE
  5
9ADC
330
9847
100
AcDbEntity
  8
mark
370
    -2
100
AcDbLine
 10
72.90529543377795
 20
61.16793401399764
 30
0.0
 11
72.90529543377795
 21
45.66793401399763
 31
0.0
  0
INSERT
  5
9ADD
330
9847
100
AcDbEntity
  8
mark
370
    -2
100
AcDbBlockReference
  2
_Open30
 10
72.90529543377795
 20
62.41793401399764
 30
0.0
 41
1.25
 42
1.25
 43
1.25
 50
90.0
  0
INSERT
  5
9ADE
330
9847
100
AcDbEntity
  8
mark
370
    -2
100
AcDbBlockReference
  2
_Open30
 10
72.90529543377795
 20
44.41793401399763
 30
0.0
 41
1.25
 42
1.25
 43
1.25
 50
270.0
  0
MTEXT
  5
9ADF
330
9847
100
AcDbEntity
  8
mark
 62
     3
100
AcDbMText
 10
71.88029543377793
 20
53.41793401399764
 30
0.0
 40
1.25
 41
0.0
 71
     5
 72
     1
  1
\A1;18%%p0.2
 11
0.0000000000000001
 21
1.0
 31
0.0
 73
     1
 44
1.0
  0
POINT
  5
9AE0
330
9847
100
AcDbEntity
  8
DEFPOINTS
 62
     0
100
AcDbPoint
 10
63.49999999999994
 20
62.41793401399764
 30
0.0
  0
POINT
  5
9AE1
330
9847
100
AcDbEntity
  8
DEFPOINTS
 62
     0
100
AcDbPoint
 10
63.49999999999997
 20
44.41793401399763
 30
0.0
  0
POINT
  5
9AE2
330
9847
100
AcDbEntity
  8
DEFPOINTS
 62
     0
100
AcDbPoint
 10
72.90529543377795
 20
44.41793401399763
 30
0.0
  0
ENDBLK
  5
9852
330
9847
100
AcDbEntity
  8
0
100
AcDbBlockEnd
  0
BLOCK
  5
985D
330
9853
100
AcDbEntity
  8
0
100
AcDbBlockBegin
  2
*D5
 70
     1
 10
0.0
 20
0.0
 30
0.0
  3
*D5
  1

  0
LINE
  5
9A3E
330
9853
100
AcDbEntity
  8
mark
370
    -2
100
AcDbLine
 10
55.49999999999974
 20
44.70593401399787
 30
0.0
 11
55.49999999999974
 21
37.05670588077496
 31
0.0
  0
LINE
  5
9A3F
330
9853
100
AcDbEntity
  8
mark
370
    -2
100
AcDbLine
 10
39.50000000000023
 20
44.70593401399787
 30
0.0
 11
39.50000000000023
 21
37.05670588077496
 31
0.0
  0
LINE
  5
9A40
330
9853
100
AcDbEntity
  8
mark
370
    -2
100
AcDbLine
 10
54.24999999999974
 20
37.45670588077496
 30
0.0
 11
40.75000000000023
 21
37.45670588077496
 31
0.0
  0
INSERT
  5
9A41
330
9853
100
AcDbEntity
  8
mark
370
    -2
100
AcDbBlockReference
  2
_Open30
 10
55.49999999999974
 20
37.45670588077496
 30
0.0
 41
1.25
 42
1.25
 43
1.25
  0
INSERT
  5
9A42
330
9853
100
AcDbEntity
  8
mark
370
    -2
100
AcDbBlockReference
  2
_Open30
 10
39.50000000000023
 20
37.45670588077496
 30
0.0
 41
1.25
 42
1.25
 43
1.25
 50
180.0
  0
MTEXT
  5
9A43
330
9853
100
AcDbEntity
  8
mark
 62
     3
100
AcDbMText
 10
47.49999999999999
 20
38.48170588077496
 30
0.0
 40
1.25
 41
0.0
 71
     5
 72
     1
  1
\A1;M16x1.5P
 73
     1
 44
1.0
  0
POINT
  5
9A44
330
9853
100
AcDbEntity
  8
DEFPOINTS
 62
     0
100
AcDbPoint
 10
55.49999999999974
 20
45.10593401399787
 30
0.0
  0
POINT
  5
9A45
330
9853
100
AcDbEntity
  8
DEFPOINTS
 62
     0
100
AcDbPoint
 10
39.50000000000023
 20
45.10593401399787
 30
0.0
  0
POINT
  5
9A46
330
9853
100
AcDbEntity
  8
DEFPOINTS
 62
     0
100
AcDbPoint
 10
39.50000000000023
 20
37.45670588077496
 30
0.0
  0
ENDBLK
  5
985E
330
9853
100
AcDbEntity
  8
0
100
AcDbBlockEnd
  0
BLOCK
  5
98BD
330
98B3
100
AcDbEntity
  8
0
100
AcDbBlockBegin
  2
*D6
 70
     1
 10
0.0
 20
0.0
 30
0.0
  3
*D6
  1

  0
LINE
  5
9A47
330
98B3
100
AcDbEntity
  8
mark
370
    -2
100
AcDbLine
 10
63.89999999999994
 20
62.41793401399764
 30
0.0
 11
69.40339474103828
 21
62.41793401399764
 31
0.0
  0
LINE
  5
9A48
330
98B3
100
AcDbEntity
  8
mark
370
    -2
100
AcDbLine
 10
63.89999999999994
 20
51.51793401399763
 30
0.0
 11
69.40339474103828
 21
51.51793401399763
 31
0.0
  0
LINE
  5
9A49
330
98B3
100
AcDbEntity
  8
mark
370
    -2
100
AcDbLine
 10
69.00339474103827
 20
61.16793401399764
 30
0.0
 11
69.00339474103827
 21
52.76793401399763
 31
0.0
  0
INSERT
  5
9A4A
330
98B3
100
AcDbEntity
  8
mark
370
    -2
100
AcDbBlockReference
  2
_Open30
 10
69.00339474103827
 20
62.41793401399764
 30
0.0
 41
1.25
 42
1.25
 43
1.25
 50
90.0
  0
INSERT
  5
9A4B
330
98B3
100
AcDbEntity
  8
mark
370
    -2
100
AcDbBlockReference
  2
_Open30
 10
69.00339474103827
 20
51.51793401399763
 30
0.0
 41
1.25
 42
1.25
 43
1.25
 50
270.0
  0
MTEXT
  5
9A4C
330
98B3
100
AcDbEntity
  8
mark
 62
     3
100
AcDbMText
 10
67.97839474103826
 20
56.96793401399764
 30
0.0
 40
1.25
 41
0.0
 71
     5
 72
     1
  1
\A1;10.9
 11
0.0000000000000001
 21
1.0
 31
0.0
 73
     1
 44
1.0
  0
POINT
  5
9A4D
330
98B3
100
AcDbEntity
  8
DEFPOINTS
 62
     0
100
AcDbPoint
 10
63.49999999999994
 20
62.41793401399764
 30
0.0
  0
POINT
  5
9A4E
330
98B3
100
AcDbEntity
  8
DEFPOINTS
 62
     0
100
AcDbPoint
 10
63.49999999999994
 20
51.51793401399763
 30
0.0
  0
POINT
  5
9A4F
330
98B3
100
AcDbEntity
  8
DEFPOINTS
 62
     0
100
AcDbPoint
 10
69.00339474103827
 20
51.51793401399763
 30
0.0
  0
ENDBLK
  5
98BE
330
98B3
100
AcDbEntity
  8
0
100
AcDbBlockEnd
  0
BLOCK
  5
98CC
330
98C0
100
AcDbEntity
  8
0
100
AcDbBlockBegin
  2
*D7
 70
     1
 10
0.0
 20
0.0
 30
0.0
  3
*D7
  1

  0
LINE
  5
9A50
330
98C0
100
AcDbEntity
  8
mark
370
    -2
100
AcDbLine
 10
63.89999999999994
 20
51.51793401399763
 30
0.0
 11
69.40339474103828
 21
51.51793401399763
 31
0.0
  0
LINE
  5
9A51
330
98C0
100
AcDbEntity
  8
mark
370
    -2
100
AcDbLine
 10
63.89999999999986
 20
49.51793401399765
 30
0.0
 11
69.40339474103828
 21
49.51793401399765
 31
0.0
  0
LINE
  5
9A52
330
98C0
100
AcDbEntity
  8
mark
370
    -2
100
AcDbLine
 10
69.00339474103827
 20
52.76793401399763
 30
0.0
 11
69.00339474103827
 21
54.01793401399763
 31
0.0
  0
LINE
  5
9A53
330
98C0
100
AcDbEntity
  8
mark
370
    -2
100
AcDbLine
 10
69.00339474103827
 20
48.26793401399765
 30
0.0
 11
69.00339474103827
 21
47.01793401399764
 31
0.0
  0
LINE
  5
9A54
330
98C0
100
AcDbEntity
  8
mark
370
    -2
100
AcDbLine
 10
69.00339474103827
 20
51.51793401399763
 30
0.0
 11
69.00339474103827
 21
49.51793401399765
 31
0.0
  0
INSERT
  5
9A55
330
98C0
100
AcDbEntity
  8
mark
370
    -2
100
AcDbBlockReference
  2
_Open30
 10
69.00339474103827
 20
51.51793401399763
 30
0.0
 41
1.25
 42
1.25
 43
1.25
 50
270.0
  0
INSERT
  5
9A56
330
98C0
100
AcDbEntity
  8
mark
370
    -2
100
AcDbBlockReference
  2
_Open30
 10
69.00339474103827
 20
49.51793401399765
 30
0.0
 41
1.25
 42
1.25
 43
1.25
 50
90.0
  0
MTEXT
  5
9A57
330
98C0
100
AcDbEntity
  8
mark
 62
     3
100
AcDbMText
 10
67.97839474103826
 20
50.51793401399764
 30
0.0
 40
1.25
 41
0.0
 71
     5
 72
     1
  1
\A1;2
 11
0.0000000000000001
 21
1.0
 31
0.0
 73
     1
 44
1.0
  0
POINT
  5
9A58
330
98C0
100
AcDbEntity
  8
DEFPOINTS
 62
     0
100
AcDbPoint
 10
63.49999999999994
 20
51.51793401399763
 30
0.0
  0
POINT
  5
9A59
330
98C0
100
AcDbEntity
  8
DEFPOINTS
 62
     0
100
AcDbPoint
 10
63.49999999999986
 20
49.51793401399765
 30
0.0
  0
POINT
  5
9A5A
330
98C0
100
AcDbEntity
  8
DEFPOINTS
 62
     0
100
AcDbPoint
 10
69.00339474103827
 20
49.51793401399765
 30
0.0
  0
ENDBLK
  5
98CD
330
98C0
100
AcDbEntity
  8
0
100
AcDbBlockEnd
  0
BLOCK
  5
98F6
330
98EC
100
AcDbEntity
  8
0
100
AcDbBlockBegin
  2
*D8
 70
     1
 10
0.0
 20
0.0
 30
0.0
  3
*D8
  1

  0
LINE
  5
9A5B
330
98EC
100
AcDbEntity
  8
mark
370
    -2
100
AcDbLine
 10
31.09999999999989
 20
62.41793401399765
 30
0.0
 11
26.7394634331972
 21
62.41793401399765
 31
0.0
  0
LINE
  5
9A5C
330
98EC
100
AcDbEntity
  8
mark
370
    -2
100
AcDbLine
 10
29.09999999999989
 20
57.41793401399764
 30
0.0
 11
26.7394634331972
 21
57.41793401399764
 31
0.0
  0
LINE
  5
9A5D
330
98EC
100
AcDbEntity
  8
mark
370
    -2
100
AcDbLine
 10
27.13946343319719
 20
61.16793401399765
 30
0.0
 11
27.13946343319719
 21
58.66793401399764
 31
0.0
  0
INSERT
  5
9A5E
330
98EC
100
AcDbEntity
  8
mark
370
    -2
100
AcDbBlockReference
  2
_Open30
 10
27.13946343319719
 20
62.41793401399765
 30
0.0
 41
1.25
 42
1.25
 43
1.25
 50
90.0
  0
INSERT
  5
9A5F
330
98EC
100
AcDbEntity
  8
mark
370
    -2
100
AcDbBlockReference
  2
_Open30
 10
27.13946343319719
 20
57.41793401399764
 30
0.0
 41
1.25
 42
1.25
 43
1.25
 50
270.0
  0
MTEXT
  5
9A60
330
98EC
100
AcDbEntity
  8
mark
 62
     3
100
AcDbMText
 10
26.11446343319718
 20
59.91793401399765
 30
0.0
 40
1.25
 41
0.0
 71
     5
 72
     1
  1
\A1;5
 11
0.0000000000000001
 21
1.0
 31
0.0
 73
     1
 44
1.0
  0
POINT
  5
9A61
330
98EC
100
AcDbEntity
  8
DEFPOINTS
 62
     0
100
AcDbPoint
 10
31.49999999999989
 20
62.41793401399765
 30
0.0
  0
POINT
  5
9A62
330
98EC
100
AcDbEntity
  8
DEFPOINTS
 62
     0
100
AcDbPoint
 10
29.49999999999988
 20
57.41793401399764
 30
0.0
  0
POINT
  5
9A63
330
98EC
100
AcDbEntity
  8
DEFPOINTS
 62
     0
100
AcDbPoint
 10
27.13946343319719
 20
57.41793401399764
 30
0.0
  0
ENDBLK
  5
98F7
330
98EC
100
AcDbEntity
  8
0
100
AcDbBlockEnd
  0
BLOCK
  5
996A
330
9960
100
AcDbEntity
  8
0
100
AcDbBlockBegin
  2
*D9
 70
     1
 10
0.0
 20
0.0
 30
0.0
  3
*D9
  1

  0
LINE
  5
9A64
330
9960
100
AcDbEntity
  8
mark
370
    -2
100
AcDbLine
 10
30.49999999999989
 20
61.81793401399765
 30
0.0
 11
30.49999999999989
 21
67.29698330232716
 31
0.0
  0
LINE
  5
9A65
330
9960
100
AcDbEntity
  8
mark
370
    -2
100
AcDbLine
 10
64.49999999999992
 20
61.81793401399763
 30
0.0
 11
64.49999999999992
 21
67.29698330232716
 31
0.0
  0
LINE
  5
9A66
330
9960
100
AcDbEntity
  8
mark
370
    -2
100
AcDbLine
 10
31.74999999999989
 20
66.89698330232715
 30
0.0
 11
63.24999999999992
 21
66.89698330232715
 31
0.0
  0
INSERT
  5
9A67
330
9960
100
AcDbEntity
  8
mark
370
    -2
100
AcDbBlockReference
  2
_Open30
 10
30.49999999999989
 20
66.89698330232715
 30
0.0
 41
1.25
 42
1.25
 43
1.25
 50
180.0
  0
INSERT
  5
9A68
330
9960
100
AcDbEntity
  8
mark
370
    -2
100
AcDbBlockReference
  2
_Open30
 10
64.49999999999992
 20
66.89698330232715
 30
0.0
 41
1.25
 42
1.25
 43
1.25
  0
MTEXT
  5
9A69
330
9960
100
AcDbEntity
  8
mark
 62
     3
100
AcDbMText
 10
47.4999999999999
 20
67.92198330232716
 30
0.0
 40
1.25
 41
0.0
 71
     5
 72
     1
  1
\A1;%%C34
 73
     1
 44
1.0
  0
POINT
  5
9A6A
330
9960
100
AcDbEntity
  8
DEFPOINTS
 62
     0
100
AcDbPoint
 10
30.49999999999989
 20
61.41793401399765
 30
0.0
  0
POINT
  5
9A6B
330
9960
100
AcDbEntity
  8
DEFPOINTS
 62
     0
100
AcDbPoint
 10
64.49999999999992
 20
61.41793401399763
 30
0.0
  0
POINT
  5
9A6C
330
9960
100
AcDbEntity
  8
DEFPOINTS
 62
     0
100
AcDbPoint
 10
64.49999999999992
 20
66.89698330232715
 30
0.0
  0
ENDBLK
  5
996B
330
9960
100
AcDbEntity
  8
0
100
AcDbBlockEnd
  0
BLOCK
  5
998B
330
9984
100
AcDbEntity
  8
0
100
AcDbBlockBegin
  2
*D10
 70
     1
 10
0.0
 20
0.0
 30
0.0
  3
*D10
  1

  0
LINE
  5
9A6D
330
9984
100
AcDbEntity
  8
mark
370
    -2
100
AcDbLine
 10
27.28092953892004
 20
41.198863552918
 30
0.0
 11
29.9090097423301
 21
43.82694375632794
 31
0.0
  0
MTEXT
  5
9A6E
330
9984
100
AcDbEntity
  8
mark
 62
     3
100
AcDbMText
 10
27.42824345166729
 20
42.79574636709763
 30
0.0
 40
1.25
 41
0.0
 71
     5
 72
     1
  1
\A1;R1
 11
0.7071067811865654
 21
0.7071067811865298
 31
0.0
 73
     1
 44
1.0
  0
LINE
  5
9A6F
330
9984
100
AcDbEntity
  8
mark
370
    -2
100
AcDbLine
 10
31.49999999999984
 20
45.41793401399759
 30
0.0
 11
30.79289321881331
 21
44.7108272328111
 31
0.0
  0
INSERT
  5
9A70
330
9984
100
AcDbEntity
  8
mark
370
    -2
100
AcDbBlockReference
  2
_Open30
 10
30.79289321881331
 20
44.7108272328111
 30
0.0
 41
1.25
 42
1.25
 43
1.25
 50
44.99999999999857
  0
POINT
  5
9A71
330
9984
100
AcDbEntity
  8
DEFPOINTS
 62
     0
100
AcDbPoint
 10
30.79289321881331
 20
44.7108272328111
 30
0.0
  0
POINT
  5
9A72
330
9984
100
AcDbEntity
  8
DEFPOINTS
 62
     0
100
AcDbPoint
 10
31.49999999999984
 20
45.41793401399759
 30
0.0
  0
ENDBLK
  5
998C
330
9984
100
AcDbEntity
  8
0
100
AcDbBlockEnd
  0
BLOCK
  5
9A32
330
9A29
100
AcDbEntity
  8
0
100
AcDbBlockBegin
  2
*D11
 70
     1
 10
0.0
 20
0.0
 30
0.0
  3
*D11
  1

  0
LINE
  5
9B1B
330
9A29
100
AcDbEntity
  8
mark
370
    -2
100
AcDbLine
 10
20.75114704133568
 20
105.1975482610523
 30
0.0
 11
34.76583458139551
 21
100.264514982016
 31
0.0
  0
LINE
  5
9B1C
330
9A29
100
AcDbEntity
  8
mark
370
    -2
100
AcDbLine
 10
60.23416541860431
 20
91.29991101048004
 30
0.0
 11
61.41325480921583
 21
90.88488304883483
 31
0.0
  0
MTEXT
  5
9B1D
330
9A29
100
AcDbEntity
  8
mark
 62
     3
100
AcDbMText
 10
25.98862123889123
 20
104.4406520939874
 30
0.0
 40
1.25
 41
0.0
 71
     5
 72
     1
  1
\A1;P.C.D 24.5
 11
0.9432715124892144
 21
-0.3320223693161501
 31
0.0
 73
     1
 44
1.0
  0
LINE
  5
9B1E
330
9A29
100
AcDbEntity
  8
mark
370
    -2
100
AcDbLine
 10
59.05507602799278
 20
91.71493897212521
 30
0.0
 11
35.94492397200703
 21
99.84948702037089
 31
0.0
  0
INSERT
  5
9B1F
330
9A29
100
AcDbEntity
  8
mark
370
    -2
100
AcDbBlockReference
  2
_Open30
 10
59.05507602799278
 20
91.71493897212521
 30
0.0
 41
1.25
 42
1.25
 43
1.25
 50
160.6084288725462
  0
INSERT
  5
9B20
330
9A29
100
AcDbEntity
  8
mark
370
    -2
100
AcDbBlockReference
  2
_Open30
 10
35.94492397200703
 20
99.84948702037089
 30
0.0
 41
1.25
 42
1.25
 43
1.25
 50
340.6084288725462
  0
POINT
  5
9B21
330
9A29
100
AcDbEntity
  8
DEFPOINTS
 62
     0
100
AcDbPoint
 10
35.94492397200703
 20
99.84948702037089
 30
0.0
  0
POINT
  5
9B22
330
9A29
100
AcDbEntity
  8
DEFPOINTS
 62
     0
100
AcDbPoint
 10
59.05507602799278
 20
91.71493897212521
 30
0.0
  0
ENDBLK
  5
9A33
330
9A29
100
AcDbEntity
  8
0
100
AcDbBlockEnd
  0
ENDSEC
  0
SECTION
  2
ENTITIES
  0
MTEXT
  5
C0
330
18
100
AcDbEntity
  8
0
100
AcDbMText
 10
41.26970765600413
 20
233.6950877649332
 30
0.0
 40
2.5
 41
0.0
 71
     1
 72
     5
  1

  7
ISOCP3
 73
     1
 44
1.0
  0
LWPOLYLINE
  5
7D6C
330
18
100
AcDbEntity
  8
frame
100
AcDbPolyline
 90
        4
 70
     1
 43
0.0
 10
95.0
 20
140.0
 10
0.0
 20
140.0
 10
0.0
 20
0.0
 10
95.0
 20
0.0
  0
MTEXT
  5
7D6D
330
18
100
AcDbEntity
  8
0
100
AcDbMText
 10
8.549751843445875
 20
9.53802950808307
 30
0.0
 40
2.25
 41
0.0
 71
     1
 72
     5
  1
{\Ftxt,bigfont|c128;林彦旭}
  7
JL
 73
     1
 44
1.0
1001
ACAD
1000
ACAD_MTEXT_DEFINED_HEIGHT_BEGIN
1070
    46
1040
0.0
1000
ACAD_MTEXT_DEFINED_HEIGHT_END
  0
MTEXT
  5
7D6E
330
18
100
AcDbEntity
  8
0
100
AcDbMText
 10
38.97647364614426
 20
14.46789489935338
 30
0.0
 40
2.25
 41
0.0
 71
     1
 72
     5
  1
{\Ftxt,bigfont|c128;2 : 1}
  7
JL
 73
     1
 44
1.0
1001
ACAD
1000
ACAD_MTEXT_DEFINED_HEIGHT_BEGIN
1070
    46
1040
0.0
1000
ACAD_MTEXT_DEFINED_HEIGHT_END
  0
MTEXT
  5
7D6F
330
18
100
AcDbEntity
  8
0
 48
2.0
370
    25
100
AcDbMText
 10
70.1097250232828
 20
1.745010827316946
 30
0.0
 40
2.25
 41
0.0
 71
     5
 72
     1
  1
{\Ftxt,bigfont|c128;N L 4 0 2 6 0}
 73
     1
 44
1.0
1001
ACAD
1000
ACAD_MTEXT_DEFINED_HEIGHT_BEGIN
1070
    46
1040
0.0
1000
ACAD_MTEXT_DEFINED_HEIGHT_END
  0
MTEXT
  5
7D70
330
18
100
AcDbEntity
  8
0
 48
2.0
100
AcDbMText
 10
85.46644998221655
 20
10.88218563911846
 30
0.0
 40
2.159090909090911
 41
0.0
 71
     5
 72
     1
  1
\P{\Ftxt,bigfont|c128;MKR16X1.5P}
 73
     1
 44
1.0
1001
ACAD
1000
ACAD_MTEXT_DEFINED_HEIGHT_BEGIN
1070
    46
1040
0.0
1000
ACAD_MTEXT_DEFINED_HEIGHT_END
  0
MTEXT
  5
7D71
330
18
100
AcDbEntity
  8
0
100
AcDbMText
 10
7.6880338568387
 20
14.18870179917354
 30
0.0
 40
2.25
 41
0.0
 71
     1
 72
     5
  1
{\Ftxt,bigfont|c128;06.07.05}
  7
JL
 73
     1
 44
1.0
1001
ACAD
1000
ACAD_MTEXT_DEFINED_HEIGHT_BEGIN
1070
    46
1040
0.0
1000
ACAD_MTEXT_DEFINED_HEIGHT_END
  0
LINE
  5
7D72
330
18
100
AcDbEntity
  8
0
 62
     7
 48
5.0
100
AcDbLine
 39
1.919191919191921
 10
23.96471206996267
 20
13.82856453508043
 30
0.0
 11
26.52290072143927
 21
14.46811169794961
 31
0.0
  0
MTEXT
  5
7D73
330
18
100
AcDbEntity
  8
0
100
AcDbMText
 10
7.456177741632075
 20
4.621097525024651
 30
0.0
 40
3.0
 41
0.0
 71
     1
 72
     5
  1
\Ftxt.shx,bigfont.shx|c128;日機株式会社
  7
LKK
 73
     1
 44
1.0
  0
LINE
  5
7D74
330
18
100
AcDbEntity
  8
frame
100
AcDbLine
 10
0.0
 20
6.0
 30
0.0
 11
95.0
 21
6.000000000000028
 31
0.0
  0
LINE
  5
7D75
330
18
100
AcDbEntity
  8
frame
100
AcDbLine
 10
0.0
 20
11.0
 30
0.0
 11
46.06060606060611
 21
11.0
 31
0.0
  0
LINE
  5
7D76
330
18
100
AcDbEntity
  8
frame
100
AcDbLine
 10
0.0
 20
16.0
 30
0.0
 11
95.0
 21
16.0
 31
0.0
  0
LINE
  5
7D77
330
18
100
AcDbEntity
  8
frame
100
AcDbLine
 10
6.095386662468996
 20
16.0
 30
0.0
 11
6.095386662468996
 21
6.0
 31
0.0
  0
LINE
  5
7D78
330
18
100
AcDbEntity
  8
frame
100
AcDbLine
 10
15.35353535353533
 20
16.0
 30
0.0
 11
15.35353535353539
 21
6.0
 31
0.0
  0
MTEXT
  5
7D79
330
18
100
AcDbEntity
  8
0
100
AcDbMText
 10
1.415137392110977
 20
14.54095044791415
 30
0.0
 40
2.25
 41
0.0
 71
     1
 72
     5
  1
\Ftxt.shx,bigfont.shx|c128;日 付
  7
JL
 73
     1
 44
1.0
  0
MTEXT
  5
7D7A
330
18
100
AcDbEntity
  8
0
100
AcDbMText
 10
1.485316538719445
 20
9.760819214633187
 30
0.0
 40
2.25
 41
0.0
 71
     1
 72
     5
  1
\Ftxt.shx,bigfont.shx|c128;製 図
  7
JL
 73
     1
 44
1.0
  0
LINE
  5
7D7B
330
18
100
AcDbEntity
  8
0
 62
     7
370
    25
100
AcDbLine
 10
26.52290072143927
 20
11.90992304647298
 30
0.0
 11
26.52290072143927
 21
14.46811169794961
 31
0.0
  0
MTEXT
  5
7D7C
330
18
100
AcDbEntity
  8
0
100
AcDbMText
 10
32.00374426245418
 20
14.56121351896189
 30
0.0
 40
2.25
 41
0.0
 71
     1
 72
     5
  1
\Ftxt.shx,bigfont.shx|c128;尺 度
  7
JL
 73
     1
 44
1.0
  0
LINE
  5
7D7D
330
18
100
AcDbEntity
  8
frame
100
AcDbLine
 10
30.70707070707073
 20
16.0
 30
0.0
 11
30.70707070707073
 21
6.0
 31
0.0
  0
LINE
  5
7D7E
330
18
100
AcDbEntity
  8
0
 62
     7
370
    25
100
AcDbLine
 10
19.8076555113131
 20
11.59444509166317
 30
0.0
 11
19.8076555113131
 21
14.68228996214836
 31
0.0
  0
CIRCLE
  5
7D7F
330
18
100
AcDbEntity
  8
0
 62
     7
100
AcDbCircle
 10
19.8076555113131
 20
13.18901737221125
 30
0.0
 40
1.279094325738339
  0
LINE
  5
7D80
330
18
100
AcDbEntity
  8
0
 62
     7
370
    25
100
AcDbLine
 10
23.59660993459988
 20
13.18901737221131
 30
0.0
 11
26.75256290812121
 21
13.18901737221131
 31
0.0
  0
LINE
  5
7D81
330
18
100
AcDbEntity
  8
0
 62
     7
100
AcDbLine
 10
23.96471206996267
 20
12.54947020934213
 30
0.0
 11
26.52290072143927
 21
11.90992304647298
 31
0.0
  0
LINE
  5
7D82
330
18
100
AcDbEntity
  8
frame
100
AcDbLine
 10
21.3711209799755
 20
11.0
 30
0.0
 11
21.3711209799755
 21
6.0
 31
0.0
  0
LINE
  5
7D83
330
18
100
AcDbEntity
  8
0
 62
     7
370
    25
100
AcDbLine
 10
18.20916114243306
 20
13.18901737221125
 30
0.0
 11
21.50162633809634
 21
13.18901737221131
 31
0.0
  0
CIRCLE
  5
7D84
330
18
100
AcDbEntity
  8
0
 62
     7
100
AcDbCircle
 10
19.8076555113131
 20
13.18901737221125
 30
0.0
 40
0.6395471628691697
  0
MTEXT
  5
7D85
330
18
100
AcDbEntity
  8
0
100
AcDbMText
 10
16.85092016231203
 20
9.705069078926328
 30
0.0
 40
2.25
 41
0.0
 71
     1
 72
     5
  1
\Ftxt.shx,bigfont.shx|c128;検 図
  7
JL
 73
     1
 44
1.0
  0
LINE
  5
7D86
330
18
100
AcDbEntity
  8
0
 62
     7
370
    25
100
AcDbLine
 10
23.96471206996267
 20
12.54947020934213
 30
0.0
 11
23.96471206996267
 21
13.82856453508043
 31
0.0
  0
MTEXT
  5
7D87
330
18
100
AcDbEntity
  8
0
100
AcDbMText
 10
32.14410124959915
 20
9.660292673744407
 30
0.0
 40
2.25
 41
0.0
 71
     1
 72
     5
  1
\Ftxt.shx,bigfont.shx|c128;承 認
  7
JL
 73
     1
 44
1.0
  0
MTEXT
  5
7D88
330
18
100
AcDbEntity
  8
0
100
AcDbMText
 10
46.85564357803349
 20
5.351341098095701
 30
0.0
 40
2.25
 41
0.0
 71
     1
 72
     5
  1
\Ftxt.shx,bigfont.shx|c128;図  面  番  号
  7
JL
 73
     1
 44
1.0
  0
MTEXT
  5
7D89
330
18
100
AcDbEntity
  8
0
 48
2.0
100
AcDbMText
 10
58.45190950106922
 20
10.9378736574792
 30
0.0
 40
2.25
 41
0.0
 71
     5
 72
     1
  1
\P\Ftxt.shx,bigfont.shx|c128;    精密ロックナット
 73
     1
 44
1.0
  0
MTEXT
  5
7D8A
330
18
100
AcDbEntity
  8
0
100
AcDbMText
 10
47.4041806515616
 20
14.51931228986637
 30
0.0
 40
2.25
 41
0.0
 71
     1
 72
     5
  1
\Ftxt.shx,bigfont.shx|c128;品  名
  7
JL
 73
     1
 44
1.0
  0
LINE
  5
7D8B
330
18
100
AcDbEntity
  8
frame
100
AcDbLine
 10
46.06060606060611
 20
16.0
 30
0.0
 11
46.06060606060611
 21
0.0916613789792393
 31
0.0
  0
LINE
  5
7D8C
330
18
100
AcDbEntity
  8
frame
100
AcDbLine
 10
36.70707070707073
 20
16.0
 30
0.0
 11
36.70707070707073
 21
6.0
 31
0.0
  0
LINE
  5
7D8D
330
18
100
AcDbEntity
  8
frame
100
AcDbLine
 10
73.51635463703281
 20
16.0
 30
0.0
 11
73.51635463703286
 21
6.0
 31
0.0
  0
MTEXT
  5
7D8E
330
18
100
AcDbEntity
  8
0
100
AcDbMText
 10
75.44797972338654
 20
14.52258891415195
 30
0.0
 40
2.25
 41
0.0
 71
     1
 72
     5
  1
\Ftxt.shx,bigfont.shx|c128;型  番
  7
JL
 73
     1
 44
1.0
  0
MTEXT
  5
7D8F
330
18
100
AcDbEntity
  8
0
100
AcDbMText
 10
82.90298074051628
 20
5.391490874857822
 30
0.0
 40
2.25
 41
0.0
 71
     1
 72
     5
  1
\Ftxt.shx,bigfont.shx|c128;変更
  7
JL
 73
     1
 44
1.0
  0
LINE
  5
7D90
330
18
100
AcDbEntity
  8
frame
100
AcDbLine
 10
82.04545454545462
 20
6.000000000000028
 30
0.0
 11
82.04545454545467
 21
0.0
 31
0.0
  0
LINE
  5
7D91
330
18
100
AcDbEntity
  8
frame
100
AcDbLine
 10
62.30789503931965
 20
21.56745674462246
 30
0.0
 11
92.30789503931964
 21
21.56745674462241
 31
0.0
  0
LINE
  5
7D92
330
18
100
AcDbEntity
  8
frame
100
AcDbLine
 10
62.30789503931965
 20
25.16745674462248
 30
0.0
 11
92.30789503931964
 21
25.16745674462248
 31
0.0
  0
LINE
  5
7D93
330
18
100
AcDbEntity
  8
frame
100
AcDbLine
 10
62.30789503931965
 20
28.76745674462245
 30
0.0
 11
92.30789503931964
 21
28.7674567446224
 31
0.0
  0
LINE
  5
7D94
330
18
100
AcDbEntity
  8
frame
100
AcDbLine
 10
62.30789503931965
 20
32.36745674462247
 30
0.0
 11
92.30789503931964
 21
32.36745674462242
 31
0.0
  0
LINE
  5
7D95
330
18
100
AcDbEntity
  8
frame
100
AcDbLine
 10
62.30789503931965
 20
17.96745674462244
 30
0.0
 11
92.30789503931964
 21
17.96745674462244
 31
0.0
  0
MTEXT
  5
7D96
330
18
100
AcDbEntity
  8
0
 62
     7
 48
2.0
100
AcDbMText
 10
77.25059502225531
 20
32.76404094991455
 30
0.0
 40
2.4
 41
0.0
 71
     5
 72
     1
  1
\P\Ftxt.shx,bigfont.shx|c128;諸　　　　元
 73
     1
 44
1.0
  0
LINE
  5
7D97
330
18
100
AcDbEntity
  8
frame
100
AcDbLine
 10
62.30789503931965
 20
32.36745674462242
 30
0.0
 11
62.30789503931965
 21
17.96745674462244
 31
0.0
  0
MTEXT
  5
7D98
330
18
100
AcDbEntity
  8
0
100
AcDbMText
 10
64.06911294615975
 20
28.00420216106204
 30
0.0
 40
2.2
 41
81.95814342112454
 71
     1
 72
     5
  1
\Ftxt.shx,bigfont.shx|c128;熱　処　理
  7
JL
 73
     1
 44
1.0
  0
LINE
  5
7D99
330
18
100
AcDbEntity
  8
frame
100
AcDbLine
 10
74.30789503931965
 20
28.7674567446224
 30
0.0
 11
74.30789503931965
 21
17.96745674462244
 31
0.0
  0
MTEXT
  5
7D9A
330
18
100
AcDbEntity
  8
0
100
AcDbMText
 10
63.92897576247015
 20
24.50308793743199
 30
0.0
 40
2.2
 41
81.80293144248363
 71
     1
 72
     5
  1
\Ftxt.shx,bigfont.shx|c128;表 面 処 理
  7
JL
 73
     1
 44
1.0
  0
MTEXT
  5
7D9B
330
18
100
AcDbEntity
  8
0
100
AcDbMText
 10
64.07400868668765
 20
20.85885151062803
 30
0.0
 40
2.2
 41
83.0859
 71
     1
 72
     5
  1
\Ftxt.shx,bigfont.shx|c128;等     　級
  7
JL
 73
     1
 44
1.0
  0
LINE
  5
7D9C
330
18
100
AcDbEntity
  8
frame
100
AcDbLine
 10
92.30789503931964
 20
32.36745674462242
 30
0.0
 11
92.30789503931964
 21
17.96745674462249
 31
0.0
  0
MTEXT
  5
7D9D
330
18
100
AcDbEntity
  8
0
100
AcDbMText
 10
76.68139669404093
 20
27.91672320735723
 30
0.0
 40
2.2
 41
145.9480028428943
 71
     1
 72
     5
  1
\Ftxt.shx,bigfont.shx|c128;調質　HRC30%%d%%p２%%d
  7
JL
 73
     1
 44
1.0
  0
MTEXT
  5
7D9E
330
18
100
AcDbEntity
  8
0
100
AcDbMText
 10
76.81171619475913
 20
20.8591567963536
 30
0.0
 40
2.2
 41
145.3916823984455
 71
     1
 72
     5
  1
\Ftxt.shx,bigfont.shx|c128;ＩＳＯ - ４Ｈ
  7
JL
 73
     1
 44
1.0
  0
MTEXT
  5
7D9F
330
18
100
AcDbEntity
  8
0
100
AcDbMText
 10
76.89894679382428
 20
24.32664146895457
 30
0.0
 40
2.2
 41
145.7274
 71
     1
 72
     5
  1
\Ftxt.shx,bigfont.shx|c128;黒  　    染
  7
JL
 73
     1
 44
1.0
  0
MTEXT
  5
7DA0
330
18
100
AcDbEntity
  8
0
100
AcDbMText
 10
28.81819530667213
 20
130.4500291639737
 30
0.0
 40
2.5
 41
0.0
 71
     1
 72
     5
  1
{\Ftxt,bigfont|c128;M4X0.7P-12L}
  7
JL
 73
     1
 44
1.0
1001
ACAD
1000
ACAD_MTEXT_DEFINED_HEIGHT_BEGIN
1070
    46
1040
0.0
1000
ACAD_MTEXT_DEFINED_HEIGHT_END
  0
LINE
  5
7DA2
330
18
100
AcDbEntity
  8
frame
100
AcDbLine
 10
0.0
 20
127.0
 30
0.0
 11
95.0
 21
127.0
 31
0.0
  0
LINE
  5
7DA3
330
18
100
AcDbEntity
  8
frame
100
AcDbLine
 10
0.0
 20
131.0
 30
0.0
 11
95.0
 21
131.0
 31
0.0
  0
LINE
  5
7DA4
330
18
100
AcDbEntity
  8
frame
 62
     9
100
AcDbLine
 10
0.0
 20
135.0
 30
0.0
 11
95.0
 21
135.0
 31
0.0
  0
MTEXT
  5
7DA5
330
18
100
AcDbEntity
  8
0
100
AcDbMText
 10
28.50782195301855
 20
138.712028002452
 30
0.0
 40
2.5
 41
0.0
 71
     1
 72
     5
  1
\Ftxt.shx,bigfont.shx|c128;図    番 / 規　　格
  7
JL
 73
     1
 44
1.0
  0
LINE
  5
7DA6
330
18
100
AcDbEntity
  8
frame
100
AcDbLine
 10
0.0
 20
127.0
 30
0.0
 11
95.0
 21
127.0
 31
0.0
  0
MTEXT
  5
7DA8
330
18
100
AcDbEntity
  8
0
100
AcDbMText
 10
10.56244024461716
 20
138.7318990693371
 30
0.0
 40
2.5
 41
0.0
 71
     1
 72
     5
  1
\Ftxt.shx,bigfont.shx|c128;品　          名
  7
JL
 73
     1
 44
1.0
  0
MTEXT
  5
7DA9
330
18
100
AcDbEntity
  8
0
100
AcDbMText
 10
9.051406935550659
 20
130.3953618644555
 30
0.0
 40
2.5
 41
0.0
 71
     1
 72
     5
  1
\Ftxt.shx,bigfont.shx|c128;セットスクリュ-
  7
JL
 73
     1
 44
1.0
  0
MTEXT
  5
7DAA
330
18
100
AcDbEntity
  8
0
100
AcDbMText
 10
8.957547404315789
 20
134.4180615141482
 30
0.0
 40
2.5
 41
0.0
 71
     1
 72
     5
  1
\Ftxt.shx,bigfont.shx|c128;ロックナット　  
  7
JL
 73
     1
 44
1.0
  0
LINE
  5
7DAC
330
18
100
AcDbEntity
  8
frame
 62
     9
100
AcDbLine
 10
7.196969696969688
 20
139.9999999999999
 30
0.0
 11
7.196969696969818
 21
127.0
 31
0.0
  0
LINE
  5
7DAD
330
18
100
AcDbEntity
  8
frame
 62
     9
100
AcDbLine
 10
7.196969696969688
 20
139.9999999999999
 30
0.0
 11
7.196969696969688
 21
127.5252525252525
 31
0.0
  0
MTEXT
  5
7DAE
330
18
100
AcDbEntity
  8
0
100
AcDbMText
 10
3.407504634006897
 20
134.364083721706
 30
0.0
 40
2.5
 41
0.0
 71
     1
 72
     5
  1
\Ftxt.shx,bigfont.shx|c128;1
  7
JL
 73
     1
 44
1.0
  0
MTEXT
  5
7DAF
330
18
100
AcDbEntity
  8
0
100
AcDbMText
 10
1.059914036490113
 20
138.7367391319745
 30
0.0
 40
2.5
 41
0.0
 71
     1
 72
     5
  1
\Ftxt.shx,bigfont.shx|c128;照   号
  7
JL
 73
     1
 44
1.0
  0
LINE
  5
7DB0
330
18
100
AcDbEntity
  8
frame
 62
     9
100
AcDbLine
 10
26.38888888888891
 20
139.9999999999999
 30
0.0
 11
26.38888888888892
 21
127.0
 31
0.0
  0
MTEXT
  5
7DB1
330
18
100
AcDbEntity
  8
0
100
AcDbMText
 10
72.78681871864256
 20
138.8390831947097
 30
0.0
 40
2.5
 41
0.0
 71
     1
 72
     5
  1
\Ftxt.shx,bigfont.shx|c128;備           考
  7
JL
 73
     1
 44
1.0
  0
LINE
  5
7DB2
330
18
100
AcDbEntity
  8
frame
 62
     9
100
AcDbLine
 10
45.58080808080808
 20
140.0
 30
0.0
 11
45.58080808080808
 21
127.0
 31
0.0
  0
MTEXT
  5
7DB4
330
18
100
AcDbEntity
  8
0
100
AcDbMText
 10
46.43670544589684
 20
134.4180615141482
 30
0.0
 40
2.5
 41
0.0
 71
     1
 72
     5
  1
\Ftxt.shx,bigfont.shx|c128;SCM-440
  7
JL
 73
     1
 44
1.0
  0
MTEXT
  5
7DB5
330
18
100
AcDbEntity
  8
0
100
AcDbMText
 10
46.43670544589684
 20
130.382501006292
 30
0.0
 40
2.5
 41
0.0
 71
     1
 72
     5
  1
\Ftxt.shx,bigfont.shx|c128;SCM435
  7
JL
 73
     1
 44
1.0
  0
MTEXT
  5
7DB6
330
18
100
AcDbEntity
  8
0
100
AcDbMText
 10
47.88399431552096
 20
138.7822749741459
 30
0.0
 40
2.5
 41
0.0
 71
     1
 72
     5
  1
\Ftxt.shx,bigfont.shx|c128;材　質
  7
JL
 73
     1
 44
1.0
  0
LINE
  5
7DB7
330
18
100
AcDbEntity
  8
frame
 62
     9
100
AcDbLine
 10
55.17676767676772
 20
140.0
 30
0.0
 11
55.17676767676773
 21
127.0
 31
0.0
  0
LINE
  5
7DB8
330
18
100
AcDbEntity
  8
frame
100
AcDbLine
 10
62.37373737373736
 20
140.0
 30
0.0
 11
62.37373737373741
 21
127.0
 31
0.0
  0
MTEXT
  5
7DBA
330
18
100
AcDbEntity
  8
0
100
AcDbMText
 10
58.58427231077456
 20
134.5206355839966
 30
0.0
 40
2.5
 41
0.0
 71
     1
 72
     5
  1
\Ftxt.shx,bigfont.shx|c128;1
  7
JL
 73
     1
 44
1.0
  0
MTEXT
  5
7DBB
330
18
100
AcDbEntity
  8
0
100
AcDbMText
 10
58.29695351334419
 20
130.2546145075339
 30
0.0
 40
2.5
 41
0.0
 71
     1
 72
     5
  1
{\Ftxt,bigfont|c128;4}
  7
JL
 73
     1
 44
1.0
1001
ACAD
1000
ACAD_MTEXT_DEFINED_HEIGHT_BEGIN
1070
    46
1040
0.0
1000
ACAD_MTEXT_DEFINED_HEIGHT_END
  0
MTEXT
  5
7DBC
330
18
100
AcDbEntity
  8
0
100
AcDbMText
 10
56.21119479596313
 20
138.7822749741459
 30
0.0
 40
2.5
 41
0.0
 71
     1
 72
     5
  1
\Ftxt.shx,bigfont.shx|c128;数   量
  7
JL
 73
     1
 44
1.0
  0
MTEXT
  5
7DBD
330
18
100
AcDbEntity
  8
0
100
AcDbMText
 10
3.202009849527996
 20
130.364083721706
 30
0.0
 40
2.5
 41
0.0
 71
     1
 72
     5
  1
{\Ftxt,bigfont|c128;2}
  7
JL
 73
     1
 44
1.0
1001
ACAD
1000
ACAD_MTEXT_DEFINED_HEIGHT_BEGIN
1070
    46
1040
0.0
1000
ACAD_MTEXT_DEFINED_HEIGHT_END
  0
CIRCLE
  5
8DAE
330
18
100
AcDbEntity
  8
contour
100
AcDbCircle
 10
47.49999999999988
 20
95.782212996248
 30
0.0
 40
17.0
  0
ARC
  5
8DB0
330
18
100
AcDbEntity
  8
contour
 62
     4
100
AcDbCircle
 10
47.50000000000006
 20
95.78221299624795
 30
0.0
 40
8.0
100
AcDbArc
 50
165.5224878140702
 51
104.4775121859282
  0
CIRCLE
  5
8DB1
330
18
100
AcDbEntity
  8
contour
100
AcDbCircle
 10
47.49999999999988
 20
95.782212996248
 30
0.0
 40
7.187999999999999
  0
LINE
  5
8DB2
330
18
100
AcDbEntity
  8
center
 48
0.15
100
AcDbLine
 10
29.49999999999994
 20
95.78221299624795
 30
0.0
 11
65.49999999999989
 21
95.78221299624795
 31
0.0
  0
LINE
  5
8DB3
330
18
100
AcDbEntity
  8
center
 48
0.15
100
AcDbLine
 10
47.5
 20
77.78221299624807
 30
0.0
 11
47.5
 21
113.782212996248
 31
0.0
  0
CIRCLE
  5
8DB6
330
18
100
AcDbEntity
  8
center
 48
0.15
100
AcDbCircle
 10
47.49999999999988
 20
95.782212996248
 30
0.0
 40
12.25
  0
CIRCLE
  5
8DB7
330
18
100
AcDbEntity
  8
contour
100
AcDbCircle
 10
47.5
 20
83.53221299624795
 30
0.0
 40
1.621000000000037
  0
CIRCLE
  5
8DBD
330
18
100
AcDbEntity
  8
bowle
 48
0.1
100
AcDbCircle
 10
47.5
 20
83.53221299624795
 30
0.0
 40
3.5
  0
CIRCLE
  5
8DBE
330
18
100
AcDbEntity
  8
contour
100
AcDbCircle
 10
59.75
 20
95.78221299624795
 30
0.0
 40
1.621000000000037
  0
CIRCLE
  5
8DBF
330
18
100
AcDbEntity
  8
bowle
 48
0.1
100
AcDbCircle
 10
59.75
 20
95.78221299624795
 30
0.0
 40
3.5
  0
CIRCLE
  5
8DC0
330
18
100
AcDbEntity
  8
contour
100
AcDbCircle
 10
47.49999999999994
 20
108.0322129962478
 30
0.0
 40
1.621000000000037
  0
CIRCLE
  5
8DC1
330
18
100
AcDbEntity
  8
bowle
 48
0.1
100
AcDbCircle
 10
47.49999999999994
 20
108.0322129962478
 30
0.0
 40
3.5
  0
CIRCLE
  5
8DC2
330
18
100
AcDbEntity
  8
contour
100
AcDbCircle
 10
35.25000000000006
 20
95.782212996248
 30
0.0
 40
1.621000000000037
  0
CIRCLE
  5
8DC3
330
18
100
AcDbEntity
  8
bowle
 48
0.1
100
AcDbCircle
 10
35.25000000000006
 20
95.782212996248
 30
0.0
 40
3.5
  0
ARC
  5
8DC5
330
18
100
AcDbEntity
  8
contour
 62
     4
100
AcDbCircle
 10
47.49999999999988
 20
108.032212996248
 30
0.0
 40
2.0
100
AcDbArc
 50
165.5224878140702
 51
104.4775121859316
  0
CIRCLE
  5
8DDC
330
18
100
AcDbEntity
  8
bowle
 48
0.1
100
AcDbCircle
 10
38.83794193046475
 20
87.12015492671275
 30
0.0
 40
2.149999999999999
  0
CIRCLE
  5
8DDE
330
18
100
AcDbEntity
  8
bowle
 48
0.1
100
AcDbCircle
 10
56.16205806953519
 20
87.1201549267127
 30
0.0
 40
2.149999999999999
  0
CIRCLE
  5
8DE0
330
18
100
AcDbEntity
  8
bowle
 48
0.1
100
AcDbCircle
 10
56.16205806953496
 20
104.4442710657831
 30
0.0
 40
2.149999999999999
  0
CIRCLE
  5
8DE2
330
18
100
AcDbEntity
  8
bowle
 48
0.1
100
AcDbCircle
 10
38.83794193046475
 20
104.4442710657831
 30
0.0
 40
2.149999999999999
  0
LINE
  5
8DE4
330
18
100
AcDbEntity
  8
bowle
 48
0.1
100
AcDbLine
 10
60.58147545195106
 20
85.52916466904292
 30
0.0
 11
58.21599151753947
 21
87.8946486034547
 31
0.0
  0
LINE
  5
8DE5
330
18
100
AcDbEntity
  8
bowle
 48
0.1
100
AcDbLine
 10
61.06005162232055
 20
85.52916466904292
 30
0.0
 11
60.58147545195106
 21
85.52916466904292
 31
0.0
  0
LINE
  5
8DE6
330
18
100
AcDbEntity
  8
bowle
 48
0.1
100
AcDbLine
 10
57.75304832720497
 20
82.70073754429672
 30
0.0
 11
55.38756439279314
 21
85.06622147870848
 31
0.0
  0
LINE
  5
8DE7
330
18
100
AcDbEntity
  8
bowle
 48
0.1
100
AcDbLine
 10
55.98528137423852
 20
87.29693162200931
 30
0.0
 11
55.38756439279314
 21
85.06622147870848
 31
0.0
  0
LINE
  5
8DE8
330
18
100
AcDbEntity
  8
bowle
 48
0.1
100
AcDbLine
 10
55.98528137423852
 20
87.29693162200931
 30
0.0
 11
58.21599151753924
 21
87.89464860345459
 31
0.0
  0
LINE
  5
8DE9
330
18
100
AcDbEntity
  8
bowle
 48
0.1
100
AcDbLine
 10
55.38756439279314
 20
85.06622147870842
 30
0.0
 11
58.21599151753924
 21
87.89464860345459
 31
0.0
  0
LINE
  5
8DEA
330
18
100
AcDbEntity
  8
bowle
 48
0.1
100
AcDbLine
 10
57.75304832720497
 20
82.22216137392729
 30
0.0
 11
57.75304832720497
 21
82.70073754429677
 31
0.0
  0
LINE
  5
8DEB
330
18
100
AcDbEntity
  8
bowle
 48
0.1
100
AcDbLine
 10
57.75304832720497
 20
82.70073754429672
 30
0.0
 11
60.58147545195106
 21
85.52916466904292
 31
0.0
  0
LINE
  5
8E00
330
18
100
AcDbEntity
  8
center
 48
0.1
100
AcDbLine
 10
43.12442323801776
 20
91.40663623426542
 30
0.0
 11
34.77207793864201
 21
83.05429093489005
 31
0.0
  0
ARC
  5
8E0B
330
18
100
AcDbEntity
  8
contour
 62
     4
100
AcDbCircle
 10
59.74999999999977
 20
95.782212996248
 30
0.0
 40
2.0
100
AcDbArc
 50
165.5224878140702
 51
104.4775121859316
  0
ARC
  5
8E0D
330
18
100
AcDbEntity
  8
contour
 62
     4
100
AcDbCircle
 10
47.49999999999988
 20
83.532212996248
 30
0.0
 40
2.0
100
AcDbArc
 50
165.5224878140702
 51
104.4775121859316
  0
ARC
  5
8E0E
330
18
100
AcDbEntity
  8
contour
 62
     4
100
AcDbCircle
 10
35.24999999999977
 20
95.78221299624789
 30
0.0
 40
2.0
100
AcDbArc
 50
165.5224878140702
 51
104.4775121859316
  0
LINE
  5
8EAC
330
18
100
AcDbEntity
  8
bowle
 48
0.1
100
AcDbLine
 10
57.75304832720485
 20
108.8636884481992
 30
0.0
 11
55.38756439279314
 21
106.4982045137875
 31
0.0
  0
LINE
  5
8EAD
330
18
100
AcDbEntity
  8
bowle
 48
0.1
100
AcDbLine
 10
57.75304832720485
 20
109.3422646185686
 30
0.0
 11
57.75304832720485
 21
108.8636884481992
 31
0.0
  0
LINE
  5
8EAE
330
18
100
AcDbEntity
  8
bowle
 48
0.1
100
AcDbLine
 10
60.58147545195118
 20
106.035261323453
 30
0.0
 11
58.21599151753935
 21
103.6697773890412
 31
0.0
  0
LINE
  5
8EAF
330
18
100
AcDbEntity
  8
bowle
 48
0.1
100
AcDbLine
 10
55.98528137423852
 20
104.2674943704866
 30
0.0
 11
58.21599151753935
 21
103.6697773890412
 31
0.0
  0
LINE
  5
8EB0
330
18
100
AcDbEntity
  8
bowle
 48
0.1
100
AcDbLine
 10
55.98528137423852
 20
104.2674943704866
 30
0.0
 11
55.38756439279325
 21
106.4982045137874
 31
0.0
  0
LINE
  5
8EB1
330
18
100
AcDbEntity
  8
bowle
 48
0.1
100
AcDbLine
 10
58.21599151753935
 20
103.6697773890412
 30
0.0
 11
55.38756439279325
 21
106.4982045137874
 31
0.0
  0
LINE
  5
8EB2
330
18
100
AcDbEntity
  8
bowle
 48
0.1
100
AcDbLine
 10
61.06005162232055
 20
106.035261323453
 30
0.0
 11
60.58147545195106
 21
106.035261323453
 31
0.0
  0
LINE
  5
8EB3
330
18
100
AcDbEntity
  8
bowle
 48
0.1
100
AcDbLine
 10
60.58147545195118
 20
106.035261323453
 30
0.0
 11
57.75304832720485
 21
108.8636884481992
 31
0.0
  0
LINE
  5
8EB4
330
18
100
AcDbEntity
  8
bowle
 48
0.1
100
AcDbLine
 10
34.41852454804859
 20
106.035261323453
 30
0.0
 11
36.78400848246019
 21
103.6697773890413
 31
0.0
  0
LINE
  5
8EB5
330
18
100
AcDbEntity
  8
bowle
 48
0.1
100
AcDbLine
 10
33.93994837767912
 20
106.035261323453
 30
0.0
 11
34.41852454804859
 21
106.035261323453
 31
0.0
  0
LINE
  5
8EB6
330
18
100
AcDbEntity
  8
bowle
 48
0.1
100
AcDbLine
 10
37.24695167279469
 20
108.8636884481993
 30
0.0
 11
39.61243560720652
 21
106.4982045137875
 31
0.0
  0
LINE
  5
8EB7
330
18
100
AcDbEntity
  8
bowle
 48
0.1
100
AcDbLine
 10
39.01471862576119
 20
104.2674943704867
 30
0.0
 11
39.61243560720652
 21
106.4982045137875
 31
0.0
  0
LINE
  5
8EB8
330
18
100
AcDbEntity
  8
bowle
 48
0.1
100
AcDbLine
 10
39.01471862576119
 20
104.2674943704867
 30
0.0
 11
36.78400848246037
 21
103.6697773890413
 31
0.0
  0
LINE
  5
8EB9
330
18
100
AcDbEntity
  8
bowle
 48
0.1
100
AcDbLine
 10
39.61243560720652
 20
106.4982045137875
 30
0.0
 11
36.78400848246037
 21
103.6697773890413
 31
0.0
  0
LINE
  5
8EBA
330
18
100
AcDbEntity
  8
bowle
 48
0.1
100
AcDbLine
 10
37.24695167279469
 20
109.3422646185687
 30
0.0
 11
37.24695167279469
 21
108.8636884481992
 31
0.0
  0
LINE
  5
8EBB
330
18
100
AcDbEntity
  8
bowle
 48
0.1
100
AcDbLine
 10
37.24695167279469
 20
108.8636884481993
 30
0.0
 11
34.41852454804859
 21
106.035261323453
 31
0.0
  0
LINE
  5
8EBC
330
18
100
AcDbEntity
  8
bowle
 48
0.1
100
AcDbLine
 10
37.24695167279478
 20
82.70073754429672
 30
0.0
 11
39.61243560720658
 21
85.06622147870832
 31
0.0
  0
LINE
  5
8EBD
330
18
100
AcDbEntity
  8
bowle
 48
0.1
100
AcDbLine
 10
37.24695167279478
 20
82.22216137392724
 30
0.0
 11
37.24695167279478
 21
82.70073754429672
 31
0.0
  0
LINE
  5
8EBE
330
18
100
AcDbEntity
  8
bowle
 48
0.1
100
AcDbLine
 10
34.41852454804859
 20
85.52916466904287
 30
0.0
 11
36.78400848246037
 21
87.89464860345464
 31
0.0
  0
LINE
  5
8EBF
330
18
100
AcDbEntity
  8
bowle
 48
0.1
100
AcDbLine
 10
39.01471862576119
 20
87.29693162200931
 30
0.0
 11
36.78400848246037
 21
87.89464860345464
 31
0.0
  0
LINE
  5
8EC0
330
18
100
AcDbEntity
  8
bowle
 48
0.1
100
AcDbLine
 10
39.01471862576119
 20
87.29693162200931
 30
0.0
 11
39.61243560720646
 21
85.06622147870855
 31
0.0
  0
LINE
  5
8EC1
330
18
100
AcDbEntity
  8
bowle
 48
0.1
100
AcDbLine
 10
36.78400848246037
 20
87.89464860345464
 30
0.0
 11
39.61243560720646
 21
85.06622147870855
 31
0.0
  0
LINE
  5
8EC2
330
18
100
AcDbEntity
  8
bowle
 48
0.1
100
AcDbLine
 10
33.93994837767917
 20
85.52916466904287
 30
0.0
 11
34.41852454804865
 21
85.52916466904287
 31
0.0
  0
LINE
  5
8EC3
330
18
100
AcDbEntity
  8
bowle
 48
0.1
100
AcDbLine
 10
34.41852454804859
 20
85.52916466904287
 30
0.0
 11
37.24695167279478
 21
82.70073754429672
 31
0.0
  0
CIRCLE
  5
8F3C
330
18
100
AcDbEntity
  8
contour
100
AcDbCircle
 10
47.49999999999988
 20
95.78221299624795
 30
0.0
 40
8.688000000000073
  0
CIRCLE
  5
8F3D
330
18
100
AcDbEntity
  8
bowle
 48
0.1
100
AcDbCircle
 10
56.16205806953496
 20
104.4442710657831
 30
0.0
 40
2.449999999999999
  0
CIRCLE
  5
8F3E
330
18
100
AcDbEntity
  8
bowle
 48
0.1
100
AcDbCircle
 10
38.83794193046475
 20
87.12015492671275
 30
0.0
 40
2.449999999999999
  0
CIRCLE
  5
8F3F
330
18
100
AcDbEntity
  8
bowle
 48
0.1
100
AcDbCircle
 10
38.83794193046475
 20
104.4442710657831
 30
0.0
 40
2.449999999999999
  0
CIRCLE
  5
8F40
330
18
100
AcDbEntity
  8
bowle
 48
0.1
100
AcDbCircle
 10
56.16205806953519
 20
87.1201549267127
 30
0.0
 40
2.449999999999999
  0
LINE
  5
8F42
330
18
100
AcDbEntity
  8
center
 48
0.1
100
AcDbLine
 10
43.12442323801771
 20
100.1577897582305
 30
0.0
 11
34.77207793864201
 21
108.5101350576058
 31
0.0
  0
LINE
  5
8F43
330
18
100
AcDbEntity
  8
center
 48
0.1
100
AcDbLine
 10
51.87557676198214
 20
91.40663623426554
 30
0.0
 11
60.22792206135796
 21
83.05429093489005
 31
0.0
  0
LINE
  5
8F44
330
18
100
AcDbEntity
  8
center
 48
0.1
100
AcDbLine
 10
51.87557676198217
 20
100.1577897582304
 30
0.0
 11
60.22792206135796
 21
108.5101350576058
 31
0.0
  0
HATCH
  5
97D9
330
18
100
AcDbEntity
  8
section
100
AcDbHatch
 10
0.0
 20
0.0
 30
0.0
210
0.0
220
0.0
230
1.0
  2
ANSI31
 70
     0
 71
     0
 91
       11
 92
        7
 72
     1
 73
     1
 93
       11
 10
61.75000000000006
 20
59.61793401399763
 42
0.0
 10
61.75
 20
62.41793401399765
 42
0.0
 10
63.49999999999994
 20
62.41793401399764
 42
-0.414213562373096
 10
64.49999999999992
 20
61.41793401399763
 42
0.0
 10
64.49999999999992
 20
52.51793401399763
 42
-0.414213562373094
 10
63.49999999999994
 20
51.51793401399763
 42
0.0
 10
61.75000000000006
 20
51.51793401399763
 42
0.0
 10
61.75000000000003
 20
52.31793401399762
 42
0.0
 10
62.25
 20
52.31793401399762
 42
0.0
 10
62.25
 20
54.31793401399763
 42
0.0
 10
61.75000000000006
 20
54.31793401399762
 42
0.0
 97
        0
 92
        7
 72
     0
 73
     1
 93
        4
 10
61.37100000000001
 20
62.41793401399764
 10
61.75000000000003
 20
62.41793401399764
 10
61.75000000000006
 20
59.61793401399758
 10
61.37100000000003
 20
59.9969340139976
 97
        0
 92
        7
 72
     0
 73
     1
 93
        4
 10
57.75000000000011
 20
62.41793401399764
 10
58.12900000000005
 20
62.41793401399762
 10
58.12900000000002
 20
59.99693401399752
 10
57.75000000000011
 20
59.61793401399764
 97
        0
 92
        7
 72
     0
 73
     1
 93
        7
 10
55.49999999999982
 20
61.72993401399747
 10
56.18800000000002
 20
62.41793401399762
 10
57.75000000000011
 20
62.4179340139976
 10
57.75000000000011
 20
59.61793401399763
 10
57.75000000000014
 20
54.3179340139976
 10
56.18799999999993
 20
54.3179340139976
 10
55.49999999999974
 20
55.00593401399779
 97
        0
 92
        7
 72
     0
 73
     1
 93
        4
 10
54.68799999999998
 20
60.91793401399759
 10
55.49999999999986
 20
61.72993401399745
 10
55.49999999999977
 20
55.00593401399782
 10
54.68800000000001
 20
55.81793401399758
 97
        0
 92
        7
 72
     0
 73
     1
 93
        4
 10
39.50000000000012
 20
61.72993401399754
 10
40.31200000000001
 20
60.91793401399762
 10
40.31200000000001
 20
55.8179340139976
 10
39.50000000000023
 20
55.00593401399779
 97
        0
 92
        7
 72
     1
 73
     1
 93
       34
 10
30.49999999999989
 20
61.41793401399765
 42
-0.4142135623730951
 10
31.49999999999989
 20
62.41793401399765
 42
0.0
 10
38.81200000000001
 20
62.41793401399764
 42
0.0
 10
39.50000000000012
 20
61.72993401399754
 42
0.0
 10
39.50000000000023
 20
55.00593401399784
 42
0.0
 10
38.81200000000001
 20
54.31793401399763
 42
0.0
 10
32.75
 20
54.31793401399764
 42
0.0
 10
32.75000000000006
 20
52.31793401399764
 42
0.0
 10
38.81200000000001
 20
52.31793401399764
 42
0.0
 10
39.50000000000023
 20
51.62993401399742
 42
0.0
 10
39.50000000000023
 20
45.10593401399791
 42
0.0
 10
38.81200000000007
 20
44.41793401399764
 42
0.0
 10
37.89999999999987
 20
44.41793401399763
 42
0.0
 10
37.39999999999986
 20
44.91793401399761
 42
0.0
 10
37.39999999999986
 20
47.17663093523995
 42
0.0
 10
35.24999999999995
 20
48.41793401399763
 42
0.0
 10
33.09999999999991
 20
47.17663093523999
 42
0.0
 10
33.09999999999991
 20
44.91793401399767
 42
0.0
 10
32.5999999999998
 20
44.41793401399765
 42
0.0
 10
31.49999999999989
 20
44.41793401399765
 42
-0.4142135623731014
 10
30.49999999999989
 20
45.41793401399767
 42
0.0
 10
30.49999999999994
 20
48.51793401399764
 42
-0.4142135623730913
 10
31.49999999999995
 20
49.51793401399763
 42
0.0
 10
37.75
 20
49.51793401399763
 42
0.0
 10
37.75
 20
51.51793401399763
 42
0.0
 10
31.49999999999995
 20
51.51793401399764
 42
-0.4142135623730966
 10
30.49999999999994
 20
52.51793401399765
 42
0.0
 10
30.5
 20
54.91793401399764
 42
0.0
 10
30.99999999999983
 20
55.41793401399766
 42
0.0
 10
34.3452994616207
 20
55.41793401399766
 42
0.0
 10
35.50000000000006
 20
57.41793401399765
 42
0.0
 10
34.34529946162064
 20
59.41793401399768
 42
0.0
 10
30.99999999999994
 20
59.41793401399762
 42
0.0
 10
30.49999999999989
 20
59.91793401399775
 42
0.0
 97
        0
 92
        7
 72
     0
 73
     1
 93
        4
 10
39.50000000000023
 20
51.62993401399738
 10
40.31200000000001
 20
50.81793401399761
 10
40.31200000000001
 20
45.91793401399766
 10
39.50000000000023
 20
45.10593401399791
 97
        0
 92
        7
 72
     0
 73
     1
 93
        4
 10
54.68799999999996
 20
50.81793401399767
 10
55.49999999999977
 20
51.62993401399745
 10
55.49999999999974
 20
45.10593401399794
 10
54.68799999999998
 20
45.91793401399764
 97
        0
 92
        7
 72
     0
 73
     1
 93
       13
 10
55.49999999999974
 20
51.62993401399745
 10
56.18799999999999
 20
52.3179340139976
 10
57.75000000000003
 20
52.31793401399762
 10
57.75000000000003
 20
51.51793401399764
 10
57.25000000000003
 20
51.51793401399763
 10
57.25
 20
49.51793401399763
 10
57.75000000000005
 20
49.51793401399761
 10
57.75000000000005
 20
48.41793401399763
 10
56.25000000000006
 20
48.41793401399763
 10
56.25000000000006
 20
44.71793401399771
 10
56.25000000000006
 20
44.41793401399764
 10
56.18800000000002
 20
44.41793401399763
 10
55.49999999999974
 20
45.10593401399789
 97
        0
 92
        7
 72
     1
 73
     1
 93
        9
 10
63.25000000000002
 20
48.41793401399764
 42
0.0
 10
61.75000000000006
 20
48.41793401399762
 42
0.0
 10
61.75000000000006
 20
49.51793401399765
 42
0.0
 10
63.49999999999986
 20
49.51793401399765
 42
-0.4142135623730847
 10
64.49999999999985
 20
48.51793401399768
 42
0.0
 10
64.49999999999997
 20
45.41793401399764
 42
-0.4142135623730951
 10
63.49999999999997
 20
44.41793401399763
 42
0.0
 10
63.25000000000023
 20
44.41793401399764
 42
0.0
 10
63.25000000000023
 20
44.71793401399776
 42
0.0
 97
        0
 75
     0
 76
     1
 52
0.0
 41
0.3
 77
     0
 78
     1
 53
135.0
 43
307.1126493374397
 44
-14.67176417688665
 45
0.6735192090801863
 46
0.6735192090801866
 79
     0
 47
0.0626074792405008
 98
       11
 10
63.04923540532548
 20
58.82064263793097
 10
61.54617970944707
 20
61.2623342474418
 10
57.78854206334756
 20
61.51276437341824
 10
56.78650457862943
 20
60.76147464741485
 10
55.03294083956859
 20
58.50760546940489
 10
39.68925068600277
 20
59.32150288988373
 10
38.37407681930938
 20
60.13539965843688
 10
39.87713251518778
 20
47.3634736644542
 10
55.1581953923586
 20
48.991268505412
 10
56.4733681966544
 20
49.55473579991451
 10
63.61288089288075
 20
46.36175381247449
1001
ACAD
1010
0.0
1020
0.0
1030
0.0
  0
LINE
  5
97DA
330
18
100
AcDbEntity
  8
contour
100
AcDbLine
 10
64.49999999999992
 20
61.41793401399763
 30
0.0
 11
64.49999999999992
 21
52.51793401399763
 31
0.0
  0
LINE
  5
97DB
330
18
100
AcDbEntity
  8
contour
100
AcDbLine
 10
64.49999999999985
 20
48.51793401399766
 30
0.0
 11
64.49999999999997
 21
45.41793401399764
 31
0.0
  0
ARC
  5
97DC
330
18
100
AcDbEntity
  8
contour
100
AcDbCircle
 10
63.49999999999986
 20
48.51793401399764
 30
0.0
 40
0.9999999999999998
100
AcDbArc
 50
0.0000000000008142
 51
90.0
  0
LINE
  5
97DD
330
18
100
AcDbEntity
  8
contour
100
AcDbLine
 10
63.49999999999997
 20
44.41793401399763
 30
0.0
 11
31.49999999999989
 21
44.41793401399765
 31
0.0
  0
LINE
  5
97DE
330
18
100
AcDbEntity
  8
contour
100
AcDbLine
 10
37.39999999999981
 20
47.17663093523997
 30
0.0
 11
35.24999999999989
 21
48.41793401399765
 31
0.0
  0
ARC
  5
97DF
330
18
100
AcDbEntity
  8
contour
100
AcDbCircle
 10
31.49999999999989
 20
45.41793401399765
 30
0.0
 40
0.9999999999999998
100
AcDbArc
 50
180.0
 51
270.0
  0
ARC
  5
97E0
330
18
100
AcDbEntity
  8
contour
100
AcDbCircle
 10
63.49999999999997
 20
45.41793401399764
 30
0.0
 40
0.9999999999999998
100
AcDbArc
 50
270.0
 51
0.0000000000004071
  0
LINE
  5
97E1
330
18
100
AcDbEntity
  8
contour
100
AcDbLine
 10
63.49999999999986
 20
49.51793401399765
 30
0.0
 11
61.75000000000006
 21
49.51793401399765
 31
0.0
  0
LINE
  5
97E2
330
18
100
AcDbEntity
  8
contour
100
AcDbLine
 10
37.75
 20
49.51793401399763
 30
0.0
 11
31.49999999999995
 21
49.51793401399763
 31
0.0
  0
LINE
  5
97E3
330
18
100
AcDbEntity
  8
contour
100
AcDbLine
 10
63.49999999999994
 20
51.51793401399763
 30
0.0
 11
61.75000000000006
 21
51.51793401399763
 31
0.0
  0
LINE
  5
97E4
330
18
100
AcDbEntity
  8
contour
100
AcDbLine
 10
57.75000000000005
 20
51.51793401399763
 30
0.0
 11
57.25000000000003
 21
51.51793401399763
 31
0.0
  0
ARC
  5
97E5
330
18
100
AcDbEntity
  8
contour
100
AcDbCircle
 10
63.49999999999994
 20
52.51793401399763
 30
0.0
 40
0.9999999999999998
100
AcDbArc
 50
270.0
 51
359.9999999999998
  0
LINE
  5
97E6
330
18
100
AcDbEntity
  8
contour
100
AcDbLine
 10
37.75
 20
51.51793401399763
 30
0.0
 11
31.49999999999995
 21
51.51793401399764
 31
0.0
  0
LINE
  5
97E7
330
18
100
AcDbEntity
  8
contour
100
AcDbLine
 10
57.75000000000009
 20
52.31793401399762
 30
0.0
 11
32.75
 21
52.31793401399764
 31
0.0
  0
LINE
  5
97E8
330
18
100
AcDbEntity
  8
contour
100
AcDbLine
 10
57.75000000000009
 20
54.3179340139976
 30
0.0
 11
32.75
 21
54.31793401399764
 31
0.0
  0
LINE
  5
97E9
330
18
100
AcDbEntity
  8
contour
100
AcDbLine
 10
30.49999999999989
 20
45.41793401399765
 30
0.0
 11
30.49999999999994
 21
48.51793401399764
 31
0.0
  0
ARC
  5
97EA
330
18
100
AcDbEntity
  8
contour
100
AcDbCircle
 10
31.49999999999995
 20
48.51793401399763
 30
0.0
 40
0.9999999999999998
100
AcDbArc
 50
90.0
 51
179.9999999999992
  0
LINE
  5
97EB
330
18
100
AcDbEntity
  8
contour
100
AcDbLine
 10
30.49999999999994
 20
52.51793401399765
 30
0.0
 11
30.49999999999989
 21
61.41793401399765
 31
0.0
  0
ARC
  5
97EC
330
18
100
AcDbEntity
  8
contour
100
AcDbCircle
 10
31.49999999999995
 20
52.51793401399765
 30
0.0
 40
0.9999999999999998
100
AcDbArc
 50
180.0000000000004
 51
270.0
  0
ARC
  5
97ED
330
18
100
AcDbEntity
  8
contour
100
AcDbCircle
 10
31.49999999999989
 20
61.41793401399765
 30
0.0
 40
0.9999999999999998
100
AcDbArc
 50
90.0
 51
180.0
  0
LINE
  5
97EE
330
18
100
AcDbEntity
  8
contour
100
AcDbLine
 10
31.49999999999989
 20
62.41793401399765
 30
0.0
 11
63.49999999999994
 21
62.41793401399764
 31
0.0
  0
ARC
  5
97EF
330
18
100
AcDbEntity
  8
contour
100
AcDbCircle
 10
63.49999999999994
 20
61.41793401399763
 30
0.0
 40
0.9999999999999998
100
AcDbArc
 50
359.9999999999998
 51
90.0
  0
LINE
  5
97F0
330
18
100
AcDbEntity
  8
contour
100
AcDbLine
 10
54.68799999999998
 20
60.91793401399764
 30
0.0
 11
56.18799999999999
 21
62.41793401399764
 31
0.0
  0
LINE
  5
97F1
330
18
100
AcDbEntity
  8
contour
100
AcDbLine
 10
54.68799999999998
 20
50.81793401399767
 30
0.0
 11
54.68799999999998
 21
45.91793401399764
 31
0.0
  0
LINE
  5
97F2
330
18
100
AcDbEntity
  8
contour
100
AcDbLine
 10
56.18799999999999
 20
44.41793401399765
 30
0.0
 11
54.68799999999998
 21
45.91793401399764
 31
0.0
  0
LINE
  5
97F3
330
18
100
AcDbEntity
  8
contour
 62
     4
100
AcDbLine
 10
55.49999999999977
 20
51.6299340139974
 30
0.0
 11
55.49999999999974
 21
45.10593401399787
 31
0.0
  0
LINE
  5
97F4
330
18
100
AcDbEntity
  8
contour
100
AcDbLine
 10
57.25
 20
49.51793401399763
 30
0.0
 11
57.25000000000003
 21
51.51793401399763
 31
0.0
  0
LINE
  5
97F5
330
18
100
AcDbEntity
  8
contour
100
AcDbLine
 10
37.75
 20
49.51793401399763
 30
0.0
 11
37.75
 21
51.51793401399763
 31
0.0
  0
LINE
  5
97F6
330
18
100
AcDbEntity
  8
contour
100
AcDbLine
 10
30.99999999999994
 20
59.41793401399761
 30
0.0
 11
34.34529946162076
 21
59.41793401399768
 31
0.0
  0
LINE
  5
97F7
330
18
100
AcDbEntity
  8
contour
100
AcDbLine
 10
30.49999999999989
 20
59.91793401399775
 30
0.0
 11
30.99999999999994
 21
59.41793401399761
 31
0.0
  0
LINE
  5
97F8
330
18
100
AcDbEntity
  8
contour
100
AcDbLine
 10
30.99999999999989
 20
55.41793401399766
 30
0.0
 11
34.34529946162076
 21
55.41793401399766
 31
0.0
  0
LINE
  5
97F9
330
18
100
AcDbEntity
  8
contour
100
AcDbLine
 10
35.5
 20
57.41793401399765
 30
0.0
 11
34.3452994616207
 21
55.41793401399765
 31
0.0
  0
LINE
  5
97FA
330
18
100
AcDbEntity
  8
contour
100
AcDbLine
 10
35.5
 20
57.41793401399765
 30
0.0
 11
34.3452994616207
 21
59.4179340139976
 31
0.0
  0
LINE
  5
97FB
330
18
100
AcDbEntity
  8
contour
100
AcDbLine
 10
34.34529946162076
 20
55.41793401399765
 30
0.0
 11
34.3452994616207
 21
59.4179340139976
 31
0.0
  0
LINE
  5
97FC
330
18
100
AcDbEntity
  8
contour
100
AcDbLine
 10
30.49999999999989
 20
54.91793401399762
 30
0.0
 11
30.99999999999994
 21
55.41793401399772
 31
0.0
  0
LINE
  5
97FD
330
18
100
AcDbEntity
  8
contour
100
AcDbLine
 10
30.99999999999989
 20
55.41793401399766
 30
0.0
 11
30.99999999999994
 21
59.41793401399761
 31
0.0
  0
LINE
  5
97FE
330
18
100
AcDbEntity
  8
contour
100
AcDbLine
 10
62.25
 20
52.31793401399762
 30
0.0
 11
62.25
 21
54.31793401399763
 31
0.0
  0
LINE
  5
97FF
330
18
100
AcDbEntity
  8
contour
100
AcDbLine
 10
32.75
 20
52.31793401399762
 30
0.0
 11
32.75
 21
54.31793401399763
 31
0.0
  0
LINE
  5
9800
330
18
100
AcDbEntity
  8
contour
100
AcDbLine
 10
40.31200000000001
 20
60.91793401399764
 30
0.0
 11
38.81200000000001
 21
62.41793401399764
 31
0.0
  0
LINE
  5
9801
330
18
100
AcDbEntity
  8
contour
100
AcDbLine
 10
40.31200000000001
 20
50.81793401399763
 30
0.0
 11
40.31200000000001
 21
45.91793401399764
 31
0.0
  0
LINE
  5
9802
330
18
100
AcDbEntity
  8
contour
100
AcDbLine
 10
38.81200000000001
 20
44.41793401399765
 30
0.0
 11
40.31200000000001
 21
45.91793401399764
 31
0.0
  0
LINE
  5
9803
330
18
100
AcDbEntity
  8
contour
 62
     4
100
AcDbLine
 10
39.50000000000023
 20
51.62993401399749
 30
0.0
 11
39.50000000000023
 21
45.10593401399787
 31
0.0
  0
LINE
  5
9804
330
18
100
AcDbEntity
  8
contour
100
AcDbLine
 10
54.68799999999998
 20
60.91793401399764
 30
0.0
 11
40.31200000000001
 21
60.91793401399764
 31
0.0
  0
LINE
  5
9805
330
18
100
AcDbEntity
  8
contour
100
AcDbLine
 10
54.68799999999998
 20
45.91793401399764
 30
0.0
 11
40.31200000000001
 21
45.91793401399764
 31
0.0
  0
LINE
  5
9806
330
18
100
AcDbEntity
  8
contour
100
AcDbLine
 10
56.18799999999996
 20
52.31793401399762
 30
0.0
 11
54.68799999999996
 21
50.81793401399763
 31
0.0
  0
LINE
  5
9807
330
18
100
AcDbEntity
  8
contour
100
AcDbLine
 10
38.81200000000001
 20
52.31793401399762
 30
0.0
 11
40.31200000000001
 21
50.81793401399763
 31
0.0
  0
LINE
  5
9808
330
18
100
AcDbEntity
  8
contour
100
AcDbLine
 10
54.68799999999998
 20
50.81793401399767
 30
0.0
 11
40.31200000000001
 21
50.81793401399767
 31
0.0
  0
LINE
  5
9809
330
18
100
AcDbEntity
  8
contour
100
AcDbLine
 10
54.68799999999996
 20
55.81793401399761
 30
0.0
 11
56.18799999999996
 21
54.31793401399762
 31
0.0
  0
LINE
  5
980A
330
18
100
AcDbEntity
  8
contour
100
AcDbLine
 10
40.31200000000001
 20
55.81793401399761
 30
0.0
 11
38.81200000000001
 21
54.31793401399762
 31
0.0
  0
LINE
  5
980B
330
18
100
AcDbEntity
  8
contour
100
AcDbLine
 10
54.68799999999996
 20
55.81793401399761
 30
0.0
 11
54.68799999999996
 21
60.91793401399762
 31
0.0
  0
LINE
  5
980C
330
18
100
AcDbEntity
  8
contour
100
AcDbLine
 10
54.68799999999996
 20
55.81793401399761
 30
0.0
 11
40.31200000000001
 21
55.81793401399761
 31
0.0
  0
LINE
  5
980D
330
18
100
AcDbEntity
  8
contour
100
AcDbLine
 10
40.31200000000001
 20
55.81793401399761
 30
0.0
 11
40.31200000000001
 21
60.91793401399764
 31
0.0
  0
LINE
  5
980E
330
18
100
AcDbEntity
  8
contour
 62
     4
100
AcDbLine
 10
55.49999999999974
 20
55.00593401399782
 30
0.0
 11
55.4999999999998
 21
61.7299340139974
 31
0.0
  0
LINE
  5
980F
330
18
100
AcDbEntity
  8
contour
 62
     4
100
AcDbLine
 10
39.50000000000023
 20
55.00593401399782
 30
0.0
 11
39.50000000000012
 21
61.7299340139974
 31
0.0
  0
LINE
  5
9810
330
18
100
AcDbEntity
  8
center
 48
0.1
100
AcDbLine
 10
59.75000000000005
 20
63.41793401399764
 30
0.0
 11
59.75000000000005
 21
43.41793401399764
 31
0.0
  0
INSERT
  5
9811
330
18
100
AcDbEntity
  8
contour
100
AcDbBlockReference
  2
LS
 10
366.9957309951603
 20
-136.2981020524851
 30
0.0
 41
-1.0
  0
LINE
  5
9812
330
18
100
AcDbEntity
  8
contour
100
AcDbLine
 10
57.25
 20
49.51793401399763
 30
0.0
 11
57.75000000000009
 21
49.51793401399761
 31
0.0
  0
LINE
  5
9813
330
18
100
AcDbEntity
  8
contour
100
AcDbLine
 10
62.25
 20
52.31793401399762
 30
0.0
 11
61.75000000000008
 21
52.31793401399762
 31
0.0
  0
LINE
  5
9814
330
18
100
AcDbEntity
  8
contour
100
AcDbLine
 10
62.25
 20
54.31793401399763
 30
0.0
 11
61.75000000000008
 21
54.31793401399762
 31
0.0
  0
LINE
  5
9815
330
18
100
AcDbEntity
  8
contour
 62
     4
100
AcDbLine
 10
61.75000000000006
 20
59.61793401399763
 30
0.0
 11
61.75000000000006
 21
62.41793401399764
 31
0.0
  0
LINE
  5
9816
330
18
100
AcDbEntity
  8
contour
 62
     4
100
AcDbLine
 10
57.75000000000011
 20
59.61793401399763
 30
0.0
 11
57.75000000000011
 21
62.41793401399764
 31
0.0
  0
LINE
  5
9817
330
18
100
AcDbEntity
  8
contour
100
AcDbLine
 10
61.37100000000003
 20
59.99693401399753
 30
0.0
 11
61.37100000000003
 21
62.41793401399764
 31
0.0
  0
LINE
  5
9818
330
18
100
AcDbEntity
  8
contour
100
AcDbLine
 10
58.12900000000002
 20
59.99693401399747
 30
0.0
 11
58.12900000000002
 21
62.41793401399764
 31
0.0
  0
LINE
  5
9819
330
18
100
AcDbEntity
  8
center
 48
0.1
100
AcDbLine
 10
37.65470053837925
 20
57.41793401399767
 30
0.0
 11
29.49999999999988
 21
57.41793401399764
 31
0.0
  0
LINE
  5
981A
330
18
100
AcDbEntity
  8
contour
100
AcDbLine
 10
33.09999999999991
 20
47.17663093523995
 30
0.0
 11
33.09999999999991
 21
44.91793401399765
 31
0.0
  0
LINE
  5
981B
330
18
100
AcDbEntity
  8
contour
100
AcDbLine
 10
37.39999999999986
 20
47.17663093523995
 30
0.0
 11
37.39999999999986
 21
44.91793401399765
 31
0.0
  0
LINE
  5
981C
330
18
100
AcDbEntity
  8
contour
100
AcDbLine
 10
37.89999999999987
 20
44.41793401399765
 30
0.0
 11
37.39999999999986
 21
44.91793401399765
 31
0.0
  0
LINE
  5
981D
330
18
100
AcDbEntity
  8
contour
100
AcDbLine
 10
33.09999999999991
 20
47.17663093523997
 30
0.0
 11
35.24999999999989
 21
48.41793401399765
 31
0.0
  0
LINE
  5
981E
330
18
100
AcDbEntity
  8
contour
100
AcDbLine
 10
37.39999999999981
 20
47.17663093523997
 30
0.0
 11
33.09999999999991
 21
47.17663093523997
 31
0.0
  0
LINE
  5
981F
330
18
100
AcDbEntity
  8
contour
100
AcDbLine
 10
37.39999999999986
 20
44.91793401399765
 30
0.0
 11
33.09999999999991
 21
44.91793401399765
 31
0.0
  0
LINE
  5
9820
330
18
100
AcDbEntity
  8
contour
100
AcDbLine
 10
32.59999999999986
 20
44.41793401399765
 30
0.0
 11
33.09999999999985
 21
44.91793401399765
 31
0.0
  0
LINE
  5
9821
330
18
100
AcDbEntity
  8
center
 48
0.1
100
AcDbLine
 10
35.24999999999989
 20
49.41793401399765
 30
0.0
 11
35.24999999999989
 21
43.41793401399764
 31
0.0
  0
LINE
  5
9822
330
18
100
AcDbEntity
  8
center
 48
0.1
100
AcDbLine
 10
47.49999999999988
 20
63.41793401399764
 30
0.0
 11
47.49999999999988
 21
43.41793401399764
 31
0.0
  0
LINE
  5
9823
330
18
100
AcDbEntity
  8
contour
100
AcDbLine
 10
63.25000000000023
 20
44.71793401399776
 30
0.0
 11
63.25000000000023
 21
44.41793401399763
 31
0.0
  0
LINE
  5
9824
330
18
100
AcDbEntity
  8
contour
100
AcDbLine
 10
56.25000000000006
 20
44.71793401399771
 30
0.0
 11
56.25000000000006
 21
44.41793401399763
 31
0.0
  0
DIMENSION
  5
9827
330
18
100
AcDbEntity
  8
mark
100
AcDbDimension
  2
*D4
 10
72.90529543377795
 20
44.41793401399763
 30
0.0
 11
71.88029543377793
 21
53.41793401399764
 31
0.0
 70
    32
  1
18%%p0.2
 71
     5
 42
18.0
  3
STANDARD
100
AcDbAlignedDimension
 13
63.49999999999994
 23
62.41793401399764
 33
0.0
 14
63.49999999999997
 24
44.41793401399763
 34
0.0
 50
90.0
100
AcDbRotatedDimension
  0
HATCH
  5
9828
330
18
100
AcDbEntity
  8
mark
100
AcDbHatch
 10
0.0
 20
0.0
 30
0.0
210
0.0
220
0.0
230
1.0
  2
SOLID
 70
     1
 71
     0
 91
        1
 92
        7
 72
     0
 73
     1
 93
        3
 10
39.50000000000023
 20
31.01503921410829
 10
39.50000000000023
 20
33.09837254744163
 10
40.54166666666688
 20
32.05670588077496
 97
        0
 75
     0
 76
     1
 47
0.0340840503434746
 98
        1
 10
39.99421191841069
 20
31.96040679510544
450
        0
451
        0
460
0.0
461
0.0
452
        1
462
1.0
453
        2
463
0.0
 63
     5
421
      255
463
1.0
 63
     7
421
 16777215
470
LINEAR
1001
ACAD
1010
0.0
1020
0.0
1030
0.0
  0
TOLERANCE
  5
9829
330
18
100
AcDbEntity
  8
mark
100
AcDbFcf
  3
STANDARD
 10
45.75000000000025
 20
33.09837254744162
 30
0.0
  1
%%v%%v%%vA%%v%%v
 11
-0.0000000000000002
 21
-1.0
 31
0.0
  0
LINE
  5
982A
330
18
100
AcDbEntity
  8
mark
100
AcDbLine
 10
44.50000000000025
 20
32.05670588077496
 30
0.0
 11
40.54166666666688
 21
32.05670588077496
 31
0.0
  0
LINE
  5
982B
330
18
100
AcDbEntity
  8
mark
100
AcDbLine
 10
39.50000000000023
 20
31.01503921410829
 30
0.0
 11
40.54166666666688
 21
32.05670588077496
 31
0.0
  0
LINE
  5
982C
330
18
100
AcDbEntity
  8
mark
100
AcDbLine
 10
40.54166666666688
 20
32.05670588077496
 30
0.0
 11
39.50000000000023
 21
33.09837254744163
 31
0.0
  0
DIMENSION
  5
982E
330
18
100
AcDbEntity
  8
mark
100
AcDbDimension
  2
*D5
 10
39.50000000000023
 20
37.45670588077496
 30
0.0
 11
47.49999999999999
 21
38.48170588077496
 31
0.0
 70
    32
  1
M16x1.5P
 71
     5
 42
15.99999999999951
  3
STANDARD
100
AcDbAlignedDimension
 13
55.49999999999974
 23
45.10593401399787
 33
0.0
 14
39.50000000000023
 24
45.10593401399787
 34
0.0
 50
180.0
100
AcDbRotatedDimension
  0
TOLERANCE
  5
98A8
330
18
100
AcDbEntity
  8
mark
100
AcDbFcf
  3
STANDARD
 10
77.90529543377795
 20
67.41793401399764
 30
0.0
  1
{\Fgdt;h}%%v0.005%%v%%vA%%v%%v
  0
DIMENSION
  5
98B2
330
18
100
AcDbEntity
  8
mark
100
AcDbDimension
  2
*D6
 10
69.00339474103827
 20
51.51793401399763
 30
0.0
 11
67.97839474103826
 21
56.96793401399764
 31
0.0
 70
    32
 71
     5
 42
10.9
  3
STANDARD
100
AcDbAlignedDimension
 13
63.49999999999994
 23
62.41793401399764
 33
0.0
 14
63.49999999999994
 24
51.51793401399763
 34
0.0
 50
90.0
100
AcDbRotatedDimension
  0
DIMENSION
  5
98BF
330
18
100
AcDbEntity
  8
mark
100
AcDbDimension
  2
*D7
 10
69.00339474103827
 20
49.51793401399765
 30
0.0
 11
67.97839474103826
 21
50.51793401399764
 31
0.0
 70
    32
 71
     5
 42
1.999999999999985
  3
STANDARD
100
AcDbAlignedDimension
 13
63.49999999999994
 23
51.51793401399763
 33
0.0
 14
63.49999999999986
 24
49.51793401399765
 34
0.0
 50
90.0
100
AcDbRotatedDimension
  0
DIMENSION
  5
98EB
330
18
100
AcDbEntity
  8
mark
100
AcDbDimension
  2
*D8
 10
27.13946343319719
 20
57.41793401399764
 30
0.0
 11
26.11446343319718
 21
59.91793401399765
 31
0.0
 70
    32
 71
     5
 42
5.000000000000014
  3
STANDARD
100
AcDbAlignedDimension
 13
31.49999999999989
 23
62.41793401399765
 33
0.0
 14
29.49999999999988
 24
57.41793401399764
 34
0.0
 50
90.0
100
AcDbRotatedDimension
  0
LINE
  5
98F9
330
18
100
AcDbEntity
  8
mark
100
AcDbLine
 10
39.50000000000023
 20
37.05670588077496
 30
0.0
 11
39.50000000000023
 21
33.09837254744163
 31
0.0
  0
LEADER
  5
9906
330
18
100
AcDbEntity
  8
mark
100
AcDbLeader
  3
STANDARD
 76
     2
 10
55.43799999999999
 20
45.16793401399765
 30
0.0
 10
50.3121964039027
 20
40.04213041790037
 30
0.0
211
0.7071067811865476
221
0.7071067811865475
231
0.0
1001
ACAD
1000
DSTYLE
1002
{
1070
   147
1040
0.4
1070
    77
1070
     0
1002
}
  0
MTEXT
  5
9922
330
18
100
AcDbEntity
  8
mark
 62
     3
100
AcDbMText
 10
50.81835079733079
 20
42.21153319765011
 30
0.0
 40
1.25
 41
0.0
 71
     5
 72
     1
  1
C1.5
 11
0.7071067811865476
 21
0.7071067811865475
 31
0.0
 73
     1
 44
1.0
1001
ACAD
1000
ACAD_MTEXT_DEFINED_HEIGHT_BEGIN
1070
    46
1040
0.0
1000
ACAD_MTEXT_DEFINED_HEIGHT_END
  0
LINE
  5
9931
330
18
100
AcDbEntity
  8
mark
100
AcDbLine
 10
72.90529543377795
 20
67.41793401399764
 30
0.0
 11
72.90529543377795
 21
62.41793401399764
 31
0.0
  0
LINE
  5
9933
330
18
100
AcDbEntity
  8
mark
100
AcDbLine
 10
72.90529543377795
 20
67.41793401399764
 30
0.0
 11
77.90529543377795
 21
67.41793401399764
 31
0.0
  0
MTEXT
  5
995E
330
18
100
AcDbEntity
  8
mark
 62
     3
100
AcDbMText
 10
49.65247393535822
 20
68.88477986507727
 30
0.0
 40
0.6200000000000001
 41
0.0
 71
     1
 72
     1
  1
+0\P-0.2
 73
     1
 44
1.0
1001
ACAD
1000
ACAD_MTEXT_DEFINED_HEIGHT_BEGIN
1070
    46
1040
0.0
1000
ACAD_MTEXT_DEFINED_HEIGHT_END
  0
DIMENSION
  5
995F
330
18
100
AcDbEntity
  8
mark
100
AcDbDimension
  2
*D9
 10
64.49999999999992
 20
66.89698330232715
 30
0.0
 11
47.4999999999999
 21
67.92198330232716
 31
0.0
 70
    32
  1
%%C34
 71
     5
 42
34.00000000000003
  3
STANDARD
100
AcDbAlignedDimension
 13
30.49999999999989
 23
61.41793401399765
 33
0.0
 14
64.49999999999992
 24
61.41793401399763
 34
0.0
100
AcDbRotatedDimension
  0
LEADER
  5
9975
330
18
100
AcDbEntity
  8
mark
100
AcDbLeader
  3
STANDARD
 76
     3
 10
30.49999999999992
 20
57.41793401399764
 30
0.0
 10
24.59999999999991
 20
51.51793401399764
 30
0.0
 10
15.42268011676094
 20
51.51793401399764
 30
0.0
1001
ACAD
1000
DSTYLE
1002
{
1070
   147
1040
0.4
1070
    77
1070
     0
1002
}
  0
TEXT
  5
9977
330
18
100
AcDbEntity
  8
dim
100
AcDbText
 10
15.49944883239362
 20
51.95315354603723
 30
0.0
 40
1.25
  1
4-%%C4深さ５
  7
TXT
100
AcDbText
  0
LEADER
  5
9978
330
18
100
AcDbEntity
  8
mark
100
AcDbLeader
  3
STANDARD
 76
     3
 10
35.24999999999989
 20
44.41793401399765
 30
0.0
 10
28.28877186677718
 20
37.45670588077496
 30
0.0
 10
17.41016599014108
 20
37.45670588077496
 30
0.0
1001
ACAD
1000
DSTYLE
1002
{
1070
   147
1040
0.4
1070
    77
1070
     0
1002
}
  0
TEXT
  5
9979
330
18
100
AcDbEntity
  8
dim
100
AcDbText
 10
17.60444108176958
 20
37.77705899412377
 30
0.0
 40
1.25
  1
4-%%C4.3深さ4
  7
TXT
100
AcDbText
  0
DIMENSION
  5
9983
330
18
100
AcDbEntity
  8
mark
100
AcDbDimension
  2
*D10
 10
31.49999999999984
 20
45.41793401399759
 30
0.0
 11
27.42824345166729
 21
42.79574636709763
 31
0.0
 70
    36
 71
     5
 42
0.9999999999999431
  3
STANDARD
100
AcDbRadialDimension
 15
30.79289321881331
 25
44.7108272328111
 35
0.0
 40
0.0
1001
ACAD
1000
DSTYLE
1002
{
1070
   288
1070
     1
1002
}
  0
DIMENSION
  5
9A28
330
18
100
AcDbEntity
  8
mark
100
AcDbDimension
  2
*D11
 10
59.05507602799278
 20
91.71493897212521
 30
0.0
 11
25.64829831034218
 21
103.473798793686
 31
0.0
 70
   163
  1
P.C.D 24.5
 71
     5
 42
24.50000000000001
  3
STANDARD
100
AcDbDiametricDimension
 15
35.94492397200703
 25
99.84948702037089
 35
0.0
 40
0.0
1001
ACAD
1000
DSTYLE
1002
{
1070
   288
1070
     1
1002
}
  0
TEXT
  5
9A34
330
18
100
AcDbEntity
  8
dim
100
AcDbText
 10
69.42462298093179
 20
82.69938814034921
 30
0.0
 40
2.5
  1
1
  7
TXT
100
AcDbText
  0
LEADER
  5
9A75
330
18
100
AcDbEntity
  8
mark
100
AcDbLeader
  3
STANDARD
 76
     2
 10
59.75
 20
44.41793401399763
 30
0.0
 10
69.00339474103827
 20
37.45670588077496
 30
0.0
1001
ACAD
1000
DSTYLE
1002
{
1070
   147
1040
0.4
1070
    77
1070
     0
1002
}
  0
TEXT
  5
9A78
330
18
100
AcDbEntity
  8
dim
100
AcDbText
 10
69.42462298093179
 20
36.78887176710548
 30
0.0
 40
2.5
  1
2
  7
TXT
100
AcDbText
  0
LEADER
  5
9B0A
330
18
100
AcDbEntity
  8
mark
100
AcDbLeader
  3
STANDARD
 76
     2
 10
62.22243186433537
 20
87.28221299624797
 30
0.0
 10
69.00339474103827
 20
83.36722225401869
 30
0.0
211
0.8660254037844387
221
-0.4999999999999999
231
0.0
1001
ACAD
1000
DSTYLE
1002
{
1070
   147
1040
0.4
1070
    77
1070
     0
1002
}
  0
MTEXT
  5
9B2E
330
18
100
AcDbEntity
  8
0
100
AcDbMText
 10
23.82548616095238
 20
9.538029508083077
 30
0.0
 40
2.25
 41
0.0
 71
     1
 72
     5
  1
{\Ftxt,bigfont|c128;小\~柳}
  7
JL
 73
     1
 44
1.0
1001
ACAD
1000
ACAD_MTEXT_DEFINED_HEIGHT_BEGIN
1070
    46
1040
0.0
1000
ACAD_MTEXT_DEFINED_HEIGHT_END
  0
LINE
  5
9B4D
330
18
100
AcDbEntity
  8
mark
 62
     1
100
AcDbLine
 10
67.74950150239817
 20
58.77064942257437
 30
0.0
 11
67.74950150239817
 21
55.12681190567576
 31
0.0
  0
LINE
  5
9B55
330
18
100
AcDbEntity
  8
mark
 62
     1
100
AcDbLine
 10
68.30889281409804
 20
58.77064942257437
 30
0.0
 11
68.30889281409804
 21
55.12681190567576
 31
0.0
  0
LWPOLYLINE
  5
9B59
330
18
100
AcDbEntity
  8
mark
100
AcDbPolyline
 90
        3
 70
     1
 43
0.0
 10
64.76733757061436
 20
53.6735741246481
 10
67.01733757061436
 20
52.37453601897144
 10
67.01733757061436
 20
54.97261223032475
  0
TEXT
  5
9B5A
330
18
100
AcDbEntity
  8
dim
100
AcDbText
 10
66.73773010264262
 20
53.48319232249252
 30
0.0
 40
1.25
  1
1
 50
90.0
  7
TXT
100
AcDbText
  0
MTEXT
  5
9B76
330
18
100
AcDbEntity
  8
mark
 62
     3
100
AcDbMText
 10
66.37126743866804
 20
57.59436296266557
 30
0.0
 40
1.25
 41
0.0
 71
     5
 72
     1
  1
10.25
 11
0.0000000000000001
 21
1.0
 31
0.0
 73
     1
 44
1.0
1001
ACAD
1000
ACAD_MTEXT_DEFINED_HEIGHT_BEGIN
1070
    46
1040
0.0
1000
ACAD_MTEXT_DEFINED_HEIGHT_END
  0
MTEXT
  5
9B80
330
18
100
AcDbEntity
  8
dim
100
AcDbMText
 10
4.625338767848347
 20
20.10499455323725
 30
0.0
 40
2.25
 41
0.0
 71
     1
 72
     5
  1
{\Ftxt,bigfont|c128;07.10.03\~寸法一部変更  林}
  7
JL
 73
     1
 44
1.0
1001
ACAD
1000
ACAD_MTEXT_DEFINED_HEIGHT_BEGIN
1070
    46
1040
0.0
1000
ACAD_MTEXT_DEFINED_HEIGHT_END
  0
CIRCLE
  5
9B81
330
18
100
AcDbEntity
  8
dim
100
AcDbCircle
 10
21.83811331493826
 20
19.03486533219808
 30
0.0
 40
1.415637055873787
  0
LWPOLYLINE
  5
9BE0
330
18
100
AcDbEntity
  8
mark
100
AcDbPolyline
 90
        3
 70
     1
 43
0.0
 10
3.708182695423832
 20
21.6246649770171
 10
2.264807022449775
 20
24.1246649770171
 10
0.8214313494757048
 20
21.6246649770171
  0
MTEXT
  5
9BE1
330
18
100
AcDbEntity
  8
dim
100
AcDbMText
 10
1.860222832476426
 20
23.18353157194438
 30
0.0
 40
1.25
 41
4.581557073439626
 71
     1
 72
     5
  1
2
 73
     1
 44
1.0
1001
ACAD
1000
ACAD_MTEXT_DEFINED_HEIGHT_BEGIN
1070
    46
1040
0.0
1000
ACAD_MTEXT_DEFINED_HEIGHT_END
  0
MTEXT
  5
9BE2
330
18
100
AcDbEntity
  8
dim
100
AcDbMText
 10
4.589781951159665
 20
23.85494396824225
 30
0.0
 40
2.25
 41
0.0
 71
     1
 72
     5
  1
{\Ftxt,bigfont|c128;08.08.08 振れ精度の変更  林}
  7
JL
 73
     1
 44
1.0
1001
ACAD
1000
ACAD_MTEXT_DEFINED_HEIGHT_BEGIN
1070
    46
1040
0.0
1000
ACAD_MTEXT_DEFINED_HEIGHT_END
  0
CIRCLE
  5
9BE3
330
18
100
AcDbEntity
  8
dim
100
AcDbCircle
 10
23.47693359817254
 20
22.70003465825886
 30
0.0
 40
1.381204854054431
  0
LWPOLYLINE
  5
9BE6
330
18
100
AcDbEntity
  8
mark
100
AcDbPolyline
 90
        3
 70
     1
 43
0.0
 10
3.743739512112514
 20
17.87471556201209
 10
2.300363839138458
 20
20.3747155620121
 10
0.8569881661643874
 20
17.87471556201209
  0
MTEXT
  5
9BE7
330
18
100
AcDbEntity
  8
dim
100
AcDbMText
 10
2.126389369612428
 20
19.54881944935327
 30
0.0
 40
1.25
 41
4.581557073439626
 71
     1
 72
     5
  1
1
 73
     1
 44
1.0
1001
ACAD
1000
ACAD_MTEXT_DEFINED_HEIGHT_BEGIN
1070
    46
1040
0.0
1000
ACAD_MTEXT_DEFINED_HEIGHT_END
  0
LWPOLYLINE
  5
9BE8
330
18
100
AcDbEntity
  8
mark
100
AcDbPolyline
 90
        3
 70
     1
 43
0.0
 10
90.64130537577737
 20
1.061803800027576
 10
89.19792970280331
 20
3.561803800027576
 10
87.75455402982926
 20
1.061803800027576
  0
MTEXT
  5
9BE9
330
18
100
AcDbEntity
  8
dim
100
AcDbMText
 10
88.79334551282997
 20
2.620670394954856
 30
0.0
 40
1.25
 41
4.581557073439626
 71
     1
 72
     5
  1
2
 73
     1
 44
1.0
1001
ACAD
1000
ACAD_MTEXT_DEFINED_HEIGHT_BEGIN
1070
    46
1040
0.0
1000
ACAD_MTEXT_DEFINED_HEIGHT_END
  0
LINE
  5
9BEA
330
18
100
AcDbEntity
  8
mark
 62
     1
100
AcDbLine
 10
81.18046622330883
 20
67.62180963499492
 30
0.0
 11
86.42358543367141
 21
67.62180963499492
 31
0.0
  0
LINE
  5
9BF2
330
18
100
AcDbEntity
  8
mark
 62
     1
100
AcDbLine
 10
81.18046622330883
 20
67.20350740309555
 30
0.0
 11
86.42358543367141
 21
67.20350740309555
 31
0.0
  0
LWPOLYLINE
  5
9BF3
330
18
100
AcDbEntity
  8
mark
100
AcDbPolyline
 90
        3
 70
     1
 43
0.0
 10
80.75409577297589
 20
69.50548051776713
 10
79.31072010000185
 20
72.00548051776713
 10
77.86734442702777
 20
69.50548051776713
  0
MTEXT
  5
9BF4
330
18
100
AcDbEntity
  8
dim
100
AcDbMText
 10
78.9061359100285
 20
71.0643471126944
 30
0.0
 40
1.25
 41
4.581557073439626
 71
     1
 72
     5
  1
2
 73
     1
 44
1.0
1001
ACAD
1000
ACAD_MTEXT_DEFINED_HEIGHT_BEGIN
1070
    46
1040
0.0
1000
ACAD_MTEXT_DEFINED_HEIGHT_END
  0
MTEXT
  5
9BF5
330
18
100
AcDbEntity
  8
dim
100
AcDbMText
 10
81.59076461703804
 20
71.0643471126944
 30
0.0
 40
1.25
 41
4.581557073439626
 71
     1
 72
     5
  1
0.007
 73
     1
 44
1.0
1001
ACAD
1000
ACAD_MTEXT_DEFINED_HEIGHT_BEGIN
1070
    46
1040
0.0
1000
ACAD_MTEXT_DEFINED_HEIGHT_END
  0
ENDSEC
  0
SECTION
  2
OBJECTS
  0
DICTIONARY
  5
C
330
0
100
AcDbDictionary
281
     1
  3
ACAD_COLOR
350
7873
  3
ACAD_GROUP
350
D
  3
ACAD_LAYOUT
350
5CF3
  3
ACAD_MATERIAL
350
7872
  3
ACAD_MLINESTYLE
350
1B
  3
ACAD_PLOTSETTINGS
350
5CF4
  3
ACAD_PLOTSTYLENAME
350
5CF1
  3
ACAD_TABLESTYLE
350
7874
  3
AcadDim
350
9A73
  3
ACDBVARIABLEDICTIONARY
350
45D
  0
DICTIONARY
  5
7BFE
330
2
100
AcDbDictionary
280
     1
281
     1
  3
ACAD_LAYERFILTERS
360
7C00
  3
ACLYDICTIONARY
360
7BFF
  0
DICTIONARY
  5
45F
330
18
100
AcDbDictionary
280
     1
281
     1
  3
ACAD_LAYOUTSELFREF
360
5D8B
  3
ACAD_SORTENTS
360
460
  0
DICTIONARY
  5
5D89
330
15
100
AcDbDictionary
280
     1
281
     1
  3
ACAD_LAYOUTSELFREF
360
5D8A
  0
DICTIONARY
  5
7C0B
330
7C0A
100
AcDbDictionary
280
     1
281
     1
  3
AcDbBlockTableRecordData
360
7C0C
  0
DICTIONARY
  5
8E73
330
8E72
100
AcDbDictionary
280
     1
281
     1
  3
AcDbBlockTableRecordData
360
8E74
  0
DICTIONARY
  5
7873
102
{ACAD_REACTORS
330
C
102
}
330
C
100
AcDbDictionary
281
     1
  0
DICTIONARY
  5
D
102
{ACAD_REACTORS
330
C
102
}
330
C
100
AcDbDictionary
281
     1
  0
DICTIONARY
  5
5CF3
102
{ACAD_REACTORS
330
C
102
}
330
C
100
AcDbDictionary
281
     1
  3
Model
350
5CF5
  3
配置1
350
5CF6
  0
DICTIONARY
  5
7872
102
{ACAD_REACTORS
330
C
102
}
330
C
100
AcDbDictionary
281
     1
  0
DICTIONARY
  5
1B
102
{ACAD_REACTORS
330
C
102
}
330
C
100
AcDbDictionary
281
     1
  3
STANDARD
350
1C
  0
DICTIONARY
  5
5CF4
102
{ACAD_REACTORS
330
C
102
}
330
C
100
AcDbDictionary
281
     1
  0
ACDBDICTIONARYWDFLT
  5
5CF1
102
{ACAD_REACTORS
330
C
102
}
330
C
100
AcDbDictionary
281
     1
  3
Normal
350
5CF2
100
AcDbDictionaryWithDefault
340
5CF2
  0
DICTIONARY
  5
7874
102
{ACAD_REACTORS
330
C
102
}
330
C
100
AcDbDictionary
281
     1
  3
Standard
350
7875
  0
XRECORD
  5
9A73
102
{ACAD_REACTORS
330
C
102
}
330
C
100
AcDbXrecord
280
     1
 90
   990106
  3

 60
     0
 61
     0
 62
     1
 63
     3
 64
     0
 65
     0
 66
     0
 67
     3
 68
     1
 69
     0
 70
     0
 71
     0
 72
     0
 40
0.0
170
     0
  0
DICTIONARY
  5
45D
102
{ACAD_REACTORS
330
C
102
}
330
C
100
AcDbDictionary
281
     1
  3
CTABLESTYLE
350
7880
  3
SORTENTS
350
45E
  0
DICTIONARY
  5
7C00
102
{ACAD_REACTORS
330
7BFE
102
}
330
7BFE
100
AcDbDictionary
281
     1
  0
DICTIONARY
  5
7BFF
102
{ACAD_REACTORS
330
7BFE
102
}
330
7BFE
100
AcDbDictionary
281
     1
1001
ACAD
1000
<All
  0
XRECORD
  5
5D8B
102
{ACAD_REACTORS
330
45F
102
}
330
45F
100
AcDbXrecord
280
     1
340
18
  0
SORTENTSTABLE
  5
460
102
{ACAD_REACTORS
330
45F
102
}
330
45F
100
AcDbSortentsTable
330
18
331
7D9C
  5
7D9C
331
8EB1
  5
8EB9
331
97E8
  5
97E9
331
8DB3
  5
8DBC
331
7DA4
  5
7DA4
331
7D6D
  5
7D6D
331
8EB9
  5
8EC1
331
97F0
  5
97F1
331
C0
  5
CB
331
7DAC
  5
7DAC
331
7D75
  5
7D75
331
8EC1
  5
8F3F
331
97F8
  5
97F9
331
9A34
  5
9A75
331
7DB4
  5
7DB4
331
9800
  5
9801
331
7DBC
  5
7DBC
331
7D7D
  5
7D7D
331
8DC3
  5
8DCE
331
9808
  5
9809
331
7D85
  5
7D85
331
9810
  5
9811
331
9975
  5
9977
331
9B5A
  5
9B5A
331
7D8D
  5
7D8D
331
97D9
  5
97DA
331
9818
  5
9819
331
9906
  5
9922
331
7D95
  5
7D95
331
8DEB
  5
8E09
331
97E1
  5
97E2
331
9820
  5
9821
331
98BF
  5
98EB
331
7D9D
  5
7D9D
331
8EB2
  5
8EBA
331
97E9
  5
97EA
331
9828
  5
9829
331
8E0B
  5
8E32
331
7D6E
  5
7D6E
331
7DA5
  5
7DA5
331
8EBA
  5
8EC2
331
97F1
  5
97F2
331
995E
  5
995F
331
7DAD
  5
7DAD
331
7D76
  5
7D76
331
8EC2
  5
8F40
331
97F9
  5
97FA
331
7DB5
  5
7DB5
331
9801
  5
9802
331
7DBD
  5
7DBD
331
7D7E
  5
7D7E
331
9809
  5
980A
331
8DDC
  5
8DE1
331
7D86
  5
7D86
331
8F42
  5
8F44
331
9811
  5
9812
331
98A8
  5
98B2
331
7D8E
  5
7D8E
331
8DE4
  5
8DEE
331
97DA
  5
97DB
331
9819
  5
981A
331
7D96
  5
7D96
331
97E2
  5
97E3
331
9821
  5
9822
331
7D9E
  5
7D9E
331
8EB3
  5
8EBB
331
97EA
  5
97EB
331
9829
  5
982A
331
7DA6
  5
7DA6
331
7D6F
  5
7D6F
331
8EBB
  5
8EC3
331
97F2
  5
97F3
331
995F
  5
9975
331
8DBD
  5
8DC1
331
7D77
  5
7D77
331
7DAE
  5
7DAE
331
8EC3
  5
8F42
331
97FA
  5
97FB
331
9A75
  5
9A78
331
7DB6
  5
7DB6
331
9802
  5
9803
331
7D7F
  5
7D7F
331
8DC5
  5
8DDF
331
980A
  5
980B
331
7D87
  5
7D87
331
8F43
  5
903A
331
9812
  5
9813
331
9977
  5
9978
331
8DE5
  5
8DEF
331
7D8F
  5
7D8F
331
97DB
  5
97DC
331
981A
  5
981B
331
8EAC
  5
8EB4
331
7D97
  5
7D97
331
97E3
  5
97E4
331
9822
  5
9823
331
8EB4
  5
8EBC
331
8DAE
  5
8DB2
331
7D9F
  5
7D9F
331
97EB
  5
97EC
331
982A
  5
982B
331
7D70
  5
7D70
331
8DB6
  5
8DBE
331
8E0D
  5
8E33
331
8EBC
  5
8EC5
331
97F3
  5
97F4
331
7DAF
  5
7DAF
331
8DBE
  5
8DC2
331
97FB
  5
97FC
331
7DB7
  5
7DB7
331
9803
  5
9804
331
9B4D
  5
9B4D
331
9B55
  5
9B55
331
7D78
  5
7D78
331
7D80
  5
7D80
331
8F3C
  5
8F43
331
980B
  5
980C
331
98F9
  5
9906
331
7D88
  5
7D88
331
8DDE
  5
8DE8
331
8F44
  5
97D9
331
9813
  5
9814
331
9978
  5
9979
331
8DE6
  5
8E00
331
7D90
  5
7D90
331
97DC
  5
97DD
331
981B
  5
981C
331
98B2
  5
98BF
331
8EAD
  5
8EB5
331
97E4
  5
97E5
331
9823
  5
9824
331
9931
  5
9933
331
7D98
  5
7D98
331
9A28
  5
9A34
331
8EB5
  5
8EBD
331
7DA0
  5
7DA0
331
97EC
  5
97ED
331
982B
  5
982C
331
7D71
  5
7D71
331
7DA8
  5
7DA8
331
8DB7
  5
8DC0
331
8E0E
  5
8EB3
331
8EBD
  5
8EC7
331
97F4
  5
97F5
331
9B2E
  5
9B2E
331
8DBF
  5
8DC3
331
7DB0
  5
7DB0
331
97FC
  5
97FD
331
9804
  5
9805
331
7DB8
  5
7DB8
331
7D79
  5
7D79
331
7D81
  5
7D81
331
8F3D
  5
8DEB
331
980C
  5
980D
331
9979
  5
9983
331
7D89
  5
7D89
331
9814
  5
9815
331
9B76
  5
9B76
331
9922
  5
9931
331
8DE7
  5
8E01
331
7D91
  5
7D91
331
97DD
  5
97DE
331
981C
  5
981D
331
8EAE
  5
8EB6
331
97E5
  5
97E6
331
9824
  5
9827
331
7D99
  5
7D99
331
8EB6
  5
8EBE
331
8DB0
  5
8DB4
331
97ED
  5
97EE
331
982C
  5
982E
331
7D72
  5
7D72
331
7DA9
  5
7DA9
331
8EBE
  5
8F3C
331
97F5
  5
97F6
331
9A78
  5
9AB4
331
98EB
  5
98F9
331
7DB1
  5
7DB1
331
97FD
  5
97FE
331
9805
  5
9806
331
7D7A
  5
7D7A
331
8DC0
  5
8DC4
331
7D82
  5
7D82
331
8F3E
  5
8DE5
331
980D
  5
980E
331
7D8A
  5
7D8A
331
8DE0
  5
8DEA
331
9815
  5
9816
331
8DE8
  5
8E02
331
7D92
  5
7D92
331
97DE
  5
97DF
331
981D
  5
981E
331
9933
  5
995E
331
8EAF
  5
8EB7
331
97E6
  5
97E7
331
7D9A
  5
7D9A
331
8E00
  5
8E31
331
8DB1
  5
8DB7
331
7DA2
  5
7DA2
331
8EB7
  5
8EBF
331
97EE
  5
97EF
331
7DAA
  5
7DAA
331
7D73
  5
7D73
331
8EBF
  5
8F3D
331
97F6
  5
97F7
331
7DB2
  5
7DB2
331
97FE
  5
97FF
331
9806
  5
9807
331
7DBA
  5
7DBA
331
7D7B
  5
7D7B
331
8DC1
  5
8DC5
331
7D83
  5
7D83
331
8F3F
  5
8DED
331
980E
  5
980F
331
7D8B
  5
7D8B
331
9816
  5
9817
331
9983
  5
9A27
331
7D93
  5
7D93
331
8DE9
  5
8E06
331
97DF
  5
97E0
331
981E
  5
981F
331
97E7
  5
97E8
331
7D9B
  5
7D9B
331
8EB0
  5
8EB8
331
97EF
  5
97F0
331
7DA3
  5
7DA3
331
7D6C
  5
7D6C
331
8DB2
  5
8DB9
331
8EB8
  5
8EC0
331
982E
  5
98A8
331
7D74
  5
7D74
331
8EC0
  5
8F3E
331
97F7
  5
97F8
331
97FF
  5
9800
331
9807
  5
9808
331
7D7C
  5
7D7C
331
7DBB
  5
7DBB
331
8DC2
  5
8DC8
331
9B59
  5
9B57
331
7D84
  5
7D84
331
8F40
  5
8DE9
331
980F
  5
9810
331
8DE2
  5
8DEC
331
7D8C
  5
7D8C
331
9817
  5
9818
331
9B0A
  5
9B0A
331
7D94
  5
7D94
331
8DEA
  5
8E07
331
97E0
  5
97E1
331
981F
  5
9820
331
9827
  5
9828
  0
XRECORD
  5
5D8A
102
{ACAD_REACTORS
330
5D89
102
}
330
5D89
100
AcDbXrecord
280
     1
340
15
  0
DICTIONARY
  5
7C0C
102
{ACAD_REACTORS
330
7C0B
102
}
330
7C0B
100
AcDbDictionary
280
     1
281
     1
  3
Edit
360
7C0D
  0
DICTIONARY
  5
8E74
102
{ACAD_REACTORS
330
8E73
102
}
330
8E73
100
AcDbDictionary
280
     1
281
     1
  3
Edit
360
8E75
  0
LAYOUT
  5
5CF5
102
{ACAD_REACTORS
330
5CF3
102
}
330
5CF3
100
AcDbPlotSettings
  1

  2
hp LaserJet 1300 PCL 6
  4
A4
  6

 40
5.027083396911621
 41
5.069413185119628
 42
5.027084350585937
 43
5.027069091796875
 44
209.9733276367187
 45
296.9683227539062
 46
4.959579944610595
 47
3.435920238494873
 48
0.0
 49
0.0
140
95.0
141
140.0
142
1.0
143
0.5
 70
 11956
 72
     1
 73
     0
 74
     4
  7
LIN.ctb
 75
    27
147
2.0
 76
     0
 77
     2
 78
   300
148
0.0
149
0.0
100
AcDbLayout
  1
Model
 70
     1
 71
     0
 10
0.0
 20
0.0
 11
12.0
 21
9.0
 12
0.0
 22
0.0
 32
0.0
 14
0.0
 24
0.0
 34
0.0
 15
0.0
 25
0.0
 35
0.0
146
0.0
 13
0.0
 23
0.0
 33
0.0
 16
1.0
 26
0.0
 36
0.0
 17
0.0
 27
1.0
 37
0.0
 76
     0
330
18
1001
ACAD_PSEXT
1000
hp LaserJet 1300 PCL 6
1000
hp LaserJet 1300 PCL 6
1000
HP 1300
1000

1070
     0
  0
LAYOUT
  5
5CF6
102
{ACAD_REACTORS
330
5CF3
102
}
330
5CF3
100
AcDbPlotSettings
  1

  2
EPSON STYLUS COLOR 440
  4

  6

 40
0.0
 41
0.0
 42
0.0
 43
0.0
 44
0.0
 45
0.0
 46
0.0
 47
0.0
 48
0.0
 49
0.0
140
0.0
141
0.0
142
1.0
143
1.0
 70
   688
 72
     0
 73
     0
 74
     5
  7
LIN.ctb
 75
    16
147
1.0
 76
     0
 77
     2
 78
   300
148
0.0
149
0.0
100
AcDbLayout
  1
ｰtｸm1
 70
     1
 71
     1
 10
0.0
 20
0.0
 11
420.0
 21
297.0
 12
0.0
 22
0.0
 32
0.0
 14
1.000000000000000E+20
 24
1.000000000000000E+20
 34
1.000000000000000E+20
 15
-1.000000000000000E+20
 25
-1.000000000000000E+20
 35
-1.000000000000000E+20
146
0.0
 13
0.0
 23
0.0
 33
0.0
 16
1.0
 26
0.0
 36
0.0
 17
0.0
 27
1.0
 37
0.0
 76
     0
330
15
  0
MLINESTYLE
  5
1C
102
{ACAD_REACTORS
330
1B
102
}
330
1B
100
AcDbMlineStyle
  2
STANDARD
 70
     0
  3

 62
   256
 51
90.0
 52
90.0
 71
     2
 49
0.5
 62
   256
  6
BYLAYER
 49
-0.5
 62
   256
  6
BYLAYER
  0
ACDBPLACEHOLDER
  5
5CF2
102
{ACAD_REACTORS
330
5CF1
102
}
330
5CF1
  0
TABLESTYLE
  5
7875
102
{ACAD_REACTORS
330
7874
102
}
330
7874
100
AcDbTableStyle
  3
Standard
 70
     0
 71
     8
 40
1.5
 41
1.5
280
     0
281
     0
  7
STANDARD
140
4.5
170
     2
 62
     0
 63
     7
283
     0
274
    -2
284
     1
 64
     0
275
    -2
285
     1
 65
     0
276
    -2
286
     1
 66
     0
277
    -2
287
     1
 67
     0
278
    -2
288
     1
 68
     0
279
    -2
289
     1
 69
     0
  7
STANDARD
140
6.0
170
     5
 62
     0
 63
     7
283
     0
274
    -2
284
     1
 64
     0
275
    -2
285
     1
 65
     0
276
    -2
286
     1
 66
     0
277
    -2
287
     1
 67
     0
278
    -2
288
     1
 68
     0
279
    -2
289
     1
 69
     0
  7
STANDARD
140
4.5
170
     5
 62
     0
 63
     7
283
     0
274
    -2
284
     1
 64
     0
275
    -2
285
     1
 65
     0
276
    -2
286
     1
 66
     0
277
    -2
287
     1
 67
     0
278
    -2
288
     1
 68
     0
279
    -2
289
     1
 69
     0
  0
DICTIONARYVAR
  5
7880
102
{ACAD_REACTORS
330
45D
102
}
330
45D
100
DictionaryVariables
280
     0
  1
STANDARD
  0
DICTIONARYVAR
  5
45E
102
{ACAD_REACTORS
330
45D
102
}
330
45D
100
DictionaryVariables
280
     0
  1
127
  0
XRECORD
  5
7C0D
102
{ACAD_REACTORS
330
7C0C
102
}
330
7C0C
100
AcDbXrecord
280
     1
1070
     0
1070
     1
1070
     1
  0
XRECORD
  5
8E75
102
{ACAD_REACTORS
330
8E74
102
}
330
8E74
100
AcDbXrecord
280
     1
1070
     0
1070
     1
1070
     1
  0
ENDSEC
  0
EOF
