  0
SECTION
  2
HEADER
  9
$ACADVER
  1
AC1018
  9
$ACADMAINTVER
 70
    76
  9
$DWGCODEPAGE
  3
ANSI_932
  9
$INSBASE
 10
0.0
 20
0.0
 30
0.0
  9
$EXTMIN
 10
0.0
 20
0.0
 30
0.0
  9
$EXTMAX
 10
95.0
 20
140.0
 30
0.0
  9
$LIMMIN
 10
0.0
 20
0.0
  9
$LIMMAX
 10
420.0
 20
297.0
  9
$ORTHOMODE
 70
     1
  9
$REGENMODE
 70
     1
  9
$FILLMODE
 70
     1
  9
$QTEXTMODE
 70
     0
  9
$MIRRTEXT
 70
     1
  9
$LTSCALE
 40
1.0
  9
$ATTMODE
 70
     1
  9
$TEXTSIZE
 40
2.5
  9
$TRACEWID
 40
1.0
  9
$TEXTSTYLE
  7
STANDARD
  9
$CLAYER
  8
mark
  9
$CELTYPE
  6
BYLAYER
  9
$CECOLOR
 62
   256
  9
$CELTSCALE
 40
1.0
  9
$DISPSILH
 70
     0
  9
$DIMSCALE
 40
0.5
  9
$DIMASZ
 40
2.5
  9
$DIMEXO
 40
0.85
  9
$DIMDLI
 40
0.38
  9
$DIMRND
 40
0.0
  9
$DIMDLE
 40
0.0
  9
$DIMEXE
 40
0.85
  9
$DIMTP
 40
0.0
  9
$DIMTM
 40
0.0
  9
$DIMTXT
 40
2.5
  9
$DIMCEN
 40
0.09
  9
$DIMTSZ
 40
0.0
  9
$DIMTOL
 70
     0
  9
$DIMLIM
 70
     0
  9
$DIMTIH
 70
     0
  9
$DIMTOH
 70
     0
  9
$DIMSE1
 70
     0
  9
$DIMSE2
 70
     0
  9
$DIMTAD
 70
     3
  9
$DIMZIN
 70
     8
  9
$DIMBLK
  1
Open30
  9
$DIMASO
 70
     1
  9
$DIMSHO
 70
     1
  9
$DIMPOST
  1

  9
$DIMAPOST
  1

  9
$DIMALT
 70
     0
  9
$DIMALTD
 70
     2
  9
$DIMALTF
 40
25.4
  9
$DIMLFAC
 40
1.0
  9
$DIMTOFL
 70
     1
  9
$DIMTVP
 40
0.0
  9
$DIMTIX
 70
     0
  9
$DIMSOXD
 70
     0
  9
$DIMSAH
 70
     0
  9
$DIMBLK1
  1

  9
$DIMBLK2
  1

  9
$DIMSTYLE
  2
STANDARD
  9
$DIMCLRD
 70
   256
  9
$DIMCLRE
 70
   256
  9
$DIMCLRT
 70
     3
  9
$DIMTFAC
 40
1.0
  9
$DIMGAP
 40
0.85
  9
$DIMJUST
 70
     0
  9
$DIMSD1
 70
     0
  9
$DIMSD2
 70
     0
  9
$DIMTOLJ
 70
     1
  9
$DIMTZIN
 70
     0
  9
$DIMALTZ
 70
     0
  9
$DIMALTTZ
 70
     0
  9
$DIMUPT
 70
     0
  9
$DIMDEC
 70
     2
  9
$DIMTDEC
 70
     2
  9
$DIMALTU
 70
     2
  9
$DIMALTTD
 70
     2
  9
$DIMTXSTY
  7
STANDARD
  9
$DIMAUNIT
 70
     0
  9
$DIMADEC
 70
     2
  9
$DIMALTRND
 40
0.0
  9
$DIMAZIN
 70
     2
  9
$DIMDSEP
 70
    46
  9
$DIMATFIT
 70
     3
  9
$DIMFRAC
 70
     0
  9
$DIMLDRBLK
  1
Open30
  9
$DIMLUNIT
 70
     2
  9
$DIMLWD
 70
    -2
  9
$DIMLWE
 70
    -2
  9
$DIMTMOVE
 70
     0
  9
$LUNITS
 70
     2
  9
$LUPREC
 70
     2
  9
$SKETCHINC
 40
1.0
  9
$FILLETRAD
 40
1.0
  9
$AUNITS
 70
     0
  9
$AUPREC
 70
     2
  9
$MENU
  1
.
  9
$ELEVATION
 40
0.0
  9
$PELEVATION
 40
0.0
  9
$THICKNESS
 40
0.0
  9
$LIMCHECK
 70
     0
  9
$CHAMFERA
 40
1.0
  9
$CHAMFERB
 40
1.0
  9
$CHAMFERC
 40
1.75
  9
$CHAMFERD
 40
0.0174532925199433
  9
$SKPOLY
 70
     0
  9
$TDCREATE
 40
2451555.620234838
  9
$TDUCREATE
 40
2451555.245234838
  9
$TDUPDATE
 40
2455846.617449641
  9
$TDUUPDATE
 40
2455846.242449641
  9
$TDINDWG
 40
2.9642476968
  9
$TDUSRTIMER
 40
2.9642476968
  9
$USRTIMER
 70
     1
  9
$ANGBASE
 50
0.0
  9
$ANGDIR
 70
     0
  9
$PDMODE
 70
     0
  9
$PDSIZE
 40
0.0
  9
$PLINEWID
 40
0.0
  9
$SPLFRAME
 70
     0
  9
$SPLINETYPE
 70
     6
  9
$SPLINESEGS
 70
     8
  9
$HANDSEED
  5
D12D
  9
$SURFTAB1
 70
     6
  9
$SURFTAB2
 70
     6
  9
$SURFTYPE
 70
     6
  9
$SURFU
 70
     6
  9
$SURFV
 70
     6
  9
$UCSBASE
  2

  9
$UCSNAME
  2

  9
$UCSORG
 10
0.0
 20
0.0
 30
0.0
  9
$UCSXDIR
 10
1.0
 20
0.0
 30
0.0
  9
$UCSYDIR
 10
0.0
 20
1.0
 30
0.0
  9
$UCSORTHOREF
  2

  9
$UCSORTHOVIEW
 70
     1
  9
$UCSORGTOP
 10
0.0
 20
0.0
 30
0.0
  9
$UCSORGBOTTOM
 10
0.0
 20
0.0
 30
0.0
  9
$UCSORGLEFT
 10
0.0
 20
0.0
 30
0.0
  9
$UCSORGRIGHT
 10
0.0
 20
0.0
 30
0.0
  9
$UCSORGFRONT
 10
0.0
 20
0.0
 30
0.0
  9
$UCSORGBACK
 10
0.0
 20
0.0
 30
0.0
  9
$PUCSBASE
  2

  9
$PUCSNAME
  2

  9
$PUCSORG
 10
0.0
 20
0.0
 30
0.0
  9
$PUCSXDIR
 10
1.0
 20
0.0
 30
0.0
  9
$PUCSYDIR
 10
0.0
 20
1.0
 30
0.0
  9
$PUCSORTHOREF
  2

  9
$PUCSORTHOVIEW
 70
     0
  9
$PUCSORGTOP
 10
0.0
 20
0.0
 30
0.0
  9
$PUCSORGBOTTOM
 10
0.0
 20
0.0
 30
0.0
  9
$PUCSORGLEFT
 10
0.0
 20
0.0
 30
0.0
  9
$PUCSORGRIGHT
 10
0.0
 20
0.0
 30
0.0
  9
$PUCSORGFRONT
 10
0.0
 20
0.0
 30
0.0
  9
$PUCSORGBACK
 10
0.0
 20
0.0
 30
0.0
  9
$USERI1
 70
     0
  9
$USERI2
 70
     0
  9
$USERI3
 70
     0
  9
$USERI4
 70
     0
  9
$USERI5
 70
     0
  9
$USERR1
 40
0.0
  9
$USERR2
 40
0.0
  9
$USERR3
 40
0.0
  9
$USERR4
 40
0.0
  9
$USERR5
 40
0.0
  9
$WORLDVIEW
 70
     1
  9
$SHADEDGE
 70
     3
  9
$SHADEDIF
 70
    70
  9
$TILEMODE
 70
     1
  9
$MAXACTVP
 70
    48
  9
$PINSBASE
 10
0.0
 20
0.0
 30
0.0
  9
$PLIMCHECK
 70
     0
  9
$PEXTMIN
 10
1.000000000000000E+20
 20
1.000000000000000E+20
 30
1.000000000000000E+20
  9
$PEXTMAX
 10
-1.000000000000000E+20
 20
-1.000000000000000E+20
 30
-1.000000000000000E+20
  9
$PLIMMIN
 10
0.0
 20
0.0
  9
$PLIMMAX
 10
420.0
 20
297.0
  9
$UNITMODE
 70
     0
  9
$VISRETAIN
 70
     1
  9
$PLINEGEN
 70
     0
  9
$PSLTSCALE
 70
     1
  9
$TREEDEPTH
 70
  3020
  9
$CMLSTYLE
  2
STANDARD
  9
$CMLJUST
 70
     0
  9
$CMLSCALE
 40
20.0
  9
$PROXYGRAPHICS
 70
     1
  9
$MEASUREMENT
 70
     1
  9
$CELWEIGHT
370
    -1
  9
$ENDCAPS
280
     0
  9
$JOINSTYLE
280
     0
  9
$LWDISPLAY
290
     0
  9
$INSUNITS
 70
     0
  9
$HYPERLINKBASE
  1

  9
$STYLESHEET
  1
LIN.ctb
  9
$XEDIT
290
     1
  9
$CEPSNTYPE
380
     0
  9
$PSTYLEMODE
290
     1
  9
$FINGERPRINTGUID
  2
{1CF51E8A-A506-11D4-A7D9-AF69F5C20846}
  9
$VERSIONGUID
  2
{8831D14A-4E67-4302-A470-5D1EA7ABB9FF}
  9
$EXTNAMES
290
     1
  9
$PSVPSCALE
 40
0.0
  9
$OLESTARTUP
290
     0
  9
$SORTENTS
280
   127
  9
$INDEXCTL
280
     0
  9
$HIDETEXT
280
     0
  9
$XCLIPFRAME
290
     0
  9
$HALOGAP
280
     0
  9
$OBSCOLOR
 70
   257
  9
$OBSLTYPE
280
     0
  9
$INTERSECTIONDISPLAY
280
     0
  9
$INTERSECTIONCOLOR
 70
   257
  9
$DIMASSOC
280
     1
  9
$PROJECTNAME
  1

  0
ENDSEC
  0
SECTION
  2
CLASSES
  0
CLASS
  1
DICTIONARYVAR
  2
AcDbDictionaryVar
  3
ObjectDBX Classes
 90
        0
 91
        2
280
     0
281
     0
  0
CLASS
  1
SORTENTSTABLE
  2
AcDbSortentsTable
  3
ObjectDBX Classes
 90
        0
 91
        1
280
     0
281
     0
  0
CLASS
  1
ACDBDICTIONARYWDFLT
  2
AcDbDictionaryWithDefault
  3
ObjectDBX Classes
 90
        0
 91
        1
280
     0
281
     0
  0
CLASS
  1
TABLESTYLE
  2
AcDbTableStyle
  3
ObjectDBX Classes
 90
     2047
 91
        1
280
     0
281
     0
  0
ENDSEC
  0
SECTION
  2
TABLES
  0
TABLE
  2
VPORT
  5
8
330
0
100
AcDbSymbolTable
 70
     2
  0
VPORT
  5
D12C
330
8
100
AcDbSymbolTableRecord
100
AcDbViewportTableRecord
  2
*Active
 70
     0
 10
0.0
 20
0.0
 11
1.0
 21
1.0
 12
64.43398863678192
 22
69.44939989702544
 13
0.0
 23
0.0
 14
10.0
 24
10.0
 15
10.0
 25
10.0
 16
0.0
 26
0.0
 36
1.0
 17
0.0
 27
0.0
 37
0.0
 40
141.7894483801997
 41
2.47104247104247
 42
50.0
 43
0.0
 44
0.0
 50
0.0
 51
0.0
 71
     0
 72
 20000
 73
     1
 74
     1
 75
     0
 76
     0
 77
     0
 78
     0
281
     0
 65
     1
110
0.0
120
0.0
130
0.0
111
1.0
121
0.0
131
0.0
112
0.0
122
1.0
132
0.0
 79
     1
146
0.0
  0
ENDTAB
  0
TABLE
  2
LTYPE
  5
5
330
0
100
AcDbSymbolTable
 70
     7
  0
LTYPE
  5
12
330
5
100
AcDbSymbolTableRecord
100
AcDbLinetypeTableRecord
  2
BYBLOCK
 70
     0
  3

 72
    65
 73
     0
 40
0.0
  0
LTYPE
  5
13
330
5
100
AcDbSymbolTableRecord
100
AcDbLinetypeTableRecord
  2
BYLAYER
 70
     0
  3

 72
    65
 73
     0
 40
0.0
  0
LTYPE
  5
14
330
5
100
AcDbSymbolTableRecord
100
AcDbLinetypeTableRecord
  2
CONTINUOUS
 70
     0
  3
Solid line
 72
    65
 73
     0
 40
0.0
  0
LTYPE
  5
9D
330
5
100
AcDbSymbolTableRecord
100
AcDbLinetypeTableRecord
  2
CENTERX2
 70
     0
  3
Center (2x) ________  __  ________  __  _____
 72
    65
 73
     4
 40
101.6
 49
63.5
 74
     0
 49
-12.7
 74
     0
 49
12.7
 74
     0
 49
-12.7
 74
     0
  0
LTYPE
  5
A1
330
5
100
AcDbSymbolTableRecord
100
AcDbLinetypeTableRecord
  2
DASHED
 70
     0
  3
Dashed __ __ __ __ __ __ __ __ __ __ __ __ __ _
 72
    65
 73
     2
 40
19.05
 49
12.7
 74
     0
 49
-6.349999999999999
 74
     0
  0
LTYPE
  5
A2
330
5
100
AcDbSymbolTableRecord
100
AcDbLinetypeTableRecord
  2
DASHED2
 70
     0
  3
Dashed (.5x) _ _ _ _ _ _ _ _ _ _ _ _ _ _ _ _ _
 72
    65
 73
     2
 40
9.524999999999998
 49
6.349999999999999
 74
     0
 49
-3.174999999999999
 74
     0
  0
LTYPE
  5
A5
330
5
100
AcDbSymbolTableRecord
100
AcDbLinetypeTableRecord
  2
DIVIDE2
 70
     0
  3
Divide (.5x) __..__..__..__..__..__..__..__.._
 72
    65
 73
     6
 40
15.875
 49
6.349999999999999
 74
     0
 49
-3.174999999999999
 74
     0
 49
0.0
 74
     0
 49
-3.174999999999999
 74
     0
 49
0.0
 74
     0
 49
-3.174999999999999
 74
     0
  0
LTYPE
  5
650B
330
5
100
AcDbSymbolTableRecord
100
AcDbLinetypeTableRecord
  2
CENTER
 70
     0
  3
Center ____ _ ____ _ ____ _ ____ _ ____ _ ____
 72
    65
 73
     4
 40
50.8
 49
31.75
 74
     0
 49
-6.349999999999999
 74
     0
 49
6.349999999999999
 74
     0
 49
-6.349999999999999
 74
     0
  0
LTYPE
  5
650C
330
5
100
AcDbSymbolTableRecord
100
AcDbLinetypeTableRecord
  2
HIDDEN
 70
     0
  3
Hidden __ __ __ __ __ __ __ __ __ __ __ __ __ _
 72
    65
 73
     2
 40
9.524999999999998
 49
6.349999999999999
 74
     0
 49
-3.174999999999999
 74
     0
  0
ENDTAB
  0
TABLE
  2
LAYER
  5
2
102
{ACAD_XDICTIONARY
360
7BFE
102
}
330
0
100
AcDbSymbolTable
 70
     9
  0
LAYER
  5
E
330
2
100
AcDbSymbolTableRecord
100
AcDbLayerTableRecord
  2
0
 70
     0
 62
     7
  6
CONTINUOUS
370
    -3
390
5CF2
  0
LAYER
  5
B9
330
2
100
AcDbSymbolTableRecord
100
AcDbLayerTableRecord
  2
dim
 70
     0
 62
     3
  6
CONTINUOUS
370
    -3
390
5CF2
  0
LAYER
  5
F2
330
2
100
AcDbSymbolTableRecord
100
AcDbLayerTableRecord
  2
DEFPOINTS
 70
     0
 62
     4
  6
CONTINUOUS
290
     0
370
    -3
390
5CF2
  0
LAYER
  5
5F8B
330
2
100
AcDbSymbolTableRecord
100
AcDbLayerTableRecord
  2
mark
 70
     0
 62
     6
  6
CONTINUOUS
370
    -3
390
5CF2
  0
LAYER
  5
644E
330
2
100
AcDbSymbolTableRecord
100
AcDbLayerTableRecord
  2
frame
 70
     0
 62
     9
  6
CONTINUOUS
370
    -3
390
5CF2
  0
LAYER
  5
650D
330
2
100
AcDbSymbolTableRecord
100
AcDbLayerTableRecord
  2
center
 70
     0
 62
     1
  6
CENTER
370
    -3
390
5CF2
  0
LAYER
  5
650E
330
2
100
AcDbSymbolTableRecord
100
AcDbLayerTableRecord
  2
bowle
 70
     0
 62
     4
  6
HIDDEN
370
    -3
390
5CF2
  0
LAYER
  5
650F
330
2
100
AcDbSymbolTableRecord
100
AcDbLayerTableRecord
  2
contour
 70
     0
 62
     2
  6
CONTINUOUS
370
    -3
390
5CF2
  0
LAYER
  5
6510
330
2
100
AcDbSymbolTableRecord
100
AcDbLayerTableRecord
  2
section
 70
     0
 62
     5
  6
CONTINUOUS
370
    -3
390
5CF2
  0
ENDTAB
  0
TABLE
  2
STYLE
  5
3
330
0
100
AcDbSymbolTable
 70
     3
  0
STYLE
  5
F
330
3
100
AcDbSymbolTableRecord
100
AcDbTextStyleTableRecord
  2
STANDARD
 70
     0
 40
0.0
 41
1.0
 50
0.0
 71
     0
 42
2.5
  3
txt.shx
  4
bigfont.shx
  0
STYLE
  5
BE
330
3
100
AcDbSymbolTableRecord
100
AcDbTextStyleTableRecord
  2
CN
 70
     0
 40
0.0
 41
1.0
 50
0.0
 71
     0
 42
2.5
  3
txt.shx
  4
gbcbig.shx
  0
STYLE
  5
5DCC
330
3
100
AcDbSymbolTableRecord
100
AcDbTextStyleTableRecord
  2
TW
 70
     0
 40
0.0
 41
1.0
 50
0.0
 71
     0
 42
5.0
  3
txt.shx
  4
chineset.shx
  0
ENDTAB
  0
TABLE
  2
VIEW
  5
6
330
0
100
AcDbSymbolTable
 70
     0
  0
ENDTAB
  0
TABLE
  2
UCS
  5
7
330
0
100
AcDbSymbolTable
 70
     0
  0
ENDTAB
  0
TABLE
  2
APPID
  5
9
330
0
100
AcDbSymbolTable
 70
    11
  0
APPID
  5
10
330
9
100
AcDbSymbolTableRecord
100
AcDbRegAppTableRecord
  2
ACAD
 70
     0
  0
APPID
  5
7C91
330
9
100
AcDbSymbolTableRecord
100
AcDbRegAppTableRecord
  2
ACAD_DSTYLE_DIMEXT_LENGTH
 70
     0
  0
APPID
  5
7C92
330
9
100
AcDbSymbolTableRecord
100
AcDbRegAppTableRecord
  2
ACAD_DSTYLE_DIMEXT_ENABLED
 70
     0
  0
APPID
  5
7C93
330
9
100
AcDbSymbolTableRecord
100
AcDbRegAppTableRecord
  2
ACAD_DSTYLE_DIMJOGGED_JOGANGLE_SYMBOL
 70
     0
  0
APPID
  5
7C94
330
9
100
AcDbSymbolTableRecord
100
AcDbRegAppTableRecord
  2
ACAD_DSTYLE_DIMARC_LENGTH_SYMBOL
 70
     0
  0
APPID
  5
7F1C
330
9
100
AcDbSymbolTableRecord
100
AcDbRegAppTableRecord
  2
ACAD_EXEMPT_FROM_CAD_STANDARDS
 70
     0
  0
APPID
  5
7F49
330
9
100
AcDbSymbolTableRecord
100
AcDbRegAppTableRecord
  2
ACAD_DSTYLE_DIMTEXT_FILL
 70
     0
  0
APPID
  5
7F4C
330
9
100
AcDbSymbolTableRecord
100
AcDbRegAppTableRecord
  2
ACAD_DSTYLE_DIM_LINETYPE
 70
     0
  0
APPID
  5
7F4D
330
9
100
AcDbSymbolTableRecord
100
AcDbRegAppTableRecord
  2
ACAD_DSTYLE_DIM_EXT1_LINETYPE
 70
     0
  0
APPID
  5
7F4E
330
9
100
AcDbSymbolTableRecord
100
AcDbRegAppTableRecord
  2
ACAD_DSTYLE_DIM_EXT2_LINETYPE
 70
     0
  0
APPID
  5
8C73
330
9
100
AcDbSymbolTableRecord
100
AcDbRegAppTableRecord
  2
ACAD_PSEXT
 70
     0
  0
ENDTAB
  0
TABLE
  2
DIMSTYLE
  5
A
330
0
100
AcDbSymbolTable
 70
     1
100
AcDbDimStyleTable
 71
     1
340
1D
  0
DIMSTYLE
105
1D
102
{ACAD_REACTORS
330
CDCF
330
CE08
330
CE15
330
CE24
330
CE31
330
CE3E
330
CEB5
330
CECD
102
}
330
A
100
AcDbSymbolTableRecord
100
AcDbDimStyleTableRecord
  2
STANDARD
 70
     0
 40
0.5
 41
2.5
 42
0.85
 44
0.85
 73
     0
 74
     0
 77
     3
 78
     8
 79
     2
140
2.5
147
0.85
172
     1
176
   256
177
   256
178
     3
179
     2
271
     2
272
     2
340
F
341
7C04
342
7C04
1001
ACAD_DSTYLE_DIMEXT_LENGTH
1070
   378
1040
0.18
1001
ACAD_DSTYLE_DIMEXT_ENABLED
1070
   383
1070
     0
1001
ACAD_DSTYLE_DIMARC_LENGTH_SYMBOL
1070
   379
1070
     0
1001
ACAD_DSTYLE_DIMJOGGED_JOGANGLE_SYMBOL
1070
   384
1040
1.570796326794896
  0
ENDTAB
  0
TABLE
  2
BLOCK_RECORD
  5
1
330
0
100
AcDbSymbolTable
 70
    15
  0
BLOCK_RECORD
  5
18
102
{ACAD_XDICTIONARY
360
45F
102
}
330
1
100
AcDbSymbolTableRecord
100
AcDbBlockTableRecord
  2
*MODEL_SPACE
340
5CF5
  0
BLOCK_RECORD
  5
15
102
{ACAD_XDICTIONARY
360
5D89
102
}
330
1
100
AcDbSymbolTableRecord
100
AcDbBlockTableRecord
  2
*PAPER_SPACE
340
5CF6
  0
BLOCK_RECORD
  5
639D
330
1
100
AcDbSymbolTableRecord
100
AcDbBlockTableRecord
  2
A$C255C26A2
340
0
  0
BLOCK_RECORD
  5
7C04
330
1
100
AcDbSymbolTableRecord
100
AcDbBlockTableRecord
  2
_Open30
340
0
102
{BLKREFS
331
D0C5
331
D0C6
331
D0CE
331
D0CF
331
D0D9
331
D0DA
331
D0E2
331
D0E3
331
D0EB
331
D0EC
331
D0F4
331
D0F5
331
D0FE
331
D0FF
331
D106
331
D107
102
}
  0
BLOCK_RECORD
  5
7C0A
102
{ACAD_XDICTIONARY
360
7C0B
102
}
330
1
100
AcDbSymbolTableRecord
100
AcDbBlockTableRecord
  2
A
340
0
310
2800000020000000200000000100080000000000000400000000000000000000000000000000000000000000000080000080000000808000800000008000800080800000C0C0C000C0DCC000F0CAA6000020400000206000002080000020A0000020C0000020E00000400000004020000040400000406000004080000040A0
310
000040C0000040E00000600000006020000060400000606000006080000060A0000060C0000060E00000800000008020000080400000806000008080000080A0000080C0000080E00000A0000000A0200000A0400000A0600000A0800000A0A00000A0C00000A0E00000C0000000C0200000C0400000C0600000C0800000C0
310
A00000C0C00000C0E00000E0000000E0200000E0400000E0600000E0800000E0A00000E0C00000E0E00040000000400020004000400040006000400080004000A0004000C0004000E00040200000402020004020400040206000402080004020A0004020C0004020E000404000004040200040404000404060004040800040
310
40A0004040C0004040E00040600000406020004060400040606000406080004060A0004060C0004060E00040800000408020004080400040806000408080004080A0004080C0004080E00040A0000040A0200040A0400040A0600040A0800040A0A00040A0C00040A0E00040C0000040C0200040C0400040C0600040C08000
310
40C0A00040C0C00040C0E00040E0000040E0200040E0400040E0600040E0800040E0A00040E0C00040E0E00080000000800020008000400080006000800080008000A0008000C0008000E00080200000802020008020400080206000802080008020A0008020C0008020E00080400000804020008040400080406000804080
310
008040A0008040C0008040E00080600000806020008060400080606000806080008060A0008060C0008060E00080800000808020008080400080806000808080008080A0008080C0008080E00080A0000080A0200080A0400080A0600080A0800080A0A00080A0C00080A0E00080C0000080C0200080C0400080C0600080C0
310
800080C0A00080C0C00080C0E00080E0000080E0200080E0400080E0600080E0800080E0A00080E0C00080E0E000C0000000C0002000C0004000C0006000C0008000C000A000C000C000C000E000C0200000C0202000C0204000C0206000C0208000C020A000C020C000C020E000C0400000C0402000C0404000C0406000C0
310
408000C040A000C040C000C040E000C0600000C0602000C0604000C0606000C0608000C060A000C060C000C060E000C0800000C0802000C0804000C0806000C0808000C080A000C080C000C080E000C0A00000C0A02000C0A04000C0A06000C0A08000C0A0A000C0A0C000C0A0E000C0C00000C0C02000C0C04000C0C06000
310
C0C08000C0C0A000F0FBFF00A4A0A000808080000000FF0000FF000000FFFF00FF000000FF00FF00FFFF0000FFFFFF0000000000000000000000000000000000000000000000000000000000000000000000000000000000000000000000000000000000000000000000000000000000000000000000000000000000000000
310
00000000000000000000000000000000000000000000000000000000000000000000000000000000000000000000000000000000000000000000000000000000000000000000000000000000000000000000000000000000000000000000000000000000000000000000000000000000000000000000000000000000000000
310
00000000000000000000000000000000000000000000000000000000000000000000000000000000000000000000000000000000000000000000000000000000000000000000000000000000000000000000000000000000000000000000000000000000000000000000000000000000000000000000000000000000000000
310
000000000000FDFDFDFDFDFDFDFDFDFDFDFD0000FD0000000000000000000000000000000000FD0000FA0000000000FA00FD0000FDFD00000000000000000000000000000000FD0000FA0000000000FA00FD0000FDFDFD000000000000000000000000000000FD0000FA0000000000FA00FD0000FDFDFDFD00000000000000
310
00000000000000FD0000FAFAFAFAFAFAFA00FD0000FDFDFDFDFD00000000000000000000000000FD000000FA00000000FA00FD0000FDFDFDFDFDFDFDFDFDFDFDFDFDFDFDFDFDFDFD000000FA000000FA0000FD0000FDFDFDFDFD00000000000000000000000000FD00000000FA0000FA0000FD0000FDFDFDFD000000000000
310
0000000000000000FD00000000FA00FA000000FD0000FDFD00000000000000000000000000000000FD0000000000FAFA000000FD0000FD0000000000000000000000000000000000FD0000000000FA00000000FD0000000000000000000000000000000000000000FDFDFDFDFDFDFDFDFDFDFDFD0000000000000000000000
310
00000000000000000000000000000000000000000000000000000000000000000000000000000000000000000000000000000000000000000000000000000000000000000000000000000000000000000000000000000000000000000000000000000000000000000000000000000000000000000000000000000000000000
310
00000000000000000000000000000000000000000000000000000000000000000000000000000000000000000000000000000000000000000000000000000000000000000000000000000000000000000000000000000000000000000000000000000000000000000000000000000000000000000000000000000000000000
310
0000000000000000000000000000000000000000000000000000000000000000000000000000000000000000000000000000000000000000
  0
BLOCK_RECORD
  5
8E72
102
{ACAD_XDICTIONARY
360
8E73
102
}
330
1
100
AcDbSymbolTableRecord
100
AcDbBlockTableRecord
  2
LS
340
0
310
2800000020000000200000000100080000000000000400000000000000000000000000000000000000000000000080000080000000808000800000008000800080800000C0C0C000C0DCC000F0CAA6000020400000206000002080000020A0000020C0000020E00000400000004020000040400000406000004080000040A0
310
000040C0000040E00000600000006020000060400000606000006080000060A0000060C0000060E00000800000008020000080400000806000008080000080A0000080C0000080E00000A0000000A0200000A0400000A0600000A0800000A0A00000A0C00000A0E00000C0000000C0200000C0400000C0600000C0800000C0
310
A00000C0C00000C0E00000E0000000E0200000E0400000E0600000E0800000E0A00000E0C00000E0E00040000000400020004000400040006000400080004000A0004000C0004000E00040200000402020004020400040206000402080004020A0004020C0004020E000404000004040200040404000404060004040800040
310
40A0004040C0004040E00040600000406020004060400040606000406080004060A0004060C0004060E00040800000408020004080400040806000408080004080A0004080C0004080E00040A0000040A0200040A0400040A0600040A0800040A0A00040A0C00040A0E00040C0000040C0200040C0400040C0600040C08000
310
40C0A00040C0C00040C0E00040E0000040E0200040E0400040E0600040E0800040E0A00040E0C00040E0E00080000000800020008000400080006000800080008000A0008000C0008000E00080200000802020008020400080206000802080008020A0008020C0008020E00080400000804020008040400080406000804080
310
008040A0008040C0008040E00080600000806020008060400080606000806080008060A0008060C0008060E00080800000808020008080400080806000808080008080A0008080C0008080E00080A0000080A0200080A0400080A0600080A0800080A0A00080A0C00080A0E00080C0000080C0200080C0400080C0600080C0
310
800080C0A00080C0C00080C0E00080E0000080E0200080E0400080E0600080E0800080E0A00080E0C00080E0E000C0000000C0002000C0004000C0006000C0008000C000A000C000C000C000E000C0200000C0202000C0204000C0206000C0208000C020A000C020C000C020E000C0400000C0402000C0404000C0406000C0
310
408000C040A000C040C000C040E000C0600000C0602000C0604000C0606000C0608000C060A000C060C000C060E000C0800000C0802000C0804000C0806000C0808000C080A000C080C000C080E000C0A00000C0A02000C0A04000C0A06000C0A08000C0A0A000C0A0C000C0A0E000C0C00000C0C02000C0C04000C0C06000
310
C0C08000C0C0A000F0FBFF00A4A0A000808080000000FF0000FF000000FFFF00FF000000FF00FF00FFFF0000FFFFFF00000000000000000000000000000000000000000000000000000000000000000000000000000000000000FBFBFEFBFEFBFBFEFBFEFBFB00000000000000000000000000000000000000FBFBFBFEFBFE
310
FBFBFEFBFEFBFBFB000000000000000000000000000000000000FB0000FE00FE0000FE00FE0000FB000000000000000000000000000000000000FB0000FE00FE0000FE00FE0000FB000000000000000000000000000000000000FB0000FEFEFEFEFEFEFEFE0000FB000000000000000000000000000000000000FB000000FE
310
FE0000FEFE000000FB000000000000000000000000000000000000FB0000000000FEFE0000000000FB000000000000000000000000000000000000FBFBFBFEFBFBFBFBFBFBFEFBFBFB000000000000000000000000000000000000000000FBFE0000000000FE000000000000000000000000000000000000000000000000FB
310
FBFBFBFBFBFEFB000000000000000000000000000000000000000000000000FBFE00000000FEFB000000000000000000000000000000000000000000000000FBFE00000000FEFB000000000000000000000000000000000000000000000000FBFE00000000FEFB000000000000000000000000000000000000000000000000
310
FBFE00000000FEFB000000000000000000000000000000000000000000000000FBFE00000000FEFB000000000000000000000000000000000000000000000000FBFE00000000FEFB000000000000000000000000000000000000000000000000FBFE00000000FEFB0000000000000000000000000000000000000000000000
310
00FBFE00000000FEFB000000000000000000000000000000000000000000000000FBFE00000000FEFB000000000000000000000000000000000000000000000000FBFE00000000FEFB000000000000000000000000000000000000000000000000FBFE00000000FEFB00000000000000000000000000000000000000000000
310
0000FBFE00000000FEFB000000000000000000000000000000000000000000000000FBFE00000000FEFB000000000000000000000000000000000000000000000000FBFE00000000FEFB000000000000000000000000000000000000000000000000FBFE00000000FEFB000000000000000000000000000000000000000000
310
000000FBFE00000000FEFB000000000000000000000000000000000000000000000000FBFE00000000FEFB000000000000000000000000000000000000000000000000FBFEFBFBFBFBFEFB00000000000000000000000000000000000000000000000000FE00000000FEFB0000000000000000000000000000000000000000
310
0000000000FBFBFBFBFBFB000000000000000000000000000000000000000000000000000000000000000000000000000000000000000000
102
{BLKREFS
331
CB12
102
}
  0
BLOCK_RECORD
  5
9D15
102
{ACAD_XDICTIONARY
360
9D16
102
}
330
1
100
AcDbSymbolTableRecord
100
AcDbBlockTableRecord
  2
LS2
340
0
310
2800000020000000200000000100080000000000000400000000000000000000000000000000000000000000000080000080000000808000800000008000800080800000C0C0C000C0DCC000F0CAA6000020400000206000002080000020A0000020C0000020E00000400000004020000040400000406000004080000040A0
310
000040C0000040E00000600000006020000060400000606000006080000060A0000060C0000060E00000800000008020000080400000806000008080000080A0000080C0000080E00000A0000000A0200000A0400000A0600000A0800000A0A00000A0C00000A0E00000C0000000C0200000C0400000C0600000C0800000C0
310
A00000C0C00000C0E00000E0000000E0200000E0400000E0600000E0800000E0A00000E0C00000E0E00040000000400020004000400040006000400080004000A0004000C0004000E00040200000402020004020400040206000402080004020A0004020C0004020E000404000004040200040404000404060004040800040
310
40A0004040C0004040E00040600000406020004060400040606000406080004060A0004060C0004060E00040800000408020004080400040806000408080004080A0004080C0004080E00040A0000040A0200040A0400040A0600040A0800040A0A00040A0C00040A0E00040C0000040C0200040C0400040C0600040C08000
310
40C0A00040C0C00040C0E00040E0000040E0200040E0400040E0600040E0800040E0A00040E0C00040E0E00080000000800020008000400080006000800080008000A0008000C0008000E00080200000802020008020400080206000802080008020A0008020C0008020E00080400000804020008040400080406000804080
310
008040A0008040C0008040E00080600000806020008060400080606000806080008060A0008060C0008060E00080800000808020008080400080806000808080008080A0008080C0008080E00080A0000080A0200080A0400080A0600080A0800080A0A00080A0C00080A0E00080C0000080C0200080C0400080C0600080C0
310
800080C0A00080C0C00080C0E00080E0000080E0200080E0400080E0600080E0800080E0A00080E0C00080E0E000C0000000C0002000C0004000C0006000C0008000C000A000C000C000C000E000C0200000C0202000C0204000C0206000C0208000C020A000C020C000C020E000C0400000C0402000C0404000C0406000C0
310
408000C040A000C040C000C040E000C0600000C0602000C0604000C0606000C0608000C060A000C060C000C060E000C0800000C0802000C0804000C0806000C0808000C080A000C080C000C080E000C0A00000C0A02000C0A04000C0A06000C0A08000C0A0A000C0A0C000C0A0E000C0C00000C0C02000C0C04000C0C06000
310
C0C08000C0C0A000F0FBFF00A4A0A000808080000000FF0000FF000000FFFF00FF000000FF00FF00FFFF0000FFFFFF0000000000000000000000000000000000000000000000000000000000000000000000000000000000000000FBFBFEFEFBFBFEFEFBFB00000000000000000000000000000000000000000000FBFBFEFE
310
FBFBFEFEFBFB00000000000000000000000000000000000000000000FB00FEFE0000FEFE00FB00000000000000000000000000000000000000000000FB00FEFE0000FEFE00FB00000000000000000000000000000000000000000000FB00FEFEFEFEFEFE00FB00000000000000000000000000000000000000000000FB0000
310
FEFEFE000000FB00000000000000000000000000000000000000000000FBFBFEFBFBFBFBFEFBFB000000000000000000000000000000000000000000000000FBFBFBFBFBFE0000000000000000000000000000000000000000000000000000FE00000000FE0000000000000000000000000000000000000000000000000000
310
FE00000000FE0000000000000000000000000000000000000000000000000000FE00000000FE0000000000000000000000000000000000000000000000000000FE00000000FE0000000000000000000000000000000000000000000000000000FE00000000FE00000000000000000000000000000000000000000000000000
310
00FE00000000FE0000000000000000000000000000000000000000000000000000FE00000000FE0000000000000000000000000000000000000000000000000000FE00000000FE0000000000000000000000000000000000000000000000000000FE00000000FE000000000000000000000000000000000000000000000000
310
0000FE00000000FE0000000000000000000000000000000000000000000000000000FE00000000FE0000000000000000000000000000000000000000000000000000FE00000000FE0000000000000000000000000000000000000000000000000000FE00000000FE0000000000000000000000000000000000000000000000
310
000000FE00000000FE0000000000000000000000000000000000000000000000000000FE00000000FE0000000000000000000000000000000000000000000000000000FE00000000FE0000000000000000000000000000000000000000000000000000FE00000000FE00000000000000000000000000000000000000000000
310
00000000FE00000000FE0000000000000000000000000000000000000000000000000000FE00000000FE0000000000000000000000000000000000000000000000000000FEFBFBFBFBFE0000000000000000000000000000000000000000000000000000FEFB000000FE000000000000000000000000000000000000000000
310
000000000000FBFBFBFB00000000000000000000000000000000000000000000000000000000000000000000000000000000000000000000
  0
BLOCK_RECORD
  5
A518
102
{ACAD_XDICTIONARY
360
A519
102
}
330
1
100
AcDbSymbolTableRecord
100
AcDbBlockTableRecord
  2
LS3
340
0
310
2800000020000000200000000100080000000000000400000000000000000000000000000000000000000000000080000080000000808000800000008000800080800000C0C0C000C0DCC000F0CAA6000020400000206000002080000020A0000020C0000020E00000400000004020000040400000406000004080000040A0
310
000040C0000040E00000600000006020000060400000606000006080000060A0000060C0000060E00000800000008020000080400000806000008080000080A0000080C0000080E00000A0000000A0200000A0400000A0600000A0800000A0A00000A0C00000A0E00000C0000000C0200000C0400000C0600000C0800000C0
310
A00000C0C00000C0E00000E0000000E0200000E0400000E0600000E0800000E0A00000E0C00000E0E00040000000400020004000400040006000400080004000A0004000C0004000E00040200000402020004020400040206000402080004020A0004020C0004020E000404000004040200040404000404060004040800040
310
40A0004040C0004040E00040600000406020004060400040606000406080004060A0004060C0004060E00040800000408020004080400040806000408080004080A0004080C0004080E00040A0000040A0200040A0400040A0600040A0800040A0A00040A0C00040A0E00040C0000040C0200040C0400040C0600040C08000
310
40C0A00040C0C00040C0E00040E0000040E0200040E0400040E0600040E0800040E0A00040E0C00040E0E00080000000800020008000400080006000800080008000A0008000C0008000E00080200000802020008020400080206000802080008020A0008020C0008020E00080400000804020008040400080406000804080
310
008040A0008040C0008040E00080600000806020008060400080606000806080008060A0008060C0008060E00080800000808020008080400080806000808080008080A0008080C0008080E00080A0000080A0200080A0400080A0600080A0800080A0A00080A0C00080A0E00080C0000080C0200080C0400080C0600080C0
310
800080C0A00080C0C00080C0E00080E0000080E0200080E0400080E0600080E0800080E0A00080E0C00080E0E000C0000000C0002000C0004000C0006000C0008000C000A000C000C000C000E000C0200000C0202000C0204000C0206000C0208000C020A000C020C000C020E000C0400000C0402000C0404000C0406000C0
310
408000C040A000C040C000C040E000C0600000C0602000C0604000C0606000C0608000C060A000C060C000C060E000C0800000C0802000C0804000C0806000C0808000C080A000C080C000C080E000C0A00000C0A02000C0A04000C0A06000C0A08000C0A0A000C0A0C000C0A0E000C0C00000C0C02000C0C04000C0C06000
310
C0C08000C0C0A000F0FBFF00A4A0A000808080000000FF0000FF000000FFFF00FF000000FF00FF00FFFF0000FFFFFF0000000000000000000000000000000000000000000000000000000000000000000000000000000000000000FBFBFEFEFBFBFEFEFBFB00000000000000000000000000000000000000000000FBFBFEFE
310
FBFBFEFEFBFB00000000000000000000000000000000000000000000FB00FEFE0000FEFE00FB00000000000000000000000000000000000000000000FB00FEFEFEFEFEFE00FB00000000000000000000000000000000000000000000FB0000FEFE00FE0000FB00000000000000000000000000000000000000000000FB0000
310
0000FE000000FB00000000000000000000000000000000000000000000FBFBFEFBFBFBFBFBFBFB000000000000000000000000000000000000000000000000FE00000000FE0000000000000000000000000000000000000000000000000000FE00000000FE0000000000000000000000000000000000000000000000000000
310
FE00000000FE0000000000000000000000000000000000000000000000000000FE00000000FE0000000000000000000000000000000000000000000000000000FE00000000FE0000000000000000000000000000000000000000000000000000FE00000000FE00000000000000000000000000000000000000000000000000
310
00FE00000000FE0000000000000000000000000000000000000000000000000000FE00000000FE0000000000000000000000000000000000000000000000000000FE00000000FE0000000000000000000000000000000000000000000000000000FE00000000FE000000000000000000000000000000000000000000000000
310
0000FE00000000FE0000000000000000000000000000000000000000000000000000FE00000000FE0000000000000000000000000000000000000000000000000000FE00000000FE0000000000000000000000000000000000000000000000000000FE00000000FE0000000000000000000000000000000000000000000000
310
000000FE00000000FE0000000000000000000000000000000000000000000000000000FE00000000FE0000000000000000000000000000000000000000000000000000FE00000000FE0000000000000000000000000000000000000000000000000000FE00000000FE00000000000000000000000000000000000000000000
310
00000000FE00000000FE0000000000000000000000000000000000000000000000000000FE00000000FE0000000000000000000000000000000000000000000000000000FE00000000FE0000000000000000000000000000000000000000000000000000FEFBFBFBFBFE000000000000000000000000000000000000000000
310
000000000000FBFBFBFB00000000000000000000000000000000000000000000000000000000000000000000000000000000000000000000
  0
BLOCK_RECORD
  5
A627
102
{ACAD_XDICTIONARY
360
A628
102
}
330
1
100
AcDbSymbolTableRecord
100
AcDbBlockTableRecord
  2
LS4
340
0
310
2800000020000000200000000100080000000000000400000000000000000000000000000000000000000000000080000080000000808000800000008000800080800000C0C0C000C0DCC000F0CAA6000020400000206000002080000020A0000020C0000020E00000400000004020000040400000406000004080000040A0
310
000040C0000040E00000600000006020000060400000606000006080000060A0000060C0000060E00000800000008020000080400000806000008080000080A0000080C0000080E00000A0000000A0200000A0400000A0600000A0800000A0A00000A0C00000A0E00000C0000000C0200000C0400000C0600000C0800000C0
310
A00000C0C00000C0E00000E0000000E0200000E0400000E0600000E0800000E0A00000E0C00000E0E00040000000400020004000400040006000400080004000A0004000C0004000E00040200000402020004020400040206000402080004020A0004020C0004020E000404000004040200040404000404060004040800040
310
40A0004040C0004040E00040600000406020004060400040606000406080004060A0004060C0004060E00040800000408020004080400040806000408080004080A0004080C0004080E00040A0000040A0200040A0400040A0600040A0800040A0A00040A0C00040A0E00040C0000040C0200040C0400040C0600040C08000
310
40C0A00040C0C00040C0E00040E0000040E0200040E0400040E0600040E0800040E0A00040E0C00040E0E00080000000800020008000400080006000800080008000A0008000C0008000E00080200000802020008020400080206000802080008020A0008020C0008020E00080400000804020008040400080406000804080
310
008040A0008040C0008040E00080600000806020008060400080606000806080008060A0008060C0008060E00080800000808020008080400080806000808080008080A0008080C0008080E00080A0000080A0200080A0400080A0600080A0800080A0A00080A0C00080A0E00080C0000080C0200080C0400080C0600080C0
310
800080C0A00080C0C00080C0E00080E0000080E0200080E0400080E0600080E0800080E0A00080E0C00080E0E000C0000000C0002000C0004000C0006000C0008000C000A000C000C000C000E000C0200000C0202000C0204000C0206000C0208000C020A000C020C000C020E000C0400000C0402000C0404000C0406000C0
310
408000C040A000C040C000C040E000C0600000C0602000C0604000C0606000C0608000C060A000C060C000C060E000C0800000C0802000C0804000C0806000C0808000C080A000C080C000C080E000C0A00000C0A02000C0A04000C0A06000C0A08000C0A0A000C0A0C000C0A0E000C0C00000C0C02000C0C04000C0C06000
310
C0C08000C0C0A000F0FBFF00A4A0A000808080000000FF0000FF000000FFFF00FF000000FF00FF00FFFF0000FFFFFF0000000000000000000000000000000000000000000000000000000000000000000000000000000000000000FBFBFEFEFBFBFEFEFBFB000000000000000000000000000000000000000000FBFBFBFEFE
310
FBFBFEFEFBFBFB0000000000000000000000000000000000000000FB0000FEFE0000FEFE0000FB0000000000000000000000000000000000000000FB0000FEFEFEFEFEFE0000FB0000000000000000000000000000000000000000FB000000FEFE00FE000000FB0000000000000000000000000000000000000000FB000000
310
0000FE00000000FB0000000000000000000000000000000000000000FB00000000000000000000FB0000000000000000000000000000000000000000FBFBFEFEFBFBFBFBFBFBFBFB00000000000000000000000000000000000000000000FBFE00000000FEFB000000000000000000000000000000000000000000000000FB
310
FE00000000FEFB000000000000000000000000000000000000000000000000FBFE00000000FEFB000000000000000000000000000000000000000000000000FBFE00000000FEFB000000000000000000000000000000000000000000000000FBFE00000000FEFB000000000000000000000000000000000000000000000000
310
FBFE00000000FEFB000000000000000000000000000000000000000000000000FBFE00000000FEFB000000000000000000000000000000000000000000000000FBFE00000000FEFB000000000000000000000000000000000000000000000000FBFE00000000FEFB0000000000000000000000000000000000000000000000
310
00FBFE00000000FEFB000000000000000000000000000000000000000000000000FBFE00000000FEFB000000000000000000000000000000000000000000000000FBFE00000000FEFB000000000000000000000000000000000000000000000000FBFE00000000FEFB00000000000000000000000000000000000000000000
310
0000FBFE00000000FEFB000000000000000000000000000000000000000000000000FBFE00000000FEFB000000000000000000000000000000000000000000000000FBFE00000000FEFB000000000000000000000000000000000000000000000000FBFE00000000FEFB000000000000000000000000000000000000000000
310
000000FBFE00000000FEFB000000000000000000000000000000000000000000000000FBFE00000000FEFB000000000000000000000000000000000000000000000000FBFEFBFBFBFBFEFB00000000000000000000000000000000000000000000000000FE00000000FE000000000000000000000000000000000000000000
310
000000000000FBFBFBFB00000000000000000000000000000000000000000000000000000000000000000000000000000000000000000000
  0
BLOCK_RECORD
  5
CDD0
330
1
100
AcDbSymbolTableRecord
100
AcDbBlockTableRecord
  2
*D7
340
0
  0
BLOCK_RECORD
  5
CE09
330
1
100
AcDbSymbolTableRecord
100
AcDbBlockTableRecord
  2
*D8
340
0
  0
BLOCK_RECORD
  5
CE16
330
1
100
AcDbSymbolTableRecord
100
AcDbBlockTableRecord
  2
*D9
340
0
  0
BLOCK_RECORD
  5
CE25
330
1
100
AcDbSymbolTableRecord
100
AcDbBlockTableRecord
  2
*D10
340
0
  0
BLOCK_RECORD
  5
CE32
330
1
100
AcDbSymbolTableRecord
100
AcDbBlockTableRecord
  2
*D11
340
0
  0
BLOCK_RECORD
  5
CE3F
330
1
100
AcDbSymbolTableRecord
100
AcDbBlockTableRecord
  2
*D12
340
0
  0
BLOCK_RECORD
  5
CEB6
330
1
100
AcDbSymbolTableRecord
100
AcDbBlockTableRecord
  2
*D13
340
0
  0
BLOCK_RECORD
  5
CECE
330
1
100
AcDbSymbolTableRecord
100
AcDbBlockTableRecord
  2
*D14
340
0
  0
ENDTAB
  0
ENDSEC
  0
SECTION
  2
BLOCKS
  0
BLOCK
  5
19
330
18
100
AcDbEntity
  8
0
100
AcDbBlockBegin
  2
*MODEL_SPACE
 70
     0
 10
0.0
 20
0.0
 30
0.0
  3
*MODEL_SPACE
  1

  0
ENDBLK
  5
1A
330
18
100
AcDbEntity
  8
0
100
AcDbBlockEnd
  0
BLOCK
  5
16
330
15
100
AcDbEntity
 67
     1
  8
0
100
AcDbBlockBegin
  2
*PAPER_SPACE
 70
     0
 10
0.0
 20
0.0
 30
0.0
  3
*PAPER_SPACE
  1

  0
ENDBLK
  5
17
330
15
100
AcDbEntity
 67
     1
  8
0
100
AcDbBlockEnd
  0
BLOCK
  5
63A1
330
639D
100
AcDbEntity
  8
0
100
AcDbBlockBegin
  2
A$C255C26A2
 70
     0
 10
0.0
 20
0.0
 30
0.0
  3
A$C255C26A2
  1

  0
LWPOLYLINE
  5
639E
330
639D
100
AcDbEntity
  8
0
100
AcDbPolyline
 90
        3
 70
     1
 43
0.0
 10
7.014806023851633
 20
0.0000006939811783
 10
5.611844869720698
 20
2.430000693981241
 10
8.417767177982568
 20
2.430000693981241
  0
LWPOLYLINE
  5
639F
330
639D
100
AcDbEntity
  8
0
100
AcDbPolyline
 90
        3
 70
     1
 43
0.0
 10
4.20888371558999
 20
0.0000006939811783
 10
2.805922561459283
 20
2.430000693981241
 10
5.611844869720698
 20
2.430000693981241
  0
LWPOLYLINE
  5
63A0
330
639D
100
AcDbEntity
  8
0
100
AcDbPolyline
 90
        3
 70
     1
 43
0.0
 10
1.402961407328348
 20
0.0000006939811783
 10
0.0000002531974133
 20
2.430000693981241
 10
2.805922561459283
 20
2.430000693981241
  0
ENDBLK
  5
63A2
330
639D
100
AcDbEntity
  8
0
100
AcDbBlockEnd
  0
BLOCK
  5
7C05
330
7C04
100
AcDbEntity
  8
0
100
AcDbBlockBegin
  2
_Open30
 70
     0
 10
0.0
 20
0.0
 30
0.0
  3
_Open30
  1

  0
LINE
  5
7C06
330
7C04
100
AcDbEntity
  8
0
  6
ByBlock
 62
     0
370
    -2
100
AcDbLine
 10
-1.0
 20
0.26794919
 30
0.0
 11
0.0
 21
0.0
 31
0.0
  0
LINE
  5
7C07
330
7C04
100
AcDbEntity
  8
0
  6
ByBlock
 62
     0
370
    -2
100
AcDbLine
 10
0.0
 20
0.0
 30
0.0
 11
-1.0
 21
-0.26794919
 31
0.0
  0
LINE
  5
7C08
330
7C04
100
AcDbEntity
  8
0
  6
ByBlock
 62
     0
370
    -2
100
AcDbLine
 10
0.0
 20
0.0
 30
0.0
 11
-1.0
 21
0.0
 31
0.0
  0
ENDBLK
  5
7C09
330
7C04
100
AcDbEntity
  8
0
100
AcDbBlockEnd
  0
BLOCK
  5
7C0E
330
7C0A
100
AcDbEntity
  8
0
100
AcDbBlockBegin
  2
A
 70
     0
 10
0.0
 20
0.0
 30
0.0
  3
A
  1

  0
MTEXT
  5
7C0F
330
7C0A
100
AcDbEntity
  8
mark
 62
     3
100
AcDbMText
 10
10.65641897020822
 20
-5.596245361730467
 30
0.0
 40
2.5
 41
0.0
 71
     5
 72
     1
  1
A
 73
     1
 44
1.0
1001
ACAD
1000
ACAD_MTEXT_DEFINED_HEIGHT_BEGIN
1070
    46
1040
0.0
1000
ACAD_MTEXT_DEFINED_HEIGHT_END
  0
LWPOLYLINE
  5
7C10
330
7C0A
100
AcDbEntity
  8
mark
100
AcDbPolyline
 90
        4
 70
     1
 43
0.0
 10
9.07926800414657
 20
-7.141145101782569
 10
12.07926800414657
 20
-7.141145101782569
 10
12.07926800414657
 20
-4.141145101782569
 10
9.07926800414657
 20
-4.141145101782569
  0
HATCH
  5
7C11
330
7C0A
100
AcDbEntity
  8
mark
100
AcDbHatch
 10
0.0
 20
0.0
 30
0.0
210
0.0
220
0.0
230
1.0
  2
SOLID
 70
     1
 71
     0
 91
        1
 92
        7
 72
     0
 73
     1
 93
        3
 10
5.32926800414657
 20
-5.641145101782569
 10
4.07926800414657
 20
-4.391145101782541
 10
4.07926800414657
 20
-6.891145101782541
 97
        0
 75
     0
 76
     1
 47
0.0398277943677868
 98
        1
 10
4.589689734415287
 20
-5.732163331855076
450
        0
451
        0
460
0.0
461
0.0
452
        1
462
1.0
453
        2
463
0.0
 63
     5
421
      255
463
1.0
 63
     7
421
 16777215
470
LINEAR
1001
ACAD
1010
0.0
1020
0.0
1030
0.0
  0
LINE
  5
7C12
330
7C0A
100
AcDbEntity
  8
mark
100
AcDbLine
 10
5.32926800414657
 20
-5.641145101782569
 30
0.0
 11
9.07926800414657
 21
-5.641145101782569
 31
0.0
  0
LINE
  5
7C13
330
7C0A
100
AcDbEntity
  8
mark
100
AcDbLine
 10
5.32926800414657
 20
-5.641145101782569
 30
0.0
 11
4.07926800414657
 21
-4.391145101782569
 31
0.0
  0
LINE
  5
7C14
330
7C0A
100
AcDbEntity
  8
mark
100
AcDbLine
 10
5.32926800414657
 20
-5.641145101782569
 30
0.0
 11
4.07926800414657
 21
-6.891145101782569
 31
0.0
  0
ENDBLK
  5
7C15
330
7C0A
100
AcDbEntity
  8
0
100
AcDbBlockEnd
  0
BLOCK
  5
8E76
330
8E72
100
AcDbEntity
  8
0
100
AcDbBlockBegin
  2
LS
 70
     0
 10
0.0
 20
0.0
 30
0.0
  3
LS
  1

  0
LINE
  5
8E78
330
8E72
100
AcDbEntity
  8
contour
100
AcDbLine
 10
310.7457309951603
 20
181.0160360664828
 30
0.0
 11
310.7457309951603
 21
184.7160360664827
 31
0.0
  0
LINE
  5
8E79
330
8E72
100
AcDbEntity
  8
contour
100
AcDbLine
 10
310.7457309951603
 20
184.7160360664827
 30
0.0
 11
303.7457309951603
 21
184.7160360664827
 31
0.0
  0
LINE
  5
8E7A
330
8E72
100
AcDbEntity
  8
contour
100
AcDbLine
 10
308.4457309951603
 20
196.7160360664827
 30
0.0
 11
306.0457309951603
 21
196.7160360664826
 31
0.0
  0
LINE
  5
8E7B
330
8E72
100
AcDbEntity
  8
contour
100
AcDbLine
 10
309.2457309951603
 20
195.9160360664826
 30
0.0
 11
308.4457309951603
 21
196.7160360664826
 31
0.0
  0
LINE
  5
8E7C
330
8E72
100
AcDbEntity
  8
contour
100
AcDbLine
 10
303.7457309951603
 20
184.7160360664827
 30
0.0
 11
303.7457309951603
 21
181.0160360664827
 31
0.0
  0
LINE
  5
8E7D
330
8E72
100
AcDbEntity
  8
contour
100
AcDbLine
 10
304.0457309951603
 20
180.7160360664827
 30
0.0
 11
310.4457309951603
 21
180.7160360664828
 31
0.0
  0
LINE
  5
8E7E
330
8E72
100
AcDbEntity
  8
contour
100
AcDbLine
 10
310.7457309951603
 20
181.0160360664828
 30
0.0
 11
310.4457309951603
 21
180.7160360664828
 31
0.0
  0
LINE
  5
8E7F
330
8E72
100
AcDbEntity
  8
contour
100
AcDbLine
 10
303.7457309951603
 20
181.0160360664827
 30
0.0
 11
304.0457309951603
 21
180.7160360664827
 31
0.0
  0
LINE
  5
8E80
330
8E72
100
AcDbEntity
  8
contour
100
AcDbLine
 10
309.2457309951603
 20
184.7160360664826
 30
0.0
 11
309.2457309951603
 21
195.9160360664827
 31
0.0
  0
LINE
  5
8E81
330
8E72
100
AcDbEntity
  8
contour
100
AcDbLine
 10
305.2457309951603
 20
184.7160360664826
 30
0.0
 11
305.2457309951603
 21
195.9160360664827
 31
0.0
  0
LINE
  5
8E82
330
8E72
100
AcDbEntity
  8
contour
100
AcDbLine
 10
306.0457309951603
 20
196.7160360664826
 30
0.0
 11
305.2457309951603
 21
195.9160360664826
 31
0.0
  0
LINE
  5
8E83
330
8E72
100
AcDbEntity
  8
contour
100
AcDbLine
 10
309.2457309951603
 20
195.9160360664827
 30
0.0
 11
305.2457309951603
 21
195.9160360664827
 31
0.0
  0
LINE
  5
8E84
330
8E72
100
AcDbEntity
  8
contour
 62
     4
100
AcDbLine
 10
308.8667309951603
 20
185.3724833225513
 30
0.0
 11
308.8667309951603
 21
196.2950360664826
 31
0.0
  0
LINE
  5
8E85
330
8E72
100
AcDbEntity
  8
contour
 62
     4
100
AcDbLine
 10
305.6247309951603
 20
185.3724833225513
 30
0.0
 11
305.6247309951603
 21
196.2950360664826
 31
0.0
  0
LINE
  5
8E86
330
8E72
100
AcDbEntity
  8
contour
100
AcDbLine
 10
310.7457309951603
 20
181.0160360664828
 30
0.0
 11
303.7457309951603
 21
181.0160360664828
 31
0.0
  0
LINE
  5
8E87
330
8E72
100
AcDbEntity
  8
bowle
 48
0.1
100
AcDbLine
 10
308.1117563989447
 20
180.7160360664827
 30
0.0
 11
308.1117563989447
 21
182.9160360664827
 31
0.0
  0
LINE
  5
8E88
330
8E72
100
AcDbEntity
  8
bowle
 48
0.1
100
AcDbLine
 10
308.9777818027293
 20
180.7160360664827
 30
0.0
 11
308.9777818027293
 21
182.9160360664827
 31
0.0
  0
LINE
  5
8E89
330
8E72
100
AcDbEntity
  8
bowle
 48
0.1
100
AcDbLine
 10
306.3797055913759
 20
180.7160360664827
 30
0.0
 11
306.3797055913759
 21
182.9160360664826
 31
0.0
  0
LINE
  5
8E8A
330
8E72
100
AcDbEntity
  8
bowle
 48
0.1
100
AcDbLine
 10
305.5136801875914
 20
180.7160360664827
 30
0.0
 11
305.5136801875914
 21
182.9160360664826
 31
0.0
  0
LINE
  5
8E8B
330
8E72
100
AcDbEntity
  8
bowle
 48
0.1
100
AcDbLine
 10
308.9777818027292
 20
182.9160360664827
 30
0.0
 11
305.5136801875914
 21
182.9160360664827
 31
0.0
  0
LINE
  5
8E8C
330
8E72
100
AcDbEntity
  8
bowle
 48
0.1
100
AcDbLine
 10
305.5136801875914
 20
182.9160360664826
 30
0.0
 11
307.2457309951603
 21
183.9160360664826
 31
0.0
  0
LINE
  5
8E8D
330
8E72
100
AcDbEntity
  8
bowle
 48
0.1
100
AcDbLine
 10
308.9777818027292
 20
182.9160360664826
 30
0.0
 11
307.2457309951603
 21
183.9160360664826
 31
0.0
  0
LINE
  5
8E8E
330
8E72
100
AcDbEntity
  8
contour
 62
     4
100
AcDbLine
 10
305.6247309951603
 20
185.3724833225513
 30
0.0
 11
305.2457309951603
 21
184.7160360664826
 31
0.0
  0
LINE
  5
8E8F
330
8E72
100
AcDbEntity
  8
contour
100
AcDbLine
 10
305.2457309951603
 20
185.3724833225513
 30
0.0
 11
309.2457309951603
 21
185.3724833225513
 31
0.0
  0
LINE
  5
8E90
330
8E72
100
AcDbEntity
  8
contour
 62
     4
100
AcDbLine
 10
309.2457309951603
 20
184.7160360664827
 30
0.0
 11
308.8667309951603
 21
185.3724833225513
 31
0.0
  0
ENDBLK
  5
8E77
330
8E72
100
AcDbEntity
  8
0
100
AcDbBlockEnd
  0
BLOCK
  5
9D19
330
9D15
100
AcDbEntity
  8
0
100
AcDbBlockBegin
  2
LS2
 70
     0
 10
0.0
 20
0.0
 30
0.0
  3
LS2
  1

  0
LINE
  5
9D1B
330
9D15
100
AcDbEntity
  8
contour
100
AcDbLine
 10
143.2797554375081
 20
0.0655328110734672
 30
0.0
 11
143.2797554375081
 21
3.765532811073398
 31
0.0
  0
LINE
  5
9D1C
330
9D15
100
AcDbEntity
  8
contour
100
AcDbLine
 10
143.2797554375081
 20
3.765532811073398
 30
0.0
 11
136.2797554375081
 21
3.765532811073398
 31
0.0
  0
LINE
  5
9D1D
330
9D15
100
AcDbEntity
  8
contour
100
AcDbLine
 10
140.979755437508
 20
19.7655328110734
 30
0.0
 11
138.5797554375081
 21
19.76553281107334
 31
0.0
  0
LINE
  5
9D1E
330
9D15
100
AcDbEntity
  8
contour
100
AcDbLine
 10
141.7797554375081
 20
18.96553281107333
 30
0.0
 11
140.9797554375081
 21
19.76553281107334
 31
0.0
  0
LINE
  5
9D1F
330
9D15
100
AcDbEntity
  8
contour
100
AcDbLine
 10
136.2797554375081
 20
3.765532811073398
 30
0.0
 11
136.2797554375081
 21
0.0655328110733535
 31
0.0
  0
LINE
  5
9D20
330
9D15
100
AcDbEntity
  8
contour
100
AcDbLine
 10
136.5797554375081
 20
-0.2344671889266578
 30
0.0
 11
142.9797554375081
 21
-0.2344671889265442
 31
0.0
  0
LINE
  5
9D21
330
9D15
100
AcDbEntity
  8
contour
100
AcDbLine
 10
143.2797554375081
 20
0.0655328110734672
 30
0.0
 11
142.9797554375081
 21
-0.2344671889265442
 31
0.0
  0
LINE
  5
9D22
330
9D15
100
AcDbEntity
  8
contour
100
AcDbLine
 10
136.2797554375081
 20
0.0655328110733535
 30
0.0
 11
136.5797554375081
 21
-0.2344671889266578
 31
0.0
  0
LINE
  5
9D23
330
9D15
100
AcDbEntity
  8
contour
100
AcDbLine
 10
141.7797554375081
 20
3.765532811073342
 30
0.0
 11
141.7797554375081
 21
18.96553281107339
 31
0.0
  0
LINE
  5
9D24
330
9D15
100
AcDbEntity
  8
contour
100
AcDbLine
 10
137.7797554375081
 20
3.765532811073342
 30
0.0
 11
137.7797554375081
 21
18.96553281107339
 31
0.0
  0
LINE
  5
9D25
330
9D15
100
AcDbEntity
  8
contour
100
AcDbLine
 10
138.5797554375081
 20
19.76553281107334
 30
0.0
 11
137.7797554375081
 21
18.96553281107333
 31
0.0
  0
LINE
  5
9D26
330
9D15
100
AcDbEntity
  8
contour
100
AcDbLine
 10
141.7797554375081
 20
18.96553281107339
 30
0.0
 11
137.7797554375081
 21
18.96553281107339
 31
0.0
  0
LINE
  5
9D27
330
9D15
100
AcDbEntity
  8
contour
 62
     4
100
AcDbLine
 10
141.400755437508
 20
4.42198006714193
 30
0.0
 11
141.4007554375081
 21
19.34453281107327
 31
0.0
  0
LINE
  5
9D28
330
9D15
100
AcDbEntity
  8
contour
 62
     4
100
AcDbLine
 10
138.1587554375081
 20
4.42198006714193
 30
0.0
 11
138.1587554375081
 21
19.34453281107336
 31
0.0
  0
LINE
  5
9D29
330
9D15
100
AcDbEntity
  8
contour
100
AcDbLine
 10
143.2797554375081
 20
0.0655328110734672
 30
0.0
 11
136.2797554375081
 21
0.0655328110735241
 31
0.0
  0
LINE
  5
9D2A
330
9D15
100
AcDbEntity
  8
bowle
 48
0.1
100
AcDbLine
 10
140.6457808412925
 20
-0.234467188926601
 30
0.0
 11
140.6457808412925
 21
1.965532811073387
 31
0.0
  0
LINE
  5
9D2B
330
9D15
100
AcDbEntity
  8
bowle
 48
0.1
100
AcDbLine
 10
141.511806245077
 20
-0.2344671889266578
 30
0.0
 11
141.511806245077
 21
1.965532811073387
 31
0.0
  0
LINE
  5
9D2C
330
9D15
100
AcDbEntity
  8
bowle
 48
0.1
100
AcDbLine
 10
138.9137300337237
 20
-0.234467188926601
 30
0.0
 11
138.9137300337237
 21
1.96553281107333
 31
0.0
  0
LINE
  5
9D2D
330
9D15
100
AcDbEntity
  8
bowle
 48
0.1
100
AcDbLine
 10
138.0477046299392
 20
-0.2344671889266578
 30
0.0
 11
138.0477046299391
 21
1.96553281107333
 31
0.0
  0
LINE
  5
9D2E
330
9D15
100
AcDbEntity
  8
bowle
 48
0.1
100
AcDbLine
 10
141.511806245077
 20
1.965532811073387
 30
0.0
 11
138.0477046299391
 21
1.965532811073387
 31
0.0
  0
LINE
  5
9D2F
330
9D15
100
AcDbEntity
  8
bowle
 48
0.1
100
AcDbLine
 10
138.0477046299391
 20
1.96553281107333
 30
0.0
 11
139.779755437508
 21
2.96553281107333
 31
0.0
  0
LINE
  5
9D30
330
9D15
100
AcDbEntity
  8
bowle
 48
0.1
100
AcDbLine
 10
141.511806245077
 20
1.96553281107333
 30
0.0
 11
139.779755437508
 21
2.96553281107333
 31
0.0
  0
LINE
  5
9D31
330
9D15
100
AcDbEntity
  8
contour
 62
     4
100
AcDbLine
 10
138.1587554375081
 20
4.421980067141987
 30
0.0
 11
137.7797554375081
 21
3.765532811073342
 31
0.0
  0
LINE
  5
9D32
330
9D15
100
AcDbEntity
  8
contour
100
AcDbLine
 10
137.7797554375081
 20
4.42198006714193
 30
0.0
 11
141.7797554375081
 21
4.42198006714193
 31
0.0
  0
LINE
  5
9D33
330
9D15
100
AcDbEntity
  8
contour
 62
     4
100
AcDbLine
 10
141.7797554375081
 20
3.765532811073398
 30
0.0
 11
141.400755437508
 21
4.42198006714193
 31
0.0
  0
ENDBLK
  5
9D1A
330
9D15
100
AcDbEntity
  8
0
100
AcDbBlockEnd
  0
BLOCK
  5
A51C
330
A518
100
AcDbEntity
  8
0
100
AcDbBlockBegin
  2
LS3
 70
     0
 10
0.0
 20
0.0
 30
0.0
  3
LS3
  1

  0
LINE
  5
A51E
330
A518
100
AcDbEntity
  8
contour
100
AcDbLine
 10
329.8877449821333
 20
4.477662871771769
 30
0.0
 11
329.8877449821333
 21
8.177662871771701
 31
0.0
  0
LINE
  5
A51F
330
A518
100
AcDbEntity
  8
contour
100
AcDbLine
 10
329.8877449821333
 20
8.177662871771701
 30
0.0
 11
336.8877449821333
 21
8.177662871771701
 31
0.0
  0
LINE
  5
A520
330
A518
100
AcDbEntity
  8
contour
100
AcDbLine
 10
332.1877449821334
 20
26.1776628717717
 30
0.0
 11
334.5877449821334
 21
26.17766287177165
 31
0.0
  0
LINE
  5
A521
330
A518
100
AcDbEntity
  8
contour
100
AcDbLine
 10
331.3877449821333
 20
25.37766287177163
 30
0.0
 11
332.1877449821334
 21
26.17766287177165
 31
0.0
  0
LINE
  5
A522
330
A518
100
AcDbEntity
  8
contour
100
AcDbLine
 10
336.8877449821333
 20
8.177662871771701
 30
0.0
 11
336.8877449821333
 21
4.477662871771656
 31
0.0
  0
LINE
  5
A523
330
A518
100
AcDbEntity
  8
contour
100
AcDbLine
 10
336.5877449821334
 20
4.177662871771644
 30
0.0
 11
330.1877449821334
 21
4.177662871771758
 31
0.0
  0
LINE
  5
A524
330
A518
100
AcDbEntity
  8
contour
100
AcDbLine
 10
329.8877449821333
 20
4.477662871771769
 30
0.0
 11
330.1877449821334
 21
4.177662871771758
 31
0.0
  0
LINE
  5
A525
330
A518
100
AcDbEntity
  8
contour
100
AcDbLine
 10
336.8877449821333
 20
4.477662871771656
 30
0.0
 11
336.5877449821334
 21
4.177662871771644
 31
0.0
  0
LINE
  5
A526
330
A518
100
AcDbEntity
  8
contour
100
AcDbLine
 10
331.3877449821333
 20
8.177662871771644
 30
0.0
 11
331.3877449821334
 21
25.37766287177168
 31
0.0
  0
LINE
  5
A527
330
A518
100
AcDbEntity
  8
contour
100
AcDbLine
 10
335.3877449821333
 20
8.177662871771644
 30
0.0
 11
335.3877449821333
 21
25.37766287177166
 31
0.0
  0
LINE
  5
A528
330
A518
100
AcDbEntity
  8
contour
100
AcDbLine
 10
334.5877449821334
 20
26.17766287177165
 30
0.0
 11
335.3877449821333
 21
25.37766287177163
 31
0.0
  0
LINE
  5
A529
330
A518
100
AcDbEntity
  8
contour
100
AcDbLine
 10
331.3877449821333
 20
25.37766287177169
 30
0.0
 11
335.3877449821333
 21
25.37766287177169
 31
0.0
  0
LINE
  5
A52A
330
A518
100
AcDbEntity
  8
contour
 62
     4
100
AcDbLine
 10
331.7667449821333
 20
8.834110127840233
 30
0.0
 11
331.7667449821333
 21
25.75666287177167
 31
0.0
  0
LINE
  5
A52B
330
A518
100
AcDbEntity
  8
contour
 62
     4
100
AcDbLine
 10
335.0087449821333
 20
8.834110127840233
 30
0.0
 11
335.0087449821334
 21
25.75666287177161
 31
0.0
  0
LINE
  5
A52C
330
A518
100
AcDbEntity
  8
contour
100
AcDbLine
 10
329.8877449821333
 20
4.477662871771769
 30
0.0
 11
336.8877449821333
 21
4.477662871771826
 31
0.0
  0
LINE
  5
A52D
330
A518
100
AcDbEntity
  8
bowle
 48
0.1
100
AcDbLine
 10
332.5217195783489
 20
4.177662871771701
 30
0.0
 11
332.5217195783489
 21
6.37766287177169
 31
0.0
  0
LINE
  5
A52E
330
A518
100
AcDbEntity
  8
bowle
 48
0.1
100
AcDbLine
 10
331.6556941745643
 20
4.177662871771644
 30
0.0
 11
331.6556941745643
 21
6.37766287177169
 31
0.0
  0
LINE
  5
A52F
330
A518
100
AcDbEntity
  8
bowle
 48
0.1
100
AcDbLine
 10
334.2537703859177
 20
4.177662871771701
 30
0.0
 11
334.2537703859177
 21
6.377662871771633
 31
0.0
  0
LINE
  5
A530
330
A518
100
AcDbEntity
  8
bowle
 48
0.1
100
AcDbLine
 10
335.1197957897023
 20
4.177662871771644
 30
0.0
 11
335.1197957897023
 21
6.377662871771633
 31
0.0
  0
LINE
  5
A531
330
A518
100
AcDbEntity
  8
bowle
 48
0.1
100
AcDbLine
 10
331.6556941745645
 20
6.37766287177169
 30
0.0
 11
335.1197957897023
 21
6.37766287177169
 31
0.0
  0
LINE
  5
A532
330
A518
100
AcDbEntity
  8
bowle
 48
0.1
100
AcDbLine
 10
335.1197957897023
 20
6.377662871771633
 30
0.0
 11
333.3877449821334
 21
7.377662871771633
 31
0.0
  0
LINE
  5
A533
330
A518
100
AcDbEntity
  8
bowle
 48
0.1
100
AcDbLine
 10
331.6556941745645
 20
6.377662871771633
 30
0.0
 11
333.3877449821334
 21
7.377662871771633
 31
0.0
  0
LINE
  5
A534
330
A518
100
AcDbEntity
  8
contour
 62
     4
100
AcDbLine
 10
335.0087449821333
 20
8.83411012784029
 30
0.0
 11
335.3877449821333
 21
8.177662871771644
 31
0.0
  0
LINE
  5
A535
330
A518
100
AcDbEntity
  8
contour
100
AcDbLine
 10
335.3877449821333
 20
8.834110127840233
 30
0.0
 11
331.3877449821333
 21
8.834110127840233
 31
0.0
  0
LINE
  5
A536
330
A518
100
AcDbEntity
  8
contour
 62
     4
100
AcDbLine
 10
331.3877449821333
 20
8.177662871771701
 30
0.0
 11
331.7667449821333
 21
8.834110127840233
 31
0.0
  0
ENDBLK
  5
A51D
330
A518
100
AcDbEntity
  8
0
100
AcDbBlockEnd
  0
BLOCK
  5
A62B
330
A627
100
AcDbEntity
  8
0
100
AcDbBlockBegin
  2
LS4
 70
     0
 10
0.0
 20
0.0
 30
0.0
  3
LS4
  1

  0
LINE
  5
A62D
330
A627
100
AcDbEntity
  8
contour
100
AcDbLine
 10
402.9074768226647
 20
108.9417821167274
 30
0.0
 11
410.8074768226646
 21
108.9417821167274
 31
0.0
  0
LINE
  5
A62E
330
A627
100
AcDbEntity
  8
contour
100
AcDbLine
 10
411.1074768226647
 20
109.2417821167273
 30
0.0
 11
411.1074768226647
 21
113.9417821167274
 31
0.0
  0
LINE
  5
A62F
330
A627
100
AcDbEntity
  8
contour
100
AcDbLine
 10
410.8074768226646
 20
108.9417821167274
 30
0.0
 11
411.1074768226647
 21
109.2417821167273
 31
0.0
  0
LINE
  5
A630
330
A627
100
AcDbEntity
  8
contour
100
AcDbLine
 10
411.1074768226647
 20
113.9417821167274
 30
0.0
 11
402.6074768226647
 21
113.9417821167274
 31
0.0
  0
LINE
  5
A631
330
A627
100
AcDbEntity
  8
contour
100
AcDbLine
 10
408.4574768226646
 20
131.9417821167274
 30
0.0
 11
405.2574768226646
 21
131.9417821167273
 31
0.0
  0
LINE
  5
A632
330
A627
100
AcDbEntity
  8
contour
100
AcDbLine
 10
409.3574768226646
 20
131.0417821167273
 30
0.0
 11
408.4574768226646
 21
131.9417821167274
 31
0.0
  0
LINE
  5
A633
330
A627
100
AcDbEntity
  8
contour
100
AcDbLine
 10
402.6074768226647
 20
113.9417821167274
 30
0.0
 11
402.6074768226647
 21
109.2417821167273
 31
0.0
  0
LINE
  5
A634
330
A627
100
AcDbEntity
  8
contour
100
AcDbLine
 10
402.9074768226647
 20
108.9417821167274
 30
0.0
 11
402.6074768226647
 21
109.2417821167273
 31
0.0
  0
LINE
  5
A635
330
A627
100
AcDbEntity
  8
contour
100
AcDbLine
 10
402.6074768226647
 20
109.2417821167273
 30
0.0
 11
411.1074768226647
 21
109.2417821167273
 31
0.0
  0
LINE
  5
A636
330
A627
100
AcDbEntity
  8
contour
100
AcDbLine
 10
404.3574768226647
 20
113.9417821167274
 30
0.0
 11
404.3574768226647
 21
131.0417821167273
 31
0.0
  0
LINE
  5
A637
330
A627
100
AcDbEntity
  8
contour
100
AcDbLine
 10
405.2574768226646
 20
131.9417821167273
 30
0.0
 11
404.3574768226647
 21
131.0417821167273
 31
0.0
  0
LINE
  5
A638
330
A627
100
AcDbEntity
  8
contour
100
AcDbLine
 10
409.3574768226647
 20
113.9417821167274
 30
0.0
 11
409.3574768226646
 21
131.0417821167273
 31
0.0
  0
LINE
  5
A639
330
A627
100
AcDbEntity
  8
contour
100
AcDbLine
 10
404.3574768226647
 20
131.0417821167273
 30
0.0
 11
409.3574768226646
 21
131.0417821167273
 31
0.0
  0
LINE
  5
A63A
330
A627
100
AcDbEntity
  8
contour
 62
     4
100
AcDbLine
 10
404.7904768226646
 20
114.6917601164047
 30
0.0
 11
404.7904768226647
 21
131.4747821167274
 31
0.0
  0
LINE
  5
A63B
330
A627
100
AcDbEntity
  8
contour
 62
     4
100
AcDbLine
 10
408.9244768226647
 20
114.6917601164048
 30
0.0
 11
408.9244768226647
 21
131.4747821167273
 31
0.0
  0
LINE
  5
A63C
330
A627
100
AcDbEntity
  8
contour
 62
     4
100
AcDbLine
 10
408.9244768226646
 20
114.6917601164048
 30
0.0
 11
409.3574768226647
 21
113.9417821167274
 31
0.0
  0
LINE
  5
A63D
330
A627
100
AcDbEntity
  8
contour
100
AcDbLine
 10
409.3574768226647
 20
114.6917601164048
 30
0.0
 11
404.3574768226647
 21
114.6917601164048
 31
0.0
  0
LINE
  5
A63E
330
A627
100
AcDbEntity
  8
contour
 62
     4
100
AcDbLine
 10
404.7904768226647
 20
114.6917601164048
 30
0.0
 11
404.3574768226647
 21
113.9417821167274
 31
0.0
  0
LINE
  5
A63F
330
A627
100
AcDbEntity
  8
bowle
 48
0.2
100
AcDbLine
 10
404.5480757459062
 20
108.9417821167274
 30
0.0
 11
404.5480757459062
 21
111.4417821167274
 31
0.0
  0
LINE
  5
A640
330
A627
100
AcDbEntity
  8
bowle
 48
0.2
100
AcDbLine
 10
409.1668778994232
 20
108.9417821167274
 30
0.0
 11
409.1668778994232
 21
111.4417821167274
 31
0.0
  0
LINE
  5
A641
330
A627
100
AcDbEntity
  8
bowle
 48
0.2
100
AcDbLine
 10
404.5480757459062
 20
111.4417821167274
 30
0.0
 11
409.1668778994232
 21
111.4417821167274
 31
0.0
  0
LINE
  5
A642
330
A627
100
AcDbEntity
  8
bowle
 48
0.2
100
AcDbLine
 10
405.7027762842854
 20
111.4417821167274
 30
0.0
 11
405.7027762842854
 21
108.9417821167274
 31
0.0
  0
LINE
  5
A643
330
A627
100
AcDbEntity
  8
bowle
 48
0.2
100
AcDbLine
 10
408.0121773610439
 20
111.4417821167274
 30
0.0
 11
408.0121773610439
 21
108.9417821167274
 31
0.0
  0
LINE
  5
A644
330
A627
100
AcDbEntity
  8
bowle
 48
0.2
100
AcDbLine
 10
409.1668778994232
 20
111.4417821167274
 30
0.0
 11
406.8574768226646
 21
112.7751154500606
 31
0.0
  0
LINE
  5
A645
330
A627
100
AcDbEntity
  8
bowle
 48
0.2
100
AcDbLine
 10
404.5480757459062
 20
111.4417821167274
 30
0.0
 11
406.8574768226646
 21
112.7751154500606
 31
0.0
  0
ENDBLK
  5
A62C
330
A627
100
AcDbEntity
  8
0
100
AcDbBlockEnd
  0
BLOCK
  5
CDDA
330
CDD0
100
AcDbEntity
  8
0
100
AcDbBlockBegin
  2
*D7
 70
     1
 10
0.0
 20
0.0
 30
0.0
  3
*D7
  1

  0
LINE
  5
D0C2
330
CDD0
100
AcDbEntity
  8
mark
370
    -2
100
AcDbLine
 10
37.5
 20
42.16760290956826
 30
0.0
 11
37.5
 21
34.98235859623624
 31
0.0
  0
LINE
  5
D0C3
330
CDD0
100
AcDbEntity
  8
mark
370
    -2
100
AcDbLine
 10
57.5
 20
42.16760290956826
 30
0.0
 11
57.5
 21
34.98235859623624
 31
0.0
  0
LINE
  5
D0C4
330
CDD0
100
AcDbEntity
  8
mark
370
    -2
100
AcDbLine
 10
38.75
 20
35.40735859623624
 30
0.0
 11
56.25
 21
35.40735859623624
 31
0.0
  0
INSERT
  5
D0C5
330
CDD0
100
AcDbEntity
  8
mark
370
    -2
100
AcDbBlockReference
  2
_Open30
 10
37.5
 20
35.40735859623624
 30
0.0
 41
1.25
 42
1.25
 43
1.25
 50
180.0
  0
INSERT
  5
D0C6
330
CDD0
100
AcDbEntity
  8
mark
370
    -2
100
AcDbBlockReference
  2
_Open30
 10
57.5
 20
35.40735859623624
 30
0.0
 41
1.25
 42
1.25
 43
1.25
  0
MTEXT
  5
D0C7
330
CDD0
100
AcDbEntity
  8
mark
 62
     3
100
AcDbMText
 10
47.5
 20
36.45735859623624
 30
0.0
 40
1.25
 41
0.0
 71
     5
 72
     1
  1
\A1;M20x1.0P
 73
     1
 44
1.0
  0
POINT
  5
D0C8
330
CDD0
100
AcDbEntity
  8
DEFPOINTS
 62
     0
100
AcDbPoint
 10
37.5
 20
42.59260290956826
 30
0.0
  0
POINT
  5
D0C9
330
CDD0
100
AcDbEntity
  8
DEFPOINTS
 62
     0
100
AcDbPoint
 10
57.5
 20
42.59260290956826
 30
0.0
  0
POINT
  5
D0CA
330
CDD0
100
AcDbEntity
  8
DEFPOINTS
 62
     0
100
AcDbPoint
 10
57.5
 20
35.40735859623624
 30
0.0
  0
ENDBLK
  5
CDDB
330
CDD0
100
AcDbEntity
  8
0
100
AcDbBlockEnd
  0
BLOCK
  5
CE13
330
CE09
100
AcDbEntity
  8
0
100
AcDbBlockBegin
  2
*D8
 70
     1
 10
0.0
 20
0.0
 30
0.0
  3
*D8
  1

  0
LINE
  5
D0CB
330
CE09
100
AcDbEntity
  8
mark
370
    -2
100
AcDbLine
 10
66.92499999999999
 20
60.13410290956819
 30
0.0
 11
72.69304908624433
 21
60.13410290956819
 31
0.0
  0
LINE
  5
D0CC
330
CE09
100
AcDbEntity
  8
mark
370
    -2
100
AcDbLine
 10
66.92499999999999
 20
49.88410290956821
 30
0.0
 11
72.69304908624433
 21
49.88410290956821
 31
0.0
  0
LINE
  5
D0CD
330
CE09
100
AcDbEntity
  8
mark
370
    -2
100
AcDbLine
 10
72.26804908624433
 20
58.88410290956819
 30
0.0
 11
72.26804908624433
 21
51.13410290956821
 31
0.0
  0
INSERT
  5
D0CE
330
CE09
100
AcDbEntity
  8
mark
370
    -2
100
AcDbBlockReference
  2
_Open30
 10
72.26804908624433
 20
60.13410290956819
 30
0.0
 41
1.25
 42
1.25
 43
1.25
 50
90.0
  0
INSERT
  5
D0CF
330
CE09
100
AcDbEntity
  8
mark
370
    -2
100
AcDbBlockReference
  2
_Open30
 10
72.26804908624433
 20
49.88410290956821
 30
0.0
 41
1.25
 42
1.25
 43
1.25
 50
270.0
  0
MTEXT
  5
D0D0
330
CE09
100
AcDbEntity
  8
mark
 62
     3
100
AcDbMText
 10
71.21804908624432
 20
55.0091029095682
 30
0.0
 40
1.25
 41
0.0
 71
     5
 72
     1
  1
\A1;10.25
 11
0.0000000000000001
 21
1.0
 31
0.0
 73
     1
 44
1.0
  0
POINT
  5
D0D1
330
CE09
100
AcDbEntity
  8
DEFPOINTS
 62
     0
100
AcDbPoint
 10
66.5
 20
60.13410290956819
 30
0.0
  0
POINT
  5
D0D2
330
CE09
100
AcDbEntity
  8
DEFPOINTS
 62
     0
100
AcDbPoint
 10
66.5
 20
49.88410290956821
 30
0.0
  0
POINT
  5
D0D3
330
CE09
100
AcDbEntity
  8
DEFPOINTS
 62
     0
100
AcDbPoint
 10
72.26804908624433
 20
49.88410290956821
 30
0.0
  0
ENDBLK
  5
CE14
330
CE09
100
AcDbEntity
  8
0
100
AcDbBlockEnd
  0
BLOCK
  5
CE22
330
CE16
100
AcDbEntity
  8
0
100
AcDbBlockBegin
  2
*D9
 70
     1
 10
0.0
 20
0.0
 30
0.0
  3
*D9
  1

  0
LINE
  5
D0D4
330
CE16
100
AcDbEntity
  8
mark
370
    -2
100
AcDbLine
 10
66.92499999999999
 20
49.88410290956821
 30
0.0
 11
72.69304908624433
 21
49.88410290956821
 31
0.0
  0
LINE
  5
D0D5
330
CE16
100
AcDbEntity
  8
mark
370
    -2
100
AcDbLine
 10
66.92499999999999
 20
47.88410290956818
 30
0.0
 11
72.69304908624433
 21
47.88410290956818
 31
0.0
  0
LINE
  5
D0D6
330
CE16
100
AcDbEntity
  8
mark
370
    -2
100
AcDbLine
 10
72.26804908624433
 20
51.13410290956821
 30
0.0
 11
72.26804908624433
 21
52.38410290956821
 31
0.0
  0
LINE
  5
D0D7
330
CE16
100
AcDbEntity
  8
mark
370
    -2
100
AcDbLine
 10
72.26804908624433
 20
46.63410290956818
 30
0.0
 11
72.26804908624433
 21
45.38410290956818
 31
0.0
  0
LINE
  5
D0D8
330
CE16
100
AcDbEntity
  8
mark
370
    -2
100
AcDbLine
 10
72.26804908624433
 20
49.88410290956821
 30
0.0
 11
72.26804908624433
 21
47.88410290956818
 31
0.0
  0
INSERT
  5
D0D9
330
CE16
100
AcDbEntity
  8
mark
370
    -2
100
AcDbBlockReference
  2
_Open30
 10
72.26804908624433
 20
49.88410290956821
 30
0.0
 41
1.25
 42
1.25
 43
1.25
 50
270.0
  0
INSERT
  5
D0DA
330
CE16
100
AcDbEntity
  8
mark
370
    -2
100
AcDbBlockReference
  2
_Open30
 10
72.26804908624433
 20
47.88410290956818
 30
0.0
 41
1.25
 42
1.25
 43
1.25
 50
90.0
  0
MTEXT
  5
D0DB
330
CE16
100
AcDbEntity
  8
mark
 62
     3
100
AcDbMText
 10
71.21804908624432
 20
48.8841029095682
 30
0.0
 40
1.25
 41
0.0
 71
     5
 72
     1
  1
\A1;2
 11
0.0000000000000001
 21
1.0
 31
0.0
 73
     1
 44
1.0
  0
POINT
  5
D0DC
330
CE16
100
AcDbEntity
  8
DEFPOINTS
 62
     0
100
AcDbPoint
 10
66.5
 20
49.88410290956821
 30
0.0
  0
POINT
  5
D0DD
330
CE16
100
AcDbEntity
  8
DEFPOINTS
 62
     0
100
AcDbPoint
 10
66.5
 20
47.88410290956818
 30
0.0
  0
POINT
  5
D0DE
330
CE16
100
AcDbEntity
  8
DEFPOINTS
 62
     0
100
AcDbPoint
 10
72.26804908624433
 20
47.88410290956818
 30
0.0
  0
ENDBLK
  5
CE23
330
CE16
100
AcDbEntity
  8
0
100
AcDbBlockEnd
  0
BLOCK
  5
CE2F
330
CE25
100
AcDbEntity
  8
0
100
AcDbBlockBegin
  2
*D10
 70
     1
 10
0.0
 20
0.0
 30
0.0
  3
*D10
  1

  0
LINE
  5
D0DF
330
CE25
100
AcDbEntity
  8
mark
370
    -2
100
AcDbLine
 10
66.92499999999999
 20
60.13410290956819
 30
0.0
 11
77.53905363503388
 21
60.13410290956819
 31
0.0
  0
LINE
  5
D0E0
330
CE25
100
AcDbEntity
  8
mark
370
    -2
100
AcDbLine
 10
66.92499999999999
 20
42.13410290956818
 30
0.0
 11
77.53905363503388
 21
42.13410290956818
 31
0.0
  0
LINE
  5
D0E1
330
CE25
100
AcDbEntity
  8
mark
370
    -2
100
AcDbLine
 10
77.11405363503388
 20
58.88410290956819
 30
0.0
 11
77.11405363503388
 21
43.38410290956818
 31
0.0
  0
INSERT
  5
D0E2
330
CE25
100
AcDbEntity
  8
mark
370
    -2
100
AcDbBlockReference
  2
_Open30
 10
77.11405363503388
 20
60.13410290956819
 30
0.0
 41
1.25
 42
1.25
 43
1.25
 50
90.0
  0
INSERT
  5
D0E3
330
CE25
100
AcDbEntity
  8
mark
370
    -2
100
AcDbBlockReference
  2
_Open30
 10
77.11405363503388
 20
42.13410290956818
 30
0.0
 41
1.25
 42
1.25
 43
1.25
 50
270.0
  0
MTEXT
  5
D0E4
330
CE25
100
AcDbEntity
  8
mark
 62
     3
100
AcDbMText
 10
76.06405363503387
 20
51.13410290956819
 30
0.0
 40
1.25
 41
0.0
 71
     5
 72
     1
  1
\A1;18%%P0.2
 11
0.0000000000000001
 21
1.0
 31
0.0
 73
     1
 44
1.0
  0
POINT
  5
D0E5
330
CE25
100
AcDbEntity
  8
DEFPOINTS
 62
     0
100
AcDbPoint
 10
66.5
 20
60.13410290956819
 30
0.0
  0
POINT
  5
D0E6
330
CE25
100
AcDbEntity
  8
DEFPOINTS
 62
     0
100
AcDbPoint
 10
66.5
 20
42.13410290956818
 30
0.0
  0
POINT
  5
D0E7
330
CE25
100
AcDbEntity
  8
DEFPOINTS
 62
     0
100
AcDbPoint
 10
77.11405363503388
 20
42.13410290956818
 30
0.0
  0
ENDBLK
  5
CE30
330
CE25
100
AcDbEntity
  8
0
100
AcDbBlockEnd
  0
BLOCK
  5
CE3C
330
CE32
100
AcDbEntity
  8
0
100
AcDbBlockBegin
  2
*D11
 70
     1
 10
0.0
 20
0.0
 30
0.0
  3
*D11
  1

  0
LINE
  5
D0E8
330
CE32
100
AcDbEntity
  8
mark
370
    -2
100
AcDbLine
 10
28.075
 20
60.13410290956819
 30
0.0
 11
23.01006972656758
 21
60.13410290956819
 31
0.0
  0
LINE
  5
D0E9
330
CE32
100
AcDbEntity
  8
mark
370
    -2
100
AcDbLine
 10
26.075
 20
55.13410290956819
 30
0.0
 11
23.01006972656757
 21
55.13410290956819
 31
0.0
  0
LINE
  5
D0EA
330
CE32
100
AcDbEntity
  8
mark
370
    -2
100
AcDbLine
 10
23.43506972656758
 20
58.88410290956819
 30
0.0
 11
23.43506972656758
 21
56.38410290956819
 31
0.0
  0
INSERT
  5
D0EB
330
CE32
100
AcDbEntity
  8
mark
370
    -2
100
AcDbBlockReference
  2
_Open30
 10
23.43506972656758
 20
60.13410290956819
 30
0.0
 41
1.25
 42
1.25
 43
1.25
 50
90.0
  0
INSERT
  5
D0EC
330
CE32
100
AcDbEntity
  8
mark
370
    -2
100
AcDbBlockReference
  2
_Open30
 10
23.43506972656758
 20
55.13410290956819
 30
0.0
 41
1.25
 42
1.25
 43
1.25
 50
270.0
  0
MTEXT
  5
D0ED
330
CE32
100
AcDbEntity
  8
mark
 62
     3
100
AcDbMText
 10
22.38506972656757
 20
57.63410290956819
 30
0.0
 40
1.25
 41
0.0
 71
     5
 72
     1
  1
\A1;5
 11
0.0000000000000001
 21
1.0
 31
0.0
 73
     1
 44
1.0
  0
POINT
  5
D0EE
330
CE32
100
AcDbEntity
  8
DEFPOINTS
 62
     0
100
AcDbPoint
 10
28.5
 20
60.13410290956819
 30
0.0
  0
POINT
  5
D0EF
330
CE32
100
AcDbEntity
  8
DEFPOINTS
 62
     0
100
AcDbPoint
 10
26.5
 20
55.13410290956819
 30
0.0
  0
POINT
  5
D0F0
330
CE32
100
AcDbEntity
  8
DEFPOINTS
 62
     0
100
AcDbPoint
 10
23.43506972656758
 20
55.13410290956819
 30
0.0
  0
ENDBLK
  5
CE3D
330
CE32
100
AcDbEntity
  8
0
100
AcDbBlockEnd
  0
BLOCK
  5
CE49
330
CE3F
100
AcDbEntity
  8
0
100
AcDbBlockBegin
  2
*D12
 70
     1
 10
0.0
 20
0.0
 30
0.0
  3
*D12
  1

  0
LINE
  5
D0F1
330
CE3F
100
AcDbEntity
  8
mark
370
    -2
100
AcDbLine
 10
27.5
 20
59.55910290956793
 30
0.0
 11
27.5
 21
64.20413950064453
 31
0.0
  0
LINE
  5
D0F2
330
CE3F
100
AcDbEntity
  8
mark
370
    -2
100
AcDbLine
 10
67.5
 20
59.55910290956793
 30
0.0
 11
67.5
 21
64.20413950064453
 31
0.0
  0
LINE
  5
D0F3
330
CE3F
100
AcDbEntity
  8
mark
370
    -2
100
AcDbLine
 10
28.75
 20
63.77913950064453
 30
0.0
 11
66.25
 21
63.77913950064453
 31
0.0
  0
INSERT
  5
D0F4
330
CE3F
100
AcDbEntity
  8
mark
370
    -2
100
AcDbBlockReference
  2
_Open30
 10
27.5
 20
63.77913950064453
 30
0.0
 41
1.25
 42
1.25
 43
1.25
 50
180.0
  0
INSERT
  5
D0F5
330
CE3F
100
AcDbEntity
  8
mark
370
    -2
100
AcDbBlockReference
  2
_Open30
 10
67.5
 20
63.77913950064453
 30
0.0
 41
1.25
 42
1.25
 43
1.25
  0
MTEXT
  5
D0F6
330
CE3F
100
AcDbEntity
  8
mark
 62
     3
100
AcDbMText
 10
47.5
 20
64.82913950064453
 30
0.0
 40
1.25
 41
0.0
 71
     5
 72
     1
  1
\A1;%%c40
 73
     1
 44
1.0
  0
POINT
  5
D0F7
330
CE3F
100
AcDbEntity
  8
DEFPOINTS
 62
     0
100
AcDbPoint
 10
27.5
 20
59.13410290956793
 30
0.0
  0
POINT
  5
D0F8
330
CE3F
100
AcDbEntity
  8
DEFPOINTS
 62
     0
100
AcDbPoint
 10
67.5
 20
59.13410290956793
 30
0.0
  0
POINT
  5
D0F9
330
CE3F
100
AcDbEntity
  8
DEFPOINTS
 62
     0
100
AcDbPoint
 10
67.5
 20
63.77913950064453
 30
0.0
  0
ENDBLK
  5
CE4A
330
CE3F
100
AcDbEntity
  8
0
100
AcDbBlockEnd
  0
BLOCK
  5
CEBF
330
CEB6
100
AcDbEntity
  8
0
100
AcDbBlockBegin
  2
*D13
 70
     1
 10
0.0
 20
0.0
 30
0.0
  3
*D13
  1

  0
LINE
  5
D0FA
330
CEB6
100
AcDbEntity
  8
mark
370
    -2
100
AcDbLine
 10
77.51864214825748
 20
106.4923653990248
 30
0.0
 11
62.34426270208217
 21
101.5890428051257
 31
0.0
  0
LINE
  5
D0FB
330
CEB6
100
AcDbEntity
  8
mark
370
    -2
100
AcDbLine
 10
32.65573729791781
 20
91.99573996792272
 30
0.0
 11
31.4662931711484
 21
91.61139289912453
 31
0.0
  0
MTEXT
  5
D0FC
330
CEB6
100
AcDbEntity
  8
mark
 62
     3
100
AcDbMText
 10
72.46973261343656
 20
105.9643594454863
 30
0.0
 40
1.25
 41
0.0
 71
     5
 72
     1
  1
\A1;P.C.D 28.7
 11
0.9515553014155248
 21
0.3074776550385567
 31
0.0
 73
     1
 44
1.0
  0
LINE
  5
D0FD
330
CEB6
100
AcDbEntity
  8
mark
370
    -2
100
AcDbLine
 10
33.84518142468721
 20
92.38008703672093
 30
0.0
 11
61.15481857531276
 21
101.2046957363275
 31
0.0
  0
INSERT
  5
D0FE
330
CEB6
100
AcDbEntity
  8
mark
370
    -2
100
AcDbBlockReference
  2
_Open30
 10
33.84518142468721
 20
92.38008703672093
 30
0.0
 41
1.25
 42
1.25
 43
1.25
 50
17.90728783754177
  0
INSERT
  5
D0FF
330
CEB6
100
AcDbEntity
  8
mark
370
    -2
100
AcDbBlockReference
  2
_Open30
 10
61.15481857531276
 20
101.2046957363275
 30
0.0
 41
1.25
 42
1.25
 43
1.25
 50
197.9072878375417
  0
POINT
  5
D100
330
CEB6
100
AcDbEntity
  8
DEFPOINTS
 62
     0
100
AcDbPoint
 10
61.15481857531276
 20
101.2046957363275
 30
0.0
  0
POINT
  5
D101
330
CEB6
100
AcDbEntity
  8
DEFPOINTS
 62
     0
100
AcDbPoint
 10
33.84518142468721
 20
92.38008703672093
 30
0.0
  0
ENDBLK
  5
CEC0
330
CEB6
100
AcDbEntity
  8
0
100
AcDbBlockEnd
  0
BLOCK
  5
CED7
330
CECE
100
AcDbEntity
  8
0
100
AcDbBlockBegin
  2
*D14
 70
     1
 10
0.0
 20
0.0
 30
0.0
  3
*D14
  1

  0
LINE
  5
D102
330
CECE
100
AcDbEntity
  8
mark
370
    -2
100
AcDbLine
 10
74.32896172601562
 20
113.0632127513299
 30
0.0
 11
61.60823587785076
 21
105.3485400770812
 31
0.0
  0
LINE
  5
D103
330
CECE
100
AcDbEntity
  8
mark
370
    -2
100
AcDbLine
 10
33.3917641221491
 20
88.2362426959672
 30
0.0
 11
32.32295837382706
 21
87.58804961334924
 31
0.0
  0
MTEXT
  5
D104
330
CECE
100
AcDbEntity
  8
mark
 62
     3
100
AcDbMText
 10
69.62682517564385
 20
111.4395384885365
 30
0.0
 40
1.25
 41
0.0
 71
     5
 72
     1
  1
\A1;P.C.D 30.5
 11
0.855044598657629
 21
0.5185544660943671
 31
0.0
 73
     1
 44
1.0
  0
LINE
  5
D105
330
CECE
100
AcDbEntity
  8
mark
370
    -2
100
AcDbLine
 10
34.46056987047113
 20
88.88443577858515
 30
0.0
 11
60.53943012952872
 21
104.7003469944632
 31
0.0
  0
INSERT
  5
D106
330
CECE
100
AcDbEntity
  8
mark
370
    -2
100
AcDbBlockReference
  2
_Open30
 10
34.46056987047113
 20
88.88443577858515
 30
0.0
 41
1.25
 42
1.25
 43
1.25
 50
31.23533779995216
  0
INSERT
  5
D107
330
CECE
100
AcDbEntity
  8
mark
370
    -2
100
AcDbBlockReference
  2
_Open30
 10
60.53943012952872
 20
104.7003469944632
 30
0.0
 41
1.25
 42
1.25
 43
1.25
 50
211.2353377999522
  0
POINT
  5
D108
330
CECE
100
AcDbEntity
  8
DEFPOINTS
 62
     0
100
AcDbPoint
 10
60.53943012952872
 20
104.7003469944632
 30
0.0
  0
POINT
  5
D109
330
CECE
100
AcDbEntity
  8
DEFPOINTS
 62
     0
100
AcDbPoint
 10
34.46056987047113
 20
88.88443577858515
 30
0.0
  0
ENDBLK
  5
CED8
330
CECE
100
AcDbEntity
  8
0
100
AcDbBlockEnd
  0
ENDSEC
  0
SECTION
  2
ENTITIES
  0
MTEXT
  5
C0
330
18
100
AcDbEntity
  8
0
100
AcDbMText
 10
41.26970765600413
 20
233.6950877649332
 30
0.0
 40
2.5
 41
0.0
 71
     1
 72
     5
  1

  7
CN
 73
     1
 44
1.0
  0
LWPOLYLINE
  5
AF44
330
18
100
AcDbEntity
  8
frame
100
AcDbPolyline
 90
        4
 70
     1
 43
0.0
 10
95.0
 20
140.0
 10
0.0
 20
140.0
 10
0.0
 20
0.0
 10
95.0
 20
0.0
  0
MTEXT
  5
AF45
330
18
100
AcDbEntity
  8
0
100
AcDbMText
 10
8.549751843445875
 20
9.53802950808307
 30
0.0
 40
2.5
 41
0.0
 71
     1
 72
     5
  1
{\Ftxt,bigfont|c128;\W0.5;林彦旭}
 73
     1
 44
1.0
1001
ACAD
1000
ACAD_MTEXT_DEFINED_HEIGHT_BEGIN
1070
    46
1040
0.0
1000
ACAD_MTEXT_DEFINED_HEIGHT_END
  0
MTEXT
  5
AF46
330
18
100
AcDbEntity
  8
0
100
AcDbMText
 10
38.97647364614426
 20
14.46789489935338
 30
0.0
 40
2.25
 41
0.0
 71
     1
 72
     5
  1
{\Ftxt,bigfont|c128;\W0.5;2 : 1}
 73
     1
 44
1.0
1001
ACAD
1000
ACAD_MTEXT_DEFINED_HEIGHT_BEGIN
1070
    46
1040
0.0
1000
ACAD_MTEXT_DEFINED_HEIGHT_END
  0
MTEXT
  5
AF47
330
18
100
AcDbEntity
  8
0
100
AcDbMText
 10
63.18664640888375
 20
4.151631660640134
 30
0.0
 40
2.5
 41
0.0
 71
     1
 72
     5
  1
{\Ftxt,bigfont|c128;\W0.5;N L 4 0 2 6 3}
 73
     1
 44
1.0
1001
ACAD
1000
ACAD_MTEXT_DEFINED_HEIGHT_BEGIN
1070
    46
1040
0.0
1000
ACAD_MTEXT_DEFINED_HEIGHT_END
  0
MTEXT
  5
AF48
330
18
100
AcDbEntity
  8
0
100
AcDbMText
 10
75.78500581007972
 20
13.92609249863494
 30
0.0
 40
2.5
 41
0.0
 71
     1
 72
     5
  1
\P{\Ftxt,bigfont|c128;\W0.5;MKR20X1.0P}
 73
     1
 44
1.0
1001
ACAD
1000
ACAD_MTEXT_DEFINED_HEIGHT_BEGIN
1070
    46
1040
0.0
1000
ACAD_MTEXT_DEFINED_HEIGHT_END
  0
MTEXT
  5
AF49
330
18
100
AcDbEntity
  8
0
100
AcDbMText
 10
7.6880338568387
 20
14.18870179917354
 30
0.0
 40
2.25
 41
0.0
 71
     1
 72
     5
  1
{\Ftxt,bigfont|c128;\W0.5;08.07.02}
 73
     1
 44
1.0
1001
ACAD
1000
ACAD_MTEXT_DEFINED_HEIGHT_BEGIN
1070
    46
1040
0.0
1000
ACAD_MTEXT_DEFINED_HEIGHT_END
  0
MTEXT
  5
AF4A
330
18
100
AcDbEntity
  8
0
100
AcDbMText
 10
4.63818135707055
 20
4.621097525024651
 30
0.0
 40
3.5
 41
0.0
 71
     1
 72
     5
  1
{\Ftxt,bigfont|c128;\W1.5;日機株式会社}
 73
     1
 44
1.0
1001
ACAD
1000
ACAD_MTEXT_DEFINED_HEIGHT_BEGIN
1070
    46
1040
0.0
1000
ACAD_MTEXT_DEFINED_HEIGHT_END
  0
LINE
  5
AF4B
330
18
100
AcDbEntity
  8
frame
100
AcDbLine
 10
0.0
 20
6.0
 30
0.0
 11
95.0
 21
6.000000000000028
 31
0.0
  0
LINE
  5
AF4C
330
18
100
AcDbEntity
  8
frame
100
AcDbLine
 10
0.0
 20
11.0
 30
0.0
 11
46.06060606060611
 21
11.0
 31
0.0
  0
LINE
  5
AF4D
330
18
100
AcDbEntity
  8
frame
100
AcDbLine
 10
0.0
 20
16.0
 30
0.0
 11
95.0
 21
16.0
 31
0.0
  0
LINE
  5
AF4E
330
18
100
AcDbEntity
  8
frame
100
AcDbLine
 10
6.095386662468996
 20
16.0
 30
0.0
 11
6.095386662468996
 21
6.0
 31
0.0
  0
LINE
  5
AF4F
330
18
100
AcDbEntity
  8
frame
100
AcDbLine
 10
15.35353535353533
 20
16.0
 30
0.0
 11
15.35353535353539
 21
6.0
 31
0.0
  0
MTEXT
  5
AF50
330
18
100
AcDbEntity
  8
0
100
AcDbMText
 10
1.415137392110977
 20
14.54095044791415
 30
0.0
 40
2.5
 41
0.0
 71
     1
 72
     5
  1
{\Ftxt,bigfont|c128;\W0.5;日 付}
 73
     1
 44
1.0
1001
ACAD
1000
ACAD_MTEXT_DEFINED_HEIGHT_BEGIN
1070
    46
1040
0.0
1000
ACAD_MTEXT_DEFINED_HEIGHT_END
  0
MTEXT
  5
AF51
330
18
100
AcDbEntity
  8
0
100
AcDbMText
 10
1.485316538719445
 20
9.760819214633187
 30
0.0
 40
2.5
 41
0.0
 71
     1
 72
     5
  1
{\Ftxt,bigfont|c128;\W0.5;製 図}
 73
     1
 44
1.0
1001
ACAD
1000
ACAD_MTEXT_DEFINED_HEIGHT_BEGIN
1070
    46
1040
0.0
1000
ACAD_MTEXT_DEFINED_HEIGHT_END
  0
LINE
  5
AF52
330
18
100
AcDbEntity
  8
0
 62
     7
370
    25
100
AcDbLine
 10
26.52290072143927
 20
11.90992304647298
 30
0.0
 11
26.52290072143927
 21
14.46811169794961
 31
0.0
  0
MTEXT
  5
AF53
330
18
100
AcDbEntity
  8
0
100
AcDbMText
 10
32.00374426245418
 20
14.56121351896189
 30
0.0
 40
2.5
 41
0.0
 71
     1
 72
     5
  1
{\Ftxt,bigfont|c128;\W0.5;尺 度}
 73
     1
 44
1.0
1001
ACAD
1000
ACAD_MTEXT_DEFINED_HEIGHT_BEGIN
1070
    46
1040
0.0
1000
ACAD_MTEXT_DEFINED_HEIGHT_END
  0
LINE
  5
AF54
330
18
100
AcDbEntity
  8
frame
100
AcDbLine
 10
30.70707070707073
 20
16.0
 30
0.0
 11
30.70707070707073
 21
6.0
 31
0.0
  0
LINE
  5
AF55
330
18
100
AcDbEntity
  8
0
 62
     7
370
    25
100
AcDbLine
 10
19.8076555113131
 20
11.59444509166317
 30
0.0
 11
19.8076555113131
 21
14.68228996214836
 31
0.0
  0
CIRCLE
  5
AF56
330
18
100
AcDbEntity
  8
0
 62
     7
100
AcDbCircle
 10
19.8076555113131
 20
13.18901737221125
 30
0.0
 40
1.279094325738339
  0
LINE
  5
AF57
330
18
100
AcDbEntity
  8
0
 62
     7
370
    25
100
AcDbLine
 10
23.59660993459988
 20
13.18901737221131
 30
0.0
 11
26.75256290812121
 21
13.18901737221131
 31
0.0
  0
LINE
  5
AF58
330
18
100
AcDbEntity
  8
0
 62
     7
100
AcDbLine
 10
23.96471206996267
 20
12.54947020934213
 30
0.0
 11
26.52290072143927
 21
11.90992304647298
 31
0.0
  0
LINE
  5
AF59
330
18
100
AcDbEntity
  8
frame
100
AcDbLine
 10
21.3711209799755
 20
11.0
 30
0.0
 11
21.3711209799755
 21
6.0
 31
0.0
  0
LINE
  5
AF5A
330
18
100
AcDbEntity
  8
0
 62
     7
370
    25
100
AcDbLine
 10
18.20916114243306
 20
13.18901737221125
 30
0.0
 11
21.50162633809634
 21
13.18901737221131
 31
0.0
  0
CIRCLE
  5
AF5B
330
18
100
AcDbEntity
  8
0
 62
     7
100
AcDbCircle
 10
19.8076555113131
 20
13.18901737221125
 30
0.0
 40
0.6395471628691697
  0
MTEXT
  5
AF5C
330
18
100
AcDbEntity
  8
0
100
AcDbMText
 10
16.85092016231203
 20
9.705069078926328
 30
0.0
 40
2.5
 41
0.0
 71
     1
 72
     5
  1
{\Ftxt,bigfont|c128;\W0.5;検 図}
 73
     1
 44
1.0
1001
ACAD
1000
ACAD_MTEXT_DEFINED_HEIGHT_BEGIN
1070
    46
1040
0.0
1000
ACAD_MTEXT_DEFINED_HEIGHT_END
  0
LINE
  5
AF5D
330
18
100
AcDbEntity
  8
0
 62
     7
370
    25
100
AcDbLine
 10
23.96471206996267
 20
12.54947020934213
 30
0.0
 11
23.96471206996267
 21
13.82856453508043
 31
0.0
  0
MTEXT
  5
AF5E
330
18
100
AcDbEntity
  8
0
100
AcDbMText
 10
32.14410124959915
 20
9.660292673744407
 30
0.0
 40
2.5
 41
0.0
 71
     1
 72
     5
  1
{\Ftxt,bigfont|c128;\W0.5;承 認}
 73
     1
 44
1.0
1001
ACAD
1000
ACAD_MTEXT_DEFINED_HEIGHT_BEGIN
1070
    46
1040
0.0
1000
ACAD_MTEXT_DEFINED_HEIGHT_END
  0
MTEXT
  5
AF5F
330
18
100
AcDbEntity
  8
0
100
AcDbMText
 10
46.85564357803349
 20
4.148030681434136
 30
0.0
 40
2.5
 41
0.0
 71
     1
 72
     5
  1
{\Ftxt,bigfont|c128;\W0.5;図  面  番  号}
 73
     1
 44
1.0
1001
ACAD
1000
ACAD_MTEXT_DEFINED_HEIGHT_BEGIN
1070
    46
1040
0.0
1000
ACAD_MTEXT_DEFINED_HEIGHT_END
  0
MTEXT
  5
AF60
330
18
100
AcDbEntity
  8
0
100
AcDbMText
 10
49.91506469331335
 20
13.80868431733046
 30
0.0
 40
2.5
 41
0.0
 71
     1
 72
     5
  1
\P{\Ftxt,bigfont|c128;    \W0.5;精密ロックナット}
 73
     1
 44
1.0
1001
ACAD
1000
ACAD_MTEXT_DEFINED_HEIGHT_BEGIN
1070
    46
1040
0.0
1000
ACAD_MTEXT_DEFINED_HEIGHT_END
  0
MTEXT
  5
AF61
330
18
100
AcDbEntity
  8
0
100
AcDbMText
 10
47.4041806515616
 20
14.51931228986637
 30
0.0
 40
2.5
 41
0.0
 71
     1
 72
     5
  1
{\Ftxt,bigfont|c128;\W0.5;品  名}
 73
     1
 44
1.0
1001
ACAD
1000
ACAD_MTEXT_DEFINED_HEIGHT_BEGIN
1070
    46
1040
0.0
1000
ACAD_MTEXT_DEFINED_HEIGHT_END
  0
LINE
  5
AF62
330
18
100
AcDbEntity
  8
frame
100
AcDbLine
 10
46.06060606060611
 20
16.0
 30
0.0
 11
46.06060606060611
 21
0.0916613789792393
 31
0.0
  0
LINE
  5
AF63
330
18
100
AcDbEntity
  8
frame
100
AcDbLine
 10
36.70707070707073
 20
16.0
 30
0.0
 11
36.70707070707073
 21
6.0
 31
0.0
  0
LINE
  5
AF64
330
18
100
AcDbEntity
  8
frame
100
AcDbLine
 10
73.51635463703281
 20
16.0
 30
0.0
 11
73.51635463703286
 21
6.0
 31
0.0
  0
MTEXT
  5
AF65
330
18
100
AcDbEntity
  8
0
100
AcDbMText
 10
75.44797972338654
 20
14.52258891415195
 30
0.0
 40
2.5
 41
0.0
 71
     1
 72
     5
  1
{\Ftxt,bigfont|c128;\W0.5;型  番}
 73
     1
 44
1.0
1001
ACAD
1000
ACAD_MTEXT_DEFINED_HEIGHT_BEGIN
1070
    46
1040
0.0
1000
ACAD_MTEXT_DEFINED_HEIGHT_END
  0
MTEXT
  5
AF66
330
18
100
AcDbEntity
  8
0
100
AcDbMText
 10
82.90298074051628
 20
4.288456589381553
 30
0.0
 40
2.5
 41
0.0
 71
     1
 72
     5
  1
{\Ftxt,bigfont|c128;\W0.5;変更}
 73
     1
 44
1.0
1001
ACAD
1000
ACAD_MTEXT_DEFINED_HEIGHT_BEGIN
1070
    46
1040
0.0
1000
ACAD_MTEXT_DEFINED_HEIGHT_END
  0
LINE
  5
AF67
330
18
100
AcDbEntity
  8
frame
100
AcDbLine
 10
82.04545454545462
 20
6.000000000000028
 30
0.0
 11
82.04545454545467
 21
0.0
 31
0.0
  0
LINE
  5
AF68
330
18
100
AcDbEntity
  8
frame
100
AcDbLine
 10
62.30789503931965
 20
21.56745674462246
 30
0.0
 11
92.30789503931964
 21
21.56745674462241
 31
0.0
  0
LINE
  5
AF69
330
18
100
AcDbEntity
  8
frame
100
AcDbLine
 10
62.30789503931965
 20
25.16745674462248
 30
0.0
 11
92.30789503931964
 21
25.16745674462248
 31
0.0
  0
LINE
  5
AF6A
330
18
100
AcDbEntity
  8
frame
100
AcDbLine
 10
62.30789503931965
 20
28.76745674462245
 30
0.0
 11
92.30789503931964
 21
28.7674567446224
 31
0.0
  0
LINE
  5
AF6B
330
18
100
AcDbEntity
  8
frame
100
AcDbLine
 10
62.30789503931965
 20
32.36745674462247
 30
0.0
 11
92.30789503931964
 21
32.36745674462242
 31
0.0
  0
LINE
  5
AF6C
330
18
100
AcDbEntity
  8
frame
100
AcDbLine
 10
62.30789503931965
 20
17.96745674462244
 30
0.0
 11
92.30789503931964
 21
17.96745674462244
 31
0.0
  0
MTEXT
  5
AF6D
330
18
100
AcDbEntity
  8
0
 48
2.0
100
AcDbMText
 10
77.25059502225531
 20
32.76404094991455
 30
0.0
 40
2.5
 41
0.0
 71
     5
 72
     1
  1
\P{\Ftxt,bigfont|c128;\H1.042x;\W0.5;諸　　　　元}
 73
     1
 44
1.0
1001
ACAD
1000
ACAD_MTEXT_DEFINED_HEIGHT_BEGIN
1070
    46
1040
0.0
1000
ACAD_MTEXT_DEFINED_HEIGHT_END
  0
LINE
  5
AF6E
330
18
100
AcDbEntity
  8
frame
100
AcDbLine
 10
62.30789503931965
 20
32.36745674462242
 30
0.0
 11
62.30789503931965
 21
17.96745674462244
 31
0.0
  0
MTEXT
  5
AF6F
330
18
100
AcDbEntity
  8
0
 48
2.0
100
AcDbMText
 10
67.89958855683448
 20
27.00985435121112
 30
0.0
 40
2.5
 41
0.0
 71
     5
 72
     1
  1
{\Ftxt,bigfont|c128;\W0.5;熱　処　理}
 73
     1
 44
1.0
1001
ACAD
1000
ACAD_MTEXT_DEFINED_HEIGHT_BEGIN
1070
    46
1040
0.0
1000
ACAD_MTEXT_DEFINED_HEIGHT_END
  0
LINE
  5
AF70
330
18
100
AcDbEntity
  8
0
100
AcDbLine
 10
74.30789503931965
 20
28.7674567446224
 30
0.0
 11
74.30789503931965
 21
17.96745674462244
 31
0.0
  0
MTEXT
  5
AF71
330
18
100
AcDbEntity
  8
0
 48
2.0
100
AcDbMText
 10
68.05793129773826
 20
23.30987049544274
 30
0.0
 40
2.5
 41
0.0
 71
     5
 72
     1
  1
{\Ftxt,bigfont|c128;\W0.5;表 面 処 理}
 73
     1
 44
1.0
1001
ACAD
1000
ACAD_MTEXT_DEFINED_HEIGHT_BEGIN
1070
    46
1040
0.0
1000
ACAD_MTEXT_DEFINED_HEIGHT_END
  0
MTEXT
  5
AF72
330
18
100
AcDbEntity
  8
0
 48
2.0
100
AcDbMText
 10
68.15321756785692
 20
19.76506888470794
 30
0.0
 40
2.5
 41
0.0
 71
     5
 72
     1
  1
{\Ftxt,bigfont|c128;\W0.5;等     　級}
 73
     1
 44
1.0
1001
ACAD
1000
ACAD_MTEXT_DEFINED_HEIGHT_BEGIN
1070
    46
1040
0.0
1000
ACAD_MTEXT_DEFINED_HEIGHT_END
  0
LINE
  5
AF73
330
18
100
AcDbEntity
  8
frame
100
AcDbLine
 10
92.30789503931964
 20
32.36745674462242
 30
0.0
 11
92.30789503931964
 21
17.96745674462249
 31
0.0
  0
MTEXT
  5
AF74
330
18
100
AcDbEntity
  8
0
 48
2.0
100
AcDbMText
 10
83.57417555318921
 20
26.97360369943079
 30
0.0
 40
2.5
 41
0.0
 71
     5
 72
     1
  1
{\Ftxt,bigfont|c128;\W0.5;調質　HRC30%%D%%P２%%D}
 73
     1
 44
1.0
1001
ACAD
1000
ACAD_MTEXT_DEFINED_HEIGHT_BEGIN
1070
    46
1040
0.0
1000
ACAD_MTEXT_DEFINED_HEIGHT_END
  0
MTEXT
  5
AF75
330
18
100
AcDbEntity
  8
0
 48
2.0
100
AcDbMText
 10
80.76477528081637
 20
19.74072763710706
 30
0.0
 40
2.5
 41
0.0
 71
     5
 72
     1
  1
{\Ftxt,bigfont|c128;\W0.5;ＩＳＯ - ４Ｈ}
 73
     1
 44
1.0
1001
ACAD
1000
ACAD_MTEXT_DEFINED_HEIGHT_BEGIN
1070
    46
1040
0.0
1000
ACAD_MTEXT_DEFINED_HEIGHT_END
  0
MTEXT
  5
AF76
330
18
100
AcDbEntity
  8
0
 48
2.0
100
AcDbMText
 10
80.65631378087664
 20
23.43189793105313
 30
0.0
 40
2.5
 41
0.0
 71
     5
 72
     1
  1
{\Ftxt,bigfont|c128;\W0.5;黒  　    染}
 73
     1
 44
1.0
1001
ACAD
1000
ACAD_MTEXT_DEFINED_HEIGHT_BEGIN
1070
    46
1040
0.0
1000
ACAD_MTEXT_DEFINED_HEIGHT_END
  0
MTEXT
  5
AF77
330
18
100
AcDbEntity
  8
0
100
AcDbMText
 10
28.81819530667213
 20
130.4500291639737
 30
0.0
 40
2.5
 41
0.0
 71
     1
 72
     5
  1
{\Ftxt,bigfont|c128;\W0.5;M4X0.7P-12L}
 73
     1
 44
1.0
1001
ACAD
1000
ACAD_MTEXT_DEFINED_HEIGHT_BEGIN
1070
    46
1040
0.0
1000
ACAD_MTEXT_DEFINED_HEIGHT_END
  0
LINE
  5
AF78
330
18
100
AcDbEntity
  8
frame
100
AcDbLine
 10
0.0
 20
127.0
 30
0.0
 11
95.0
 21
127.0
 31
0.0
  0
LINE
  5
AF79
330
18
100
AcDbEntity
  8
frame
100
AcDbLine
 10
0.0
 20
131.0
 30
0.0
 11
95.0
 21
131.0
 31
0.0
  0
LINE
  5
AF7A
330
18
100
AcDbEntity
  8
frame
 62
     9
100
AcDbLine
 10
0.0
 20
135.0
 30
0.0
 11
95.0
 21
135.0
 31
0.0
  0
MTEXT
  5
AF7B
330
18
100
AcDbEntity
  8
0
100
AcDbMText
 10
28.50782195301855
 20
138.712028002452
 30
0.0
 40
2.5
 41
0.0
 71
     1
 72
     5
  1
{\Ftxt,bigfont|c128;\W0.5;図    番 / 規　　格}
 73
     1
 44
1.0
1001
ACAD
1000
ACAD_MTEXT_DEFINED_HEIGHT_BEGIN
1070
    46
1040
0.0
1000
ACAD_MTEXT_DEFINED_HEIGHT_END
  0
LINE
  5
AF7C
330
18
100
AcDbEntity
  8
frame
100
AcDbLine
 10
0.0
 20
127.0
 30
0.0
 11
95.0
 21
127.0
 31
0.0
  0
MTEXT
  5
AF7D
330
18
100
AcDbEntity
  8
0
100
AcDbMText
 10
10.56244024461716
 20
138.7318990693371
 30
0.0
 40
2.5
 41
0.0
 71
     1
 72
     5
  1
{\Ftxt,bigfont|c128;\W0.5;品　          名}
 73
     1
 44
1.0
1001
ACAD
1000
ACAD_MTEXT_DEFINED_HEIGHT_BEGIN
1070
    46
1040
0.0
1000
ACAD_MTEXT_DEFINED_HEIGHT_END
  0
MTEXT
  5
AF7E
330
18
100
AcDbEntity
  8
0
100
AcDbMText
 10
10.50394717990937
 20
130.3953618644555
 30
0.0
 40
2.5
 41
0.0
 71
     1
 72
     5
  1
{\Ftxt,bigfont|c128;\W0.5;セットスクリュ-}
 73
     1
 44
1.0
1001
ACAD
1000
ACAD_MTEXT_DEFINED_HEIGHT_BEGIN
1070
    46
1040
0.0
1000
ACAD_MTEXT_DEFINED_HEIGHT_END
  0
MTEXT
  5
AF7F
330
18
100
AcDbEntity
  8
0
100
AcDbMText
 10
10.4100876486745
 20
134.4180615141482
 30
0.0
 40
2.5
 41
0.0
 71
     1
 72
     5
  1
{\Ftxt,bigfont|c128;\W0.5;ロックナット　  }
 73
     1
 44
1.0
1001
ACAD
1000
ACAD_MTEXT_DEFINED_HEIGHT_BEGIN
1070
    46
1040
0.0
1000
ACAD_MTEXT_DEFINED_HEIGHT_END
  0
LINE
  5
AF80
330
18
100
AcDbEntity
  8
frame
 62
     9
100
AcDbLine
 10
7.196969696969688
 20
139.9999999999999
 30
0.0
 11
7.196969696969816
 21
127.0
 31
0.0
  0
LINE
  5
AF81
330
18
100
AcDbEntity
  8
frame
 62
     9
100
AcDbLine
 10
7.196969696969688
 20
139.9999999999999
 30
0.0
 11
7.196969696969688
 21
127.5252525252525
 31
0.0
  0
MTEXT
  5
AF82
330
18
100
AcDbEntity
  8
0
100
AcDbMText
 10
3.407504634006897
 20
134.364083721706
 30
0.0
 40
2.5
 41
0.0
 71
     1
 72
     5
  1
{\Ftxt,bigfont|c128;1}
 73
     1
 44
1.0
1001
ACAD
1000
ACAD_MTEXT_DEFINED_HEIGHT_BEGIN
1070
    46
1040
0.0
1000
ACAD_MTEXT_DEFINED_HEIGHT_END
  0
MTEXT
  5
AF83
330
18
100
AcDbEntity
  8
0
100
AcDbMText
 10
1.059914036490113
 20
138.7367391319745
 30
0.0
 40
2.5
 41
0.0
 71
     1
 72
     5
  1
{\Ftxt,bigfont|c128;\W0.5;照   号}
 73
     1
 44
1.0
1001
ACAD
1000
ACAD_MTEXT_DEFINED_HEIGHT_BEGIN
1070
    46
1040
0.0
1000
ACAD_MTEXT_DEFINED_HEIGHT_END
  0
LINE
  5
AF84
330
18
100
AcDbEntity
  8
frame
 62
     9
100
AcDbLine
 10
26.38888888888891
 20
139.9999999999999
 30
0.0
 11
26.38888888888891
 21
127.0
 31
0.0
  0
MTEXT
  5
AF85
330
18
100
AcDbEntity
  8
0
100
AcDbMText
 10
72.78681871864256
 20
138.8390831947097
 30
0.0
 40
2.5
 41
0.0
 71
     1
 72
     5
  1
{\Ftxt,bigfont|c128;\W0.5;備           考}
 73
     1
 44
1.0
1001
ACAD
1000
ACAD_MTEXT_DEFINED_HEIGHT_BEGIN
1070
    46
1040
0.0
1000
ACAD_MTEXT_DEFINED_HEIGHT_END
  0
LINE
  5
AF86
330
18
100
AcDbEntity
  8
frame
 62
     9
100
AcDbLine
 10
45.58080808080808
 20
140.0
 30
0.0
 11
45.58080808080808
 21
127.0
 31
0.0
  0
MTEXT
  5
AF87
330
18
100
AcDbEntity
  8
0
100
AcDbMText
 10
46.43670544589684
 20
134.4180615141482
 30
0.0
 40
2.5
 41
0.0
 71
     1
 72
     5
  1
{\Ftxt,bigfont|c128;\W0.5;SCM440}
 73
     1
 44
1.0
1001
ACAD
1000
ACAD_MTEXT_DEFINED_HEIGHT_BEGIN
1070
    46
1040
0.0
1000
ACAD_MTEXT_DEFINED_HEIGHT_END
  0
MTEXT
  5
AF88
330
18
100
AcDbEntity
  8
0
100
AcDbMText
 10
46.43670544589684
 20
130.382501006292
 30
0.0
 40
2.5
 41
0.0
 71
     1
 72
     5
  1
{\Ftxt,bigfont|c128;\W0.5;SCM435}
 73
     1
 44
1.0
1001
ACAD
1000
ACAD_MTEXT_DEFINED_HEIGHT_BEGIN
1070
    46
1040
0.0
1000
ACAD_MTEXT_DEFINED_HEIGHT_END
  0
MTEXT
  5
AF89
330
18
100
AcDbEntity
  8
0
100
AcDbMText
 10
47.88399431552096
 20
138.7822749741459
 30
0.0
 40
2.5
 41
0.0
 71
     1
 72
     5
  1
{\Ftxt,bigfont|c128;\W0.5;材　質}
 73
     1
 44
1.0
1001
ACAD
1000
ACAD_MTEXT_DEFINED_HEIGHT_BEGIN
1070
    46
1040
0.0
1000
ACAD_MTEXT_DEFINED_HEIGHT_END
  0
LINE
  5
AF8A
330
18
100
AcDbEntity
  8
frame
 62
     9
100
AcDbLine
 10
55.17676767676772
 20
140.0
 30
0.0
 11
55.17676767676772
 21
127.0
 31
0.0
  0
LINE
  5
AF8B
330
18
100
AcDbEntity
  8
frame
100
AcDbLine
 10
62.37373737373736
 20
140.0
 30
0.0
 11
62.37373737373741
 21
127.0
 31
0.0
  0
MTEXT
  5
AF8C
330
18
100
AcDbEntity
  8
0
100
AcDbMText
 10
58.58427231077456
 20
134.5206355839966
 30
0.0
 40
2.5
 41
0.0
 71
     1
 72
     5
  1
\Ftxt.shx,bigfont.shx|c128;1
 73
     1
 44
1.0
  0
MTEXT
  5
AF8D
330
18
100
AcDbEntity
  8
0
100
AcDbMText
 10
58.29695351334419
 20
130.2546145075339
 30
0.0
 40
2.5
 41
0.0
 71
     1
 72
     5
  1
{\Ftxt,bigfont|c128;4}
 73
     1
 44
1.0
1001
ACAD
1000
ACAD_MTEXT_DEFINED_HEIGHT_BEGIN
1070
    46
1040
0.0
1000
ACAD_MTEXT_DEFINED_HEIGHT_END
  0
MTEXT
  5
AF8E
330
18
100
AcDbEntity
  8
0
100
AcDbMText
 10
56.21119479596313
 20
138.7822749741459
 30
0.0
 40
2.5
 41
0.0
 71
     1
 72
     5
  1
{\Ftxt,bigfont|c128;\W0.5;数   量}
 73
     1
 44
1.0
1001
ACAD
1000
ACAD_MTEXT_DEFINED_HEIGHT_BEGIN
1070
    46
1040
0.0
1000
ACAD_MTEXT_DEFINED_HEIGHT_END
  0
MTEXT
  5
AF8F
330
18
100
AcDbEntity
  8
0
100
AcDbMText
 10
3.202009849527996
 20
130.364083721706
 30
0.0
 40
2.5
 41
0.0
 71
     1
 72
     5
  1
{\Ftxt,bigfont|c128;2}
 73
     1
 44
1.0
1001
ACAD
1000
ACAD_MTEXT_DEFINED_HEIGHT_BEGIN
1070
    46
1040
0.0
1000
ACAD_MTEXT_DEFINED_HEIGHT_END
  0
LINE
  5
AFC8
330
18
100
AcDbEntity
  8
0
 62
     7
100
AcDbLine
 10
23.96471206996267
 20
13.82856453508049
 30
0.0
 11
26.52290072143927
 21
14.46811169794964
 31
0.0
  0
LINE
  5
CAF3
330
18
100
AcDbEntity
  8
contour
100
AcDbLine
 10
28.5
 20
42.13410290956818
 30
0.0
 11
66.5
 21
42.13410290956818
 31
0.0
  0
ARC
  5
CAF4
330
18
100
AcDbEntity
  8
contour
100
AcDbCircle
 10
66.5
 20
43.13410290956818
 30
0.0
 40
1.0
100
AcDbArc
 50
270.0
 51
0.0
  0
LINE
  5
CAF5
330
18
100
AcDbEntity
  8
contour
100
AcDbLine
 10
34.39999999999998
 20
42.63410290956819
 30
0.0
 11
34.89999999999998
 21
42.13410290956818
 31
0.0
  0
LINE
  5
CAF6
330
18
100
AcDbEntity
  8
contour
100
AcDbLine
 10
28.5
 20
47.88410290956821
 30
0.0
 11
35.75
 21
47.88410290956821
 31
0.0
  0
ARC
  5
CAF7
330
18
100
AcDbEntity
  8
contour
100
AcDbCircle
 10
28.5
 20
46.88410290956821
 30
0.0
 40
1.0
100
AcDbArc
 50
90.0
 51
180.0
  0
LINE
  5
CAF8
330
18
100
AcDbEntity
  8
contour
100
AcDbLine
 10
63.85000000000002
 20
47.88410290956818
 30
0.0
 11
66.5
 21
47.88410290956818
 31
0.0
  0
LINE
  5
CAF9
330
18
100
AcDbEntity
  8
contour
100
AcDbLine
 10
28.5
 20
49.88410290956818
 30
0.0
 11
35.75
 21
49.88410290956818
 31
0.0
  0
LINE
  5
CAFA
330
18
100
AcDbEntity
  8
contour
100
AcDbLine
 10
63.85000000000002
 20
49.88410290956818
 30
0.0
 11
66.5
 21
49.88410290956821
 31
0.0
  0
ARC
  5
CAFB
330
18
100
AcDbEntity
  8
contour
100
AcDbCircle
 10
66.5
 20
50.88410290956821
 30
0.0
 40
1.0
100
AcDbArc
 50
270.0
 51
0.0
  0
LINE
  5
CAFC
330
18
100
AcDbEntity
  8
contour
100
AcDbLine
 10
29.75
 20
50.68410290956819
 30
0.0
 11
59.84999999999996
 21
50.68410290956816
 31
0.0
  0
LINE
  5
CAFD
330
18
100
AcDbEntity
  8
contour
100
AcDbLine
 10
29.75
 20
52.68410290956819
 30
0.0
 11
59.84999999999996
 21
52.68410290956819
 31
0.0
  0
LINE
  5
CAFE
330
18
100
AcDbEntity
  8
contour
100
AcDbLine
 10
38.04150000000004
 20
53.6841029095682
 30
0.0
 11
37.04150000000004
 21
52.68410290956819
 31
0.0
  0
LINE
  5
CAFF
330
18
100
AcDbEntity
  8
contour
100
AcDbLine
 10
67.5
 20
43.13410290956818
 30
0.0
 11
67.5
 21
46.88410290956818
 31
0.0
  0
ARC
  5
CB00
330
18
100
AcDbEntity
  8
contour
100
AcDbCircle
 10
66.5
 20
46.88410290956818
 30
0.0
 40
1.0
100
AcDbArc
 50
0.0
 51
90.0
  0
LINE
  5
CB01
330
18
100
AcDbEntity
  8
contour
100
AcDbLine
 10
67.5
 20
50.88410290956821
 30
0.0
 11
67.5
 21
59.13410290956818
 31
0.0
  0
ARC
  5
CB02
330
18
100
AcDbEntity
  8
contour
100
AcDbCircle
 10
66.5
 20
59.13410290956818
 30
0.0
 40
1.0
100
AcDbArc
 50
0.0
 51
90.0
  0
LINE
  5
CB03
330
18
100
AcDbEntity
  8
contour
100
AcDbLine
 10
66.5
 20
60.13410290956819
 30
0.0
 11
28.5
 21
60.13410290956819
 31
0.0
  0
ARC
  5
CB04
330
18
100
AcDbEntity
  8
contour
100
AcDbCircle
 10
28.5
 20
59.13410290956818
 30
0.0
 40
1.0
100
AcDbArc
 50
90.0
 51
180.0
  0
LINE
  5
CB05
330
18
100
AcDbEntity
  8
contour
100
AcDbLine
 10
31.34529946162075
 20
53.13410290956818
 30
0.0
 11
28.0
 21
53.13410290956818
 31
0.0
  0
LINE
  5
CB06
330
18
100
AcDbEntity
  8
contour
100
AcDbLine
 10
31.34529946162075
 20
57.13410290956819
 30
0.0
 11
28.0
 21
57.13410290956819
 31
0.0
  0
LINE
  5
CB07
330
18
100
AcDbEntity
  8
contour
100
AcDbLine
 10
27.5
 20
57.63410290956819
 30
0.0
 11
28.0
 21
57.13410290956819
 31
0.0
  0
LINE
  5
CB08
330
18
100
AcDbEntity
  8
contour
100
AcDbLine
 10
27.5
 20
59.13410290956818
 30
0.0
 11
27.50000000000006
 21
50.88410290956819
 31
0.0
  0
ARC
  5
CB09
330
18
100
AcDbEntity
  8
contour
100
AcDbCircle
 10
28.5
 20
50.88410290956819
 30
0.0
 40
1.0
100
AcDbArc
 50
180.0
 51
270.0
  0
LINE
  5
CB0A
330
18
100
AcDbEntity
  8
contour
100
AcDbLine
 10
28.0
 20
53.13410290956818
 30
0.0
 11
27.5
 21
52.63410290956819
 31
0.0
  0
LINE
  5
CB0B
330
18
100
AcDbEntity
  8
contour
100
AcDbLine
 10
31.34529946162075
 20
57.13410290956821
 30
0.0
 11
32.5
 21
55.13410290956819
 31
0.0
  0
LINE
  5
CB0C
330
18
100
AcDbEntity
  8
contour
100
AcDbLine
 10
27.5
 20
46.88410290956821
 30
0.0
 11
27.5
 21
43.13410290956818
 31
0.0
  0
ARC
  5
CB0D
330
18
100
AcDbEntity
  8
contour
100
AcDbCircle
 10
28.5
 20
43.13410290956818
 30
0.0
 40
1.0
100
AcDbArc
 50
180.0
 51
270.0
  0
LINE
  5
CB0E
330
18
100
AcDbEntity
  8
contour
100
AcDbLine
 10
29.75
 20
50.68410290956819
 30
0.0
 11
29.75
 21
52.68410290956819
 31
0.0
  0
LINE
  5
CB0F
330
18
100
AcDbEntity
  8
contour
100
AcDbLine
 10
65.25
 20
50.68410290956819
 30
0.0
 11
65.25
 21
52.68410290956819
 31
0.0
  0
LINE
  5
CB10
330
18
100
AcDbEntity
  8
center
 48
0.18
100
AcDbLine
 10
47.5
 20
61.13410290956818
 30
0.0
 11
47.5
 21
41.13410290956818
 31
0.0
  0
LINE
  5
CB11
330
18
100
AcDbEntity
  8
center
 48
0.18
100
AcDbLine
 10
61.85000000000002
 20
61.13410290956818
 30
0.0
 11
61.85000000000002
 21
41.13410290956818
 31
0.0
  0
INSERT
  5
CB12
330
18
100
AcDbEntity
  8
bowle
 48
0.2
100
AcDbBlockReference
  2
LS
 10
-245.3957309951603
 20
-138.5819331569145
 30
0.0
  0
LINE
  5
CB13
330
18
100
AcDbEntity
  8
contour
100
AcDbLine
 10
58.35000000000002
 20
42.4341029095683
 30
0.0
 11
58.35000000000002
 21
42.13410290956818
 31
0.0
  0
LINE
  5
CB14
330
18
100
AcDbEntity
  8
contour
100
AcDbLine
 10
65.35000000000002
 20
42.43410290956825
 30
0.0
 11
65.35000000000002
 21
42.13410290956818
 31
0.0
  0
LINE
  5
CB15
330
18
100
AcDbEntity
  8
contour
100
AcDbLine
 10
60.22900000000004
 20
57.71310290956808
 30
0.0
 11
60.22900000000004
 21
60.13410290956819
 31
0.0
  0
LINE
  5
CB16
330
18
100
AcDbEntity
  8
contour
 62
     4
100
AcDbLine
 10
59.85000000000002
 20
57.33410290956817
 30
0.0
 11
59.85000000000002
 21
60.13410290956819
 31
0.0
  0
LINE
  5
CB17
330
18
100
AcDbEntity
  8
contour
100
AcDbLine
 10
63.47100000000001
 20
57.71310290956802
 30
0.0
 11
63.47100000000001
 21
60.13410290956819
 31
0.0
  0
LINE
  5
CB18
330
18
100
AcDbEntity
  8
contour
 62
     4
100
AcDbLine
 10
63.85000000000002
 20
57.33410290956817
 30
0.0
 11
63.85000000000002
 21
60.13410290956819
 31
0.0
  0
LINE
  5
CB19
330
18
100
AcDbEntity
  8
contour
100
AcDbLine
 10
65.25
 20
50.68410290956819
 30
0.0
 11
63.85000000000002
 21
50.68410290956816
 31
0.0
  0
LINE
  5
CB1A
330
18
100
AcDbEntity
  8
contour
100
AcDbLine
 10
65.25
 20
52.68410290956819
 30
0.0
 11
63.85000000000002
 21
52.68410290956819
 31
0.0
  0
LINE
  5
CB1B
330
18
100
AcDbEntity
  8
contour
100
AcDbLine
 10
59.25
 20
49.88410290956818
 30
0.0
 11
59.85000000000002
 21
49.88410290956818
 31
0.0
  0
LINE
  5
CB1C
330
18
100
AcDbEntity
  8
contour
100
AcDbLine
 10
59.25
 20
47.88410290956818
 30
0.0
 11
59.85000000000002
 21
47.88410290956818
 31
0.0
  0
LINE
  5
CB1D
330
18
100
AcDbEntity
  8
contour
100
AcDbLine
 10
30.10000000000002
 20
42.63410290956819
 30
0.0
 11
30.10000000000002
 21
44.89279983081047
 31
0.0
  0
LINE
  5
CB1E
330
18
100
AcDbEntity
  8
contour
100
AcDbLine
 10
29.60000000000002
 20
42.13410290956818
 30
0.0
 11
30.10000000000002
 21
42.63410290956819
 31
0.0
  0
LINE
  5
CB1F
330
18
100
AcDbEntity
  8
contour
100
AcDbLine
 10
30.10000000000002
 20
44.89279983081047
 30
0.0
 11
32.25
 21
46.13410290956818
 31
0.0
  0
LINE
  5
CB20
330
18
100
AcDbEntity
  8
contour
100
AcDbLine
 10
34.39999999999998
 20
44.89279983081047
 30
0.0
 11
34.39999999999998
 21
42.63410290956819
 31
0.0
  0
LINE
  5
CB21
330
18
100
AcDbEntity
  8
contour
100
AcDbLine
 10
34.39999999999998
 20
44.89279983081047
 30
0.0
 11
32.25
 21
46.13410290956818
 31
0.0
  0
LINE
  5
CB22
330
18
100
AcDbEntity
  8
contour
100
AcDbLine
 10
30.10000000000002
 20
44.89279983081047
 30
0.0
 11
34.39999999999998
 21
44.89279983081047
 31
0.0
  0
LINE
  5
CB23
330
18
100
AcDbEntity
  8
contour
100
AcDbLine
 10
30.10000000000002
 20
42.63410290956819
 30
0.0
 11
34.39999999999998
 21
42.63410290956819
 31
0.0
  0
LINE
  5
CB24
330
18
100
AcDbEntity
  8
contour
100
AcDbLine
 10
32.5
 20
55.13410290956819
 30
0.0
 11
31.34529946162075
 21
53.13410290956818
 31
0.0
  0
LINE
  5
CB25
330
18
100
AcDbEntity
  8
contour
100
AcDbLine
 10
31.34529946162075
 20
57.13410290956819
 30
0.0
 11
31.34529946162075
 21
53.13410290956818
 31
0.0
  0
LINE
  5
CB26
330
18
100
AcDbEntity
  8
contour
100
AcDbLine
 10
28.0
 20
57.13410290956819
 30
0.0
 11
28.0
 21
53.13410290956818
 31
0.0
  0
LINE
  5
CB27
330
18
100
AcDbEntity
  8
center
 48
0.1
100
AcDbLine
 10
33.5
 20
55.13410290956819
 30
0.0
 11
26.5
 21
55.13410290956819
 31
0.0
  0
LINE
  5
CB28
330
18
100
AcDbEntity
  8
center
 48
0.1
100
AcDbLine
 10
32.25
 20
47.13410290956818
 30
0.0
 11
32.25
 21
41.13410290956818
 31
0.0
  0
LINE
  5
CB29
330
18
100
AcDbEntity
  8
contour
100
AcDbLine
 10
59.25
 20
49.88410290956818
 30
0.0
 11
59.25
 21
47.88410290956818
 31
0.0
  0
LINE
  5
CB2A
330
18
100
AcDbEntity
  8
contour
100
AcDbLine
 10
35.75
 20
47.88410290956821
 30
0.0
 11
35.75
 21
49.88410290956818
 31
0.0
  0
LINE
  5
CB2B
330
18
100
AcDbEntity
  8
contour
 62
     4
100
AcDbLine
 10
37.5
 20
59.67560290956817
 30
0.0
 11
37.5
 21
53.14260290956813
 31
0.0
  0
LINE
  5
CB2C
330
18
100
AcDbEntity
  8
contour
 62
     4
100
AcDbLine
 10
37.5
 20
50.22560290956818
 30
0.0
 11
37.5
 21
42.59260290956826
 31
0.0
  0
LINE
  5
CB2D
330
18
100
AcDbEntity
  8
contour
100
AcDbLine
 10
38.04149999999999
 20
59.13410290956818
 30
0.0
 11
38.04150000000004
 21
53.68410290956822
 31
0.0
  0
LINE
  5
CB2E
330
18
100
AcDbEntity
  8
contour
100
AcDbLine
 10
37.04149999999998
 20
60.13410290956819
 30
0.0
 11
38.04149999999999
 21
59.13410290956818
 31
0.0
  0
LINE
  5
CB2F
330
18
100
AcDbEntity
  8
contour
100
AcDbLine
 10
38.04149999999999
 20
49.68410290956819
 30
0.0
 11
38.04149999999999
 21
43.13410290956824
 31
0.0
  0
LINE
  5
CB30
330
18
100
AcDbEntity
  8
contour
100
AcDbLine
 10
37.04149999999993
 20
42.13410290956818
 30
0.0
 11
38.04149999999993
 21
43.13410290956818
 31
0.0
  0
LINE
  5
CB31
330
18
100
AcDbEntity
  8
contour
100
AcDbLine
 10
37.04149999999998
 20
50.68410290956819
 30
0.0
 11
38.04149999999999
 21
49.68410290956819
 31
0.0
  0
LINE
  5
CB32
330
18
100
AcDbEntity
  8
contour
100
AcDbLine
 10
56.95850000000001
 20
53.6841029095682
 30
0.0
 11
57.95850000000001
 21
52.68410290956819
 31
0.0
  0
LINE
  5
CB33
330
18
100
AcDbEntity
  8
contour
 62
     4
100
AcDbLine
 10
57.5
 20
59.67560290956817
 30
0.0
 11
57.5
 21
53.14260290956815
 31
0.0
  0
LINE
  5
CB34
330
18
100
AcDbEntity
  8
contour
 62
     4
100
AcDbLine
 10
57.5
 20
50.22560290956812
 30
0.0
 11
57.5
 21
42.59260290956826
 31
0.0
  0
LINE
  5
CB35
330
18
100
AcDbEntity
  8
contour
100
AcDbLine
 10
56.95850000000007
 20
59.13410290956818
 30
0.0
 11
56.95850000000001
 21
53.68410290956816
 31
0.0
  0
LINE
  5
CB36
330
18
100
AcDbEntity
  8
contour
100
AcDbLine
 10
57.95850000000007
 20
60.13410290956819
 30
0.0
 11
56.95850000000007
 21
59.13410290956818
 31
0.0
  0
LINE
  5
CB37
330
18
100
AcDbEntity
  8
contour
100
AcDbLine
 10
56.95850000000007
 20
49.68410290956819
 30
0.0
 11
56.95850000000007
 21
43.13410290956824
 31
0.0
  0
LINE
  5
CB38
330
18
100
AcDbEntity
  8
contour
100
AcDbLine
 10
57.95850000000007
 20
42.13410290956818
 30
0.0
 11
56.95850000000007
 21
43.13410290956818
 31
0.0
  0
LINE
  5
CB39
330
18
100
AcDbEntity
  8
contour
100
AcDbLine
 10
57.95850000000007
 20
50.68410290956819
 30
0.0
 11
56.95850000000007
 21
49.68410290956819
 31
0.0
  0
LINE
  5
CB3A
330
18
100
AcDbEntity
  8
contour
100
AcDbLine
 10
38.04149999999999
 20
59.13410290956818
 30
0.0
 11
56.95850000000007
 21
59.13410290956807
 31
0.0
  0
LINE
  5
CB3B
330
18
100
AcDbEntity
  8
contour
100
AcDbLine
 10
56.95850000000001
 20
53.6841029095682
 30
0.0
 11
38.04150000000004
 21
53.6841029095682
 31
0.0
  0
LINE
  5
CB3C
330
18
100
AcDbEntity
  8
contour
100
AcDbLine
 10
38.04149999999999
 20
49.68410290956819
 30
0.0
 11
56.95850000000007
 21
49.68410290956819
 31
0.0
  0
LINE
  5
CB3D
330
18
100
AcDbEntity
  8
contour
100
AcDbLine
 10
56.95850000000007
 20
43.13410290956824
 30
0.0
 11
38.04149999999999
 21
43.13410290956824
 31
0.0
  0
LINE
  5
CB3E
330
18
100
AcDbEntity
  8
center
 48
0.18
100
AcDbLine
 10
47.5
 20
75.79239138652423
 30
0.0
 11
47.5
 21
117.7923913865242
 31
0.0
  0
LINE
  5
CB3F
330
18
100
AcDbEntity
  8
center
 48
0.18
100
AcDbLine
 10
68.5
 20
96.79239138652423
 30
0.0
 11
26.5
 21
96.79239138652423
 31
0.0
  0
CIRCLE
  5
CB40
330
18
100
AcDbEntity
  8
contour
100
AcDbCircle
 10
47.5
 20
96.79239138652423
 30
0.0
 40
20.0
  0
CIRCLE
  5
CB41
330
18
100
AcDbEntity
  8
contour
100
AcDbCircle
 10
61.85000000000002
 20
96.79239138652423
 30
0.0
 40
1.62099999999998
  0
ARC
  5
CB42
330
18
100
AcDbEntity
  8
contour
 62
     4
100
AcDbCircle
 10
61.85000000000002
 20
96.79239138652423
 30
0.0
 40
2.000000000000028
100
AcDbArc
 50
168.4630409671834
 51
101.5369590328149
  0
CIRCLE
  5
CB43
330
18
100
AcDbEntity
  8
bowle
 48
0.2
100
AcDbCircle
 10
61.85000000000002
 20
96.79239138652423
 30
0.0
 40
3.5
  0
CIRCLE
  5
CB44
330
18
100
AcDbEntity
  8
bowle
 48
0.2
100
AcDbCircle
 10
36.71662158690515
 20
86.00901297342938
 30
0.0
 40
2.150000000000005
  0
CIRCLE
  5
CB45
330
18
100
AcDbEntity
  8
bowle
 48
0.2
100
AcDbCircle
 10
36.71662158690515
 20
86.00901297342938
 30
0.0
 40
2.650000000000005
  0
LINE
  5
CB46
330
18
100
AcDbEntity
  8
bowle
 48
0.2
100
AcDbLine
 10
37.49111526364715
 20
83.95507952542519
 30
0.0
 11
35.12563132923538
 21
81.58959559101347
 31
0.0
  0
LINE
  5
CB47
330
18
100
AcDbEntity
  8
bowle
 48
0.2
100
AcDbLine
 10
34.66268813890099
 20
86.7835066501714
 30
0.0
 11
32.29720420448922
 21
84.41802271575966
 31
0.0
  0
LINE
  5
CB48
330
18
100
AcDbEntity
  8
bowle
 48
0.2
100
AcDbLine
 10
31.78774363752927
 20
84.41802271575964
 30
0.0
 11
32.29720420448922
 21
84.41802271575966
 31
0.0
  0
LINE
  5
CB49
330
18
100
AcDbEntity
  8
bowle
 48
0.2
100
AcDbLine
 10
35.12563132923538
 20
81.58959559101347
 30
0.0
 11
35.12563132923538
 21
81.08013502405356
 31
0.0
  0
LINE
  5
CB4A
330
18
100
AcDbEntity
  8
bowle
 48
0.2
100
AcDbLine
 10
34.66268813890093
 20
86.78350665017143
 30
0.0
 11
36.89339828220182
 21
86.18578966872602
 31
0.0
  0
LINE
  5
CB4B
330
18
100
AcDbEntity
  8
bowle
 48
0.2
100
AcDbLine
 10
36.89339828220182
 20
86.18578966872602
 30
0.0
 11
37.49111526364715
 21
83.95507952542519
 31
0.0
  0
LINE
  5
CB4C
330
18
100
AcDbEntity
  8
bowle
 48
0.2
100
AcDbLine
 10
34.66268813890099
 20
86.7835066501714
 30
0.0
 11
37.49111526364715
 21
83.95507952542519
 31
0.0
  0
LINE
  5
CB4D
330
18
100
AcDbEntity
  8
bowle
 48
0.2
100
AcDbLine
 10
32.29720420448922
 20
84.41802271575966
 30
0.0
 11
35.12563132923538
 21
81.58959559101347
 31
0.0
  0
CIRCLE
  5
CB4E
330
18
100
AcDbEntity
  8
contour
100
AcDbCircle
 10
47.5
 20
96.79239138652423
 30
0.0
 40
9.458500000000015
  0
ARC
  5
CB4F
330
18
100
AcDbEntity
  8
contour
 62
     4
100
AcDbCircle
 10
47.5
 20
96.79239138652423
 30
0.0
 40
9.999999999999971
100
AcDbArc
 50
168.4630409671834
 51
101.5369590328149
  0
CIRCLE
  5
CB50
330
18
100
AcDbEntity
  8
contour
100
AcDbCircle
 10
47.5
 20
96.79239138652423
 30
0.0
 40
10.45850000000001
  0
LINE
  5
CB51
330
18
100
AcDbEntity
  8
center
 48
0.18
100
AcDbLine
 10
41.5189372913336
 20
90.81132867785781
 30
0.0
 11
32.6507575950825
 21
81.94314898160673
 31
0.0
  0
CIRCLE
  5
CB52
330
18
100
AcDbEntity
  8
contour
100
AcDbCircle
 10
47.5
 20
111.1423913865242
 30
0.0
 40
1.62099999999998
  0
CIRCLE
  5
CB53
330
18
100
AcDbEntity
  8
bowle
 48
0.2
100
AcDbCircle
 10
47.5
 20
111.1423913865242
 30
0.0
 40
3.5
  0
CIRCLE
  5
CB54
330
18
100
AcDbEntity
  8
contour
100
AcDbCircle
 10
33.14999999999998
 20
96.79239138652423
 30
0.0
 40
1.62099999999998
  0
CIRCLE
  5
CB55
330
18
100
AcDbEntity
  8
bowle
 48
0.2
100
AcDbCircle
 10
33.14999999999998
 20
96.79239138652423
 30
0.0
 40
3.5
  0
CIRCLE
  5
CB56
330
18
100
AcDbEntity
  8
contour
100
AcDbCircle
 10
47.49999999999994
 20
82.44239138652421
 30
0.0
 40
1.62099999999998
  0
CIRCLE
  5
CB57
330
18
100
AcDbEntity
  8
bowle
 48
0.2
100
AcDbCircle
 10
47.49999999999994
 20
82.44239138652421
 30
0.0
 40
3.5
  0
CIRCLE
  5
CB58
330
18
100
AcDbEntity
  8
bowle
 48
0.2
100
AcDbCircle
 10
58.28337841309485
 20
86.00901297342941
 30
0.0
 40
2.150000000000005
  0
CIRCLE
  5
CB59
330
18
100
AcDbEntity
  8
bowle
 48
0.2
100
AcDbCircle
 10
58.28337841309485
 20
86.00901297342941
 30
0.0
 40
2.650000000000005
  0
LINE
  5
CB5A
330
18
100
AcDbEntity
  8
bowle
 48
0.2
100
AcDbLine
 10
60.33731186109901
 20
86.7835066501714
 30
0.0
 11
62.70279579551072
 21
84.41802271575966
 31
0.0
  0
LINE
  5
CB5B
330
18
100
AcDbEntity
  8
bowle
 48
0.2
100
AcDbLine
 10
57.5088847363528
 20
83.95507952542521
 30
0.0
 11
59.87436867076457
 21
81.58959559101347
 31
0.0
  0
LINE
  5
CB5C
330
18
100
AcDbEntity
  8
bowle
 48
0.2
100
AcDbLine
 10
59.87436867076457
 20
81.08013502405356
 30
0.0
 11
59.87436867076457
 21
81.58959559101347
 31
0.0
  0
LINE
  5
CB5D
330
18
100
AcDbEntity
  8
bowle
 48
0.2
100
AcDbLine
 10
62.70279579551072
 20
84.41802271575966
 30
0.0
 11
63.21225636247067
 21
84.41802271575966
 31
0.0
  0
LINE
  5
CB5E
330
18
100
AcDbEntity
  8
bowle
 48
0.2
100
AcDbLine
 10
57.5088847363528
 20
83.95507952542519
 30
0.0
 11
58.10660171779819
 21
86.18578966872604
 31
0.0
  0
LINE
  5
CB5F
330
18
100
AcDbEntity
  8
bowle
 48
0.2
100
AcDbLine
 10
58.10660171779819
 20
86.18578966872604
 30
0.0
 11
60.33731186109901
 21
86.7835066501714
 31
0.0
  0
LINE
  5
CB60
330
18
100
AcDbEntity
  8
bowle
 48
0.2
100
AcDbLine
 10
57.5088847363528
 20
83.95507952542521
 30
0.0
 11
60.33731186109901
 21
86.7835066501714
 31
0.0
  0
LINE
  5
CB61
330
18
100
AcDbEntity
  8
bowle
 48
0.2
100
AcDbLine
 10
59.87436867076457
 20
81.58959559101347
 30
0.0
 11
62.70279579551072
 21
84.41802271575966
 31
0.0
  0
LINE
  5
CB62
330
18
100
AcDbEntity
  8
center
 48
0.18
100
AcDbLine
 10
53.4810627086664
 20
90.81132867785782
 30
0.0
 11
62.3492424049175
 21
81.94314898160675
 31
0.0
  0
CIRCLE
  5
CB63
330
18
100
AcDbEntity
  8
bowle
 48
0.2
100
AcDbCircle
 10
58.2833784130948
 20
107.5757697996191
 30
0.0
 40
2.150000000000005
  0
CIRCLE
  5
CB64
330
18
100
AcDbEntity
  8
bowle
 48
0.2
100
AcDbCircle
 10
58.2833784130948
 20
107.5757697996191
 30
0.0
 40
2.650000000000005
  0
LINE
  5
CB65
330
18
100
AcDbEntity
  8
bowle
 48
0.2
100
AcDbLine
 10
57.5088847363528
 20
109.6297032476233
 30
0.0
 11
59.87436867076457
 21
111.995187182035
 31
0.0
  0
LINE
  5
CB66
330
18
100
AcDbEntity
  8
bowle
 48
0.2
100
AcDbLine
 10
60.33731186109901
 20
106.8012761228771
 30
0.0
 11
62.70279579551072
 21
109.1667600572888
 31
0.0
  0
LINE
  5
CB67
330
18
100
AcDbEntity
  8
bowle
 48
0.2
100
AcDbLine
 10
63.21225636247067
 20
109.1667600572888
 30
0.0
 11
62.70279579551072
 21
109.1667600572888
 31
0.0
  0
LINE
  5
CB68
330
18
100
AcDbEntity
  8
bowle
 48
0.2
100
AcDbLine
 10
59.87436867076457
 20
111.995187182035
 30
0.0
 11
59.87436867076457
 21
112.5046477489949
 31
0.0
  0
LINE
  5
CB69
330
18
100
AcDbEntity
  8
bowle
 48
0.2
100
AcDbLine
 10
60.33731186109901
 20
106.801276122877
 30
0.0
 11
58.10660171779819
 21
107.3989931043225
 31
0.0
  0
LINE
  5
CB6A
330
18
100
AcDbEntity
  8
bowle
 48
0.2
100
AcDbLine
 10
58.10660171779819
 20
107.3989931043225
 30
0.0
 11
57.5088847363528
 21
109.6297032476233
 31
0.0
  0
LINE
  5
CB6B
330
18
100
AcDbEntity
  8
bowle
 48
0.2
100
AcDbLine
 10
60.33731186109901
 20
106.8012761228771
 30
0.0
 11
57.5088847363528
 21
109.6297032476233
 31
0.0
  0
LINE
  5
CB6C
330
18
100
AcDbEntity
  8
bowle
 48
0.2
100
AcDbLine
 10
62.70279579551072
 20
109.1667600572888
 30
0.0
 11
59.87436867076457
 21
111.995187182035
 31
0.0
  0
LINE
  5
CB6D
330
18
100
AcDbEntity
  8
center
 48
0.18
100
AcDbLine
 10
53.4810627086664
 20
102.7734540951906
 30
0.0
 11
62.3492424049175
 21
111.6416337914417
 31
0.0
  0
CIRCLE
  5
CB6E
330
18
100
AcDbEntity
  8
bowle
 48
0.2
100
AcDbCircle
 10
36.71662158690515
 20
107.575769799619
 30
0.0
 40
2.150000000000005
  0
CIRCLE
  5
CB6F
330
18
100
AcDbEntity
  8
bowle
 48
0.2
100
AcDbCircle
 10
36.71662158690515
 20
107.575769799619
 30
0.0
 40
2.650000000000005
  0
LINE
  5
CB70
330
18
100
AcDbEntity
  8
bowle
 48
0.2
100
AcDbLine
 10
34.66268813890093
 20
106.8012761228771
 30
0.0
 11
32.29720420448922
 21
109.1667600572888
 31
0.0
  0
LINE
  5
CB71
330
18
100
AcDbEntity
  8
bowle
 48
0.2
100
AcDbLine
 10
37.49111526364715
 20
109.6297032476232
 30
0.0
 11
35.12563132923543
 21
111.995187182035
 31
0.0
  0
LINE
  5
CB72
330
18
100
AcDbEntity
  8
bowle
 48
0.2
100
AcDbLine
 10
35.12563132923538
 20
112.5046477489949
 30
0.0
 11
35.12563132923543
 21
111.995187182035
 31
0.0
  0
LINE
  5
CB73
330
18
100
AcDbEntity
  8
bowle
 48
0.2
100
AcDbLine
 10
32.29720420448922
 20
109.1667600572888
 30
0.0
 11
31.78774363752933
 21
109.1667600572888
 31
0.0
  0
LINE
  5
CB74
330
18
100
AcDbEntity
  8
bowle
 48
0.2
100
AcDbLine
 10
37.4911152636472
 20
109.6297032476233
 30
0.0
 11
36.89339828220176
 21
107.3989931043224
 31
0.0
  0
LINE
  5
CB75
330
18
100
AcDbEntity
  8
bowle
 48
0.2
100
AcDbLine
 10
36.89339828220176
 20
107.3989931043224
 30
0.0
 11
34.66268813890093
 21
106.8012761228771
 31
0.0
  0
LINE
  5
CB76
330
18
100
AcDbEntity
  8
bowle
 48
0.2
100
AcDbLine
 10
37.49111526364715
 20
109.6297032476232
 30
0.0
 11
34.66268813890093
 21
106.8012761228771
 31
0.0
  0
LINE
  5
CB77
330
18
100
AcDbEntity
  8
bowle
 48
0.2
100
AcDbLine
 10
35.12563132923543
 20
111.995187182035
 30
0.0
 11
32.29720420448922
 21
109.1667600572888
 31
0.0
  0
LINE
  5
CB78
330
18
100
AcDbEntity
  8
center
 48
0.18
100
AcDbLine
 10
41.51893729133354
 20
102.7734540951906
 30
0.0
 11
32.6507575950825
 21
111.6416337914416
 31
0.0
  0
CIRCLE
  5
CB79
330
18
100
AcDbEntity
  8
center
 48
0.18
100
AcDbCircle
 10
47.5
 20
96.79239138652423
 30
0.0
 40
14.35000000000002
  0
ARC
  5
CB7A
330
18
100
AcDbEntity
  8
contour
 62
     4
100
AcDbCircle
 10
47.5
 20
111.1423913865242
 30
0.0
 40
2.000000000000028
100
AcDbArc
 50
168.4630409671834
 51
101.5369590328149
  0
ARC
  5
CB7B
330
18
100
AcDbEntity
  8
contour
 62
     4
100
AcDbCircle
 10
47.5
 20
82.44239138652421
 30
0.0
 40
2.000000000000028
100
AcDbArc
 50
168.4630409671834
 51
101.5369590328149
  0
ARC
  5
CB7C
330
18
100
AcDbEntity
  8
contour
 62
     4
100
AcDbCircle
 10
33.14999999999998
 20
96.79239138652423
 30
0.0
 40
2.000000000000028
100
AcDbArc
 50
168.4630409671834
 51
101.5369590328149
  0
DIMENSION
  5
CDCF
330
18
100
AcDbEntity
  8
mark
100
AcDbDimension
  2
*D7
 10
57.5
 20
35.40735859623624
 30
0.0
 11
47.5
 21
36.45735859623624
 31
0.0
 70
    32
  1
M20x1.0P
 71
     5
 42
20.0
  3
STANDARD
100
AcDbAlignedDimension
 13
37.5
 23
42.59260290956826
 33
0.0
 14
57.5
 24
42.59260290956826
 34
0.0
100
AcDbRotatedDimension
  0
MTEXT
  5
CDF8
330
18
100
AcDbEntity
  8
mark
 62
     3
100
AcDbMText
 10
53.76909335374614
 20
40.59127768401913
 30
0.0
 40
1.25
 41
0.0
 71
     5
 72
     1
  1
C1
 11
0.7071067811865476
 21
0.7071067811865475
 31
0.0
 73
     1
 44
1.0
1001
ACAD
1000
ACAD_MTEXT_DEFINED_HEIGHT_BEGIN
1070
    46
1040
0.0
1000
ACAD_MTEXT_DEFINED_HEIGHT_END
  0
LEADER
  5
CDFA
330
18
100
AcDbEntity
  8
mark
100
AcDbLeader
  3
STANDARD
 76
     2
 10
57.45850000000007
 20
42.63410290956819
 30
0.0
 10
53.93101556568399
 20
39.10661847525214
 30
0.0
211
0.7071067811865476
221
0.7071067811865475
231
0.0
1001
ACAD
1000
DSTYLE
1002
{
1070
   147
1040
0.85
1070
    77
1070
     0
1002
}
  0
DIMENSION
  5
CE08
330
18
100
AcDbEntity
  8
mark
100
AcDbDimension
  2
*D8
 10
72.26804908624433
 20
49.88410290956821
 30
0.0
 11
71.21804908624432
 21
55.0091029095682
 31
0.0
 70
    32
 71
     5
 42
10.24999999999997
  3
STANDARD
100
AcDbAlignedDimension
 13
66.5
 23
60.13410290956819
 33
0.0
 14
66.5
 24
49.88410290956821
 34
0.0
 50
90.0
100
AcDbRotatedDimension
  0
DIMENSION
  5
CE15
330
18
100
AcDbEntity
  8
mark
100
AcDbDimension
  2
*D9
 10
72.26804908624433
 20
47.88410290956818
 30
0.0
 11
71.21804908624432
 21
48.8841029095682
 31
0.0
 70
    32
 71
     5
 42
2.000000000000028
  3
STANDARD
100
AcDbAlignedDimension
 13
66.5
 23
49.88410290956821
 33
0.0
 14
66.5
 24
47.88410290956818
 34
0.0
 50
90.0
100
AcDbRotatedDimension
  0
DIMENSION
  5
CE24
330
18
100
AcDbEntity
  8
mark
100
AcDbDimension
  2
*D10
 10
77.11405363503388
 20
42.13410290956818
 30
0.0
 11
76.06405363503387
 21
51.13410290956819
 31
0.0
 70
    32
  1
<>%%P0.2
 71
     5
 42
18.0
  3
STANDARD
100
AcDbAlignedDimension
 13
66.5
 23
60.13410290956819
 33
0.0
 14
66.5
 24
42.13410290956818
 34
0.0
 50
90.0
100
AcDbRotatedDimension
  0
DIMENSION
  5
CE31
330
18
100
AcDbEntity
  8
mark
100
AcDbDimension
  2
*D11
 10
23.43506972656758
 20
55.13410290956819
 30
0.0
 11
22.38506972656757
 21
57.63410290956819
 31
0.0
 70
    32
 71
     5
 42
5.0
  3
STANDARD
100
AcDbAlignedDimension
 13
28.5
 23
60.13410290956819
 33
0.0
 14
26.5
 24
55.13410290956819
 34
0.0
 50
90.0
100
AcDbRotatedDimension
  0
DIMENSION
  5
CE3E
330
18
100
AcDbEntity
  8
mark
100
AcDbDimension
  2
*D12
 10
67.5
 20
63.77913950064453
 30
0.0
 11
47.5
 21
64.82913950064453
 31
0.0
 70
    32
  1
%%c<>
 71
     5
 42
40.0
  3
STANDARD
100
AcDbAlignedDimension
 13
27.5
 23
59.13410290956793
 33
0.0
 14
67.5
 24
59.13410290956793
 34
0.0
100
AcDbRotatedDimension
  0
MTEXT
  5
CEA5
330
18
100
AcDbEntity
  8
mark
 62
     3
100
AcDbMText
 10
50.31473073497642
 20
64.86884019003861
 30
0.0
 40
0.8
 41
0.0
 71
     5
 72
     1
  1
\A1;{\H0.7x;\S+0^ -0.2;}
 73
     1
 44
1.0
1001
ACAD
1000
ACAD_MTEXT_DEFINED_HEIGHT_BEGIN
1070
    46
1040
0.0
1000
ACAD_MTEXT_DEFINED_HEIGHT_END
  0
ARC
  5
CEB0
330
18
100
AcDbEntity
  8
center
 48
0.18
100
AcDbCircle
 10
47.5
 20
96.79239138652423
 30
0.0
 40
15.24999999999996
100
AcDbArc
 50
27.46108570218336
 51
62.5389142978181
  0
ARC
  5
CEB1
330
18
100
AcDbEntity
  8
center
 48
0.18
100
AcDbCircle
 10
47.5
 20
96.79239138652418
 30
0.0
 40
15.24999999999996
100
AcDbArc
 50
117.4610857021818
 51
152.5389142978188
  0
ARC
  5
CEB2
330
18
100
AcDbEntity
  8
center
 48
0.18
100
AcDbCircle
 10
47.50000000000011
 20
96.79239138652423
 30
0.0
 40
15.24999999999996
100
AcDbArc
 50
207.4610857021797
 51
242.5389142978181
  0
ARC
  5
CEB3
330
18
100
AcDbEntity
  8
center
 48
0.18
100
AcDbCircle
 10
47.50000000000006
 20
96.79239138652434
 30
0.0
 40
15.24999999999996
100
AcDbArc
 50
297.4610857021811
 51
332.5389142978181
  0
DIMENSION
  5
CEB5
330
18
100
AcDbEntity
  8
mark
100
AcDbDimension
  2
*D13
 10
33.84518142468721
 20
92.38008703672093
 30
0.0
 11
72.79258415122704
 21
104.965226379
 31
0.0
 70
   163
  1
P.C.D 28.7
 71
     5
 42
28.69999999999998
  3
STANDARD
100
AcDbDiametricDimension
 15
61.15481857531276
 25
101.2046957363275
 35
0.0
 40
0.0
1001
ACAD
1000
DSTYLE
1002
{
1070
   288
1070
     1
1002
}
  0
DIMENSION
  5
CECD
330
18
100
AcDbEntity
  8
mark
100
AcDbDimension
  2
*D14
 10
34.46056987047113
 20
88.88443577858515
 30
0.0
 11
70.17130736504293
 21
110.541741659946
 31
0.0
 70
   163
  1
P.C.D 30.5
 71
     5
 42
30.49999999999987
  3
STANDARD
100
AcDbDiametricDimension
 15
60.53943012952872
 25
104.7003469944632
 35
0.0
 40
0.0
1001
ACAD
1000
DSTYLE
1002
{
1070
   288
1070
     1
1002
}
  0
LEADER
  5
CEDA
330
18
100
AcDbEntity
  8
mark
100
AcDbLeader
  3
STANDARD
 76
     3
 10
32.25
 20
42.13410290956818
 30
0.0
 10
25.52325568666811
 20
35.40735859623624
 30
0.0
 10
14.65900121414063
 20
35.40735859623624
 30
0.0
1001
ACAD
1000
DSTYLE
1002
{
1070
   147
1040
0.85
1070
    77
1070
     0
1002
}
  0
MTEXT
  5
CEDC
330
18
100
AcDbEntity
  8
dim
100
AcDbMText
 10
14.70236907985702
 20
37.09191654469191
 30
0.0
 40
1.25
 41
27.04168612145532
 71
     1
 72
     5
  1
4-%%C4.3{\Ftxt,bigfont|c128;深さ}4
 73
     1
 44
1.0
1001
ACAD
1000
ACAD_MTEXT_DEFINED_HEIGHT_BEGIN
1070
    46
1040
0.0
1000
ACAD_MTEXT_DEFINED_HEIGHT_END
  0
LEADER
  5
CEDE
330
18
100
AcDbEntity
  8
mark
100
AcDbLeader
  3
STANDARD
 76
     3
 10
27.5
 20
55.00910290956818
 30
0.0
 10
20.77325568666811
 20
48.28235859623624
 30
0.0
 10
11.46236194889991
 20
48.28235859623624
 30
0.0
1001
ACAD
1000
DSTYLE
1002
{
1070
   147
1040
0.85
1070
    77
1070
     0
1002
}
  0
MTEXT
  5
CEDF
330
18
100
AcDbEntity
  8
dim
100
AcDbMText
 10
11.54110907662505
 20
49.96691654469191
 30
0.0
 40
1.25
 41
27.04168612145532
 71
     1
 72
     5
  1
4-%%C4{\Ftxt,bigfont|c128;深さ}5
 73
     1
 44
1.0
1001
ACAD
1000
ACAD_MTEXT_DEFINED_HEIGHT_BEGIN
1070
    46
1040
0.0
1000
ACAD_MTEXT_DEFINED_HEIGHT_END
  0
TOLERANCE
  5
CEE0
330
18
100
AcDbEntity
  8
mark
100
AcDbFcf
  3
STANDARD
 10
80.75909022611023
 20
63.77913950064453
 30
0.0
  1
{\Fgdt;h}%%v0.005%%v%%vA%%v%%v
  0
LINE
  5
CEE6
330
18
100
AcDbEntity
  8
mark
100
AcDbLine
 10
77.11405363503383
 20
63.7791395006445
 30
0.0
 11
80.75909022611018
 21
63.77913950064453
 31
0.0
  0
LINE
  5
CEE7
330
18
100
AcDbEntity
  8
mark
100
AcDbLine
 10
77.11405363503388
 20
60.13410290956819
 30
0.0
 11
77.11405363503383
 21
63.7791395006445
 31
0.0
  0
TOLERANCE
  5
CEE9
330
18
100
AcDbEntity
  8
mark
100
AcDbFcf
  3
STANDARD
 10
42.5
 20
29.98235859623623
 30
0.0
  1
%%v%%v%%vA%%v%%v
  0
LINE
  5
CEEA
330
18
100
AcDbEntity
  8
mark
100
AcDbLine
 10
37.5
 20
34.98235859623623
 30
0.0
 11
37.5
 21
31.2323585962362
 31
0.0
  0
LINE
  5
CEEB
330
18
100
AcDbEntity
  8
mark
100
AcDbLine
 10
38.74999999999995
 20
29.98235859623623
 30
0.0
 11
42.5
 21
29.98235859623623
 31
0.0
  0
LWPOLYLINE
  5
CEF9
102
{ACAD_REACTORS
330
CF1A
102
}
330
18
100
AcDbEntity
  8
mark
100
AcDbPolyline
 90
        3
 70
     1
 43
0.0
 10
37.5
 20
28.73235859623617
 10
37.49999999999995
 20
31.23235859623625
 10
38.75
 20
29.98235859623617
  0
HATCH
  5
CF1A
330
18
100
AcDbEntity
  8
mark
100
AcDbHatch
 10
0.0
 20
0.0
 30
0.0
210
0.0
220
0.0
230
1.0
  2
SOLID
 70
     1
 71
     1
 91
        1
 92
        7
 72
     0
 73
     1
 93
        3
 10
37.5
 20
28.73235859623616
 10
38.75
 20
29.98235859623616
 10
37.49999999999995
 20
31.23235859623626
 97
        1
330
CEF9
 75
     0
 76
     1
 47
0.0850970224055837
 98
        1
 10
37.79419295225682
 20
29.76677967549131
450
        0
451
        0
460
0.0
461
0.0
452
        1
462
1.0
453
        2
463
0.0
 63
     5
421
      255
463
1.0
 63
     7
421
 16777215
470
LINEAR
1001
ACAD
1010
0.0
1020
0.0
1030
0.0
  0
HATCH
  5
D034
330
18
100
AcDbEntity
  8
section
100
AcDbHatch
 10
0.0
 20
0.0
 30
0.0
210
0.0
220
0.0
230
1.0
  2
ANSI31
 70
     0
 71
     0
 91
       11
 92
        7
 72
     1
 73
     1
 93
       34
 10
37.5
 20
59.6756029095682
 42
0.0
 10
37.04149999999998
 20
60.13410290956819
 42
0.0
 10
28.5
 20
60.13410290956819
 42
0.4142135623730951
 10
27.5
 20
59.13410290956818
 42
0.0
 10
27.5
 20
57.63410290956819
 42
0.0
 10
28.0
 20
57.13410290956819
 42
0.0
 10
31.34529946162081
 20
57.13410290956819
 42
0.0
 10
32.50000000000006
 20
55.13410290956816
 42
0.0
 10
31.34529946162081
 20
53.13410290956818
 42
0.0
 10
28.0
 20
53.13410290956818
 42
0.0
 10
27.50000000000006
 20
52.63410290956821
 42
0.0
 10
27.50000000000006
 20
50.88410290956819
 42
0.4142135623730784
 10
28.5
 20
49.88410290956818
 42
0.0
 10
35.75000000000006
 20
49.88410290956821
 42
0.0
 10
35.74999999999994
 20
47.88410290956821
 42
0.0
 10
28.5
 20
47.88410290956821
 42
0.4142135623730951
 10
27.5
 20
46.88410290956821
 42
0.0
 10
27.5
 20
43.13410290956818
 42
0.4142135623730951
 10
28.5
 20
42.13410290956818
 42
0.0
 10
29.60000000000002
 20
42.13410290956818
 42
0.0
 10
30.10000000000002
 20
42.63410290956819
 42
0.0
 10
30.10000000000002
 20
44.89279983081042
 42
0.0
 10
32.25000000000006
 20
46.13410290956821
 42
0.0
 10
34.39999999999998
 20
44.89279983081047
 42
0.0
 10
34.39999999999998
 20
42.63410290956812
 42
0.0
 10
34.89999999999998
 20
42.13410290956818
 42
0.0
 10
37.04149999999993
 20
42.13410290956815
 42
0.0
 10
37.5
 20
42.59260290956826
 42
0.0
 10
37.5
 20
50.22560290956815
 42
0.0
 10
37.04149999999998
 20
50.68410290956814
 42
0.0
 10
29.75
 20
50.68410290956819
 42
0.0
 10
29.75
 20
52.68410290956819
 42
0.0
 10
37.04150000000004
 20
52.68410290956819
 42
0.0
 10
37.5
 20
53.14260290956815
 42
0.0
 97
        0
 92
        7
 72
     0
 73
     1
 93
        4
 10
38.04150000000004
 20
49.68410290956819
 10
37.5
 20
50.22560290956821
 10
37.5
 20
42.59260290956826
 10
38.04149999999999
 20
43.13410290956821
 97
        0
 92
        7
 72
     0
 73
     1
 93
        4
 10
38.04149999999993
 20
59.13410290956822
 10
37.5
 20
59.67560290956814
 10
37.49999999999995
 20
53.14260290956815
 10
38.04150000000004
 20
53.68410290956822
 97
        0
 92
        7
 72
     0
 73
     1
 93
        7
 10
59.85000000000002
 20
57.33410290956817
 10
59.85000000000002
 20
60.13410290956816
 10
57.95850000000001
 20
60.13410290956816
 10
57.5
 20
59.67560290956814
 10
57.5
 20
53.14260290956818
 10
57.95849999999996
 20
52.68410290956819
 10
59.85000000000002
 20
52.68410290956819
 97
        0
 92
        7
 72
     1
 73
     1
 93
       11
 10
67.5
 20
59.13410290956818
 42
0.4142135623730951
 10
66.5
 20
60.13410290956819
 42
0.0
 10
63.85000000000002
 20
60.13410290956816
 42
0.0
 10
63.85000000000002
 20
57.33410290956817
 42
0.0
 10
63.85000000000002
 20
52.68410290956819
 42
0.0
 10
65.25
 20
52.68410290956819
 42
0.0
 10
65.25
 20
50.68410290956819
 42
0.0
 10
63.85000000000002
 20
50.68410290956819
 42
0.0
 10
63.85000000000008
 20
49.88410290956821
 42
0.0
 10
66.5
 20
49.88410290956821
 42
0.4142135623730951
 10
67.5
 20
50.88410290956821
 42
0.0
 97
        0
 92
        7
 72
     1
 73
     1
 93
        9
 10
67.5
 20
46.88410290956818
 42
0.4142135623730951
 10
66.5
 20
47.88410290956818
 42
0.0
 10
63.85000000000002
 20
47.88410290956815
 42
0.0
 10
63.85000000000002
 20
46.13410290956818
 42
0.0
 10
65.34999999999996
 20
46.13410290956818
 42
0.0
 10
65.35000000000002
 20
42.43410290956825
 42
0.0
 10
65.34999999999996
 20
42.13410290956818
 42
0.0
 10
66.5
 20
42.13410290956818
 42
0.4142135623730951
 10
67.5
 20
43.13410290956818
 42
0.0
 97
        0
 92
        7
 72
     0
 73
     1
 93
       13
 10
59.25
 20
49.88410290956818
 10
59.85000000000002
 20
49.88410290956818
 10
59.85000000000002
 20
50.68410290956814
 10
57.95850000000001
 20
50.68410290956814
 10
57.50000000000006
 20
50.22560290956812
 10
57.5
 20
42.59260290956826
 10
57.95850000000013
 20
42.13410290956818
 10
58.35000000000002
 20
42.13410290956818
 10
58.35000000000002
 20
42.4341029095683
 10
58.35000000000002
 20
46.13410290956818
 10
59.85000000000002
 20
46.13410290956818
 10
59.85000000000002
 20
47.88410290956818
 10
59.25
 20
47.88410290956818
 97
        0
 92
        7
 72
     0
 73
     1
 93
        4
 10
57.5
 20
50.22560290956812
 10
56.95850000000007
 20
49.68410290956819
 10
56.95850000000007
 20
43.13410290956816
 10
57.5
 20
42.59260290956828
 97
        0
 92
        7
 72
     0
 73
     1
 93
        4
 10
57.5
 20
59.67560290956811
 10
56.95850000000001
 20
59.13410290956813
 10
56.95850000000001
 20
53.68410290956816
 10
57.49999999999994
 20
53.14260290956823
 97
        0
 92
        7
 72
     0
 73
     1
 93
        4
 10
60.22899999999999
 20
60.13410290956819
 10
59.85000000000002
 20
60.13410290956821
 10
59.85000000000002
 20
57.33410290956811
 10
60.22900000000004
 20
57.71310290956816
 97
        0
 92
        7
 72
     0
 73
     1
 93
        4
 10
63.85000000000002
 20
60.13410290956819
 10
63.47100000000001
 20
60.13410290956821
 10
63.47100000000001
 20
57.71310290956811
 10
63.84999999999997
 20
57.33410290956803
 97
        0
 75
     0
 76
     1
 52
0.0
 41
0.5
 77
     0
 78
     1
 53
45.0
 43
-241.3903451209031
 44
-147.1455719270675
 45
-1.122532015133643
 46
1.122532015133644
 79
     0
 47
0.1350354211172044
 98
       11
 10
33.74028489030309
 20
56.21223984157598
 10
37.9288982583031
 20
47.56997273573836
 10
37.9288982583031
 20
55.80713336897964
 10
57.65592098880927
 20
56.21223984157598
 10
64.81710057721546
 20
55.94216885984508
 10
66.43849913697351
 20
46.48968952707332
 10
58.60173723729293
 20
48.1101139809416
 10
57.25057058934464
 20
48.1101139809416
 10
57.25057058934464
 20
55.80713336897964
 10
59.95290287254135
 20
58.77791273150251
 10
63.73616786647687
 20
58.77791273150251
1001
ACAD
1010
0.0
1020
0.0
1030
0.0
  0
MTEXT
  5
D0AE
330
18
100
AcDbEntity
  8
mark
 62
     3
100
AcDbMText
 10
73.60995453265828
 20
37.91394148642542
 30
0.0
 40
2.5
 41
0.0
 71
     5
 72
     1
  1
2
 73
     1
 44
1.0
1001
ACAD
1000
ACAD_MTEXT_DEFINED_HEIGHT_BEGIN
1070
    46
1040
0.0
1000
ACAD_MTEXT_DEFINED_HEIGHT_END
  0
LEADER
  5
D0B7
330
18
100
AcDbEntity
  8
mark
100
AcDbLeader
  3
STANDARD
 76
     2
 10
61.85000000000002
 20
42.13410290956818
 30
0.0
 10
72.26804908624433
 20
37.81880568457717
 30
0.0
1001
ACAD
1000
DSTYLE
1002
{
1070
   147
1040
0.85
1070
    77
1070
     0
1002
}
  0
LEADER
  5
D0BC
330
18
100
AcDbEntity
  8
mark
100
AcDbLeader
  3
STANDARD
 76
     2
 10
65.97759065022575
 20
89.13872273922249
 30
0.0
 10
72.76802882263917
 20
86.32603115375287
 30
0.0
1001
ACAD
1000
DSTYLE
1002
{
1070
   147
1040
0.85
1070
    77
1070
     0
1002
}
  0
MTEXT
  5
D0BF
330
18
100
AcDbEntity
  8
mark
 62
     3
100
AcDbMText
 10
73.60995453265828
 20
86.50260022451329
 30
0.0
 40
2.5
 41
0.0
 71
     5
 72
     1
  1
1
 73
     1
 44
1.0
1001
ACAD
1000
ACAD_MTEXT_DEFINED_HEIGHT_BEGIN
1070
    46
1040
0.0
1000
ACAD_MTEXT_DEFINED_HEIGHT_END
  0
ENDSEC
  0
SECTION
  2
OBJECTS
  0
DICTIONARY
  5
C
330
0
100
AcDbDictionary
281
     1
  3
ACAD_COLOR
350
7873
  3
ACAD_GROUP
350
D
  3
ACAD_LAYOUT
350
5CF3
  3
ACAD_MATERIAL
350
7872
  3
ACAD_MLINESTYLE
350
1B
  3
ACAD_PLOTSETTINGS
350
5CF4
  3
ACAD_PLOTSTYLENAME
350
5CF1
  3
ACAD_TABLESTYLE
350
7874
  3
AcadDim
350
D0B6
  3
ACDBVARIABLEDICTIONARY
350
45D
  0
DICTIONARY
  5
7BFE
330
2
100
AcDbDictionary
280
     1
281
     1
  3
ACAD_LAYERFILTERS
360
7C00
  3
ACLYDICTIONARY
360
7BFF
  0
DICTIONARY
  5
45F
330
18
100
AcDbDictionary
280
     1
281
     1
  3
ACAD_LAYOUTSELFREF
360
5D8B
  3
ACAD_SORTENTS
360
460
  0
DICTIONARY
  5
5D89
330
15
100
AcDbDictionary
280
     1
281
     1
  3
ACAD_LAYOUTSELFREF
360
5D8A
  0
DICTIONARY
  5
7C0B
330
7C0A
100
AcDbDictionary
280
     1
281
     1
  3
AcDbBlockTableRecordData
360
7C0C
  0
DICTIONARY
  5
8E73
330
8E72
100
AcDbDictionary
280
     1
281
     1
  3
AcDbBlockTableRecordData
360
8E74
  0
DICTIONARY
  5
9D16
330
9D15
100
AcDbDictionary
280
     1
281
     1
  3
AcDbBlockTableRecordData
360
9D17
  0
DICTIONARY
  5
A519
330
A518
100
AcDbDictionary
280
     1
281
     1
  3
AcDbBlockTableRecordData
360
A51A
  0
DICTIONARY
  5
A628
330
A627
100
AcDbDictionary
280
     1
281
     1
  3
AcDbBlockTableRecordData
360
A629
  0
DICTIONARY
  5
7873
102
{ACAD_REACTORS
330
C
102
}
330
C
100
AcDbDictionary
281
     1
  0
DICTIONARY
  5
D
102
{ACAD_REACTORS
330
C
102
}
330
C
100
AcDbDictionary
281
     1
  0
DICTIONARY
  5
5CF3
102
{ACAD_REACTORS
330
C
102
}
330
C
100
AcDbDictionary
281
     1
  3
Model
350
5CF5
  3
配置1
350
5CF6
  0
DICTIONARY
  5
7872
102
{ACAD_REACTORS
330
C
102
}
330
C
100
AcDbDictionary
281
     1
  0
DICTIONARY
  5
1B
102
{ACAD_REACTORS
330
C
102
}
330
C
100
AcDbDictionary
281
     1
  3
STANDARD
350
1C
  0
DICTIONARY
  5
5CF4
102
{ACAD_REACTORS
330
C
102
}
330
C
100
AcDbDictionary
281
     1
  0
ACDBDICTIONARYWDFLT
  5
5CF1
102
{ACAD_REACTORS
330
C
102
}
330
C
100
AcDbDictionary
281
     1
  3
Normal
350
5CF2
100
AcDbDictionaryWithDefault
340
5CF2
  0
DICTIONARY
  5
7874
102
{ACAD_REACTORS
330
C
102
}
330
C
100
AcDbDictionary
281
     1
  3
Standard
350
7875
  0
XRECORD
  5
D0B6
102
{ACAD_REACTORS
330
C
102
}
330
C
100
AcDbXrecord
280
     1
 90
   990106
  3

 60
     0
 61
     0
 62
     1
 63
     3
 64
     0
 65
     0
 66
     0
 67
     3
 68
     1
 69
     0
 70
     0
 71
     0
 72
     0
 40
0.0
170
     0
  0
DICTIONARY
  5
45D
102
{ACAD_REACTORS
330
C
102
}
330
C
100
AcDbDictionary
281
     1
  3
CTABLESTYLE
350
7880
  3
SORTENTS
350
45E
  0
DICTIONARY
  5
7C00
102
{ACAD_REACTORS
330
7BFE
102
}
330
7BFE
100
AcDbDictionary
281
     1
  0
DICTIONARY
  5
7BFF
102
{ACAD_REACTORS
330
7BFE
102
}
330
7BFE
100
AcDbDictionary
281
     1
1001
ACAD
1000
<All
  0
XRECORD
  5
5D8B
102
{ACAD_REACTORS
330
45F
102
}
330
45F
100
AcDbXrecord
280
     1
340
18
  0
SORTENTSTABLE
  5
460
102
{ACAD_REACTORS
330
45F
102
}
330
45F
100
AcDbSortentsTable
330
18
331
CB10
  5
CB12
331
AF81
  5
AF81
331
CB57
  5
CB59
331
CB18
  5
CB1A
331
AF89
  5
AF89
331
AF4A
  5
AF4A
331
C0
  5
CB
331
CEDC
  5
CEDF
331
CB5F
  5
CB61
331
CB20
  5
CB22
331
AF52
  5
AF52
331
CEA5
  5
CEB1
331
CB67
  5
CB6A
331
CB28
  5
CB2A
331
AF5A
  5
AF5A
331
CB30
  5
CB32
331
AF62
  5
AF62
331
CEB5
  5
CEDA
331
CB6F
  5
CB72
331
CB38
  5
CB3A
331
CAF9
  5
CAFB
331
AF6A
  5
AF6A
331
CB77
  5
CB7A
331
CB40
  5
CB42
331
CB01
  5
CB03
331
AF72
  5
AF72
331
D034
  5
CAF4
331
CB48
  5
CB4A
331
CB09
  5
CB0B
331
AF7A
  5
AF7A
331
CECD
  5
CEDC
331
CDCF
  5
CE08
331
CB50
  5
CB52
331
CB11
  5
CB13
331
AF82
  5
AF82
331
CE3E
  5
CEB0
331
CB58
  5
CB5A
331
CB19
  5
CB1B
331
AF8A
  5
AF8A
331
AF4B
  5
AF4B
331
CB60
  5
CB62
331
CB21
  5
CB23
331
AF53
  5
AF53
331
CB29
  5
CB2B
331
AF5B
  5
AF5B
331
CB68
  5
CB6B
331
CB31
  5
CB33
331
AF63
  5
AF63
331
CB70
  5
CB73
331
CB39
  5
CB3B
331
CAFA
  5
CAFC
331
AF6B
  5
AF6B
331
CB78
  5
CB7B
331
CB41
  5
CB43
331
CB02
  5
CB04
331
AF73
  5
AF73
331
CB49
  5
CB4B
331
CB0A
  5
CB0C
331
AF7B
  5
AF7B
331
CB51
  5
CB53
331
AF83
  5
AF83
331
AF44
  5
AF44
331
CB12
  5
CB14
331
CB59
  5
CB5B
331
AF8B
  5
AF8B
331
AF4C
  5
AF4C
331
CB1A
  5
CB1C
331
CDF8
  5
CE15
331
CEDE
  5
CEE0
331
CB61
  5
CB63
331
AF54
  5
AF54
331
CB22
  5
CB24
331
CE08
  5
CE31
331
CEE6
  5
CEE9
331
AF5C
  5
AF5C
331
CB2A
  5
CB2C
331
CB69
  5
CB6C
331
CB32
  5
CB34
331
AF64
  5
AF64
331
CAF3
  5
CAF5
331
CB71
  5
CB74
331
CB3A
  5
CB3C
331
AF6C
  5
AF6C
331
CAFB
  5
CAFD
331
CB79
  5
CB7C
331
CB42
  5
CB44
331
AF74
  5
AF74
331
CB03
  5
CB05
331
CB4A
  5
CB4C
331
AF7C
  5
AF7C
331
CB0B
  5
CB0D
331
CB52
  5
CB54
331
AF84
  5
AF84
331
AF45
  5
AF45
331
CB13
  5
CB15
331
CB5A
  5
CB5C
331
AF8C
  5
AF8C
331
AF4D
  5
AF4D
331
CB1B
  5
CB1D
331
CEDF
  5
CEE6
331
CB62
  5
CB64
331
AF55
  5
AF55
331
CB23
  5
CB25
331
CEE7
  5
CEEA
331
AF5D
  5
AF5D
331
CB2B
  5
CB2D
331
CEB0
  5
CEB2
331
CB6A
  5
CB6D
331
CB33
  5
CB35
331
AF65
  5
AF65
331
CAF4
  5
CAF6
331
CB72
  5
CB75
331
CB3B
  5
CB3D
331
AF6D
  5
AF6D
331
CAFC
  5
CAFE
331
CB7A
  5
CB84
331
CB43
  5
CB45
331
AF75
  5
AF75
331
CB04
  5
CB06
331
CE31
  5
CEAF
331
CB4B
  5
CB4D
331
AF7D
  5
AF7D
331
CB0C
  5
CB0E
331
CB53
  5
CB55
331
AF85
  5
AF85
331
AF46
  5
AF46
331
CB14
  5
CB16
331
CB5B
  5
CB5D
331
CB1C
  5
CB1E
331
AF8D
  5
AF8D
331
AF4E
  5
AF4E
331
CDFA
  5
CE24
331
CEE0
  5
CEE7
331
CB63
  5
CB66
331
CB24
  5
CB26
331
AF56
  5
AF56
331
CB2C
  5
CB2E
331
AF5E
  5
AF5E
331
CEB1
  5
CEB3
331
CB6B
  5
CB6E
331
CB34
  5
CB36
331
CAF5
  5
CAF7
331
AF66
  5
AF66
331
CB73
  5
CB76
331
CB3C
  5
CB3E
331
CAFD
  5
CAFF
331
AF6E
  5
AF6E
331
CB7B
  5
CDCF
331
CB44
  5
CB46
331
CB05
  5
CB07
331
AF76
  5
AF76
331
CB4C
  5
CB4E
331
CB0D
  5
CB0F
331
AF7E
  5
AF7E
331
CB54
  5
CB56
331
CB15
  5
CB17
331
AF86
  5
AF86
331
AF47
  5
AF47
331
CB5C
  5
CB5E
331
CB1D
  5
CB1F
331
AF4F
  5
AF4F
331
AF8E
  5
AF8E
331
CB64
  5
CB67
331
CB25
  5
CB27
331
AF57
  5
AF57
331
CEE9
  5
CEEB
331
CB2D
  5
CB2F
331
AF5F
  5
AF5F
331
CEB2
  5
CEB5
331
CEF9
  5
CFB3
331
CB6C
  5
CB6F
331
CB35
  5
CB37
331
CAF6
  5
CAF8
331
AF67
  5
AF67
331
CB74
  5
CB77
331
CB3D
  5
CB3F
331
CAFE
  5
CB00
331
AF6F
  5
AF6F
331
CB7C
  5
CDF8
331
CB45
  5
CB47
331
CB06
  5
CB08
331
AF77
  5
AF77
331
CB4D
  5
CB4F
331
CB0E
  5
CB10
331
AF7F
  5
AF7F
331
CB55
  5
CB57
331
CB16
  5
CB18
331
AF87
  5
AF87
331
AF48
  5
AF48
331
CEDA
  5
CEDE
331
CB5D
  5
CB5F
331
CB1E
  5
CB20
331
AF8F
  5
AF8F
331
AF50
  5
AF50
331
CB65
  5
CB68
331
CB26
  5
CB28
331
AF58
  5
AF58
331
CEEA
  5
CEF5
331
CB2E
  5
CB30
331
AF60
  5
AF60
331
CEB3
  5
CECD
331
CB6D
  5
CB70
331
CB36
  5
CB38
331
CAF7
  5
CAF9
331
AF68
  5
AF68
331
CE24
  5
CEA5
331
CF1A
  5
CF37
331
CB75
  5
CB78
331
CB3E
  5
CB40
331
CAFF
  5
CB01
331
AF70
  5
AF70
331
CB46
  5
CB48
331
CB07
  5
CB09
331
AF78
  5
AF78
331
CB4E
  5
CB50
331
CB0F
  5
CB11
331
AF80
  5
AF80
331
CB56
  5
CB58
331
CB17
  5
CB19
331
AF88
  5
AF88
331
AF49
  5
AF49
331
CB5E
  5
CB60
331
CB1F
  5
CB21
331
AFC8
  5
AFC8
331
AF51
  5
AF51
331
CB66
  5
CB69
331
CB27
  5
CB29
331
AF59
  5
AF59
331
CEEB
  5
CEFA
331
CB2F
  5
CB31
331
AF61
  5
AF61
331
CE15
  5
CE3E
331
CB6E
  5
CB71
331
CB37
  5
CB39
331
CAF8
  5
CAFA
331
AF69
  5
AF69
331
CB76
  5
CB79
331
CB3F
  5
CB41
331
CB00
  5
CB02
331
AF71
  5
AF71
331
CB47
  5
CB49
331
CB08
  5
CB0A
331
AF79
  5
AF79
331
CB4F
  5
CB51
  0
XRECORD
  5
5D8A
102
{ACAD_REACTORS
330
5D89
102
}
330
5D89
100
AcDbXrecord
280
     1
340
15
  0
DICTIONARY
  5
7C0C
102
{ACAD_REACTORS
330
7C0B
102
}
330
7C0B
100
AcDbDictionary
280
     1
281
     1
  3
Edit
360
7C0D
  0
DICTIONARY
  5
8E74
102
{ACAD_REACTORS
330
8E73
102
}
330
8E73
100
AcDbDictionary
280
     1
281
     1
  3
Edit
360
8E75
  0
DICTIONARY
  5
9D17
102
{ACAD_REACTORS
330
9D16
102
}
330
9D16
100
AcDbDictionary
280
     1
281
     1
  3
Edit
360
9D18
  0
DICTIONARY
  5
A51A
102
{ACAD_REACTORS
330
A519
102
}
330
A519
100
AcDbDictionary
280
     1
281
     1
  3
Edit
360
A51B
  0
DICTIONARY
  5
A629
102
{ACAD_REACTORS
330
A628
102
}
330
A628
100
AcDbDictionary
280
     1
281
     1
  3
Edit
360
A62A
  0
LAYOUT
  5
5CF5
102
{ACAD_REACTORS
330
5CF3
102
}
330
5CF3
100
AcDbPlotSettings
  1

  2
Microsoft Office Document Image Writer
  4
A4
  6

 40
3.174999952316284
 41
3.174999952316284
 42
3.175003051757812
 43
3.17498779296875
 44
210.0579986572266
 45
297.0530090332031
 46
6.853997826576232
 47
5.351510643959045
 48
0.0
 49
0.0
140
95.0
141
140.0
142
2.0
143
1.0
 70
 11940
 72
     1
 73
     0
 74
     4
  7
LIN.ctb
 75
     0
147
1.02454228741782
 76
     0
 77
     2
 78
   300
148
0.0
149
0.0
100
AcDbLayout
  1
Model
 70
     1
 71
     0
 10
0.0
 20
0.0
 11
12.0
 21
9.0
 12
0.0
 22
0.0
 32
0.0
 14
0.0
 24
0.0
 34
0.0
 15
0.0
 25
0.0
 35
0.0
146
0.0
 13
0.0
 23
0.0
 33
0.0
 16
1.0
 26
0.0
 36
0.0
 17
0.0
 27
1.0
 37
0.0
 76
     0
330
18
1001
ACAD_PSEXT
1000
Microsoft Office Document Image Writer
1000
Microsoft Office Document Image Writer Driver
1000
Microsoft Document Imaging Writer Port:
1000

1070
     0
  0
LAYOUT
  5
5CF6
102
{ACAD_REACTORS
330
5CF3
102
}
330
5CF3
100
AcDbPlotSettings
  1

  2
EPSON STYLUS COLOR 440
  4

  6

 40
0.0
 41
0.0
 42
0.0
 43
0.0
 44
0.0
 45
0.0
 46
0.0
 47
0.0
 48
0.0
 49
0.0
140
0.0
141
0.0
142
1.0
143
1.0
 70
   688
 72
     0
 73
     0
 74
     5
  7
LIN.ctb
 75
    16
147
1.0
 76
     0
 77
     2
 78
   300
148
0.0
149
0.0
100
AcDbLayout
  1
ｰtｸm1
 70
     1
 71
     1
 10
0.0
 20
0.0
 11
420.0
 21
297.0
 12
0.0
 22
0.0
 32
0.0
 14
1.000000000000000E+20
 24
1.000000000000000E+20
 34
1.000000000000000E+20
 15
-1.000000000000000E+20
 25
-1.000000000000000E+20
 35
-1.000000000000000E+20
146
0.0
 13
0.0
 23
0.0
 33
0.0
 16
1.0
 26
0.0
 36
0.0
 17
0.0
 27
1.0
 37
0.0
 76
     0
330
15
  0
MLINESTYLE
  5
1C
102
{ACAD_REACTORS
330
1B
102
}
330
1B
100
AcDbMlineStyle
  2
STANDARD
 70
     0
  3

 62
   256
 51
90.0
 52
90.0
 71
     2
 49
0.5
 62
   256
  6
BYLAYER
 49
-0.5
 62
   256
  6
BYLAYER
  0
ACDBPLACEHOLDER
  5
5CF2
102
{ACAD_REACTORS
330
5CF1
102
}
330
5CF1
  0
TABLESTYLE
  5
7875
102
{ACAD_REACTORS
330
7874
102
}
330
7874
100
AcDbTableStyle
  3
Standard
 70
     0
 71
     8
 40
1.5
 41
1.5
280
     0
281
     0
  7
STANDARD
140
4.5
170
     2
 62
     0
 63
     7
283
     0
274
    -2
284
     1
 64
     0
275
    -2
285
     1
 65
     0
276
    -2
286
     1
 66
     0
277
    -2
287
     1
 67
     0
278
    -2
288
     1
 68
     0
279
    -2
289
     1
 69
     0
  7
STANDARD
140
6.0
170
     5
 62
     0
 63
     7
283
     0
274
    -2
284
     1
 64
     0
275
    -2
285
     1
 65
     0
276
    -2
286
     1
 66
     0
277
    -2
287
     1
 67
     0
278
    -2
288
     1
 68
     0
279
    -2
289
     1
 69
     0
  7
STANDARD
140
4.5
170
     5
 62
     0
 63
     7
283
     0
274
    -2
284
     1
 64
     0
275
    -2
285
     1
 65
     0
276
    -2
286
     1
 66
     0
277
    -2
287
     1
 67
     0
278
    -2
288
     1
 68
     0
279
    -2
289
     1
 69
     0
  0
DICTIONARYVAR
  5
7880
102
{ACAD_REACTORS
330
45D
102
}
330
45D
100
DictionaryVariables
280
     0
  1
STANDARD
  0
DICTIONARYVAR
  5
45E
102
{ACAD_REACTORS
330
45D
102
}
330
45D
100
DictionaryVariables
280
     0
  1
127
  0
XRECORD
  5
7C0D
102
{ACAD_REACTORS
330
7C0C
102
}
330
7C0C
100
AcDbXrecord
280
     1
1070
     0
1070
     1
1070
     1
  0
XRECORD
  5
8E75
102
{ACAD_REACTORS
330
8E74
102
}
330
8E74
100
AcDbXrecord
280
     1
1070
     0
1070
     1
1070
     1
  0
XRECORD
  5
9D18
102
{ACAD_REACTORS
330
9D17
102
}
330
9D17
100
AcDbXrecord
280
     1
1070
     0
1070
     1
1070
     1
  0
XRECORD
  5
A51B
102
{ACAD_REACTORS
330
A51A
102
}
330
A51A
100
AcDbXrecord
280
     1
1070
     0
1070
     1
1070
     1
  0
XRECORD
  5
A62A
102
{ACAD_REACTORS
330
A629
102
}
330
A629
100
AcDbXrecord
280
     1
1070
     0
1070
     1
1070
     1
  0
ENDSEC
  0
EOF
