  0
SECTION
  2
HEADER
  9
$ACADVER
  1
AC1018
  9
$ACADMAINTVER
 70
    76
  9
$DWGCODEPAGE
  3
ANSI_932
  9
$INSBASE
 10
0.0
 20
0.0
 30
0.0
  9
$EXTMIN
 10
0.0
 20
0.0
 30
0.0
  9
$EXTMAX
 10
95.0
 20
140.0
 30
1.919191919191921
  9
$LIMMIN
 10
0.0
 20
0.0
  9
$LIMMAX
 10
420.0
 20
297.0
  9
$ORTHOMODE
 70
     1
  9
$REGENMODE
 70
     1
  9
$FILLMODE
 70
     1
  9
$QTEXTMODE
 70
     0
  9
$MIRRTEXT
 70
     1
  9
$LTSCALE
 40
1.0
  9
$ATTMODE
 70
     1
  9
$TEXTSIZE
 40
1.25
  9
$TRACEWID
 40
1.0
  9
$TEXTSTYLE
  7
TXT
  9
$CLAYER
  8
mark
  9
$CELTYPE
  6
BYLAYER
  9
$CECOLOR
 62
   256
  9
$CELTSCALE
 40
1.0
  9
$DISPSILH
 70
     0
  9
$DIMSCALE
 40
1.0
  9
$DIMASZ
 40
1.25
  9
$DIMEXO
 40
0.4
  9
$DIMDLI
 40
0.38
  9
$DIMRND
 40
0.0
  9
$DIMDLE
 40
0.0
  9
$DIMEXE
 40
0.4
  9
$DIMTP
 40
0.0
  9
$DIMTM
 40
0.0
  9
$DIMTXT
 40
1.25
  9
$DIMCEN
 40
0.09
  9
$DIMTSZ
 40
0.0
  9
$DIMTOL
 70
     0
  9
$DIMLIM
 70
     0
  9
$DIMTIH
 70
     0
  9
$DIMTOH
 70
     0
  9
$DIMSE1
 70
     0
  9
$DIMSE2
 70
     0
  9
$DIMTAD
 70
     3
  9
$DIMZIN
 70
     8
  9
$DIMBLK
  1
Open30
  9
$DIMASO
 70
     1
  9
$DIMSHO
 70
     1
  9
$DIMPOST
  1

  9
$DIMAPOST
  1

  9
$DIMALT
 70
     0
  9
$DIMALTD
 70
     2
  9
$DIMALTF
 40
25.4
  9
$DIMLFAC
 40
1.0
  9
$DIMTOFL
 70
     1
  9
$DIMTVP
 40
0.0
  9
$DIMTIX
 70
     0
  9
$DIMSOXD
 70
     0
  9
$DIMSAH
 70
     0
  9
$DIMBLK1
  1

  9
$DIMBLK2
  1

  9
$DIMSTYLE
  2
STANDARD
  9
$DIMCLRD
 70
   256
  9
$DIMCLRE
 70
   256
  9
$DIMCLRT
 70
     3
  9
$DIMTFAC
 40
1.0
  9
$DIMGAP
 40
0.4
  9
$DIMJUST
 70
     0
  9
$DIMSD1
 70
     0
  9
$DIMSD2
 70
     0
  9
$DIMTOLJ
 70
     1
  9
$DIMTZIN
 70
     0
  9
$DIMALTZ
 70
     0
  9
$DIMALTTZ
 70
     0
  9
$DIMUPT
 70
     0
  9
$DIMDEC
 70
     2
  9
$DIMTDEC
 70
     2
  9
$DIMALTU
 70
     2
  9
$DIMALTTD
 70
     2
  9
$DIMTXSTY
  7
STANDARD
  9
$DIMAUNIT
 70
     0
  9
$DIMADEC
 70
     2
  9
$DIMALTRND
 40
0.0
  9
$DIMAZIN
 70
     2
  9
$DIMDSEP
 70
    46
  9
$DIMATFIT
 70
     3
  9
$DIMFRAC
 70
     0
  9
$DIMLDRBLK
  1
Open30
  9
$DIMLUNIT
 70
     2
  9
$DIMLWD
 70
    -2
  9
$DIMLWE
 70
    -2
  9
$DIMTMOVE
 70
     0
  9
$LUNITS
 70
     2
  9
$LUPREC
 70
     2
  9
$SKETCHINC
 40
1.0
  9
$FILLETRAD
 40
1.0
  9
$AUNITS
 70
     0
  9
$AUPREC
 70
     2
  9
$MENU
  1
.
  9
$ELEVATION
 40
0.0
  9
$PELEVATION
 40
0.0
  9
$THICKNESS
 40
0.0
  9
$LIMCHECK
 70
     0
  9
$CHAMFERA
 40
1.5
  9
$CHAMFERB
 40
1.5
  9
$CHAMFERC
 40
1.75
  9
$CHAMFERD
 40
0.0174532925199433
  9
$SKPOLY
 70
     0
  9
$TDCREATE
 40
2451555.620234838
  9
$TDUCREATE
 40
2451555.245234838
  9
$TDUPDATE
 40
2455846.617627408
  9
$TDUUPDATE
 40
2455846.242627408
  9
$TDINDWG
 40
2.5948045718
  9
$TDUSRTIMER
 40
2.5948045718
  9
$USRTIMER
 70
     1
  9
$ANGBASE
 50
0.0
  9
$ANGDIR
 70
     0
  9
$PDMODE
 70
     0
  9
$PDSIZE
 40
0.0
  9
$PLINEWID
 40
0.0
  9
$SPLFRAME
 70
     0
  9
$SPLINETYPE
 70
     6
  9
$SPLINESEGS
 70
     8
  9
$HANDSEED
  5
A1F8
  9
$SURFTAB1
 70
     6
  9
$SURFTAB2
 70
     6
  9
$SURFTYPE
 70
     6
  9
$SURFU
 70
     6
  9
$SURFV
 70
     6
  9
$UCSBASE
  2

  9
$UCSNAME
  2

  9
$UCSORG
 10
0.0
 20
0.0
 30
0.0
  9
$UCSXDIR
 10
1.0
 20
0.0
 30
0.0
  9
$UCSYDIR
 10
0.0
 20
1.0
 30
0.0
  9
$UCSORTHOREF
  2

  9
$UCSORTHOVIEW
 70
     0
  9
$UCSORGTOP
 10
0.0
 20
0.0
 30
0.0
  9
$UCSORGBOTTOM
 10
0.0
 20
0.0
 30
0.0
  9
$UCSORGLEFT
 10
0.0
 20
0.0
 30
0.0
  9
$UCSORGRIGHT
 10
0.0
 20
0.0
 30
0.0
  9
$UCSORGFRONT
 10
0.0
 20
0.0
 30
0.0
  9
$UCSORGBACK
 10
0.0
 20
0.0
 30
0.0
  9
$PUCSBASE
  2

  9
$PUCSNAME
  2

  9
$PUCSORG
 10
0.0
 20
0.0
 30
0.0
  9
$PUCSXDIR
 10
1.0
 20
0.0
 30
0.0
  9
$PUCSYDIR
 10
0.0
 20
1.0
 30
0.0
  9
$PUCSORTHOREF
  2

  9
$PUCSORTHOVIEW
 70
     0
  9
$PUCSORGTOP
 10
0.0
 20
0.0
 30
0.0
  9
$PUCSORGBOTTOM
 10
0.0
 20
0.0
 30
0.0
  9
$PUCSORGLEFT
 10
0.0
 20
0.0
 30
0.0
  9
$PUCSORGRIGHT
 10
0.0
 20
0.0
 30
0.0
  9
$PUCSORGFRONT
 10
0.0
 20
0.0
 30
0.0
  9
$PUCSORGBACK
 10
0.0
 20
0.0
 30
0.0
  9
$USERI1
 70
     0
  9
$USERI2
 70
     0
  9
$USERI3
 70
     0
  9
$USERI4
 70
     0
  9
$USERI5
 70
     0
  9
$USERR1
 40
0.0
  9
$USERR2
 40
0.0
  9
$USERR3
 40
0.0
  9
$USERR4
 40
0.0
  9
$USERR5
 40
0.0
  9
$WORLDVIEW
 70
     1
  9
$SHADEDGE
 70
     3
  9
$SHADEDIF
 70
    70
  9
$TILEMODE
 70
     1
  9
$MAXACTVP
 70
    48
  9
$PINSBASE
 10
0.0
 20
0.0
 30
0.0
  9
$PLIMCHECK
 70
     0
  9
$PEXTMIN
 10
1.000000000000000E+20
 20
1.000000000000000E+20
 30
1.000000000000000E+20
  9
$PEXTMAX
 10
-1.000000000000000E+20
 20
-1.000000000000000E+20
 30
-1.000000000000000E+20
  9
$PLIMMIN
 10
0.0
 20
0.0
  9
$PLIMMAX
 10
420.0
 20
297.0
  9
$UNITMODE
 70
     0
  9
$VISRETAIN
 70
     1
  9
$PLINEGEN
 70
     0
  9
$PSLTSCALE
 70
     1
  9
$TREEDEPTH
 70
  3020
  9
$CMLSTYLE
  2
STANDARD
  9
$CMLJUST
 70
     0
  9
$CMLSCALE
 40
20.0
  9
$PROXYGRAPHICS
 70
     1
  9
$MEASUREMENT
 70
     1
  9
$CELWEIGHT
370
    -1
  9
$ENDCAPS
280
     0
  9
$JOINSTYLE
280
     0
  9
$LWDISPLAY
290
     0
  9
$INSUNITS
 70
     0
  9
$HYPERLINKBASE
  1

  9
$STYLESHEET
  1
LIN.ctb
  9
$XEDIT
290
     1
  9
$CEPSNTYPE
380
     0
  9
$PSTYLEMODE
290
     1
  9
$FINGERPRINTGUID
  2
{1CF51E8A-A506-11D4-A7D9-AF69F5C20846}
  9
$VERSIONGUID
  2
{D199F0B9-A9D4-4232-91BF-908B41D994BA}
  9
$EXTNAMES
290
     1
  9
$PSVPSCALE
 40
0.0
  9
$OLESTARTUP
290
     0
  9
$SORTENTS
280
   127
  9
$INDEXCTL
280
     0
  9
$HIDETEXT
280
     0
  9
$XCLIPFRAME
290
     0
  9
$HALOGAP
280
     0
  9
$OBSCOLOR
 70
   257
  9
$OBSLTYPE
280
     0
  9
$INTERSECTIONDISPLAY
280
     0
  9
$INTERSECTIONCOLOR
 70
   257
  9
$DIMASSOC
280
     1
  9
$PROJECTNAME
  1

  0
ENDSEC
  0
SECTION
  2
CLASSES
  0
CLASS
  1
DICTIONARYVAR
  2
AcDbDictionaryVar
  3
ObjectDBX Classes
 90
        0
 91
        2
280
     0
281
     0
  0
CLASS
  1
SORTENTSTABLE
  2
AcDbSortentsTable
  3
ObjectDBX Classes
 90
        0
 91
        1
280
     0
281
     0
  0
CLASS
  1
ACDBDICTIONARYWDFLT
  2
AcDbDictionaryWithDefault
  3
ObjectDBX Classes
 90
        0
 91
        1
280
     0
281
     0
  0
CLASS
  1
TABLESTYLE
  2
AcDbTableStyle
  3
ObjectDBX Classes
 90
     2047
 91
        1
280
     0
281
     0
  0
ENDSEC
  0
SECTION
  2
TABLES
  0
TABLE
  2
VPORT
  5
8
330
0
100
AcDbSymbolTable
 70
     2
  0
VPORT
  5
A1F7
330
8
100
AcDbSymbolTableRecord
100
AcDbViewportTableRecord
  2
*Active
 70
     0
 10
0.0
 20
0.0
 11
1.0
 21
1.0
 12
122.9983500545468
 22
70.00125946975527
 13
0.0
 23
0.0
 14
10.0
 24
10.0
 15
10.0
 25
10.0
 16
0.0
 26
0.0
 36
1.0
 17
0.0
 27
0.0
 37
0.0
 40
141.7396291792883
 41
2.47104247104247
 42
50.0
 43
0.0
 44
0.0
 50
0.0
 51
0.0
 71
     0
 72
 20000
 73
     1
 74
     1
 75
     0
 76
     0
 77
     0
 78
     0
281
     0
 65
     1
110
0.0
120
0.0
130
0.0
111
1.0
121
0.0
131
0.0
112
0.0
122
1.0
132
0.0
 79
     0
146
0.0
  0
ENDTAB
  0
TABLE
  2
LTYPE
  5
5
330
0
100
AcDbSymbolTable
 70
     7
  0
LTYPE
  5
12
330
5
100
AcDbSymbolTableRecord
100
AcDbLinetypeTableRecord
  2
BYBLOCK
 70
     0
  3

 72
    65
 73
     0
 40
0.0
  0
LTYPE
  5
13
330
5
100
AcDbSymbolTableRecord
100
AcDbLinetypeTableRecord
  2
BYLAYER
 70
     0
  3

 72
    65
 73
     0
 40
0.0
  0
LTYPE
  5
14
330
5
100
AcDbSymbolTableRecord
100
AcDbLinetypeTableRecord
  2
CONTINUOUS
 70
     0
  3
Solid line
 72
    65
 73
     0
 40
0.0
  0
LTYPE
  5
9D
330
5
100
AcDbSymbolTableRecord
100
AcDbLinetypeTableRecord
  2
CENTERX2
 70
     0
  3
Center (2x) ________  __  ________  __  _____
 72
    65
 73
     4
 40
101.6
 49
63.5
 74
     0
 49
-12.7
 74
     0
 49
12.7
 74
     0
 49
-12.7
 74
     0
  0
LTYPE
  5
A1
330
5
100
AcDbSymbolTableRecord
100
AcDbLinetypeTableRecord
  2
DASHED
 70
     0
  3
Dashed __ __ __ __ __ __ __ __ __ __ __ __ __ _
 72
    65
 73
     2
 40
19.05
 49
12.7
 74
     0
 49
-6.349999999999999
 74
     0
  0
LTYPE
  5
A2
330
5
100
AcDbSymbolTableRecord
100
AcDbLinetypeTableRecord
  2
DASHED2
 70
     0
  3
Dashed (.5x) _ _ _ _ _ _ _ _ _ _ _ _ _ _ _ _ _
 72
    65
 73
     2
 40
9.524999999999998
 49
6.349999999999999
 74
     0
 49
-3.174999999999999
 74
     0
  0
LTYPE
  5
A5
330
5
100
AcDbSymbolTableRecord
100
AcDbLinetypeTableRecord
  2
DIVIDE2
 70
     0
  3
Divide (.5x) __..__..__..__..__..__..__..__.._
 72
    65
 73
     6
 40
15.875
 49
6.349999999999999
 74
     0
 49
-3.174999999999999
 74
     0
 49
0.0
 74
     0
 49
-3.174999999999999
 74
     0
 49
0.0
 74
     0
 49
-3.174999999999999
 74
     0
  0
LTYPE
  5
650B
330
5
100
AcDbSymbolTableRecord
100
AcDbLinetypeTableRecord
  2
CENTER
 70
     0
  3
Center ____ _ ____ _ ____ _ ____ _ ____ _ ____
 72
    65
 73
     4
 40
50.8
 49
31.75
 74
     0
 49
-6.349999999999999
 74
     0
 49
6.349999999999999
 74
     0
 49
-6.349999999999999
 74
     0
  0
LTYPE
  5
650C
330
5
100
AcDbSymbolTableRecord
100
AcDbLinetypeTableRecord
  2
HIDDEN
 70
     0
  3
Hidden __ __ __ __ __ __ __ __ __ __ __ __ __ _
 72
    65
 73
     2
 40
9.524999999999998
 49
6.349999999999999
 74
     0
 49
-3.174999999999999
 74
     0
  0
ENDTAB
  0
TABLE
  2
LAYER
  5
2
102
{ACAD_XDICTIONARY
360
7BFE
102
}
330
0
100
AcDbSymbolTable
 70
     9
  0
LAYER
  5
E
330
2
100
AcDbSymbolTableRecord
100
AcDbLayerTableRecord
  2
0
 70
     0
 62
     7
  6
CONTINUOUS
370
    -3
390
5CF2
  0
LAYER
  5
B9
330
2
100
AcDbSymbolTableRecord
100
AcDbLayerTableRecord
  2
dim
 70
     0
 62
     3
  6
CONTINUOUS
370
    -3
390
5CF2
  0
LAYER
  5
F2
330
2
100
AcDbSymbolTableRecord
100
AcDbLayerTableRecord
  2
DEFPOINTS
 70
     0
 62
     4
  6
CONTINUOUS
290
     0
370
    -3
390
5CF2
  0
LAYER
  5
5F8B
330
2
100
AcDbSymbolTableRecord
100
AcDbLayerTableRecord
  2
mark
 70
     0
 62
     6
  6
CONTINUOUS
370
    -3
390
5CF2
  0
LAYER
  5
644E
330
2
100
AcDbSymbolTableRecord
100
AcDbLayerTableRecord
  2
frame
 70
     0
 62
     9
  6
CONTINUOUS
370
    -3
390
5CF2
  0
LAYER
  5
650D
330
2
100
AcDbSymbolTableRecord
100
AcDbLayerTableRecord
  2
center
 70
     0
 62
     1
  6
CENTER
370
    -3
390
5CF2
  0
LAYER
  5
650E
330
2
100
AcDbSymbolTableRecord
100
AcDbLayerTableRecord
  2
bowle
 70
     0
 62
     4
  6
HIDDEN
370
    -3
390
5CF2
  0
LAYER
  5
650F
330
2
100
AcDbSymbolTableRecord
100
AcDbLayerTableRecord
  2
contour
 70
     0
 62
     2
  6
CONTINUOUS
370
    -3
390
5CF2
  0
LAYER
  5
6510
330
2
100
AcDbSymbolTableRecord
100
AcDbLayerTableRecord
  2
section
 70
     0
 62
     5
  6
CONTINUOUS
370
    -3
390
5CF2
  0
ENDTAB
  0
TABLE
  2
STYLE
  5
3
330
0
100
AcDbSymbolTable
 70
     5
  0
STYLE
  5
F
330
3
100
AcDbSymbolTableRecord
100
AcDbTextStyleTableRecord
  2
STANDARD
 70
     0
 40
0.0
 41
1.0
 50
0.0
 71
     0
 42
2.5
  3
txt
  4

  0
STYLE
  5
BE
330
3
100
AcDbSymbolTableRecord
100
AcDbTextStyleTableRecord
  2
ISOCP3
 70
     0
 40
0.0
 41
1.0
 50
0.0
 71
     0
 42
2.5
  3
isocp3.shx
  4

  0
STYLE
  5
2A37
330
3
100
AcDbSymbolTableRecord
100
AcDbTextStyleTableRecord
  2
TXT
 70
     0
 40
0.0
 41
1.0
 50
0.0
 71
     0
 42
1.25
  3
txt.shx
  4
bigfont.shx
  0
STYLE
  5
5DCB
330
3
100
AcDbSymbolTableRecord
100
AcDbTextStyleTableRecord
  2
LKK
 70
     0
 40
50.0
 41
1.5
 50
0.0
 71
     0
 42
50.0
  3
MS PGothic.ttf
  4

1001
ACAD
1000
MS PGothic
1071
    32818
  0
STYLE
  5
5DCC
330
3
100
AcDbSymbolTableRecord
100
AcDbTextStyleTableRecord
  2
JL
 70
     0
 40
10.0
 41
0.5
 50
0.0
 71
     0
 42
5.0
  3
MS Mincho.ttf
  4

1001
ACAD
1000
MS Mincho
1071
    32785
  0
ENDTAB
  0
TABLE
  2
VIEW
  5
6
330
0
100
AcDbSymbolTable
 70
     0
  0
ENDTAB
  0
TABLE
  2
UCS
  5
7
330
0
100
AcDbSymbolTable
 70
     0
  0
ENDTAB
  0
TABLE
  2
APPID
  5
9
330
0
100
AcDbSymbolTable
 70
    11
  0
APPID
  5
10
330
9
100
AcDbSymbolTableRecord
100
AcDbRegAppTableRecord
  2
ACAD
 70
     0
  0
APPID
  5
7C91
330
9
100
AcDbSymbolTableRecord
100
AcDbRegAppTableRecord
  2
ACAD_DSTYLE_DIMEXT_LENGTH
 70
     0
  0
APPID
  5
7C92
330
9
100
AcDbSymbolTableRecord
100
AcDbRegAppTableRecord
  2
ACAD_DSTYLE_DIMEXT_ENABLED
 70
     0
  0
APPID
  5
7C93
330
9
100
AcDbSymbolTableRecord
100
AcDbRegAppTableRecord
  2
ACAD_DSTYLE_DIMJOGGED_JOGANGLE_SYMBOL
 70
     0
  0
APPID
  5
7C94
330
9
100
AcDbSymbolTableRecord
100
AcDbRegAppTableRecord
  2
ACAD_DSTYLE_DIMARC_LENGTH_SYMBOL
 70
     0
  0
APPID
  5
7F1C
330
9
100
AcDbSymbolTableRecord
100
AcDbRegAppTableRecord
  2
ACAD_EXEMPT_FROM_CAD_STANDARDS
 70
     0
  0
APPID
  5
7F49
330
9
100
AcDbSymbolTableRecord
100
AcDbRegAppTableRecord
  2
ACAD_DSTYLE_DIMTEXT_FILL
 70
     0
  0
APPID
  5
7F4C
330
9
100
AcDbSymbolTableRecord
100
AcDbRegAppTableRecord
  2
ACAD_DSTYLE_DIM_LINETYPE
 70
     0
  0
APPID
  5
7F4D
330
9
100
AcDbSymbolTableRecord
100
AcDbRegAppTableRecord
  2
ACAD_DSTYLE_DIM_EXT1_LINETYPE
 70
     0
  0
APPID
  5
7F4E
330
9
100
AcDbSymbolTableRecord
100
AcDbRegAppTableRecord
  2
ACAD_DSTYLE_DIM_EXT2_LINETYPE
 70
     0
  0
APPID
  5
8C73
330
9
100
AcDbSymbolTableRecord
100
AcDbRegAppTableRecord
  2
ACAD_PSEXT
 70
     0
  0
ENDTAB
  0
TABLE
  2
DIMSTYLE
  5
A
330
0
100
AcDbSymbolTable
 70
     1
100
AcDbDimStyleTable
 71
     1
340
1D
  0
DIMSTYLE
105
1D
102
{ACAD_REACTORS
330
9ED4
330
9EFD
330
9F0A
330
9F17
330
9F26
330
9F33
330
9F79
330
9F89
102
}
330
A
100
AcDbSymbolTableRecord
100
AcDbDimStyleTableRecord
  2
STANDARD
 70
     0
 41
1.25
 42
0.4
 44
0.4
 73
     0
 74
     0
 77
     3
 78
     8
 79
     2
140
1.25
147
0.4
172
     1
176
   256
177
   256
178
     3
179
     2
271
     2
272
     2
340
F
341
7C04
342
7C04
1001
ACAD_DSTYLE_DIMEXT_LENGTH
1070
   378
1040
0.18
1001
ACAD_DSTYLE_DIMEXT_ENABLED
1070
   383
1070
     0
1001
ACAD_DSTYLE_DIMARC_LENGTH_SYMBOL
1070
   379
1070
     0
1001
ACAD_DSTYLE_DIMJOGGED_JOGANGLE_SYMBOL
1070
   384
1040
1.570796326794896
  0
ENDTAB
  0
TABLE
  2
BLOCK_RECORD
  5
1
330
0
100
AcDbSymbolTable
 70
    12
  0
BLOCK_RECORD
  5
18
102
{ACAD_XDICTIONARY
360
45F
102
}
330
1
100
AcDbSymbolTableRecord
100
AcDbBlockTableRecord
  2
*MODEL_SPACE
340
5CF5
  0
BLOCK_RECORD
  5
15
102
{ACAD_XDICTIONARY
360
5D89
102
}
330
1
100
AcDbSymbolTableRecord
100
AcDbBlockTableRecord
  2
*PAPER_SPACE
340
5CF6
  0
BLOCK_RECORD
  5
639D
330
1
100
AcDbSymbolTableRecord
100
AcDbBlockTableRecord
  2
A$C255C26A2
340
0
  0
BLOCK_RECORD
  5
7C04
330
1
100
AcDbSymbolTableRecord
100
AcDbBlockTableRecord
  2
_Open30
340
0
102
{BLKREFS
331
A0E8
331
A0E9
331
A0F1
331
A0F2
331
A0FA
331
A0FB
331
A105
331
A106
331
A10E
331
A10F
331
A117
331
A118
331
A120
331
A127
331
A128
102
}
  0
BLOCK_RECORD
  5
7C0A
102
{ACAD_XDICTIONARY
360
7C0B
102
}
330
1
100
AcDbSymbolTableRecord
100
AcDbBlockTableRecord
  2
A
340
0
310
2800000020000000200000000100080000000000000400000000000000000000000000000000000000000000000080000080000000808000800000008000800080800000C0C0C000C0DCC000F0CAA6000020400000206000002080000020A0000020C0000020E00000400000004020000040400000406000004080000040A0
310
000040C0000040E00000600000006020000060400000606000006080000060A0000060C0000060E00000800000008020000080400000806000008080000080A0000080C0000080E00000A0000000A0200000A0400000A0600000A0800000A0A00000A0C00000A0E00000C0000000C0200000C0400000C0600000C0800000C0
310
A00000C0C00000C0E00000E0000000E0200000E0400000E0600000E0800000E0A00000E0C00000E0E00040000000400020004000400040006000400080004000A0004000C0004000E00040200000402020004020400040206000402080004020A0004020C0004020E000404000004040200040404000404060004040800040
310
40A0004040C0004040E00040600000406020004060400040606000406080004060A0004060C0004060E00040800000408020004080400040806000408080004080A0004080C0004080E00040A0000040A0200040A0400040A0600040A0800040A0A00040A0C00040A0E00040C0000040C0200040C0400040C0600040C08000
310
40C0A00040C0C00040C0E00040E0000040E0200040E0400040E0600040E0800040E0A00040E0C00040E0E00080000000800020008000400080006000800080008000A0008000C0008000E00080200000802020008020400080206000802080008020A0008020C0008020E00080400000804020008040400080406000804080
310
008040A0008040C0008040E00080600000806020008060400080606000806080008060A0008060C0008060E00080800000808020008080400080806000808080008080A0008080C0008080E00080A0000080A0200080A0400080A0600080A0800080A0A00080A0C00080A0E00080C0000080C0200080C0400080C0600080C0
310
800080C0A00080C0C00080C0E00080E0000080E0200080E0400080E0600080E0800080E0A00080E0C00080E0E000C0000000C0002000C0004000C0006000C0008000C000A000C000C000C000E000C0200000C0202000C0204000C0206000C0208000C020A000C020C000C020E000C0400000C0402000C0404000C0406000C0
310
408000C040A000C040C000C040E000C0600000C0602000C0604000C0606000C0608000C060A000C060C000C060E000C0800000C0802000C0804000C0806000C0808000C080A000C080C000C080E000C0A00000C0A02000C0A04000C0A06000C0A08000C0A0A000C0A0C000C0A0E000C0C00000C0C02000C0C04000C0C06000
310
C0C08000C0C0A000F0FBFF00A4A0A000808080000000FF0000FF000000FFFF00FF000000FF00FF00FFFF0000FFFFFF0000000000000000000000000000000000000000000000000000000000000000000000000000000000000000000000000000000000000000000000000000000000000000000000000000000000000000
310
00000000000000000000000000000000000000000000000000000000000000000000000000000000000000000000000000000000000000000000000000000000000000000000000000000000000000000000000000000000000000000000000000000000000000000000000000000000000000000000000000000000000000
310
00000000000000000000000000000000000000000000000000000000000000000000000000000000000000000000000000000000000000000000000000000000000000000000000000000000000000000000000000000000000000000000000000000000000000000000000000000000000000000000000000000000000000
310
000000000000FDFDFDFDFDFDFDFDFDFDFDFD0000FD0000000000000000000000000000000000FD0000FA0000000000FA00FD0000FDFD00000000000000000000000000000000FD0000FA0000000000FA00FD0000FDFDFD000000000000000000000000000000FD0000FA0000000000FA00FD0000FDFDFDFD00000000000000
310
00000000000000FD0000FAFAFAFAFAFAFA00FD0000FDFDFDFDFD00000000000000000000000000FD000000FA00000000FA00FD0000FDFDFDFDFDFDFDFDFDFDFDFDFDFDFDFDFDFDFD000000FA000000FA0000FD0000FDFDFDFDFD00000000000000000000000000FD00000000FA0000FA0000FD0000FDFDFDFD000000000000
310
0000000000000000FD00000000FA00FA000000FD0000FDFD00000000000000000000000000000000FD0000000000FAFA000000FD0000FD0000000000000000000000000000000000FD0000000000FA00000000FD0000000000000000000000000000000000000000FDFDFDFDFDFDFDFDFDFDFDFD0000000000000000000000
310
00000000000000000000000000000000000000000000000000000000000000000000000000000000000000000000000000000000000000000000000000000000000000000000000000000000000000000000000000000000000000000000000000000000000000000000000000000000000000000000000000000000000000
310
00000000000000000000000000000000000000000000000000000000000000000000000000000000000000000000000000000000000000000000000000000000000000000000000000000000000000000000000000000000000000000000000000000000000000000000000000000000000000000000000000000000000000
310
0000000000000000000000000000000000000000000000000000000000000000000000000000000000000000000000000000000000000000
  0
BLOCK_RECORD
  5
8E72
102
{ACAD_XDICTIONARY
360
8E73
102
}
330
1
100
AcDbSymbolTableRecord
100
AcDbBlockTableRecord
  2
LS
340
0
310
2800000020000000200000000100080000000000000400000000000000000000000000000000000000000000000080000080000000808000800000008000800080800000C0C0C000C0DCC000F0CAA6000020400000206000002080000020A0000020C0000020E00000400000004020000040400000406000004080000040A0
310
000040C0000040E00000600000006020000060400000606000006080000060A0000060C0000060E00000800000008020000080400000806000008080000080A0000080C0000080E00000A0000000A0200000A0400000A0600000A0800000A0A00000A0C00000A0E00000C0000000C0200000C0400000C0600000C0800000C0
310
A00000C0C00000C0E00000E0000000E0200000E0400000E0600000E0800000E0A00000E0C00000E0E00040000000400020004000400040006000400080004000A0004000C0004000E00040200000402020004020400040206000402080004020A0004020C0004020E000404000004040200040404000404060004040800040
310
40A0004040C0004040E00040600000406020004060400040606000406080004060A0004060C0004060E00040800000408020004080400040806000408080004080A0004080C0004080E00040A0000040A0200040A0400040A0600040A0800040A0A00040A0C00040A0E00040C0000040C0200040C0400040C0600040C08000
310
40C0A00040C0C00040C0E00040E0000040E0200040E0400040E0600040E0800040E0A00040E0C00040E0E00080000000800020008000400080006000800080008000A0008000C0008000E00080200000802020008020400080206000802080008020A0008020C0008020E00080400000804020008040400080406000804080
310
008040A0008040C0008040E00080600000806020008060400080606000806080008060A0008060C0008060E00080800000808020008080400080806000808080008080A0008080C0008080E00080A0000080A0200080A0400080A0600080A0800080A0A00080A0C00080A0E00080C0000080C0200080C0400080C0600080C0
310
800080C0A00080C0C00080C0E00080E0000080E0200080E0400080E0600080E0800080E0A00080E0C00080E0E000C0000000C0002000C0004000C0006000C0008000C000A000C000C000C000E000C0200000C0202000C0204000C0206000C0208000C020A000C020C000C020E000C0400000C0402000C0404000C0406000C0
310
408000C040A000C040C000C040E000C0600000C0602000C0604000C0606000C0608000C060A000C060C000C060E000C0800000C0802000C0804000C0806000C0808000C080A000C080C000C080E000C0A00000C0A02000C0A04000C0A06000C0A08000C0A0A000C0A0C000C0A0E000C0C00000C0C02000C0C04000C0C06000
310
C0C08000C0C0A000F0FBFF00A4A0A000808080000000FF0000FF000000FFFF00FF000000FF00FF00FFFF0000FFFFFF00000000000000000000000000000000000000000000000000000000000000000000000000000000000000FBFBFEFBFEFBFBFEFBFEFBFB00000000000000000000000000000000000000FBFBFBFEFBFE
310
FBFBFEFBFEFBFBFB000000000000000000000000000000000000FB0000FE00FE0000FE00FE0000FB000000000000000000000000000000000000FB0000FE00FE0000FE00FE0000FB000000000000000000000000000000000000FB0000FEFEFEFEFEFEFEFE0000FB000000000000000000000000000000000000FB000000FE
310
FE0000FEFE000000FB000000000000000000000000000000000000FB0000000000FEFE0000000000FB000000000000000000000000000000000000FBFBFBFEFBFBFBFBFBFBFEFBFBFB000000000000000000000000000000000000000000FBFE0000000000FE000000000000000000000000000000000000000000000000FB
310
FBFBFBFBFBFEFB000000000000000000000000000000000000000000000000FBFE00000000FEFB000000000000000000000000000000000000000000000000FBFE00000000FEFB000000000000000000000000000000000000000000000000FBFE00000000FEFB000000000000000000000000000000000000000000000000
310
FBFE00000000FEFB000000000000000000000000000000000000000000000000FBFE00000000FEFB000000000000000000000000000000000000000000000000FBFE00000000FEFB000000000000000000000000000000000000000000000000FBFE00000000FEFB0000000000000000000000000000000000000000000000
310
00FBFE00000000FEFB000000000000000000000000000000000000000000000000FBFE00000000FEFB000000000000000000000000000000000000000000000000FBFE00000000FEFB000000000000000000000000000000000000000000000000FBFE00000000FEFB00000000000000000000000000000000000000000000
310
0000FBFE00000000FEFB000000000000000000000000000000000000000000000000FBFE00000000FEFB000000000000000000000000000000000000000000000000FBFE00000000FEFB000000000000000000000000000000000000000000000000FBFE00000000FEFB000000000000000000000000000000000000000000
310
000000FBFE00000000FEFB000000000000000000000000000000000000000000000000FBFE00000000FEFB000000000000000000000000000000000000000000000000FBFEFBFBFBFBFEFB00000000000000000000000000000000000000000000000000FE00000000FEFB0000000000000000000000000000000000000000
310
0000000000FBFBFBFBFBFB000000000000000000000000000000000000000000000000000000000000000000000000000000000000000000
102
{BLKREFS
331
9AEC
102
}
  0
BLOCK_RECORD
  5
9ED5
330
1
100
AcDbSymbolTableRecord
100
AcDbBlockTableRecord
  2
*D4
340
0
  0
BLOCK_RECORD
  5
9EFE
330
1
100
AcDbSymbolTableRecord
100
AcDbBlockTableRecord
  2
*D5
340
0
  0
BLOCK_RECORD
  5
9F0B
330
1
100
AcDbSymbolTableRecord
100
AcDbBlockTableRecord
  2
*D6
340
0
  0
BLOCK_RECORD
  5
9F18
330
1
100
AcDbSymbolTableRecord
100
AcDbBlockTableRecord
  2
*D7
340
0
  0
BLOCK_RECORD
  5
9F27
330
1
100
AcDbSymbolTableRecord
100
AcDbBlockTableRecord
  2
*D8
340
0
  0
BLOCK_RECORD
  5
9F34
330
1
100
AcDbSymbolTableRecord
100
AcDbBlockTableRecord
  2
*D9
340
0
  0
BLOCK_RECORD
  5
9F7A
330
1
100
AcDbSymbolTableRecord
100
AcDbBlockTableRecord
  2
*D10
340
0
  0
BLOCK_RECORD
  5
9F8A
330
1
100
AcDbSymbolTableRecord
100
AcDbBlockTableRecord
  2
*D11
340
0
  0
ENDTAB
  0
ENDSEC
  0
SECTION
  2
BLOCKS
  0
BLOCK
  5
19
330
18
100
AcDbEntity
  8
0
100
AcDbBlockBegin
  2
*MODEL_SPACE
 70
     0
 10
0.0
 20
0.0
 30
0.0
  3
*MODEL_SPACE
  1

  0
ENDBLK
  5
1A
330
18
100
AcDbEntity
  8
0
100
AcDbBlockEnd
  0
BLOCK
  5
16
330
15
100
AcDbEntity
 67
     1
  8
0
100
AcDbBlockBegin
  2
*PAPER_SPACE
 70
     0
 10
0.0
 20
0.0
 30
0.0
  3
*PAPER_SPACE
  1

  0
ENDBLK
  5
17
330
15
100
AcDbEntity
 67
     1
  8
0
100
AcDbBlockEnd
  0
BLOCK
  5
63A1
330
639D
100
AcDbEntity
  8
0
100
AcDbBlockBegin
  2
A$C255C26A2
 70
     0
 10
0.0
 20
0.0
 30
0.0
  3
A$C255C26A2
  1

  0
LWPOLYLINE
  5
639E
330
639D
100
AcDbEntity
  8
0
100
AcDbPolyline
 90
        3
 70
     1
 43
0.0
 10
7.014806023851633
 20
0.0000006939811783
 10
5.611844869720698
 20
2.430000693981241
 10
8.417767177982568
 20
2.430000693981241
  0
LWPOLYLINE
  5
639F
330
639D
100
AcDbEntity
  8
0
100
AcDbPolyline
 90
        3
 70
     1
 43
0.0
 10
4.20888371558999
 20
0.0000006939811783
 10
2.805922561459283
 20
2.430000693981241
 10
5.611844869720698
 20
2.430000693981241
  0
LWPOLYLINE
  5
63A0
330
639D
100
AcDbEntity
  8
0
100
AcDbPolyline
 90
        3
 70
     1
 43
0.0
 10
1.402961407328348
 20
0.0000006939811783
 10
0.0000002531974133
 20
2.430000693981241
 10
2.805922561459283
 20
2.430000693981241
  0
ENDBLK
  5
63A2
330
639D
100
AcDbEntity
  8
0
100
AcDbBlockEnd
  0
BLOCK
  5
7C05
330
7C04
100
AcDbEntity
  8
0
100
AcDbBlockBegin
  2
_Open30
 70
     0
 10
0.0
 20
0.0
 30
0.0
  3
_Open30
  1

  0
LINE
  5
7C06
330
7C04
100
AcDbEntity
  8
0
  6
ByBlock
 62
     0
370
    -2
100
AcDbLine
 10
-1.0
 20
0.26794919
 30
0.0
 11
0.0
 21
0.0
 31
0.0
  0
LINE
  5
7C07
330
7C04
100
AcDbEntity
  8
0
  6
ByBlock
 62
     0
370
    -2
100
AcDbLine
 10
0.0
 20
0.0
 30
0.0
 11
-1.0
 21
-0.26794919
 31
0.0
  0
LINE
  5
7C08
330
7C04
100
AcDbEntity
  8
0
  6
ByBlock
 62
     0
370
    -2
100
AcDbLine
 10
0.0
 20
0.0
 30
0.0
 11
-1.0
 21
0.0
 31
0.0
  0
ENDBLK
  5
7C09
330
7C04
100
AcDbEntity
  8
0
100
AcDbBlockEnd
  0
BLOCK
  5
7C0E
330
7C0A
100
AcDbEntity
  8
0
100
AcDbBlockBegin
  2
A
 70
     0
 10
0.0
 20
0.0
 30
0.0
  3
A
  1

  0
MTEXT
  5
7C0F
330
7C0A
100
AcDbEntity
  8
mark
 62
     3
100
AcDbMText
 10
10.65641897020822
 20
-5.596245361730467
 30
0.0
 40
2.5
 41
0.0
 71
     5
 72
     1
  1
A
 73
     1
 44
1.0
1001
ACAD
1000
ACAD_MTEXT_DEFINED_HEIGHT_BEGIN
1070
    46
1040
0.0
1000
ACAD_MTEXT_DEFINED_HEIGHT_END
  0
LWPOLYLINE
  5
7C10
330
7C0A
100
AcDbEntity
  8
mark
100
AcDbPolyline
 90
        4
 70
     1
 43
0.0
 10
9.07926800414657
 20
-7.141145101782569
 10
12.07926800414657
 20
-7.141145101782569
 10
12.07926800414657
 20
-4.141145101782569
 10
9.07926800414657
 20
-4.141145101782569
  0
HATCH
  5
7C11
330
7C0A
100
AcDbEntity
  8
mark
100
AcDbHatch
 10
0.0
 20
0.0
 30
0.0
210
0.0
220
0.0
230
1.0
  2
SOLID
 70
     1
 71
     0
 91
        1
 92
        7
 72
     0
 73
     1
 93
        3
 10
5.32926800414657
 20
-5.641145101782569
 10
4.07926800414657
 20
-4.391145101782541
 10
4.07926800414657
 20
-6.891145101782541
 97
        0
 75
     0
 76
     1
 47
0.0398277943677868
 98
        1
 10
4.589689734415287
 20
-5.732163331855076
450
        0
451
        0
460
0.0
461
0.0
452
        1
462
1.0
453
        2
463
0.0
 63
     5
421
      255
463
1.0
 63
     7
421
 16777215
470
LINEAR
1001
ACAD
1010
0.0
1020
0.0
1030
0.0
  0
LINE
  5
7C12
330
7C0A
100
AcDbEntity
  8
mark
100
AcDbLine
 10
5.32926800414657
 20
-5.641145101782569
 30
0.0
 11
9.07926800414657
 21
-5.641145101782569
 31
0.0
  0
LINE
  5
7C13
330
7C0A
100
AcDbEntity
  8
mark
100
AcDbLine
 10
5.32926800414657
 20
-5.641145101782569
 30
0.0
 11
4.07926800414657
 21
-4.391145101782569
 31
0.0
  0
LINE
  5
7C14
330
7C0A
100
AcDbEntity
  8
mark
100
AcDbLine
 10
5.32926800414657
 20
-5.641145101782569
 30
0.0
 11
4.07926800414657
 21
-6.891145101782569
 31
0.0
  0
ENDBLK
  5
7C15
330
7C0A
100
AcDbEntity
  8
0
100
AcDbBlockEnd
  0
BLOCK
  5
8E76
330
8E72
100
AcDbEntity
  8
0
100
AcDbBlockBegin
  2
LS
 70
     0
 10
0.0
 20
0.0
 30
0.0
  3
LS
  1

  0
LINE
  5
8E78
330
8E72
100
AcDbEntity
  8
contour
100
AcDbLine
 10
310.7457309951603
 20
181.0160360664828
 30
0.0
 11
310.7457309951603
 21
184.7160360664827
 31
0.0
  0
LINE
  5
8E79
330
8E72
100
AcDbEntity
  8
contour
100
AcDbLine
 10
310.7457309951603
 20
184.7160360664827
 30
0.0
 11
303.7457309951603
 21
184.7160360664827
 31
0.0
  0
LINE
  5
8E7A
330
8E72
100
AcDbEntity
  8
contour
100
AcDbLine
 10
308.4457309951603
 20
196.7160360664827
 30
0.0
 11
306.0457309951603
 21
196.7160360664826
 31
0.0
  0
LINE
  5
8E7B
330
8E72
100
AcDbEntity
  8
contour
100
AcDbLine
 10
309.2457309951603
 20
195.9160360664826
 30
0.0
 11
308.4457309951603
 21
196.7160360664826
 31
0.0
  0
LINE
  5
8E7C
330
8E72
100
AcDbEntity
  8
contour
100
AcDbLine
 10
303.7457309951603
 20
184.7160360664827
 30
0.0
 11
303.7457309951603
 21
181.0160360664827
 31
0.0
  0
LINE
  5
8E7D
330
8E72
100
AcDbEntity
  8
contour
100
AcDbLine
 10
304.0457309951603
 20
180.7160360664827
 30
0.0
 11
310.4457309951603
 21
180.7160360664828
 31
0.0
  0
LINE
  5
8E7E
330
8E72
100
AcDbEntity
  8
contour
100
AcDbLine
 10
310.7457309951603
 20
181.0160360664828
 30
0.0
 11
310.4457309951603
 21
180.7160360664828
 31
0.0
  0
LINE
  5
8E7F
330
8E72
100
AcDbEntity
  8
contour
100
AcDbLine
 10
303.7457309951603
 20
181.0160360664827
 30
0.0
 11
304.0457309951603
 21
180.7160360664827
 31
0.0
  0
LINE
  5
8E80
330
8E72
100
AcDbEntity
  8
contour
100
AcDbLine
 10
309.2457309951603
 20
184.7160360664826
 30
0.0
 11
309.2457309951603
 21
195.9160360664827
 31
0.0
  0
LINE
  5
8E81
330
8E72
100
AcDbEntity
  8
contour
100
AcDbLine
 10
305.2457309951603
 20
184.7160360664826
 30
0.0
 11
305.2457309951603
 21
195.9160360664827
 31
0.0
  0
LINE
  5
8E82
330
8E72
100
AcDbEntity
  8
contour
100
AcDbLine
 10
306.0457309951603
 20
196.7160360664826
 30
0.0
 11
305.2457309951603
 21
195.9160360664826
 31
0.0
  0
LINE
  5
8E83
330
8E72
100
AcDbEntity
  8
contour
100
AcDbLine
 10
309.2457309951603
 20
195.9160360664827
 30
0.0
 11
305.2457309951603
 21
195.9160360664827
 31
0.0
  0
LINE
  5
8E84
330
8E72
100
AcDbEntity
  8
contour
 62
     4
100
AcDbLine
 10
308.8667309951603
 20
185.3724833225513
 30
0.0
 11
308.8667309951603
 21
196.2950360664826
 31
0.0
  0
LINE
  5
8E85
330
8E72
100
AcDbEntity
  8
contour
 62
     4
100
AcDbLine
 10
305.6247309951603
 20
185.3724833225513
 30
0.0
 11
305.6247309951603
 21
196.2950360664826
 31
0.0
  0
LINE
  5
8E86
330
8E72
100
AcDbEntity
  8
contour
100
AcDbLine
 10
310.7457309951603
 20
181.0160360664828
 30
0.0
 11
303.7457309951603
 21
181.0160360664828
 31
0.0
  0
LINE
  5
8E87
330
8E72
100
AcDbEntity
  8
bowle
 48
0.1
100
AcDbLine
 10
308.1117563989447
 20
180.7160360664827
 30
0.0
 11
308.1117563989447
 21
182.9160360664827
 31
0.0
  0
LINE
  5
8E88
330
8E72
100
AcDbEntity
  8
bowle
 48
0.1
100
AcDbLine
 10
308.9777818027293
 20
180.7160360664827
 30
0.0
 11
308.9777818027293
 21
182.9160360664827
 31
0.0
  0
LINE
  5
8E89
330
8E72
100
AcDbEntity
  8
bowle
 48
0.1
100
AcDbLine
 10
306.3797055913759
 20
180.7160360664827
 30
0.0
 11
306.3797055913759
 21
182.9160360664826
 31
0.0
  0
LINE
  5
8E8A
330
8E72
100
AcDbEntity
  8
bowle
 48
0.1
100
AcDbLine
 10
305.5136801875914
 20
180.7160360664827
 30
0.0
 11
305.5136801875914
 21
182.9160360664826
 31
0.0
  0
LINE
  5
8E8B
330
8E72
100
AcDbEntity
  8
bowle
 48
0.1
100
AcDbLine
 10
308.9777818027292
 20
182.9160360664827
 30
0.0
 11
305.5136801875914
 21
182.9160360664827
 31
0.0
  0
LINE
  5
8E8C
330
8E72
100
AcDbEntity
  8
bowle
 48
0.1
100
AcDbLine
 10
305.5136801875914
 20
182.9160360664826
 30
0.0
 11
307.2457309951603
 21
183.9160360664826
 31
0.0
  0
LINE
  5
8E8D
330
8E72
100
AcDbEntity
  8
bowle
 48
0.1
100
AcDbLine
 10
308.9777818027292
 20
182.9160360664826
 30
0.0
 11
307.2457309951603
 21
183.9160360664826
 31
0.0
  0
LINE
  5
8E8E
330
8E72
100
AcDbEntity
  8
contour
 62
     4
100
AcDbLine
 10
305.6247309951603
 20
185.3724833225513
 30
0.0
 11
305.2457309951603
 21
184.7160360664826
 31
0.0
  0
LINE
  5
8E8F
330
8E72
100
AcDbEntity
  8
contour
100
AcDbLine
 10
305.2457309951603
 20
185.3724833225513
 30
0.0
 11
309.2457309951603
 21
185.3724833225513
 31
0.0
  0
LINE
  5
8E90
330
8E72
100
AcDbEntity
  8
contour
 62
     4
100
AcDbLine
 10
309.2457309951603
 20
184.7160360664827
 30
0.0
 11
308.8667309951603
 21
185.3724833225513
 31
0.0
  0
ENDBLK
  5
8E77
330
8E72
100
AcDbEntity
  8
0
100
AcDbBlockEnd
  0
BLOCK
  5
9EDF
330
9ED5
100
AcDbEntity
  8
0
100
AcDbBlockBegin
  2
*D4
 70
     1
 10
0.0
 20
0.0
 30
0.0
  3
*D4
  1

  0
LINE
  5
A0E5
330
9ED5
100
AcDbEntity
  8
mark
370
    -2
100
AcDbLine
 10
26.5
 20
59.11243388223496
 30
0.0
 11
26.5
 21
65.40155035635186
 31
0.0
  0
LINE
  5
A0E6
330
9ED5
100
AcDbEntity
  8
mark
370
    -2
100
AcDbLine
 10
68.50000000000003
 20
59.11243388223495
 30
0.0
 11
68.50000000000003
 21
65.40155035635186
 31
0.0
  0
LINE
  5
A0E7
330
9ED5
100
AcDbEntity
  8
mark
370
    -2
100
AcDbLine
 10
27.75
 20
65.00155035635185
 30
0.0
 11
67.25000000000003
 21
65.00155035635185
 31
0.0
  0
INSERT
  5
A0E8
330
9ED5
100
AcDbEntity
  8
mark
370
    -2
100
AcDbBlockReference
  2
_Open30
 10
26.5
 20
65.00155035635185
 30
0.0
 41
1.25
 42
1.25
 43
1.25
 50
180.0
  0
INSERT
  5
A0E9
330
9ED5
100
AcDbEntity
  8
mark
370
    -2
100
AcDbBlockReference
  2
_Open30
 10
68.50000000000003
 20
65.00155035635185
 30
0.0
 41
1.25
 42
1.25
 43
1.25
  0
MTEXT
  5
A0EA
330
9ED5
100
AcDbEntity
  8
mark
 62
     3
100
AcDbMText
 10
47.50000000000001
 20
66.02655035635186
 30
0.0
 40
1.25
 41
0.0
 71
     5
 72
     1
  1
\A1;%%c42
 73
     1
 44
1.0
  0
POINT
  5
A0EB
330
9ED5
100
AcDbEntity
  8
DEFPOINTS
 62
     0
100
AcDbPoint
 10
26.5
 20
58.71243388223497
 30
0.0
  0
POINT
  5
A0EC
330
9ED5
100
AcDbEntity
  8
DEFPOINTS
 62
     0
100
AcDbPoint
 10
68.50000000000003
 20
58.71243388223495
 30
0.0
  0
POINT
  5
A0ED
330
9ED5
100
AcDbEntity
  8
DEFPOINTS
 62
     0
100
AcDbPoint
 10
68.50000000000003
 20
65.00155035635185
 30
0.0
  0
ENDBLK
  5
9EE0
330
9ED5
100
AcDbEntity
  8
0
100
AcDbBlockEnd
  0
BLOCK
  5
9F08
330
9EFE
100
AcDbEntity
  8
0
100
AcDbBlockBegin
  2
*D5
 70
     1
 10
0.0
 20
0.0
 30
0.0
  3
*D5
  1

  0
LINE
  5
A0EE
330
9EFE
100
AcDbEntity
  8
mark
370
    -2
100
AcDbLine
 10
27.1
 20
59.71243388223498
 30
0.0
 11
23.03592033857004
 21
59.71243388223498
 31
0.0
  0
LINE
  5
A0EF
330
9EFE
100
AcDbEntity
  8
mark
370
    -2
100
AcDbLine
 10
25.1
 20
54.71243388223495
 30
0.0
 11
23.03592033857004
 21
54.71243388223495
 31
0.0
  0
LINE
  5
A0F0
330
9EFE
100
AcDbEntity
  8
mark
370
    -2
100
AcDbLine
 10
23.43592033857005
 20
58.46243388223498
 30
0.0
 11
23.43592033857004
 21
55.96243388223495
 31
0.0
  0
INSERT
  5
A0F1
330
9EFE
100
AcDbEntity
  8
mark
370
    -2
100
AcDbBlockReference
  2
_Open30
 10
23.43592033857005
 20
59.71243388223498
 30
0.0
 41
1.25
 42
1.25
 43
1.25
 50
90.0
  0
INSERT
  5
A0F2
330
9EFE
100
AcDbEntity
  8
mark
370
    -2
100
AcDbBlockReference
  2
_Open30
 10
23.43592033857004
 20
54.71243388223495
 30
0.0
 41
1.25
 42
1.25
 43
1.25
 50
270.0
  0
MTEXT
  5
A0F3
330
9EFE
100
AcDbEntity
  8
mark
 62
     3
100
AcDbMText
 10
22.41092033857004
 20
57.21243388223498
 30
0.0
 40
1.25
 41
0.0
 71
     5
 72
     1
  1
\A1;5
 11
0.0000000000000001
 21
1.0
 31
0.0
 73
     1
 44
1.0
  0
POINT
  5
A0F4
330
9EFE
100
AcDbEntity
  8
DEFPOINTS
 62
     0
100
AcDbPoint
 10
27.5
 20
59.71243388223498
 30
0.0
  0
POINT
  5
A0F5
330
9EFE
100
AcDbEntity
  8
DEFPOINTS
 62
     0
100
AcDbPoint
 10
25.5
 20
54.71243388223495
 30
0.0
  0
POINT
  5
A0F6
330
9EFE
100
AcDbEntity
  8
DEFPOINTS
 62
     0
100
AcDbPoint
 10
23.43592033857004
 20
54.71243388223495
 30
0.0
  0
ENDBLK
  5
9F09
330
9EFE
100
AcDbEntity
  8
0
100
AcDbBlockEnd
  0
BLOCK
  5
9F15
330
9F0B
100
AcDbEntity
  8
0
100
AcDbBlockBegin
  2
*D6
 70
     1
 10
0.0
 20
0.0
 30
0.0
  3
*D6
  1

  0
LINE
  5
A0F7
330
9F0B
100
AcDbEntity
  8
mark
370
    -2
100
AcDbLine
 10
67.90000000000003
 20
59.71243388223495
 30
0.0
 11
73.57667010381661
 21
59.71243388223495
 31
0.0
  0
LINE
  5
A0F8
330
9F0B
100
AcDbEntity
  8
mark
370
    -2
100
AcDbLine
 10
67.9
 20
48.81243388223497
 30
0.0
 11
73.57667010381661
 21
48.81243388223497
 31
0.0
  0
LINE
  5
A0F9
330
9F0B
100
AcDbEntity
  8
mark
370
    -2
100
AcDbLine
 10
73.17667010381661
 20
58.46243388223495
 30
0.0
 11
73.17667010381661
 21
50.06243388223497
 31
0.0
  0
INSERT
  5
A0FA
330
9F0B
100
AcDbEntity
  8
mark
370
    -2
100
AcDbBlockReference
  2
_Open30
 10
73.17667010381661
 20
59.71243388223495
 30
0.0
 41
1.25
 42
1.25
 43
1.25
 50
90.0
  0
INSERT
  5
A0FB
330
9F0B
100
AcDbEntity
  8
mark
370
    -2
100
AcDbBlockReference
  2
_Open30
 10
73.17667010381661
 20
48.81243388223497
 30
0.0
 41
1.25
 42
1.25
 43
1.25
 50
270.0
  0
MTEXT
  5
A0FC
330
9F0B
100
AcDbEntity
  8
mark
 62
     3
100
AcDbMText
 10
72.15167010381659
 20
54.26243388223497
 30
0.0
 40
1.25
 41
0.0
 71
     5
 72
     1
  1
\A1;10.9
 11
0.0000000000000001
 21
1.0
 31
0.0
 73
     1
 44
1.0
  0
POINT
  5
A0FD
330
9F0B
100
AcDbEntity
  8
DEFPOINTS
 62
     0
100
AcDbPoint
 10
67.50000000000003
 20
59.71243388223495
 30
0.0
  0
POINT
  5
A0FE
330
9F0B
100
AcDbEntity
  8
DEFPOINTS
 62
     0
100
AcDbPoint
 10
67.5
 20
48.81243388223497
 30
0.0
  0
POINT
  5
A0FF
330
9F0B
100
AcDbEntity
  8
DEFPOINTS
 62
     0
100
AcDbPoint
 10
73.17667010381661
 20
48.81243388223497
 30
0.0
  0
ENDBLK
  5
9F16
330
9F0B
100
AcDbEntity
  8
0
100
AcDbBlockEnd
  0
BLOCK
  5
9F24
330
9F18
100
AcDbEntity
  8
0
100
AcDbBlockBegin
  2
*D7
 70
     1
 10
0.0
 20
0.0
 30
0.0
  3
*D7
  1

  0
LINE
  5
A100
330
9F18
100
AcDbEntity
  8
mark
370
    -2
100
AcDbLine
 10
67.9
 20
48.81243388223497
 30
0.0
 11
73.57667010381661
 21
48.81243388223497
 31
0.0
  0
LINE
  5
A101
330
9F18
100
AcDbEntity
  8
mark
370
    -2
100
AcDbLine
 10
67.89999999999998
 20
46.81243388223496
 30
0.0
 11
73.57667010381661
 21
46.81243388223496
 31
0.0
  0
LINE
  5
A102
330
9F18
100
AcDbEntity
  8
mark
370
    -2
100
AcDbLine
 10
73.17667010381661
 20
50.06243388223497
 30
0.0
 11
73.17667010381661
 21
51.31243388223497
 31
0.0
  0
LINE
  5
A103
330
9F18
100
AcDbEntity
  8
mark
370
    -2
100
AcDbLine
 10
73.17667010381661
 20
45.56243388223496
 30
0.0
 11
73.17667010381661
 21
44.31243388223496
 31
0.0
  0
LINE
  5
A104
330
9F18
100
AcDbEntity
  8
mark
370
    -2
100
AcDbLine
 10
73.17667010381661
 20
48.81243388223497
 30
0.0
 11
73.17667010381661
 21
46.81243388223496
 31
0.0
  0
INSERT
  5
A105
330
9F18
100
AcDbEntity
  8
mark
370
    -2
100
AcDbBlockReference
  2
_Open30
 10
73.17667010381661
 20
48.81243388223497
 30
0.0
 41
1.25
 42
1.25
 43
1.25
 50
270.0
  0
INSERT
  5
A106
330
9F18
100
AcDbEntity
  8
mark
370
    -2
100
AcDbBlockReference
  2
_Open30
 10
73.17667010381661
 20
46.81243388223496
 30
0.0
 41
1.25
 42
1.25
 43
1.25
 50
90.0
  0
MTEXT
  5
A107
330
9F18
100
AcDbEntity
  8
mark
 62
     3
100
AcDbMText
 10
72.15167010381659
 20
47.81243388223497
 30
0.0
 40
1.25
 41
0.0
 71
     5
 72
     1
  1
\A1;2
 11
0.0000000000000001
 21
1.0
 31
0.0
 73
     1
 44
1.0
  0
POINT
  5
A108
330
9F18
100
AcDbEntity
  8
DEFPOINTS
 62
     0
100
AcDbPoint
 10
67.5
 20
48.81243388223497
 30
0.0
  0
POINT
  5
A109
330
9F18
100
AcDbEntity
  8
DEFPOINTS
 62
     0
100
AcDbPoint
 10
67.49999999999997
 20
46.81243388223496
 30
0.0
  0
POINT
  5
A10A
330
9F18
100
AcDbEntity
  8
DEFPOINTS
 62
     0
100
AcDbPoint
 10
73.17667010381661
 20
46.81243388223496
 30
0.0
  0
ENDBLK
  5
9F25
330
9F18
100
AcDbEntity
  8
0
100
AcDbBlockEnd
  0
BLOCK
  5
9F31
330
9F27
100
AcDbEntity
  8
0
100
AcDbBlockBegin
  2
*D8
 70
     1
 10
0.0
 20
0.0
 30
0.0
  3
*D8
  1

  0
LINE
  5
A10B
330
9F27
100
AcDbEntity
  8
mark
370
    -2
100
AcDbLine
 10
67.90000000000003
 20
59.71243388223495
 30
0.0
 11
77.07376385319221
 21
59.71243388223495
 31
0.0
  0
LINE
  5
A10C
330
9F27
100
AcDbEntity
  8
mark
370
    -2
100
AcDbLine
 10
67.90000000000003
 20
41.71243388223497
 30
0.0
 11
77.07376385319221
 21
41.71243388223497
 31
0.0
  0
LINE
  5
A10D
330
9F27
100
AcDbEntity
  8
mark
370
    -2
100
AcDbLine
 10
76.67376385319221
 20
58.46243388223495
 30
0.0
 11
76.67376385319221
 21
42.96243388223497
 31
0.0
  0
INSERT
  5
A10E
330
9F27
100
AcDbEntity
  8
mark
370
    -2
100
AcDbBlockReference
  2
_Open30
 10
76.67376385319221
 20
59.71243388223495
 30
0.0
 41
1.25
 42
1.25
 43
1.25
 50
90.0
  0
INSERT
  5
A10F
330
9F27
100
AcDbEntity
  8
mark
370
    -2
100
AcDbBlockReference
  2
_Open30
 10
76.67376385319221
 20
41.71243388223497
 30
0.0
 41
1.25
 42
1.25
 43
1.25
 50
270.0
  0
MTEXT
  5
A110
330
9F27
100
AcDbEntity
  8
mark
 62
     3
100
AcDbMText
 10
75.6487638531922
 20
50.71243388223496
 30
0.0
 40
1.25
 41
0.0
 71
     5
 72
     1
  1
\A1;18%%p0.2
 11
0.0000000000000001
 21
1.0
 31
0.0
 73
     1
 44
1.0
  0
POINT
  5
A111
330
9F27
100
AcDbEntity
  8
DEFPOINTS
 62
     0
100
AcDbPoint
 10
67.50000000000003
 20
59.71243388223495
 30
0.0
  0
POINT
  5
A112
330
9F27
100
AcDbEntity
  8
DEFPOINTS
 62
     0
100
AcDbPoint
 10
67.50000000000003
 20
41.71243388223497
 30
0.0
  0
POINT
  5
A113
330
9F27
100
AcDbEntity
  8
DEFPOINTS
 62
     0
100
AcDbPoint
 10
76.67376385319221
 20
41.71243388223497
 30
0.0
  0
ENDBLK
  5
9F32
330
9F27
100
AcDbEntity
  8
0
100
AcDbBlockEnd
  0
BLOCK
  5
9F3E
330
9F34
100
AcDbEntity
  8
0
100
AcDbBlockBegin
  2
*D9
 70
     1
 10
0.0
 20
0.0
 30
0.0
  3
*D9
  1

  0
LINE
  5
A114
330
9F34
100
AcDbEntity
  8
mark
370
    -2
100
AcDbLine
 10
35.49999999999992
 20
42.0004338822349
 30
0.0
 11
35.49999999999992
 21
34.5308151218591
 31
0.0
  0
LINE
  5
A115
330
9F34
100
AcDbEntity
  8
mark
370
    -2
100
AcDbLine
 10
59.49999999999994
 20
42.00043388223498
 30
0.0
 11
59.49999999999994
 21
34.5308151218591
 31
0.0
  0
LINE
  5
A116
330
9F34
100
AcDbEntity
  8
mark
370
    -2
100
AcDbLine
 10
36.74999999999992
 20
34.9308151218591
 30
0.0
 11
58.24999999999994
 21
34.9308151218591
 31
0.0
  0
INSERT
  5
A117
330
9F34
100
AcDbEntity
  8
mark
370
    -2
100
AcDbBlockReference
  2
_Open30
 10
35.49999999999992
 20
34.9308151218591
 30
0.0
 41
1.25
 42
1.25
 43
1.25
 50
180.0
  0
INSERT
  5
A118
330
9F34
100
AcDbEntity
  8
mark
370
    -2
100
AcDbBlockReference
  2
_Open30
 10
59.49999999999994
 20
34.9308151218591
 30
0.0
 41
1.25
 42
1.25
 43
1.25
  0
MTEXT
  5
A119
330
9F34
100
AcDbEntity
  8
mark
 62
     3
100
AcDbMText
 10
47.49999999999992
 20
35.9558151218591
 30
0.0
 40
1.25
 41
0.0
 71
     5
 72
     1
  1
\A1;M24X1.5P
 73
     1
 44
1.0
  0
POINT
  5
A11A
330
9F34
100
AcDbEntity
  8
DEFPOINTS
 62
     0
100
AcDbPoint
 10
35.49999999999992
 20
42.40043388223489
 30
0.0
  0
POINT
  5
A11B
330
9F34
100
AcDbEntity
  8
DEFPOINTS
 62
     0
100
AcDbPoint
 10
59.49999999999994
 20
42.40043388223498
 30
0.0
  0
POINT
  5
A11C
330
9F34
100
AcDbEntity
  8
DEFPOINTS
 62
     0
100
AcDbPoint
 10
59.49999999999994
 20
34.9308151218591
 30
0.0
  0
ENDBLK
  5
9F3F
330
9F34
100
AcDbEntity
  8
0
100
AcDbBlockEnd
  0
BLOCK
  5
9F81
330
9F7A
100
AcDbEntity
  8
0
100
AcDbBlockBegin
  2
*D10
 70
     1
 10
0.0
 20
0.0
 30
0.0
  3
*D10
  1

  0
LINE
  5
A11D
330
9F7A
100
AcDbEntity
  8
mark
370
    -2
100
AcDbLine
 10
23.28092953892041
 20
38.49336342115514
 30
0.0
 11
25.90900974233033
 21
41.12144362456522
 31
0.0
  0
MTEXT
  5
A11E
330
9F7A
100
AcDbEntity
  8
mark
 62
     3
100
AcDbMText
 10
23.42824345166756
 20
40.09024623533476
 30
0.0
 40
1.25
 41
0.0
 71
     5
 72
     1
  1
\A1;R1
 11
0.7071067811865259
 21
0.7071067811865693
 31
0.0
 73
     1
 44
1.0
  0
LINE
  5
A11F
330
9F7A
100
AcDbEntity
  8
mark
370
    -2
100
AcDbLine
 10
27.49999999999998
 20
42.71243388223497
 30
0.0
 11
26.79289321881349
 21
42.00532710104844
 31
0.0
  0
INSERT
  5
A120
330
9F7A
100
AcDbEntity
  8
mark
370
    -2
100
AcDbBlockReference
  2
_Open30
 10
26.79289321881349
 20
42.00532710104844
 30
0.0
 41
1.25
 42
1.25
 43
1.25
 50
45.00000000000175
  0
POINT
  5
A121
330
9F7A
100
AcDbEntity
  8
DEFPOINTS
 62
     0
100
AcDbPoint
 10
26.79289321881349
 20
42.00532710104844
 30
0.0
  0
POINT
  5
A122
330
9F7A
100
AcDbEntity
  8
DEFPOINTS
 62
     0
100
AcDbPoint
 10
27.49999999999998
 20
42.71243388223497
 30
0.0
  0
ENDBLK
  5
9F82
330
9F7A
100
AcDbEntity
  8
0
100
AcDbBlockEnd
  0
BLOCK
  5
9F93
330
9F8A
100
AcDbEntity
  8
0
100
AcDbBlockBegin
  2
*D11
 70
     1
 10
0.0
 20
0.0
 30
0.0
  3
*D11
  1

  0
LINE
  5
A123
330
9F8A
100
AcDbEntity
  8
mark
370
    -2
100
AcDbLine
 10
77.6690775833848
 20
110.2698531871507
 30
0.0
 11
63.87272599696939
 21
105.062907113751
 31
0.0
  0
LINE
  5
A124
330
9F8A
100
AcDbEntity
  8
mark
370
    -2
100
AcDbLine
 10
31.12727400303056
 20
92.7042917498584
 30
0.0
 11
29.9577935746756
 21
92.26291262971939
 31
0.0
  0
MTEXT
  5
A125
330
9F8A
100
AcDbEntity
  8
mark
 62
     3
100
AcDbMText
 10
72.44990465910321
 20
109.3956325260911
 30
0.0
 40
1.25
 41
0.0
 71
     5
 72
     1
  1
\A1;P.C.D 32.5
 11
0.9355843426839683
 21
0.3531032961112187
 31
0.0
 73
     1
 44
1.0
  0
LINE
  5
A126
330
9F8A
100
AcDbEntity
  8
mark
370
    -2
100
AcDbLine
 10
32.29675443138552
 20
93.14567086999744
 30
0.0
 11
62.70324556861443
 21
104.621527993612
 31
0.0
  0
INSERT
  5
A127
330
9F8A
100
AcDbEntity
  8
mark
370
    -2
100
AcDbBlockReference
  2
_Open30
 10
32.29675443138552
 20
93.14567086999744
 30
0.0
 41
1.25
 42
1.25
 43
1.25
 50
20.67724447871764
  0
INSERT
  5
A128
330
9F8A
100
AcDbEntity
  8
mark
370
    -2
100
AcDbBlockReference
  2
_Open30
 10
62.70324556861443
 20
104.621527993612
 30
0.0
 41
1.25
 42
1.25
 43
1.25
 50
200.6772444787176
  0
POINT
  5
A129
330
9F8A
100
AcDbEntity
  8
DEFPOINTS
 62
     0
100
AcDbPoint
 10
62.70324556861443
 20
104.621527993612
 30
0.0
  0
POINT
  5
A12A
330
9F8A
100
AcDbEntity
  8
DEFPOINTS
 62
     0
100
AcDbPoint
 10
32.29675443138552
 20
93.14567086999744
 30
0.0
  0
ENDBLK
  5
9F94
330
9F8A
100
AcDbEntity
  8
0
100
AcDbBlockEnd
  0
ENDSEC
  0
SECTION
  2
ENTITIES
  0
MTEXT
  5
C0
330
18
100
AcDbEntity
  8
0
100
AcDbMText
 10
41.26970765600413
 20
233.6950877649332
 30
0.0
 40
2.5
 41
0.0
 71
     1
 72
     5
  1

  7
ISOCP3
 73
     1
 44
1.0
  0
LWPOLYLINE
  5
7D6C
330
18
100
AcDbEntity
  8
frame
100
AcDbPolyline
 90
        4
 70
     1
 43
0.0
 10
95.0
 20
140.0
 10
0.0
 20
140.0
 10
0.0
 20
0.0
 10
95.0
 20
0.0
  0
MTEXT
  5
7D6D
330
18
100
AcDbEntity
  8
0
100
AcDbMText
 10
8.549751843445875
 20
9.53802950808307
 30
0.0
 40
2.25
 41
0.0
 71
     1
 72
     5
  1
{\Ftxt,bigfont|c128;林彦旭}
  7
JL
 73
     1
 44
1.0
1001
ACAD
1000
ACAD_MTEXT_DEFINED_HEIGHT_BEGIN
1070
    46
1040
0.0
1000
ACAD_MTEXT_DEFINED_HEIGHT_END
  0
MTEXT
  5
7D6E
330
18
100
AcDbEntity
  8
0
100
AcDbMText
 10
38.97647364614426
 20
14.46789489935338
 30
0.0
 40
2.25
 41
0.0
 71
     1
 72
     5
  1
{\Ftxt,bigfont|c128;2 : 1}
  7
JL
 73
     1
 44
1.0
1001
ACAD
1000
ACAD_MTEXT_DEFINED_HEIGHT_BEGIN
1070
    46
1040
0.0
1000
ACAD_MTEXT_DEFINED_HEIGHT_END
  0
MTEXT
  5
7D6F
330
18
100
AcDbEntity
  8
0
 48
2.0
370
    25
100
AcDbMText
 10
70.1097250232828
 20
1.745010827316946
 30
0.0
 40
2.25
 41
0.0
 71
     5
 72
     1
  1
{\Ftxt,bigfont|c128;N L 4 0 2 6 6}
 73
     1
 44
1.0
1001
ACAD
1000
ACAD_MTEXT_DEFINED_HEIGHT_BEGIN
1070
    46
1040
0.0
1000
ACAD_MTEXT_DEFINED_HEIGHT_END
  0
MTEXT
  5
7D70
330
18
100
AcDbEntity
  8
0
 48
2.0
100
AcDbMText
 10
84.40932320927471
 20
10.88218563911846
 30
0.0
 40
2.159090909090911
 41
0.0
 71
     5
 72
     1
  1
\P{\Ftxt,bigfont|c128;MKR24X1.5P}
 73
     1
 44
1.0
1001
ACAD
1000
ACAD_MTEXT_DEFINED_HEIGHT_BEGIN
1070
    46
1040
0.0
1000
ACAD_MTEXT_DEFINED_HEIGHT_END
  0
MTEXT
  5
7D71
330
18
100
AcDbEntity
  8
0
100
AcDbMText
 10
7.6880338568387
 20
14.18870179917354
 30
0.0
 40
2.25
 41
0.0
 71
     1
 72
     5
  1
{\Ftxt,bigfont|c128;07.09.04}
  7
JL
 73
     1
 44
1.0
1001
ACAD
1000
ACAD_MTEXT_DEFINED_HEIGHT_BEGIN
1070
    46
1040
0.0
1000
ACAD_MTEXT_DEFINED_HEIGHT_END
  0
LINE
  5
7D72
330
18
100
AcDbEntity
  8
0
 62
     7
 48
5.0
100
AcDbLine
 39
1.919191919191921
 10
23.96471206996267
 20
13.82856453508043
 30
0.0
 11
26.52290072143927
 21
14.46811169794961
 31
0.0
  0
MTEXT
  5
7D73
330
18
100
AcDbEntity
  8
0
100
AcDbMText
 10
7.456177741632075
 20
4.621097525024651
 30
0.0
 40
3.0
 41
0.0
 71
     1
 72
     5
  1
\Ftxt.shx,bigfont.shx|c128;日機株式会社
  7
LKK
 73
     1
 44
1.0
  0
LINE
  5
7D74
330
18
100
AcDbEntity
  8
frame
100
AcDbLine
 10
0.0
 20
6.0
 30
0.0
 11
95.0
 21
6.000000000000028
 31
0.0
  0
LINE
  5
7D75
330
18
100
AcDbEntity
  8
frame
100
AcDbLine
 10
0.0
 20
11.0
 30
0.0
 11
46.06060606060611
 21
11.0
 31
0.0
  0
LINE
  5
7D76
330
18
100
AcDbEntity
  8
frame
100
AcDbLine
 10
0.0
 20
16.0
 30
0.0
 11
95.0
 21
16.0
 31
0.0
  0
LINE
  5
7D77
330
18
100
AcDbEntity
  8
frame
100
AcDbLine
 10
6.095386662468996
 20
16.0
 30
0.0
 11
6.095386662468996
 21
6.0
 31
0.0
  0
LINE
  5
7D78
330
18
100
AcDbEntity
  8
frame
100
AcDbLine
 10
15.35353535353533
 20
16.0
 30
0.0
 11
15.35353535353539
 21
6.0
 31
0.0
  0
MTEXT
  5
7D79
330
18
100
AcDbEntity
  8
0
100
AcDbMText
 10
1.415137392110977
 20
14.54095044791415
 30
0.0
 40
2.25
 41
0.0
 71
     1
 72
     5
  1
\Ftxt.shx,bigfont.shx|c128;日 付
  7
JL
 73
     1
 44
1.0
  0
MTEXT
  5
7D7A
330
18
100
AcDbEntity
  8
0
100
AcDbMText
 10
1.485316538719445
 20
9.760819214633187
 30
0.0
 40
2.25
 41
0.0
 71
     1
 72
     5
  1
\Ftxt.shx,bigfont.shx|c128;製 図
  7
JL
 73
     1
 44
1.0
  0
LINE
  5
7D7B
330
18
100
AcDbEntity
  8
0
 62
     7
370
    25
100
AcDbLine
 10
26.52290072143927
 20
11.90992304647298
 30
0.0
 11
26.52290072143927
 21
14.46811169794961
 31
0.0
  0
MTEXT
  5
7D7C
330
18
100
AcDbEntity
  8
0
100
AcDbMText
 10
32.00374426245418
 20
14.56121351896189
 30
0.0
 40
2.25
 41
0.0
 71
     1
 72
     5
  1
\Ftxt.shx,bigfont.shx|c128;尺 度
  7
JL
 73
     1
 44
1.0
  0
LINE
  5
7D7D
330
18
100
AcDbEntity
  8
frame
100
AcDbLine
 10
30.70707070707073
 20
16.0
 30
0.0
 11
30.70707070707073
 21
6.0
 31
0.0
  0
LINE
  5
7D7E
330
18
100
AcDbEntity
  8
0
 62
     7
370
    25
100
AcDbLine
 10
19.8076555113131
 20
11.59444509166317
 30
0.0
 11
19.8076555113131
 21
14.68228996214836
 31
0.0
  0
CIRCLE
  5
7D7F
330
18
100
AcDbEntity
  8
0
 62
     7
100
AcDbCircle
 10
19.8076555113131
 20
13.18901737221125
 30
0.0
 40
1.279094325738339
  0
LINE
  5
7D80
330
18
100
AcDbEntity
  8
0
 62
     7
370
    25
100
AcDbLine
 10
23.59660993459988
 20
13.18901737221131
 30
0.0
 11
26.75256290812121
 21
13.18901737221131
 31
0.0
  0
LINE
  5
7D81
330
18
100
AcDbEntity
  8
0
 62
     7
100
AcDbLine
 10
23.96471206996267
 20
12.54947020934213
 30
0.0
 11
26.52290072143927
 21
11.90992304647298
 31
0.0
  0
LINE
  5
7D82
330
18
100
AcDbEntity
  8
frame
100
AcDbLine
 10
21.3711209799755
 20
11.0
 30
0.0
 11
21.3711209799755
 21
6.0
 31
0.0
  0
LINE
  5
7D83
330
18
100
AcDbEntity
  8
0
 62
     7
370
    25
100
AcDbLine
 10
18.20916114243306
 20
13.18901737221125
 30
0.0
 11
21.50162633809634
 21
13.18901737221131
 31
0.0
  0
CIRCLE
  5
7D84
330
18
100
AcDbEntity
  8
0
 62
     7
100
AcDbCircle
 10
19.8076555113131
 20
13.18901737221125
 30
0.0
 40
0.6395471628691697
  0
MTEXT
  5
7D85
330
18
100
AcDbEntity
  8
0
100
AcDbMText
 10
16.85092016231203
 20
9.705069078926328
 30
0.0
 40
2.25
 41
0.0
 71
     1
 72
     5
  1
\Ftxt.shx,bigfont.shx|c128;検 図
  7
JL
 73
     1
 44
1.0
  0
LINE
  5
7D86
330
18
100
AcDbEntity
  8
0
 62
     7
370
    25
100
AcDbLine
 10
23.96471206996267
 20
12.54947020934213
 30
0.0
 11
23.96471206996267
 21
13.82856453508043
 31
0.0
  0
MTEXT
  5
7D87
330
18
100
AcDbEntity
  8
0
100
AcDbMText
 10
32.14410124959915
 20
9.660292673744407
 30
0.0
 40
2.25
 41
0.0
 71
     1
 72
     5
  1
\Ftxt.shx,bigfont.shx|c128;承 認
  7
JL
 73
     1
 44
1.0
  0
MTEXT
  5
7D88
330
18
100
AcDbEntity
  8
0
100
AcDbMText
 10
46.85564357803349
 20
5.351341098095701
 30
0.0
 40
2.25
 41
0.0
 71
     1
 72
     5
  1
\Ftxt.shx,bigfont.shx|c128;図  面  番  号
  7
JL
 73
     1
 44
1.0
  0
MTEXT
  5
7D89
330
18
100
AcDbEntity
  8
0
 48
2.0
100
AcDbMText
 10
58.45190950106922
 20
10.9378736574792
 30
0.0
 40
2.25
 41
0.0
 71
     5
 72
     1
  1
\P\Ftxt.shx,bigfont.shx|c128;    精密ロックナット
 73
     1
 44
1.0
  0
MTEXT
  5
7D8A
330
18
100
AcDbEntity
  8
0
100
AcDbMText
 10
47.4041806515616
 20
14.51931228986637
 30
0.0
 40
2.25
 41
0.0
 71
     1
 72
     5
  1
\Ftxt.shx,bigfont.shx|c128;品  名
  7
JL
 73
     1
 44
1.0
  0
LINE
  5
7D8B
330
18
100
AcDbEntity
  8
frame
100
AcDbLine
 10
46.06060606060611
 20
16.0
 30
0.0
 11
46.06060606060611
 21
0.0916613789792393
 31
0.0
  0
LINE
  5
7D8C
330
18
100
AcDbEntity
  8
frame
100
AcDbLine
 10
36.70707070707073
 20
16.0
 30
0.0
 11
36.70707070707073
 21
6.0
 31
0.0
  0
LINE
  5
7D8D
330
18
100
AcDbEntity
  8
frame
100
AcDbLine
 10
73.51635463703281
 20
16.0
 30
0.0
 11
73.51635463703286
 21
6.0
 31
0.0
  0
MTEXT
  5
7D8E
330
18
100
AcDbEntity
  8
0
100
AcDbMText
 10
75.44797972338654
 20
14.52258891415195
 30
0.0
 40
2.25
 41
0.0
 71
     1
 72
     5
  1
\Ftxt.shx,bigfont.shx|c128;型  番
  7
JL
 73
     1
 44
1.0
  0
MTEXT
  5
7D8F
330
18
100
AcDbEntity
  8
0
100
AcDbMText
 10
82.90298074051628
 20
5.391490874857822
 30
0.0
 40
2.25
 41
0.0
 71
     1
 72
     5
  1
\Ftxt.shx,bigfont.shx|c128;変更
  7
JL
 73
     1
 44
1.0
  0
LINE
  5
7D90
330
18
100
AcDbEntity
  8
frame
100
AcDbLine
 10
82.04545454545462
 20
6.000000000000028
 30
0.0
 11
82.04545454545467
 21
0.0
 31
0.0
  0
LINE
  5
7D91
330
18
100
AcDbEntity
  8
frame
100
AcDbLine
 10
62.30789503931965
 20
21.56745674462246
 30
0.0
 11
92.30789503931964
 21
21.56745674462241
 31
0.0
  0
LINE
  5
7D92
330
18
100
AcDbEntity
  8
frame
100
AcDbLine
 10
62.30789503931965
 20
25.16745674462248
 30
0.0
 11
92.30789503931964
 21
25.16745674462248
 31
0.0
  0
LINE
  5
7D93
330
18
100
AcDbEntity
  8
frame
100
AcDbLine
 10
62.30789503931965
 20
28.76745674462245
 30
0.0
 11
92.30789503931964
 21
28.7674567446224
 31
0.0
  0
LINE
  5
7D94
330
18
100
AcDbEntity
  8
frame
100
AcDbLine
 10
62.30789503931965
 20
32.36745674462247
 30
0.0
 11
92.30789503931964
 21
32.36745674462242
 31
0.0
  0
LINE
  5
7D95
330
18
100
AcDbEntity
  8
frame
100
AcDbLine
 10
62.30789503931965
 20
17.96745674462244
 30
0.0
 11
92.30789503931964
 21
17.96745674462244
 31
0.0
  0
MTEXT
  5
7D96
330
18
100
AcDbEntity
  8
0
 62
     7
 48
2.0
100
AcDbMText
 10
77.25059502225531
 20
32.76404094991455
 30
0.0
 40
2.4
 41
0.0
 71
     5
 72
     1
  1
\P\Ftxt.shx,bigfont.shx|c128;諸　　　　元
 73
     1
 44
1.0
  0
LINE
  5
7D97
330
18
100
AcDbEntity
  8
frame
100
AcDbLine
 10
62.30789503931965
 20
32.36745674462242
 30
0.0
 11
62.30789503931965
 21
17.96745674462244
 31
0.0
  0
MTEXT
  5
7D98
330
18
100
AcDbEntity
  8
0
100
AcDbMText
 10
64.06911294615975
 20
28.00420216106204
 30
0.0
 40
2.2
 41
81.95814342112454
 71
     1
 72
     5
  1
\Ftxt.shx,bigfont.shx|c128;熱　処　理
  7
JL
 73
     1
 44
1.0
  0
LINE
  5
7D99
330
18
100
AcDbEntity
  8
frame
100
AcDbLine
 10
74.30789503931965
 20
28.7674567446224
 30
0.0
 11
74.30789503931965
 21
17.96745674462244
 31
0.0
  0
MTEXT
  5
7D9A
330
18
100
AcDbEntity
  8
0
100
AcDbMText
 10
63.92897576247015
 20
24.50308793743199
 30
0.0
 40
2.2
 41
81.80293144248363
 71
     1
 72
     5
  1
\Ftxt.shx,bigfont.shx|c128;表 面 処 理
  7
JL
 73
     1
 44
1.0
  0
MTEXT
  5
7D9B
330
18
100
AcDbEntity
  8
0
100
AcDbMText
 10
64.07400868668765
 20
20.85885151062803
 30
0.0
 40
2.2
 41
83.0859
 71
     1
 72
     5
  1
\Ftxt.shx,bigfont.shx|c128;等     　級
  7
JL
 73
     1
 44
1.0
  0
LINE
  5
7D9C
330
18
100
AcDbEntity
  8
frame
100
AcDbLine
 10
92.30789503931964
 20
32.36745674462242
 30
0.0
 11
92.30789503931964
 21
17.96745674462249
 31
0.0
  0
MTEXT
  5
7D9D
330
18
100
AcDbEntity
  8
0
100
AcDbMText
 10
76.68139669404093
 20
27.91672320735723
 30
0.0
 40
2.2
 41
145.9480028428943
 71
     1
 72
     5
  1
\Ftxt.shx,bigfont.shx|c128;調質　HRC30%%d%%p２%%d
  7
JL
 73
     1
 44
1.0
  0
MTEXT
  5
7D9E
330
18
100
AcDbEntity
  8
0
100
AcDbMText
 10
76.81171619475913
 20
20.8591567963536
 30
0.0
 40
2.2
 41
145.3916823984455
 71
     1
 72
     5
  1
\Ftxt.shx,bigfont.shx|c128;ＩＳＯ - ４Ｈ
  7
JL
 73
     1
 44
1.0
  0
MTEXT
  5
7D9F
330
18
100
AcDbEntity
  8
0
100
AcDbMText
 10
76.89894679382428
 20
24.32664146895457
 30
0.0
 40
2.2
 41
145.7274
 71
     1
 72
     5
  1
\Ftxt.shx,bigfont.shx|c128;黒  　    染
  7
JL
 73
     1
 44
1.0
  0
MTEXT
  5
7DA0
330
18
100
AcDbEntity
  8
0
100
AcDbMText
 10
28.81819530667213
 20
130.4500291639737
 30
0.0
 40
2.5
 41
0.0
 71
     1
 72
     5
  1
{\Ftxt,bigfont|c128;M4X0.7P-12L}
  7
JL
 73
     1
 44
1.0
1001
ACAD
1000
ACAD_MTEXT_DEFINED_HEIGHT_BEGIN
1070
    46
1040
0.0
1000
ACAD_MTEXT_DEFINED_HEIGHT_END
  0
LINE
  5
7DA2
330
18
100
AcDbEntity
  8
frame
100
AcDbLine
 10
0.0
 20
127.0
 30
0.0
 11
95.0
 21
127.0
 31
0.0
  0
LINE
  5
7DA3
330
18
100
AcDbEntity
  8
frame
100
AcDbLine
 10
0.0
 20
131.0
 30
0.0
 11
95.0
 21
131.0
 31
0.0
  0
LINE
  5
7DA4
330
18
100
AcDbEntity
  8
frame
 62
     9
100
AcDbLine
 10
0.0
 20
135.0
 30
0.0
 11
95.0
 21
135.0
 31
0.0
  0
MTEXT
  5
7DA5
330
18
100
AcDbEntity
  8
0
100
AcDbMText
 10
28.50782195301855
 20
138.712028002452
 30
0.0
 40
2.5
 41
0.0
 71
     1
 72
     5
  1
\Ftxt.shx,bigfont.shx|c128;図    番 / 規　　格
  7
JL
 73
     1
 44
1.0
  0
LINE
  5
7DA6
330
18
100
AcDbEntity
  8
frame
100
AcDbLine
 10
0.0
 20
127.0
 30
0.0
 11
95.0
 21
127.0
 31
0.0
  0
MTEXT
  5
7DA8
330
18
100
AcDbEntity
  8
0
100
AcDbMText
 10
10.56244024461716
 20
138.7318990693371
 30
0.0
 40
2.5
 41
0.0
 71
     1
 72
     5
  1
\Ftxt.shx,bigfont.shx|c128;品　          名
  7
JL
 73
     1
 44
1.0
  0
MTEXT
  5
7DA9
330
18
100
AcDbEntity
  8
0
100
AcDbMText
 10
9.051406935550659
 20
130.3953618644555
 30
0.0
 40
2.5
 41
0.0
 71
     1
 72
     5
  1
\Ftxt.shx,bigfont.shx|c128;セットスクリュ-
  7
JL
 73
     1
 44
1.0
  0
MTEXT
  5
7DAA
330
18
100
AcDbEntity
  8
0
100
AcDbMText
 10
8.957547404315789
 20
134.4180615141482
 30
0.0
 40
2.5
 41
0.0
 71
     1
 72
     5
  1
\Ftxt.shx,bigfont.shx|c128;ロックナット　  
  7
JL
 73
     1
 44
1.0
  0
LINE
  5
7DAC
330
18
100
AcDbEntity
  8
frame
 62
     9
100
AcDbLine
 10
7.196969696969688
 20
139.9999999999999
 30
0.0
 11
7.196969696969818
 21
127.0
 31
0.0
  0
LINE
  5
7DAD
330
18
100
AcDbEntity
  8
frame
 62
     9
100
AcDbLine
 10
7.196969696969688
 20
139.9999999999999
 30
0.0
 11
7.196969696969688
 21
127.5252525252525
 31
0.0
  0
MTEXT
  5
7DAE
330
18
100
AcDbEntity
  8
0
100
AcDbMText
 10
3.407504634006897
 20
134.364083721706
 30
0.0
 40
2.5
 41
0.0
 71
     1
 72
     5
  1
\Ftxt.shx,bigfont.shx|c128;1
  7
JL
 73
     1
 44
1.0
  0
MTEXT
  5
7DAF
330
18
100
AcDbEntity
  8
0
100
AcDbMText
 10
1.059914036490113
 20
138.7367391319745
 30
0.0
 40
2.5
 41
0.0
 71
     1
 72
     5
  1
\Ftxt.shx,bigfont.shx|c128;照   号
  7
JL
 73
     1
 44
1.0
  0
LINE
  5
7DB0
330
18
100
AcDbEntity
  8
frame
 62
     9
100
AcDbLine
 10
26.38888888888891
 20
139.9999999999999
 30
0.0
 11
26.38888888888892
 21
127.0
 31
0.0
  0
MTEXT
  5
7DB1
330
18
100
AcDbEntity
  8
0
100
AcDbMText
 10
72.78681871864256
 20
138.8390831947097
 30
0.0
 40
2.5
 41
0.0
 71
     1
 72
     5
  1
\Ftxt.shx,bigfont.shx|c128;備           考
  7
JL
 73
     1
 44
1.0
  0
LINE
  5
7DB2
330
18
100
AcDbEntity
  8
frame
 62
     9
100
AcDbLine
 10
45.58080808080808
 20
140.0
 30
0.0
 11
45.58080808080808
 21
127.0
 31
0.0
  0
MTEXT
  5
7DB4
330
18
100
AcDbEntity
  8
0
100
AcDbMText
 10
46.43670544589684
 20
134.4180615141482
 30
0.0
 40
2.5
 41
0.0
 71
     1
 72
     5
  1
\Ftxt.shx,bigfont.shx|c128;SCM-440
  7
JL
 73
     1
 44
1.0
  0
MTEXT
  5
7DB5
330
18
100
AcDbEntity
  8
0
100
AcDbMText
 10
46.43670544589684
 20
130.382501006292
 30
0.0
 40
2.5
 41
0.0
 71
     1
 72
     5
  1
\Ftxt.shx,bigfont.shx|c128;SCM435
  7
JL
 73
     1
 44
1.0
  0
MTEXT
  5
7DB6
330
18
100
AcDbEntity
  8
0
100
AcDbMText
 10
47.88399431552096
 20
138.7822749741459
 30
0.0
 40
2.5
 41
0.0
 71
     1
 72
     5
  1
\Ftxt.shx,bigfont.shx|c128;材　質
  7
JL
 73
     1
 44
1.0
  0
LINE
  5
7DB7
330
18
100
AcDbEntity
  8
frame
 62
     9
100
AcDbLine
 10
55.17676767676772
 20
140.0
 30
0.0
 11
55.17676767676773
 21
127.0
 31
0.0
  0
LINE
  5
7DB8
330
18
100
AcDbEntity
  8
frame
100
AcDbLine
 10
62.37373737373736
 20
140.0
 30
0.0
 11
62.37373737373741
 21
127.0
 31
0.0
  0
MTEXT
  5
7DBA
330
18
100
AcDbEntity
  8
0
100
AcDbMText
 10
58.58427231077456
 20
134.5206355839966
 30
0.0
 40
2.5
 41
0.0
 71
     1
 72
     5
  1
\Ftxt.shx,bigfont.shx|c128;1
  7
JL
 73
     1
 44
1.0
  0
MTEXT
  5
7DBB
330
18
100
AcDbEntity
  8
0
100
AcDbMText
 10
58.29695351334419
 20
130.2546145075339
 30
0.0
 40
2.5
 41
0.0
 71
     1
 72
     5
  1
{\Ftxt,bigfont|c128;4}
  7
JL
 73
     1
 44
1.0
1001
ACAD
1000
ACAD_MTEXT_DEFINED_HEIGHT_BEGIN
1070
    46
1040
0.0
1000
ACAD_MTEXT_DEFINED_HEIGHT_END
  0
MTEXT
  5
7DBC
330
18
100
AcDbEntity
  8
0
100
AcDbMText
 10
56.21119479596313
 20
138.7822749741459
 30
0.0
 40
2.5
 41
0.0
 71
     1
 72
     5
  1
\Ftxt.shx,bigfont.shx|c128;数   量
  7
JL
 73
     1
 44
1.0
  0
MTEXT
  5
7DBD
330
18
100
AcDbEntity
  8
0
100
AcDbMText
 10
3.202009849527996
 20
130.364083721706
 30
0.0
 40
2.5
 41
0.0
 71
     1
 72
     5
  1
{\Ftxt,bigfont|c128;2}
  7
JL
 73
     1
 44
1.0
1001
ACAD
1000
ACAD_MTEXT_DEFINED_HEIGHT_BEGIN
1070
    46
1040
0.0
1000
ACAD_MTEXT_DEFINED_HEIGHT_END
  0
HATCH
  5
9828
330
18
100
AcDbEntity
  8
mark
100
AcDbHatch
 10
0.0
 20
0.0
 30
0.0
210
0.0
220
0.0
230
1.0
  2
SOLID
 70
     1
 71
     0
 91
        1
 92
        7
 72
     0
 73
     1
 93
        3
 10
35.49999999999992
 20
28.48914845519243
 10
35.49999999999992
 20
30.57248178852577
 10
36.54166666666657
 20
29.5308151218591
 97
        0
 75
     0
 76
     1
 47
0.0340840503434746
 98
        1
 10
35.99421191841037
 20
29.43451603618957
450
        0
451
        0
460
0.0
461
0.0
452
        1
462
1.0
453
        2
463
0.0
 63
     5
421
      255
463
1.0
 63
     7
421
 16777215
470
LINEAR
1001
ACAD
1010
0.0
1020
0.0
1030
0.0
  0
TOLERANCE
  5
9829
330
18
100
AcDbEntity
  8
mark
100
AcDbFcf
  3
STANDARD
 10
41.74999999999994
 20
30.57248178852576
 30
0.0
  1
%%v%%v%%vA%%v%%v
 11
-0.0000000000000002
 21
-1.0
 31
0.0
  0
LINE
  5
982A
330
18
100
AcDbEntity
  8
mark
100
AcDbLine
 10
40.49999999999994
 20
29.5308151218591
 30
0.0
 11
36.54166666666657
 21
29.5308151218591
 31
0.0
  0
LINE
  5
982B
330
18
100
AcDbEntity
  8
mark
100
AcDbLine
 10
35.49999999999992
 20
28.48914845519243
 30
0.0
 11
36.54166666666657
 21
29.5308151218591
 31
0.0
  0
LINE
  5
982C
330
18
100
AcDbEntity
  8
mark
100
AcDbLine
 10
36.54166666666657
 20
29.5308151218591
 30
0.0
 11
35.49999999999992
 21
30.57248178852577
 31
0.0
  0
TOLERANCE
  5
98A8
330
18
100
AcDbEntity
  8
mark
100
AcDbFcf
  3
STANDARD
 10
81.6737638531922
 20
64.71243388223495
 30
0.0
  1
{\Fgdt;h}%%v0.005%%v%%vA%%v%%v
  0
LINE
  5
98F9
330
18
100
AcDbEntity
  8
mark
100
AcDbLine
 10
35.49999999999992
 20
34.5308151218591
 30
0.0
 11
35.49999999999992
 21
30.57248178852577
 31
0.0
  0
LINE
  5
9931
330
18
100
AcDbEntity
  8
mark
100
AcDbLine
 10
76.67376385319221
 20
64.71243388223495
 30
0.0
 11
76.67376385319221
 21
59.71243388223495
 31
0.0
  0
LINE
  5
9933
330
18
100
AcDbEntity
  8
mark
100
AcDbLine
 10
76.67376385319221
 20
64.71243388223495
 30
0.0
 11
81.6737638531922
 21
64.71243388223495
 31
0.0
  0
LEADER
  5
9975
330
18
100
AcDbEntity
  8
mark
100
AcDbLeader
  3
STANDARD
 76
     3
 10
26.5
 20
54.71243388223495
 30
0.0
 10
20.6
 20
48.81243388223496
 30
0.0
 10
11.42268011676103
 20
48.81243388223496
 30
0.0
1001
ACAD
1000
DSTYLE
1002
{
1070
   147
1040
0.4
1070
    77
1070
     0
1002
}
  0
TEXT
  5
9977
330
18
100
AcDbEntity
  8
dim
100
AcDbText
 10
11.49944883239371
 20
49.24765341427455
 30
0.0
 40
1.25
  1
4-%%C4深さ５
  7
TXT
100
AcDbText
  0
LEADER
  5
9978
330
18
100
AcDbEntity
  8
mark
100
AcDbLeader
  3
STANDARD
 76
     3
 10
31.25
 20
41.71243388223496
 30
0.0
 10
24.2887718667773
 20
34.75120574901227
 30
0.0
 10
13.41016599014119
 20
34.75120574901227
 30
0.0
1001
ACAD
1000
DSTYLE
1002
{
1070
   147
1040
0.4
1070
    77
1070
     0
1002
}
  0
TEXT
  5
9979
330
18
100
AcDbEntity
  8
dim
100
AcDbText
 10
13.60444108176969
 20
35.07155886236108
 30
0.0
 40
1.25
  1
4-%%C4.3深さ4
  7
TXT
100
AcDbText
  0
TEXT
  5
9A34
330
18
100
AcDbEntity
  8
dim
100
AcDbText
 10
79.08558813630972
 20
80.24703087008797
 30
0.0
 40
2.5
  1
1
  7
TXT
100
AcDbText
  0
LINE
  5
9AC5
330
18
100
AcDbEntity
  8
contour
100
AcDbLine
 10
27.5
 20
41.71243388223496
 30
0.0
 11
67.5
 21
41.71243388223496
 31
0.0
  0
LINE
  5
9AC6
330
18
100
AcDbEntity
  8
contour
100
AcDbLine
 10
68.5
 20
42.71243388223497
 30
0.0
 11
68.49999999999997
 21
45.81243388223496
 31
0.0
  0
LINE
  5
9AC7
330
18
100
AcDbEntity
  8
contour
100
AcDbLine
 10
67.50000000000003
 20
59.71243388223495
 30
0.0
 11
27.5
 21
59.71243388223498
 31
0.0
  0
LINE
  5
9AC8
330
18
100
AcDbEntity
  8
contour
100
AcDbLine
 10
26.5
 20
58.71243388223497
 30
0.0
 11
26.5
 21
49.81243388223496
 31
0.0
  0
LINE
  5
9AC9
330
18
100
AcDbEntity
  8
contour
100
AcDbLine
 10
27.5
 20
46.81243388223497
 30
0.0
 11
33.74999999999997
 21
46.81243388223496
 31
0.0
  0
LINE
  5
9ACA
330
18
100
AcDbEntity
  8
contour
100
AcDbLine
 10
27.5
 20
48.81243388223496
 30
0.0
 11
33.74999999999997
 21
48.81243388223496
 31
0.0
  0
LINE
  5
9ACB
330
18
100
AcDbEntity
  8
contour
100
AcDbLine
 10
28.75
 20
49.61243388223496
 30
0.0
 11
61.75
 21
49.61243388223494
 31
0.0
  0
LINE
  5
9ACC
330
18
100
AcDbEntity
  8
contour
100
AcDbLine
 10
28.75
 20
51.61243388223496
 30
0.0
 11
61.75
 21
51.61243388223494
 31
0.0
  0
LINE
  5
9ACE
330
18
100
AcDbEntity
  8
contour
100
AcDbLine
 10
28.75
 20
49.61243388223496
 30
0.0
 11
28.75
 21
51.61243388223496
 31
0.0
  0
LINE
  5
9ACF
330
18
100
AcDbEntity
  8
contour
100
AcDbLine
 10
66.25
 20
49.61243388223496
 30
0.0
 11
66.25
 21
51.61243388223496
 31
0.0
  0
LINE
  5
9AD3
330
18
100
AcDbEntity
  8
contour
100
AcDbLine
 10
26.5
 20
45.81243388223497
 30
0.0
 11
26.5
 21
42.71243388223496
 31
0.0
  0
LINE
  5
9AD4
330
18
100
AcDbEntity
  8
contour
100
AcDbLine
 10
68.5
 20
49.81243388223496
 30
0.0
 11
68.50000000000003
 21
58.71243388223495
 31
0.0
  0
LINE
  5
9AD5
330
18
100
AcDbEntity
  8
contour
100
AcDbLine
 10
65.75
 20
48.81243388223495
 30
0.0
 11
67.5
 21
48.81243388223497
 31
0.0
  0
LINE
  5
9AD6
330
18
100
AcDbEntity
  8
contour
100
AcDbLine
 10
65.75
 20
46.81243388223496
 30
0.0
 11
67.49999999999997
 21
46.81243388223496
 31
0.0
  0
LINE
  5
9AD7
330
18
100
AcDbEntity
  8
center
 48
0.2
100
AcDbLine
 10
47.5
 20
60.71243388223496
 30
0.0
 11
47.5
 21
40.71243388223495
 31
0.0
  0
INSERT
  5
9AEC
330
18
100
AcDbEntity
  8
contour
100
AcDbBlockReference
  2
LS
 10
-243.4957309951603
 20
-139.0036021842477
 30
0.0
  0
LINE
  5
9AFB
330
18
100
AcDbEntity
  8
contour
100
AcDbLine
 10
66.25
 20
49.61243388223496
 30
0.0
 11
65.74999999999997
 21
49.61243388223493
 31
0.0
  0
LINE
  5
9AFC
330
18
100
AcDbEntity
  8
contour
100
AcDbLine
 10
66.25
 20
51.61243388223496
 30
0.0
 11
65.74999999999997
 21
51.61243388223496
 31
0.0
  0
LINE
  5
9B01
330
18
100
AcDbEntity
  8
contour
100
AcDbLine
 10
29.1
 20
42.21243388223496
 30
0.0
 11
29.1
 21
44.47113080347725
 31
0.0
  0
LINE
  5
9B02
330
18
100
AcDbEntity
  8
contour
100
AcDbLine
 10
29.1
 20
44.47113080347725
 30
0.0
 11
31.25
 21
45.71243388223495
 31
0.0
  0
LINE
  5
9B03
330
18
100
AcDbEntity
  8
contour
100
AcDbLine
 10
33.40000000000001
 20
44.47113080347725
 30
0.0
 11
33.40000000000001
 21
42.21243388223496
 31
0.0
  0
LINE
  5
9B04
330
18
100
AcDbEntity
  8
contour
100
AcDbLine
 10
33.39999999999998
 20
44.47113080347725
 30
0.0
 11
31.25
 21
45.71243388223495
 31
0.0
  0
LINE
  5
9B05
330
18
100
AcDbEntity
  8
contour
100
AcDbLine
 10
29.1
 20
44.47113080347725
 30
0.0
 11
33.40000000000001
 21
44.47113080347725
 31
0.0
  0
LINE
  5
9B06
330
18
100
AcDbEntity
  8
contour
100
AcDbLine
 10
28.59999999999999
 20
41.71243388223496
 30
0.0
 11
29.1
 21
42.21243388223496
 31
0.0
  0
LINE
  5
9B07
330
18
100
AcDbEntity
  8
contour
100
AcDbLine
 10
33.39999999999998
 20
42.21243388223496
 30
0.0
 11
33.89999999999998
 21
41.71243388223496
 31
0.0
  0
LINE
  5
9B08
330
18
100
AcDbEntity
  8
contour
100
AcDbLine
 10
29.1
 20
42.21243388223496
 30
0.0
 11
33.39999999999998
 21
42.21243388223496
 31
0.0
  0
LINE
  5
9B0B
330
18
100
AcDbEntity
  8
contour
100
AcDbLine
 10
30.34529946162076
 20
56.71243388223496
 30
0.0
 11
27.0
 21
56.71243388223496
 31
0.0
  0
LINE
  5
9B0C
330
18
100
AcDbEntity
  8
contour
100
AcDbLine
 10
30.34529946162076
 20
52.71243388223496
 30
0.0
 11
27.0
 21
52.71243388223496
 31
0.0
  0
LINE
  5
9B0D
330
18
100
AcDbEntity
  8
contour
100
AcDbLine
 10
30.34529946162076
 20
56.712433882235
 30
0.0
 11
31.5
 21
54.71243388223495
 31
0.0
  0
LINE
  5
9B0E
330
18
100
AcDbEntity
  8
contour
100
AcDbLine
 10
31.5
 20
54.71243388223495
 30
0.0
 11
30.34529946162076
 21
52.71243388223496
 31
0.0
  0
LINE
  5
9B0F
330
18
100
AcDbEntity
  8
contour
100
AcDbLine
 10
30.34529946162076
 20
56.71243388223496
 30
0.0
 11
30.34529946162076
 21
52.71243388223496
 31
0.0
  0
LINE
  5
9B10
330
18
100
AcDbEntity
  8
contour
100
AcDbLine
 10
26.5
 20
57.21243388223496
 30
0.0
 11
27.0
 21
56.71243388223496
 31
0.0
  0
LINE
  5
9B11
330
18
100
AcDbEntity
  8
contour
100
AcDbLine
 10
27.0
 20
52.71243388223496
 30
0.0
 11
26.5
 21
52.21243388223496
 31
0.0
  0
LINE
  5
9B12
330
18
100
AcDbEntity
  8
contour
100
AcDbLine
 10
27.0
 20
56.71243388223496
 30
0.0
 11
27.0
 21
52.71243388223496
 31
0.0
  0
ARC
  5
9B13
330
18
100
AcDbEntity
  8
contour
100
AcDbCircle
 10
27.5
 20
42.71243388223496
 30
0.0
 40
1.0
100
AcDbArc
 50
180.0
 51
270.0
  0
ARC
  5
9B14
330
18
100
AcDbEntity
  8
contour
100
AcDbCircle
 10
27.5
 20
45.81243388223497
 30
0.0
 40
1.0
100
AcDbArc
 50
90.0
 51
180.0
  0
ARC
  5
9B15
330
18
100
AcDbEntity
  8
contour
100
AcDbCircle
 10
27.5
 20
49.81243388223496
 30
0.0
 40
1.0
100
AcDbArc
 50
180.0
 51
270.0
  0
ARC
  5
9B16
330
18
100
AcDbEntity
  8
contour
100
AcDbCircle
 10
27.5
 20
58.71243388223497
 30
0.0
 40
1.0
100
AcDbArc
 50
90.0
 51
180.0
  0
ARC
  5
9B17
330
18
100
AcDbEntity
  8
contour
100
AcDbCircle
 10
67.50000000000003
 20
58.71243388223495
 30
0.0
 40
1.0
100
AcDbArc
 50
0.0
 51
90.0
  0
ARC
  5
9B18
330
18
100
AcDbEntity
  8
contour
100
AcDbCircle
 10
67.5
 20
49.81243388223496
 30
0.0
 40
1.0
100
AcDbArc
 50
270.0
 51
359.9999999999998
  0
ARC
  5
9B19
330
18
100
AcDbEntity
  8
contour
100
AcDbCircle
 10
67.49999999999997
 20
45.81243388223496
 30
0.0
 40
1.0
100
AcDbArc
 50
0.0
 51
90.0
  0
ARC
  5
9B1A
330
18
100
AcDbEntity
  8
contour
100
AcDbCircle
 10
67.5
 20
42.71243388223496
 30
0.0
 40
1.0
100
AcDbArc
 50
270.0
 51
0.0000000000004071
  0
LINE
  5
9B1B
330
18
100
AcDbEntity
  8
center
 48
0.1
100
AcDbLine
 10
32.5
 20
54.71243388223495
 30
0.0
 11
25.5
 21
54.71243388223495
 31
0.0
  0
LINE
  5
9B1C
330
18
100
AcDbEntity
  8
center
 48
0.1
100
AcDbLine
 10
31.25
 20
46.71243388223495
 30
0.0
 11
31.25
 21
40.71243388223495
 31
0.0
  0
LINE
  5
9BF1
330
18
100
AcDbEntity
  8
contour
100
AcDbLine
 10
33.75
 20
46.81243388223497
 30
0.0
 11
33.75
 21
48.81243388223496
 31
0.0
  0
LINE
  5
9BF4
330
18
100
AcDbEntity
  8
contour
 62
     4
100
AcDbLine
 10
35.50000000000003
 20
59.02443388223495
 30
0.0
 11
35.49999999999997
 21
52.30043388223492
 31
0.0
  0
LINE
  5
9C05
330
18
100
AcDbEntity
  8
contour
 62
     4
100
AcDbLine
 10
59.50000000000002
 20
59.02443388223503
 30
0.0
 11
59.5
 21
52.30043388223498
 31
0.0
  0
LINE
  5
9C7F
330
18
100
AcDbEntity
  8
contour
100
AcDbLine
 10
36.31200000000001
 20
58.21243388223496
 30
0.0
 11
36.31199999999998
 21
53.11243388223493
 31
0.0
  0
LINE
  5
9C80
330
18
100
AcDbEntity
  8
contour
100
AcDbLine
 10
58.68799999999999
 20
58.21243388223495
 30
0.0
 11
58.68799999999996
 21
53.11243388223497
 31
0.0
  0
LINE
  5
9C81
330
18
100
AcDbEntity
  8
contour
100
AcDbLine
 10
34.81199999999998
 20
59.71243388223496
 30
0.0
 11
36.31199999999998
 21
58.21243388223496
 31
0.0
  0
LINE
  5
9C82
330
18
100
AcDbEntity
  8
contour
100
AcDbLine
 10
36.31200000000001
 20
53.11243388223496
 30
0.0
 11
34.81200000000001
 21
51.61243388223496
 31
0.0
  0
LINE
  5
9C83
330
18
100
AcDbEntity
  8
contour
100
AcDbLine
 10
58.68799999999996
 20
58.21243388223495
 30
0.0
 11
60.18799999999996
 21
59.71243388223495
 31
0.0
  0
LINE
  5
9C84
330
18
100
AcDbEntity
  8
contour
100
AcDbLine
 10
60.18799999999998
 20
51.61243388223496
 30
0.0
 11
58.68799999999999
 21
53.11243388223496
 31
0.0
  0
LINE
  5
9C85
330
18
100
AcDbEntity
  8
contour
100
AcDbLine
 10
36.31200000000004
 20
58.21243388223497
 30
0.0
 11
58.68800000000002
 21
58.21243388223486
 31
0.0
  0
LINE
  5
9C86
330
18
100
AcDbEntity
  8
contour
100
AcDbLine
 10
58.68799999999993
 20
53.11243388223495
 30
0.0
 11
36.31200000000001
 21
53.11243388223509
 31
0.0
  0
LINE
  5
9C87
330
18
100
AcDbEntity
  8
contour
100
AcDbLine
 10
36.31199999999998
 20
43.21243388223495
 30
0.0
 11
34.81199999999998
 21
41.71243388223496
 31
0.0
  0
LINE
  5
9C88
330
18
100
AcDbEntity
  8
contour
100
AcDbLine
 10
58.68799999999993
 20
48.11243388223495
 30
0.0
 11
60.18799999999993
 21
49.61243388223494
 31
0.0
  0
LINE
  5
9C89
330
18
100
AcDbEntity
  8
contour
 62
     4
100
AcDbLine
 10
35.5
 20
48.92443388223494
 30
0.0
 11
35.49999999999992
 21
42.40043388223489
 31
0.0
  0
LINE
  5
9C8A
330
18
100
AcDbEntity
  8
contour
 62
     4
100
AcDbLine
 10
59.5
 20
48.92443388223501
 30
0.0
 11
59.49999999999994
 21
42.40043388223498
 31
0.0
  0
LINE
  5
9C8B
330
18
100
AcDbEntity
  8
contour
100
AcDbLine
 10
36.31199999999998
 20
48.11243388223495
 30
0.0
 11
36.31199999999996
 21
43.21243388223492
 31
0.0
  0
LINE
  5
9C8C
330
18
100
AcDbEntity
  8
contour
100
AcDbLine
 10
34.81199999999996
 20
49.61243388223495
 30
0.0
 11
36.31199999999996
 21
48.11243388223495
 31
0.0
  0
LINE
  5
9C8D
330
18
100
AcDbEntity
  8
contour
100
AcDbLine
 10
58.68799999999996
 20
48.11243388223495
 30
0.0
 11
58.68799999999993
 21
43.21243388223503
 31
0.0
  0
LINE
  5
9C8E
330
18
100
AcDbEntity
  8
contour
100
AcDbLine
 10
60.18799999999996
 20
41.71243388223496
 30
0.0
 11
58.68799999999996
 21
43.21243388223495
 31
0.0
  0
LINE
  5
9C8F
330
18
100
AcDbEntity
  8
contour
100
AcDbLine
 10
36.31199999999998
 20
48.11243388223496
 30
0.0
 11
58.6879999999999
 21
48.11243388223483
 31
0.0
  0
LINE
  5
9C90
330
18
100
AcDbEntity
  8
contour
100
AcDbLine
 10
58.68799999999987
 20
43.21243388223495
 30
0.0
 11
36.31199999999996
 21
43.2124338822351
 31
0.0
  0
LINE
  5
9CA0
330
18
100
AcDbEntity
  8
contour
100
AcDbLine
 10
61.25
 20
46.81243388223497
 30
0.0
 11
61.25
 21
48.81243388223496
 31
0.0
  0
LINE
  5
9CA3
330
18
100
AcDbEntity
  8
center
 48
0.2
100
AcDbLine
 10
63.75
 20
60.71243388223496
 30
0.0
 11
63.75
 21
40.71243388223495
 31
0.0
  0
LINE
  5
9CA4
330
18
100
AcDbEntity
  8
contour
100
AcDbLine
 10
60.25
 20
42.01243388223491
 30
0.0
 11
60.25
 21
41.71243388223496
 31
0.0
  0
LINE
  5
9CA5
330
18
100
AcDbEntity
  8
contour
100
AcDbLine
 10
67.25
 20
42.01243388223502
 30
0.0
 11
67.25
 21
41.71243388223496
 31
0.0
  0
LINE
  5
9CA6
330
18
100
AcDbEntity
  8
contour
 62
     4
100
AcDbLine
 10
61.75
 20
56.91243388223495
 30
0.0
 11
61.75
 21
59.71243388223495
 31
0.0
  0
LINE
  5
9CA7
330
18
100
AcDbEntity
  8
contour
100
AcDbLine
 10
62.12900000000002
 20
57.29143388223485
 30
0.0
 11
62.12900000000002
 21
59.71243388223495
 31
0.0
  0
LINE
  5
9CA8
330
18
100
AcDbEntity
  8
contour
100
AcDbLine
 10
65.37100000000004
 20
57.2914338822348
 30
0.0
 11
65.37100000000004
 21
59.71243388223495
 31
0.0
  0
LINE
  5
9CAA
330
18
100
AcDbEntity
  8
contour
 62
     4
100
AcDbLine
 10
65.75
 20
56.91243388223495
 30
0.0
 11
65.75
 21
59.71243388223495
 31
0.0
  0
LINE
  5
9CAB
330
18
100
AcDbEntity
  8
contour
100
AcDbLine
 10
61.25
 20
48.81243388223496
 30
0.0
 11
61.74999999999997
 21
48.81243388223496
 31
0.0
  0
LINE
  5
9CAC
330
18
100
AcDbEntity
  8
contour
100
AcDbLine
 10
61.25
 20
46.81243388223497
 30
0.0
 11
61.74999999999997
 21
46.81243388223497
 31
0.0
  0
LINE
  5
9D17
330
18
100
AcDbEntity
  8
center
 48
0.2
100
AcDbLine
 10
47.5
 20
76.88359943180476
 30
0.0
 11
47.5
 21
120.8835994318047
 31
0.0
  0
LINE
  5
9D18
330
18
100
AcDbEntity
  8
center
 48
0.2
100
AcDbLine
 10
69.49999999999997
 20
98.88359943180473
 30
0.0
 11
25.50000000000003
 21
98.88359943180473
 31
0.0
  0
CIRCLE
  5
9D1B
330
18
100
AcDbEntity
  8
contour
100
AcDbCircle
 10
47.5
 20
98.88359943180473
 30
0.0
 40
20.99999999999997
  0
CIRCLE
  5
9D24
330
18
100
AcDbEntity
  8
contour
100
AcDbCircle
 10
63.75
 20
98.88359943180471
 30
0.0
 40
1.62099999999998
  0
ARC
  5
9D25
330
18
100
AcDbEntity
  8
contour
 62
     4
100
AcDbCircle
 10
63.75
 20
98.88359943180471
 30
0.0
 40
2.0
100
AcDbArc
 50
168.4630409671845
 51
101.5369590328156
  0
CIRCLE
  5
9D26
330
18
100
AcDbEntity
  8
bowle
 48
0.2
100
AcDbCircle
 10
63.75
 20
98.88359943180471
 30
0.0
 40
3.500000000000028
  0
CIRCLE
  5
9D2B
330
18
100
AcDbEntity
  8
contour
100
AcDbCircle
 10
47.5
 20
98.88359943180473
 30
0.0
 40
11.18799999999996
  0
ARC
  5
9D2C
330
18
100
AcDbEntity
  8
contour
 62
     4
100
AcDbCircle
 10
47.5
 20
98.88359943180473
 30
0.0
 40
12.0
100
AcDbArc
 50
168.4630409671846
 51
101.5369590328156
  0
CIRCLE
  5
9D2D
330
18
100
AcDbEntity
  8
contour
100
AcDbCircle
 10
47.5
 20
98.88359943180473
 30
0.0
 40
12.68800000000001
  0
CIRCLE
  5
9D34
330
18
100
AcDbEntity
  8
bowle
 48
0.2
100
AcDbCircle
 10
36.0095148057186
 20
87.39311423752331
 30
0.0
 40
2.150000000000005
  0
CIRCLE
  5
9D35
330
18
100
AcDbEntity
  8
bowle
 48
0.2
100
AcDbCircle
 10
36.0095148057186
 20
87.39311423752331
 30
0.0
 40
2.650000000000005
  0
LINE
  5
9D36
330
18
100
AcDbEntity
  8
bowle
 48
0.2
100
AcDbLine
 10
36.78400848246065
 20
85.33918078951916
 30
0.0
 11
34.41852454804888
 21
82.97369685510744
 31
0.0
  0
LINE
  5
9D37
330
18
100
AcDbEntity
  8
bowle
 48
0.2
100
AcDbLine
 10
33.95558135771444
 20
88.16760791426537
 30
0.0
 11
31.59009742330272
 21
85.80212397985361
 31
0.0
  0
LINE
  5
9D38
330
18
100
AcDbEntity
  8
bowle
 48
0.2
100
AcDbLine
 10
31.07212734405334
 20
85.80212397985361
 30
0.0
 11
31.59009742330272
 21
85.80212397985361
 31
0.0
  0
LINE
  5
9D39
330
18
100
AcDbEntity
  8
bowle
 48
0.2
100
AcDbLine
 10
34.41852454804888
 20
82.97369685510744
 30
0.0
 11
34.41852454804888
 21
82.45572677585807
 31
0.0
  0
LINE
  5
9D3A
330
18
100
AcDbEntity
  8
bowle
 48
0.2
100
AcDbLine
 10
33.95558135771441
 20
88.16760791426537
 30
0.0
 11
36.18629150101526
 21
87.56989093281999
 31
0.0
  0
LINE
  5
9D3B
330
18
100
AcDbEntity
  8
bowle
 48
0.2
100
AcDbLine
 10
36.18629150101526
 20
87.56989093281999
 30
0.0
 11
36.78400848246065
 21
85.33918078951916
 31
0.0
  0
LINE
  5
9D3C
330
18
100
AcDbEntity
  8
bowle
 48
0.2
100
AcDbLine
 10
33.95558135771444
 20
88.16760791426537
 30
0.0
 11
36.78400848246065
 21
85.33918078951916
 31
0.0
  0
LINE
  5
9D3D
330
18
100
AcDbEntity
  8
bowle
 48
0.2
100
AcDbLine
 10
31.59009742330272
 20
85.80212397985361
 30
0.0
 11
34.41852454804888
 21
82.97369685510744
 31
0.0
  0
LINE
  5
9D3E
330
18
100
AcDbEntity
  8
center
 48
0.1
100
AcDbLine
 10
40.29599611327149
 20
91.67959554507621
 30
0.0
 11
31.94365081389597
 21
83.3272502457007
 31
0.0
  0
CIRCLE
  5
9D40
330
18
100
AcDbEntity
  8
bowle
 48
0.2
100
AcDbCircle
 10
58.99048519428134
 20
87.39311423752333
 30
0.0
 40
2.150000000000005
  0
CIRCLE
  5
9D41
330
18
100
AcDbEntity
  8
bowle
 48
0.2
100
AcDbCircle
 10
58.99048519428134
 20
87.39311423752333
 30
0.0
 40
2.650000000000005
  0
LINE
  5
9D42
330
18
100
AcDbEntity
  8
bowle
 48
0.2
100
AcDbLine
 10
61.04441864228551
 20
88.16760791426538
 30
0.0
 11
63.40990257669722
 21
85.80212397985361
 31
0.0
  0
LINE
  5
9D43
330
18
100
AcDbEntity
  8
bowle
 48
0.2
100
AcDbLine
 10
58.21599151753929
 20
85.33918078951918
 30
0.0
 11
60.58147545195106
 21
82.97369685510746
 31
0.0
  0
LINE
  5
9D44
330
18
100
AcDbEntity
  8
bowle
 48
0.2
100
AcDbLine
 10
60.58147545195106
 20
82.45572677585808
 30
0.0
 11
60.58147545195106
 21
82.97369685510746
 31
0.0
  0
LINE
  5
9D45
330
18
100
AcDbEntity
  8
bowle
 48
0.2
100
AcDbLine
 10
63.40990257669722
 20
85.80212397985361
 30
0.0
 11
63.9278726559466
 21
85.80212397985361
 31
0.0
  0
LINE
  5
9D46
330
18
100
AcDbEntity
  8
bowle
 48
0.2
100
AcDbLine
 10
58.21599151753929
 20
85.33918078951915
 30
0.0
 11
58.81370849898468
 21
87.56989093281999
 31
0.0
  0
LINE
  5
9D47
330
18
100
AcDbEntity
  8
bowle
 48
0.2
100
AcDbLine
 10
58.81370849898468
 20
87.56989093281999
 30
0.0
 11
61.04441864228551
 21
88.16760791426538
 31
0.0
  0
LINE
  5
9D48
330
18
100
AcDbEntity
  8
bowle
 48
0.2
100
AcDbLine
 10
58.21599151753929
 20
85.33918078951918
 30
0.0
 11
61.04441864228551
 21
88.16760791426538
 31
0.0
  0
LINE
  5
9D49
330
18
100
AcDbEntity
  8
bowle
 48
0.2
100
AcDbLine
 10
60.58147545195106
 20
82.97369685510746
 30
0.0
 11
63.40990257669722
 21
85.80212397985361
 31
0.0
  0
LINE
  5
9D4A
330
18
100
AcDbEntity
  8
center
 48
0.1
100
AcDbLine
 10
54.70400388672846
 20
91.67959554507623
 30
0.0
 11
63.056349186104
 21
83.32725024570072
 31
0.0
  0
CIRCLE
  5
9D4B
330
18
100
AcDbEntity
  8
bowle
 48
0.2
100
AcDbCircle
 10
58.99048519428134
 20
110.3740846260861
 30
0.0
 40
2.150000000000005
  0
CIRCLE
  5
9D4C
330
18
100
AcDbEntity
  8
bowle
 48
0.2
100
AcDbCircle
 10
58.99048519428134
 20
110.3740846260861
 30
0.0
 40
2.650000000000005
  0
LINE
  5
9D4D
330
18
100
AcDbEntity
  8
bowle
 48
0.2
100
AcDbLine
 10
58.21599151753929
 20
112.4280180740902
 30
0.0
 11
60.58147545195106
 21
114.793502008502
 31
0.0
  0
LINE
  5
9D4E
330
18
100
AcDbEntity
  8
bowle
 48
0.2
100
AcDbLine
 10
61.04441864228551
 20
109.599590949344
 30
0.0
 11
63.40990257669722
 21
111.9650748837558
 31
0.0
  0
LINE
  5
9D4F
330
18
100
AcDbEntity
  8
bowle
 48
0.2
100
AcDbLine
 10
63.9278726559466
 20
111.9650748837558
 30
0.0
 11
63.40990257669722
 21
111.9650748837558
 31
0.0
  0
LINE
  5
9D50
330
18
100
AcDbEntity
  8
bowle
 48
0.2
100
AcDbLine
 10
60.58147545195106
 20
114.793502008502
 30
0.0
 11
60.58147545195106
 21
115.3114720877513
 31
0.0
  0
LINE
  5
9D51
330
18
100
AcDbEntity
  8
bowle
 48
0.2
100
AcDbLine
 10
61.04441864228554
 20
109.599590949344
 30
0.0
 11
58.81370849898468
 21
110.1973079307894
 31
0.0
  0
LINE
  5
9D52
330
18
100
AcDbEntity
  8
bowle
 48
0.2
100
AcDbLine
 10
58.81370849898468
 20
110.1973079307894
 30
0.0
 11
58.21599151753929
 21
112.4280180740902
 31
0.0
  0
LINE
  5
9D53
330
18
100
AcDbEntity
  8
bowle
 48
0.2
100
AcDbLine
 10
61.04441864228551
 20
109.599590949344
 30
0.0
 11
58.21599151753929
 21
112.4280180740902
 31
0.0
  0
LINE
  5
9D54
330
18
100
AcDbEntity
  8
bowle
 48
0.2
100
AcDbLine
 10
63.40990257669722
 20
111.9650748837558
 30
0.0
 11
60.58147545195106
 21
114.793502008502
 31
0.0
  0
LINE
  5
9D55
330
18
100
AcDbEntity
  8
center
 48
0.1
100
AcDbLine
 10
54.70400388672846
 20
106.0876033185332
 30
0.0
 11
63.05634918610397
 21
114.4399486179087
 31
0.0
  0
CIRCLE
  5
9D56
330
18
100
AcDbEntity
  8
bowle
 48
0.2
100
AcDbCircle
 10
36.0095148057186
 20
110.3740846260861
 30
0.0
 40
2.150000000000005
  0
CIRCLE
  5
9D57
330
18
100
AcDbEntity
  8
bowle
 48
0.2
100
AcDbCircle
 10
36.0095148057186
 20
110.3740846260861
 30
0.0
 40
2.650000000000005
  0
LINE
  5
9D58
330
18
100
AcDbEntity
  8
bowle
 48
0.2
100
AcDbLine
 10
33.95558135771444
 20
109.599590949344
 30
0.0
 11
31.59009742330272
 21
111.9650748837558
 31
0.0
  0
LINE
  5
9D59
330
18
100
AcDbEntity
  8
bowle
 48
0.2
100
AcDbLine
 10
36.78400848246065
 20
112.4280180740902
 30
0.0
 11
34.41852454804888
 21
114.793502008502
 31
0.0
  0
LINE
  5
9D5A
330
18
100
AcDbEntity
  8
bowle
 48
0.2
100
AcDbLine
 10
34.41852454804888
 20
115.3114720877513
 30
0.0
 11
34.41852454804888
 21
114.793502008502
 31
0.0
  0
LINE
  5
9D5B
330
18
100
AcDbEntity
  8
bowle
 48
0.2
100
AcDbLine
 10
31.59009742330272
 20
111.9650748837558
 30
0.0
 11
31.07212734405334
 21
111.9650748837558
 31
0.0
  0
LINE
  5
9D5C
330
18
100
AcDbEntity
  8
bowle
 48
0.2
100
AcDbLine
 10
36.78400848246065
 20
112.4280180740903
 30
0.0
 11
36.18629150101526
 21
110.1973079307894
 31
0.0
  0
LINE
  5
9D5D
330
18
100
AcDbEntity
  8
bowle
 48
0.2
100
AcDbLine
 10
36.18629150101526
 20
110.1973079307894
 30
0.0
 11
33.95558135771444
 21
109.599590949344
 31
0.0
  0
LINE
  5
9D5E
330
18
100
AcDbEntity
  8
bowle
 48
0.2
100
AcDbLine
 10
36.78400848246065
 20
112.4280180740902
 30
0.0
 11
33.95558135771444
 21
109.599590949344
 31
0.0
  0
LINE
  5
9D5F
330
18
100
AcDbEntity
  8
bowle
 48
0.2
100
AcDbLine
 10
34.41852454804888
 20
114.793502008502
 30
0.0
 11
31.59009742330272
 21
111.9650748837558
 31
0.0
  0
LINE
  5
9D60
330
18
100
AcDbEntity
  8
center
 48
0.1
100
AcDbLine
 10
40.29599611327149
 20
106.0876033185332
 30
0.0
 11
31.943650813896
 21
114.4399486179087
 31
0.0
  0
CIRCLE
  5
9D61
330
18
100
AcDbEntity
  8
contour
100
AcDbCircle
 10
47.49999999999997
 20
115.1335994318047
 30
0.0
 40
1.62099999999998
  0
CIRCLE
  5
9D63
330
18
100
AcDbEntity
  8
bowle
 48
0.2
100
AcDbCircle
 10
47.49999999999997
 20
115.1335994318047
 30
0.0
 40
3.500000000000028
  0
CIRCLE
  5
9D64
330
18
100
AcDbEntity
  8
contour
100
AcDbCircle
 10
31.24999999999995
 20
98.88359943180473
 30
0.0
 40
1.62099999999998
  0
CIRCLE
  5
9D66
330
18
100
AcDbEntity
  8
bowle
 48
0.2
100
AcDbCircle
 10
31.24999999999995
 20
98.88359943180473
 30
0.0
 40
3.500000000000028
  0
CIRCLE
  5
9D67
330
18
100
AcDbEntity
  8
contour
100
AcDbCircle
 10
47.49999999999994
 20
82.63359943180466
 30
0.0
 40
1.62099999999998
  0
CIRCLE
  5
9D69
330
18
100
AcDbEntity
  8
bowle
 48
0.2
100
AcDbCircle
 10
47.49999999999994
 20
82.63359943180466
 30
0.0
 40
3.500000000000028
  0
CIRCLE
  5
9D6A
330
18
100
AcDbEntity
  8
center
 48
0.1
100
AcDbCircle
 10
47.5
 20
98.88359943180473
 30
0.0
 40
16.25
  0
ARC
  5
9D6C
330
18
100
AcDbEntity
  8
contour
 62
     4
100
AcDbCircle
 10
47.5
 20
82.63359943180471
 30
0.0
 40
2.0
100
AcDbArc
 50
168.4630409671844
 51
101.5369590328156
  0
ARC
  5
9D6D
330
18
100
AcDbEntity
  8
contour
 62
     4
100
AcDbCircle
 10
31.25
 20
98.88359943180471
 30
0.0
 40
2.0
100
AcDbArc
 50
168.4630409671844
 51
101.5369590328156
  0
ARC
  5
9D6E
330
18
100
AcDbEntity
  8
contour
 62
     4
100
AcDbCircle
 10
47.5
 20
115.1335994318047
 30
0.0
 40
2.0
100
AcDbArc
 50
168.4630409671844
 51
101.5369590328156
  0
DIMENSION
  5
9ED4
330
18
100
AcDbEntity
  8
mark
100
AcDbDimension
  2
*D4
 10
68.50000000000003
 20
65.00155035635185
 30
0.0
 11
47.50000000000001
 21
66.02655035635186
 31
0.0
 70
    32
  1
%%c<>
 71
     5
 42
42.00000000000002
  3
STANDARD
100
AcDbAlignedDimension
 13
26.5
 23
58.71243388223497
 33
0.0
 14
68.50000000000003
 24
58.71243388223495
 34
0.0
100
AcDbRotatedDimension
  0
MTEXT
  5
9EFC
330
18
100
AcDbEntity
  8
mark
 62
     3
100
AcDbMText
 10
49.50156499045817
 20
66.2092626867779
 30
0.0
 40
0.625
 41
0.0
 71
     4
 72
     1
  1
+0\P-0.2
 73
     1
 44
1.0
1001
ACAD
1000
ACAD_MTEXT_DEFINED_HEIGHT_BEGIN
1070
    46
1040
0.0
1000
ACAD_MTEXT_DEFINED_HEIGHT_END
  0
DIMENSION
  5
9EFD
330
18
100
AcDbEntity
  8
mark
100
AcDbDimension
  2
*D5
 10
23.43592033857004
 20
54.71243388223495
 30
0.0
 11
22.41092033857004
 21
57.21243388223498
 31
0.0
 70
    32
 71
     5
 42
5.000000000000028
  3
STANDARD
100
AcDbAlignedDimension
 13
27.5
 23
59.71243388223498
 33
0.0
 14
25.5
 24
54.71243388223495
 34
0.0
 50
90.0
100
AcDbRotatedDimension
  0
DIMENSION
  5
9F0A
330
18
100
AcDbEntity
  8
mark
100
AcDbDimension
  2
*D6
 10
73.17667010381661
 20
48.81243388223497
 30
0.0
 11
72.15167010381659
 21
54.26243388223497
 31
0.0
 70
    32
 71
     5
 42
10.89999999999998
  3
STANDARD
100
AcDbAlignedDimension
 13
67.50000000000003
 23
59.71243388223495
 33
0.0
 14
67.5
 24
48.81243388223497
 34
0.0
 50
90.0
100
AcDbRotatedDimension
  0
DIMENSION
  5
9F17
330
18
100
AcDbEntity
  8
mark
100
AcDbDimension
  2
*D7
 10
73.17667010381661
 20
46.81243388223496
 30
0.0
 11
72.15167010381659
 21
47.81243388223497
 31
0.0
 70
    32
 71
     5
 42
2.000000000000007
  3
STANDARD
100
AcDbAlignedDimension
 13
67.5
 23
48.81243388223497
 33
0.0
 14
67.49999999999997
 24
46.81243388223496
 34
0.0
 50
90.0
100
AcDbRotatedDimension
  0
DIMENSION
  5
9F26
330
18
100
AcDbEntity
  8
mark
100
AcDbDimension
  2
*D8
 10
76.67376385319221
 20
41.71243388223497
 30
0.0
 11
75.6487638531922
 21
50.71243388223496
 31
0.0
 70
    32
  1
<>%%p0.2
 71
     5
 42
17.99999999999998
  3
STANDARD
100
AcDbAlignedDimension
 13
67.50000000000003
 23
59.71243388223495
 33
0.0
 14
67.50000000000003
 24
41.71243388223497
 34
0.0
 50
90.0
100
AcDbRotatedDimension
  0
DIMENSION
  5
9F33
330
18
100
AcDbEntity
  8
mark
100
AcDbDimension
  2
*D9
 10
59.49999999999994
 20
34.9308151218591
 30
0.0
 11
47.49999999999992
 21
35.9558151218591
 31
0.0
 70
    32
  1
M<>X1.5P
 71
     5
 42
24.00000000000003
  3
STANDARD
100
AcDbAlignedDimension
 13
35.49999999999992
 23
42.40043388223489
 33
0.0
 14
59.49999999999994
 24
42.40043388223498
 34
0.0
100
AcDbRotatedDimension
  0
LEADER
  5
9F40
330
18
100
AcDbEntity
  8
mark
100
AcDbLeader
  3
STANDARD
 76
     2
 10
59.43799999999995
 20
42.46243388223496
 30
0.0
 10
54.57428609481602
 20
37.59871997705105
 30
0.0
211
0.7071067811865476
221
0.7071067811865475
231
0.0
1001
ACAD
1000
DSTYLE
1002
{
1070
   147
1040
0.4
1070
    77
1070
     0
1002
}
  0
MTEXT
  5
9F65
330
18
100
AcDbEntity
  8
mark
 62
     3
100
AcDbMText
 10
54.92073143438858
 20
39.50962640104429
 30
0.0
 40
1.25
 41
0.0
 71
     5
 72
     1
  1
C1.5
 11
0.7071067811865476
 21
0.7071067811865475
 31
0.0
 73
     1
 44
1.0
1001
ACAD
1000
ACAD_MTEXT_DEFINED_HEIGHT_BEGIN
1070
    46
1040
0.0
1000
ACAD_MTEXT_DEFINED_HEIGHT_END
  0
DIMENSION
  5
9F79
330
18
100
AcDbEntity
  8
mark
100
AcDbDimension
  2
*D10
 10
27.49999999999998
 20
42.71243388223497
 30
0.0
 11
23.42824345166756
 21
40.09024623533476
 31
0.0
 70
    36
 71
     5
 42
0.9999999999999573
  3
STANDARD
100
AcDbRadialDimension
 15
26.79289321881349
 25
42.00532710104844
 35
0.0
 40
0.0
1001
ACAD
1000
DSTYLE
1002
{
1070
   288
1070
     1
1002
}
  0
DIMENSION
  5
9F89
330
18
100
AcDbEntity
  8
mark
100
AcDbDimension
  2
*D11
 10
32.29675443138552
 20
93.14567086999744
 30
0.0
 11
72.81183553761721
 21
108.43665857484
 31
0.0
 70
   163
  1
P.C.D 32.5
 71
     5
 42
32.49999999999995
  3
STANDARD
100
AcDbDiametricDimension
 15
62.70324556861443
 25
104.621527993612
 35
0.0
 40
0.0
1001
ACAD
1000
DSTYLE
1002
{
1070
   288
1070
     1
1002
}
  0
HATCH
  5
A019
330
18
100
AcDbEntity
  8
section
100
AcDbHatch
 10
0.0
 20
0.0
 30
0.0
210
0.0
220
0.0
230
1.0
  2
ANSI31
 70
     0
 71
     0
 91
       11
 92
        7
 72
     1
 73
     1
 93
       34
 10
35.50000000000006
 20
59.0244338822349
 42
0.0
 10
34.81199999999998
 20
59.71243388223497
 42
0.0
 10
27.5
 20
59.71243388223498
 42
0.4142135623730951
 10
26.5
 20
58.71243388223498
 42
0.0
 10
26.5
 20
57.21243388223498
 42
0.0
 10
27.0
 20
56.71243388223496
 42
0.0
 10
30.34529946162076
 20
56.71243388223495
 42
0.0
 10
31.5
 20
54.71243388223496
 42
0.0
 10
30.34529946162076
 20
52.71243388223496
 42
0.0
 10
27.0
 20
52.71243388223496
 42
0.0
 10
26.5
 20
52.21243388223495
 42
0.0
 10
26.5
 20
49.81243388223496
 42
0.4142135623730951
 10
27.5
 20
48.81243388223496
 42
0.0
 10
33.75
 20
48.81243388223496
 42
0.0
 10
33.75
 20
46.81243388223496
 42
0.0
 10
27.5
 20
46.81243388223497
 42
0.4142135623730951
 10
26.5
 20
45.81243388223497
 42
0.0
 10
26.5
 20
42.71243388223496
 42
0.4142135623730951
 10
27.5
 20
41.71243388223496
 42
0.0
 10
28.59999999999999
 20
41.71243388223496
 42
0.0
 10
29.09999999999996
 20
42.21243388223495
 42
0.0
 10
29.1
 20
44.47113080347725
 42
0.0
 10
31.24999999999997
 20
45.71243388223495
 42
0.0
 10
33.40000000000001
 20
44.47113080347725
 42
0.0
 10
33.40000000000001
 20
42.21243388223493
 42
0.0
 10
33.89999999999998
 20
41.71243388223496
 42
0.0
 10
34.81199999999998
 20
41.71243388223496
 42
0.0
 10
35.49999999999992
 20
42.40043388223488
 42
0.0
 10
35.5
 20
48.92443388223492
 42
0.0
 10
34.81199999999993
 20
49.61243388223496
 42
0.0
 10
28.75
 20
49.61243388223497
 42
0.0
 10
28.75
 20
51.61243388223495
 42
0.0
 10
34.81200000000001
 20
51.61243388223494
 42
0.0
 10
35.49999999999997
 20
52.3004338822349
 42
0.0
 97
        0
 92
        7
 72
     0
 73
     1
 93
        4
 10
36.31199999999998
 20
58.21243388223494
 10
35.50000000000003
 20
59.02443388223489
 10
35.49999999999997
 20
52.30043388223491
 10
36.31199999999998
 20
53.11243388223491
 97
        0
 92
        7
 72
     0
 73
     1
 93
        4
 10
36.31199999999998
 20
48.11243388223495
 10
35.5
 20
48.92443388223492
 10
35.49999999999989
 20
42.40043388223487
 10
36.31199999999996
 20
43.21243388223495
 97
        0
 92
        7
 72
     0
 73
     1
 93
        4
 10
59.50000000000002
 20
59.02443388223503
 10
58.68799999999996
 20
58.21243388223496
 10
58.68799999999996
 20
53.11243388223497
 10
59.49999999999997
 20
52.30043388223493
 97
        0
 92
        7
 72
     0
 73
     1
 93
        7
 10
61.75
 20
56.91243388223495
 10
61.75
 20
59.71243388223496
 10
60.18799999999998
 20
59.71243388223497
 10
59.5
 20
59.02443388223503
 10
59.49999999999997
 20
52.30043388223498
 10
60.18800000000002
 20
51.61243388223494
 10
61.74999999999997
 20
51.61243388223494
 97
        0
 92
        7
 72
     0
 73
     1
 93
        4
 10
62.12900000000002
 20
59.71243388223496
 10
61.74999999999997
 20
59.71243388223496
 10
61.75
 20
56.9124338822349
 10
62.12900000000002
 20
57.29143388223491
 97
        0
 92
        7
 72
     0
 73
     1
 93
        4
 10
65.75
 20
59.71243388223495
 10
65.37100000000004
 20
59.71243388223496
 10
65.37100000000004
 20
57.29143388223486
 10
65.75
 20
56.91243388223493
 97
        0
 92
        7
 72
     1
 73
     1
 93
       11
 10
68.50000000000003
 20
58.71243388223495
 42
0.4142135623730951
 10
67.50000000000003
 20
59.71243388223495
 42
0.0
 10
65.75000000000002
 20
59.71243388223496
 42
0.0
 10
65.75
 20
56.91243388223495
 42
0.0
 10
65.75
 20
51.61243388223496
 42
0.0
 10
66.25
 20
51.61243388223496
 42
0.0
 10
66.25
 20
49.61243388223496
 42
0.0
 10
65.75
 20
49.61243388223493
 42
0.0
 10
65.75
 20
48.81243388223495
 42
0.0
 10
67.5
 20
48.81243388223497
 42
0.4142135623730942
 10
68.5
 20
49.81243388223496
 42
0.0
 97
        0
 92
        7
 72
     0
 73
     1
 93
       13
 10
61.24999999999997
 20
48.81243388223497
 10
61.75
 20
48.81243388223495
 10
61.74999999999997
 20
49.61243388223493
 10
60.18799999999996
 20
49.61243388223492
 10
59.50000000000006
 20
48.92443388223501
 10
59.49999999999994
 20
42.40043388223499
 10
60.18799999999996
 20
41.71243388223495
 10
60.25000000000003
 20
41.71243388223495
 10
60.25
 20
42.01243388223491
 10
60.25
 20
45.71243388223495
 10
61.75
 20
45.71243388223495
 10
61.75
 20
46.81243388223498
 10
61.25
 20
46.81243388223497
 97
        0
 92
        7
 72
     0
 73
     1
 93
        4
 10
59.5
 20
48.92443388223501
 10
58.68799999999996
 20
48.11243388223498
 10
58.68799999999993
 20
43.212433882235
 10
59.5
 20
42.40043388223498
 97
        0
 92
        7
 72
     1
 73
     1
 93
        9
 10
68.49999999999997
 20
45.81243388223496
 42
0.4142135623730951
 10
67.49999999999997
 20
46.81243388223496
 42
0.0
 10
65.75
 20
46.81243388223497
 42
0.0
 10
65.75
 20
45.71243388223495
 42
0.0
 10
67.25
 20
45.71243388223495
 42
0.0
 10
67.25
 20
42.01243388223502
 42
0.0
 10
67.25
 20
41.71243388223497
 42
0.0
 10
67.5
 20
41.71243388223496
 42
0.414213562373097
 10
68.5
 20
42.71243388223497
 42
0.0
 97
        0
 75
     0
 76
     1
 52
0.0
 41
0.5
 77
     0
 78
     1
 53
45.0
 43
-106.4697699322888
 44
-3.851098366859275
 45
-1.122532015133643
 46
1.122532015133644
 79
     0
 47
0.0538921847596111
 98
       11
 10
33.00150096843771
 20
58.50747743727317
 10
36.05782785591311
 20
56.10697699086433
 10
35.94867327828041
 20
47.05054323750653
 10
59.06697313106701
 20
56.08572719811139
 10
61.06173048421169
 20
56.30129601266578
 10
62.03215322367873
 20
57.97195346265954
 10
65.53645720335419
 20
58.24141465341307
 10
66.83035418931024
 20
57.75638499322622
 10
60.19879878586289
 20
48.42184407678911
 10
59.33620108105651
 20
47.45178475641546
 10
67.74653063227777
 20
44.86495967200506
1001
ACAD
1010
0.0
1020
0.0
1030
0.0
  0
LEADER
  5
A0E1
330
18
100
AcDbEntity
  8
mark
100
AcDbLeader
  3
STANDARD
 76
     2
 10
65.68653347947318
 20
88.38359943180472
 30
0.0
 10
78.03896827082012
 20
81.25191787987326
 30
0.0
211
0.8660254037844383
221
-0.5000000000000005
231
0.0
1001
ACAD
1000
DSTYLE
1002
{
1070
   147
1040
0.4
1070
    77
1070
     0
1002
}
  0
LEADER
  5
A0E3
330
18
100
AcDbEntity
  8
mark
100
AcDbLeader
  3
STANDARD
 76
     2
 10
63.75
 20
41.71243388223496
 30
0.0
 10
78.03896827082003
 20
35.8221002194424
 30
0.0
1001
ACAD
1000
DSTYLE
1002
{
1070
   147
1040
0.4
1070
    77
1070
     0
1002
}
  0
TEXT
  5
A0E4
330
18
100
AcDbEntity
  8
dim
100
AcDbText
 10
79.08558813630964
 20
34.81721320965711
 30
0.0
 40
2.5
  1
2
  7
TXT
100
AcDbText
  0
MTEXT
  5
A137
330
18
100
AcDbEntity
  8
0
100
AcDbMText
 10
23.82548616095238
 20
9.538029508083068
 30
0.0
 40
2.25
 41
0.0
 71
     1
 72
     5
  1
{\Ftxt,bigfont|c128;小\~柳}
  7
JL
 73
     1
 44
1.0
1001
ACAD
1000
ACAD_MTEXT_DEFINED_HEIGHT_BEGIN
1070
    46
1040
0.0
1000
ACAD_MTEXT_DEFINED_HEIGHT_END
  0
MTEXT
  5
A156
330
18
100
AcDbEntity
  8
dim
100
AcDbMText
 10
4.789046749311978
 20
20.55257433791116
 30
0.0
 40
2.25
 41
0.0
 71
     1
 72
     5
  1
{\Ftxt,bigfont|c128;07.10.03 \~寸法一部変更  林}
  7
JL
 73
     1
 44
1.0
1001
ACAD
1000
ACAD_MTEXT_DEFINED_HEIGHT_BEGIN
1070
    46
1040
0.0
1000
ACAD_MTEXT_DEFINED_HEIGHT_END
  0
CIRCLE
  5
A157
330
18
100
AcDbEntity
  8
dim
100
AcDbCircle
 10
22.6532285989839
 20
19.44496554950314
 30
0.0
 40
1.415637055873787
  0
LWPOLYLINE
  5
A15C
330
18
100
AcDbEntity
  8
mark
100
AcDbPolyline
 90
        3
 70
     1
 43
0.0
 10
68.81882508528554
 20
50.89651172373919
 10
71.06882508528554
 20
49.59747361806254
 10
71.06882508528554
 20
52.19554982941585
  0
TEXT
  5
A15D
330
18
100
AcDbEntity
  8
dim
100
AcDbText
 10
70.78921761731379
 20
50.70612992158363
 30
0.0
 40
1.25
  1
1
 50
90.0
  7
TXT
100
AcDbText
  0
MTEXT
  5
A179
330
18
100
AcDbEntity
  8
mark
 62
     3
100
AcDbMText
 10
70.45243872223784
 20
54.87521545930145
 30
0.0
 40
1.25
 41
0.0
 71
     5
 72
     1
  1
10.25
 11
0.0000000000000001
 21
1.0
 31
0.0
 73
     1
 44
1.0
1001
ACAD
1000
ACAD_MTEXT_DEFINED_HEIGHT_BEGIN
1070
    46
1040
0.0
1000
ACAD_MTEXT_DEFINED_HEIGHT_END
  0
LINE
  5
A17A
330
18
100
AcDbEntity
  8
mark
 62
     1
100
AcDbLine
 10
71.97993244302313
 20
55.99007489803625
 30
0.0
 11
71.97993244302313
 21
52.52979183779746
 31
0.0
  0
LINE
  5
A17B
330
18
100
AcDbEntity
  8
mark
 62
     1
100
AcDbLine
 10
72.4048190563085
 20
55.99007489803625
 30
0.0
 11
72.4048190563085
 21
52.52979183779746
 31
0.0
  0
LWPOLYLINE
  5
A1C9
330
18
100
AcDbEntity
  8
mark
100
AcDbPolyline
 90
        3
 70
     1
 43
0.0
 10
3.847957763879096
 20
21.88400799138945
 10
2.40458209090504
 20
24.38400799138945
 10
0.9612064179309696
 20
21.88400799138945
  0
MTEXT
  5
A1CA
330
18
100
AcDbEntity
  8
dim
100
AcDbMText
 10
2.005820528640799
 20
23.43714337485896
 30
0.0
 40
1.25
 41
4.581557073439626
 71
     1
 72
     5
  1
2
 73
     1
 44
1.0
1001
ACAD
1000
ACAD_MTEXT_DEFINED_HEIGHT_BEGIN
1070
    46
1040
0.0
1000
ACAD_MTEXT_DEFINED_HEIGHT_END
  0
MTEXT
  5
A1CB
330
18
100
AcDbEntity
  8
dim
100
AcDbMText
 10
4.729557019614929
 20
24.1142869826146
 30
0.0
 40
2.25
 41
0.0
 71
     1
 72
     5
  1
{\Ftxt,bigfont|c128;08.08.08 振れ精度の変更  林}
  7
JL
 73
     1
 44
1.0
1001
ACAD
1000
ACAD_MTEXT_DEFINED_HEIGHT_BEGIN
1070
    46
1040
0.0
1000
ACAD_MTEXT_DEFINED_HEIGHT_END
  0
CIRCLE
  5
A1CC
330
18
100
AcDbEntity
  8
dim
100
AcDbCircle
 10
23.6167086666278
 20
22.9593776726312
 30
0.0
 40
1.381204854054431
  0
LWPOLYLINE
  5
A1CD
330
18
100
AcDbEntity
  8
mark
100
AcDbPolyline
 90
        3
 70
     1
 43
0.0
 10
3.907447493576145
 20
18.322295346686
 10
2.464071820602089
 20
20.822295346686
 10
1.020696147628018
 20
18.322295346686
  0
MTEXT
  5
A1CE
330
18
100
AcDbEntity
  8
dim
100
AcDbMText
 10
2.290097351076059
 20
19.99639923402718
 30
0.0
 40
1.25
 41
4.581557073439626
 71
     1
 72
     5
  1
1
 73
     1
 44
1.0
1001
ACAD
1000
ACAD_MTEXT_DEFINED_HEIGHT_BEGIN
1070
    46
1040
0.0
1000
ACAD_MTEXT_DEFINED_HEIGHT_END
  0
LWPOLYLINE
  5
A1CF
330
18
100
AcDbEntity
  8
mark
100
AcDbPolyline
 90
        3
 70
     1
 43
0.0
 10
90.65677916125677
 20
1.660812848900018
 10
89.21340348828271
 20
4.160812848900018
 10
87.77002781530864
 20
1.660812848900018
  0
MTEXT
  5
A1D0
330
18
100
AcDbEntity
  8
dim
100
AcDbMText
 10
88.81956741736736
 20
3.20307661696999
 30
0.0
 40
1.25
 41
4.581557073439626
 71
     1
 72
     5
  1
2
 73
     1
 44
1.0
1001
ACAD
1000
ACAD_MTEXT_DEFINED_HEIGHT_BEGIN
1070
    46
1040
0.0
1000
ACAD_MTEXT_DEFINED_HEIGHT_END
  0
LWPOLYLINE
  5
A1D1
330
18
100
AcDbEntity
  8
mark
100
AcDbPolyline
 90
        3
 70
     1
 43
0.0
 10
84.68454035935998
 20
66.62527760621464
 10
83.24116468638592
 20
69.12527760621464
 10
81.79778901341185
 20
66.62527760621464
  0
MTEXT
  5
A1D2
330
18
100
AcDbEntity
  8
dim
100
AcDbMText
 10
82.84732861547059
 20
68.16754137428461
 30
0.0
 40
1.25
 41
4.581557073439626
 71
     1
 72
     5
  1
2
 73
     1
 44
1.0
1001
ACAD
1000
ACAD_MTEXT_DEFINED_HEIGHT_BEGIN
1070
    46
1040
0.0
1000
ACAD_MTEXT_DEFINED_HEIGHT_END
  0
MTEXT
  5
A1D3
330
18
100
AcDbEntity
  8
dim
100
AcDbMText
 10
85.42025371087607
 20
68.16754137428461
 30
0.0
 40
1.25
 41
4.581557073439626
 71
     1
 72
     5
  1
0.007
 73
     1
 44
1.0
1001
ACAD
1000
ACAD_MTEXT_DEFINED_HEIGHT_BEGIN
1070
    46
1040
0.0
1000
ACAD_MTEXT_DEFINED_HEIGHT_END
  0
LINE
  5
A1D4
330
18
100
AcDbEntity
  8
mark
 62
     1
100
AcDbLine
 10
84.9559891644991
 20
64.93451187908681
 30
0.0
 11
90.0487371301806
 21
64.93451187908681
 31
0.0
  0
LINE
  5
A1DC
330
18
100
AcDbEntity
  8
mark
 62
     1
100
AcDbLine
 10
84.9559891644991
 20
64.49855725483837
 30
0.0
 11
90.0487371301806
 21
64.49855725483837
 31
0.0
  0
ENDSEC
  0
SECTION
  2
OBJECTS
  0
DICTIONARY
  5
C
330
0
100
AcDbDictionary
281
     1
  3
ACAD_COLOR
350
7873
  3
ACAD_GROUP
350
D
  3
ACAD_LAYOUT
350
5CF3
  3
ACAD_MATERIAL
350
7872
  3
ACAD_MLINESTYLE
350
1B
  3
ACAD_PLOTSETTINGS
350
5CF4
  3
ACAD_PLOTSTYLENAME
350
5CF1
  3
ACAD_TABLESTYLE
350
7874
  3
AcadDim
350
9A73
  3
ACDBVARIABLEDICTIONARY
350
45D
  0
DICTIONARY
  5
7BFE
330
2
100
AcDbDictionary
280
     1
281
     1
  3
ACAD_LAYERFILTERS
360
7C00
  3
ACLYDICTIONARY
360
7BFF
  0
DICTIONARY
  5
45F
330
18
100
AcDbDictionary
280
     1
281
     1
  3
ACAD_LAYOUTSELFREF
360
5D8B
  3
ACAD_SORTENTS
360
460
  0
DICTIONARY
  5
5D89
330
15
100
AcDbDictionary
280
     1
281
     1
  3
ACAD_LAYOUTSELFREF
360
5D8A
  0
DICTIONARY
  5
7C0B
330
7C0A
100
AcDbDictionary
280
     1
281
     1
  3
AcDbBlockTableRecordData
360
7C0C
  0
DICTIONARY
  5
8E73
330
8E72
100
AcDbDictionary
280
     1
281
     1
  3
AcDbBlockTableRecordData
360
8E74
  0
DICTIONARY
  5
7873
102
{ACAD_REACTORS
330
C
102
}
330
C
100
AcDbDictionary
281
     1
  0
DICTIONARY
  5
D
102
{ACAD_REACTORS
330
C
102
}
330
C
100
AcDbDictionary
281
     1
  0
DICTIONARY
  5
5CF3
102
{ACAD_REACTORS
330
C
102
}
330
C
100
AcDbDictionary
281
     1
  3
Model
350
5CF5
  3
配置1
350
5CF6
  0
DICTIONARY
  5
7872
102
{ACAD_REACTORS
330
C
102
}
330
C
100
AcDbDictionary
281
     1
  0
DICTIONARY
  5
1B
102
{ACAD_REACTORS
330
C
102
}
330
C
100
AcDbDictionary
281
     1
  3
STANDARD
350
1C
  0
DICTIONARY
  5
5CF4
102
{ACAD_REACTORS
330
C
102
}
330
C
100
AcDbDictionary
281
     1
  0
ACDBDICTIONARYWDFLT
  5
5CF1
102
{ACAD_REACTORS
330
C
102
}
330
C
100
AcDbDictionary
281
     1
  3
Normal
350
5CF2
100
AcDbDictionaryWithDefault
340
5CF2
  0
DICTIONARY
  5
7874
102
{ACAD_REACTORS
330
C
102
}
330
C
100
AcDbDictionary
281
     1
  3
Standard
350
7875
  0
XRECORD
  5
9A73
102
{ACAD_REACTORS
330
C
102
}
330
C
100
AcDbXrecord
280
     1
 90
   990106
  3

 60
     0
 61
     0
 62
     1
 63
     3
 64
     0
 65
     0
 66
     0
 67
     3
 68
     1
 69
     0
 70
     0
 71
     0
 72
     0
 40
0.0
170
     0
  0
DICTIONARY
  5
45D
102
{ACAD_REACTORS
330
C
102
}
330
C
100
AcDbDictionary
281
     1
  3
CTABLESTYLE
350
7880
  3
SORTENTS
350
45E
  0
DICTIONARY
  5
7C00
102
{ACAD_REACTORS
330
7BFE
102
}
330
7BFE
100
AcDbDictionary
281
     1
  0
DICTIONARY
  5
7BFF
102
{ACAD_REACTORS
330
7BFE
102
}
330
7BFE
100
AcDbDictionary
281
     1
1001
ACAD
1000
<All
  0
XRECORD
  5
5D8B
102
{ACAD_REACTORS
330
45F
102
}
330
45F
100
AcDbXrecord
280
     1
340
18
  0
SORTENTSTABLE
  5
460
102
{ACAD_REACTORS
330
45F
102
}
330
45F
100
AcDbSortentsTable
330
18
331
7D9C
  5
7D9C
331
9D17
  5
9D1D
331
7DA4
  5
7DA4
331
7D6D
  5
7D6D
331
9D4E
  5
9D4F
331
9EFD
  5
9F0A
331
C0
  5
CB
331
7DAC
  5
7DAC
331
7D75
  5
7D75
331
9D56
  5
9D57
331
9C80
  5
9C88
331
7DB4
  5
7DB4
331
9D5E
  5
9D5F
331
9D66
  5
9D67
331
9C88
  5
9C8D
331
9B01
  5
9B1B
331
7DBC
  5
7DBC
331
7D7D
  5
7D7D
331
9C90
  5
9CA3
331
7D85
  5
7D85
331
9D6E
  5
9ED4
331
9CA0
  5
9CA4
331
9B11
  5
9AE9
331
982B
  5
982C
331
7D8D
  5
7D8D
331
9D37
  5
9D39
331
9CA8
  5
9CAA
331
9ACA
  5
9ACC
331
7D95
  5
7D95
331
9B19
  5
9ADB
331
9D47
  5
9D48
331
A0E4
  5
A0E4
331
9BF1
  5
9C83
331
7D9D
  5
7D9D
331
9D18
  5
9D1F
331
9933
  5
995E
331
7D6E
  5
7D6E
331
7DA5
  5
7DA5
331
9D4F
  5
9D50
331
7DAD
  5
7DAD
331
7D76
  5
7D76
331
9D57
  5
9D58
331
9F65
  5
9F79
331
9C81
  5
9C87
331
7DB5
  5
7DB5
331
9D5F
  5
9D60
331
9D67
  5
9D69
331
9C89
  5
9C8E
331
9B02
  5
9B7B
331
7DBD
  5
7DBD
331
7D7E
  5
7D7E
331
7D86
  5
7D86
331
9B12
  5
9BFE
331
982C
  5
982E
331
7D8E
  5
7D8E
331
9D38
  5
9D3A
331
9F26
  5
9F33
331
9ACB
  5
9AD4
331
7D96
  5
7D96
331
9B1A
  5
9AC7
331
9D40
  5
9D41
331
9AD3
  5
9B04
331
7D9E
  5
7D9E
331
9D48
  5
9D49
331
7DA6
  5
7DA6
331
7D6F
  5
7D6F
331
9D50
  5
9D51
331
9AFB
  5
9B19
331
7D77
  5
7D77
331
7DAE
  5
7DAE
331
9D58
  5
9D59
331
9C82
  5
9AD7
331
7DB6
  5
7DB6
331
9D60
  5
9D61
331
9F17
  5
9F26
331
9C8A
  5
9C8F
331
9B03
  5
9B7C
331
7D7F
  5
7D7F
331
9A34
  5
9A75
331
9B0B
  5
9AE5
331
7D87
  5
7D87
331
A15C
  5
A15C
331
9B13
  5
9B07
331
7D8F
  5
7D8F
331
9D39
  5
9D3B
331
9CAA
  5
9CAB
331
9ACC
  5
9AD6
331
7D97
  5
7D97
331
9B1B
  5
9C23
331
9D41
  5
9D42
331
9AD4
  5
9ADE
331
7D9F
  5
7D9F
331
9D49
  5
9D4A
331
9AEC
  5
9B16
331
7D70
  5
7D70
331
9D51
  5
9D52
331
9AFC
  5
9B1A
331
7DAF
  5
7DAF
331
9975
  5
9977
331
9D59
  5
9D5A
331
7DB7
  5
7DB7
331
9C83
  5
9AE2
331
9D61
  5
9D63
331
7D78
  5
7D78
331
9C8B
  5
9C90
331
7D80
  5
7D80
331
9B04
  5
9B7D
331
9D69
  5
9D6A
331
7D88
  5
7D88
331
9B0C
  5
9AE4
331
A15D
  5
A15D
331
9CA3
  5
9B11
331
7D90
  5
7D90
331
9AC5
  5
9AC6
331
9B14
  5
9ACA
331
9D3A
  5
9D3C
331
9CAB
  5
9CAC
331
9B1C
  5
9C28
331
9D42
  5
9D43
331
7D98
  5
7D98
331
7DA0
  5
7DA0
331
9AD5
  5
9ACE
331
9BF4
  5
9C84
331
9D4A
  5
9D4B
331
9F40
  5
9F65
331
7D71
  5
7D71
331
7DA8
  5
7DA8
331
9D1B
  5
9D2A
331
9D52
  5
9D53
331
7DB0
  5
7DB0
331
9D5A
  5
9D5B
331
9C84
  5
9C89
331
A156
  5
A156
331
7DB8
  5
7DB8
331
7D79
  5
7D79
331
9D6A
  5
9D6C
331
9C8C
  5
9C95
331
9B05
  5
9BF0
331
7D81
  5
7D81
331
9D2B
  5
9D2F
331
9B0D
  5
9AEA
331
7D89
  5
7D89
331
9CA4
  5
9CA5
331
9AC6
  5
9ADA
331
7D91
  5
7D91
331
9B15
  5
9AE8
331
9D3B
  5
9D3D
331
9CAC
  5
9D17
331
9ACE
  5
9B08
331
9D43
  5
9D44
331
7D99
  5
7D99
331
9AD6
  5
9ACB
331
9D4B
  5
9D4C
331
9C05
  5
9C85
331
7D72
  5
7D72
331
7DA9
  5
7DA9
331
9D53
  5
9D54
331
9F0A
  5
9F17
331
9D24
  5
9D2B
331
9977
  5
9978
331
7DB1
  5
7DB1
331
9D5B
  5
9D5C
331
9F79
  5
9F89
331
9C85
  5
9C8A
331
9D63
  5
9D64
331
A137
  5
A137
331
A157
  5
A157
331
7D7A
  5
7D7A
331
9C8D
  5
9C96
331
9B06
  5
9B1C
331
7D82
  5
7D82
331
9D2C
  5
9D34
331
9F89
  5
9F97
331
9B0E
  5
9BF7
331
7D8A
  5
7D8A
331
9828
  5
9829
331
9D34
  5
9D36
331
9CA5
  5
9CA6
331
9AC7
  5
9AE1
331
98A8
  5
98B2
331
7D92
  5
7D92
331
9B16
  5
9AE3
331
9D3C
  5
9D3E
331
A019
  5
9AC5
331
9ACF
  5
9B0B
331
9D44
  5
9D45
331
A0E1
  5
A0E1
331
7D9A
  5
7D9A
331
9AD7
  5
9B0E
331
7DA2
  5
7DA2
331
9D4C
  5
9D4D
331
7DAA
  5
7DAA
331
7D73
  5
7D73
331
9D54
  5
9D55
331
9D25
  5
9D2C
331
9978
  5
9979
331
7DB2
  5
7DB2
331
9D5C
  5
9D5D
331
9C86
  5
9C8B
331
9D64
  5
9D66
331
7DBA
  5
7DBA
331
7D7B
  5
7D7B
331
9D6C
  5
9D6D
331
9C8E
  5
9C9F
331
9B07
  5
9AC8
331
7D83
  5
7D83
331
9D2D
  5
9D35
331
9ED4
  5
9EFC
331
9B0F
  5
9BF8
331
9829
  5
982A
331
7D8B
  5
7D8B
331
9D35
  5
9D37
331
9CA6
  5
9CA7
331
9AC8
  5
9AE7
331
7D93
  5
7D93
331
9B17
  5
9ADF
331
9D3D
  5
9D3F
331
9F33
  5
9F40
331
9D45
  5
9D46
331
98F9
  5
9906
331
7D9B
  5
7D9B
331
9931
  5
9933
331
7D6C
  5
7D6C
331
7DA3
  5
7DA3
331
9D4D
  5
9D4E
331
9EFC
  5
9EFD
331
7D74
  5
7D74
331
9D55
  5
9D56
331
9C7F
  5
9C86
331
9979
  5
9983
331
9D26
  5
9D2D
331
9D5D
  5
9D5E
331
9C87
  5
9C8C
331
7D7C
  5
7D7C
331
7DBB
  5
7DBB
331
9C8F
  5
9CA0
331
9B08
  5
9BF1
331
7D84
  5
7D84
331
9D6D
  5
9D6E
331
9B10
  5
9AE6
331
982A
  5
982B
331
7D8C
  5
7D8C
331
9D36
  5
9D38
331
A179
  5
A179
331
9CA7
  5
9CA8
331
9B18
  5
9ACF
331
7D94
  5
7D94
331
9AC9
  5
9AC9
331
9D3E
  5
9D40
331
9D46
  5
9D47
331
A0E3
  5
A0E3
  0
XRECORD
  5
5D8A
102
{ACAD_REACTORS
330
5D89
102
}
330
5D89
100
AcDbXrecord
280
     1
340
15
  0
DICTIONARY
  5
7C0C
102
{ACAD_REACTORS
330
7C0B
102
}
330
7C0B
100
AcDbDictionary
280
     1
281
     1
  3
Edit
360
7C0D
  0
DICTIONARY
  5
8E74
102
{ACAD_REACTORS
330
8E73
102
}
330
8E73
100
AcDbDictionary
280
     1
281
     1
  3
Edit
360
8E75
  0
LAYOUT
  5
5CF5
102
{ACAD_REACTORS
330
5CF3
102
}
330
5CF3
100
AcDbPlotSettings
  1

  2
hp LaserJet 1300 PCL 6
  4
A4
  6

 40
5.027083396911621
 41
5.069413185119628
 42
5.027084350585937
 43
5.027069091796875
 44
209.9733276367187
 45
296.9683227539062
 46
4.959579944610595
 47
3.435920238494873
 48
0.0
 49
0.0
140
95.0
141
140.0
142
1.0
143
0.5
 70
 11956
 72
     1
 73
     0
 74
     4
  7
LIN.ctb
 75
    27
147
2.0
 76
     0
 77
     2
 78
   300
148
0.0
149
0.0
100
AcDbLayout
  1
Model
 70
     1
 71
     0
 10
0.0
 20
0.0
 11
12.0
 21
9.0
 12
0.0
 22
0.0
 32
0.0
 14
0.0
 24
0.0
 34
0.0
 15
0.0
 25
0.0
 35
0.0
146
0.0
 13
0.0
 23
0.0
 33
0.0
 16
1.0
 26
0.0
 36
0.0
 17
0.0
 27
1.0
 37
0.0
 76
     0
330
18
1001
ACAD_PSEXT
1000
hp LaserJet 1300 PCL 6
1000
hp LaserJet 1300 PCL 6
1000
HP 1300
1000

1070
     0
  0
LAYOUT
  5
5CF6
102
{ACAD_REACTORS
330
5CF3
102
}
330
5CF3
100
AcDbPlotSettings
  1

  2
EPSON STYLUS COLOR 440
  4

  6

 40
0.0
 41
0.0
 42
0.0
 43
0.0
 44
0.0
 45
0.0
 46
0.0
 47
0.0
 48
0.0
 49
0.0
140
0.0
141
0.0
142
1.0
143
1.0
 70
   688
 72
     0
 73
     0
 74
     5
  7
LIN.ctb
 75
    16
147
1.0
 76
     0
 77
     2
 78
   300
148
0.0
149
0.0
100
AcDbLayout
  1
ｰtｸm1
 70
     1
 71
     1
 10
0.0
 20
0.0
 11
420.0
 21
297.0
 12
0.0
 22
0.0
 32
0.0
 14
1.000000000000000E+20
 24
1.000000000000000E+20
 34
1.000000000000000E+20
 15
-1.000000000000000E+20
 25
-1.000000000000000E+20
 35
-1.000000000000000E+20
146
0.0
 13
0.0
 23
0.0
 33
0.0
 16
1.0
 26
0.0
 36
0.0
 17
0.0
 27
1.0
 37
0.0
 76
     0
330
15
  0
MLINESTYLE
  5
1C
102
{ACAD_REACTORS
330
1B
102
}
330
1B
100
AcDbMlineStyle
  2
STANDARD
 70
     0
  3

 62
   256
 51
90.0
 52
90.0
 71
     2
 49
0.5
 62
   256
  6
BYLAYER
 49
-0.5
 62
   256
  6
BYLAYER
  0
ACDBPLACEHOLDER
  5
5CF2
102
{ACAD_REACTORS
330
5CF1
102
}
330
5CF1
  0
TABLESTYLE
  5
7875
102
{ACAD_REACTORS
330
7874
102
}
330
7874
100
AcDbTableStyle
  3
Standard
 70
     0
 71
     8
 40
1.5
 41
1.5
280
     0
281
     0
  7
STANDARD
140
4.5
170
     2
 62
     0
 63
     7
283
     0
274
    -2
284
     1
 64
     0
275
    -2
285
     1
 65
     0
276
    -2
286
     1
 66
     0
277
    -2
287
     1
 67
     0
278
    -2
288
     1
 68
     0
279
    -2
289
     1
 69
     0
  7
STANDARD
140
6.0
170
     5
 62
     0
 63
     7
283
     0
274
    -2
284
     1
 64
     0
275
    -2
285
     1
 65
     0
276
    -2
286
     1
 66
     0
277
    -2
287
     1
 67
     0
278
    -2
288
     1
 68
     0
279
    -2
289
     1
 69
     0
  7
STANDARD
140
4.5
170
     5
 62
     0
 63
     7
283
     0
274
    -2
284
     1
 64
     0
275
    -2
285
     1
 65
     0
276
    -2
286
     1
 66
     0
277
    -2
287
     1
 67
     0
278
    -2
288
     1
 68
     0
279
    -2
289
     1
 69
     0
  0
DICTIONARYVAR
  5
7880
102
{ACAD_REACTORS
330
45D
102
}
330
45D
100
DictionaryVariables
280
     0
  1
STANDARD
  0
DICTIONARYVAR
  5
45E
102
{ACAD_REACTORS
330
45D
102
}
330
45D
100
DictionaryVariables
280
     0
  1
127
  0
XRECORD
  5
7C0D
102
{ACAD_REACTORS
330
7C0C
102
}
330
7C0C
100
AcDbXrecord
280
     1
1070
     0
1070
     1
1070
     1
  0
XRECORD
  5
8E75
102
{ACAD_REACTORS
330
8E74
102
}
330
8E74
100
AcDbXrecord
280
     1
1070
     0
1070
     1
1070
     1
  0
ENDSEC
  0
EOF
