  0
SECTION
  2
HEADER
  9
$ACADVER
  1
AC1018
  9
$ACADMAINTVER
 70
    76
  9
$DWGCODEPAGE
  3
ANSI_932
  9
$INSBASE
 10
0.0
 20
0.0
 30
0.0
  9
$EXTMIN
 10
0.0
 20
0.0
 30
0.0
  9
$EXTMAX
 10
95.0
 20
140.0
 30
1.919191919191921
  9
$LIMMIN
 10
0.0
 20
0.0
  9
$LIMMAX
 10
420.0
 20
297.0
  9
$ORTHOMODE
 70
     1
  9
$REGENMODE
 70
     1
  9
$FILLMODE
 70
     1
  9
$QTEXTMODE
 70
     0
  9
$MIRRTEXT
 70
     1
  9
$LTSCALE
 40
1.0
  9
$ATTMODE
 70
     1
  9
$TEXTSIZE
 40
1.25
  9
$TRACEWID
 40
1.0
  9
$TEXTSTYLE
  7
TXT
  9
$CLAYER
  8
mark
  9
$CELTYPE
  6
BYLAYER
  9
$CECOLOR
 62
   256
  9
$CELTSCALE
 40
1.0
  9
$DISPSILH
 70
     0
  9
$DIMSCALE
 40
1.0
  9
$DIMASZ
 40
1.25
  9
$DIMEXO
 40
0.4
  9
$DIMDLI
 40
0.38
  9
$DIMRND
 40
0.0
  9
$DIMDLE
 40
0.0
  9
$DIMEXE
 40
0.4
  9
$DIMTP
 40
0.0
  9
$DIMTM
 40
0.0
  9
$DIMTXT
 40
1.25
  9
$DIMCEN
 40
0.09
  9
$DIMTSZ
 40
0.0
  9
$DIMTOL
 70
     0
  9
$DIMLIM
 70
     0
  9
$DIMTIH
 70
     0
  9
$DIMTOH
 70
     0
  9
$DIMSE1
 70
     0
  9
$DIMSE2
 70
     0
  9
$DIMTAD
 70
     3
  9
$DIMZIN
 70
     8
  9
$DIMBLK
  1
Open30
  9
$DIMASO
 70
     1
  9
$DIMSHO
 70
     1
  9
$DIMPOST
  1

  9
$DIMAPOST
  1

  9
$DIMALT
 70
     0
  9
$DIMALTD
 70
     2
  9
$DIMALTF
 40
25.4
  9
$DIMLFAC
 40
1.0
  9
$DIMTOFL
 70
     1
  9
$DIMTVP
 40
0.0
  9
$DIMTIX
 70
     0
  9
$DIMSOXD
 70
     0
  9
$DIMSAH
 70
     0
  9
$DIMBLK1
  1

  9
$DIMBLK2
  1

  9
$DIMSTYLE
  2
STANDARD
  9
$DIMCLRD
 70
   256
  9
$DIMCLRE
 70
   256
  9
$DIMCLRT
 70
     3
  9
$DIMTFAC
 40
1.0
  9
$DIMGAP
 40
0.4
  9
$DIMJUST
 70
     0
  9
$DIMSD1
 70
     0
  9
$DIMSD2
 70
     0
  9
$DIMTOLJ
 70
     1
  9
$DIMTZIN
 70
     0
  9
$DIMALTZ
 70
     0
  9
$DIMALTTZ
 70
     0
  9
$DIMUPT
 70
     0
  9
$DIMDEC
 70
     2
  9
$DIMTDEC
 70
     2
  9
$DIMALTU
 70
     2
  9
$DIMALTTD
 70
     2
  9
$DIMTXSTY
  7
STANDARD
  9
$DIMAUNIT
 70
     0
  9
$DIMADEC
 70
     2
  9
$DIMALTRND
 40
0.0
  9
$DIMAZIN
 70
     2
  9
$DIMDSEP
 70
    46
  9
$DIMATFIT
 70
     3
  9
$DIMFRAC
 70
     0
  9
$DIMLDRBLK
  1
Open30
  9
$DIMLUNIT
 70
     2
  9
$DIMLWD
 70
    -2
  9
$DIMLWE
 70
    -2
  9
$DIMTMOVE
 70
     0
  9
$LUNITS
 70
     2
  9
$LUPREC
 70
     2
  9
$SKETCHINC
 40
1.0
  9
$FILLETRAD
 40
1.0
  9
$AUNITS
 70
     0
  9
$AUPREC
 70
     2
  9
$MENU
  1
.
  9
$ELEVATION
 40
0.0
  9
$PELEVATION
 40
0.0
  9
$THICKNESS
 40
0.0
  9
$LIMCHECK
 70
     0
  9
$CHAMFERA
 40
1.5
  9
$CHAMFERB
 40
1.5
  9
$CHAMFERC
 40
1.75
  9
$CHAMFERD
 40
0.0174532925199433
  9
$SKPOLY
 70
     0
  9
$TDCREATE
 40
2451555.620234838
  9
$TDUCREATE
 40
2451555.245234838
  9
$TDUPDATE
 40
2455846.618006273
  9
$TDUUPDATE
 40
2455846.243006273
  9
$TDINDWG
 40
2.6819239468
  9
$TDUSRTIMER
 40
2.6819239468
  9
$USRTIMER
 70
     1
  9
$ANGBASE
 50
0.0
  9
$ANGDIR
 70
     0
  9
$PDMODE
 70
     0
  9
$PDSIZE
 40
0.0
  9
$PLINEWID
 40
0.0
  9
$SPLFRAME
 70
     0
  9
$SPLINETYPE
 70
     6
  9
$SPLINESEGS
 70
     8
  9
$HANDSEED
  5
A3C9
  9
$SURFTAB1
 70
     6
  9
$SURFTAB2
 70
     6
  9
$SURFTYPE
 70
     6
  9
$SURFU
 70
     6
  9
$SURFV
 70
     6
  9
$UCSBASE
  2

  9
$UCSNAME
  2

  9
$UCSORG
 10
0.0
 20
0.0
 30
0.0
  9
$UCSXDIR
 10
1.0
 20
0.0
 30
0.0
  9
$UCSYDIR
 10
0.0
 20
1.0
 30
0.0
  9
$UCSORTHOREF
  2

  9
$UCSORTHOVIEW
 70
     1
  9
$UCSORGTOP
 10
0.0
 20
0.0
 30
0.0
  9
$UCSORGBOTTOM
 10
0.0
 20
0.0
 30
0.0
  9
$UCSORGLEFT
 10
0.0
 20
0.0
 30
0.0
  9
$UCSORGRIGHT
 10
0.0
 20
0.0
 30
0.0
  9
$UCSORGFRONT
 10
0.0
 20
0.0
 30
0.0
  9
$UCSORGBACK
 10
0.0
 20
0.0
 30
0.0
  9
$PUCSBASE
  2

  9
$PUCSNAME
  2

  9
$PUCSORG
 10
0.0
 20
0.0
 30
0.0
  9
$PUCSXDIR
 10
1.0
 20
0.0
 30
0.0
  9
$PUCSYDIR
 10
0.0
 20
1.0
 30
0.0
  9
$PUCSORTHOREF
  2

  9
$PUCSORTHOVIEW
 70
     0
  9
$PUCSORGTOP
 10
0.0
 20
0.0
 30
0.0
  9
$PUCSORGBOTTOM
 10
0.0
 20
0.0
 30
0.0
  9
$PUCSORGLEFT
 10
0.0
 20
0.0
 30
0.0
  9
$PUCSORGRIGHT
 10
0.0
 20
0.0
 30
0.0
  9
$PUCSORGFRONT
 10
0.0
 20
0.0
 30
0.0
  9
$PUCSORGBACK
 10
0.0
 20
0.0
 30
0.0
  9
$USERI1
 70
     0
  9
$USERI2
 70
     0
  9
$USERI3
 70
     0
  9
$USERI4
 70
     0
  9
$USERI5
 70
     0
  9
$USERR1
 40
0.0
  9
$USERR2
 40
0.0
  9
$USERR3
 40
0.0
  9
$USERR4
 40
0.0
  9
$USERR5
 40
0.0
  9
$WORLDVIEW
 70
     1
  9
$SHADEDGE
 70
     3
  9
$SHADEDIF
 70
    70
  9
$TILEMODE
 70
     1
  9
$MAXACTVP
 70
    48
  9
$PINSBASE
 10
0.0
 20
0.0
 30
0.0
  9
$PLIMCHECK
 70
     0
  9
$PEXTMIN
 10
1.000000000000000E+20
 20
1.000000000000000E+20
 30
1.000000000000000E+20
  9
$PEXTMAX
 10
-1.000000000000000E+20
 20
-1.000000000000000E+20
 30
-1.000000000000000E+20
  9
$PLIMMIN
 10
0.0
 20
0.0
  9
$PLIMMAX
 10
420.0
 20
297.0
  9
$UNITMODE
 70
     0
  9
$VISRETAIN
 70
     1
  9
$PLINEGEN
 70
     0
  9
$PSLTSCALE
 70
     1
  9
$TREEDEPTH
 70
  3020
  9
$CMLSTYLE
  2
STANDARD
  9
$CMLJUST
 70
     0
  9
$CMLSCALE
 40
20.0
  9
$PROXYGRAPHICS
 70
     1
  9
$MEASUREMENT
 70
     1
  9
$CELWEIGHT
370
    -1
  9
$ENDCAPS
280
     0
  9
$JOINSTYLE
280
     0
  9
$LWDISPLAY
290
     0
  9
$INSUNITS
 70
     0
  9
$HYPERLINKBASE
  1

  9
$STYLESHEET
  1
monochrome.ctb
  9
$XEDIT
290
     1
  9
$CEPSNTYPE
380
     0
  9
$PSTYLEMODE
290
     1
  9
$FINGERPRINTGUID
  2
{1CF51E8A-A506-11D4-A7D9-AF69F5C20846}
  9
$VERSIONGUID
  2
{25E6EBCD-E519-47A0-B5B6-0B7E2CDFE080}
  9
$EXTNAMES
290
     1
  9
$PSVPSCALE
 40
0.0
  9
$OLESTARTUP
290
     0
  9
$SORTENTS
280
   127
  9
$INDEXCTL
280
     0
  9
$HIDETEXT
280
     0
  9
$XCLIPFRAME
290
     0
  9
$HALOGAP
280
     0
  9
$OBSCOLOR
 70
   257
  9
$OBSLTYPE
280
     0
  9
$INTERSECTIONDISPLAY
280
     0
  9
$INTERSECTIONCOLOR
 70
   257
  9
$DIMASSOC
280
     1
  9
$PROJECTNAME
  1

  0
ENDSEC
  0
SECTION
  2
CLASSES
  0
CLASS
  1
DICTIONARYVAR
  2
AcDbDictionaryVar
  3
ObjectDBX Classes
 90
        0
 91
        2
280
     0
281
     0
  0
CLASS
  1
SORTENTSTABLE
  2
AcDbSortentsTable
  3
ObjectDBX Classes
 90
        0
 91
        1
280
     0
281
     0
  0
CLASS
  1
ACDBDICTIONARYWDFLT
  2
AcDbDictionaryWithDefault
  3
ObjectDBX Classes
 90
        0
 91
        1
280
     0
281
     0
  0
CLASS
  1
TABLESTYLE
  2
AcDbTableStyle
  3
ObjectDBX Classes
 90
     2047
 91
        1
280
     0
281
     0
  0
ENDSEC
  0
SECTION
  2
TABLES
  0
TABLE
  2
VPORT
  5
8
330
0
100
AcDbSymbolTable
 70
     2
  0
VPORT
  5
A3C8
330
8
100
AcDbSymbolTableRecord
100
AcDbViewportTableRecord
  2
*Active
 70
     0
 10
0.0
 20
0.0
 11
1.0
 21
1.0
 12
122.9983455597159
 22
70.00125603435003
 13
0.0
 23
0.0
 14
10.0
 24
10.0
 15
10.0
 25
10.0
 16
0.0
 26
0.0
 36
1.0
 17
0.0
 27
0.0
 37
0.0
 40
141.7396313243799
 41
2.47104247104247
 42
50.0
 43
0.0
 44
0.0
 50
0.0
 51
0.0
 71
     0
 72
 20000
 73
     1
 74
     1
 75
     0
 76
     0
 77
     0
 78
     0
281
     0
 65
     1
110
0.0
120
0.0
130
0.0
111
1.0
121
0.0
131
0.0
112
0.0
122
1.0
132
0.0
 79
     1
146
0.0
  0
ENDTAB
  0
TABLE
  2
LTYPE
  5
5
330
0
100
AcDbSymbolTable
 70
     7
  0
LTYPE
  5
12
330
5
100
AcDbSymbolTableRecord
100
AcDbLinetypeTableRecord
  2
BYBLOCK
 70
     0
  3

 72
    65
 73
     0
 40
0.0
  0
LTYPE
  5
13
330
5
100
AcDbSymbolTableRecord
100
AcDbLinetypeTableRecord
  2
BYLAYER
 70
     0
  3

 72
    65
 73
     0
 40
0.0
  0
LTYPE
  5
14
330
5
100
AcDbSymbolTableRecord
100
AcDbLinetypeTableRecord
  2
CONTINUOUS
 70
     0
  3
Solid line
 72
    65
 73
     0
 40
0.0
  0
LTYPE
  5
9D
330
5
100
AcDbSymbolTableRecord
100
AcDbLinetypeTableRecord
  2
CENTERX2
 70
     0
  3
Center (2x) ________  __  ________  __  _____
 72
    65
 73
     4
 40
101.6
 49
63.5
 74
     0
 49
-12.7
 74
     0
 49
12.7
 74
     0
 49
-12.7
 74
     0
  0
LTYPE
  5
A1
330
5
100
AcDbSymbolTableRecord
100
AcDbLinetypeTableRecord
  2
DASHED
 70
     0
  3
Dashed __ __ __ __ __ __ __ __ __ __ __ __ __ _
 72
    65
 73
     2
 40
19.05
 49
12.7
 74
     0
 49
-6.349999999999999
 74
     0
  0
LTYPE
  5
A2
330
5
100
AcDbSymbolTableRecord
100
AcDbLinetypeTableRecord
  2
DASHED2
 70
     0
  3
Dashed (.5x) _ _ _ _ _ _ _ _ _ _ _ _ _ _ _ _ _
 72
    65
 73
     2
 40
9.524999999999998
 49
6.349999999999999
 74
     0
 49
-3.174999999999999
 74
     0
  0
LTYPE
  5
A5
330
5
100
AcDbSymbolTableRecord
100
AcDbLinetypeTableRecord
  2
DIVIDE2
 70
     0
  3
Divide (.5x) __..__..__..__..__..__..__..__.._
 72
    65
 73
     6
 40
15.875
 49
6.349999999999999
 74
     0
 49
-3.174999999999999
 74
     0
 49
0.0
 74
     0
 49
-3.174999999999999
 74
     0
 49
0.0
 74
     0
 49
-3.174999999999999
 74
     0
  0
LTYPE
  5
650B
330
5
100
AcDbSymbolTableRecord
100
AcDbLinetypeTableRecord
  2
CENTER
 70
     0
  3
Center ____ _ ____ _ ____ _ ____ _ ____ _ ____
 72
    65
 73
     4
 40
50.8
 49
31.75
 74
     0
 49
-6.349999999999999
 74
     0
 49
6.349999999999999
 74
     0
 49
-6.349999999999999
 74
     0
  0
LTYPE
  5
650C
330
5
100
AcDbSymbolTableRecord
100
AcDbLinetypeTableRecord
  2
HIDDEN
 70
     0
  3
Hidden __ __ __ __ __ __ __ __ __ __ __ __ __ _
 72
    65
 73
     2
 40
9.524999999999998
 49
6.349999999999999
 74
     0
 49
-3.174999999999999
 74
     0
  0
ENDTAB
  0
TABLE
  2
LAYER
  5
2
102
{ACAD_XDICTIONARY
360
7BFE
102
}
330
0
100
AcDbSymbolTable
 70
     9
  0
LAYER
  5
E
330
2
100
AcDbSymbolTableRecord
100
AcDbLayerTableRecord
  2
0
 70
     0
 62
     7
  6
CONTINUOUS
370
    -3
390
5CF2
  0
LAYER
  5
B9
330
2
100
AcDbSymbolTableRecord
100
AcDbLayerTableRecord
  2
dim
 70
     0
 62
     3
  6
CONTINUOUS
370
    -3
390
5CF2
  0
LAYER
  5
F2
330
2
100
AcDbSymbolTableRecord
100
AcDbLayerTableRecord
  2
DEFPOINTS
 70
     0
 62
     4
  6
CONTINUOUS
290
     0
370
    -3
390
5CF2
  0
LAYER
  5
5F8B
330
2
100
AcDbSymbolTableRecord
100
AcDbLayerTableRecord
  2
mark
 70
     0
 62
     6
  6
CONTINUOUS
370
    -3
390
5CF2
  0
LAYER
  5
644E
330
2
100
AcDbSymbolTableRecord
100
AcDbLayerTableRecord
  2
frame
 70
     0
 62
     9
  6
CONTINUOUS
370
    -3
390
5CF2
  0
LAYER
  5
650D
330
2
100
AcDbSymbolTableRecord
100
AcDbLayerTableRecord
  2
center
 70
     0
 62
     1
  6
CENTER
370
    -3
390
5CF2
  0
LAYER
  5
650E
330
2
100
AcDbSymbolTableRecord
100
AcDbLayerTableRecord
  2
bowle
 70
     0
 62
     4
  6
HIDDEN
370
    -3
390
5CF2
  0
LAYER
  5
650F
330
2
100
AcDbSymbolTableRecord
100
AcDbLayerTableRecord
  2
contour
 70
     0
 62
     2
  6
CONTINUOUS
370
    -3
390
5CF2
  0
LAYER
  5
6510
330
2
100
AcDbSymbolTableRecord
100
AcDbLayerTableRecord
  2
section
 70
     0
 62
     5
  6
CONTINUOUS
370
    -3
390
5CF2
  0
ENDTAB
  0
TABLE
  2
STYLE
  5
3
330
0
100
AcDbSymbolTable
 70
     5
  0
STYLE
  5
F
330
3
100
AcDbSymbolTableRecord
100
AcDbTextStyleTableRecord
  2
STANDARD
 70
     0
 40
0.0
 41
1.0
 50
0.0
 71
     0
 42
2.5
  3
txt
  4

  0
STYLE
  5
BE
330
3
100
AcDbSymbolTableRecord
100
AcDbTextStyleTableRecord
  2
ISOCP3
 70
     0
 40
0.0
 41
1.0
 50
0.0
 71
     0
 42
2.5
  3
isocp3.shx
  4

  0
STYLE
  5
2A37
330
3
100
AcDbSymbolTableRecord
100
AcDbTextStyleTableRecord
  2
TXT
 70
     0
 40
0.0
 41
1.0
 50
0.0
 71
     0
 42
1.25
  3
txt.shx
  4
bigfont.shx
  0
STYLE
  5
5DCB
330
3
100
AcDbSymbolTableRecord
100
AcDbTextStyleTableRecord
  2
LKK
 70
     0
 40
50.0
 41
1.5
 50
0.0
 71
     0
 42
50.0
  3
MS PGothic.ttf
  4

1001
ACAD
1000
MS PGothic
1071
    32818
  0
STYLE
  5
5DCC
330
3
100
AcDbSymbolTableRecord
100
AcDbTextStyleTableRecord
  2
JL
 70
     0
 40
10.0
 41
0.5
 50
0.0
 71
     0
 42
5.0
  3
MS Mincho.ttf
  4

1001
ACAD
1000
MS Mincho
1071
    32785
  0
ENDTAB
  0
TABLE
  2
VIEW
  5
6
330
0
100
AcDbSymbolTable
 70
     0
  0
ENDTAB
  0
TABLE
  2
UCS
  5
7
330
0
100
AcDbSymbolTable
 70
     0
  0
ENDTAB
  0
TABLE
  2
APPID
  5
9
330
0
100
AcDbSymbolTable
 70
    11
  0
APPID
  5
10
330
9
100
AcDbSymbolTableRecord
100
AcDbRegAppTableRecord
  2
ACAD
 70
     0
  0
APPID
  5
7C91
330
9
100
AcDbSymbolTableRecord
100
AcDbRegAppTableRecord
  2
ACAD_DSTYLE_DIMEXT_LENGTH
 70
     0
  0
APPID
  5
7C92
330
9
100
AcDbSymbolTableRecord
100
AcDbRegAppTableRecord
  2
ACAD_DSTYLE_DIMEXT_ENABLED
 70
     0
  0
APPID
  5
7C93
330
9
100
AcDbSymbolTableRecord
100
AcDbRegAppTableRecord
  2
ACAD_DSTYLE_DIMJOGGED_JOGANGLE_SYMBOL
 70
     0
  0
APPID
  5
7C94
330
9
100
AcDbSymbolTableRecord
100
AcDbRegAppTableRecord
  2
ACAD_DSTYLE_DIMARC_LENGTH_SYMBOL
 70
     0
  0
APPID
  5
7F1C
330
9
100
AcDbSymbolTableRecord
100
AcDbRegAppTableRecord
  2
ACAD_EXEMPT_FROM_CAD_STANDARDS
 70
     0
  0
APPID
  5
7F49
330
9
100
AcDbSymbolTableRecord
100
AcDbRegAppTableRecord
  2
ACAD_DSTYLE_DIMTEXT_FILL
 70
     0
  0
APPID
  5
7F4C
330
9
100
AcDbSymbolTableRecord
100
AcDbRegAppTableRecord
  2
ACAD_DSTYLE_DIM_LINETYPE
 70
     0
  0
APPID
  5
7F4D
330
9
100
AcDbSymbolTableRecord
100
AcDbRegAppTableRecord
  2
ACAD_DSTYLE_DIM_EXT1_LINETYPE
 70
     0
  0
APPID
  5
7F4E
330
9
100
AcDbSymbolTableRecord
100
AcDbRegAppTableRecord
  2
ACAD_DSTYLE_DIM_EXT2_LINETYPE
 70
     0
  0
APPID
  5
8C73
330
9
100
AcDbSymbolTableRecord
100
AcDbRegAppTableRecord
  2
ACAD_PSEXT
 70
     0
  0
ENDTAB
  0
TABLE
  2
DIMSTYLE
  5
A
330
0
100
AcDbSymbolTable
 70
     1
100
AcDbDimStyleTable
 71
     1
340
1D
  0
DIMSTYLE
105
1D
102
{ACAD_REACTORS
330
A0F3
330
A103
330
A11D
330
A147
330
A154
330
A161
330
A170
330
A17D
330
A1A3
102
}
330
A
100
AcDbSymbolTableRecord
100
AcDbDimStyleTableRecord
  2
STANDARD
 70
     0
 41
1.25
 42
0.4
 44
0.4
 73
     0
 74
     0
 77
     3
 78
     8
 79
     2
140
1.25
147
0.4
172
     1
176
   256
177
   256
178
     3
179
     2
271
     2
272
     2
340
F
341
7C04
342
7C04
1001
ACAD_DSTYLE_DIMEXT_LENGTH
1070
   378
1040
0.18
1001
ACAD_DSTYLE_DIMEXT_ENABLED
1070
   383
1070
     0
1001
ACAD_DSTYLE_DIMARC_LENGTH_SYMBOL
1070
   379
1070
     0
1001
ACAD_DSTYLE_DIMJOGGED_JOGANGLE_SYMBOL
1070
   384
1040
1.570796326794896
  0
ENDTAB
  0
TABLE
  2
BLOCK_RECORD
  5
1
330
0
100
AcDbSymbolTable
 70
    13
  0
BLOCK_RECORD
  5
18
102
{ACAD_XDICTIONARY
360
45F
102
}
330
1
100
AcDbSymbolTableRecord
100
AcDbBlockTableRecord
  2
*MODEL_SPACE
340
5CF5
  0
BLOCK_RECORD
  5
15
102
{ACAD_XDICTIONARY
360
5D89
102
}
330
1
100
AcDbSymbolTableRecord
100
AcDbBlockTableRecord
  2
*PAPER_SPACE
340
5CF6
  0
BLOCK_RECORD
  5
639D
330
1
100
AcDbSymbolTableRecord
100
AcDbBlockTableRecord
  2
A$C255C26A2
340
0
  0
BLOCK_RECORD
  5
7C04
330
1
100
AcDbSymbolTableRecord
100
AcDbBlockTableRecord
  2
_Open30
340
0
102
{BLKREFS
331
A289
331
A28A
331
A291
331
A292
331
A298
331
A299
331
A2A1
331
A2A2
331
A2AA
331
A2AB
331
A2B5
331
A2B6
331
A2BE
331
A2BF
331
A2C7
331
A2CD
331
A2CE
102
}
  0
BLOCK_RECORD
  5
7C0A
102
{ACAD_XDICTIONARY
360
7C0B
102
}
330
1
100
AcDbSymbolTableRecord
100
AcDbBlockTableRecord
  2
A
340
0
310
2800000020000000200000000100080000000000000400000000000000000000000000000000000000000000000080000080000000808000800000008000800080800000C0C0C000C0DCC000F0CAA6000020400000206000002080000020A0000020C0000020E00000400000004020000040400000406000004080000040A0
310
000040C0000040E00000600000006020000060400000606000006080000060A0000060C0000060E00000800000008020000080400000806000008080000080A0000080C0000080E00000A0000000A0200000A0400000A0600000A0800000A0A00000A0C00000A0E00000C0000000C0200000C0400000C0600000C0800000C0
310
A00000C0C00000C0E00000E0000000E0200000E0400000E0600000E0800000E0A00000E0C00000E0E00040000000400020004000400040006000400080004000A0004000C0004000E00040200000402020004020400040206000402080004020A0004020C0004020E000404000004040200040404000404060004040800040
310
40A0004040C0004040E00040600000406020004060400040606000406080004060A0004060C0004060E00040800000408020004080400040806000408080004080A0004080C0004080E00040A0000040A0200040A0400040A0600040A0800040A0A00040A0C00040A0E00040C0000040C0200040C0400040C0600040C08000
310
40C0A00040C0C00040C0E00040E0000040E0200040E0400040E0600040E0800040E0A00040E0C00040E0E00080000000800020008000400080006000800080008000A0008000C0008000E00080200000802020008020400080206000802080008020A0008020C0008020E00080400000804020008040400080406000804080
310
008040A0008040C0008040E00080600000806020008060400080606000806080008060A0008060C0008060E00080800000808020008080400080806000808080008080A0008080C0008080E00080A0000080A0200080A0400080A0600080A0800080A0A00080A0C00080A0E00080C0000080C0200080C0400080C0600080C0
310
800080C0A00080C0C00080C0E00080E0000080E0200080E0400080E0600080E0800080E0A00080E0C00080E0E000C0000000C0002000C0004000C0006000C0008000C000A000C000C000C000E000C0200000C0202000C0204000C0206000C0208000C020A000C020C000C020E000C0400000C0402000C0404000C0406000C0
310
408000C040A000C040C000C040E000C0600000C0602000C0604000C0606000C0608000C060A000C060C000C060E000C0800000C0802000C0804000C0806000C0808000C080A000C080C000C080E000C0A00000C0A02000C0A04000C0A06000C0A08000C0A0A000C0A0C000C0A0E000C0C00000C0C02000C0C04000C0C06000
310
C0C08000C0C0A000F0FBFF00A4A0A000808080000000FF0000FF000000FFFF00FF000000FF00FF00FFFF0000FFFFFF0000000000000000000000000000000000000000000000000000000000000000000000000000000000000000000000000000000000000000000000000000000000000000000000000000000000000000
310
00000000000000000000000000000000000000000000000000000000000000000000000000000000000000000000000000000000000000000000000000000000000000000000000000000000000000000000000000000000000000000000000000000000000000000000000000000000000000000000000000000000000000
310
00000000000000000000000000000000000000000000000000000000000000000000000000000000000000000000000000000000000000000000000000000000000000000000000000000000000000000000000000000000000000000000000000000000000000000000000000000000000000000000000000000000000000
310
000000000000FDFDFDFDFDFDFDFDFDFDFDFD0000FD0000000000000000000000000000000000FD0000FA0000000000FA00FD0000FDFD00000000000000000000000000000000FD0000FA0000000000FA00FD0000FDFDFD000000000000000000000000000000FD0000FA0000000000FA00FD0000FDFDFDFD00000000000000
310
00000000000000FD0000FAFAFAFAFAFAFA00FD0000FDFDFDFDFD00000000000000000000000000FD000000FA00000000FA00FD0000FDFDFDFDFDFDFDFDFDFDFDFDFDFDFDFDFDFDFD000000FA000000FA0000FD0000FDFDFDFDFD00000000000000000000000000FD00000000FA0000FA0000FD0000FDFDFDFD000000000000
310
0000000000000000FD00000000FA00FA000000FD0000FDFD00000000000000000000000000000000FD0000000000FAFA000000FD0000FD0000000000000000000000000000000000FD0000000000FA00000000FD0000000000000000000000000000000000000000FDFDFDFDFDFDFDFDFDFDFDFD0000000000000000000000
310
00000000000000000000000000000000000000000000000000000000000000000000000000000000000000000000000000000000000000000000000000000000000000000000000000000000000000000000000000000000000000000000000000000000000000000000000000000000000000000000000000000000000000
310
00000000000000000000000000000000000000000000000000000000000000000000000000000000000000000000000000000000000000000000000000000000000000000000000000000000000000000000000000000000000000000000000000000000000000000000000000000000000000000000000000000000000000
310
0000000000000000000000000000000000000000000000000000000000000000000000000000000000000000000000000000000000000000
  0
BLOCK_RECORD
  5
8E72
102
{ACAD_XDICTIONARY
360
8E73
102
}
330
1
100
AcDbSymbolTableRecord
100
AcDbBlockTableRecord
  2
LS
340
0
310
2800000020000000200000000100080000000000000400000000000000000000000000000000000000000000000080000080000000808000800000008000800080800000C0C0C000C0DCC000F0CAA6000020400000206000002080000020A0000020C0000020E00000400000004020000040400000406000004080000040A0
310
000040C0000040E00000600000006020000060400000606000006080000060A0000060C0000060E00000800000008020000080400000806000008080000080A0000080C0000080E00000A0000000A0200000A0400000A0600000A0800000A0A00000A0C00000A0E00000C0000000C0200000C0400000C0600000C0800000C0
310
A00000C0C00000C0E00000E0000000E0200000E0400000E0600000E0800000E0A00000E0C00000E0E00040000000400020004000400040006000400080004000A0004000C0004000E00040200000402020004020400040206000402080004020A0004020C0004020E000404000004040200040404000404060004040800040
310
40A0004040C0004040E00040600000406020004060400040606000406080004060A0004060C0004060E00040800000408020004080400040806000408080004080A0004080C0004080E00040A0000040A0200040A0400040A0600040A0800040A0A00040A0C00040A0E00040C0000040C0200040C0400040C0600040C08000
310
40C0A00040C0C00040C0E00040E0000040E0200040E0400040E0600040E0800040E0A00040E0C00040E0E00080000000800020008000400080006000800080008000A0008000C0008000E00080200000802020008020400080206000802080008020A0008020C0008020E00080400000804020008040400080406000804080
310
008040A0008040C0008040E00080600000806020008060400080606000806080008060A0008060C0008060E00080800000808020008080400080806000808080008080A0008080C0008080E00080A0000080A0200080A0400080A0600080A0800080A0A00080A0C00080A0E00080C0000080C0200080C0400080C0600080C0
310
800080C0A00080C0C00080C0E00080E0000080E0200080E0400080E0600080E0800080E0A00080E0C00080E0E000C0000000C0002000C0004000C0006000C0008000C000A000C000C000C000E000C0200000C0202000C0204000C0206000C0208000C020A000C020C000C020E000C0400000C0402000C0404000C0406000C0
310
408000C040A000C040C000C040E000C0600000C0602000C0604000C0606000C0608000C060A000C060C000C060E000C0800000C0802000C0804000C0806000C0808000C080A000C080C000C080E000C0A00000C0A02000C0A04000C0A06000C0A08000C0A0A000C0A0C000C0A0E000C0C00000C0C02000C0C04000C0C06000
310
C0C08000C0C0A000F0FBFF00A4A0A000808080000000FF0000FF000000FFFF00FF000000FF00FF00FFFF0000FFFFFF00000000000000000000000000000000000000000000000000000000000000000000000000000000000000FBFBFEFBFEFBFBFEFBFEFBFB00000000000000000000000000000000000000FBFBFBFEFBFE
310
FBFBFEFBFEFBFBFB000000000000000000000000000000000000FB0000FE00FE0000FE00FE0000FB000000000000000000000000000000000000FB0000FE00FE0000FE00FE0000FB000000000000000000000000000000000000FB0000FEFEFEFEFEFEFEFE0000FB000000000000000000000000000000000000FB000000FE
310
FE0000FEFE000000FB000000000000000000000000000000000000FB0000000000FEFE0000000000FB000000000000000000000000000000000000FBFBFBFEFBFBFBFBFBFBFEFBFBFB000000000000000000000000000000000000000000FBFE0000000000FE000000000000000000000000000000000000000000000000FB
310
FBFBFBFBFBFEFB000000000000000000000000000000000000000000000000FBFE00000000FEFB000000000000000000000000000000000000000000000000FBFE00000000FEFB000000000000000000000000000000000000000000000000FBFE00000000FEFB000000000000000000000000000000000000000000000000
310
FBFE00000000FEFB000000000000000000000000000000000000000000000000FBFE00000000FEFB000000000000000000000000000000000000000000000000FBFE00000000FEFB000000000000000000000000000000000000000000000000FBFE00000000FEFB0000000000000000000000000000000000000000000000
310
00FBFE00000000FEFB000000000000000000000000000000000000000000000000FBFE00000000FEFB000000000000000000000000000000000000000000000000FBFE00000000FEFB000000000000000000000000000000000000000000000000FBFE00000000FEFB00000000000000000000000000000000000000000000
310
0000FBFE00000000FEFB000000000000000000000000000000000000000000000000FBFE00000000FEFB000000000000000000000000000000000000000000000000FBFE00000000FEFB000000000000000000000000000000000000000000000000FBFE00000000FEFB000000000000000000000000000000000000000000
310
000000FBFE00000000FEFB000000000000000000000000000000000000000000000000FBFE00000000FEFB000000000000000000000000000000000000000000000000FBFEFBFBFBFBFEFB00000000000000000000000000000000000000000000000000FE00000000FEFB0000000000000000000000000000000000000000
310
0000000000FBFBFBFBFBFB000000000000000000000000000000000000000000000000000000000000000000000000000000000000000000
102
{BLKREFS
331
9AEC
102
}
  0
BLOCK_RECORD
  5
A0F4
330
1
100
AcDbSymbolTableRecord
100
AcDbBlockTableRecord
  2
*D4
340
0
  0
BLOCK_RECORD
  5
A104
330
1
100
AcDbSymbolTableRecord
100
AcDbBlockTableRecord
  2
*D5
340
0
  0
BLOCK_RECORD
  5
A11E
330
1
100
AcDbSymbolTableRecord
100
AcDbBlockTableRecord
  2
*D6
340
0
  0
BLOCK_RECORD
  5
A148
330
1
100
AcDbSymbolTableRecord
100
AcDbBlockTableRecord
  2
*D7
340
0
  0
BLOCK_RECORD
  5
A155
330
1
100
AcDbSymbolTableRecord
100
AcDbBlockTableRecord
  2
*D8
340
0
  0
BLOCK_RECORD
  5
A162
330
1
100
AcDbSymbolTableRecord
100
AcDbBlockTableRecord
  2
*D9
340
0
  0
BLOCK_RECORD
  5
A171
330
1
100
AcDbSymbolTableRecord
100
AcDbBlockTableRecord
  2
*D10
340
0
  0
BLOCK_RECORD
  5
A17E
330
1
100
AcDbSymbolTableRecord
100
AcDbBlockTableRecord
  2
*D11
340
0
  0
BLOCK_RECORD
  5
A1A4
330
1
100
AcDbSymbolTableRecord
100
AcDbBlockTableRecord
  2
*D12
340
0
  0
ENDTAB
  0
ENDSEC
  0
SECTION
  2
BLOCKS
  0
BLOCK
  5
19
330
18
100
AcDbEntity
  8
0
100
AcDbBlockBegin
  2
*MODEL_SPACE
 70
     0
 10
0.0
 20
0.0
 30
0.0
  3
*MODEL_SPACE
  1

  0
ENDBLK
  5
1A
330
18
100
AcDbEntity
  8
0
100
AcDbBlockEnd
  0
BLOCK
  5
16
330
15
100
AcDbEntity
 67
     1
  8
0
100
AcDbBlockBegin
  2
*PAPER_SPACE
 70
     0
 10
0.0
 20
0.0
 30
0.0
  3
*PAPER_SPACE
  1

  0
ENDBLK
  5
17
330
15
100
AcDbEntity
 67
     1
  8
0
100
AcDbBlockEnd
  0
BLOCK
  5
63A1
330
639D
100
AcDbEntity
  8
0
100
AcDbBlockBegin
  2
A$C255C26A2
 70
     0
 10
0.0
 20
0.0
 30
0.0
  3
A$C255C26A2
  1

  0
LWPOLYLINE
  5
639E
330
639D
100
AcDbEntity
  8
0
100
AcDbPolyline
 90
        3
 70
     1
 43
0.0
 10
7.014806023851633
 20
0.0000006939811783
 10
5.611844869720698
 20
2.430000693981241
 10
8.417767177982568
 20
2.430000693981241
  0
LWPOLYLINE
  5
639F
330
639D
100
AcDbEntity
  8
0
100
AcDbPolyline
 90
        3
 70
     1
 43
0.0
 10
4.20888371558999
 20
0.0000006939811783
 10
2.805922561459283
 20
2.430000693981241
 10
5.611844869720698
 20
2.430000693981241
  0
LWPOLYLINE
  5
63A0
330
639D
100
AcDbEntity
  8
0
100
AcDbPolyline
 90
        3
 70
     1
 43
0.0
 10
1.402961407328348
 20
0.0000006939811783
 10
0.0000002531974133
 20
2.430000693981241
 10
2.805922561459283
 20
2.430000693981241
  0
ENDBLK
  5
63A2
330
639D
100
AcDbEntity
  8
0
100
AcDbBlockEnd
  0
BLOCK
  5
7C05
330
7C04
100
AcDbEntity
  8
0
100
AcDbBlockBegin
  2
_Open30
 70
     0
 10
0.0
 20
0.0
 30
0.0
  3
_Open30
  1

  0
LINE
  5
7C06
330
7C04
100
AcDbEntity
  8
0
  6
ByBlock
 62
     0
370
    -2
100
AcDbLine
 10
-1.0
 20
0.26794919
 30
0.0
 11
0.0
 21
0.0
 31
0.0
  0
LINE
  5
7C07
330
7C04
100
AcDbEntity
  8
0
  6
ByBlock
 62
     0
370
    -2
100
AcDbLine
 10
0.0
 20
0.0
 30
0.0
 11
-1.0
 21
-0.26794919
 31
0.0
  0
LINE
  5
7C08
330
7C04
100
AcDbEntity
  8
0
  6
ByBlock
 62
     0
370
    -2
100
AcDbLine
 10
0.0
 20
0.0
 30
0.0
 11
-1.0
 21
0.0
 31
0.0
  0
ENDBLK
  5
7C09
330
7C04
100
AcDbEntity
  8
0
100
AcDbBlockEnd
  0
BLOCK
  5
7C0E
330
7C0A
100
AcDbEntity
  8
0
100
AcDbBlockBegin
  2
A
 70
     0
 10
0.0
 20
0.0
 30
0.0
  3
A
  1

  0
MTEXT
  5
7C0F
330
7C0A
100
AcDbEntity
  8
mark
 62
     3
100
AcDbMText
 10
10.65641897020822
 20
-5.596245361730467
 30
0.0
 40
2.5
 41
0.0
 71
     5
 72
     1
  1
A
 73
     1
 44
1.0
1001
ACAD
1000
ACAD_MTEXT_DEFINED_HEIGHT_BEGIN
1070
    46
1040
0.0
1000
ACAD_MTEXT_DEFINED_HEIGHT_END
  0
LWPOLYLINE
  5
7C10
330
7C0A
100
AcDbEntity
  8
mark
100
AcDbPolyline
 90
        4
 70
     1
 43
0.0
 10
9.07926800414657
 20
-7.141145101782569
 10
12.07926800414657
 20
-7.141145101782569
 10
12.07926800414657
 20
-4.141145101782569
 10
9.07926800414657
 20
-4.141145101782569
  0
HATCH
  5
7C11
330
7C0A
100
AcDbEntity
  8
mark
100
AcDbHatch
 10
0.0
 20
0.0
 30
0.0
210
0.0
220
0.0
230
1.0
  2
SOLID
 70
     1
 71
     0
 91
        1
 92
        7
 72
     0
 73
     1
 93
        3
 10
5.32926800414657
 20
-5.641145101782569
 10
4.07926800414657
 20
-4.391145101782541
 10
4.07926800414657
 20
-6.891145101782541
 97
        0
 75
     0
 76
     1
 47
0.0398277943677868
 98
        1
 10
4.589689734415287
 20
-5.732163331855076
450
        0
451
        0
460
0.0
461
0.0
452
        1
462
1.0
453
        2
463
0.0
 63
     5
421
      255
463
1.0
 63
     7
421
 16777215
470
LINEAR
1001
ACAD
1010
0.0
1020
0.0
1030
0.0
  0
LINE
  5
7C12
330
7C0A
100
AcDbEntity
  8
mark
100
AcDbLine
 10
5.32926800414657
 20
-5.641145101782569
 30
0.0
 11
9.07926800414657
 21
-5.641145101782569
 31
0.0
  0
LINE
  5
7C13
330
7C0A
100
AcDbEntity
  8
mark
100
AcDbLine
 10
5.32926800414657
 20
-5.641145101782569
 30
0.0
 11
4.07926800414657
 21
-4.391145101782569
 31
0.0
  0
LINE
  5
7C14
330
7C0A
100
AcDbEntity
  8
mark
100
AcDbLine
 10
5.32926800414657
 20
-5.641145101782569
 30
0.0
 11
4.07926800414657
 21
-6.891145101782569
 31
0.0
  0
ENDBLK
  5
7C15
330
7C0A
100
AcDbEntity
  8
0
100
AcDbBlockEnd
  0
BLOCK
  5
8E76
330
8E72
100
AcDbEntity
  8
0
100
AcDbBlockBegin
  2
LS
 70
     0
 10
0.0
 20
0.0
 30
0.0
  3
LS
  1

  0
LINE
  5
8E78
330
8E72
100
AcDbEntity
  8
contour
100
AcDbLine
 10
310.7457309951603
 20
181.0160360664828
 30
0.0
 11
310.7457309951603
 21
184.7160360664827
 31
0.0
  0
LINE
  5
8E79
330
8E72
100
AcDbEntity
  8
contour
100
AcDbLine
 10
310.7457309951603
 20
184.7160360664827
 30
0.0
 11
303.7457309951603
 21
184.7160360664827
 31
0.0
  0
LINE
  5
8E7A
330
8E72
100
AcDbEntity
  8
contour
100
AcDbLine
 10
308.4457309951603
 20
196.7160360664827
 30
0.0
 11
306.0457309951603
 21
196.7160360664826
 31
0.0
  0
LINE
  5
8E7B
330
8E72
100
AcDbEntity
  8
contour
100
AcDbLine
 10
309.2457309951603
 20
195.9160360664826
 30
0.0
 11
308.4457309951603
 21
196.7160360664826
 31
0.0
  0
LINE
  5
8E7C
330
8E72
100
AcDbEntity
  8
contour
100
AcDbLine
 10
303.7457309951603
 20
184.7160360664827
 30
0.0
 11
303.7457309951603
 21
181.0160360664827
 31
0.0
  0
LINE
  5
8E7D
330
8E72
100
AcDbEntity
  8
contour
100
AcDbLine
 10
304.0457309951603
 20
180.7160360664827
 30
0.0
 11
310.4457309951603
 21
180.7160360664828
 31
0.0
  0
LINE
  5
8E7E
330
8E72
100
AcDbEntity
  8
contour
100
AcDbLine
 10
310.7457309951603
 20
181.0160360664828
 30
0.0
 11
310.4457309951603
 21
180.7160360664828
 31
0.0
  0
LINE
  5
8E7F
330
8E72
100
AcDbEntity
  8
contour
100
AcDbLine
 10
303.7457309951603
 20
181.0160360664827
 30
0.0
 11
304.0457309951603
 21
180.7160360664827
 31
0.0
  0
LINE
  5
8E80
330
8E72
100
AcDbEntity
  8
contour
100
AcDbLine
 10
309.2457309951603
 20
184.7160360664826
 30
0.0
 11
309.2457309951603
 21
195.9160360664827
 31
0.0
  0
LINE
  5
8E81
330
8E72
100
AcDbEntity
  8
contour
100
AcDbLine
 10
305.2457309951603
 20
184.7160360664826
 30
0.0
 11
305.2457309951603
 21
195.9160360664827
 31
0.0
  0
LINE
  5
8E82
330
8E72
100
AcDbEntity
  8
contour
100
AcDbLine
 10
306.0457309951603
 20
196.7160360664826
 30
0.0
 11
305.2457309951603
 21
195.9160360664826
 31
0.0
  0
LINE
  5
8E83
330
8E72
100
AcDbEntity
  8
contour
100
AcDbLine
 10
309.2457309951603
 20
195.9160360664827
 30
0.0
 11
305.2457309951603
 21
195.9160360664827
 31
0.0
  0
LINE
  5
8E84
330
8E72
100
AcDbEntity
  8
contour
 62
     4
100
AcDbLine
 10
308.8667309951603
 20
185.3724833225513
 30
0.0
 11
308.8667309951603
 21
196.2950360664826
 31
0.0
  0
LINE
  5
8E85
330
8E72
100
AcDbEntity
  8
contour
 62
     4
100
AcDbLine
 10
305.6247309951603
 20
185.3724833225513
 30
0.0
 11
305.6247309951603
 21
196.2950360664826
 31
0.0
  0
LINE
  5
8E86
330
8E72
100
AcDbEntity
  8
contour
100
AcDbLine
 10
310.7457309951603
 20
181.0160360664828
 30
0.0
 11
303.7457309951603
 21
181.0160360664828
 31
0.0
  0
LINE
  5
8E87
330
8E72
100
AcDbEntity
  8
bowle
 48
0.1
100
AcDbLine
 10
308.1117563989447
 20
180.7160360664827
 30
0.0
 11
308.1117563989447
 21
182.9160360664827
 31
0.0
  0
LINE
  5
8E88
330
8E72
100
AcDbEntity
  8
bowle
 48
0.1
100
AcDbLine
 10
308.9777818027293
 20
180.7160360664827
 30
0.0
 11
308.9777818027293
 21
182.9160360664827
 31
0.0
  0
LINE
  5
8E89
330
8E72
100
AcDbEntity
  8
bowle
 48
0.1
100
AcDbLine
 10
306.3797055913759
 20
180.7160360664827
 30
0.0
 11
306.3797055913759
 21
182.9160360664826
 31
0.0
  0
LINE
  5
8E8A
330
8E72
100
AcDbEntity
  8
bowle
 48
0.1
100
AcDbLine
 10
305.5136801875914
 20
180.7160360664827
 30
0.0
 11
305.5136801875914
 21
182.9160360664826
 31
0.0
  0
LINE
  5
8E8B
330
8E72
100
AcDbEntity
  8
bowle
 48
0.1
100
AcDbLine
 10
308.9777818027292
 20
182.9160360664827
 30
0.0
 11
305.5136801875914
 21
182.9160360664827
 31
0.0
  0
LINE
  5
8E8C
330
8E72
100
AcDbEntity
  8
bowle
 48
0.1
100
AcDbLine
 10
305.5136801875914
 20
182.9160360664826
 30
0.0
 11
307.2457309951603
 21
183.9160360664826
 31
0.0
  0
LINE
  5
8E8D
330
8E72
100
AcDbEntity
  8
bowle
 48
0.1
100
AcDbLine
 10
308.9777818027292
 20
182.9160360664826
 30
0.0
 11
307.2457309951603
 21
183.9160360664826
 31
0.0
  0
LINE
  5
8E8E
330
8E72
100
AcDbEntity
  8
contour
 62
     4
100
AcDbLine
 10
305.6247309951603
 20
185.3724833225513
 30
0.0
 11
305.2457309951603
 21
184.7160360664826
 31
0.0
  0
LINE
  5
8E8F
330
8E72
100
AcDbEntity
  8
contour
100
AcDbLine
 10
305.2457309951603
 20
185.3724833225513
 30
0.0
 11
309.2457309951603
 21
185.3724833225513
 31
0.0
  0
LINE
  5
8E90
330
8E72
100
AcDbEntity
  8
contour
 62
     4
100
AcDbLine
 10
309.2457309951603
 20
184.7160360664827
 30
0.0
 11
308.8667309951603
 21
185.3724833225513
 31
0.0
  0
ENDBLK
  5
8E77
330
8E72
100
AcDbEntity
  8
0
100
AcDbBlockEnd
  0
BLOCK
  5
A0FD
330
A0F4
100
AcDbEntity
  8
0
100
AcDbBlockBegin
  2
*D4
 70
     1
 10
0.0
 20
0.0
 30
0.0
  3
*D4
  1

  0
LINE
  5
A285
330
A0F4
100
AcDbEntity
  8
mark
370
    -2
100
AcDbLine
 10
77.9190699980036
 20
105.1268279084166
 30
0.0
 11
65.26021620504398
 21
101.8634695752758
 31
0.0
  0
LINE
  5
A286
330
A0F4
100
AcDbEntity
  8
mark
370
    -2
100
AcDbLine
 10
27.01074634760781
 20
92.00304080036536
 30
0.0
 11
25.80032008629654
 21
91.6910019150834
 31
0.0
  0
MTEXT
  5
A287
330
A0F4
100
AcDbEntity
  8
mark
 62
     3
100
AcDbMText
 10
73.44284521430044
 20
105.0314018626754
 30
0.0
 40
1.25
 41
0.0
 71
     5
 72
     1
  1
\A1;P.C.D 37
 11
0.968341009049017
 21
0.2496311082255803
 31
0.0
 73
     1
 44
1.0
  0
LINE
  5
A288
330
A0F4
100
AcDbEntity
  8
mark
370
    -2
100
AcDbLine
 10
28.22117260891909
 20
92.31507968564734
 30
0.0
 11
64.0497899437327
 21
101.5514306899938
 31
0.0
  0
INSERT
  5
A289
330
A0F4
100
AcDbEntity
  8
mark
370
    -2
100
AcDbBlockReference
  2
_Open30
 10
28.22117260891909
 20
92.31507968564734
 30
0.0
 41
1.25
 42
1.25
 43
1.25
 50
14.45568415217688
  0
INSERT
  5
A28A
330
A0F4
100
AcDbEntity
  8
mark
370
    -2
100
AcDbBlockReference
  2
_Open30
 10
64.0497899437327
 20
101.5514306899938
 30
0.0
 41
1.25
 42
1.25
 43
1.25
 50
194.4556841521769
  0
POINT
  5
A28B
330
A0F4
100
AcDbEntity
  8
DEFPOINTS
 62
     0
100
AcDbPoint
 10
64.0497899437327
 20
101.5514306899938
 30
0.0
  0
POINT
  5
A28C
330
A0F4
100
AcDbEntity
  8
DEFPOINTS
 62
     0
100
AcDbPoint
 10
28.22117260891909
 20
92.31507968564734
 30
0.0
  0
ENDBLK
  5
A0FE
330
A0F4
100
AcDbEntity
  8
0
100
AcDbBlockEnd
  0
BLOCK
  5
A10D
330
A104
100
AcDbEntity
  8
0
100
AcDbBlockBegin
  2
*D5
 70
     1
 10
0.0
 20
0.0
 30
0.0
  3
*D5
  1

  0
LINE
  5
A28D
330
A104
100
AcDbEntity
  8
mark
370
    -2
100
AcDbLine
 10
12.544590117695
 20
106.4476803876755
 30
0.0
 11
26.41142236660937
 21
102.5199805368982
 31
0.0
  0
LINE
  5
A28E
330
A104
100
AcDbEntity
  8
mark
370
    -2
100
AcDbLine
 10
65.85954018604244
 20
91.34652983874294
 30
0.0
 11
67.0622267049276
 21
91.0058758540431
 31
0.0
  0
MTEXT
  5
A28F
330
A104
100
AcDbEntity
  8
mark
 62
     3
100
AcDbMText
 10
17.81908439358526
 20
106.0190337833746
 30
0.0
 40
1.25
 41
0.0
 71
     5
 72
     1
  1
\A1;P.C.D 38.5
 11
0.9621492151081296
 21
-0.2725231877598859
 31
0.0
 73
     1
 44
1.0
  0
LINE
  5
A290
330
A104
100
AcDbEntity
  8
mark
370
    -2
100
AcDbLine
 10
64.65685366715726
 20
91.6871838234428
 30
0.0
 11
27.61410888549454
 21
102.1793265521983
 31
0.0
  0
INSERT
  5
A291
330
A104
100
AcDbEntity
  8
mark
370
    -2
100
AcDbBlockReference
  2
_Open30
 10
64.65685366715726
 20
91.6871838234428
 30
0.0
 41
1.25
 42
1.25
 43
1.25
 50
164.1855334493832
  0
INSERT
  5
A292
330
A104
100
AcDbEntity
  8
mark
370
    -2
100
AcDbBlockReference
  2
_Open30
 10
27.61410888549454
 20
102.1793265521983
 30
0.0
 41
1.25
 42
1.25
 43
1.25
 50
344.1855334493832
  0
POINT
  5
A293
330
A104
100
AcDbEntity
  8
DEFPOINTS
 62
     0
100
AcDbPoint
 10
27.61410888549454
 20
102.1793265521983
 30
0.0
  0
POINT
  5
A294
330
A104
100
AcDbEntity
  8
DEFPOINTS
 62
     0
100
AcDbPoint
 10
64.65685366715726
 20
91.6871838234428
 30
0.0
  0
ENDBLK
  5
A10E
330
A104
100
AcDbEntity
  8
0
100
AcDbBlockEnd
  0
BLOCK
  5
A128
330
A11E
100
AcDbEntity
  8
0
100
AcDbBlockBegin
  2
*D6
 70
     1
 10
0.0
 20
0.0
 30
0.0
  3
*D6
  1

  0
LINE
  5
A295
330
A11E
100
AcDbEntity
  8
mark
370
    -2
100
AcDbLine
 10
23.13548127632589
 20
60.25850870287288
 30
0.0
 11
23.13548127632589
 21
65.51794169764789
 31
0.0
  0
LINE
  5
A296
330
A11E
100
AcDbEntity
  8
mark
370
    -2
100
AcDbLine
 10
69.13548127632592
 20
60.25850870287288
 30
0.0
 11
69.13548127632592
 21
65.51794169764789
 31
0.0
  0
LINE
  5
A297
330
A11E
100
AcDbEntity
  8
mark
370
    -2
100
AcDbLine
 10
24.38548127632589
 20
65.11794169764789
 30
0.0
 11
67.88548127632592
 21
65.11794169764789
 31
0.0
  0
INSERT
  5
A298
330
A11E
100
AcDbEntity
  8
mark
370
    -2
100
AcDbBlockReference
  2
_Open30
 10
23.13548127632589
 20
65.11794169764789
 30
0.0
 41
1.25
 42
1.25
 43
1.25
 50
180.0
  0
INSERT
  5
A299
330
A11E
100
AcDbEntity
  8
mark
370
    -2
100
AcDbBlockReference
  2
_Open30
 10
69.13548127632592
 20
65.11794169764789
 30
0.0
 41
1.25
 42
1.25
 43
1.25
  0
MTEXT
  5
A29A
330
A11E
100
AcDbEntity
  8
mark
 62
     3
100
AcDbMText
 10
46.1354812763259
 20
66.14294169764789
 30
0.0
 40
1.25
 41
0.0
 71
     5
 72
     1
  1
\A1;%%c46
 73
     1
 44
1.0
  0
POINT
  5
A29B
330
A11E
100
AcDbEntity
  8
DEFPOINTS
 62
     0
100
AcDbPoint
 10
23.13548127632589
 20
59.85850870287288
 30
0.0
  0
POINT
  5
A29C
330
A11E
100
AcDbEntity
  8
DEFPOINTS
 62
     0
100
AcDbPoint
 10
69.13548127632592
 20
59.85850870287288
 30
0.0
  0
POINT
  5
A29D
330
A11E
100
AcDbEntity
  8
DEFPOINTS
 62
     0
100
AcDbPoint
 10
69.13548127632592
 20
65.11794169764789
 30
0.0
  0
ENDBLK
  5
A129
330
A11E
100
AcDbEntity
  8
0
100
AcDbBlockEnd
  0
BLOCK
  5
A152
330
A148
100
AcDbEntity
  8
0
100
AcDbBlockBegin
  2
*D7
 70
     1
 10
0.0
 20
0.0
 30
0.0
  3
*D7
  1

  0
LINE
  5
A29E
330
A148
100
AcDbEntity
  8
mark
370
    -2
100
AcDbLine
 10
23.73548127632589
 20
60.85850870287289
 30
0.0
 11
19.26749720501514
 21
60.85850870287289
 31
0.0
  0
LINE
  5
A29F
330
A148
100
AcDbEntity
  8
mark
370
    -2
100
AcDbLine
 10
21.73548127632589
 20
54.35850870287288
 30
0.0
 11
19.26749720501513
 21
54.35850870287288
 31
0.0
  0
LINE
  5
A2A0
330
A148
100
AcDbEntity
  8
mark
370
    -2
100
AcDbLine
 10
19.66749720501514
 20
59.60850870287289
 30
0.0
 11
19.66749720501513
 21
55.60850870287288
 31
0.0
  0
INSERT
  5
A2A1
330
A148
100
AcDbEntity
  8
mark
370
    -2
100
AcDbBlockReference
  2
_Open30
 10
19.66749720501514
 20
60.85850870287289
 30
0.0
 41
1.25
 42
1.25
 43
1.25
 50
90.0
  0
INSERT
  5
A2A2
330
A148
100
AcDbEntity
  8
mark
370
    -2
100
AcDbBlockReference
  2
_Open30
 10
19.66749720501513
 20
54.35850870287288
 30
0.0
 41
1.25
 42
1.25
 43
1.25
 50
270.0
  0
MTEXT
  5
A2A3
330
A148
100
AcDbEntity
  8
mark
 62
     3
100
AcDbMText
 10
18.64249720501513
 20
57.60850870287289
 30
0.0
 40
1.25
 41
0.0
 71
     5
 72
     1
  1
\A1;6.5
 11
0.0000000000000001
 21
1.0
 31
0.0
 73
     1
 44
1.0
  0
POINT
  5
A2A4
330
A148
100
AcDbEntity
  8
DEFPOINTS
 62
     0
100
AcDbPoint
 10
24.13548127632589
 20
60.85850870287289
 30
0.0
  0
POINT
  5
A2A5
330
A148
100
AcDbEntity
  8
DEFPOINTS
 62
     0
100
AcDbPoint
 10
22.13548127632589
 20
54.35850870287288
 30
0.0
  0
POINT
  5
A2A6
330
A148
100
AcDbEntity
  8
DEFPOINTS
 62
     0
100
AcDbPoint
 10
19.66749720501513
 20
54.35850870287288
 30
0.0
  0
ENDBLK
  5
A153
330
A148
100
AcDbEntity
  8
0
100
AcDbBlockEnd
  0
BLOCK
  5
A15F
330
A155
100
AcDbEntity
  8
0
100
AcDbBlockBegin
  2
*D8
 70
     1
 10
0.0
 20
0.0
 30
0.0
  3
*D8
  1

  0
LINE
  5
A2A7
330
A155
100
AcDbEntity
  8
mark
370
    -2
100
AcDbLine
 10
68.53548127632592
 20
60.85850870287288
 30
0.0
 11
74.36801228404991
 21
60.85850870287288
 31
0.0
  0
LINE
  5
A2A8
330
A155
100
AcDbEntity
  8
mark
370
    -2
100
AcDbLine
 10
68.53548127632589
 20
47.95850870287289
 30
0.0
 11
74.36801228404991
 21
47.95850870287289
 31
0.0
  0
LINE
  5
A2A9
330
A155
100
AcDbEntity
  8
mark
370
    -2
100
AcDbLine
 10
73.9680122840499
 20
59.60850870287288
 30
0.0
 11
73.9680122840499
 21
49.20850870287289
 31
0.0
  0
INSERT
  5
A2AA
330
A155
100
AcDbEntity
  8
mark
370
    -2
100
AcDbBlockReference
  2
_Open30
 10
73.9680122840499
 20
60.85850870287288
 30
0.0
 41
1.25
 42
1.25
 43
1.25
 50
90.0
  0
INSERT
  5
A2AB
330
A155
100
AcDbEntity
  8
mark
370
    -2
100
AcDbBlockReference
  2
_Open30
 10
73.9680122840499
 20
47.95850870287289
 30
0.0
 41
1.25
 42
1.25
 43
1.25
 50
270.0
  0
MTEXT
  5
A2AC
330
A155
100
AcDbEntity
  8
mark
 62
     3
100
AcDbMText
 10
72.94301228404989
 20
54.40850870287289
 30
0.0
 40
1.25
 41
0.0
 71
     5
 72
     1
  1
\A1;12.9
 11
0.0000000000000001
 21
1.0
 31
0.0
 73
     1
 44
1.0
  0
POINT
  5
A2AD
330
A155
100
AcDbEntity
  8
DEFPOINTS
 62
     0
100
AcDbPoint
 10
68.13548127632592
 20
60.85850870287288
 30
0.0
  0
POINT
  5
A2AE
330
A155
100
AcDbEntity
  8
DEFPOINTS
 62
     0
100
AcDbPoint
 10
68.13548127632589
 20
47.95850870287289
 30
0.0
  0
POINT
  5
A2AF
330
A155
100
AcDbEntity
  8
DEFPOINTS
 62
     0
100
AcDbPoint
 10
73.9680122840499
 20
47.95850870287289
 30
0.0
  0
ENDBLK
  5
A160
330
A155
100
AcDbEntity
  8
0
100
AcDbBlockEnd
  0
BLOCK
  5
A16E
330
A162
100
AcDbEntity
  8
0
100
AcDbBlockBegin
  2
*D9
 70
     1
 10
0.0
 20
0.0
 30
0.0
  3
*D9
  1

  0
LINE
  5
A2B0
330
A162
100
AcDbEntity
  8
mark
370
    -2
100
AcDbLine
 10
68.53548127632589
 20
47.95850870287289
 30
0.0
 11
74.36801228404991
 21
47.95850870287289
 31
0.0
  0
LINE
  5
A2B1
330
A162
100
AcDbEntity
  8
mark
370
    -2
100
AcDbLine
 10
68.53548127632587
 20
45.95850870287288
 30
0.0
 11
74.36801228404991
 21
45.95850870287288
 31
0.0
  0
LINE
  5
A2B2
330
A162
100
AcDbEntity
  8
mark
370
    -2
100
AcDbLine
 10
73.9680122840499
 20
49.20850870287289
 30
0.0
 11
73.9680122840499
 21
50.45850870287289
 31
0.0
  0
LINE
  5
A2B3
330
A162
100
AcDbEntity
  8
mark
370
    -2
100
AcDbLine
 10
73.9680122840499
 20
44.70850870287288
 30
0.0
 11
73.9680122840499
 21
43.45850870287288
 31
0.0
  0
LINE
  5
A2B4
330
A162
100
AcDbEntity
  8
mark
370
    -2
100
AcDbLine
 10
73.9680122840499
 20
47.95850870287289
 30
0.0
 11
73.9680122840499
 21
45.95850870287288
 31
0.0
  0
INSERT
  5
A2B5
330
A162
100
AcDbEntity
  8
mark
370
    -2
100
AcDbBlockReference
  2
_Open30
 10
73.9680122840499
 20
47.95850870287289
 30
0.0
 41
1.25
 42
1.25
 43
1.25
 50
270.0
  0
INSERT
  5
A2B6
330
A162
100
AcDbEntity
  8
mark
370
    -2
100
AcDbBlockReference
  2
_Open30
 10
73.9680122840499
 20
45.95850870287288
 30
0.0
 41
1.25
 42
1.25
 43
1.25
 50
90.0
  0
MTEXT
  5
A2B7
330
A162
100
AcDbEntity
  8
mark
 62
     3
100
AcDbMText
 10
72.94301228404989
 20
46.9585087028729
 30
0.0
 40
1.25
 41
0.0
 71
     5
 72
     1
  1
\A1;2
 11
0.0000000000000001
 21
1.0
 31
0.0
 73
     1
 44
1.0
  0
POINT
  5
A2B8
330
A162
100
AcDbEntity
  8
DEFPOINTS
 62
     0
100
AcDbPoint
 10
68.13548127632589
 20
47.95850870287289
 30
0.0
  0
POINT
  5
A2B9
330
A162
100
AcDbEntity
  8
DEFPOINTS
 62
     0
100
AcDbPoint
 10
68.13548127632586
 20
45.95850870287288
 30
0.0
  0
POINT
  5
A2BA
330
A162
100
AcDbEntity
  8
DEFPOINTS
 62
     0
100
AcDbPoint
 10
73.9680122840499
 20
45.95850870287288
 30
0.0
  0
ENDBLK
  5
A16F
330
A162
100
AcDbEntity
  8
0
100
AcDbBlockEnd
  0
BLOCK
  5
A17B
330
A171
100
AcDbEntity
  8
0
100
AcDbBlockBegin
  2
*D10
 70
     1
 10
0.0
 20
0.0
 30
0.0
  3
*D10
  1

  0
LINE
  5
A2BB
330
A171
100
AcDbEntity
  8
mark
370
    -2
100
AcDbLine
 10
68.53548127632589
 20
40.85850870287288
 30
0.0
 11
77.72526438419859
 21
40.85850870287288
 31
0.0
  0
LINE
  5
A2BC
330
A171
100
AcDbEntity
  8
mark
370
    -2
100
AcDbLine
 10
68.53548127632589
 20
60.85850870287288
 30
0.0
 11
77.72526438419859
 21
60.85850870287288
 31
0.0
  0
LINE
  5
A2BD
330
A171
100
AcDbEntity
  8
mark
370
    -2
100
AcDbLine
 10
77.32526438419859
 20
42.10850870287288
 30
0.0
 11
77.32526438419859
 21
59.60850870287288
 31
0.0
  0
INSERT
  5
A2BE
330
A171
100
AcDbEntity
  8
mark
370
    -2
100
AcDbBlockReference
  2
_Open30
 10
77.32526438419859
 20
40.85850870287288
 30
0.0
 41
1.25
 42
1.25
 43
1.25
 50
270.0
  0
INSERT
  5
A2BF
330
A171
100
AcDbEntity
  8
mark
370
    -2
100
AcDbBlockReference
  2
_Open30
 10
77.32526438419859
 20
60.85850870287288
 30
0.0
 41
1.25
 42
1.25
 43
1.25
 50
90.0
  0
MTEXT
  5
A2C0
330
A171
100
AcDbEntity
  8
mark
 62
     3
100
AcDbMText
 10
76.30026438419857
 20
50.85850870287289
 30
0.0
 40
1.25
 41
0.0
 71
     5
 72
     1
  1
\A1;20%%p0.2
 11
0.0000000000000001
 21
1.0
 31
0.0
 73
     1
 44
1.0
  0
POINT
  5
A2C1
330
A171
100
AcDbEntity
  8
DEFPOINTS
 62
     0
100
AcDbPoint
 10
68.13548127632589
 20
40.85850870287288
 30
0.0
  0
POINT
  5
A2C2
330
A171
100
AcDbEntity
  8
DEFPOINTS
 62
     0
100
AcDbPoint
 10
68.13548127632589
 20
60.85850870287288
 30
0.0
  0
POINT
  5
A2C3
330
A171
100
AcDbEntity
  8
DEFPOINTS
 62
     0
100
AcDbPoint
 10
77.32526438419859
 20
60.85850870287288
 30
0.0
  0
ENDBLK
  5
A17C
330
A171
100
AcDbEntity
  8
0
100
AcDbBlockEnd
  0
BLOCK
  5
A185
330
A17E
100
AcDbEntity
  8
0
100
AcDbBlockBegin
  2
*D11
 70
     1
 10
0.0
 20
0.0
 30
0.0
  3
*D11
  1

  0
LINE
  5
A2C4
330
A17E
100
AcDbEntity
  8
mark
370
    -2
100
AcDbLine
 10
19.91641081524613
 20
37.63943824179317
 30
0.0
 11
22.54449101865615
 21
40.26751844520315
 31
0.0
  0
MTEXT
  5
A2C5
330
A17E
100
AcDbEntity
  8
mark
 62
     3
100
AcDbMText
 10
20.06372472799334
 20
39.2363210559728
 30
0.0
 40
1.25
 41
0.0
 71
     5
 72
     1
  1
\A1;R1
 11
0.7071067811865515
 21
0.7071067811865436
 31
0.0
 73
     1
 44
1.0
  0
LINE
  5
A2C6
330
A17E
100
AcDbEntity
  8
mark
370
    -2
100
AcDbLine
 10
24.13548127632586
 20
41.85850870287286
 30
0.0
 11
23.42837449513934
 21
41.15140192168634
 31
0.0
  0
INSERT
  5
A2C7
330
A17E
100
AcDbEntity
  8
mark
370
    -2
100
AcDbBlockReference
  2
_Open30
 10
23.42837449513934
 20
41.15140192168634
 30
0.0
 41
1.25
 42
1.25
 43
1.25
 50
44.99999999999968
  0
POINT
  5
A2C8
330
A17E
100
AcDbEntity
  8
DEFPOINTS
 62
     0
100
AcDbPoint
 10
23.42837449513934
 20
41.15140192168634
 30
0.0
  0
POINT
  5
A2C9
330
A17E
100
AcDbEntity
  8
DEFPOINTS
 62
     0
100
AcDbPoint
 10
24.13548127632586
 20
41.85850870287286
 30
0.0
  0
ENDBLK
  5
A186
330
A17E
100
AcDbEntity
  8
0
100
AcDbBlockEnd
  0
BLOCK
  5
A1AE
330
A1A4
100
AcDbEntity
  8
0
100
AcDbBlockBegin
  2
*D12
 70
     1
 10
0.0
 20
0.0
 30
0.0
  3
*D12
  1

  0
LINE
  5
A2CA
330
A1A4
100
AcDbEntity
  8
mark
370
    -2
100
AcDbLine
 10
32.13548127632589
 20
41.14650870287289
 30
0.0
 11
32.13548127632589
 21
34.15657966501963
 31
0.0
  0
LINE
  5
A2CB
330
A1A4
100
AcDbEntity
  8
mark
370
    -2
100
AcDbLine
 10
60.13548127632589
 20
41.14650870287289
 30
0.0
 11
60.13548127632589
 21
34.15657966501963
 31
0.0
  0
LINE
  5
A2CC
330
A1A4
100
AcDbEntity
  8
mark
370
    -2
100
AcDbLine
 10
33.38548127632589
 20
34.55657966501963
 30
0.0
 11
58.88548127632589
 21
34.55657966501963
 31
0.0
  0
INSERT
  5
A2CD
330
A1A4
100
AcDbEntity
  8
mark
370
    -2
100
AcDbBlockReference
  2
_Open30
 10
32.13548127632589
 20
34.55657966501963
 30
0.0
 41
1.25
 42
1.25
 43
1.25
 50
180.0
  0
INSERT
  5
A2CE
330
A1A4
100
AcDbEntity
  8
mark
370
    -2
100
AcDbBlockReference
  2
_Open30
 10
60.13548127632589
 20
34.55657966501963
 30
0.0
 41
1.25
 42
1.25
 43
1.25
  0
MTEXT
  5
A2CF
330
A1A4
100
AcDbEntity
  8
mark
 62
     3
100
AcDbMText
 10
46.13548127632589
 20
35.58157966501962
 30
0.0
 40
1.25
 41
0.0
 71
     5
 72
     1
  1
\A1;M28X1.5P
 73
     1
 44
1.0
  0
POINT
  5
A2D0
330
A1A4
100
AcDbEntity
  8
DEFPOINTS
 62
     0
100
AcDbPoint
 10
32.13548127632589
 20
41.54650870287289
 30
0.0
  0
POINT
  5
A2D1
330
A1A4
100
AcDbEntity
  8
DEFPOINTS
 62
     0
100
AcDbPoint
 10
60.13548127632589
 20
41.54650870287289
 30
0.0
  0
POINT
  5
A2D2
330
A1A4
100
AcDbEntity
  8
DEFPOINTS
 62
     0
100
AcDbPoint
 10
60.13548127632589
 20
34.55657966501963
 30
0.0
  0
ENDBLK
  5
A1AF
330
A1A4
100
AcDbEntity
  8
0
100
AcDbBlockEnd
  0
ENDSEC
  0
SECTION
  2
ENTITIES
  0
MTEXT
  5
C0
330
18
100
AcDbEntity
  8
0
100
AcDbMText
 10
41.26970765600413
 20
233.6950877649332
 30
0.0
 40
2.5
 41
0.0
 71
     1
 72
     5
  1

  7
ISOCP3
 73
     1
 44
1.0
  0
LWPOLYLINE
  5
7D6C
330
18
100
AcDbEntity
  8
frame
100
AcDbPolyline
 90
        4
 70
     1
 43
0.0
 10
95.0
 20
140.0
 10
0.0
 20
140.0
 10
0.0
 20
0.0
 10
95.0
 20
0.0
  0
MTEXT
  5
7D6D
330
18
100
AcDbEntity
  8
0
100
AcDbMText
 10
8.549751843445875
 20
9.53802950808307
 30
0.0
 40
2.25
 41
0.0
 71
     1
 72
     5
  1
{\Ftxt,bigfont|c128;林彦旭}
  7
JL
 73
     1
 44
1.0
1001
ACAD
1000
ACAD_MTEXT_DEFINED_HEIGHT_BEGIN
1070
    46
1040
0.0
1000
ACAD_MTEXT_DEFINED_HEIGHT_END
  0
MTEXT
  5
7D6E
330
18
100
AcDbEntity
  8
0
100
AcDbMText
 10
38.97647364614426
 20
14.46789489935338
 30
0.0
 40
2.25
 41
0.0
 71
     1
 72
     5
  1
{\Ftxt,bigfont|c128;2 : 1}
  7
JL
 73
     1
 44
1.0
1001
ACAD
1000
ACAD_MTEXT_DEFINED_HEIGHT_BEGIN
1070
    46
1040
0.0
1000
ACAD_MTEXT_DEFINED_HEIGHT_END
  0
MTEXT
  5
7D6F
330
18
100
AcDbEntity
  8
0
 48
2.0
370
    25
100
AcDbMText
 10
70.1097250232828
 20
1.745010827316946
 30
0.0
 40
2.25
 41
0.0
 71
     5
 72
     1
  1
{\Ftxt,bigfont|c128;N L 4 0 2 6 9}
 73
     1
 44
1.0
1001
ACAD
1000
ACAD_MTEXT_DEFINED_HEIGHT_BEGIN
1070
    46
1040
0.0
1000
ACAD_MTEXT_DEFINED_HEIGHT_END
  0
MTEXT
  5
7D70
330
18
100
AcDbEntity
  8
0
 48
2.0
100
AcDbMText
 10
84.40932320927471
 20
10.88218563911846
 30
0.0
 40
2.159090909090911
 41
0.0
 71
     5
 72
     1
  1
\P{\Ftxt,bigfont|c128;MKR28X1.5P}
 73
     1
 44
1.0
1001
ACAD
1000
ACAD_MTEXT_DEFINED_HEIGHT_BEGIN
1070
    46
1040
0.0
1000
ACAD_MTEXT_DEFINED_HEIGHT_END
  0
MTEXT
  5
7D71
330
18
100
AcDbEntity
  8
0
100
AcDbMText
 10
7.6880338568387
 20
14.18870179917354
 30
0.0
 40
2.25
 41
0.0
 71
     1
 72
     5
  1
{\Ftxt,bigfont|c128;07.09.04}
  7
JL
 73
     1
 44
1.0
1001
ACAD
1000
ACAD_MTEXT_DEFINED_HEIGHT_BEGIN
1070
    46
1040
0.0
1000
ACAD_MTEXT_DEFINED_HEIGHT_END
  0
LINE
  5
7D72
330
18
100
AcDbEntity
  8
0
 62
     7
 48
5.0
100
AcDbLine
 39
1.919191919191921
 10
23.96471206996267
 20
13.82856453508043
 30
0.0
 11
26.52290072143927
 21
14.46811169794961
 31
0.0
  0
MTEXT
  5
7D73
330
18
100
AcDbEntity
  8
0
100
AcDbMText
 10
7.456177741632075
 20
4.621097525024651
 30
0.0
 40
3.0
 41
0.0
 71
     1
 72
     5
  1
\Ftxt.shx,bigfont.shx|c128;日機株式会社
  7
LKK
 73
     1
 44
1.0
  0
LINE
  5
7D74
330
18
100
AcDbEntity
  8
frame
100
AcDbLine
 10
0.0
 20
6.0
 30
0.0
 11
95.0
 21
6.000000000000028
 31
0.0
  0
LINE
  5
7D75
330
18
100
AcDbEntity
  8
frame
100
AcDbLine
 10
0.0
 20
11.0
 30
0.0
 11
46.06060606060611
 21
11.0
 31
0.0
  0
LINE
  5
7D76
330
18
100
AcDbEntity
  8
frame
100
AcDbLine
 10
0.0
 20
16.0
 30
0.0
 11
95.0
 21
16.0
 31
0.0
  0
LINE
  5
7D77
330
18
100
AcDbEntity
  8
frame
100
AcDbLine
 10
6.095386662468996
 20
16.0
 30
0.0
 11
6.095386662468996
 21
6.0
 31
0.0
  0
LINE
  5
7D78
330
18
100
AcDbEntity
  8
frame
100
AcDbLine
 10
15.35353535353533
 20
16.0
 30
0.0
 11
15.35353535353539
 21
6.0
 31
0.0
  0
MTEXT
  5
7D79
330
18
100
AcDbEntity
  8
0
100
AcDbMText
 10
1.415137392110977
 20
14.54095044791415
 30
0.0
 40
2.25
 41
0.0
 71
     1
 72
     5
  1
\Ftxt.shx,bigfont.shx|c128;日 付
  7
JL
 73
     1
 44
1.0
  0
MTEXT
  5
7D7A
330
18
100
AcDbEntity
  8
0
100
AcDbMText
 10
1.485316538719445
 20
9.760819214633187
 30
0.0
 40
2.25
 41
0.0
 71
     1
 72
     5
  1
\Ftxt.shx,bigfont.shx|c128;製 図
  7
JL
 73
     1
 44
1.0
  0
LINE
  5
7D7B
330
18
100
AcDbEntity
  8
0
 62
     7
370
    25
100
AcDbLine
 10
26.52290072143927
 20
11.90992304647298
 30
0.0
 11
26.52290072143927
 21
14.46811169794961
 31
0.0
  0
MTEXT
  5
7D7C
330
18
100
AcDbEntity
  8
0
100
AcDbMText
 10
32.00374426245418
 20
14.56121351896189
 30
0.0
 40
2.25
 41
0.0
 71
     1
 72
     5
  1
\Ftxt.shx,bigfont.shx|c128;尺 度
  7
JL
 73
     1
 44
1.0
  0
LINE
  5
7D7D
330
18
100
AcDbEntity
  8
frame
100
AcDbLine
 10
30.70707070707073
 20
16.0
 30
0.0
 11
30.70707070707073
 21
6.0
 31
0.0
  0
LINE
  5
7D7E
330
18
100
AcDbEntity
  8
0
 62
     7
370
    25
100
AcDbLine
 10
19.8076555113131
 20
11.59444509166317
 30
0.0
 11
19.8076555113131
 21
14.68228996214836
 31
0.0
  0
CIRCLE
  5
7D7F
330
18
100
AcDbEntity
  8
0
 62
     7
100
AcDbCircle
 10
19.8076555113131
 20
13.18901737221125
 30
0.0
 40
1.279094325738339
  0
LINE
  5
7D80
330
18
100
AcDbEntity
  8
0
 62
     7
370
    25
100
AcDbLine
 10
23.59660993459988
 20
13.18901737221131
 30
0.0
 11
26.75256290812121
 21
13.18901737221131
 31
0.0
  0
LINE
  5
7D81
330
18
100
AcDbEntity
  8
0
 62
     7
100
AcDbLine
 10
23.96471206996267
 20
12.54947020934213
 30
0.0
 11
26.52290072143927
 21
11.90992304647298
 31
0.0
  0
LINE
  5
7D82
330
18
100
AcDbEntity
  8
frame
100
AcDbLine
 10
21.3711209799755
 20
11.0
 30
0.0
 11
21.3711209799755
 21
6.0
 31
0.0
  0
LINE
  5
7D83
330
18
100
AcDbEntity
  8
0
 62
     7
370
    25
100
AcDbLine
 10
18.20916114243306
 20
13.18901737221125
 30
0.0
 11
21.50162633809634
 21
13.18901737221131
 31
0.0
  0
CIRCLE
  5
7D84
330
18
100
AcDbEntity
  8
0
 62
     7
100
AcDbCircle
 10
19.8076555113131
 20
13.18901737221125
 30
0.0
 40
0.6395471628691697
  0
MTEXT
  5
7D85
330
18
100
AcDbEntity
  8
0
100
AcDbMText
 10
16.85092016231203
 20
9.705069078926328
 30
0.0
 40
2.25
 41
0.0
 71
     1
 72
     5
  1
\Ftxt.shx,bigfont.shx|c128;検 図
  7
JL
 73
     1
 44
1.0
  0
LINE
  5
7D86
330
18
100
AcDbEntity
  8
0
 62
     7
370
    25
100
AcDbLine
 10
23.96471206996267
 20
12.54947020934213
 30
0.0
 11
23.96471206996267
 21
13.82856453508043
 31
0.0
  0
MTEXT
  5
7D87
330
18
100
AcDbEntity
  8
0
100
AcDbMText
 10
32.14410124959915
 20
9.660292673744407
 30
0.0
 40
2.25
 41
0.0
 71
     1
 72
     5
  1
\Ftxt.shx,bigfont.shx|c128;承 認
  7
JL
 73
     1
 44
1.0
  0
MTEXT
  5
7D88
330
18
100
AcDbEntity
  8
0
100
AcDbMText
 10
46.85564357803349
 20
5.351341098095701
 30
0.0
 40
2.25
 41
0.0
 71
     1
 72
     5
  1
\Ftxt.shx,bigfont.shx|c128;図  面  番  号
  7
JL
 73
     1
 44
1.0
  0
MTEXT
  5
7D89
330
18
100
AcDbEntity
  8
0
 48
2.0
100
AcDbMText
 10
58.45190950106922
 20
10.9378736574792
 30
0.0
 40
2.25
 41
0.0
 71
     5
 72
     1
  1
\P\Ftxt.shx,bigfont.shx|c128;    精密ロックナット
 73
     1
 44
1.0
  0
MTEXT
  5
7D8A
330
18
100
AcDbEntity
  8
0
100
AcDbMText
 10
47.4041806515616
 20
14.51931228986637
 30
0.0
 40
2.25
 41
0.0
 71
     1
 72
     5
  1
\Ftxt.shx,bigfont.shx|c128;品  名
  7
JL
 73
     1
 44
1.0
  0
LINE
  5
7D8B
330
18
100
AcDbEntity
  8
frame
100
AcDbLine
 10
46.06060606060611
 20
16.0
 30
0.0
 11
46.06060606060611
 21
0.0916613789792393
 31
0.0
  0
LINE
  5
7D8C
330
18
100
AcDbEntity
  8
frame
100
AcDbLine
 10
36.70707070707073
 20
16.0
 30
0.0
 11
36.70707070707073
 21
6.0
 31
0.0
  0
LINE
  5
7D8D
330
18
100
AcDbEntity
  8
frame
100
AcDbLine
 10
73.51635463703281
 20
16.0
 30
0.0
 11
73.51635463703286
 21
6.0
 31
0.0
  0
MTEXT
  5
7D8E
330
18
100
AcDbEntity
  8
0
100
AcDbMText
 10
75.44797972338654
 20
14.52258891415195
 30
0.0
 40
2.25
 41
0.0
 71
     1
 72
     5
  1
\Ftxt.shx,bigfont.shx|c128;型  番
  7
JL
 73
     1
 44
1.0
  0
MTEXT
  5
7D8F
330
18
100
AcDbEntity
  8
0
100
AcDbMText
 10
82.90298074051628
 20
5.391490874857822
 30
0.0
 40
2.25
 41
0.0
 71
     1
 72
     5
  1
\Ftxt.shx,bigfont.shx|c128;変更
  7
JL
 73
     1
 44
1.0
  0
LINE
  5
7D90
330
18
100
AcDbEntity
  8
frame
100
AcDbLine
 10
82.04545454545462
 20
6.000000000000028
 30
0.0
 11
82.04545454545467
 21
0.0
 31
0.0
  0
LINE
  5
7D91
330
18
100
AcDbEntity
  8
frame
100
AcDbLine
 10
62.30789503931965
 20
21.56745674462246
 30
0.0
 11
92.30789503931964
 21
21.56745674462241
 31
0.0
  0
LINE
  5
7D92
330
18
100
AcDbEntity
  8
frame
100
AcDbLine
 10
62.30789503931965
 20
25.16745674462248
 30
0.0
 11
92.30789503931964
 21
25.16745674462248
 31
0.0
  0
LINE
  5
7D93
330
18
100
AcDbEntity
  8
frame
100
AcDbLine
 10
62.30789503931965
 20
28.76745674462245
 30
0.0
 11
92.30789503931964
 21
28.7674567446224
 31
0.0
  0
LINE
  5
7D94
330
18
100
AcDbEntity
  8
frame
100
AcDbLine
 10
62.30789503931965
 20
32.36745674462247
 30
0.0
 11
92.30789503931964
 21
32.36745674462242
 31
0.0
  0
LINE
  5
7D95
330
18
100
AcDbEntity
  8
frame
100
AcDbLine
 10
62.30789503931965
 20
17.96745674462244
 30
0.0
 11
92.30789503931964
 21
17.96745674462244
 31
0.0
  0
MTEXT
  5
7D96
330
18
100
AcDbEntity
  8
0
 62
     7
 48
2.0
100
AcDbMText
 10
77.25059502225531
 20
32.76404094991455
 30
0.0
 40
2.4
 41
0.0
 71
     5
 72
     1
  1
\P\Ftxt.shx,bigfont.shx|c128;諸　　　　元
 73
     1
 44
1.0
  0
LINE
  5
7D97
330
18
100
AcDbEntity
  8
frame
100
AcDbLine
 10
62.30789503931965
 20
32.36745674462242
 30
0.0
 11
62.30789503931965
 21
17.96745674462244
 31
0.0
  0
MTEXT
  5
7D98
330
18
100
AcDbEntity
  8
0
100
AcDbMText
 10
64.06911294615975
 20
28.00420216106204
 30
0.0
 40
2.2
 41
81.95814342112454
 71
     1
 72
     5
  1
\Ftxt.shx,bigfont.shx|c128;熱　処　理
  7
JL
 73
     1
 44
1.0
  0
LINE
  5
7D99
330
18
100
AcDbEntity
  8
frame
100
AcDbLine
 10
74.30789503931965
 20
28.7674567446224
 30
0.0
 11
74.30789503931965
 21
17.96745674462244
 31
0.0
  0
MTEXT
  5
7D9A
330
18
100
AcDbEntity
  8
0
100
AcDbMText
 10
63.92897576247015
 20
24.50308793743199
 30
0.0
 40
2.2
 41
81.80293144248363
 71
     1
 72
     5
  1
\Ftxt.shx,bigfont.shx|c128;表 面 処 理
  7
JL
 73
     1
 44
1.0
  0
MTEXT
  5
7D9B
330
18
100
AcDbEntity
  8
0
100
AcDbMText
 10
64.07400868668765
 20
20.85885151062803
 30
0.0
 40
2.2
 41
83.0859
 71
     1
 72
     5
  1
\Ftxt.shx,bigfont.shx|c128;等     　級
  7
JL
 73
     1
 44
1.0
  0
LINE
  5
7D9C
330
18
100
AcDbEntity
  8
frame
100
AcDbLine
 10
92.30789503931964
 20
32.36745674462242
 30
0.0
 11
92.30789503931964
 21
17.96745674462249
 31
0.0
  0
MTEXT
  5
7D9D
330
18
100
AcDbEntity
  8
0
100
AcDbMText
 10
76.68139669404093
 20
27.91672320735723
 30
0.0
 40
2.2
 41
145.9480028428943
 71
     1
 72
     5
  1
\Ftxt.shx,bigfont.shx|c128;調質　HRC30%%d%%p２%%d
  7
JL
 73
     1
 44
1.0
  0
MTEXT
  5
7D9E
330
18
100
AcDbEntity
  8
0
100
AcDbMText
 10
76.81171619475913
 20
20.8591567963536
 30
0.0
 40
2.2
 41
145.3916823984455
 71
     1
 72
     5
  1
\Ftxt.shx,bigfont.shx|c128;ＩＳＯ - ４Ｈ
  7
JL
 73
     1
 44
1.0
  0
MTEXT
  5
7D9F
330
18
100
AcDbEntity
  8
0
100
AcDbMText
 10
76.89894679382428
 20
24.32664146895457
 30
0.0
 40
2.2
 41
145.7274
 71
     1
 72
     5
  1
\Ftxt.shx,bigfont.shx|c128;黒  　    染
  7
JL
 73
     1
 44
1.0
  0
MTEXT
  5
7DA0
330
18
100
AcDbEntity
  8
0
100
AcDbMText
 10
28.81819530667213
 20
130.4500291639737
 30
0.0
 40
2.5
 41
0.0
 71
     1
 72
     5
  1
{\Ftxt,bigfont|c128;M4X0.7P-12L}
  7
JL
 73
     1
 44
1.0
1001
ACAD
1000
ACAD_MTEXT_DEFINED_HEIGHT_BEGIN
1070
    46
1040
0.0
1000
ACAD_MTEXT_DEFINED_HEIGHT_END
  0
LINE
  5
7DA2
330
18
100
AcDbEntity
  8
frame
100
AcDbLine
 10
0.0
 20
127.0
 30
0.0
 11
95.0
 21
127.0
 31
0.0
  0
LINE
  5
7DA3
330
18
100
AcDbEntity
  8
frame
100
AcDbLine
 10
0.0
 20
131.0
 30
0.0
 11
95.0
 21
131.0
 31
0.0
  0
LINE
  5
7DA4
330
18
100
AcDbEntity
  8
frame
 62
     9
100
AcDbLine
 10
0.0
 20
135.0
 30
0.0
 11
95.0
 21
135.0
 31
0.0
  0
MTEXT
  5
7DA5
330
18
100
AcDbEntity
  8
0
100
AcDbMText
 10
28.50782195301855
 20
138.712028002452
 30
0.0
 40
2.5
 41
0.0
 71
     1
 72
     5
  1
\Ftxt.shx,bigfont.shx|c128;図    番 / 規　　格
  7
JL
 73
     1
 44
1.0
  0
LINE
  5
7DA6
330
18
100
AcDbEntity
  8
frame
100
AcDbLine
 10
0.0
 20
127.0
 30
0.0
 11
95.0
 21
127.0
 31
0.0
  0
MTEXT
  5
7DA8
330
18
100
AcDbEntity
  8
0
100
AcDbMText
 10
10.56244024461716
 20
138.7318990693371
 30
0.0
 40
2.5
 41
0.0
 71
     1
 72
     5
  1
\Ftxt.shx,bigfont.shx|c128;品　          名
  7
JL
 73
     1
 44
1.0
  0
MTEXT
  5
7DA9
330
18
100
AcDbEntity
  8
0
100
AcDbMText
 10
9.051406935550659
 20
130.3953618644555
 30
0.0
 40
2.5
 41
0.0
 71
     1
 72
     5
  1
\Ftxt.shx,bigfont.shx|c128;セットスクリュ-
  7
JL
 73
     1
 44
1.0
  0
MTEXT
  5
7DAA
330
18
100
AcDbEntity
  8
0
100
AcDbMText
 10
8.957547404315789
 20
134.4180615141482
 30
0.0
 40
2.5
 41
0.0
 71
     1
 72
     5
  1
\Ftxt.shx,bigfont.shx|c128;ロックナット　  
  7
JL
 73
     1
 44
1.0
  0
LINE
  5
7DAC
330
18
100
AcDbEntity
  8
frame
 62
     9
100
AcDbLine
 10
7.196969696969688
 20
139.9999999999999
 30
0.0
 11
7.196969696969818
 21
127.0
 31
0.0
  0
LINE
  5
7DAD
330
18
100
AcDbEntity
  8
frame
 62
     9
100
AcDbLine
 10
7.196969696969688
 20
139.9999999999999
 30
0.0
 11
7.196969696969688
 21
127.5252525252525
 31
0.0
  0
MTEXT
  5
7DAE
330
18
100
AcDbEntity
  8
0
100
AcDbMText
 10
3.407504634006897
 20
134.364083721706
 30
0.0
 40
2.5
 41
0.0
 71
     1
 72
     5
  1
\Ftxt.shx,bigfont.shx|c128;1
  7
JL
 73
     1
 44
1.0
  0
MTEXT
  5
7DAF
330
18
100
AcDbEntity
  8
0
100
AcDbMText
 10
1.059914036490113
 20
138.7367391319745
 30
0.0
 40
2.5
 41
0.0
 71
     1
 72
     5
  1
\Ftxt.shx,bigfont.shx|c128;照   号
  7
JL
 73
     1
 44
1.0
  0
LINE
  5
7DB0
330
18
100
AcDbEntity
  8
frame
 62
     9
100
AcDbLine
 10
26.38888888888891
 20
139.9999999999999
 30
0.0
 11
26.38888888888892
 21
127.0
 31
0.0
  0
MTEXT
  5
7DB1
330
18
100
AcDbEntity
  8
0
100
AcDbMText
 10
72.78681871864256
 20
138.8390831947097
 30
0.0
 40
2.5
 41
0.0
 71
     1
 72
     5
  1
\Ftxt.shx,bigfont.shx|c128;備           考
  7
JL
 73
     1
 44
1.0
  0
LINE
  5
7DB2
330
18
100
AcDbEntity
  8
frame
 62
     9
100
AcDbLine
 10
45.58080808080808
 20
140.0
 30
0.0
 11
45.58080808080808
 21
127.0
 31
0.0
  0
MTEXT
  5
7DB4
330
18
100
AcDbEntity
  8
0
100
AcDbMText
 10
46.43670544589684
 20
134.4180615141482
 30
0.0
 40
2.5
 41
0.0
 71
     1
 72
     5
  1
\Ftxt.shx,bigfont.shx|c128;SCM-440
  7
JL
 73
     1
 44
1.0
  0
MTEXT
  5
7DB5
330
18
100
AcDbEntity
  8
0
100
AcDbMText
 10
46.43670544589684
 20
130.382501006292
 30
0.0
 40
2.5
 41
0.0
 71
     1
 72
     5
  1
\Ftxt.shx,bigfont.shx|c128;SCM435
  7
JL
 73
     1
 44
1.0
  0
MTEXT
  5
7DB6
330
18
100
AcDbEntity
  8
0
100
AcDbMText
 10
47.88399431552096
 20
138.7822749741459
 30
0.0
 40
2.5
 41
0.0
 71
     1
 72
     5
  1
\Ftxt.shx,bigfont.shx|c128;材　質
  7
JL
 73
     1
 44
1.0
  0
LINE
  5
7DB7
330
18
100
AcDbEntity
  8
frame
 62
     9
100
AcDbLine
 10
55.17676767676772
 20
140.0
 30
0.0
 11
55.17676767676773
 21
127.0
 31
0.0
  0
LINE
  5
7DB8
330
18
100
AcDbEntity
  8
frame
100
AcDbLine
 10
62.37373737373736
 20
140.0
 30
0.0
 11
62.37373737373741
 21
127.0
 31
0.0
  0
MTEXT
  5
7DBA
330
18
100
AcDbEntity
  8
0
100
AcDbMText
 10
58.58427231077456
 20
134.5206355839966
 30
0.0
 40
2.5
 41
0.0
 71
     1
 72
     5
  1
\Ftxt.shx,bigfont.shx|c128;1
  7
JL
 73
     1
 44
1.0
  0
MTEXT
  5
7DBB
330
18
100
AcDbEntity
  8
0
100
AcDbMText
 10
58.29695351334419
 20
130.2546145075339
 30
0.0
 40
2.5
 41
0.0
 71
     1
 72
     5
  1
{\Ftxt,bigfont|c128;4}
  7
JL
 73
     1
 44
1.0
1001
ACAD
1000
ACAD_MTEXT_DEFINED_HEIGHT_BEGIN
1070
    46
1040
0.0
1000
ACAD_MTEXT_DEFINED_HEIGHT_END
  0
MTEXT
  5
7DBC
330
18
100
AcDbEntity
  8
0
100
AcDbMText
 10
56.21119479596313
 20
138.7822749741459
 30
0.0
 40
2.5
 41
0.0
 71
     1
 72
     5
  1
\Ftxt.shx,bigfont.shx|c128;数   量
  7
JL
 73
     1
 44
1.0
  0
MTEXT
  5
7DBD
330
18
100
AcDbEntity
  8
0
100
AcDbMText
 10
3.202009849527996
 20
130.364083721706
 30
0.0
 40
2.5
 41
0.0
 71
     1
 72
     5
  1
{\Ftxt,bigfont|c128;2}
  7
JL
 73
     1
 44
1.0
1001
ACAD
1000
ACAD_MTEXT_DEFINED_HEIGHT_BEGIN
1070
    46
1040
0.0
1000
ACAD_MTEXT_DEFINED_HEIGHT_END
  0
HATCH
  5
9828
330
18
100
AcDbEntity
  8
mark
100
AcDbHatch
 10
0.0
 20
0.0
 30
0.0
210
0.0
220
0.0
230
1.0
  2
SOLID
 70
     1
 71
     0
 91
        1
 92
        7
 72
     0
 73
     1
 93
        3
 10
32.13548127632589
 20
28.11491299835296
 10
32.13548127632589
 20
30.1982463316863
 10
33.17714794299255
 20
29.15657966501963
 97
        0
 75
     0
 76
     1
 47
0.0340840503434746
 98
        1
 10
32.62969319473635
 20
29.0602805793501
450
        0
451
        0
460
0.0
461
0.0
452
        1
462
1.0
453
        2
463
0.0
 63
     5
421
      255
463
1.0
 63
     7
421
 16777215
470
LINEAR
1001
ACAD
1010
0.0
1020
0.0
1030
0.0
  0
TOLERANCE
  5
9829
330
18
100
AcDbEntity
  8
mark
100
AcDbFcf
  3
STANDARD
 10
38.38548127632592
 20
30.19824633168628
 30
0.0
  1
%%v%%v%%vA%%v%%v
 11
-0.0000000000000002
 21
-1.0
 31
0.0
  0
LINE
  5
982A
330
18
100
AcDbEntity
  8
mark
100
AcDbLine
 10
37.13548127632592
 20
29.15657966501963
 30
0.0
 11
33.17714794299255
 21
29.15657966501963
 31
0.0
  0
LINE
  5
982B
330
18
100
AcDbEntity
  8
mark
100
AcDbLine
 10
32.13548127632589
 20
28.11491299835296
 30
0.0
 11
33.17714794299255
 21
29.15657966501963
 31
0.0
  0
LINE
  5
982C
330
18
100
AcDbEntity
  8
mark
100
AcDbLine
 10
33.17714794299255
 20
29.15657966501963
 30
0.0
 11
32.13548127632589
 21
30.1982463316863
 31
0.0
  0
TOLERANCE
  5
98A8
330
18
100
AcDbEntity
  8
mark
100
AcDbFcf
  3
STANDARD
 10
82.32526438419858
 20
65.85850870287288
 30
0.0
  1
{\Fgdt;h}%%v0.005%%v%%vA%%v%%v
  0
LINE
  5
98F9
330
18
100
AcDbEntity
  8
mark
100
AcDbLine
 10
32.13548127632589
 20
34.15657966501963
 30
0.0
 11
32.13548127632589
 21
30.1982463316863
 31
0.0
  0
LINE
  5
9931
330
18
100
AcDbEntity
  8
mark
100
AcDbLine
 10
77.32526438419859
 20
65.85850870287288
 30
0.0
 11
77.32526438419859
 21
60.85850870287288
 31
0.0
  0
LINE
  5
9933
330
18
100
AcDbEntity
  8
mark
100
AcDbLine
 10
77.32526438419859
 20
65.85850870287288
 30
0.0
 11
82.32526438419858
 21
65.85850870287288
 31
0.0
  0
LEADER
  5
9975
330
18
100
AcDbEntity
  8
mark
100
AcDbLeader
  3
STANDARD
 76
     3
 10
23.13548127632589
 20
54.40850870287288
 30
0.0
 10
17.23548127632588
 20
48.50850870287288
 30
0.0
 10
8.058161393086919
 20
48.50850870287288
 30
0.0
1001
ACAD
1000
DSTYLE
1002
{
1070
   147
1040
0.4
1070
    77
1070
     0
1002
}
  0
TEXT
  5
9977
330
18
100
AcDbEntity
  8
dim
100
AcDbText
 10
8.134930108719601
 20
48.94372823491247
 30
0.0
 40
1.25
  1
4-%%C5深さ6
  7
TXT
100
AcDbText
  0
LEADER
  5
9978
330
18
100
AcDbEntity
  8
mark
100
AcDbLeader
  3
STANDARD
 76
     3
 10
26.88548127632589
 20
40.85850870287288
 30
0.0
 10
19.92425314310318
 20
33.89728056965019
 30
0.0
 10
9.045647266467085
 20
33.89728056965019
 30
0.0
1001
ACAD
1000
DSTYLE
1002
{
1070
   147
1040
0.4
1070
    77
1070
     0
1002
}
  0
TEXT
  5
9979
330
18
100
AcDbEntity
  8
dim
100
AcDbText
 10
9.239922358095583
 20
34.21763368299899
 30
0.0
 40
1.25
  1
4-%%C4.3深さ4
  7
TXT
100
AcDbText
  0
TEXT
  5
9A34
330
18
100
AcDbEntity
  8
dim
100
AcDbText
 10
77.3521642322836
 20
78.27832438569176
 30
0.0
 40
2.5
  1
1
  7
TXT
100
AcDbText
  0
LINE
  5
9AC5
330
18
100
AcDbEntity
  8
contour
100
AcDbLine
 10
24.13548127632589
 20
40.85850870287288
 30
0.0
 11
68.13548127632589
 21
40.85850870287288
 31
0.0
  0
LINE
  5
9AC6
330
18
100
AcDbEntity
  8
contour
100
AcDbLine
 10
69.13548127632589
 20
41.85850870287288
 30
0.0
 11
69.13548127632586
 21
44.95850870287288
 31
0.0
  0
LINE
  5
9AC7
330
18
100
AcDbEntity
  8
contour
100
AcDbLine
 10
68.13548127632592
 20
60.85850870287288
 30
0.0
 11
24.13548127632589
 21
60.85850870287289
 31
0.0
  0
LINE
  5
9AC8
330
18
100
AcDbEntity
  8
contour
100
AcDbLine
 10
23.13548127632589
 20
59.85850870287288
 30
0.0
 11
23.13548127632589
 21
48.95850870287288
 31
0.0
  0
LINE
  5
9AC9
330
18
100
AcDbEntity
  8
contour
100
AcDbLine
 10
24.13548127632589
 20
45.95850870287288
 30
0.0
 11
30.38548127632592
 21
45.95850870287288
 31
0.0
  0
LINE
  5
9ACA
330
18
100
AcDbEntity
  8
contour
100
AcDbLine
 10
24.13548127632589
 20
47.95850870287288
 30
0.0
 11
30.38548127632592
 21
47.95850870287288
 31
0.0
  0
LINE
  5
9ACB
330
18
100
AcDbEntity
  8
contour
100
AcDbLine
 10
24.88548127632592
 20
48.75850870287287
 30
0.0
 11
62.63548127632589
 21
48.75850870287288
 31
0.0
  0
LINE
  5
9ACC
330
18
100
AcDbEntity
  8
contour
100
AcDbLine
 10
24.88548127632592
 20
50.75850870287285
 30
0.0
 11
62.63548127632589
 21
50.75850870287288
 31
0.0
  0
LINE
  5
9ACE
330
18
100
AcDbEntity
  8
contour
100
AcDbLine
 10
24.88548127632592
 20
48.75850870287288
 30
0.0
 11
24.88548127632592
 21
50.75850870287288
 31
0.0
  0
LINE
  5
9ACF
330
18
100
AcDbEntity
  8
contour
100
AcDbLine
 10
67.38548127632589
 20
48.75850870287288
 30
0.0
 11
67.38548127632589
 21
50.75850870287288
 31
0.0
  0
LINE
  5
9AD3
330
18
100
AcDbEntity
  8
contour
100
AcDbLine
 10
23.13548127632589
 20
44.95850870287289
 30
0.0
 11
23.13548127632589
 21
41.85850870287288
 31
0.0
  0
LINE
  5
9AD4
330
18
100
AcDbEntity
  8
contour
100
AcDbLine
 10
69.13548127632589
 20
48.95850870287289
 30
0.0
 11
69.13548127632592
 21
59.85850870287288
 31
0.0
  0
LINE
  5
9AD5
330
18
100
AcDbEntity
  8
contour
100
AcDbLine
 10
66.63548127632586
 20
47.95850870287286
 30
0.0
 11
68.13548127632589
 21
47.95850870287289
 31
0.0
  0
LINE
  5
9AD6
330
18
100
AcDbEntity
  8
contour
100
AcDbLine
 10
66.63548127632586
 20
45.95850870287288
 30
0.0
 11
68.13548127632586
 21
45.95850870287288
 31
0.0
  0
LINE
  5
9AD7
330
18
100
AcDbEntity
  8
center
 48
0.2
100
AcDbLine
 10
46.13548127632589
 20
61.85850870287288
 30
0.0
 11
46.13548127632589
 21
39.85850870287288
 31
0.0
  0
INSERT
  5
9AEC
330
18
100
AcDbEntity
  8
contour
100
AcDbBlockReference
  2
LS
 10
-242.6102497188344
 20
-139.8575273636098
 30
0.0
  0
LINE
  5
9B01
330
18
100
AcDbEntity
  8
contour
100
AcDbLine
 10
24.73548127632589
 20
41.35850870287288
 30
0.0
 11
24.73548127632589
 21
43.61720562411518
 31
0.0
  0
LINE
  5
9B02
330
18
100
AcDbEntity
  8
contour
100
AcDbLine
 10
24.73548127632589
 20
43.61720562411518
 30
0.0
 11
26.88548127632589
 21
44.85850870287287
 31
0.0
  0
LINE
  5
9B03
330
18
100
AcDbEntity
  8
contour
100
AcDbLine
 10
29.03548127632589
 20
43.61720562411518
 30
0.0
 11
29.03548127632589
 21
41.35850870287288
 31
0.0
  0
LINE
  5
9B04
330
18
100
AcDbEntity
  8
contour
100
AcDbLine
 10
29.03548127632587
 20
43.61720562411518
 30
0.0
 11
26.88548127632589
 21
44.85850870287287
 31
0.0
  0
LINE
  5
9B05
330
18
100
AcDbEntity
  8
contour
100
AcDbLine
 10
24.73548127632589
 20
43.61720562411518
 30
0.0
 11
29.03548127632589
 21
43.61720562411518
 31
0.0
  0
LINE
  5
9B06
330
18
100
AcDbEntity
  8
contour
100
AcDbLine
 10
24.23548127632589
 20
40.85850870287288
 30
0.0
 11
24.73548127632589
 21
41.35850870287288
 31
0.0
  0
LINE
  5
9B07
330
18
100
AcDbEntity
  8
contour
100
AcDbLine
 10
29.03548127632587
 20
41.35850870287288
 30
0.0
 11
29.53548127632587
 21
40.85850870287288
 31
0.0
  0
LINE
  5
9B08
330
18
100
AcDbEntity
  8
contour
100
AcDbLine
 10
24.73548127632589
 20
41.35850870287288
 30
0.0
 11
29.03548127632587
 21
41.35850870287288
 31
0.0
  0
LINE
  5
9B0B
330
18
100
AcDbEntity
  8
contour
100
AcDbLine
 10
27.69210560335185
 20
56.85850870287286
 30
0.0
 11
24.13548127632586
 21
56.85850870287288
 31
0.0
  0
LINE
  5
9B0C
330
18
100
AcDbEntity
  8
contour
100
AcDbLine
 10
27.69210560335188
 20
51.85850870287287
 30
0.0
 11
24.13548127632589
 21
51.85850870287286
 31
0.0
  0
LINE
  5
9B0D
330
18
100
AcDbEntity
  8
contour
100
AcDbLine
 10
27.69210560335185
 20
56.85850870287286
 30
0.0
 11
29.13548127632589
 21
54.35850870287288
 31
0.0
  0
LINE
  5
9B0E
330
18
100
AcDbEntity
  8
contour
100
AcDbLine
 10
29.13548127632589
 20
54.35850870287288
 30
0.0
 11
27.69210560335188
 21
51.85850870287287
 31
0.0
  0
ARC
  5
9B13
330
18
100
AcDbEntity
  8
contour
100
AcDbCircle
 10
24.13548127632589
 20
41.85850870287288
 30
0.0
 40
1.0
100
AcDbArc
 50
180.0
 51
270.0
  0
ARC
  5
9B14
330
18
100
AcDbEntity
  8
contour
100
AcDbCircle
 10
24.13548127632589
 20
44.95850870287289
 30
0.0
 40
1.0
100
AcDbArc
 50
90.0
 51
180.0
  0
ARC
  5
9B15
330
18
100
AcDbEntity
  8
contour
100
AcDbCircle
 10
24.13548127632589
 20
48.95850870287288
 30
0.0
 40
1.0
100
AcDbArc
 50
180.0
 51
270.0
  0
ARC
  5
9B16
330
18
100
AcDbEntity
  8
contour
100
AcDbCircle
 10
24.13548127632589
 20
59.85850870287288
 30
0.0
 40
1.0
100
AcDbArc
 50
90.0
 51
180.0
  0
ARC
  5
9B17
330
18
100
AcDbEntity
  8
contour
100
AcDbCircle
 10
68.13548127632592
 20
59.85850870287288
 30
0.0
 40
1.0
100
AcDbArc
 50
0.0
 51
90.0
  0
ARC
  5
9B18
330
18
100
AcDbEntity
  8
contour
100
AcDbCircle
 10
68.13548127632589
 20
48.95850870287289
 30
0.0
 40
1.0
100
AcDbArc
 50
270.0
 51
359.9999999999998
  0
ARC
  5
9B19
330
18
100
AcDbEntity
  8
contour
100
AcDbCircle
 10
68.13548127632586
 20
44.95850870287288
 30
0.0
 40
1.0
100
AcDbArc
 50
0.0
 51
90.0
  0
ARC
  5
9B1A
330
18
100
AcDbEntity
  8
contour
100
AcDbCircle
 10
68.13548127632589
 20
41.85850870287288
 30
0.0
 40
1.0
100
AcDbArc
 50
270.0
 51
0.0000000000004071
  0
LINE
  5
9B1B
330
18
100
AcDbEntity
  8
center
 48
0.1
100
AcDbLine
 10
30.13548127632589
 20
54.35850870287288
 30
0.0
 11
22.13548127632589
 21
54.35850870287288
 31
0.0
  0
LINE
  5
9B1C
330
18
100
AcDbEntity
  8
center
 48
0.1
100
AcDbLine
 10
26.88548127632589
 20
45.85850870287287
 30
0.0
 11
26.88548127632589
 21
39.85850870287288
 31
0.0
  0
LINE
  5
9BF1
330
18
100
AcDbEntity
  8
contour
100
AcDbLine
 10
30.38548127632592
 20
45.95850870287289
 30
0.0
 11
30.38548127632592
 21
47.95850870287289
 31
0.0
  0
LINE
  5
9CA0
330
18
100
AcDbEntity
  8
contour
100
AcDbLine
 10
61.88548127632589
 20
45.95850870287288
 30
0.0
 11
61.88548127632589
 21
47.95850870287288
 31
0.0
  0
LINE
  5
9CAB
330
18
100
AcDbEntity
  8
contour
100
AcDbLine
 10
61.88548127632589
 20
47.95850870287287
 30
0.0
 11
62.63548127632589
 21
47.95850870287285
 31
0.0
  0
LINE
  5
9CAC
330
18
100
AcDbEntity
  8
contour
100
AcDbLine
 10
61.88548127632589
 20
45.95850870287288
 30
0.0
 11
62.63548127632589
 21
45.95850870287288
 31
0.0
  0
LINE
  5
9D82
330
18
100
AcDbEntity
  8
contour
100
AcDbLine
 10
67.38548127632592
 20
50.75850870287288
 30
0.0
 11
66.63548127632586
 21
50.75850870287286
 31
0.0
  0
LINE
  5
9D83
330
18
100
AcDbEntity
  8
contour
100
AcDbLine
 10
67.38548127632592
 20
48.75850870287288
 30
0.0
 11
66.63548127632586
 21
48.75850870287286
 31
0.0
  0
LINE
  5
9D8A
330
18
100
AcDbEntity
  8
contour
100
AcDbLine
 10
27.69210560335188
 20
51.85850870287287
 30
0.0
 11
27.69210560335185
 21
56.85850870287286
 31
0.0
  0
LINE
  5
9D8B
330
18
100
AcDbEntity
  8
contour
100
AcDbLine
 10
24.13548127632589
 20
56.85850870287288
 30
0.0
 11
23.13548127632589
 21
57.85850870287288
 31
0.0
  0
LINE
  5
9D8C
330
18
100
AcDbEntity
  8
contour
100
AcDbLine
 10
24.13548127632589
 20
51.85850870287287
 30
0.0
 11
23.13548127632589
 21
50.85850870287288
 31
0.0
  0
LINE
  5
9D8D
330
18
100
AcDbEntity
  8
contour
100
AcDbLine
 10
24.13548127632589
 20
56.85850870287288
 30
0.0
 11
24.13548127632589
 21
51.85850870287287
 31
0.0
  0
LINE
  5
9D8E
330
18
100
AcDbEntity
  8
contour
 62
     4
100
AcDbLine
 10
32.13548127632589
 20
60.17050870287296
 30
0.0
 11
32.13548127632589
 21
51.44650870287288
 31
0.0
  0
LINE
  5
9D90
330
18
100
AcDbEntity
  8
contour
100
AcDbLine
 10
32.94748127632593
 20
59.35850870287291
 30
0.0
 11
32.9474812763259
 21
52.25850870287288
 31
0.0
  0
LINE
  5
9D91
330
18
100
AcDbEntity
  8
contour
100
AcDbLine
 10
32.9474812763259
 20
47.25850870287285
 30
0.0
 11
32.94748127632587
 21
42.35850870287287
 31
0.0
  0
LINE
  5
9D92
330
18
100
AcDbEntity
  8
contour
 62
     4
100
AcDbLine
 10
32.13548127632589
 20
48.07050870287284
 30
0.0
 11
32.13548127632589
 21
41.54650870287289
 31
0.0
  0
LINE
  5
9D93
330
18
100
AcDbEntity
  8
contour
100
AcDbLine
 10
31.44748127632596
 20
60.85850870287288
 30
0.0
 11
32.94748127632596
 21
59.35850870287288
 31
0.0
  0
LINE
  5
9D94
330
18
100
AcDbEntity
  8
contour
100
AcDbLine
 10
32.94748127632587
 20
52.25850870287287
 30
0.0
 11
31.44748127632587
 21
50.75850870287287
 31
0.0
  0
LINE
  5
9D95
330
18
100
AcDbEntity
  8
contour
100
AcDbLine
 10
31.44748127632587
 20
48.75850870287287
 30
0.0
 11
32.94748127632587
 21
47.25850870287287
 31
0.0
  0
LINE
  5
9D96
330
18
100
AcDbEntity
  8
contour
100
AcDbLine
 10
32.94748127632587
 20
42.35850870287288
 30
0.0
 11
31.44748127632587
 21
40.85850870287288
 31
0.0
  0
LINE
  5
9D97
330
18
100
AcDbEntity
  8
contour
100
AcDbLine
 10
59.3234812763259
 20
42.35850870287288
 30
0.0
 11
60.82348127632591
 21
40.85850870287288
 31
0.0
  0
LINE
  5
9D98
330
18
100
AcDbEntity
  8
contour
100
AcDbLine
 10
59.3234812763259
 20
52.25850870287287
 30
0.0
 11
60.82348127632591
 21
50.75850870287287
 31
0.0
  0
LINE
  5
9D99
330
18
100
AcDbEntity
  8
contour
 62
     4
100
AcDbLine
 10
60.13548127632589
 20
60.17050870287296
 30
0.0
 11
60.13548127632589
 21
51.44650870287288
 31
0.0
  0
LINE
  5
9D9A
330
18
100
AcDbEntity
  8
contour
 62
     4
100
AcDbLine
 10
60.13548127632589
 20
48.07050870287284
 30
0.0
 11
60.13548127632589
 21
41.54650870287289
 31
0.0
  0
LINE
  5
9D9B
330
18
100
AcDbEntity
  8
contour
100
AcDbLine
 10
59.32348127632585
 20
59.35850870287291
 30
0.0
 11
59.32348127632588
 21
52.25850870287288
 31
0.0
  0
LINE
  5
9D9C
330
18
100
AcDbEntity
  8
contour
100
AcDbLine
 10
60.82348127632582
 20
60.85850870287288
 30
0.0
 11
59.32348127632582
 21
59.35850870287288
 31
0.0
  0
LINE
  5
9D9D
330
18
100
AcDbEntity
  8
contour
100
AcDbLine
 10
59.32348127632588
 20
47.25850870287285
 30
0.0
 11
59.3234812763259
 21
42.35850870287287
 31
0.0
  0
LINE
  5
9D9E
330
18
100
AcDbEntity
  8
contour
100
AcDbLine
 10
60.82348127632591
 20
48.75850870287287
 30
0.0
 11
59.3234812763259
 21
47.25850870287287
 31
0.0
  0
LINE
  5
9D9F
330
18
100
AcDbEntity
  8
contour
100
AcDbLine
 10
32.9474812763259
 20
59.35850870287291
 30
0.0
 11
59.32348127632585
 21
59.35850870287289
 31
0.0
  0
LINE
  5
9DA0
330
18
100
AcDbEntity
  8
contour
100
AcDbLine
 10
32.94748127632585
 20
52.25850870287292
 30
0.0
 11
59.32348127632588
 21
52.25850870287299
 31
0.0
  0
LINE
  5
9DA1
330
18
100
AcDbEntity
  8
contour
100
AcDbLine
 10
32.94748127632593
 20
47.25850870287287
 30
0.0
 11
59.32348127632585
 21
47.25850870287301
 31
0.0
  0
LINE
  5
9DA2
330
18
100
AcDbEntity
  8
contour
100
AcDbLine
 10
59.3234812763259
 20
42.35850870287286
 30
0.0
 11
32.94748127632587
 21
42.35850870287301
 31
0.0
  0
LINE
  5
9E94
330
18
100
AcDbEntity
  8
center
 48
0.2
100
AcDbLine
 10
64.63548127632589
 20
61.85850870287288
 30
0.0
 11
64.63548127632589
 21
39.85850870287288
 31
0.0
  0
LINE
  5
9E95
330
18
100
AcDbEntity
  8
contour
100
AcDbLine
 10
61.13548127632589
 20
41.15850870287284
 30
0.0
 11
61.13548127632589
 21
40.85850870287289
 31
0.0
  0
LINE
  5
9E96
330
18
100
AcDbEntity
  8
contour
100
AcDbLine
 10
68.13548127632589
 20
41.15850870287295
 30
0.0
 11
68.13548127632589
 21
40.85850870287289
 31
0.0
  0
LINE
  5
9E98
330
18
100
AcDbEntity
  8
contour
 62
     4
100
AcDbLine
 10
62.63548127632589
 20
56.05850870287287
 30
0.0
 11
62.63548127632589
 21
60.85850870287288
 31
0.0
  0
LINE
  5
9E99
330
18
100
AcDbEntity
  8
contour
100
AcDbLine
 10
63.01448127632591
 20
56.43750870287277
 30
0.0
 11
63.01448127632593
 21
60.85850870287288
 31
0.0
  0
LINE
  5
9E9A
330
18
100
AcDbEntity
  8
contour
 62
     4
100
AcDbLine
 10
66.63548127632589
 20
56.05850870287287
 30
0.0
 11
66.63548127632589
 21
60.85850870287288
 31
0.0
  0
LINE
  5
9E9B
330
18
100
AcDbEntity
  8
contour
100
AcDbLine
 10
66.25648127632593
 20
56.43750870287272
 30
0.0
 11
66.25648127632596
 21
60.85850870287288
 31
0.0
  0
CIRCLE
  5
9EAE
330
18
100
AcDbEntity
  8
contour
100
AcDbCircle
 10
46.13548127632589
 20
96.93325518782058
 30
0.0
 40
23.0
  0
CIRCLE
  5
9EB2
330
18
100
AcDbEntity
  8
contour
100
AcDbCircle
 10
46.13548127632589
 20
96.93325518782058
 30
0.0
 40
13.18799999999996
  0
ARC
  5
9EB3
330
18
100
AcDbEntity
  8
contour
 62
     4
100
AcDbCircle
 10
46.13548127632589
 20
96.93325518782058
 30
0.0
 40
14.0
100
AcDbArc
 50
170.1291103938605
 51
99.87088960613991
  0
CIRCLE
  5
9EB4
330
18
100
AcDbEntity
  8
contour
100
AcDbCircle
 10
46.13548127632589
 20
96.93325518782058
 30
0.0
 40
14.68799999999993
  0
CIRCLE
  5
9EB8
330
18
100
AcDbEntity
  8
center
 48
0.2
100
AcDbCircle
 10
46.13548127632589
 20
96.93325518782058
 30
0.0
 40
18.5
  0
CIRCLE
  5
9EBD
330
18
100
AcDbEntity
  8
contour
100
AcDbCircle
 10
64.63548127632589
 20
96.93325518782058
 30
0.0
 40
1.621000000000066
  0
ARC
  5
9EBE
330
18
100
AcDbEntity
  8
contour
 62
     4
100
AcDbCircle
 10
64.63548127632589
 20
96.93325518782058
 30
0.0
 40
2.0
100
AcDbArc
 50
168.4630409671841
 51
101.5369590328148
  0
CIRCLE
  5
9EC3
330
18
100
AcDbEntity
  8
contour
100
AcDbCircle
 10
46.13548127632589
 20
115.4332551878205
 30
0.0
 40
1.621000000000066
  0
CIRCLE
  5
9EC5
330
18
100
AcDbEntity
  8
contour
100
AcDbCircle
 10
46.13548127632589
 20
78.43325518782058
 30
0.0
 40
1.621000000000066
  0
ARC
  5
9EC6
330
18
100
AcDbEntity
  8
contour
 62
     4
100
AcDbCircle
 10
46.13548127632589
 20
78.43325518782058
 30
0.0
 40
2.0
100
AcDbArc
 50
168.4630409671842
 51
101.5369590328148
  0
ARC
  5
9EC7
330
18
100
AcDbEntity
  8
contour
 62
     4
100
AcDbCircle
 10
27.63548127632589
 20
96.93325518782058
 30
0.0
 40
2.0
100
AcDbArc
 50
168.4630409671841
 51
101.5369590328148
  0
ARC
  5
9EC8
330
18
100
AcDbEntity
  8
contour
 62
     4
100
AcDbCircle
 10
46.13548127632589
 20
115.4332551878205
 30
0.0
 40
2.0
100
AcDbArc
 50
168.4630409671842
 51
101.5369590328148
  0
LINE
  5
9EC9
330
18
100
AcDbEntity
  8
center
 48
0.2
100
AcDbLine
 10
70.13548127632589
 20
96.93325518782058
 30
0.0
 11
22.135481276326
 21
96.9332551878206
 31
0.0
  0
CIRCLE
  5
9ECD
330
18
100
AcDbEntity
  8
contour
100
AcDbCircle
 10
27.63548127632589
 20
96.93325518782058
 30
0.0
 40
1.400000000000062
  0
CIRCLE
  5
9ED1
330
18
100
AcDbEntity
  8
bowle
 48
0.2
100
AcDbCircle
 10
32.52367573848494
 20
83.3214496499796
 30
0.0
 40
2.149999999999999
  0
CIRCLE
  5
9ED2
330
18
100
AcDbEntity
  8
bowle
 48
0.2
100
AcDbCircle
 10
32.52367573848494
 20
83.3214496499796
 30
0.0
 40
2.649999999999999
  0
CIRCLE
  5
9ED4
330
18
100
AcDbEntity
  8
bowle
 48
0.2
100
AcDbCircle
 10
59.7472868141669
 20
83.32144964997956
 30
0.0
 40
2.149999999999999
  0
CIRCLE
  5
9ED5
330
18
100
AcDbEntity
  8
bowle
 48
0.2
100
AcDbCircle
 10
59.7472868141669
 20
83.32144964997956
 30
0.0
 40
2.649999999999999
  0
CIRCLE
  5
9ED6
330
18
100
AcDbEntity
  8
bowle
 48
0.2
100
AcDbCircle
 10
59.74728681416696
 20
110.5450607256615
 30
0.0
 40
2.149999999999999
  0
CIRCLE
  5
9ED7
330
18
100
AcDbEntity
  8
bowle
 48
0.2
100
AcDbCircle
 10
59.74728681416696
 20
110.5450607256615
 30
0.0
 40
2.649999999999999
  0
CIRCLE
  5
9ED8
330
18
100
AcDbEntity
  8
bowle
 48
0.2
100
AcDbCircle
 10
32.523675738485
 20
110.5450607256616
 30
0.0
 40
2.149999999999999
  0
CIRCLE
  5
9ED9
330
18
100
AcDbEntity
  8
bowle
 48
0.2
100
AcDbCircle
 10
32.523675738485
 20
110.5450607256616
 30
0.0
 40
2.649999999999999
  0
LINE
  5
9EE2
330
18
100
AcDbEntity
  8
center
 48
0.2
100
AcDbLine
 10
46.13548127632589
 20
120.9332551878206
 30
0.0
 11
46.13548127632589
 21
72.93325518782058
 31
0.0
  0
LINE
  5
9EE3
330
18
100
AcDbEntity
  8
bowle
 48
0.2
100
AcDbLine
 10
34.89716756202069
 20
82.08869688946395
 30
0.0
 11
32.38225438224759
 21
79.5737837096908
 31
0.0
  0
LINE
  5
9EE4
330
18
100
AcDbEntity
  8
bowle
 48
0.2
100
AcDbLine
 10
31.36163365608798
 20
85.62423079539662
 30
0.0
 11
28.84672047631483
 21
83.10931761562354
 31
0.0
  0
LINE
  5
9EE5
330
18
100
AcDbEntity
  8
bowle
 48
0.2
100
AcDbLine
 10
32.38225438224759
 20
79.5737837096908
 30
0.0
 11
32.38225438224759
 21
78.49826807092782
 31
0.0
  0
LINE
  5
9EE6
330
18
100
AcDbEntity
  8
bowle
 48
0.2
100
AcDbLine
 10
28.84672047631483
 20
83.10931761562356
 30
0.0
 11
27.75345880870825
 21
83.10931761562358
 31
0.0
  0
LINE
  5
9EE7
330
18
100
AcDbEntity
  8
bowle
 48
0.2
100
AcDbLine
 10
31.36163365608798
 20
85.62423079539662
 30
0.0
 11
34.15002133521395
 21
84.87708456858992
 31
0.0
  0
LINE
  5
9EE8
330
18
100
AcDbEntity
  8
bowle
 48
0.2
100
AcDbLine
 10
34.15002133521395
 20
84.87708456858992
 30
0.0
 11
34.89716756202069
 21
82.08869688946395
 31
0.0
  0
LINE
  5
9EE9
330
18
100
AcDbEntity
  8
bowle
 48
0.2
100
AcDbLine
 10
34.89716756202069
 20
82.08869688946395
 30
0.0
 11
31.36163365608798
 21
85.62423079539662
 31
0.0
  0
LINE
  5
9EEA
330
18
100
AcDbEntity
  8
bowle
 48
0.2
100
AcDbLine
 10
28.84672047631483
 20
83.10931761562356
 30
0.0
 11
32.38225438224759
 21
79.5737837096908
 31
0.0
  0
LINE
  5
9EEB
330
18
100
AcDbEntity
  8
bowle
 48
0.2
100
AcDbLine
 10
60.9800395746825
 20
85.69494147351537
 30
0.0
 11
63.49495275445566
 21
83.18002829374227
 31
0.0
  0
LINE
  5
9EEC
330
18
100
AcDbEntity
  8
bowle
 48
0.2
100
AcDbLine
 10
57.44450566874983
 20
82.15940756758266
 30
0.0
 11
59.95941884852292
 21
79.64449438780952
 31
0.0
  0
LINE
  5
9EED
330
18
100
AcDbEntity
  8
bowle
 48
0.2
100
AcDbLine
 10
63.49495275445566
 20
83.18002829374227
 30
0.0
 11
64.57046839321861
 21
83.18002829374227
 31
0.0
  0
LINE
  5
9EEE
330
18
100
AcDbEntity
  8
bowle
 48
0.2
100
AcDbLine
 10
59.95941884852289
 20
79.64449438780952
 30
0.0
 11
59.95941884852289
 21
78.55123272020293
 31
0.0
  0
LINE
  5
9EEF
330
18
100
AcDbEntity
  8
bowle
 48
0.2
100
AcDbLine
 10
57.44450566874983
 20
82.15940756758266
 30
0.0
 11
58.19165189555653
 21
84.94779524670864
 31
0.0
  0
LINE
  5
9EF0
330
18
100
AcDbEntity
  8
bowle
 48
0.2
100
AcDbLine
 10
58.19165189555653
 20
84.94779524670864
 30
0.0
 11
60.9800395746825
 21
85.69494147351537
 31
0.0
  0
LINE
  5
9EF1
330
18
100
AcDbEntity
  8
bowle
 48
0.2
100
AcDbLine
 10
60.9800395746825
 20
85.69494147351537
 30
0.0
 11
57.44450566874983
 21
82.15940756758266
 31
0.0
  0
LINE
  5
9EF2
330
18
100
AcDbEntity
  8
bowle
 48
0.2
100
AcDbLine
 10
59.95941884852289
 20
79.64449438780952
 30
0.0
 11
63.49495275445566
 21
83.18002829374227
 31
0.0
  0
LINE
  5
9EF3
330
18
100
AcDbEntity
  8
bowle
 48
0.2
100
AcDbLine
 10
57.37379499063109
 20
111.7778134861772
 30
0.0
 11
59.88870817040418
 21
114.2927266659503
 31
0.0
  0
LINE
  5
9EF4
330
18
100
AcDbEntity
  8
bowle
 48
0.2
100
AcDbLine
 10
60.90932889656381
 20
108.2422795802445
 30
0.0
 11
63.42424207633695
 21
110.7571927600176
 31
0.0
  0
LINE
  5
9EF5
330
18
100
AcDbEntity
  8
bowle
 48
0.2
100
AcDbLine
 10
59.88870817040418
 20
114.2927266659503
 30
0.0
 11
59.88870817040418
 21
115.3682423047133
 31
0.0
  0
LINE
  5
9EF6
330
18
100
AcDbEntity
  8
bowle
 48
0.2
100
AcDbLine
 10
63.42424207633695
 20
110.7571927600176
 30
0.0
 11
64.51750374394354
 21
110.7571927600176
 31
0.0
  0
LINE
  5
9EF7
330
18
100
AcDbEntity
  8
bowle
 48
0.2
100
AcDbLine
 10
60.90932889656381
 20
108.2422795802445
 30
0.0
 11
58.12094121743783
 21
108.9894258070512
 31
0.0
  0
LINE
  5
9EF8
330
18
100
AcDbEntity
  8
bowle
 48
0.2
100
AcDbLine
 10
58.12094121743783
 20
108.9894258070512
 30
0.0
 11
57.37379499063109
 21
111.7778134861772
 31
0.0
  0
LINE
  5
9EF9
330
18
100
AcDbEntity
  8
bowle
 48
0.2
100
AcDbLine
 10
57.37379499063109
 20
111.7778134861772
 30
0.0
 11
60.90932889656381
 21
108.2422795802445
 31
0.0
  0
LINE
  5
9EFA
330
18
100
AcDbEntity
  8
bowle
 48
0.2
100
AcDbLine
 10
63.42424207633695
 20
110.7571927600176
 30
0.0
 11
59.88870817040418
 21
114.2927266659503
 31
0.0
  0
LINE
  5
9EFB
330
18
100
AcDbEntity
  8
bowle
 48
0.2
100
AcDbLine
 10
31.29092297796927
 20
108.1715689021258
 30
0.0
 11
28.77600979819613
 21
110.6864820818989
 31
0.0
  0
LINE
  5
9EFC
330
18
100
AcDbEntity
  8
bowle
 48
0.2
100
AcDbLine
 10
34.82645688390196
 20
111.7071028080585
 30
0.0
 11
32.31154370412887
 21
114.2220159878316
 31
0.0
  0
LINE
  5
9EFD
330
18
100
AcDbEntity
  8
bowle
 48
0.2
100
AcDbLine
 10
28.77600979819613
 20
110.6864820818989
 30
0.0
 11
27.70049415943316
 21
110.6864820818989
 31
0.0
  0
LINE
  5
9EFE
330
18
100
AcDbEntity
  8
bowle
 48
0.2
100
AcDbLine
 10
32.3115437041289
 20
114.2220159878316
 30
0.0
 11
32.3115437041289
 21
115.3152776554382
 31
0.0
  0
LINE
  5
9EFF
330
18
100
AcDbEntity
  8
bowle
 48
0.2
100
AcDbLine
 10
34.82645688390196
 20
111.7071028080585
 30
0.0
 11
34.07931065709525
 21
108.9187151289325
 31
0.0
  0
LINE
  5
9F00
330
18
100
AcDbEntity
  8
bowle
 48
0.2
100
AcDbLine
 10
34.07931065709525
 20
108.9187151289325
 30
0.0
 11
31.29092297796927
 21
108.1715689021258
 31
0.0
  0
LINE
  5
9F01
330
18
100
AcDbEntity
  8
bowle
 48
0.2
100
AcDbLine
 10
31.29092297796927
 20
108.1715689021258
 30
0.0
 11
34.82645688390196
 21
111.7071028080585
 31
0.0
  0
LINE
  5
9F02
330
18
100
AcDbEntity
  8
bowle
 48
0.2
100
AcDbLine
 10
32.3115437041289
 20
114.2220159878316
 30
0.0
 11
28.77600979819613
 21
110.6864820818989
 31
0.0
  0
LINE
  5
9F05
330
18
100
AcDbEntity
  8
center
 48
0.1
100
AcDbLine
 10
29.12639299543048
 20
113.8652047463536
 30
0.0
 11
37.49769927767787
 21
105.5318635719622
 31
0.0
  0
LINE
  5
9F06
330
18
100
AcDbEntity
  8
center
 48
0.1
100
AcDbLine
 10
29.20353171779292
 20
79.92416690692514
 30
0.0
 11
37.53687289218431
 21
88.29547318917253
 31
0.0
  0
LINE
  5
9F07
330
18
100
AcDbEntity
  8
center
 48
0.1
100
AcDbLine
 10
63.14456955722139
 20
80.00130562928758
 30
0.0
 11
54.773263274974
 21
88.33464680367896
 31
0.0
  0
LINE
  5
9F08
330
18
100
AcDbEntity
  8
center
 48
0.1
100
AcDbLine
 10
63.06743083485898
 20
113.9423434687161
 30
0.0
 11
54.73408966046759
 21
105.5710371864687
 31
0.0
  0
CIRCLE
  5
9F0A
330
18
100
AcDbEntity
  8
bowle
 48
0.2
100
AcDbCircle
 10
64.63548127632589
 20
96.93325518782058
 30
0.0
 40
3.500000000000028
  0
CIRCLE
  5
9F0E
330
18
100
AcDbEntity
  8
bowle
 48
0.2
100
AcDbCircle
 10
46.13548127632594
 20
115.4332551878205
 30
0.0
 40
3.500000000000028
  0
CIRCLE
  5
9F0F
330
18
100
AcDbEntity
  8
bowle
 48
0.2
100
AcDbCircle
 10
27.63548127632601
 20
96.93325518782064
 30
0.0
 40
3.500000000000028
  0
CIRCLE
  5
9F10
330
18
100
AcDbEntity
  8
bowle
 48
0.2
100
AcDbCircle
 10
46.13548127632589
 20
78.43325518782069
 30
0.0
 40
3.500000000000028
  0
DIMENSION
  5
A0F3
330
18
100
AcDbEntity
  8
mark
100
AcDbDimension
  2
*D4
 10
28.22117260891909
 20
92.31507968564734
 30
0.0
 11
73.69871710023165
 21
104.0388523284001
 31
0.0
 70
   163
  1
P.C.D 37
 71
     5
 42
36.99999999999999
  3
STANDARD
100
AcDbDiametricDimension
 15
64.0497899437327
 25
101.5514306899938
 35
0.0
 40
0.0
1001
ACAD
1000
DSTYLE
1002
{
1070
   288
1070
     1
1002
}
  0
ARC
  5
A0FF
330
18
100
AcDbEntity
  8
center
 48
0.1
100
AcDbCircle
 10
46.13548127632589
 20
96.93325518782058
 30
0.0
 40
19.24999999999987
100
AcDbArc
 50
124.1197846165819
 51
166.4972518782277
  0
DIMENSION
  5
A103
330
18
100
AcDbEntity
  8
mark
100
AcDbDimension
  2
*D5
 10
64.65685366715726
 20
91.6871838234428
 30
0.0
 11
17.53974812613137
 21
105.0328308378888
 31
0.0
 70
   163
  1
P.C.D 38.5
 71
     5
 42
38.49999999999973
  3
STANDARD
100
AcDbDiametricDimension
 15
27.61410888549454
 25
102.1793265521983
 35
0.0
 40
0.0
1001
ACAD
1000
DSTYLE
1002
{
1070
   288
1070
     1
1002
}
  0
ARC
  5
A114
330
18
100
AcDbEntity
  8
center
 48
0.1
100
AcDbCircle
 10
46.13548127632594
 20
96.9332551878206
 30
0.0
 40
19.24999999999992
100
AcDbArc
 50
304.1197846165821
 51
346.4972518782279
  0
DIMENSION
  5
A11D
330
18
100
AcDbEntity
  8
mark
100
AcDbDimension
  2
*D6
 10
69.13548127632592
 20
65.11794169764789
 30
0.0
 11
46.1354812763259
 21
66.14294169764789
 31
0.0
 70
    32
  1
%%c<>
 71
     5
 42
46.00000000000003
  3
STANDARD
100
AcDbAlignedDimension
 13
23.13548127632589
 23
59.85850870287288
 33
0.0
 14
69.13548127632592
 24
59.85850870287288
 34
0.0
100
AcDbRotatedDimension
  0
MTEXT
  5
A146
330
18
100
AcDbEntity
  8
mark
 62
     3
100
AcDbMText
 10
48.17731317423819
 20
66.35297065209279
 30
0.0
 40
0.625
 41
0.0
 71
     4
 72
     1
  1
+0\P-0.2
 73
     1
 44
1.0
1001
ACAD
1000
ACAD_MTEXT_DEFINED_HEIGHT_BEGIN
1070
    46
1040
0.0
1000
ACAD_MTEXT_DEFINED_HEIGHT_END
  0
DIMENSION
  5
A147
330
18
100
AcDbEntity
  8
mark
100
AcDbDimension
  2
*D7
 10
19.66749720501513
 20
54.35850870287288
 30
0.0
 11
18.64249720501513
 21
57.60850870287289
 31
0.0
 70
    32
 71
     5
 42
6.500000000000014
  3
STANDARD
100
AcDbAlignedDimension
 13
24.13548127632589
 23
60.85850870287289
 33
0.0
 14
22.13548127632589
 24
54.35850870287288
 34
0.0
 50
90.0
100
AcDbRotatedDimension
  0
DIMENSION
  5
A154
330
18
100
AcDbEntity
  8
mark
100
AcDbDimension
  2
*D8
 10
73.9680122840499
 20
47.95850870287289
 30
0.0
 11
72.94301228404989
 21
54.40850870287289
 31
0.0
 70
    32
 71
     5
 42
12.89999999999999
  3
STANDARD
100
AcDbAlignedDimension
 13
68.13548127632592
 23
60.85850870287288
 33
0.0
 14
68.13548127632589
 24
47.95850870287289
 34
0.0
 50
90.0
100
AcDbRotatedDimension
  0
DIMENSION
  5
A161
330
18
100
AcDbEntity
  8
mark
100
AcDbDimension
  2
*D9
 10
73.9680122840499
 20
45.95850870287288
 30
0.0
 11
72.94301228404989
 21
46.9585087028729
 31
0.0
 70
    32
 71
     5
 42
2.000000000000007
  3
STANDARD
100
AcDbAlignedDimension
 13
68.13548127632589
 23
47.95850870287289
 33
0.0
 14
68.13548127632586
 24
45.95850870287288
 34
0.0
 50
90.0
100
AcDbRotatedDimension
  0
DIMENSION
  5
A170
330
18
100
AcDbEntity
  8
mark
100
AcDbDimension
  2
*D10
 10
77.32526438419859
 20
60.85850870287288
 30
0.0
 11
76.30026438419857
 21
50.85850870287289
 31
0.0
 70
    32
  1
<>%%p0.2
 71
     5
 42
20.0
  3
STANDARD
100
AcDbAlignedDimension
 13
68.13548127632589
 23
40.85850870287288
 33
0.0
 14
68.13548127632589
 24
60.85850870287288
 34
0.0
 50
90.0
100
AcDbRotatedDimension
  0
DIMENSION
  5
A17D
330
18
100
AcDbEntity
  8
mark
100
AcDbDimension
  2
*D11
 10
24.13548127632586
 20
41.85850870287286
 30
0.0
 11
20.06372472799334
 21
39.2363210559728
 31
0.0
 70
    36
 71
     5
 42
0.9999999999999644
  3
STANDARD
100
AcDbRadialDimension
 15
23.42837449513934
 25
41.15140192168634
 35
0.0
 40
0.0
1001
ACAD
1000
DSTYLE
1002
{
1070
   288
1070
     1
1002
}
  0
LEADER
  5
A18D
330
18
100
AcDbEntity
  8
mark
100
AcDbLeader
  3
STANDARD
 76
     2
 10
60.07348127632591
 20
41.60850870287288
 30
0.0
 10
55.21191427200045
 20
36.74694169854743
 30
0.0
211
0.7071067811865476
221
0.7071067811865475
231
0.0
1001
ACAD
1000
DSTYLE
1002
{
1070
   147
1040
0.4
1070
    77
1070
     0
1002
}
  0
MTEXT
  5
A19F
330
18
100
AcDbEntity
  8
mark
 62
     3
100
AcDbMText
 10
55.62545468513289
 20
38.73780492669308
 30
0.0
 40
1.25
 41
0.0
 71
     5
 72
     1
  1
C1.5
 11
0.7071067811865495
 21
0.7071067811865456
 31
0.0
 73
     1
 44
1.0
1001
ACAD
1000
ACAD_MTEXT_DEFINED_HEIGHT_BEGIN
1070
    46
1040
0.0
1000
ACAD_MTEXT_DEFINED_HEIGHT_END
  0
DIMENSION
  5
A1A3
330
18
100
AcDbEntity
  8
mark
100
AcDbDimension
  2
*D12
 10
60.13548127632589
 20
34.55657966501963
 30
0.0
 11
46.13548127632589
 21
35.58157966501962
 31
0.0
 70
    32
  1
M28X1.5P
 71
     5
 42
28.0
  3
STANDARD
100
AcDbAlignedDimension
 13
32.13548127632589
 23
41.54650870287289
 33
0.0
 14
60.13548127632589
 24
41.54650870287289
 34
0.0
100
AcDbRotatedDimension
  0
HATCH
  5
A27F
330
18
100
AcDbEntity
  8
section
100
AcDbHatch
 10
0.0
 20
0.0
 30
0.0
210
0.0
220
0.0
230
1.0
  2
ANSI31
 70
     0
 71
     0
 91
       11
 92
        7
 72
     1
 73
     1
 93
       34
 10
32.13548127632589
 20
60.17050870287295
 42
0.0
 10
31.44748127632595
 20
60.85850870287289
 42
0.0
 10
24.13548127632589
 20
60.85850870287289
 42
0.4142135623730951
 10
23.13548127632589
 20
59.8585087028729
 42
0.0
 10
23.13548127632589
 20
57.85850870287289
 42
0.0
 10
24.1354812763259
 20
56.85850870287288
 42
0.0
 10
27.69210560335185
 20
56.85850870287285
 42
0.0
 10
29.13548127632589
 20
54.35850870287288
 42
0.0
 10
27.69210560335189
 20
51.85850870287287
 42
0.0
 10
24.13548127632589
 20
51.85850870287286
 42
0.0
 10
23.13548127632589
 20
50.85850870287288
 42
0.0
 10
23.13548127632589
 20
48.95850870287288
 42
0.4142135623730951
 10
24.13548127632589
 20
47.95850870287288
 42
0.0
 10
30.38548127632592
 20
47.95850870287288
 42
0.0
 10
30.38548127632592
 20
45.95850870287288
 42
0.0
 10
24.13548127632589
 20
45.95850870287288
 42
0.4142135623730951
 10
23.13548127632589
 20
44.95850870287289
 42
0.0
 10
23.13548127632589
 20
41.85850870287288
 42
0.4142135623730951
 10
24.13548127632589
 20
40.85850870287288
 42
0.0
 10
24.23548127632588
 20
40.85850870287288
 42
0.0
 10
24.73548127632589
 20
41.35850870287288
 42
0.0
 10
24.73548127632588
 20
43.61720562411518
 42
0.0
 10
26.8854812763259
 20
44.85850870287288
 42
0.0
 10
29.03548127632589
 20
43.61720562411515
 42
0.0
 10
29.03548127632589
 20
41.35850870287285
 42
0.0
 10
29.53548127632586
 20
40.85850870287288
 42
0.0
 10
31.44748127632587
 20
40.85850870287287
 42
0.0
 10
32.13548127632588
 20
41.54650870287289
 42
0.0
 10
32.13548127632589
 20
48.07050870287286
 42
0.0
 10
31.44748127632588
 20
48.75850870287288
 42
0.0
 10
24.88548127632592
 20
48.75850870287287
 42
0.0
 10
24.88548127632592
 20
50.75850870287284
 42
0.0
 10
31.44748127632585
 20
50.75850870287286
 42
0.0
 10
32.13548127632589
 20
51.44650870287289
 42
0.0
 97
        0
 92
        7
 72
     0
 73
     1
 93
        4
 10
32.94748127632593
 20
59.3585087028729
 10
32.13548127632589
 20
60.17050870287296
 10
32.13548127632589
 20
51.44650870287289
 10
32.9474812763259
 20
52.2585087028729
 97
        0
 92
        7
 72
     0
 73
     1
 93
        4
 10
32.9474812763259
 20
47.25850870287285
 10
32.13548127632589
 20
48.07050870287287
 10
32.13548127632589
 20
41.5465087028729
 10
32.94748127632587
 20
42.35850870287288
 97
        0
 92
        7
 72
     0
 73
     1
 93
        4
 10
60.13548127632589
 20
60.17050870287294
 10
59.32348127632586
 20
59.35850870287292
 10
59.32348127632588
 20
52.25850870287288
 10
60.13548127632589
 20
51.44650870287288
 97
        0
 92
        7
 72
     0
 73
     1
 93
        7
 10
62.63548127632589
 20
60.85850870287288
 10
60.82348127632583
 20
60.85850870287288
 10
60.13548127632589
 20
60.17050870287294
 10
60.13548127632589
 20
51.44650870287289
 10
60.8234812763259
 20
50.75850870287288
 10
62.63548127632589
 20
50.75850870287289
 10
62.63548127632589
 20
56.05850870287287
 97
        0
 92
        7
 72
     1
 73
     1
 93
       11
 10
69.13548127632592
 20
59.85850870287288
 42
0.4142135623730951
 10
68.13548127632592
 20
60.85850870287288
 42
0.0
 10
66.63548127632589
 20
60.85850870287288
 42
0.0
 10
66.63548127632589
 20
56.05850870287287
 42
0.0
 10
66.63548127632589
 20
50.75850870287286
 42
0.0
 10
67.38548127632589
 20
50.75850870287288
 42
0.0
 10
67.38548127632589
 20
48.75850870287287
 42
0.0
 10
66.63548127632589
 20
48.75850870287287
 42
0.0
 10
66.63548127632589
 20
47.95850870287286
 42
0.0
 10
68.13548127632589
 20
47.95850870287289
 42
0.4142135623730962
 10
69.13548127632589
 20
48.95850870287289
 42
0.0
 97
        0
 92
        7
 72
     0
 73
     1
 93
        4
 10
60.13548127632589
 20
48.07050870287286
 10
59.32348127632588
 20
47.25850870287284
 10
59.3234812763259
 20
42.35850870287289
 10
60.13548127632589
 20
41.5465087028729
 97
        0
 92
        7
 72
     0
 73
     1
 93
       13
 10
62.63548127632587
 20
45.95850870287288
 10
61.88548127632588
 20
45.95850870287288
 10
61.88548127632589
 20
47.95850870287287
 10
62.63548127632589
 20
47.95850870287285
 10
62.63548127632589
 20
48.75850870287287
 10
60.82348127632591
 20
48.75850870287288
 10
60.13548127632589
 20
48.07050870287286
 10
60.13548127632589
 20
41.5465087028729
 10
60.8234812763259
 20
40.85850870287288
 10
61.13548127632588
 20
40.85850870287287
 10
61.13548127632589
 20
41.15850870287284
 10
61.13548127632589
 20
44.85850870287288
 10
62.63548127632589
 20
44.85850870287288
 97
        0
 92
        7
 72
     1
 73
     1
 93
        8
 10
69.13548127632586
 20
44.95850870287288
 42
0.4142135623730951
 10
68.13548127632586
 20
45.95850870287288
 42
0.0
 10
66.63548127632589
 20
45.95850870287288
 42
0.0
 10
66.63548127632589
 20
44.85850870287288
 42
0.0
 10
68.13548127632589
 20
44.85850870287288
 42
0.0
 10
68.13548127632589
 20
41.15850870287295
 42
0.0
 10
68.13548127632589
 20
40.85850870287289
 42
0.414213562373097
 10
69.13548127632589
 20
41.85850870287289
 42
0.0
 97
        0
 92
        7
 72
     0
 73
     1
 93
        4
 10
63.01448127632593
 20
60.85850870287288
 10
62.63548127632589
 20
60.85850870287289
 10
62.63548127632589
 20
56.0585087028728
 10
63.01448127632591
 20
56.43750870287283
 97
        0
 92
        7
 72
     0
 73
     1
 93
        4
 10
66.63548127632589
 20
60.85850870287288
 10
66.25648127632594
 20
60.85850870287288
 10
66.25648127632593
 20
56.43750870287275
 10
66.63548127632589
 20
56.0585087028728
 97
        0
 75
     0
 76
     1
 52
0.0
 41
0.5
 77
     0
 78
     1
 53
45.0
 43
0.0
 44
0.0
 45
-1.122532015133643
 46
1.122532015133644
 79
     0
 47
0.032468596375298
 98
       11
 10
29.21423725215084
 20
56.72633731198982
 10
32.5829087043868
 20
56.63279821769958
 10
32.48933444453633
 20
44.94040122256547
 10
59.46318525215156
 20
56.63297738300889
 10
61.0539464013558
 20
56.91359517632213
 10
67.41699226642584
 20
56.8200560820319
 10
59.46318525215156
 20
45.50181597450136
 10
60.49250147637974
 20
45.59535506879171
 10
68.63345701035496
 20
44.28580672784278
 10
62.792942890517
 20
57.09076873908566
 10
66.43078777426092
 20
57.05830000358787
1001
ACAD
1010
0.0
1020
0.0
1030
0.0
  0
LEADER
  5
A281
330
18
100
AcDbEntity
  8
mark
100
AcDbLeader
  3
STANDARD
 76
     2
 10
66.054065563368
 20
85.4332551878206
 30
0.0
 10
75.95215395225657
 20
79.71859119203307
 30
0.0
211
0.8660254037844383
221
-0.5000000000000005
231
0.0
1001
ACAD
1000
DSTYLE
1002
{
1070
   147
1040
0.4
1070
    77
1070
     0
1002
}
  0
LEADER
  5
A283
330
18
100
AcDbEntity
  8
mark
100
AcDbLeader
  3
STANDARD
 76
     2
 10
64.63548127632589
 20
40.85850870287288
 30
0.0
 10
75.95215395225657
 20
34.94472982267837
 30
0.0
1001
ACAD
1000
DSTYLE
1002
{
1070
   147
1040
0.4
1070
    77
1070
     0
1002
}
  0
TEXT
  5
A284
330
18
100
AcDbEntity
  8
dim
100
AcDbText
 10
77.3521642322836
 20
33.50446301633706
 30
0.0
 40
2.5
  1
2
  7
TXT
100
AcDbText
  0
MTEXT
  5
A32A
330
18
100
AcDbEntity
  8
0
100
AcDbMText
 10
23.82548616095238
 20
9.53802950808307
 30
0.0
 40
2.25
 41
0.0
 71
     1
 72
     5
  1
{\Ftxt,bigfont|c128;小\~柳}
  7
JL
 73
     1
 44
1.0
1001
ACAD
1000
ACAD_MTEXT_DEFINED_HEIGHT_BEGIN
1070
    46
1040
0.0
1000
ACAD_MTEXT_DEFINED_HEIGHT_END
  0
MTEXT
  5
A349
330
18
100
AcDbEntity
  8
dim
100
AcDbMText
 10
4.664625619373282
 20
20.41405964897132
 30
0.0
 40
2.25
 41
0.0
 71
     1
 72
     5
  1
{\Ftxt,bigfont|c128;07.10.03\~寸法一部変更  林}
  7
JL
 73
     1
 44
1.0
1001
ACAD
1000
ACAD_MTEXT_DEFINED_HEIGHT_BEGIN
1070
    46
1040
0.0
1000
ACAD_MTEXT_DEFINED_HEIGHT_END
  0
CIRCLE
  5
A34A
330
18
100
AcDbEntity
  8
dim
100
AcDbCircle
 10
21.97099913340571
 20
19.3064508605633
 30
0.0
 40
1.415637055873787
  0
LWPOLYLINE
  5
A34F
330
18
100
AcDbEntity
  8
mark
100
AcDbPolyline
 90
        3
 70
     1
 43
0.0
 10
69.56324576155918
 20
51.08822991771933
 10
71.81324576155919
 20
49.78919181204267
 10
71.81324576155919
 20
52.38726802339598
  0
TEXT
  5
A350
330
18
100
AcDbEntity
  8
dim
100
AcDbText
 10
71.53363829358744
 20
50.89784811556376
 30
0.0
 40
1.25
  1
1
 50
90.0
  7
TXT
100
AcDbText
  0
MTEXT
  5
A36C
330
18
100
AcDbEntity
  8
mark
 62
     3
100
AcDbMText
 10
71.17457940954671
 20
55.03218320244997
 30
0.0
 40
1.25
 41
0.0
 71
     5
 72
     1
  1
12.25
 11
0.0000000000000001
 21
1.0
 31
0.0
 73
     1
 44
1.0
1001
ACAD
1000
ACAD_MTEXT_DEFINED_HEIGHT_BEGIN
1070
    46
1040
0.0
1000
ACAD_MTEXT_DEFINED_HEIGHT_END
  0
LINE
  5
A36D
330
18
100
AcDbEntity
  8
mark
 62
     1
100
AcDbLine
 10
72.78577328962615
 20
52.56203240084073
 30
0.0
 11
72.78577328962615
 21
56.44901019403454
 31
0.0
  0
LINE
  5
A36E
330
18
100
AcDbEntity
  8
mark
 62
     1
100
AcDbLine
 10
73.17285753865895
 20
52.56203240084073
 30
0.0
 11
73.17285753865895
 21
56.44901019403454
 31
0.0
  0
LWPOLYLINE
  5
A3AC
330
18
100
AcDbEntity
  8
mark
100
AcDbPolyline
 90
        3
 70
     1
 43
0.0
 10
3.759037045618245
 20
21.64568060649604
 10
2.315661372644188
 20
24.14568060649604
 10
0.872285699670118
 20
21.64568060649604
  0
MTEXT
  5
A3AD
330
18
100
AcDbEntity
  8
dim
100
AcDbMText
 10
1.890225511962614
 20
23.16620277574473
 30
0.0
 40
1.25
 41
4.581557073439626
 71
     1
 72
     5
  1
2
 73
     1
 44
1.0
1001
ACAD
1000
ACAD_MTEXT_DEFINED_HEIGHT_BEGIN
1070
    46
1040
0.0
1000
ACAD_MTEXT_DEFINED_HEIGHT_END
  0
MTEXT
  5
A3AE
330
18
100
AcDbEntity
  8
dim
100
AcDbMText
 10
4.640636301354078
 20
23.87595959772119
 30
0.0
 40
2.25
 41
0.0
 71
     1
 72
     5
  1
{\Ftxt,bigfont|c128;08.08.08 振れ精度の変更  林}
  7
JL
 73
     1
 44
1.0
1001
ACAD
1000
ACAD_MTEXT_DEFINED_HEIGHT_BEGIN
1070
    46
1040
0.0
1000
ACAD_MTEXT_DEFINED_HEIGHT_END
  0
CIRCLE
  5
A3AF
330
18
100
AcDbEntity
  8
dim
100
AcDbCircle
 10
23.52778794836695
 20
22.7210502877378
 30
0.0
 40
1.381204854054431
  0
LWPOLYLINE
  5
A3B0
330
18
100
AcDbEntity
  8
mark
100
AcDbPolyline
 90
        3
 70
     1
 43
0.0
 10
3.783026363637449
 20
18.18378065774616
 10
2.339650690663392
 20
20.68378065774616
 10
0.8962750176893221
 20
18.18378065774616
  0
MTEXT
  5
A3B1
330
18
100
AcDbEntity
  8
dim
100
AcDbMText
 10
2.165676221137363
 20
19.85788454508734
 30
0.0
 40
1.25
 41
4.581557073439626
 71
     1
 72
     5
  1
1
 73
     1
 44
1.0
1001
ACAD
1000
ACAD_MTEXT_DEFINED_HEIGHT_BEGIN
1070
    46
1040
0.0
1000
ACAD_MTEXT_DEFINED_HEIGHT_END
  0
LWPOLYLINE
  5
A3B2
330
18
100
AcDbEntity
  8
mark
100
AcDbPolyline
 90
        3
 70
     1
 43
0.0
 10
85.39452270829473
 20
67.7401264776737
 10
83.95114703532067
 20
70.2401264776737
 10
82.5077713623466
 20
67.7401264776737
  0
MTEXT
  5
A3B3
330
18
100
AcDbEntity
  8
dim
100
AcDbMText
 10
83.52571117463909
 20
69.26064864692239
 30
0.0
 40
1.25
 41
4.581557073439626
 71
     1
 72
     5
  1
2
 73
     1
 44
1.0
1001
ACAD
1000
ACAD_MTEXT_DEFINED_HEIGHT_BEGIN
1070
    46
1040
0.0
1000
ACAD_MTEXT_DEFINED_HEIGHT_END
  0
MTEXT
  5
A3B4
330
18
100
AcDbEntity
  8
dim
100
AcDbMText
 10
86.09408692390806
 20
69.26064864692239
 30
0.0
 40
1.25
 41
4.581557073439626
 71
     1
 72
     5
  1
0.007
 73
     1
 44
1.0
1001
ACAD
1000
ACAD_MTEXT_DEFINED_HEIGHT_BEGIN
1070
    46
1040
0.0
1000
ACAD_MTEXT_DEFINED_HEIGHT_END
  0
LINE
  5
A3B7
330
18
100
AcDbEntity
  8
mark
 62
     1
100
AcDbLine
 10
85.61651684281741
 20
66.05598084944602
 30
0.0
 11
90.75684782243797
 21
66.05598084944602
 31
0.0
  0
LINE
  5
A3B8
330
18
100
AcDbEntity
  8
mark
 62
     1
100
AcDbLine
 10
85.61651684281741
 20
65.68103696596626
 30
0.0
 11
90.75684782243797
 21
65.68103696596626
 31
0.0
  0
LWPOLYLINE
  5
A3BB
330
18
100
AcDbEntity
  8
mark
100
AcDbPolyline
 90
        3
 70
     1
 43
0.0
 10
91.20807394789629
 20
1.543258640736439
 10
89.76469827492223
 20
4.043258640736439
 10
88.32132260194816
 20
1.543258640736439
  0
MTEXT
  5
A3BC
330
18
100
AcDbEntity
  8
dim
100
AcDbMText
 10
89.33926241424066
 20
3.063780809985132
 30
0.0
 40
1.25
 41
4.581557073439626
 71
     1
 72
     5
  1
2
 73
     1
 44
1.0
1001
ACAD
1000
ACAD_MTEXT_DEFINED_HEIGHT_BEGIN
1070
    46
1040
0.0
1000
ACAD_MTEXT_DEFINED_HEIGHT_END
  0
ENDSEC
  0
SECTION
  2
OBJECTS
  0
DICTIONARY
  5
C
330
0
100
AcDbDictionary
281
     1
  3
ACAD_COLOR
350
7873
  3
ACAD_GROUP
350
D
  3
ACAD_LAYOUT
350
5CF3
  3
ACAD_MATERIAL
350
7872
  3
ACAD_MLINESTYLE
350
1B
  3
ACAD_PLOTSETTINGS
350
5CF4
  3
ACAD_PLOTSTYLENAME
350
5CF1
  3
ACAD_TABLESTYLE
350
7874
  3
AcadDim
350
9A73
  3
ACDBVARIABLEDICTIONARY
350
45D
  0
DICTIONARY
  5
7BFE
330
2
100
AcDbDictionary
280
     1
281
     1
  3
ACAD_LAYERFILTERS
360
7C00
  3
ACLYDICTIONARY
360
7BFF
  0
DICTIONARY
  5
45F
330
18
100
AcDbDictionary
280
     1
281
     1
  3
ACAD_LAYOUTSELFREF
360
5D8B
  3
ACAD_SORTENTS
360
460
  0
DICTIONARY
  5
5D89
330
15
100
AcDbDictionary
280
     1
281
     1
  3
ACAD_LAYOUTSELFREF
360
5D8A
  0
DICTIONARY
  5
7C0B
330
7C0A
100
AcDbDictionary
280
     1
281
     1
  3
AcDbBlockTableRecordData
360
7C0C
  0
DICTIONARY
  5
8E73
330
8E72
100
AcDbDictionary
280
     1
281
     1
  3
AcDbBlockTableRecordData
360
8E74
  0
DICTIONARY
  5
7873
102
{ACAD_REACTORS
330
C
102
}
330
C
100
AcDbDictionary
281
     1
  0
DICTIONARY
  5
D
102
{ACAD_REACTORS
330
C
102
}
330
C
100
AcDbDictionary
281
     1
  0
DICTIONARY
  5
5CF3
102
{ACAD_REACTORS
330
C
102
}
330
C
100
AcDbDictionary
281
     1
  3
Model
350
5CF5
  3
配置1
350
5CF6
  0
DICTIONARY
  5
7872
102
{ACAD_REACTORS
330
C
102
}
330
C
100
AcDbDictionary
281
     1
  0
DICTIONARY
  5
1B
102
{ACAD_REACTORS
330
C
102
}
330
C
100
AcDbDictionary
281
     1
  3
STANDARD
350
1C
  0
DICTIONARY
  5
5CF4
102
{ACAD_REACTORS
330
C
102
}
330
C
100
AcDbDictionary
281
     1
  0
ACDBDICTIONARYWDFLT
  5
5CF1
102
{ACAD_REACTORS
330
C
102
}
330
C
100
AcDbDictionary
281
     1
  3
Normal
350
5CF2
100
AcDbDictionaryWithDefault
340
5CF2
  0
DICTIONARY
  5
7874
102
{ACAD_REACTORS
330
C
102
}
330
C
100
AcDbDictionary
281
     1
  3
Standard
350
7875
  0
XRECORD
  5
9A73
102
{ACAD_REACTORS
330
C
102
}
330
C
100
AcDbXrecord
280
     1
 90
   990106
  3

 60
     0
 61
     0
 62
     1
 63
     3
 64
     0
 65
     0
 66
     0
 67
     3
 68
     1
 69
     0
 70
     0
 71
     0
 72
     0
 40
0.0
170
     0
  0
DICTIONARY
  5
45D
102
{ACAD_REACTORS
330
C
102
}
330
C
100
AcDbDictionary
281
     1
  3
CTABLESTYLE
350
7880
  3
SORTENTS
350
45E
  0
DICTIONARY
  5
7C00
102
{ACAD_REACTORS
330
7BFE
102
}
330
7BFE
100
AcDbDictionary
281
     1
  0
DICTIONARY
  5
7BFF
102
{ACAD_REACTORS
330
7BFE
102
}
330
7BFE
100
AcDbDictionary
281
     1
1001
ACAD
1000
<All
  0
XRECORD
  5
5D8B
102
{ACAD_REACTORS
330
45F
102
}
330
45F
100
AcDbXrecord
280
     1
340
18
  0
SORTENTSTABLE
  5
460
102
{ACAD_REACTORS
330
45F
102
}
330
45F
100
AcDbSortentsTable
330
18
331
7D9C
  5
7D9C
331
9CA0
  5
9D93
331
7DA4
  5
7DA4
331
C0
  5
CB
331
7D6D
  5
7D6D
331
9EE6
  5
9EEC
331
7DAC
  5
7DAC
331
7D75
  5
7D75
331
9B01
  5
9D83
331
9EEE
  5
9EF4
331
A154
  5
A161
331
7DB4
  5
7DB4
331
9EF6
  5
9EFC
331
9D90
  5
9D9A
331
7DBC
  5
7DBC
331
7D7D
  5
7D7D
331
A349
  5
A349
331
9EFE
  5
9F04
331
A1A3
  5
A1FE
331
9D98
  5
9D9F
331
7D85
  5
7D85
331
9F06
  5
9F0E
331
9EC7
  5
9ECD
331
9DA0
  5
9E1D
331
9B19
  5
9ADF
331
982B
  5
982C
331
7D8D
  5
7D8D
331
9F0E
  5
A103
331
A11D
  5
A146
331
9ACA
  5
9ACE
331
7D95
  5
7D95
331
9BF1
  5
9D92
331
9ED7
  5
9EE3
331
A283
  5
A283
331
9E98
  5
9E99
331
7D9D
  5
7D9D
331
9933
  5
995E
331
7D6E
  5
7D6E
331
7DA5
  5
7DA5
331
9EE7
  5
9EED
331
9B02
  5
9D85
331
7DAD
  5
7DAD
331
7D76
  5
7D76
331
9EEF
  5
9EF5
331
A32A
  5
A32A
331
7DB5
  5
7DB5
331
9EF7
  5
9EFD
331
9EB8
  5
9EC3
331
7DBD
  5
7DBD
331
7D7E
  5
7D7E
331
9D91
  5
9D9C
331
A34A
  5
A34A
331
9EFF
  5
9F05
331
7D86
  5
7D86
331
9D99
  5
9DA0
331
9F07
  5
9F0F
331
9EC8
  5
9ED1
331
9DA1
  5
9E95
331
982C
  5
982E
331
7D8E
  5
7D8E
331
9B1A
  5
9AC8
331
9F0F
  5
A110
331
7D96
  5
7D96
331
9ACB
  5
9AD7
331
A17D
  5
A18D
331
A284
  5
A284
331
9ED8
  5
9EE6
331
9E99
  5
9E9A
331
7D9E
  5
7D9E
331
9AD3
  5
9B7D
331
A146
  5
A147
331
7DA6
  5
7DA6
331
7D6F
  5
7D6F
331
A0FF
  5
A113
331
9EE8
  5
9EEE
331
A18D
  5
A19F
331
9D82
  5
9D96
331
7D77
  5
7D77
331
7DAE
  5
7DAE
331
9B03
  5
9D87
331
9EF0
  5
9EF6
331
7DB6
  5
7DB6
331
9D8A
  5
9D98
331
9EF8
  5
9EFE
331
9D92
  5
9D81
331
9A34
  5
9A75
331
7D7F
  5
7D7F
331
9B0B
  5
9AEA
331
9F00
  5
9F06
331
9D9A
  5
9DA1
331
7D87
  5
7D87
331
9B13
  5
9BF0
331
9F08
  5
9F10
331
9EC9
  5
9ED2
331
9DA2
  5
9E96
331
7D8F
  5
7D8F
331
9B1B
  5
9D8D
331
9F10
  5
A111
331
9ED1
  5
9ED5
331
7D97
  5
7D97
331
9ACC
  5
9ADA
331
9ED9
  5
9EE7
331
9E9A
  5
9E9B
331
7D9F
  5
7D9F
331
9AD4
  5
9AE2
331
A147
  5
A154
331
9CAB
  5
9D94
331
7D70
  5
7D70
331
9AEC
  5
9D82
331
9EE9
  5
9EEF
331
9EB2
  5
9EBD
331
9D83
  5
9D97
331
9975
  5
9977
331
7DAF
  5
7DAF
331
9B04
  5
9D88
331
9EF1
  5
9EF7
331
7DB7
  5
7DB7
331
9D8B
  5
9B08
331
7D78
  5
7D78
331
9EF9
  5
9EFF
331
9D93
  5
9D9B
331
7D80
  5
7D80
331
9B0C
  5
9AE8
331
9F01
  5
9F07
331
9D9B
  5
9DA2
331
7D88
  5
7D88
331
9B14
  5
9ACB
331
7D90
  5
7D90
331
9AC5
  5
9AC6
331
9B1C
  5
9D91
331
9ED2
  5
9ED6
331
A36C
  5
A36C
331
7D98
  5
7D98
331
9E9B
  5
9EB4
331
7DA0
  5
7DA0
331
9AD5
  5
9ACF
331
9EE2
  5
9EE8
331
7D71
  5
7D71
331
7DA8
  5
7DA8
331
9CAC
  5
9D95
331
9EEA
  5
9EF0
331
9EB3
  5
9EBE
331
7DB0
  5
7DB0
331
9B05
  5
9D8A
331
9EF2
  5
9EF8
331
A19F
  5
A1A3
331
9D8C
  5
9B07
331
7DB8
  5
7DB8
331
7D79
  5
7D79
331
9EFA
  5
9F00
331
9D94
  5
9ADB
331
7D81
  5
7D81
331
9B0D
  5
9B7C
331
9F02
  5
9F08
331
9EC3
  5
9EC7
331
9D9C
  5
9DA3
331
7D89
  5
7D89
331
9B15
  5
9B0B
331
9F0A
  5
A101
331
A170
  5
A17D
331
7D91
  5
7D91
331
9AC6
  5
9ADE
331
A27F
  5
9AC5
331
9E94
  5
9D7F
331
9ACE
  5
9BF1
331
7D99
  5
7D99
331
9AD6
  5
9ACC
331
9EE3
  5
9EE9
331
7D72
  5
7D72
331
7DA9
  5
7DA9
331
9EEB
  5
9EF1
331
9EB4
  5
9EBF
331
9977
  5
9978
331
7DB1
  5
7DB1
331
9B06
  5
9D84
331
9EF3
  5
9EF9
331
9D8D
  5
9D99
331
7D7A
  5
7D7A
331
9EFB
  5
9F01
331
A161
  5
A170
331
9D95
  5
9D9D
331
7D82
  5
7D82
331
9B0E
  5
9D8C
331
9D9D
  5
9DA4
331
7D8A
  5
7D8A
331
9828
  5
9829
331
9B16
  5
9AE6
331
98A8
  5
98B2
331
7D92
  5
7D92
331
9AC7
  5
9AE4
331
9ED4
  5
9ED7
331
9E95
  5
9E97
331
9ACF
  5
9BF7
331
7D9A
  5
7D9A
331
A0F3
  5
A112
331
7DA2
  5
7DA2
331
9AD7
  5
9D7E
331
9EE4
  5
9EEA
331
7DAA
  5
7DAA
331
7D73
  5
7D73
331
A103
  5
A114
331
9EEC
  5
9EF2
331
9978
  5
9979
331
7DB2
  5
7DB2
331
9B07
  5
9AC9
331
9EF4
  5
9EFA
331
9D8E
  5
9D80
331
7DBA
  5
7DBA
331
7D7B
  5
7D7B
331
9EFC
  5
9F02
331
9EBD
  5
9EC5
331
7D83
  5
7D83
331
9D96
  5
9AC7
331
A34F
  5
A34F
331
9EC5
  5
9EC8
331
9D9E
  5
9DA5
331
9829
  5
982A
331
7D8B
  5
7D8B
331
9B17
  5
9AE3
331
9ECD
  5
9ED4
331
7D93
  5
7D93
331
9AC8
  5
9B04
331
9ED5
  5
9ED9
331
A281
  5
A281
331
9E96
  5
9E98
331
98F9
  5
9906
331
7D9B
  5
7D9B
331
9931
  5
9933
331
7D6C
  5
7D6C
331
7DA3
  5
7DA3
331
9EE5
  5
9EEB
331
7D74
  5
7D74
331
9EAE
  5
9EB6
331
9EED
  5
9EF3
331
9979
  5
9983
331
9EF5
  5
9EFB
331
7D7C
  5
7D7C
331
7DBB
  5
7DBB
331
9B08
  5
9D8B
331
9EFD
  5
9F03
331
9EBE
  5
9EC6
331
7D84
  5
7D84
331
9D97
  5
9D9E
331
9F05
  5
9F0A
331
9EC6
  5
9EC9
331
A114
  5
A11D
331
A350
  5
A350
331
9D9F
  5
9E1C
331
982A
  5
982B
331
7D8C
  5
7D8C
331
9B18
  5
9AD4
331
7D94
  5
7D94
331
9AC9
  5
9ACA
331
9ED6
  5
9EE2
  0
XRECORD
  5
5D8A
102
{ACAD_REACTORS
330
5D89
102
}
330
5D89
100
AcDbXrecord
280
     1
340
15
  0
DICTIONARY
  5
7C0C
102
{ACAD_REACTORS
330
7C0B
102
}
330
7C0B
100
AcDbDictionary
280
     1
281
     1
  3
Edit
360
7C0D
  0
DICTIONARY
  5
8E74
102
{ACAD_REACTORS
330
8E73
102
}
330
8E73
100
AcDbDictionary
280
     1
281
     1
  3
Edit
360
8E75
  0
LAYOUT
  5
5CF5
102
{ACAD_REACTORS
330
5CF3
102
}
330
5CF3
100
AcDbPlotSettings
  1

  2
hp LaserJet 1300 PCL 6
  4
A4
  6

 40
5.027083396911621
 41
5.069413185119628
 42
5.027084350585937
 43
5.027069091796875
 44
209.9733276367187
 45
296.9683227539062
 46
4.959579944610595
 47
3.435920238494873
 48
0.0
 49
0.0
140
95.0
141
140.0
142
1.0
143
0.5
 70
 11956
 72
     1
 73
     0
 74
     4
  7
LIN.ctb
 75
    27
147
2.0
 76
     0
 77
     2
 78
   300
148
0.0
149
0.0
100
AcDbLayout
  1
Model
 70
     1
 71
     0
 10
0.0
 20
0.0
 11
12.0
 21
9.0
 12
0.0
 22
0.0
 32
0.0
 14
0.0
 24
0.0
 34
0.0
 15
0.0
 25
0.0
 35
0.0
146
0.0
 13
0.0
 23
0.0
 33
0.0
 16
1.0
 26
0.0
 36
0.0
 17
0.0
 27
1.0
 37
0.0
 76
     0
330
18
1001
ACAD_PSEXT
1000
hp LaserJet 1300 PCL 6
1000
hp LaserJet 1300 PCL 6
1000
HP 1300
1000

1070
     0
  0
LAYOUT
  5
5CF6
102
{ACAD_REACTORS
330
5CF3
102
}
330
5CF3
100
AcDbPlotSettings
  1

  2
EPSON STYLUS COLOR 440
  4

  6

 40
0.0
 41
0.0
 42
0.0
 43
0.0
 44
0.0
 45
0.0
 46
0.0
 47
0.0
 48
0.0
 49
0.0
140
0.0
141
0.0
142
1.0
143
1.0
 70
   688
 72
     0
 73
     0
 74
     5
  7
LIN.ctb
 75
    16
147
1.0
 76
     0
 77
     2
 78
   300
148
0.0
149
0.0
100
AcDbLayout
  1
ｰtｸm1
 70
     1
 71
     1
 10
0.0
 20
0.0
 11
420.0
 21
297.0
 12
0.0
 22
0.0
 32
0.0
 14
1.000000000000000E+20
 24
1.000000000000000E+20
 34
1.000000000000000E+20
 15
-1.000000000000000E+20
 25
-1.000000000000000E+20
 35
-1.000000000000000E+20
146
0.0
 13
0.0
 23
0.0
 33
0.0
 16
1.0
 26
0.0
 36
0.0
 17
0.0
 27
1.0
 37
0.0
 76
     0
330
15
  0
MLINESTYLE
  5
1C
102
{ACAD_REACTORS
330
1B
102
}
330
1B
100
AcDbMlineStyle
  2
STANDARD
 70
     0
  3

 62
   256
 51
90.0
 52
90.0
 71
     2
 49
0.5
 62
   256
  6
BYLAYER
 49
-0.5
 62
   256
  6
BYLAYER
  0
ACDBPLACEHOLDER
  5
5CF2
102
{ACAD_REACTORS
330
5CF1
102
}
330
5CF1
  0
TABLESTYLE
  5
7875
102
{ACAD_REACTORS
330
7874
102
}
330
7874
100
AcDbTableStyle
  3
Standard
 70
     0
 71
     8
 40
1.5
 41
1.5
280
     0
281
     0
  7
STANDARD
140
4.5
170
     2
 62
     0
 63
     7
283
     0
274
    -2
284
     1
 64
     0
275
    -2
285
     1
 65
     0
276
    -2
286
     1
 66
     0
277
    -2
287
     1
 67
     0
278
    -2
288
     1
 68
     0
279
    -2
289
     1
 69
     0
  7
STANDARD
140
6.0
170
     5
 62
     0
 63
     7
283
     0
274
    -2
284
     1
 64
     0
275
    -2
285
     1
 65
     0
276
    -2
286
     1
 66
     0
277
    -2
287
     1
 67
     0
278
    -2
288
     1
 68
     0
279
    -2
289
     1
 69
     0
  7
STANDARD
140
4.5
170
     5
 62
     0
 63
     7
283
     0
274
    -2
284
     1
 64
     0
275
    -2
285
     1
 65
     0
276
    -2
286
     1
 66
     0
277
    -2
287
     1
 67
     0
278
    -2
288
     1
 68
     0
279
    -2
289
     1
 69
     0
  0
DICTIONARYVAR
  5
7880
102
{ACAD_REACTORS
330
45D
102
}
330
45D
100
DictionaryVariables
280
     0
  1
STANDARD
  0
DICTIONARYVAR
  5
45E
102
{ACAD_REACTORS
330
45D
102
}
330
45D
100
DictionaryVariables
280
     0
  1
127
  0
XRECORD
  5
7C0D
102
{ACAD_REACTORS
330
7C0C
102
}
330
7C0C
100
AcDbXrecord
280
     1
1070
     0
1070
     1
1070
     1
  0
XRECORD
  5
8E75
102
{ACAD_REACTORS
330
8E74
102
}
330
8E74
100
AcDbXrecord
280
     1
1070
     0
1070
     1
1070
     1
  0
ENDSEC
  0
EOF
