  0
SECTION
  2
HEADER
  9
$ACADVER
  1
AC1018
  9
$ACADMAINTVER
 70
    76
  9
$DWGCODEPAGE
  3
ANSI_932
  9
$INSBASE
 10
0.0
 20
0.0
 30
0.0
  9
$EXTMIN
 10
0.0
 20
0.0
 30
0.0
  9
$EXTMAX
 10
95.0
 20
140.0
 30
1.919191919191921
  9
$LIMMIN
 10
0.0
 20
0.0
  9
$LIMMAX
 10
420.0
 20
297.0
  9
$ORTHOMODE
 70
     0
  9
$REGENMODE
 70
     1
  9
$FILLMODE
 70
     1
  9
$QTEXTMODE
 70
     0
  9
$MIRRTEXT
 70
     1
  9
$LTSCALE
 40
1.0
  9
$ATTMODE
 70
     1
  9
$TEXTSIZE
 40
1.25
  9
$TRACEWID
 40
1.0
  9
$TEXTSTYLE
  7
TXT
  9
$CLAYER
  8
mark
  9
$CELTYPE
  6
BYLAYER
  9
$CECOLOR
 62
   256
  9
$CELTSCALE
 40
1.0
  9
$DISPSILH
 70
     0
  9
$DIMSCALE
 40
1.0
  9
$DIMASZ
 40
1.25
  9
$DIMEXO
 40
0.4
  9
$DIMDLI
 40
0.38
  9
$DIMRND
 40
0.0
  9
$DIMDLE
 40
0.0
  9
$DIMEXE
 40
0.4
  9
$DIMTP
 40
0.0
  9
$DIMTM
 40
0.0
  9
$DIMTXT
 40
1.25
  9
$DIMCEN
 40
0.09
  9
$DIMTSZ
 40
0.0
  9
$DIMTOL
 70
     0
  9
$DIMLIM
 70
     0
  9
$DIMTIH
 70
     0
  9
$DIMTOH
 70
     0
  9
$DIMSE1
 70
     0
  9
$DIMSE2
 70
     0
  9
$DIMTAD
 70
     3
  9
$DIMZIN
 70
     8
  9
$DIMBLK
  1
Open30
  9
$DIMASO
 70
     1
  9
$DIMSHO
 70
     1
  9
$DIMPOST
  1

  9
$DIMAPOST
  1

  9
$DIMALT
 70
     0
  9
$DIMALTD
 70
     2
  9
$DIMALTF
 40
25.4
  9
$DIMLFAC
 40
1.0
  9
$DIMTOFL
 70
     1
  9
$DIMTVP
 40
0.0
  9
$DIMTIX
 70
     0
  9
$DIMSOXD
 70
     0
  9
$DIMSAH
 70
     0
  9
$DIMBLK1
  1

  9
$DIMBLK2
  1

  9
$DIMSTYLE
  2
STANDARD
  9
$DIMCLRD
 70
   256
  9
$DIMCLRE
 70
   256
  9
$DIMCLRT
 70
     3
  9
$DIMTFAC
 40
1.0
  9
$DIMGAP
 40
0.4
  9
$DIMJUST
 70
     0
  9
$DIMSD1
 70
     0
  9
$DIMSD2
 70
     0
  9
$DIMTOLJ
 70
     1
  9
$DIMTZIN
 70
     0
  9
$DIMALTZ
 70
     0
  9
$DIMALTTZ
 70
     0
  9
$DIMUPT
 70
     0
  9
$DIMDEC
 70
     2
  9
$DIMTDEC
 70
     2
  9
$DIMALTU
 70
     2
  9
$DIMALTTD
 70
     2
  9
$DIMTXSTY
  7
STANDARD
  9
$DIMAUNIT
 70
     0
  9
$DIMADEC
 70
     2
  9
$DIMALTRND
 40
0.0
  9
$DIMAZIN
 70
     2
  9
$DIMDSEP
 70
    46
  9
$DIMATFIT
 70
     3
  9
$DIMFRAC
 70
     0
  9
$DIMLDRBLK
  1
Open30
  9
$DIMLUNIT
 70
     2
  9
$DIMLWD
 70
    -2
  9
$DIMLWE
 70
    -2
  9
$DIMTMOVE
 70
     0
  9
$LUNITS
 70
     2
  9
$LUPREC
 70
     2
  9
$SKETCHINC
 40
1.0
  9
$FILLETRAD
 40
1.0
  9
$AUNITS
 70
     0
  9
$AUPREC
 70
     2
  9
$MENU
  1
.
  9
$ELEVATION
 40
0.0
  9
$PELEVATION
 40
0.0
  9
$THICKNESS
 40
0.0
  9
$LIMCHECK
 70
     0
  9
$CHAMFERA
 40
1.5
  9
$CHAMFERB
 40
1.5
  9
$CHAMFERC
 40
1.75
  9
$CHAMFERD
 40
0.0174532925199433
  9
$SKPOLY
 70
     0
  9
$TDCREATE
 40
2451555.620234838
  9
$TDUCREATE
 40
2451555.245234838
  9
$TDUPDATE
 40
2455846.618517882
  9
$TDUUPDATE
 40
2455846.243517882
  9
$TDINDWG
 40
2.5598662963
  9
$TDUSRTIMER
 40
2.5598662963
  9
$USRTIMER
 70
     1
  9
$ANGBASE
 50
0.0
  9
$ANGDIR
 70
     0
  9
$PDMODE
 70
     0
  9
$PDSIZE
 40
0.0
  9
$PLINEWID
 40
0.0
  9
$SPLFRAME
 70
     0
  9
$SPLINETYPE
 70
     6
  9
$SPLINESEGS
 70
     8
  9
$HANDSEED
  5
A40B
  9
$SURFTAB1
 70
     6
  9
$SURFTAB2
 70
     6
  9
$SURFTYPE
 70
     6
  9
$SURFU
 70
     6
  9
$SURFV
 70
     6
  9
$UCSBASE
  2

  9
$UCSNAME
  2

  9
$UCSORG
 10
0.0
 20
0.0
 30
0.0
  9
$UCSXDIR
 10
1.0
 20
0.0
 30
0.0
  9
$UCSYDIR
 10
0.0
 20
1.0
 30
0.0
  9
$UCSORTHOREF
  2

  9
$UCSORTHOVIEW
 70
     0
  9
$UCSORGTOP
 10
0.0
 20
0.0
 30
0.0
  9
$UCSORGBOTTOM
 10
0.0
 20
0.0
 30
0.0
  9
$UCSORGLEFT
 10
0.0
 20
0.0
 30
0.0
  9
$UCSORGRIGHT
 10
0.0
 20
0.0
 30
0.0
  9
$UCSORGFRONT
 10
0.0
 20
0.0
 30
0.0
  9
$UCSORGBACK
 10
0.0
 20
0.0
 30
0.0
  9
$PUCSBASE
  2

  9
$PUCSNAME
  2

  9
$PUCSORG
 10
0.0
 20
0.0
 30
0.0
  9
$PUCSXDIR
 10
1.0
 20
0.0
 30
0.0
  9
$PUCSYDIR
 10
0.0
 20
1.0
 30
0.0
  9
$PUCSORTHOREF
  2

  9
$PUCSORTHOVIEW
 70
     0
  9
$PUCSORGTOP
 10
0.0
 20
0.0
 30
0.0
  9
$PUCSORGBOTTOM
 10
0.0
 20
0.0
 30
0.0
  9
$PUCSORGLEFT
 10
0.0
 20
0.0
 30
0.0
  9
$PUCSORGRIGHT
 10
0.0
 20
0.0
 30
0.0
  9
$PUCSORGFRONT
 10
0.0
 20
0.0
 30
0.0
  9
$PUCSORGBACK
 10
0.0
 20
0.0
 30
0.0
  9
$USERI1
 70
     0
  9
$USERI2
 70
     0
  9
$USERI3
 70
     0
  9
$USERI4
 70
     0
  9
$USERI5
 70
     0
  9
$USERR1
 40
0.0
  9
$USERR2
 40
0.0
  9
$USERR3
 40
0.0
  9
$USERR4
 40
0.0
  9
$USERR5
 40
0.0
  9
$WORLDVIEW
 70
     1
  9
$SHADEDGE
 70
     3
  9
$SHADEDIF
 70
    70
  9
$TILEMODE
 70
     1
  9
$MAXACTVP
 70
    48
  9
$PINSBASE
 10
0.0
 20
0.0
 30
0.0
  9
$PLIMCHECK
 70
     0
  9
$PEXTMIN
 10
1.000000000000000E+20
 20
1.000000000000000E+20
 30
1.000000000000000E+20
  9
$PEXTMAX
 10
-1.000000000000000E+20
 20
-1.000000000000000E+20
 30
-1.000000000000000E+20
  9
$PLIMMIN
 10
0.0
 20
0.0
  9
$PLIMMAX
 10
420.0
 20
297.0
  9
$UNITMODE
 70
     0
  9
$VISRETAIN
 70
     1
  9
$PLINEGEN
 70
     0
  9
$PSLTSCALE
 70
     1
  9
$TREEDEPTH
 70
  3020
  9
$CMLSTYLE
  2
STANDARD
  9
$CMLJUST
 70
     0
  9
$CMLSCALE
 40
20.0
  9
$PROXYGRAPHICS
 70
     1
  9
$MEASUREMENT
 70
     1
  9
$CELWEIGHT
370
    -1
  9
$ENDCAPS
280
     0
  9
$JOINSTYLE
280
     0
  9
$LWDISPLAY
290
     0
  9
$INSUNITS
 70
     0
  9
$HYPERLINKBASE
  1

  9
$STYLESHEET
  1
monochrome.ctb
  9
$XEDIT
290
     1
  9
$CEPSNTYPE
380
     0
  9
$PSTYLEMODE
290
     1
  9
$FINGERPRINTGUID
  2
{1CF51E8A-A506-11D4-A7D9-AF69F5C20846}
  9
$VERSIONGUID
  2
{F98597E8-BA3E-48C9-AA9A-7F53B9030FED}
  9
$EXTNAMES
290
     1
  9
$PSVPSCALE
 40
0.0
  9
$OLESTARTUP
290
     0
  9
$SORTENTS
280
   127
  9
$INDEXCTL
280
     0
  9
$HIDETEXT
280
     0
  9
$XCLIPFRAME
290
     0
  9
$HALOGAP
280
     0
  9
$OBSCOLOR
 70
   257
  9
$OBSLTYPE
280
     0
  9
$INTERSECTIONDISPLAY
280
     0
  9
$INTERSECTIONCOLOR
 70
   257
  9
$DIMASSOC
280
     1
  9
$PROJECTNAME
  1

  0
ENDSEC
  0
SECTION
  2
CLASSES
  0
CLASS
  1
DICTIONARYVAR
  2
AcDbDictionaryVar
  3
ObjectDBX Classes
 90
        0
 91
        2
280
     0
281
     0
  0
CLASS
  1
SORTENTSTABLE
  2
AcDbSortentsTable
  3
ObjectDBX Classes
 90
        0
 91
        1
280
     0
281
     0
  0
CLASS
  1
ACDBDICTIONARYWDFLT
  2
AcDbDictionaryWithDefault
  3
ObjectDBX Classes
 90
        0
 91
        1
280
     0
281
     0
  0
CLASS
  1
TABLESTYLE
  2
AcDbTableStyle
  3
ObjectDBX Classes
 90
     2047
 91
        1
280
     0
281
     0
  0
ENDSEC
  0
SECTION
  2
TABLES
  0
TABLE
  2
VPORT
  5
8
330
0
100
AcDbSymbolTable
 70
     2
  0
VPORT
  5
A40A
330
8
100
AcDbSymbolTableRecord
100
AcDbViewportTableRecord
  2
*Active
 70
     0
 10
0.0
 20
0.0
 11
1.0
 21
1.0
 12
122.9938118069894
 22
69.99779088134857
 13
0.0
 23
0.0
 14
10.0
 24
10.0
 15
10.0
 25
10.0
 16
0.0
 26
0.0
 36
1.0
 17
0.0
 27
0.0
 37
0.0
 40
141.7417949905759
 41
2.47104247104247
 42
50.0
 43
0.0
 44
0.0
 50
0.0
 51
0.0
 71
     0
 72
 20000
 73
     1
 74
     1
 75
     0
 76
     0
 77
     0
 78
     0
281
     0
 65
     1
110
0.0
120
0.0
130
0.0
111
1.0
121
0.0
131
0.0
112
0.0
122
1.0
132
0.0
 79
     0
146
0.0
  0
ENDTAB
  0
TABLE
  2
LTYPE
  5
5
330
0
100
AcDbSymbolTable
 70
     7
  0
LTYPE
  5
12
330
5
100
AcDbSymbolTableRecord
100
AcDbLinetypeTableRecord
  2
BYBLOCK
 70
     0
  3

 72
    65
 73
     0
 40
0.0
  0
LTYPE
  5
13
330
5
100
AcDbSymbolTableRecord
100
AcDbLinetypeTableRecord
  2
BYLAYER
 70
     0
  3

 72
    65
 73
     0
 40
0.0
  0
LTYPE
  5
14
330
5
100
AcDbSymbolTableRecord
100
AcDbLinetypeTableRecord
  2
CONTINUOUS
 70
     0
  3
Solid line
 72
    65
 73
     0
 40
0.0
  0
LTYPE
  5
9D
330
5
100
AcDbSymbolTableRecord
100
AcDbLinetypeTableRecord
  2
CENTERX2
 70
     0
  3
Center (2x) ________  __  ________  __  _____
 72
    65
 73
     4
 40
101.6
 49
63.5
 74
     0
 49
-12.7
 74
     0
 49
12.7
 74
     0
 49
-12.7
 74
     0
  0
LTYPE
  5
A1
330
5
100
AcDbSymbolTableRecord
100
AcDbLinetypeTableRecord
  2
DASHED
 70
     0
  3
Dashed __ __ __ __ __ __ __ __ __ __ __ __ __ _
 72
    65
 73
     2
 40
19.05
 49
12.7
 74
     0
 49
-6.349999999999999
 74
     0
  0
LTYPE
  5
A2
330
5
100
AcDbSymbolTableRecord
100
AcDbLinetypeTableRecord
  2
DASHED2
 70
     0
  3
Dashed (.5x) _ _ _ _ _ _ _ _ _ _ _ _ _ _ _ _ _
 72
    65
 73
     2
 40
9.524999999999998
 49
6.349999999999999
 74
     0
 49
-3.174999999999999
 74
     0
  0
LTYPE
  5
A5
330
5
100
AcDbSymbolTableRecord
100
AcDbLinetypeTableRecord
  2
DIVIDE2
 70
     0
  3
Divide (.5x) __..__..__..__..__..__..__..__.._
 72
    65
 73
     6
 40
15.875
 49
6.349999999999999
 74
     0
 49
-3.174999999999999
 74
     0
 49
0.0
 74
     0
 49
-3.174999999999999
 74
     0
 49
0.0
 74
     0
 49
-3.174999999999999
 74
     0
  0
LTYPE
  5
650B
330
5
100
AcDbSymbolTableRecord
100
AcDbLinetypeTableRecord
  2
CENTER
 70
     0
  3
Center ____ _ ____ _ ____ _ ____ _ ____ _ ____
 72
    65
 73
     4
 40
50.8
 49
31.75
 74
     0
 49
-6.349999999999999
 74
     0
 49
6.349999999999999
 74
     0
 49
-6.349999999999999
 74
     0
  0
LTYPE
  5
650C
330
5
100
AcDbSymbolTableRecord
100
AcDbLinetypeTableRecord
  2
HIDDEN
 70
     0
  3
Hidden __ __ __ __ __ __ __ __ __ __ __ __ __ _
 72
    65
 73
     2
 40
9.524999999999998
 49
6.349999999999999
 74
     0
 49
-3.174999999999999
 74
     0
  0
ENDTAB
  0
TABLE
  2
LAYER
  5
2
102
{ACAD_XDICTIONARY
360
7BFE
102
}
330
0
100
AcDbSymbolTable
 70
     9
  0
LAYER
  5
E
330
2
100
AcDbSymbolTableRecord
100
AcDbLayerTableRecord
  2
0
 70
     0
 62
     7
  6
CONTINUOUS
370
    -3
390
5CF2
  0
LAYER
  5
B9
330
2
100
AcDbSymbolTableRecord
100
AcDbLayerTableRecord
  2
dim
 70
     0
 62
     3
  6
CONTINUOUS
370
    -3
390
5CF2
  0
LAYER
  5
F2
330
2
100
AcDbSymbolTableRecord
100
AcDbLayerTableRecord
  2
DEFPOINTS
 70
     0
 62
     4
  6
CONTINUOUS
290
     0
370
    -3
390
5CF2
  0
LAYER
  5
5F8B
330
2
100
AcDbSymbolTableRecord
100
AcDbLayerTableRecord
  2
mark
 70
     0
 62
     6
  6
CONTINUOUS
370
    -3
390
5CF2
  0
LAYER
  5
644E
330
2
100
AcDbSymbolTableRecord
100
AcDbLayerTableRecord
  2
frame
 70
     0
 62
     9
  6
CONTINUOUS
370
    -3
390
5CF2
  0
LAYER
  5
650D
330
2
100
AcDbSymbolTableRecord
100
AcDbLayerTableRecord
  2
center
 70
     0
 62
     1
  6
CENTER
370
    -3
390
5CF2
  0
LAYER
  5
650E
330
2
100
AcDbSymbolTableRecord
100
AcDbLayerTableRecord
  2
bowle
 70
     0
 62
     4
  6
HIDDEN
370
    -3
390
5CF2
  0
LAYER
  5
650F
330
2
100
AcDbSymbolTableRecord
100
AcDbLayerTableRecord
  2
contour
 70
     0
 62
     2
  6
CONTINUOUS
370
    -3
390
5CF2
  0
LAYER
  5
6510
330
2
100
AcDbSymbolTableRecord
100
AcDbLayerTableRecord
  2
section
 70
     0
 62
     5
  6
CONTINUOUS
370
    -3
390
5CF2
  0
ENDTAB
  0
TABLE
  2
STYLE
  5
3
330
0
100
AcDbSymbolTable
 70
     5
  0
STYLE
  5
F
330
3
100
AcDbSymbolTableRecord
100
AcDbTextStyleTableRecord
  2
STANDARD
 70
     0
 40
0.0
 41
1.0
 50
0.0
 71
     0
 42
2.5
  3
txt
  4

  0
STYLE
  5
BE
330
3
100
AcDbSymbolTableRecord
100
AcDbTextStyleTableRecord
  2
ISOCP3
 70
     0
 40
0.0
 41
1.0
 50
0.0
 71
     0
 42
2.5
  3
isocp3.shx
  4

  0
STYLE
  5
2A37
330
3
100
AcDbSymbolTableRecord
100
AcDbTextStyleTableRecord
  2
TXT
 70
     0
 40
0.0
 41
1.0
 50
0.0
 71
     0
 42
1.25
  3
txt.shx
  4
bigfont.shx
  0
STYLE
  5
5DCB
330
3
100
AcDbSymbolTableRecord
100
AcDbTextStyleTableRecord
  2
LKK
 70
     0
 40
50.0
 41
1.5
 50
0.0
 71
     0
 42
50.0
  3
MS PGothic.ttf
  4

1001
ACAD
1000
MS PGothic
1071
    32818
  0
STYLE
  5
5DCC
330
3
100
AcDbSymbolTableRecord
100
AcDbTextStyleTableRecord
  2
JL
 70
     0
 40
10.0
 41
0.5
 50
0.0
 71
     0
 42
5.0
  3
MS Mincho.ttf
  4

1001
ACAD
1000
MS Mincho
1071
    32785
  0
ENDTAB
  0
TABLE
  2
VIEW
  5
6
330
0
100
AcDbSymbolTable
 70
     0
  0
ENDTAB
  0
TABLE
  2
UCS
  5
7
330
0
100
AcDbSymbolTable
 70
     0
  0
ENDTAB
  0
TABLE
  2
APPID
  5
9
330
0
100
AcDbSymbolTable
 70
    11
  0
APPID
  5
10
330
9
100
AcDbSymbolTableRecord
100
AcDbRegAppTableRecord
  2
ACAD
 70
     0
  0
APPID
  5
7C91
330
9
100
AcDbSymbolTableRecord
100
AcDbRegAppTableRecord
  2
ACAD_DSTYLE_DIMEXT_LENGTH
 70
     0
  0
APPID
  5
7C92
330
9
100
AcDbSymbolTableRecord
100
AcDbRegAppTableRecord
  2
ACAD_DSTYLE_DIMEXT_ENABLED
 70
     0
  0
APPID
  5
7C93
330
9
100
AcDbSymbolTableRecord
100
AcDbRegAppTableRecord
  2
ACAD_DSTYLE_DIMJOGGED_JOGANGLE_SYMBOL
 70
     0
  0
APPID
  5
7C94
330
9
100
AcDbSymbolTableRecord
100
AcDbRegAppTableRecord
  2
ACAD_DSTYLE_DIMARC_LENGTH_SYMBOL
 70
     0
  0
APPID
  5
7F1C
330
9
100
AcDbSymbolTableRecord
100
AcDbRegAppTableRecord
  2
ACAD_EXEMPT_FROM_CAD_STANDARDS
 70
     0
  0
APPID
  5
7F49
330
9
100
AcDbSymbolTableRecord
100
AcDbRegAppTableRecord
  2
ACAD_DSTYLE_DIMTEXT_FILL
 70
     0
  0
APPID
  5
7F4C
330
9
100
AcDbSymbolTableRecord
100
AcDbRegAppTableRecord
  2
ACAD_DSTYLE_DIM_LINETYPE
 70
     0
  0
APPID
  5
7F4D
330
9
100
AcDbSymbolTableRecord
100
AcDbRegAppTableRecord
  2
ACAD_DSTYLE_DIM_EXT1_LINETYPE
 70
     0
  0
APPID
  5
7F4E
330
9
100
AcDbSymbolTableRecord
100
AcDbRegAppTableRecord
  2
ACAD_DSTYLE_DIM_EXT2_LINETYPE
 70
     0
  0
APPID
  5
8C73
330
9
100
AcDbSymbolTableRecord
100
AcDbRegAppTableRecord
  2
ACAD_PSEXT
 70
     0
  0
ENDTAB
  0
TABLE
  2
DIMSTYLE
  5
A
330
0
100
AcDbSymbolTable
 70
     1
100
AcDbDimStyleTable
 71
     1
340
1D
  0
DIMSTYLE
105
1D
102
{ACAD_REACTORS
330
9DC7
330
9DD4
330
9DE1
330
9DF0
330
A12F
330
A13F
330
A274
330
A280
330
A317
102
}
330
A
100
AcDbSymbolTableRecord
100
AcDbDimStyleTableRecord
  2
STANDARD
 70
     0
 41
1.25
 42
0.4
 44
0.4
 73
     0
 74
     0
 77
     3
 78
     8
 79
     2
140
1.25
147
0.4
172
     1
176
   256
177
   256
178
     3
179
     2
271
     2
272
     2
340
F
341
7C04
342
7C04
1001
ACAD_DSTYLE_DIMEXT_LENGTH
1070
   378
1040
0.18
1001
ACAD_DSTYLE_DIMEXT_ENABLED
1070
   383
1070
     0
1001
ACAD_DSTYLE_DIMARC_LENGTH_SYMBOL
1070
   379
1070
     0
1001
ACAD_DSTYLE_DIMJOGGED_JOGANGLE_SYMBOL
1070
   384
1040
1.570796326794896
  0
ENDTAB
  0
TABLE
  2
BLOCK_RECORD
  5
1
330
0
100
AcDbSymbolTable
 70
    14
  0
BLOCK_RECORD
  5
18
102
{ACAD_XDICTIONARY
360
45F
102
}
330
1
100
AcDbSymbolTableRecord
100
AcDbBlockTableRecord
  2
*MODEL_SPACE
340
5CF5
  0
BLOCK_RECORD
  5
15
102
{ACAD_XDICTIONARY
360
5D89
102
}
330
1
100
AcDbSymbolTableRecord
100
AcDbBlockTableRecord
  2
*PAPER_SPACE
340
5CF6
  0
BLOCK_RECORD
  5
639D
330
1
100
AcDbSymbolTableRecord
100
AcDbBlockTableRecord
  2
A$C255C26A2
340
0
  0
BLOCK_RECORD
  5
7C04
330
1
100
AcDbSymbolTableRecord
100
AcDbBlockTableRecord
  2
_Open30
340
0
102
{BLKREFS
331
A297
331
A298
331
A2BD
331
A2C3
331
A2C4
331
A2CD
331
A2CE
331
A2D5
331
A2D6
331
A31C
331
A31D
331
A371
331
A372
331
A37C
331
A37D
331
A38E
331
A38F
102
}
  0
BLOCK_RECORD
  5
7C0A
102
{ACAD_XDICTIONARY
360
7C0B
102
}
330
1
100
AcDbSymbolTableRecord
100
AcDbBlockTableRecord
  2
A
340
0
310
2800000020000000200000000100080000000000000400000000000000000000000000000000000000000000000080000080000000808000800000008000800080800000C0C0C000C0DCC000F0CAA6000020400000206000002080000020A0000020C0000020E00000400000004020000040400000406000004080000040A0
310
000040C0000040E00000600000006020000060400000606000006080000060A0000060C0000060E00000800000008020000080400000806000008080000080A0000080C0000080E00000A0000000A0200000A0400000A0600000A0800000A0A00000A0C00000A0E00000C0000000C0200000C0400000C0600000C0800000C0
310
A00000C0C00000C0E00000E0000000E0200000E0400000E0600000E0800000E0A00000E0C00000E0E00040000000400020004000400040006000400080004000A0004000C0004000E00040200000402020004020400040206000402080004020A0004020C0004020E000404000004040200040404000404060004040800040
310
40A0004040C0004040E00040600000406020004060400040606000406080004060A0004060C0004060E00040800000408020004080400040806000408080004080A0004080C0004080E00040A0000040A0200040A0400040A0600040A0800040A0A00040A0C00040A0E00040C0000040C0200040C0400040C0600040C08000
310
40C0A00040C0C00040C0E00040E0000040E0200040E0400040E0600040E0800040E0A00040E0C00040E0E00080000000800020008000400080006000800080008000A0008000C0008000E00080200000802020008020400080206000802080008020A0008020C0008020E00080400000804020008040400080406000804080
310
008040A0008040C0008040E00080600000806020008060400080606000806080008060A0008060C0008060E00080800000808020008080400080806000808080008080A0008080C0008080E00080A0000080A0200080A0400080A0600080A0800080A0A00080A0C00080A0E00080C0000080C0200080C0400080C0600080C0
310
800080C0A00080C0C00080C0E00080E0000080E0200080E0400080E0600080E0800080E0A00080E0C00080E0E000C0000000C0002000C0004000C0006000C0008000C000A000C000C000C000E000C0200000C0202000C0204000C0206000C0208000C020A000C020C000C020E000C0400000C0402000C0404000C0406000C0
310
408000C040A000C040C000C040E000C0600000C0602000C0604000C0606000C0608000C060A000C060C000C060E000C0800000C0802000C0804000C0806000C0808000C080A000C080C000C080E000C0A00000C0A02000C0A04000C0A06000C0A08000C0A0A000C0A0C000C0A0E000C0C00000C0C02000C0C04000C0C06000
310
C0C08000C0C0A000F0FBFF00A4A0A000808080000000FF0000FF000000FFFF00FF000000FF00FF00FFFF0000FFFFFF0000000000000000000000000000000000000000000000000000000000000000000000000000000000000000000000000000000000000000000000000000000000000000000000000000000000000000
310
00000000000000000000000000000000000000000000000000000000000000000000000000000000000000000000000000000000000000000000000000000000000000000000000000000000000000000000000000000000000000000000000000000000000000000000000000000000000000000000000000000000000000
310
00000000000000000000000000000000000000000000000000000000000000000000000000000000000000000000000000000000000000000000000000000000000000000000000000000000000000000000000000000000000000000000000000000000000000000000000000000000000000000000000000000000000000
310
000000000000FDFDFDFDFDFDFDFDFDFDFDFD0000FD0000000000000000000000000000000000FD0000FA0000000000FA00FD0000FDFD00000000000000000000000000000000FD0000FA0000000000FA00FD0000FDFDFD000000000000000000000000000000FD0000FA0000000000FA00FD0000FDFDFDFD00000000000000
310
00000000000000FD0000FAFAFAFAFAFAFA00FD0000FDFDFDFDFD00000000000000000000000000FD000000FA00000000FA00FD0000FDFDFDFDFDFDFDFDFDFDFDFDFDFDFDFDFDFDFD000000FA000000FA0000FD0000FDFDFDFDFD00000000000000000000000000FD00000000FA0000FA0000FD0000FDFDFDFD000000000000
310
0000000000000000FD00000000FA00FA000000FD0000FDFD00000000000000000000000000000000FD0000000000FAFA000000FD0000FD0000000000000000000000000000000000FD0000000000FA00000000FD0000000000000000000000000000000000000000FDFDFDFDFDFDFDFDFDFDFDFD0000000000000000000000
310
00000000000000000000000000000000000000000000000000000000000000000000000000000000000000000000000000000000000000000000000000000000000000000000000000000000000000000000000000000000000000000000000000000000000000000000000000000000000000000000000000000000000000
310
00000000000000000000000000000000000000000000000000000000000000000000000000000000000000000000000000000000000000000000000000000000000000000000000000000000000000000000000000000000000000000000000000000000000000000000000000000000000000000000000000000000000000
310
0000000000000000000000000000000000000000000000000000000000000000000000000000000000000000000000000000000000000000
  0
BLOCK_RECORD
  5
8E72
102
{ACAD_XDICTIONARY
360
8E73
102
}
330
1
100
AcDbSymbolTableRecord
100
AcDbBlockTableRecord
  2
LS
340
0
310
2800000020000000200000000100080000000000000400000000000000000000000000000000000000000000000080000080000000808000800000008000800080800000C0C0C000C0DCC000F0CAA6000020400000206000002080000020A0000020C0000020E00000400000004020000040400000406000004080000040A0
310
000040C0000040E00000600000006020000060400000606000006080000060A0000060C0000060E00000800000008020000080400000806000008080000080A0000080C0000080E00000A0000000A0200000A0400000A0600000A0800000A0A00000A0C00000A0E00000C0000000C0200000C0400000C0600000C0800000C0
310
A00000C0C00000C0E00000E0000000E0200000E0400000E0600000E0800000E0A00000E0C00000E0E00040000000400020004000400040006000400080004000A0004000C0004000E00040200000402020004020400040206000402080004020A0004020C0004020E000404000004040200040404000404060004040800040
310
40A0004040C0004040E00040600000406020004060400040606000406080004060A0004060C0004060E00040800000408020004080400040806000408080004080A0004080C0004080E00040A0000040A0200040A0400040A0600040A0800040A0A00040A0C00040A0E00040C0000040C0200040C0400040C0600040C08000
310
40C0A00040C0C00040C0E00040E0000040E0200040E0400040E0600040E0800040E0A00040E0C00040E0E00080000000800020008000400080006000800080008000A0008000C0008000E00080200000802020008020400080206000802080008020A0008020C0008020E00080400000804020008040400080406000804080
310
008040A0008040C0008040E00080600000806020008060400080606000806080008060A0008060C0008060E00080800000808020008080400080806000808080008080A0008080C0008080E00080A0000080A0200080A0400080A0600080A0800080A0A00080A0C00080A0E00080C0000080C0200080C0400080C0600080C0
310
800080C0A00080C0C00080C0E00080E0000080E0200080E0400080E0600080E0800080E0A00080E0C00080E0E000C0000000C0002000C0004000C0006000C0008000C000A000C000C000C000E000C0200000C0202000C0204000C0206000C0208000C020A000C020C000C020E000C0400000C0402000C0404000C0406000C0
310
408000C040A000C040C000C040E000C0600000C0602000C0604000C0606000C0608000C060A000C060C000C060E000C0800000C0802000C0804000C0806000C0808000C080A000C080C000C080E000C0A00000C0A02000C0A04000C0A06000C0A08000C0A0A000C0A0C000C0A0E000C0C00000C0C02000C0C04000C0C06000
310
C0C08000C0C0A000F0FBFF00A4A0A000808080000000FF0000FF000000FFFF00FF000000FF00FF00FFFF0000FFFFFF00000000000000000000000000000000000000000000000000000000000000000000000000000000000000FBFBFEFBFEFBFBFEFBFEFBFB00000000000000000000000000000000000000FBFBFBFEFBFE
310
FBFBFEFBFEFBFBFB000000000000000000000000000000000000FB0000FE00FE0000FE00FE0000FB000000000000000000000000000000000000FB0000FE00FE0000FE00FE0000FB000000000000000000000000000000000000FB0000FEFEFEFEFEFEFEFE0000FB000000000000000000000000000000000000FB000000FE
310
FE0000FEFE000000FB000000000000000000000000000000000000FB0000000000FEFE0000000000FB000000000000000000000000000000000000FBFBFBFEFBFBFBFBFBFBFEFBFBFB000000000000000000000000000000000000000000FBFE0000000000FE000000000000000000000000000000000000000000000000FB
310
FBFBFBFBFBFEFB000000000000000000000000000000000000000000000000FBFE00000000FEFB000000000000000000000000000000000000000000000000FBFE00000000FEFB000000000000000000000000000000000000000000000000FBFE00000000FEFB000000000000000000000000000000000000000000000000
310
FBFE00000000FEFB000000000000000000000000000000000000000000000000FBFE00000000FEFB000000000000000000000000000000000000000000000000FBFE00000000FEFB000000000000000000000000000000000000000000000000FBFE00000000FEFB0000000000000000000000000000000000000000000000
310
00FBFE00000000FEFB000000000000000000000000000000000000000000000000FBFE00000000FEFB000000000000000000000000000000000000000000000000FBFE00000000FEFB000000000000000000000000000000000000000000000000FBFE00000000FEFB00000000000000000000000000000000000000000000
310
0000FBFE00000000FEFB000000000000000000000000000000000000000000000000FBFE00000000FEFB000000000000000000000000000000000000000000000000FBFE00000000FEFB000000000000000000000000000000000000000000000000FBFE00000000FEFB000000000000000000000000000000000000000000
310
000000FBFE00000000FEFB000000000000000000000000000000000000000000000000FBFE00000000FEFB000000000000000000000000000000000000000000000000FBFEFBFBFBFBFEFB00000000000000000000000000000000000000000000000000FE00000000FEFB0000000000000000000000000000000000000000
310
0000000000FBFBFBFBFBFB000000000000000000000000000000000000000000000000000000000000000000000000000000000000000000
  0
BLOCK_RECORD
  5
9D15
102
{ACAD_XDICTIONARY
360
9D16
102
}
330
1
100
AcDbSymbolTableRecord
100
AcDbBlockTableRecord
  2
LS2
340
0
310
2800000020000000200000000100080000000000000400000000000000000000000000000000000000000000000080000080000000808000800000008000800080800000C0C0C000C0DCC000F0CAA6000020400000206000002080000020A0000020C0000020E00000400000004020000040400000406000004080000040A0
310
000040C0000040E00000600000006020000060400000606000006080000060A0000060C0000060E00000800000008020000080400000806000008080000080A0000080C0000080E00000A0000000A0200000A0400000A0600000A0800000A0A00000A0C00000A0E00000C0000000C0200000C0400000C0600000C0800000C0
310
A00000C0C00000C0E00000E0000000E0200000E0400000E0600000E0800000E0A00000E0C00000E0E00040000000400020004000400040006000400080004000A0004000C0004000E00040200000402020004020400040206000402080004020A0004020C0004020E000404000004040200040404000404060004040800040
310
40A0004040C0004040E00040600000406020004060400040606000406080004060A0004060C0004060E00040800000408020004080400040806000408080004080A0004080C0004080E00040A0000040A0200040A0400040A0600040A0800040A0A00040A0C00040A0E00040C0000040C0200040C0400040C0600040C08000
310
40C0A00040C0C00040C0E00040E0000040E0200040E0400040E0600040E0800040E0A00040E0C00040E0E00080000000800020008000400080006000800080008000A0008000C0008000E00080200000802020008020400080206000802080008020A0008020C0008020E00080400000804020008040400080406000804080
310
008040A0008040C0008040E00080600000806020008060400080606000806080008060A0008060C0008060E00080800000808020008080400080806000808080008080A0008080C0008080E00080A0000080A0200080A0400080A0600080A0800080A0A00080A0C00080A0E00080C0000080C0200080C0400080C0600080C0
310
800080C0A00080C0C00080C0E00080E0000080E0200080E0400080E0600080E0800080E0A00080E0C00080E0E000C0000000C0002000C0004000C0006000C0008000C000A000C000C000C000E000C0200000C0202000C0204000C0206000C0208000C020A000C020C000C020E000C0400000C0402000C0404000C0406000C0
310
408000C040A000C040C000C040E000C0600000C0602000C0604000C0606000C0608000C060A000C060C000C060E000C0800000C0802000C0804000C0806000C0808000C080A000C080C000C080E000C0A00000C0A02000C0A04000C0A06000C0A08000C0A0A000C0A0C000C0A0E000C0C00000C0C02000C0C04000C0C06000
310
C0C08000C0C0A000F0FBFF00A4A0A000808080000000FF0000FF000000FFFF00FF000000FF00FF00FFFF0000FFFFFF0000000000000000000000000000000000000000000000000000000000000000000000000000000000000000FBFBFEFEFBFBFEFEFBFB00000000000000000000000000000000000000000000FBFBFEFE
310
FBFBFEFEFBFB00000000000000000000000000000000000000000000FB00FEFE0000FEFE00FB00000000000000000000000000000000000000000000FB00FEFE0000FEFE00FB00000000000000000000000000000000000000000000FB00FEFEFEFEFEFE00FB00000000000000000000000000000000000000000000FB0000
310
FEFEFE000000FB00000000000000000000000000000000000000000000FBFBFEFBFBFBFBFEFBFB000000000000000000000000000000000000000000000000FBFBFBFBFBFE0000000000000000000000000000000000000000000000000000FE00000000FE0000000000000000000000000000000000000000000000000000
310
FE00000000FE0000000000000000000000000000000000000000000000000000FE00000000FE0000000000000000000000000000000000000000000000000000FE00000000FE0000000000000000000000000000000000000000000000000000FE00000000FE00000000000000000000000000000000000000000000000000
310
00FE00000000FE0000000000000000000000000000000000000000000000000000FE00000000FE0000000000000000000000000000000000000000000000000000FE00000000FE0000000000000000000000000000000000000000000000000000FE00000000FE000000000000000000000000000000000000000000000000
310
0000FE00000000FE0000000000000000000000000000000000000000000000000000FE00000000FE0000000000000000000000000000000000000000000000000000FE00000000FE0000000000000000000000000000000000000000000000000000FE00000000FE0000000000000000000000000000000000000000000000
310
000000FE00000000FE0000000000000000000000000000000000000000000000000000FE00000000FE0000000000000000000000000000000000000000000000000000FE00000000FE0000000000000000000000000000000000000000000000000000FE00000000FE00000000000000000000000000000000000000000000
310
00000000FE00000000FE0000000000000000000000000000000000000000000000000000FE00000000FE0000000000000000000000000000000000000000000000000000FEFBFBFBFBFE0000000000000000000000000000000000000000000000000000FEFB000000FE000000000000000000000000000000000000000000
310
000000000000FBFBFBFB00000000000000000000000000000000000000000000000000000000000000000000000000000000000000000000
102
{BLKREFS
331
9D9E
102
}
  0
BLOCK_RECORD
  5
9DC8
330
1
100
AcDbSymbolTableRecord
100
AcDbBlockTableRecord
  2
*D5
340
0
  0
BLOCK_RECORD
  5
9DD5
330
1
100
AcDbSymbolTableRecord
100
AcDbBlockTableRecord
  2
*D6
340
0
  0
BLOCK_RECORD
  5
9DE2
330
1
100
AcDbSymbolTableRecord
100
AcDbBlockTableRecord
  2
*D7
340
0
  0
BLOCK_RECORD
  5
9DF1
330
1
100
AcDbSymbolTableRecord
100
AcDbBlockTableRecord
  2
*D8
340
0
  0
BLOCK_RECORD
  5
A130
330
1
100
AcDbSymbolTableRecord
100
AcDbBlockTableRecord
  2
*D9
340
0
  0
BLOCK_RECORD
  5
A140
330
1
100
AcDbSymbolTableRecord
100
AcDbBlockTableRecord
  2
*D10
340
0
  0
BLOCK_RECORD
  5
A275
330
1
100
AcDbSymbolTableRecord
100
AcDbBlockTableRecord
  2
*D11
340
0
  0
BLOCK_RECORD
  5
A281
330
1
100
AcDbSymbolTableRecord
100
AcDbBlockTableRecord
  2
*D12
340
0
  0
BLOCK_RECORD
  5
A318
330
1
100
AcDbSymbolTableRecord
100
AcDbBlockTableRecord
  2
*D13
340
0
  0
ENDTAB
  0
ENDSEC
  0
SECTION
  2
BLOCKS
  0
BLOCK
  5
19
330
18
100
AcDbEntity
  8
0
100
AcDbBlockBegin
  2
*MODEL_SPACE
 70
     0
 10
0.0
 20
0.0
 30
0.0
  3
*MODEL_SPACE
  1

  0
ENDBLK
  5
1A
330
18
100
AcDbEntity
  8
0
100
AcDbBlockEnd
  0
BLOCK
  5
16
330
15
100
AcDbEntity
 67
     1
  8
0
100
AcDbBlockBegin
  2
*PAPER_SPACE
 70
     0
 10
0.0
 20
0.0
 30
0.0
  3
*PAPER_SPACE
  1

  0
ENDBLK
  5
17
330
15
100
AcDbEntity
 67
     1
  8
0
100
AcDbBlockEnd
  0
BLOCK
  5
63A1
330
639D
100
AcDbEntity
  8
0
100
AcDbBlockBegin
  2
A$C255C26A2
 70
     0
 10
0.0
 20
0.0
 30
0.0
  3
A$C255C26A2
  1

  0
LWPOLYLINE
  5
639E
330
639D
100
AcDbEntity
  8
0
100
AcDbPolyline
 90
        3
 70
     1
 43
0.0
 10
7.014806023851633
 20
0.0000006939811783
 10
5.611844869720698
 20
2.430000693981241
 10
8.417767177982568
 20
2.430000693981241
  0
LWPOLYLINE
  5
639F
330
639D
100
AcDbEntity
  8
0
100
AcDbPolyline
 90
        3
 70
     1
 43
0.0
 10
4.20888371558999
 20
0.0000006939811783
 10
2.805922561459283
 20
2.430000693981241
 10
5.611844869720698
 20
2.430000693981241
  0
LWPOLYLINE
  5
63A0
330
639D
100
AcDbEntity
  8
0
100
AcDbPolyline
 90
        3
 70
     1
 43
0.0
 10
1.402961407328348
 20
0.0000006939811783
 10
0.0000002531974133
 20
2.430000693981241
 10
2.805922561459283
 20
2.430000693981241
  0
ENDBLK
  5
63A2
330
639D
100
AcDbEntity
  8
0
100
AcDbBlockEnd
  0
BLOCK
  5
7C05
330
7C04
100
AcDbEntity
  8
0
100
AcDbBlockBegin
  2
_Open30
 70
     0
 10
0.0
 20
0.0
 30
0.0
  3
_Open30
  1

  0
LINE
  5
7C06
330
7C04
100
AcDbEntity
  8
0
  6
ByBlock
 62
     0
370
    -2
100
AcDbLine
 10
-1.0
 20
0.26794919
 30
0.0
 11
0.0
 21
0.0
 31
0.0
  0
LINE
  5
7C07
330
7C04
100
AcDbEntity
  8
0
  6
ByBlock
 62
     0
370
    -2
100
AcDbLine
 10
0.0
 20
0.0
 30
0.0
 11
-1.0
 21
-0.26794919
 31
0.0
  0
LINE
  5
7C08
330
7C04
100
AcDbEntity
  8
0
  6
ByBlock
 62
     0
370
    -2
100
AcDbLine
 10
0.0
 20
0.0
 30
0.0
 11
-1.0
 21
0.0
 31
0.0
  0
ENDBLK
  5
7C09
330
7C04
100
AcDbEntity
  8
0
100
AcDbBlockEnd
  0
BLOCK
  5
7C0E
330
7C0A
100
AcDbEntity
  8
0
100
AcDbBlockBegin
  2
A
 70
     0
 10
0.0
 20
0.0
 30
0.0
  3
A
  1

  0
MTEXT
  5
7C0F
330
7C0A
100
AcDbEntity
  8
mark
 62
     3
100
AcDbMText
 10
10.65641897020822
 20
-5.596245361730467
 30
0.0
 40
2.5
 41
0.0
 71
     5
 72
     1
  1
A
 73
     1
 44
1.0
1001
ACAD
1000
ACAD_MTEXT_DEFINED_HEIGHT_BEGIN
1070
    46
1040
0.0
1000
ACAD_MTEXT_DEFINED_HEIGHT_END
  0
LWPOLYLINE
  5
7C10
330
7C0A
100
AcDbEntity
  8
mark
100
AcDbPolyline
 90
        4
 70
     1
 43
0.0
 10
9.07926800414657
 20
-7.141145101782569
 10
12.07926800414657
 20
-7.141145101782569
 10
12.07926800414657
 20
-4.141145101782569
 10
9.07926800414657
 20
-4.141145101782569
  0
HATCH
  5
7C11
330
7C0A
100
AcDbEntity
  8
mark
100
AcDbHatch
 10
0.0
 20
0.0
 30
0.0
210
0.0
220
0.0
230
1.0
  2
SOLID
 70
     1
 71
     0
 91
        1
 92
        7
 72
     0
 73
     1
 93
        3
 10
5.32926800414657
 20
-5.641145101782569
 10
4.07926800414657
 20
-4.391145101782541
 10
4.07926800414657
 20
-6.891145101782541
 97
        0
 75
     0
 76
     1
 47
0.0398277943677868
 98
        1
 10
4.589689734415287
 20
-5.732163331855076
450
        0
451
        0
460
0.0
461
0.0
452
        1
462
1.0
453
        2
463
0.0
 63
     5
421
      255
463
1.0
 63
     7
421
 16777215
470
LINEAR
1001
ACAD
1010
0.0
1020
0.0
1030
0.0
  0
LINE
  5
7C12
330
7C0A
100
AcDbEntity
  8
mark
100
AcDbLine
 10
5.32926800414657
 20
-5.641145101782569
 30
0.0
 11
9.07926800414657
 21
-5.641145101782569
 31
0.0
  0
LINE
  5
7C13
330
7C0A
100
AcDbEntity
  8
mark
100
AcDbLine
 10
5.32926800414657
 20
-5.641145101782569
 30
0.0
 11
4.07926800414657
 21
-4.391145101782569
 31
0.0
  0
LINE
  5
7C14
330
7C0A
100
AcDbEntity
  8
mark
100
AcDbLine
 10
5.32926800414657
 20
-5.641145101782569
 30
0.0
 11
4.07926800414657
 21
-6.891145101782569
 31
0.0
  0
ENDBLK
  5
7C15
330
7C0A
100
AcDbEntity
  8
0
100
AcDbBlockEnd
  0
BLOCK
  5
8E76
330
8E72
100
AcDbEntity
  8
0
100
AcDbBlockBegin
  2
LS
 70
     0
 10
0.0
 20
0.0
 30
0.0
  3
LS
  1

  0
LINE
  5
8E78
330
8E72
100
AcDbEntity
  8
contour
100
AcDbLine
 10
310.7457309951603
 20
181.0160360664828
 30
0.0
 11
310.7457309951603
 21
184.7160360664827
 31
0.0
  0
LINE
  5
8E79
330
8E72
100
AcDbEntity
  8
contour
100
AcDbLine
 10
310.7457309951603
 20
184.7160360664827
 30
0.0
 11
303.7457309951603
 21
184.7160360664827
 31
0.0
  0
LINE
  5
8E7A
330
8E72
100
AcDbEntity
  8
contour
100
AcDbLine
 10
308.4457309951603
 20
196.7160360664827
 30
0.0
 11
306.0457309951603
 21
196.7160360664826
 31
0.0
  0
LINE
  5
8E7B
330
8E72
100
AcDbEntity
  8
contour
100
AcDbLine
 10
309.2457309951603
 20
195.9160360664826
 30
0.0
 11
308.4457309951603
 21
196.7160360664826
 31
0.0
  0
LINE
  5
8E7C
330
8E72
100
AcDbEntity
  8
contour
100
AcDbLine
 10
303.7457309951603
 20
184.7160360664827
 30
0.0
 11
303.7457309951603
 21
181.0160360664827
 31
0.0
  0
LINE
  5
8E7D
330
8E72
100
AcDbEntity
  8
contour
100
AcDbLine
 10
304.0457309951603
 20
180.7160360664827
 30
0.0
 11
310.4457309951603
 21
180.7160360664828
 31
0.0
  0
LINE
  5
8E7E
330
8E72
100
AcDbEntity
  8
contour
100
AcDbLine
 10
310.7457309951603
 20
181.0160360664828
 30
0.0
 11
310.4457309951603
 21
180.7160360664828
 31
0.0
  0
LINE
  5
8E7F
330
8E72
100
AcDbEntity
  8
contour
100
AcDbLine
 10
303.7457309951603
 20
181.0160360664827
 30
0.0
 11
304.0457309951603
 21
180.7160360664827
 31
0.0
  0
LINE
  5
8E80
330
8E72
100
AcDbEntity
  8
contour
100
AcDbLine
 10
309.2457309951603
 20
184.7160360664826
 30
0.0
 11
309.2457309951603
 21
195.9160360664827
 31
0.0
  0
LINE
  5
8E81
330
8E72
100
AcDbEntity
  8
contour
100
AcDbLine
 10
305.2457309951603
 20
184.7160360664826
 30
0.0
 11
305.2457309951603
 21
195.9160360664827
 31
0.0
  0
LINE
  5
8E82
330
8E72
100
AcDbEntity
  8
contour
100
AcDbLine
 10
306.0457309951603
 20
196.7160360664826
 30
0.0
 11
305.2457309951603
 21
195.9160360664826
 31
0.0
  0
LINE
  5
8E83
330
8E72
100
AcDbEntity
  8
contour
100
AcDbLine
 10
309.2457309951603
 20
195.9160360664827
 30
0.0
 11
305.2457309951603
 21
195.9160360664827
 31
0.0
  0
LINE
  5
8E84
330
8E72
100
AcDbEntity
  8
contour
 62
     4
100
AcDbLine
 10
308.8667309951603
 20
185.3724833225513
 30
0.0
 11
308.8667309951603
 21
196.2950360664826
 31
0.0
  0
LINE
  5
8E85
330
8E72
100
AcDbEntity
  8
contour
 62
     4
100
AcDbLine
 10
305.6247309951603
 20
185.3724833225513
 30
0.0
 11
305.6247309951603
 21
196.2950360664826
 31
0.0
  0
LINE
  5
8E86
330
8E72
100
AcDbEntity
  8
contour
100
AcDbLine
 10
310.7457309951603
 20
181.0160360664828
 30
0.0
 11
303.7457309951603
 21
181.0160360664828
 31
0.0
  0
LINE
  5
8E87
330
8E72
100
AcDbEntity
  8
bowle
 48
0.1
100
AcDbLine
 10
308.1117563989447
 20
180.7160360664827
 30
0.0
 11
308.1117563989447
 21
182.9160360664827
 31
0.0
  0
LINE
  5
8E88
330
8E72
100
AcDbEntity
  8
bowle
 48
0.1
100
AcDbLine
 10
308.9777818027293
 20
180.7160360664827
 30
0.0
 11
308.9777818027293
 21
182.9160360664827
 31
0.0
  0
LINE
  5
8E89
330
8E72
100
AcDbEntity
  8
bowle
 48
0.1
100
AcDbLine
 10
306.3797055913759
 20
180.7160360664827
 30
0.0
 11
306.3797055913759
 21
182.9160360664826
 31
0.0
  0
LINE
  5
8E8A
330
8E72
100
AcDbEntity
  8
bowle
 48
0.1
100
AcDbLine
 10
305.5136801875914
 20
180.7160360664827
 30
0.0
 11
305.5136801875914
 21
182.9160360664826
 31
0.0
  0
LINE
  5
8E8B
330
8E72
100
AcDbEntity
  8
bowle
 48
0.1
100
AcDbLine
 10
308.9777818027292
 20
182.9160360664827
 30
0.0
 11
305.5136801875914
 21
182.9160360664827
 31
0.0
  0
LINE
  5
8E8C
330
8E72
100
AcDbEntity
  8
bowle
 48
0.1
100
AcDbLine
 10
305.5136801875914
 20
182.9160360664826
 30
0.0
 11
307.2457309951603
 21
183.9160360664826
 31
0.0
  0
LINE
  5
8E8D
330
8E72
100
AcDbEntity
  8
bowle
 48
0.1
100
AcDbLine
 10
308.9777818027292
 20
182.9160360664826
 30
0.0
 11
307.2457309951603
 21
183.9160360664826
 31
0.0
  0
LINE
  5
8E8E
330
8E72
100
AcDbEntity
  8
contour
 62
     4
100
AcDbLine
 10
305.6247309951603
 20
185.3724833225513
 30
0.0
 11
305.2457309951603
 21
184.7160360664826
 31
0.0
  0
LINE
  5
8E8F
330
8E72
100
AcDbEntity
  8
contour
100
AcDbLine
 10
305.2457309951603
 20
185.3724833225513
 30
0.0
 11
309.2457309951603
 21
185.3724833225513
 31
0.0
  0
LINE
  5
8E90
330
8E72
100
AcDbEntity
  8
contour
 62
     4
100
AcDbLine
 10
309.2457309951603
 20
184.7160360664827
 30
0.0
 11
308.8667309951603
 21
185.3724833225513
 31
0.0
  0
ENDBLK
  5
8E77
330
8E72
100
AcDbEntity
  8
0
100
AcDbBlockEnd
  0
BLOCK
  5
9D19
330
9D15
100
AcDbEntity
  8
0
100
AcDbBlockBegin
  2
LS2
 70
     0
 10
0.0
 20
0.0
 30
0.0
  3
LS2
  1

  0
LINE
  5
9D1B
330
9D15
100
AcDbEntity
  8
contour
100
AcDbLine
 10
143.2797554375081
 20
0.0655328110734672
 30
0.0
 11
143.2797554375081
 21
3.765532811073398
 31
0.0
  0
LINE
  5
9D1C
330
9D15
100
AcDbEntity
  8
contour
100
AcDbLine
 10
143.2797554375081
 20
3.765532811073398
 30
0.0
 11
136.2797554375081
 21
3.765532811073398
 31
0.0
  0
LINE
  5
9D1D
330
9D15
100
AcDbEntity
  8
contour
100
AcDbLine
 10
140.979755437508
 20
19.7655328110734
 30
0.0
 11
138.5797554375081
 21
19.76553281107334
 31
0.0
  0
LINE
  5
9D1E
330
9D15
100
AcDbEntity
  8
contour
100
AcDbLine
 10
141.7797554375081
 20
18.96553281107333
 30
0.0
 11
140.9797554375081
 21
19.76553281107334
 31
0.0
  0
LINE
  5
9D1F
330
9D15
100
AcDbEntity
  8
contour
100
AcDbLine
 10
136.2797554375081
 20
3.765532811073398
 30
0.0
 11
136.2797554375081
 21
0.0655328110733535
 31
0.0
  0
LINE
  5
9D20
330
9D15
100
AcDbEntity
  8
contour
100
AcDbLine
 10
136.5797554375081
 20
-0.2344671889266578
 30
0.0
 11
142.9797554375081
 21
-0.2344671889265442
 31
0.0
  0
LINE
  5
9D21
330
9D15
100
AcDbEntity
  8
contour
100
AcDbLine
 10
143.2797554375081
 20
0.0655328110734672
 30
0.0
 11
142.9797554375081
 21
-0.2344671889265442
 31
0.0
  0
LINE
  5
9D22
330
9D15
100
AcDbEntity
  8
contour
100
AcDbLine
 10
136.2797554375081
 20
0.0655328110733535
 30
0.0
 11
136.5797554375081
 21
-0.2344671889266578
 31
0.0
  0
LINE
  5
9D23
330
9D15
100
AcDbEntity
  8
contour
100
AcDbLine
 10
141.7797554375081
 20
3.765532811073342
 30
0.0
 11
141.7797554375081
 21
18.96553281107339
 31
0.0
  0
LINE
  5
9D24
330
9D15
100
AcDbEntity
  8
contour
100
AcDbLine
 10
137.7797554375081
 20
3.765532811073342
 30
0.0
 11
137.7797554375081
 21
18.96553281107339
 31
0.0
  0
LINE
  5
9D25
330
9D15
100
AcDbEntity
  8
contour
100
AcDbLine
 10
138.5797554375081
 20
19.76553281107334
 30
0.0
 11
137.7797554375081
 21
18.96553281107333
 31
0.0
  0
LINE
  5
9D26
330
9D15
100
AcDbEntity
  8
contour
100
AcDbLine
 10
141.7797554375081
 20
18.96553281107339
 30
0.0
 11
137.7797554375081
 21
18.96553281107339
 31
0.0
  0
LINE
  5
9D27
330
9D15
100
AcDbEntity
  8
contour
 62
     4
100
AcDbLine
 10
141.400755437508
 20
4.42198006714193
 30
0.0
 11
141.4007554375081
 21
19.34453281107327
 31
0.0
  0
LINE
  5
9D28
330
9D15
100
AcDbEntity
  8
contour
 62
     4
100
AcDbLine
 10
138.1587554375081
 20
4.42198006714193
 30
0.0
 11
138.1587554375081
 21
19.34453281107336
 31
0.0
  0
LINE
  5
9D29
330
9D15
100
AcDbEntity
  8
contour
100
AcDbLine
 10
143.2797554375081
 20
0.0655328110734672
 30
0.0
 11
136.2797554375081
 21
0.0655328110735241
 31
0.0
  0
LINE
  5
9D2A
330
9D15
100
AcDbEntity
  8
bowle
 48
0.1
100
AcDbLine
 10
140.6457808412925
 20
-0.234467188926601
 30
0.0
 11
140.6457808412925
 21
1.965532811073387
 31
0.0
  0
LINE
  5
9D2B
330
9D15
100
AcDbEntity
  8
bowle
 48
0.1
100
AcDbLine
 10
141.511806245077
 20
-0.2344671889266578
 30
0.0
 11
141.511806245077
 21
1.965532811073387
 31
0.0
  0
LINE
  5
9D2C
330
9D15
100
AcDbEntity
  8
bowle
 48
0.1
100
AcDbLine
 10
138.9137300337237
 20
-0.234467188926601
 30
0.0
 11
138.9137300337237
 21
1.96553281107333
 31
0.0
  0
LINE
  5
9D2D
330
9D15
100
AcDbEntity
  8
bowle
 48
0.1
100
AcDbLine
 10
138.0477046299392
 20
-0.2344671889266578
 30
0.0
 11
138.0477046299391
 21
1.96553281107333
 31
0.0
  0
LINE
  5
9D2E
330
9D15
100
AcDbEntity
  8
bowle
 48
0.1
100
AcDbLine
 10
141.511806245077
 20
1.965532811073387
 30
0.0
 11
138.0477046299391
 21
1.965532811073387
 31
0.0
  0
LINE
  5
9D2F
330
9D15
100
AcDbEntity
  8
bowle
 48
0.1
100
AcDbLine
 10
138.0477046299391
 20
1.96553281107333
 30
0.0
 11
139.779755437508
 21
2.96553281107333
 31
0.0
  0
LINE
  5
9D30
330
9D15
100
AcDbEntity
  8
bowle
 48
0.1
100
AcDbLine
 10
141.511806245077
 20
1.96553281107333
 30
0.0
 11
139.779755437508
 21
2.96553281107333
 31
0.0
  0
LINE
  5
9D31
330
9D15
100
AcDbEntity
  8
contour
 62
     4
100
AcDbLine
 10
138.1587554375081
 20
4.421980067141987
 30
0.0
 11
137.7797554375081
 21
3.765532811073342
 31
0.0
  0
LINE
  5
9D32
330
9D15
100
AcDbEntity
  8
contour
100
AcDbLine
 10
137.7797554375081
 20
4.42198006714193
 30
0.0
 11
141.7797554375081
 21
4.42198006714193
 31
0.0
  0
LINE
  5
9D33
330
9D15
100
AcDbEntity
  8
contour
 62
     4
100
AcDbLine
 10
141.7797554375081
 20
3.765532811073398
 30
0.0
 11
141.400755437508
 21
4.42198006714193
 31
0.0
  0
ENDBLK
  5
9D1A
330
9D15
100
AcDbEntity
  8
0
100
AcDbBlockEnd
  0
BLOCK
  5
9DD2
330
9DC8
100
AcDbEntity
  8
0
100
AcDbBlockBegin
  2
*D5
 70
     1
 10
0.0
 20
0.0
 30
0.0
  3
*D5
  1

  0
LINE
  5
A294
330
9DC8
100
AcDbEntity
  8
mark
370
    -2
100
AcDbLine
 10
60.26148622057863
 20
41.54127681071903
 30
0.0
 11
60.26148622057863
 21
33.89930542821171
 31
0.0
  0
LINE
  5
A295
330
9DC8
100
AcDbEntity
  8
mark
370
    -2
100
AcDbLine
 10
28.26148622057866
 20
41.54127681071903
 30
0.0
 11
28.26148622057866
 21
33.89930542821171
 31
0.0
  0
LINE
  5
A296
330
9DC8
100
AcDbEntity
  8
mark
370
    -2
100
AcDbLine
 10
59.01148622057863
 20
34.29930542821171
 30
0.0
 11
29.51148622057866
 21
34.29930542821171
 31
0.0
  0
INSERT
  5
A297
330
9DC8
100
AcDbEntity
  8
mark
370
    -2
100
AcDbBlockReference
  2
_Open30
 10
60.26148622057863
 20
34.29930542821171
 30
0.0
 41
1.25
 42
1.25
 43
1.25
  0
INSERT
  5
A298
330
9DC8
100
AcDbEntity
  8
mark
370
    -2
100
AcDbBlockReference
  2
_Open30
 10
28.26148622057866
 20
34.29930542821171
 30
0.0
 41
1.25
 42
1.25
 43
1.25
 50
180.0
  0
MTEXT
  5
A299
330
9DC8
100
AcDbEntity
  8
mark
 62
     3
100
AcDbMText
 10
44.26148622057865
 20
35.32430542821171
 30
0.0
 40
1.25
 41
0.0
 71
     5
 72
     1
  1
\A1;M32X1.5P
 73
     1
 44
1.0
  0
POINT
  5
A29A
330
9DC8
100
AcDbEntity
  8
DEFPOINTS
 62
     0
100
AcDbPoint
 10
60.26148622057863
 20
41.94127681071903
 30
0.0
  0
POINT
  5
A29B
330
9DC8
100
AcDbEntity
  8
DEFPOINTS
 62
     0
100
AcDbPoint
 10
28.26148622057866
 20
41.94127681071903
 30
0.0
  0
POINT
  5
A29C
330
9DC8
100
AcDbEntity
  8
DEFPOINTS
 62
     0
100
AcDbPoint
 10
28.26148622057866
 20
34.29930542821171
 30
0.0
  0
ENDBLK
  5
9DD3
330
9DC8
100
AcDbEntity
  8
0
100
AcDbBlockEnd
  0
BLOCK
  5
9DDF
330
9DD5
100
AcDbEntity
  8
0
100
AcDbBlockBegin
  2
*D6
 70
     1
 10
0.0
 20
0.0
 30
0.0
  3
*D6
  1

  0
LINE
  5
A38B
330
9DD5
100
AcDbEntity
  8
mark
370
    -2
100
AcDbLine
 10
68.66148622057867
 20
63.25327681071904
 30
0.0
 11
74.642417935385
 21
63.25327681071904
 31
0.0
  0
LINE
  5
A38C
330
9DD5
100
AcDbEntity
  8
mark
370
    -2
100
AcDbLine
 10
68.66148622057867
 20
48.35327681071905
 30
0.0
 11
74.642417935385
 21
48.35327681071905
 31
0.0
  0
LINE
  5
A38D
330
9DD5
100
AcDbEntity
  8
mark
370
    -2
100
AcDbLine
 10
74.24241793538499
 20
62.00327681071904
 30
0.0
 11
74.24241793538499
 21
49.60327681071905
 31
0.0
  0
INSERT
  5
A38E
330
9DD5
100
AcDbEntity
  8
mark
370
    -2
100
AcDbBlockReference
  2
_Open30
 10
74.24241793538499
 20
63.25327681071904
 30
0.0
 41
1.25
 42
1.25
 43
1.25
 50
90.0
  0
INSERT
  5
A38F
330
9DD5
100
AcDbEntity
  8
mark
370
    -2
100
AcDbBlockReference
  2
_Open30
 10
74.24241793538499
 20
48.35327681071905
 30
0.0
 41
1.25
 42
1.25
 43
1.25
 50
270.0
  0
MTEXT
  5
A390
330
9DD5
100
AcDbEntity
  8
mark
 62
     3
100
AcDbMText
 10
73.21741793538497
 20
55.80327681071905
 30
0.0
 40
1.25
 41
0.0
 71
     5
 72
     1
  1
\A1;14.9
 11
0.0000000000000001
 21
1.0
 31
0.0
 73
     1
 44
1.0
  0
POINT
  5
A391
330
9DD5
100
AcDbEntity
  8
DEFPOINTS
 62
     0
100
AcDbPoint
 10
68.26148622057866
 20
63.25327681071904
 30
0.0
  0
POINT
  5
A392
330
9DD5
100
AcDbEntity
  8
DEFPOINTS
 62
     0
100
AcDbPoint
 10
68.26148622057866
 20
48.35327681071905
 30
0.0
  0
POINT
  5
A393
330
9DD5
100
AcDbEntity
  8
DEFPOINTS
 62
     0
100
AcDbPoint
 10
74.24241793538499
 20
48.35327681071905
 30
0.0
  0
ENDBLK
  5
9DE0
330
9DD5
100
AcDbEntity
  8
0
100
AcDbBlockEnd
  0
BLOCK
  5
9DEE
330
9DE2
100
AcDbEntity
  8
0
100
AcDbBlockBegin
  2
*D7
 70
     1
 10
0.0
 20
0.0
 30
0.0
  3
*D7
  1

  0
LINE
  5
A377
330
9DE2
100
AcDbEntity
  8
mark
370
    -2
100
AcDbLine
 10
68.66148622057867
 20
48.35327681071905
 30
0.0
 11
74.642417935385
 21
48.35327681071905
 31
0.0
  0
LINE
  5
A378
330
9DE2
100
AcDbEntity
  8
mark
370
    -2
100
AcDbLine
 10
68.66148622057867
 20
46.35327681071904
 30
0.0
 11
74.642417935385
 21
46.35327681071904
 31
0.0
  0
LINE
  5
A379
330
9DE2
100
AcDbEntity
  8
mark
370
    -2
100
AcDbLine
 10
74.24241793538499
 20
49.60327681071905
 30
0.0
 11
74.24241793538499
 21
50.85327681071905
 31
0.0
  0
LINE
  5
A37A
330
9DE2
100
AcDbEntity
  8
mark
370
    -2
100
AcDbLine
 10
74.24241793538499
 20
45.10327681071904
 30
0.0
 11
74.24241793538499
 21
43.85327681071904
 31
0.0
  0
LINE
  5
A37B
330
9DE2
100
AcDbEntity
  8
mark
370
    -2
100
AcDbLine
 10
74.24241793538499
 20
48.35327681071905
 30
0.0
 11
74.24241793538499
 21
46.35327681071904
 31
0.0
  0
INSERT
  5
A37C
330
9DE2
100
AcDbEntity
  8
mark
370
    -2
100
AcDbBlockReference
  2
_Open30
 10
74.24241793538499
 20
48.35327681071905
 30
0.0
 41
1.25
 42
1.25
 43
1.25
 50
270.0
  0
INSERT
  5
A37D
330
9DE2
100
AcDbEntity
  8
mark
370
    -2
100
AcDbBlockReference
  2
_Open30
 10
74.24241793538499
 20
46.35327681071904
 30
0.0
 41
1.25
 42
1.25
 43
1.25
 50
90.0
  0
MTEXT
  5
A37E
330
9DE2
100
AcDbEntity
  8
mark
 62
     3
100
AcDbMText
 10
73.21741793538497
 20
47.35327681071905
 30
0.0
 40
1.25
 41
0.0
 71
     5
 72
     1
  1
\A1;2
 11
0.0000000000000001
 21
1.0
 31
0.0
 73
     1
 44
1.0
  0
POINT
  5
A37F
330
9DE2
100
AcDbEntity
  8
DEFPOINTS
 62
     0
100
AcDbPoint
 10
68.26148622057866
 20
48.35327681071905
 30
0.0
  0
POINT
  5
A380
330
9DE2
100
AcDbEntity
  8
DEFPOINTS
 62
     0
100
AcDbPoint
 10
68.26148622057866
 20
46.35327681071904
 30
0.0
  0
POINT
  5
A381
330
9DE2
100
AcDbEntity
  8
DEFPOINTS
 62
     0
100
AcDbPoint
 10
74.24241793538499
 20
46.35327681071904
 30
0.0
  0
ENDBLK
  5
9DEF
330
9DE2
100
AcDbEntity
  8
0
100
AcDbBlockEnd
  0
BLOCK
  5
9DFB
330
9DF1
100
AcDbEntity
  8
0
100
AcDbBlockBegin
  2
*D8
 70
     1
 10
0.0
 20
0.0
 30
0.0
  3
*D8
  1

  0
LINE
  5
A36E
330
9DF1
100
AcDbEntity
  8
mark
370
    -2
100
AcDbLine
 10
68.66148622057867
 20
63.25327681071904
 30
0.0
 11
78.98249709067457
 21
63.25327681071904
 31
0.0
  0
LINE
  5
A36F
330
9DF1
100
AcDbEntity
  8
mark
370
    -2
100
AcDbLine
 10
68.66148622057895
 20
41.25327681071904
 30
0.0
 11
78.98249709067457
 21
41.25327681071904
 31
0.0
  0
LINE
  5
A370
330
9DF1
100
AcDbEntity
  8
mark
370
    -2
100
AcDbLine
 10
78.58249709067457
 20
62.00327681071904
 30
0.0
 11
78.58249709067457
 21
42.50327681071904
 31
0.0
  0
INSERT
  5
A371
330
9DF1
100
AcDbEntity
  8
mark
370
    -2
100
AcDbBlockReference
  2
_Open30
 10
78.58249709067457
 20
63.25327681071904
 30
0.0
 41
1.25
 42
1.25
 43
1.25
 50
90.0
  0
INSERT
  5
A372
330
9DF1
100
AcDbEntity
  8
mark
370
    -2
100
AcDbBlockReference
  2
_Open30
 10
78.58249709067457
 20
41.25327681071904
 30
0.0
 41
1.25
 42
1.25
 43
1.25
 50
270.0
  0
MTEXT
  5
A373
330
9DF1
100
AcDbEntity
  8
mark
 62
     3
100
AcDbMText
 10
77.55749709067455
 20
52.25327681071905
 30
0.0
 40
1.25
 41
0.0
 71
     5
 72
     1
  1
\A1;22%%P0.2
 11
0.0000000000000001
 21
1.0
 31
0.0
 73
     1
 44
1.0
  0
POINT
  5
A374
330
9DF1
100
AcDbEntity
  8
DEFPOINTS
 62
     0
100
AcDbPoint
 10
68.26148622057866
 20
63.25327681071904
 30
0.0
  0
POINT
  5
A375
330
9DF1
100
AcDbEntity
  8
DEFPOINTS
 62
     0
100
AcDbPoint
 10
68.26148622057894
 20
41.25327681071904
 30
0.0
  0
POINT
  5
A376
330
9DF1
100
AcDbEntity
  8
DEFPOINTS
 62
     0
100
AcDbPoint
 10
78.58249709067457
 20
41.25327681071904
 30
0.0
  0
ENDBLK
  5
9DFC
330
9DF1
100
AcDbEntity
  8
0
100
AcDbBlockEnd
  0
BLOCK
  5
A137
330
A130
100
AcDbEntity
  8
0
100
AcDbBlockBegin
  2
*D9
 70
     1
 10
0.0
 20
0.0
 30
0.0
  3
*D9
  1

  0
LINE
  5
A2BA
330
A130
100
AcDbEntity
  8
mark
370
    -2
100
AcDbLine
 10
16.04241575949898
 20
38.03420634963927
 30
0.0
 11
18.67049596290894
 21
40.66228655304931
 31
0.0
  0
MTEXT
  5
A2BB
330
A130
100
AcDbEntity
  8
mark
 62
     3
100
AcDbMText
 10
16.18972967224615
 20
39.63108916381889
 30
0.0
 40
1.25
 41
0.0
 71
     5
 72
     1
  1
\A1;R1
 11
0.7071067811865368
 21
0.7071067811865584
 31
0.0
 73
     1
 44
1.0
  0
LINE
  5
A2BC
330
A130
100
AcDbEntity
  8
mark
370
    -2
100
AcDbLine
 10
20.26148622057864
 20
42.25327681071905
 30
0.0
 11
19.55437943939211
 21
41.5461700295325
 31
0.0
  0
INSERT
  5
A2BD
330
A130
100
AcDbEntity
  8
mark
370
    -2
100
AcDbBlockReference
  2
_Open30
 10
19.55437943939211
 20
41.5461700295325
 30
0.0
 41
1.25
 42
1.25
 43
1.25
 50
45.00000000000087
  0
POINT
  5
A2BE
330
A130
100
AcDbEntity
  8
DEFPOINTS
 62
     0
100
AcDbPoint
 10
19.55437943939211
 20
41.5461700295325
 30
0.0
  0
POINT
  5
A2BF
330
A130
100
AcDbEntity
  8
DEFPOINTS
 62
     0
100
AcDbPoint
 10
20.26148622057864
 20
42.25327681071905
 30
0.0
  0
ENDBLK
  5
A138
330
A130
100
AcDbEntity
  8
0
100
AcDbBlockEnd
  0
BLOCK
  5
A14A
330
A140
100
AcDbEntity
  8
0
100
AcDbBlockBegin
  2
*D10
 70
     1
 10
0.0
 20
0.0
 30
0.0
  3
*D10
  1

  0
LINE
  5
A2C0
330
A140
100
AcDbEntity
  8
mark
370
    -2
100
AcDbLine
 10
19.26148622057869
 20
62.65327681071904
 30
0.0
 11
19.26148622057869
 21
68.61719862751764
 31
0.0
  0
LINE
  5
A2C1
330
A140
100
AcDbEntity
  8
mark
370
    -2
100
AcDbLine
 10
69.26148622057866
 20
62.65327681071904
 30
0.0
 11
69.26148622057866
 21
68.61719862751764
 31
0.0
  0
LINE
  5
A2C2
330
A140
100
AcDbEntity
  8
mark
370
    -2
100
AcDbLine
 10
20.51148622057869
 20
68.21719862751763
 30
0.0
 11
68.01148622057866
 21
68.21719862751763
 31
0.0
  0
INSERT
  5
A2C3
330
A140
100
AcDbEntity
  8
mark
370
    -2
100
AcDbBlockReference
  2
_Open30
 10
19.26148622057869
 20
68.21719862751763
 30
0.0
 41
1.25
 42
1.25
 43
1.25
 50
180.0
  0
INSERT
  5
A2C4
330
A140
100
AcDbEntity
  8
mark
370
    -2
100
AcDbBlockReference
  2
_Open30
 10
69.26148622057866
 20
68.21719862751763
 30
0.0
 41
1.25
 42
1.25
 43
1.25
  0
MTEXT
  5
A2C5
330
A140
100
AcDbEntity
  8
mark
 62
     3
100
AcDbMText
 10
44.26148622057867
 20
69.24219862751764
 30
0.0
 40
1.25
 41
0.0
 71
     5
 72
     1
  1
\A1;%%C50
 73
     1
 44
1.0
  0
POINT
  5
A2C6
330
A140
100
AcDbEntity
  8
DEFPOINTS
 62
     0
100
AcDbPoint
 10
19.26148622057869
 20
62.25327681071904
 30
0.0
  0
POINT
  5
A2C7
330
A140
100
AcDbEntity
  8
DEFPOINTS
 62
     0
100
AcDbPoint
 10
69.26148622057866
 20
62.25327681071904
 30
0.0
  0
POINT
  5
A2C8
330
A140
100
AcDbEntity
  8
DEFPOINTS
 62
     0
100
AcDbPoint
 10
69.26148622057866
 20
68.21719862751763
 30
0.0
  0
ENDBLK
  5
A14B
330
A140
100
AcDbEntity
  8
0
100
AcDbBlockEnd
  0
BLOCK
  5
A27E
330
A275
100
AcDbEntity
  8
0
100
AcDbBlockBegin
  2
*D11
 70
     1
 10
0.0
 20
0.0
 30
0.0
  3
*D11
  1

  0
LINE
  5
A2C9
330
A275
100
AcDbEntity
  8
mark
370
    -2
100
AcDbLine
 10
78.10329767396798
 20
109.6030993721516
 30
0.0
 11
64.94542001599015
 21
105.3245018018483
 31
0.0
  0
LINE
  5
A2CA
330
A275
100
AcDbEntity
  8
mark
370
    -2
100
AcDbLine
 10
23.57755242516718
 20
91.87275355159711
 30
0.0
 11
22.38882059784468
 21
91.48620906164735
 31
0.0
  0
MTEXT
  5
A2CB
330
A275
100
AcDbEntity
  8
mark
 62
     3
100
AcDbMText
 10
73.83974152549848
 20
109.2945317639229
 30
0.0
 40
1.25
 41
0.0
 71
     5
 72
     1
  1
\A1;P.C.D 41
 11
0.9509854618579996
 21
0.3092355919597989
 31
0.0
 73
     1
 44
1.0
  0
LINE
  5
A2CC
330
A275
100
AcDbEntity
  8
mark
370
    -2
100
AcDbLine
 10
24.76628425248968
 20
92.25929804154686
 30
0.0
 11
63.75668818866765
 21
104.9379573118986
 31
0.0
  0
INSERT
  5
A2CD
330
A275
100
AcDbEntity
  8
mark
370
    -2
100
AcDbBlockReference
  2
_Open30
 10
24.76628425248968
 20
92.25929804154686
 30
0.0
 41
1.25
 42
1.25
 43
1.25
 50
18.01316976082805
  0
INSERT
  5
A2CE
330
A275
100
AcDbEntity
  8
mark
370
    -2
100
AcDbBlockReference
  2
_Open30
 10
63.75668818866765
 20
104.9379573118986
 30
0.0
 41
1.25
 42
1.25
 43
1.25
 50
198.013169760828
  0
POINT
  5
A2CF
330
A275
100
AcDbEntity
  8
DEFPOINTS
 62
     0
100
AcDbPoint
 10
63.75668818866765
 20
104.9379573118986
 30
0.0
  0
POINT
  5
A2D0
330
A275
100
AcDbEntity
  8
DEFPOINTS
 62
     0
100
AcDbPoint
 10
24.76628425248968
 20
92.25929804154686
 30
0.0
  0
ENDBLK
  5
A27F
330
A275
100
AcDbEntity
  8
0
100
AcDbBlockEnd
  0
BLOCK
  5
A28A
330
A281
100
AcDbEntity
  8
0
100
AcDbBlockBegin
  2
*D12
 70
     1
 10
0.0
 20
0.0
 30
0.0
  3
*D12
  1

  0
LINE
  5
A2D1
330
A281
100
AcDbEntity
  8
mark
370
    -2
100
AcDbLine
 10
9.64898070896077
 20
110.851307661439
 30
0.0
 11
23.0512331033658
 21
106.1069672204408
 31
0.0
  0
LINE
  5
A2D2
330
A281
100
AcDbEntity
  8
mark
370
    -2
100
AcDbLine
 10
65.47173933779159
 20
91.09028813300467
 30
0.0
 11
66.65008673319229
 21
90.67315815835367
 31
0.0
  0
MTEXT
  5
A2D3
330
A281
100
AcDbEntity
  8
mark
 62
     3
100
AcDbMText
 10
14.8850968037389
 20
110.0850726976171
 30
0.0
 40
1.25
 41
0.0
 71
     5
 72
     1
  1
\A1;P.C.D 42.5
 11
0.9426779163205734
 21
-0.3337039797208026
 31
0.0
 73
     1
 44
1.0
  0
LINE
  5
A2D4
330
A281
100
AcDbEntity
  8
mark
370
    -2
100
AcDbLine
 10
64.29339194239087
 20
91.50741810765568
 30
0.0
 11
24.22958049876652
 21
105.6898372457898
 31
0.0
  0
INSERT
  5
A2D5
330
A281
100
AcDbEntity
  8
mark
370
    -2
100
AcDbBlockReference
  2
_Open30
 10
64.29339194239087
 20
91.50741810765568
 30
0.0
 41
1.25
 42
1.25
 43
1.25
 50
160.5062531174955
  0
INSERT
  5
A2D6
330
A281
100
AcDbEntity
  8
mark
370
    -2
100
AcDbBlockReference
  2
_Open30
 10
24.22958049876652
 20
105.6898372457898
 30
0.0
 41
1.25
 42
1.25
 43
1.25
 50
340.5062531174956
  0
POINT
  5
A2D7
330
A281
100
AcDbEntity
  8
DEFPOINTS
 62
     0
100
AcDbPoint
 10
24.22958049876652
 20
105.6898372457898
 30
0.0
  0
POINT
  5
A2D8
330
A281
100
AcDbEntity
  8
DEFPOINTS
 62
     0
100
AcDbPoint
 10
64.29339194239087
 20
91.50741810765568
 30
0.0
  0
ENDBLK
  5
A28B
330
A281
100
AcDbEntity
  8
0
100
AcDbBlockEnd
  0
BLOCK
  5
A322
330
A318
100
AcDbEntity
  8
0
100
AcDbBlockBegin
  2
*D13
 70
     1
 10
0.0
 20
0.0
 30
0.0
  3
*D13
  1

  0
LINE
  5
A319
330
A318
100
AcDbEntity
  8
mark
370
    -2
100
AcDbLine
 10
19.86148622057869
 20
63.25327681071904
 30
0.0
 11
14.97595932627335
 21
63.25327681071905
 31
0.0
  0
LINE
  5
A31A
330
A318
100
AcDbEntity
  8
mark
370
    -2
100
AcDbLine
 10
17.86148622057866
 20
56.25327681071905
 30
0.0
 11
14.97595932627334
 21
56.25327681071905
 31
0.0
  0
LINE
  5
A31B
330
A318
100
AcDbEntity
  8
mark
370
    -2
100
AcDbLine
 10
15.37595932627335
 20
62.00327681071905
 30
0.0
 11
15.37595932627334
 21
57.50327681071905
 31
0.0
  0
INSERT
  5
A31C
330
A318
100
AcDbEntity
  8
mark
370
    -2
100
AcDbBlockReference
  2
_Open30
 10
15.37595932627335
 20
63.25327681071905
 30
0.0
 41
1.25
 42
1.25
 43
1.25
 50
90.0
  0
INSERT
  5
A31D
330
A318
100
AcDbEntity
  8
mark
370
    -2
100
AcDbBlockReference
  2
_Open30
 10
15.37595932627334
 20
56.25327681071905
 30
0.0
 41
1.25
 42
1.25
 43
1.25
 50
270.0
  0
MTEXT
  5
A31E
330
A318
100
AcDbEntity
  8
mark
 62
     3
100
AcDbMText
 10
14.35095932627334
 20
59.75327681071905
 30
0.0
 40
1.25
 41
0.0
 71
     5
 72
     1
  1
\A1;7
 11
0.0000000000000001
 21
1.0
 31
0.0
 73
     1
 44
1.0
  0
POINT
  5
A31F
330
A318
100
AcDbEntity
  8
DEFPOINTS
 62
     0
100
AcDbPoint
 10
20.26148622057869
 20
63.25327681071904
 30
0.0
  0
POINT
  5
A320
330
A318
100
AcDbEntity
  8
DEFPOINTS
 62
     0
100
AcDbPoint
 10
18.26148622057866
 20
56.25327681071905
 30
0.0
  0
POINT
  5
A321
330
A318
100
AcDbEntity
  8
DEFPOINTS
 62
     0
100
AcDbPoint
 10
15.37595932627334
 20
56.25327681071905
 30
0.0
  0
ENDBLK
  5
A323
330
A318
100
AcDbEntity
  8
0
100
AcDbBlockEnd
  0
ENDSEC
  0
SECTION
  2
ENTITIES
  0
MTEXT
  5
C0
330
18
100
AcDbEntity
  8
0
100
AcDbMText
 10
41.26970765600413
 20
233.6950877649332
 30
0.0
 40
2.5
 41
0.0
 71
     1
 72
     5
  1

  7
ISOCP3
 73
     1
 44
1.0
  0
LWPOLYLINE
  5
7D6C
330
18
100
AcDbEntity
  8
frame
100
AcDbPolyline
 90
        4
 70
     1
 43
0.0
 10
95.0
 20
140.0
 10
0.0
 20
140.0
 10
0.0
 20
0.0
 10
95.0
 20
0.0
  0
MTEXT
  5
7D6D
330
18
100
AcDbEntity
  8
0
100
AcDbMText
 10
8.549751843445875
 20
9.53802950808307
 30
0.0
 40
2.25
 41
0.0
 71
     1
 72
     5
  1
{\Ftxt,bigfont|c128;林彦旭}
  7
JL
 73
     1
 44
1.0
1001
ACAD
1000
ACAD_MTEXT_DEFINED_HEIGHT_BEGIN
1070
    46
1040
0.0
1000
ACAD_MTEXT_DEFINED_HEIGHT_END
  0
MTEXT
  5
7D6E
330
18
100
AcDbEntity
  8
0
100
AcDbMText
 10
38.97647364614426
 20
14.46789489935338
 30
0.0
 40
2.25
 41
0.0
 71
     1
 72
     5
  1
{\Ftxt,bigfont|c128;2 : 1}
  7
JL
 73
     1
 44
1.0
1001
ACAD
1000
ACAD_MTEXT_DEFINED_HEIGHT_BEGIN
1070
    46
1040
0.0
1000
ACAD_MTEXT_DEFINED_HEIGHT_END
  0
MTEXT
  5
7D6F
330
18
100
AcDbEntity
  8
0
 48
2.0
370
    25
100
AcDbMText
 10
70.1097250232828
 20
1.745010827316946
 30
0.0
 40
2.25
 41
0.0
 71
     5
 72
     1
  1
{\Ftxt,bigfont|c128;N L 4 0 2 7 1}
 73
     1
 44
1.0
1001
ACAD
1000
ACAD_MTEXT_DEFINED_HEIGHT_BEGIN
1070
    46
1040
0.0
1000
ACAD_MTEXT_DEFINED_HEIGHT_END
  0
MTEXT
  5
7D70
330
18
100
AcDbEntity
  8
0
 48
2.0
100
AcDbMText
 10
85.46644998221655
 20
10.88218563911846
 30
0.0
 40
2.159090909090911
 41
0.0
 71
     5
 72
     1
  1
\P{\Ftxt,bigfont|c128;MKR32X1.5P}
 73
     1
 44
1.0
1001
ACAD
1000
ACAD_MTEXT_DEFINED_HEIGHT_BEGIN
1070
    46
1040
0.0
1000
ACAD_MTEXT_DEFINED_HEIGHT_END
  0
MTEXT
  5
7D71
330
18
100
AcDbEntity
  8
0
100
AcDbMText
 10
7.6880338568387
 20
14.18870179917354
 30
0.0
 40
2.25
 41
0.0
 71
     1
 72
     5
  1
{\Ftxt,bigfont|c128;06.07.10}
  7
JL
 73
     1
 44
1.0
1001
ACAD
1000
ACAD_MTEXT_DEFINED_HEIGHT_BEGIN
1070
    46
1040
0.0
1000
ACAD_MTEXT_DEFINED_HEIGHT_END
  0
LINE
  5
7D72
330
18
100
AcDbEntity
  8
0
 62
     7
 48
5.0
100
AcDbLine
 39
1.919191919191921
 10
23.96471206996267
 20
13.82856453508043
 30
0.0
 11
26.52290072143927
 21
14.46811169794961
 31
0.0
  0
MTEXT
  5
7D73
330
18
100
AcDbEntity
  8
0
100
AcDbMText
 10
7.456177741632075
 20
4.621097525024651
 30
0.0
 40
3.0
 41
0.0
 71
     1
 72
     5
  1
\Ftxt.shx,bigfont.shx|c128;日機株式会社
  7
LKK
 73
     1
 44
1.0
  0
LINE
  5
7D74
330
18
100
AcDbEntity
  8
frame
100
AcDbLine
 10
0.0
 20
6.0
 30
0.0
 11
95.0
 21
6.000000000000028
 31
0.0
  0
LINE
  5
7D75
330
18
100
AcDbEntity
  8
frame
100
AcDbLine
 10
0.0
 20
11.0
 30
0.0
 11
46.06060606060611
 21
11.0
 31
0.0
  0
LINE
  5
7D76
330
18
100
AcDbEntity
  8
frame
100
AcDbLine
 10
0.0
 20
16.0
 30
0.0
 11
95.0
 21
16.0
 31
0.0
  0
LINE
  5
7D77
330
18
100
AcDbEntity
  8
frame
100
AcDbLine
 10
6.095386662468996
 20
16.0
 30
0.0
 11
6.095386662468996
 21
6.0
 31
0.0
  0
LINE
  5
7D78
330
18
100
AcDbEntity
  8
frame
100
AcDbLine
 10
15.35353535353533
 20
16.0
 30
0.0
 11
15.35353535353539
 21
6.0
 31
0.0
  0
MTEXT
  5
7D79
330
18
100
AcDbEntity
  8
0
100
AcDbMText
 10
1.415137392110977
 20
14.54095044791415
 30
0.0
 40
2.25
 41
0.0
 71
     1
 72
     5
  1
\Ftxt.shx,bigfont.shx|c128;日 付
  7
JL
 73
     1
 44
1.0
  0
MTEXT
  5
7D7A
330
18
100
AcDbEntity
  8
0
100
AcDbMText
 10
1.485316538719445
 20
9.760819214633187
 30
0.0
 40
2.25
 41
0.0
 71
     1
 72
     5
  1
\Ftxt.shx,bigfont.shx|c128;製 図
  7
JL
 73
     1
 44
1.0
  0
LINE
  5
7D7B
330
18
100
AcDbEntity
  8
0
 62
     7
370
    25
100
AcDbLine
 10
26.52290072143927
 20
11.90992304647298
 30
0.0
 11
26.52290072143927
 21
14.46811169794961
 31
0.0
  0
MTEXT
  5
7D7C
330
18
100
AcDbEntity
  8
0
100
AcDbMText
 10
32.00374426245418
 20
14.56121351896189
 30
0.0
 40
2.25
 41
0.0
 71
     1
 72
     5
  1
\Ftxt.shx,bigfont.shx|c128;尺 度
  7
JL
 73
     1
 44
1.0
  0
LINE
  5
7D7D
330
18
100
AcDbEntity
  8
frame
100
AcDbLine
 10
30.70707070707073
 20
16.0
 30
0.0
 11
30.70707070707073
 21
6.0
 31
0.0
  0
LINE
  5
7D7E
330
18
100
AcDbEntity
  8
0
 62
     7
370
    25
100
AcDbLine
 10
19.8076555113131
 20
11.59444509166317
 30
0.0
 11
19.8076555113131
 21
14.68228996214836
 31
0.0
  0
CIRCLE
  5
7D7F
330
18
100
AcDbEntity
  8
0
 62
     7
100
AcDbCircle
 10
19.8076555113131
 20
13.18901737221125
 30
0.0
 40
1.279094325738339
  0
LINE
  5
7D80
330
18
100
AcDbEntity
  8
0
 62
     7
370
    25
100
AcDbLine
 10
23.59660993459988
 20
13.18901737221131
 30
0.0
 11
26.75256290812121
 21
13.18901737221131
 31
0.0
  0
LINE
  5
7D81
330
18
100
AcDbEntity
  8
0
 62
     7
100
AcDbLine
 10
23.96471206996267
 20
12.54947020934213
 30
0.0
 11
26.52290072143927
 21
11.90992304647298
 31
0.0
  0
LINE
  5
7D82
330
18
100
AcDbEntity
  8
frame
100
AcDbLine
 10
21.3711209799755
 20
11.0
 30
0.0
 11
21.3711209799755
 21
6.0
 31
0.0
  0
LINE
  5
7D83
330
18
100
AcDbEntity
  8
0
 62
     7
370
    25
100
AcDbLine
 10
18.20916114243306
 20
13.18901737221125
 30
0.0
 11
21.50162633809634
 21
13.18901737221131
 31
0.0
  0
CIRCLE
  5
7D84
330
18
100
AcDbEntity
  8
0
 62
     7
100
AcDbCircle
 10
19.8076555113131
 20
13.18901737221125
 30
0.0
 40
0.6395471628691697
  0
MTEXT
  5
7D85
330
18
100
AcDbEntity
  8
0
100
AcDbMText
 10
16.85092016231203
 20
9.705069078926328
 30
0.0
 40
2.25
 41
0.0
 71
     1
 72
     5
  1
\Ftxt.shx,bigfont.shx|c128;検 図
  7
JL
 73
     1
 44
1.0
  0
LINE
  5
7D86
330
18
100
AcDbEntity
  8
0
 62
     7
370
    25
100
AcDbLine
 10
23.96471206996267
 20
12.54947020934213
 30
0.0
 11
23.96471206996267
 21
13.82856453508043
 31
0.0
  0
MTEXT
  5
7D87
330
18
100
AcDbEntity
  8
0
100
AcDbMText
 10
32.14410124959915
 20
9.660292673744407
 30
0.0
 40
2.25
 41
0.0
 71
     1
 72
     5
  1
\Ftxt.shx,bigfont.shx|c128;承 認
  7
JL
 73
     1
 44
1.0
  0
MTEXT
  5
7D88
330
18
100
AcDbEntity
  8
0
100
AcDbMText
 10
46.85564357803349
 20
5.351341098095701
 30
0.0
 40
2.25
 41
0.0
 71
     1
 72
     5
  1
\Ftxt.shx,bigfont.shx|c128;図  面  番  号
  7
JL
 73
     1
 44
1.0
  0
MTEXT
  5
7D89
330
18
100
AcDbEntity
  8
0
 48
2.0
100
AcDbMText
 10
58.45190950106922
 20
10.9378736574792
 30
0.0
 40
2.25
 41
0.0
 71
     5
 72
     1
  1
\P\Ftxt.shx,bigfont.shx|c128;    精密ロックナット
 73
     1
 44
1.0
  0
MTEXT
  5
7D8A
330
18
100
AcDbEntity
  8
0
100
AcDbMText
 10
47.4041806515616
 20
14.51931228986637
 30
0.0
 40
2.25
 41
0.0
 71
     1
 72
     5
  1
\Ftxt.shx,bigfont.shx|c128;品  名
  7
JL
 73
     1
 44
1.0
  0
LINE
  5
7D8B
330
18
100
AcDbEntity
  8
frame
100
AcDbLine
 10
46.06060606060611
 20
16.0
 30
0.0
 11
46.06060606060611
 21
0.0916613789792393
 31
0.0
  0
LINE
  5
7D8C
330
18
100
AcDbEntity
  8
frame
100
AcDbLine
 10
36.70707070707073
 20
16.0
 30
0.0
 11
36.70707070707073
 21
6.0
 31
0.0
  0
LINE
  5
7D8D
330
18
100
AcDbEntity
  8
frame
100
AcDbLine
 10
73.51635463703281
 20
16.0
 30
0.0
 11
73.51635463703286
 21
6.0
 31
0.0
  0
MTEXT
  5
7D8E
330
18
100
AcDbEntity
  8
0
100
AcDbMText
 10
75.44797972338654
 20
14.52258891415195
 30
0.0
 40
2.25
 41
0.0
 71
     1
 72
     5
  1
\Ftxt.shx,bigfont.shx|c128;型  番
  7
JL
 73
     1
 44
1.0
  0
MTEXT
  5
7D8F
330
18
100
AcDbEntity
  8
0
100
AcDbMText
 10
82.90298074051628
 20
5.391490874857822
 30
0.0
 40
2.25
 41
0.0
 71
     1
 72
     5
  1
\Ftxt.shx,bigfont.shx|c128;変更
  7
JL
 73
     1
 44
1.0
  0
LINE
  5
7D90
330
18
100
AcDbEntity
  8
frame
100
AcDbLine
 10
82.04545454545462
 20
6.000000000000028
 30
0.0
 11
82.04545454545467
 21
0.0
 31
0.0
  0
LINE
  5
7D91
330
18
100
AcDbEntity
  8
frame
100
AcDbLine
 10
62.30789503931965
 20
21.56745674462246
 30
0.0
 11
92.30789503931964
 21
21.56745674462241
 31
0.0
  0
LINE
  5
7D92
330
18
100
AcDbEntity
  8
frame
100
AcDbLine
 10
62.30789503931965
 20
25.16745674462248
 30
0.0
 11
92.30789503931964
 21
25.16745674462248
 31
0.0
  0
LINE
  5
7D93
330
18
100
AcDbEntity
  8
frame
100
AcDbLine
 10
62.30789503931965
 20
28.76745674462245
 30
0.0
 11
92.30789503931964
 21
28.7674567446224
 31
0.0
  0
LINE
  5
7D94
330
18
100
AcDbEntity
  8
frame
100
AcDbLine
 10
62.30789503931965
 20
32.36745674462247
 30
0.0
 11
92.30789503931964
 21
32.36745674462242
 31
0.0
  0
LINE
  5
7D95
330
18
100
AcDbEntity
  8
frame
100
AcDbLine
 10
62.30789503931965
 20
17.96745674462244
 30
0.0
 11
92.30789503931964
 21
17.96745674462244
 31
0.0
  0
MTEXT
  5
7D96
330
18
100
AcDbEntity
  8
0
 62
     7
 48
2.0
100
AcDbMText
 10
77.25059502225531
 20
32.76404094991455
 30
0.0
 40
2.4
 41
0.0
 71
     5
 72
     1
  1
\P\Ftxt.shx,bigfont.shx|c128;諸　　　　元
 73
     1
 44
1.0
  0
LINE
  5
7D97
330
18
100
AcDbEntity
  8
frame
100
AcDbLine
 10
62.30789503931965
 20
32.36745674462242
 30
0.0
 11
62.30789503931965
 21
17.96745674462244
 31
0.0
  0
MTEXT
  5
7D98
330
18
100
AcDbEntity
  8
0
100
AcDbMText
 10
64.06911294615975
 20
28.00420216106204
 30
0.0
 40
2.2
 41
81.95814342112454
 71
     1
 72
     5
  1
\Ftxt.shx,bigfont.shx|c128;熱　処　理
  7
JL
 73
     1
 44
1.0
  0
LINE
  5
7D99
330
18
100
AcDbEntity
  8
frame
100
AcDbLine
 10
74.30789503931965
 20
28.7674567446224
 30
0.0
 11
74.30789503931965
 21
17.96745674462244
 31
0.0
  0
MTEXT
  5
7D9A
330
18
100
AcDbEntity
  8
0
100
AcDbMText
 10
63.92897576247015
 20
24.50308793743199
 30
0.0
 40
2.2
 41
81.80293144248363
 71
     1
 72
     5
  1
\Ftxt.shx,bigfont.shx|c128;表 面 処 理
  7
JL
 73
     1
 44
1.0
  0
MTEXT
  5
7D9B
330
18
100
AcDbEntity
  8
0
100
AcDbMText
 10
64.07400868668765
 20
20.85885151062803
 30
0.0
 40
2.2
 41
83.0859
 71
     1
 72
     5
  1
\Ftxt.shx,bigfont.shx|c128;等     　級
  7
JL
 73
     1
 44
1.0
  0
LINE
  5
7D9C
330
18
100
AcDbEntity
  8
frame
100
AcDbLine
 10
92.30789503931964
 20
32.36745674462242
 30
0.0
 11
92.30789503931964
 21
17.96745674462249
 31
0.0
  0
MTEXT
  5
7D9D
330
18
100
AcDbEntity
  8
0
100
AcDbMText
 10
76.68139669404093
 20
27.91672320735723
 30
0.0
 40
2.2
 41
145.9480028428943
 71
     1
 72
     5
  1
\Ftxt.shx,bigfont.shx|c128;調質　HRC30%%d%%p２%%d
  7
JL
 73
     1
 44
1.0
  0
MTEXT
  5
7D9E
330
18
100
AcDbEntity
  8
0
100
AcDbMText
 10
76.81171619475913
 20
20.8591567963536
 30
0.0
 40
2.2
 41
145.3916823984455
 71
     1
 72
     5
  1
\Ftxt.shx,bigfont.shx|c128;ＩＳＯ - ４Ｈ
  7
JL
 73
     1
 44
1.0
  0
MTEXT
  5
7D9F
330
18
100
AcDbEntity
  8
0
100
AcDbMText
 10
76.89894679382428
 20
24.32664146895457
 30
0.0
 40
2.2
 41
145.7274
 71
     1
 72
     5
  1
\Ftxt.shx,bigfont.shx|c128;黒  　    染
  7
JL
 73
     1
 44
1.0
  0
MTEXT
  5
7DA0
330
18
100
AcDbEntity
  8
0
100
AcDbMText
 10
28.81819530667213
 20
130.4500291639737
 30
0.0
 40
2.5
 41
0.0
 71
     1
 72
     5
  1
{\Ftxt,bigfont|c128;M4X0.7P-16L}
  7
JL
 73
     1
 44
1.0
1001
ACAD
1000
ACAD_MTEXT_DEFINED_HEIGHT_BEGIN
1070
    46
1040
0.0
1000
ACAD_MTEXT_DEFINED_HEIGHT_END
  0
LINE
  5
7DA2
330
18
100
AcDbEntity
  8
frame
100
AcDbLine
 10
0.0
 20
127.0
 30
0.0
 11
95.0
 21
127.0
 31
0.0
  0
LINE
  5
7DA3
330
18
100
AcDbEntity
  8
frame
100
AcDbLine
 10
0.0
 20
131.0
 30
0.0
 11
95.0
 21
131.0
 31
0.0
  0
LINE
  5
7DA4
330
18
100
AcDbEntity
  8
frame
 62
     9
100
AcDbLine
 10
0.0
 20
135.0
 30
0.0
 11
95.0
 21
135.0
 31
0.0
  0
MTEXT
  5
7DA5
330
18
100
AcDbEntity
  8
0
100
AcDbMText
 10
28.50782195301855
 20
138.712028002452
 30
0.0
 40
2.5
 41
0.0
 71
     1
 72
     5
  1
\Ftxt.shx,bigfont.shx|c128;図    番 / 規　　格
  7
JL
 73
     1
 44
1.0
  0
LINE
  5
7DA6
330
18
100
AcDbEntity
  8
frame
100
AcDbLine
 10
0.0
 20
127.0
 30
0.0
 11
95.0
 21
127.0
 31
0.0
  0
MTEXT
  5
7DA8
330
18
100
AcDbEntity
  8
0
100
AcDbMText
 10
10.56244024461716
 20
138.7318990693371
 30
0.0
 40
2.5
 41
0.0
 71
     1
 72
     5
  1
\Ftxt.shx,bigfont.shx|c128;品　          名
  7
JL
 73
     1
 44
1.0
  0
MTEXT
  5
7DA9
330
18
100
AcDbEntity
  8
0
100
AcDbMText
 10
9.051406935550659
 20
130.3953618644555
 30
0.0
 40
2.5
 41
0.0
 71
     1
 72
     5
  1
\Ftxt.shx,bigfont.shx|c128;セットスクリュ-
  7
JL
 73
     1
 44
1.0
  0
MTEXT
  5
7DAA
330
18
100
AcDbEntity
  8
0
100
AcDbMText
 10
8.957547404315789
 20
134.4180615141482
 30
0.0
 40
2.5
 41
0.0
 71
     1
 72
     5
  1
\Ftxt.shx,bigfont.shx|c128;ロックナット　  
  7
JL
 73
     1
 44
1.0
  0
LINE
  5
7DAC
330
18
100
AcDbEntity
  8
frame
 62
     9
100
AcDbLine
 10
7.196969696969688
 20
139.9999999999999
 30
0.0
 11
7.196969696969818
 21
127.0
 31
0.0
  0
LINE
  5
7DAD
330
18
100
AcDbEntity
  8
frame
 62
     9
100
AcDbLine
 10
7.196969696969688
 20
139.9999999999999
 30
0.0
 11
7.196969696969688
 21
127.5252525252525
 31
0.0
  0
MTEXT
  5
7DAE
330
18
100
AcDbEntity
  8
0
100
AcDbMText
 10
3.407504634006897
 20
134.364083721706
 30
0.0
 40
2.5
 41
0.0
 71
     1
 72
     5
  1
\Ftxt.shx,bigfont.shx|c128;1
  7
JL
 73
     1
 44
1.0
  0
MTEXT
  5
7DAF
330
18
100
AcDbEntity
  8
0
100
AcDbMText
 10
1.059914036490113
 20
138.7367391319745
 30
0.0
 40
2.5
 41
0.0
 71
     1
 72
     5
  1
\Ftxt.shx,bigfont.shx|c128;照   号
  7
JL
 73
     1
 44
1.0
  0
LINE
  5
7DB0
330
18
100
AcDbEntity
  8
frame
 62
     9
100
AcDbLine
 10
26.38888888888891
 20
139.9999999999999
 30
0.0
 11
26.38888888888892
 21
127.0
 31
0.0
  0
MTEXT
  5
7DB1
330
18
100
AcDbEntity
  8
0
100
AcDbMText
 10
72.78681871864256
 20
138.8390831947097
 30
0.0
 40
2.5
 41
0.0
 71
     1
 72
     5
  1
\Ftxt.shx,bigfont.shx|c128;備           考
  7
JL
 73
     1
 44
1.0
  0
LINE
  5
7DB2
330
18
100
AcDbEntity
  8
frame
 62
     9
100
AcDbLine
 10
45.58080808080808
 20
140.0
 30
0.0
 11
45.58080808080808
 21
127.0
 31
0.0
  0
MTEXT
  5
7DB4
330
18
100
AcDbEntity
  8
0
100
AcDbMText
 10
46.43670544589684
 20
134.4180615141482
 30
0.0
 40
2.5
 41
0.0
 71
     1
 72
     5
  1
\Ftxt.shx,bigfont.shx|c128;SCM-440
  7
JL
 73
     1
 44
1.0
  0
MTEXT
  5
7DB5
330
18
100
AcDbEntity
  8
0
100
AcDbMText
 10
46.43670544589684
 20
130.382501006292
 30
0.0
 40
2.5
 41
0.0
 71
     1
 72
     5
  1
\Ftxt.shx,bigfont.shx|c128;SCM435
  7
JL
 73
     1
 44
1.0
  0
MTEXT
  5
7DB6
330
18
100
AcDbEntity
  8
0
100
AcDbMText
 10
47.88399431552096
 20
138.7822749741459
 30
0.0
 40
2.5
 41
0.0
 71
     1
 72
     5
  1
\Ftxt.shx,bigfont.shx|c128;材　質
  7
JL
 73
     1
 44
1.0
  0
LINE
  5
7DB7
330
18
100
AcDbEntity
  8
frame
 62
     9
100
AcDbLine
 10
55.17676767676772
 20
140.0
 30
0.0
 11
55.17676767676773
 21
127.0
 31
0.0
  0
LINE
  5
7DB8
330
18
100
AcDbEntity
  8
frame
100
AcDbLine
 10
62.37373737373736
 20
140.0
 30
0.0
 11
62.37373737373741
 21
127.0
 31
0.0
  0
MTEXT
  5
7DBA
330
18
100
AcDbEntity
  8
0
100
AcDbMText
 10
58.58427231077456
 20
134.5206355839966
 30
0.0
 40
2.5
 41
0.0
 71
     1
 72
     5
  1
\Ftxt.shx,bigfont.shx|c128;1
  7
JL
 73
     1
 44
1.0
  0
MTEXT
  5
7DBB
330
18
100
AcDbEntity
  8
0
100
AcDbMText
 10
58.29695351334419
 20
130.2546145075339
 30
0.0
 40
2.5
 41
0.0
 71
     1
 72
     5
  1
{\Ftxt,bigfont|c128;4}
  7
JL
 73
     1
 44
1.0
1001
ACAD
1000
ACAD_MTEXT_DEFINED_HEIGHT_BEGIN
1070
    46
1040
0.0
1000
ACAD_MTEXT_DEFINED_HEIGHT_END
  0
MTEXT
  5
7DBC
330
18
100
AcDbEntity
  8
0
100
AcDbMText
 10
56.21119479596313
 20
138.7822749741459
 30
0.0
 40
2.5
 41
0.0
 71
     1
 72
     5
  1
\Ftxt.shx,bigfont.shx|c128;数   量
  7
JL
 73
     1
 44
1.0
  0
MTEXT
  5
7DBD
330
18
100
AcDbEntity
  8
0
100
AcDbMText
 10
3.202009849527996
 20
130.364083721706
 30
0.0
 40
2.5
 41
0.0
 71
     1
 72
     5
  1
{\Ftxt,bigfont|c128;2}
  7
JL
 73
     1
 44
1.0
1001
ACAD
1000
ACAD_MTEXT_DEFINED_HEIGHT_BEGIN
1070
    46
1040
0.0
1000
ACAD_MTEXT_DEFINED_HEIGHT_END
  0
CIRCLE
  5
9A9D
330
18
100
AcDbEntity
  8
center
 48
0.25
100
AcDbCircle
 10
44.26148622057866
 20
98.59862767672273
 30
0.0
 40
20.5
  0
ARC
  5
9AA0
330
18
100
AcDbEntity
  8
contour
 62
     4
100
AcDbCircle
 10
64.76148622057866
 20
98.59862767672273
 30
0.0
 40
2.000000000000028
100
AcDbArc
 50
165.5224878140701
 51
104.4775121859291
  0
CIRCLE
  5
9AA1
330
18
100
AcDbEntity
  8
contour
100
AcDbCircle
 10
64.76148622057866
 20
98.59862767672273
 30
0.0
 40
1.620999999999952
  0
CIRCLE
  5
9AA2
330
18
100
AcDbEntity
  8
bowle
 48
0.2
100
AcDbCircle
 10
64.76148622057866
 20
98.59862767672273
 30
0.0
 40
3.5
  0
LINE
  5
9AB6
330
18
100
AcDbEntity
  8
center
 48
0.25
100
AcDbLine
 10
44.26148622057872
 20
124.5986276767227
 30
0.0
 11
44.26148622057866
 21
72.59862767672273
 31
0.0
  0
LINE
  5
9AB7
330
18
100
AcDbEntity
  8
center
 48
0.25
100
AcDbLine
 10
18.26148622057866
 20
98.59862767672275
 30
0.0
 11
70.26148622057866
 21
98.59862767672273
 31
0.0
  0
CIRCLE
  5
9AC0
330
18
100
AcDbEntity
  8
bowle
 48
0.2
100
AcDbCircle
 10
59.28750532079277
 20
83.5726085765086
 30
0.0
 40
2.149999999999999
  0
LINE
  5
9AC2
330
18
100
AcDbEntity
  8
center
 48
0.1
100
AcDbLine
 10
62.64626253142887
 20
80.21385136587253
 30
0.0
 11
54.29391723205339
 21
88.56619666524798
 31
0.0
  0
LINE
  5
9AC3
330
18
100
AcDbEntity
  8
bowle
 48
0.2
100
AcDbLine
 10
57.69651506312306
 20
85.16359883417834
 30
0.0
 11
60.48490274224906
 21
85.91074506098506
 31
0.0
  0
LINE
  5
9AC4
330
18
100
AcDbEntity
  8
bowle
 48
0.2
100
AcDbLine
 10
57.69651506312306
 20
85.16359883417834
 30
0.0
 11
56.94936883631635
 21
82.37521115505229
 31
0.0
  0
LINE
  5
9AC5
330
18
100
AcDbEntity
  8
bowle
 48
0.2
100
AcDbLine
 10
63.35336931261543
 20
83.04227849061868
 30
0.0
 11
60.48490274224903
 21
85.91074506098507
 31
0.0
  0
LINE
  5
9AC6
330
18
100
AcDbEntity
  8
bowle
 48
0.2
100
AcDbLine
 10
59.81783540668272
 20
79.50674458468596
 30
0.0
 11
56.94936883631638
 21
82.37521115505229
 31
0.0
  0
LINE
  5
9AC7
330
18
100
AcDbEntity
  8
bowle
 48
0.2
100
AcDbLine
 10
60.48490274224906
 20
85.91074506098506
 30
0.0
 11
56.94936883631635
 21
82.37521115505229
 31
0.0
  0
LINE
  5
9AC9
330
18
100
AcDbEntity
  8
bowle
 48
0.2
100
AcDbLine
 10
63.35336931261543
 20
83.04227849061868
 30
0.0
 11
59.81783540668269
 21
79.50674458468594
 31
0.0
  0
LINE
  5
9ACA
330
18
100
AcDbEntity
  8
bowle
 48
0.2
100
AcDbLine
 10
59.81783540668269
 20
79.50674458468594
 30
0.0
 11
59.81783540668266
 21
79.03681326057139
 31
0.0
  0
LINE
  5
9ACB
330
18
100
AcDbEntity
  8
bowle
 48
0.2
100
AcDbLine
 10
63.35336931261543
 20
83.04227849061868
 30
0.0
 11
63.82330063672995
 21
83.0422784906187
 31
0.0
  0
CIRCLE
  5
9AF9
330
18
100
AcDbEntity
  8
bowle
 48
0.2
100
AcDbCircle
 10
59.28750532079277
 20
83.5726085765086
 30
0.0
 40
2.650000000000034
  0
CIRCLE
  5
9AFD
330
18
100
AcDbEntity
  8
bowle
 48
0.2
100
AcDbCircle
 10
59.28750532079283
 20
113.6246467769369
 30
0.0
 40
2.149999999999999
  0
LINE
  5
9AFE
330
18
100
AcDbEntity
  8
center
 48
0.1
100
AcDbLine
 10
62.64626253142893
 20
116.983403987573
 30
0.0
 11
54.29391723205341
 21
108.6310586881974
 31
0.0
  0
LINE
  5
9AFF
330
18
100
AcDbEntity
  8
bowle
 48
0.2
100
AcDbLine
 10
57.69651506312309
 20
112.0336565192671
 30
0.0
 11
56.94936883631638
 21
114.8220441983932
 31
0.0
  0
LINE
  5
9B00
330
18
100
AcDbEntity
  8
bowle
 48
0.2
100
AcDbLine
 10
57.69651506312309
 20
112.0336565192671
 30
0.0
 11
60.48490274224914
 21
111.2865102924604
 31
0.0
  0
LINE
  5
9B01
330
18
100
AcDbEntity
  8
bowle
 48
0.2
100
AcDbLine
 10
59.81783540668274
 20
117.6905107687595
 30
0.0
 11
56.94936883631635
 21
114.8220441983931
 31
0.0
  0
LINE
  5
9B02
330
18
100
AcDbEntity
  8
bowle
 48
0.2
100
AcDbLine
 10
63.35336931261545
 20
114.1549768628268
 30
0.0
 11
60.48490274224917
 21
111.2865102924605
 31
0.0
  0
LINE
  5
9B03
330
18
100
AcDbEntity
  8
bowle
 48
0.2
100
AcDbLine
 10
56.94936883631638
 20
114.8220441983932
 30
0.0
 11
60.48490274224914
 21
111.2865102924604
 31
0.0
  0
LINE
  5
9B04
330
18
100
AcDbEntity
  8
bowle
 48
0.2
100
AcDbLine
 10
59.81783540668274
 20
117.6905107687595
 30
0.0
 11
63.35336931261548
 21
114.1549768628268
 31
0.0
  0
LINE
  5
9B05
330
18
100
AcDbEntity
  8
bowle
 48
0.2
100
AcDbLine
 10
63.35336931261548
 20
114.1549768628268
 30
0.0
 11
63.82330063673006
 21
114.1549768628268
 31
0.0
  0
LINE
  5
9B06
330
18
100
AcDbEntity
  8
bowle
 48
0.2
100
AcDbLine
 10
59.81783540668274
 20
117.6905107687595
 30
0.0
 11
59.81783540668274
 21
118.1604420928741
 31
0.0
  0
CIRCLE
  5
9B07
330
18
100
AcDbEntity
  8
bowle
 48
0.2
100
AcDbCircle
 10
59.28750532079283
 20
113.6246467769369
 30
0.0
 40
2.650000000000034
  0
CIRCLE
  5
9B09
330
18
100
AcDbEntity
  8
bowle
 48
0.2
100
AcDbCircle
 10
29.23546712036455
 20
113.6246467769369
 30
0.0
 40
2.149999999999999
  0
LINE
  5
9B0A
330
18
100
AcDbEntity
  8
center
 48
0.1
100
AcDbLine
 10
25.87670990972845
 20
116.983403987573
 30
0.0
 11
34.22905520910399
 21
108.6310586881975
 31
0.0
  0
LINE
  5
9B0B
330
18
100
AcDbEntity
  8
bowle
 48
0.2
100
AcDbLine
 10
30.82645737803429
 20
112.0336565192671
 30
0.0
 11
28.03806969890826
 21
111.2865102924604
 31
0.0
  0
LINE
  5
9B0C
330
18
100
AcDbEntity
  8
bowle
 48
0.2
100
AcDbLine
 10
30.82645737803429
 20
112.0336565192671
 30
0.0
 11
31.57360360484097
 21
114.8220441983932
 31
0.0
  0
LINE
  5
9B0D
330
18
100
AcDbEntity
  8
bowle
 48
0.2
100
AcDbLine
 10
25.16960312854192
 20
114.1549768628268
 30
0.0
 11
28.03806969890829
 21
111.2865102924604
 31
0.0
  0
LINE
  5
9B0E
330
18
100
AcDbEntity
  8
bowle
 48
0.2
100
AcDbLine
 10
28.70513703447463
 20
117.6905107687595
 30
0.0
 11
31.57360360484097
 21
114.8220441983932
 31
0.0
  0
LINE
  5
9B0F
330
18
100
AcDbEntity
  8
bowle
 48
0.2
100
AcDbLine
 10
28.03806969890826
 20
111.2865102924604
 30
0.0
 11
31.57360360484097
 21
114.8220441983932
 31
0.0
  0
LINE
  5
9B10
330
18
100
AcDbEntity
  8
bowle
 48
0.2
100
AcDbLine
 10
25.16960312854192
 20
114.1549768628268
 30
0.0
 11
28.70513703447466
 21
117.6905107687595
 31
0.0
  0
LINE
  5
9B11
330
18
100
AcDbEntity
  8
bowle
 48
0.2
100
AcDbLine
 10
28.70513703447466
 20
117.6905107687595
 30
0.0
 11
28.70513703447466
 21
118.1604420928741
 31
0.0
  0
LINE
  5
9B12
330
18
100
AcDbEntity
  8
bowle
 48
0.2
100
AcDbLine
 10
25.16960312854192
 20
114.1549768628268
 30
0.0
 11
24.69967180442737
 21
114.1549768628268
 31
0.0
  0
CIRCLE
  5
9B13
330
18
100
AcDbEntity
  8
bowle
 48
0.2
100
AcDbCircle
 10
29.23546712036455
 20
113.6246467769369
 30
0.0
 40
2.650000000000034
  0
CIRCLE
  5
9B15
330
18
100
AcDbEntity
  8
bowle
 48
0.2
100
AcDbCircle
 10
29.23546712036452
 20
83.57260857650869
 30
0.0
 40
2.149999999999999
  0
LINE
  5
9B16
330
18
100
AcDbEntity
  8
center
 48
0.1
100
AcDbLine
 10
25.87670990972842
 20
80.21385136587261
 30
0.0
 11
34.2290552091039
 21
88.56619666524805
 31
0.0
  0
LINE
  5
9B17
330
18
100
AcDbEntity
  8
bowle
 48
0.2
100
AcDbLine
 10
30.82645737803429
 20
85.16359883417843
 30
0.0
 11
31.573603604841
 21
82.3752111550524
 31
0.0
  0
LINE
  5
9B18
330
18
100
AcDbEntity
  8
bowle
 48
0.2
100
AcDbLine
 10
30.82645737803429
 20
85.16359883417843
 30
0.0
 11
28.0380696989082
 21
85.91074506098513
 31
0.0
  0
LINE
  5
9B19
330
18
100
AcDbEntity
  8
bowle
 48
0.2
100
AcDbLine
 10
28.70513703447461
 20
79.50674458468606
 30
0.0
 11
31.573603604841
 21
82.37521115505243
 31
0.0
  0
LINE
  5
9B1A
330
18
100
AcDbEntity
  8
bowle
 48
0.2
100
AcDbLine
 10
25.1696031285419
 20
83.04227849061877
 30
0.0
 11
28.0380696989082
 21
85.91074506098511
 31
0.0
  0
LINE
  5
9B1B
330
18
100
AcDbEntity
  8
bowle
 48
0.2
100
AcDbLine
 10
31.573603604841
 20
82.3752111550524
 30
0.0
 11
28.0380696989082
 21
85.91074506098513
 31
0.0
  0
LINE
  5
9B1C
330
18
100
AcDbEntity
  8
bowle
 48
0.2
100
AcDbLine
 10
28.70513703447461
 20
79.50674458468606
 30
0.0
 11
25.1696031285419
 21
83.04227849061879
 31
0.0
  0
LINE
  5
9B1D
330
18
100
AcDbEntity
  8
bowle
 48
0.2
100
AcDbLine
 10
25.1696031285419
 20
83.04227849061879
 30
0.0
 11
24.69967180442734
 21
83.04227849061879
 31
0.0
  0
LINE
  5
9B1E
330
18
100
AcDbEntity
  8
bowle
 48
0.2
100
AcDbLine
 10
28.70513703447461
 20
79.50674458468606
 30
0.0
 11
28.70513703447463
 21
79.03681326057149
 31
0.0
  0
CIRCLE
  5
9B1F
330
18
100
AcDbEntity
  8
bowle
 48
0.2
100
AcDbCircle
 10
29.23546712036452
 20
83.57260857650869
 30
0.0
 40
2.650000000000034
  0
CIRCLE
  5
9CF1
330
18
100
AcDbEntity
  8
contour
100
AcDbCircle
 10
44.26148622057866
 20
98.59862767672273
 30
0.0
 40
25.0
  0
CIRCLE
  5
9CF3
330
18
100
AcDbEntity
  8
contour
100
AcDbCircle
 10
44.26148622057868
 20
119.0986276767227
 30
0.0
 40
1.620999999999952
  0
CIRCLE
  5
9CF4
330
18
100
AcDbEntity
  8
bowle
 48
0.2
100
AcDbCircle
 10
44.26148622057868
 20
119.0986276767227
 30
0.0
 40
3.5
  0
CIRCLE
  5
9CF5
330
18
100
AcDbEntity
  8
contour
100
AcDbCircle
 10
23.76148622057866
 20
98.59862767672277
 30
0.0
 40
1.620999999999952
  0
CIRCLE
  5
9CF6
330
18
100
AcDbEntity
  8
bowle
 48
0.2
100
AcDbCircle
 10
23.76148622057866
 20
98.59862767672277
 30
0.0
 40
3.5
  0
CIRCLE
  5
9CF7
330
18
100
AcDbEntity
  8
contour
100
AcDbCircle
 10
44.2614862205786
 20
78.09862767672275
 30
0.0
 40
1.620999999999952
  0
CIRCLE
  5
9CF8
330
18
100
AcDbEntity
  8
bowle
 48
0.2
100
AcDbCircle
 10
44.2614862205786
 20
78.09862767672275
 30
0.0
 40
3.5
  0
ARC
  5
9CF9
330
18
100
AcDbEntity
  8
contour
 62
     4
100
AcDbCircle
 10
44.26148622057868
 20
119.0986276767227
 30
0.0
 40
2.000000000000028
100
AcDbArc
 50
165.5224878140701
 51
104.4775121859291
  0
ARC
  5
9CFA
330
18
100
AcDbEntity
  8
contour
 62
     4
100
AcDbCircle
 10
23.76148622057866
 20
98.59862767672273
 30
0.0
 40
2.000000000000028
100
AcDbArc
 50
165.5224878140701
 51
104.4775121859291
  0
ARC
  5
9CFB
330
18
100
AcDbEntity
  8
contour
 62
     4
100
AcDbCircle
 10
44.26148622057866
 20
78.09862767672273
 30
0.0
 40
2.000000000000028
100
AcDbArc
 50
165.5224878140701
 51
104.4775121859291
  0
CIRCLE
  5
9D39
330
18
100
AcDbEntity
  8
contour
100
AcDbCircle
 10
44.26148622057866
 20
98.59862767672273
 30
0.0
 40
15.18799999999998
  0
ARC
  5
9D3A
330
18
100
AcDbEntity
  8
contour
 62
     4
100
AcDbCircle
 10
44.26148622057866
 20
98.59862767672273
 30
0.0
 40
15.99999999999997
100
AcDbArc
 50
169.1930771251396
 51
100.8069228748603
  0
CIRCLE
  5
9D3B
330
18
100
AcDbEntity
  8
contour
100
AcDbCircle
 10
44.26148622057866
 20
98.59862767672273
 30
0.0
 40
16.68799999999999
  0
LINE
  5
9D54
330
18
100
AcDbEntity
  8
contour
100
AcDbLine
 10
68.26148622057866
 20
63.25327681071904
 30
0.0
 11
20.26148622057869
 21
63.25327681071904
 31
0.0
  0
ARC
  5
9D55
330
18
100
AcDbEntity
  8
contour
100
AcDbCircle
 10
68.26148622057866
 20
62.25327681071904
 30
0.0
 40
0.9999999999999998
100
AcDbArc
 50
0.0
 51
90.0
  0
LINE
  5
9D56
330
18
100
AcDbEntity
  8
center
 48
0.1
100
AcDbLine
 10
26.26148622057866
 20
56.25327681071905
 30
0.0
 11
18.26148622057866
 21
56.25327681071905
 31
0.0
  0
LINE
  5
9D57
330
18
100
AcDbEntity
  8
contour
100
AcDbLine
 10
19.26148622057869
 20
62.25327681071904
 30
0.0
 11
19.26148622057869
 21
49.35327681071904
 31
0.0
  0
ARC
  5
9D58
330
18
100
AcDbEntity
  8
contour
100
AcDbCircle
 10
20.26148622057869
 20
62.25327681071904
 30
0.0
 40
0.9999999999999998
100
AcDbArc
 50
90.0
 51
180.0
  0
LINE
  5
9D59
330
18
100
AcDbEntity
  8
contour
100
AcDbLine
 10
19.26148622057869
 20
45.35327681071904
 30
0.0
 11
19.26148622057866
 21
42.25327681071905
 31
0.0
  0
ARC
  5
9D5A
330
18
100
AcDbEntity
  8
contour
100
AcDbCircle
 10
20.26148622057869
 20
45.35327681071904
 30
0.0
 40
0.9999999999999998
100
AcDbArc
 50
90.0
 51
180.0
  0
LINE
  5
9D5B
330
18
100
AcDbEntity
  8
contour
100
AcDbLine
 10
20.26148622057866
 20
41.25327681071904
 30
0.0
 11
68.26148622057866
 21
41.25327681071904
 31
0.0
  0
ARC
  5
9D5C
330
18
100
AcDbEntity
  8
contour
100
AcDbCircle
 10
20.26148622057866
 20
42.25327681071904
 30
0.0
 40
0.9999999999999998
100
AcDbArc
 50
179.9999999999996
 51
270.0
  0
LINE
  5
9D5D
330
18
100
AcDbEntity
  8
contour
100
AcDbLine
 10
23.01148622057869
 20
45.25327681071904
 30
0.0
 11
25.16148622057867
 21
44.01197373196135
 31
0.0
  0
LINE
  5
9D5E
330
18
100
AcDbEntity
  8
contour
100
AcDbLine
 10
20.26148622057869
 20
46.35327681071903
 30
0.0
 11
26.51148622057866
 21
46.35327681071904
 31
0.0
  0
LINE
  5
9D5F
330
18
100
AcDbEntity
  8
contour
100
AcDbLine
 10
66.76148622057869
 20
46.35327681071904
 30
0.0
 11
68.26148622057866
 21
46.35327681071904
 31
0.0
  0
ARC
  5
9D60
330
18
100
AcDbEntity
  8
contour
100
AcDbCircle
 10
68.26148622057866
 20
45.35327681071904
 30
0.0
 40
0.9999999999999998
100
AcDbArc
 50
0.0
 51
90.0
  0
LINE
  5
9D61
330
18
100
AcDbEntity
  8
contour
100
AcDbLine
 10
20.26148622057869
 20
48.35327681071905
 30
0.0
 11
26.51148622057866
 21
48.35327681071905
 31
0.0
  0
ARC
  5
9D62
330
18
100
AcDbEntity
  8
contour
100
AcDbCircle
 10
20.26148622057869
 20
49.35327681071904
 30
0.0
 40
0.9999999999999998
100
AcDbArc
 50
179.9999999999998
 51
270.0
  0
LINE
  5
9D63
330
18
100
AcDbEntity
  8
contour
100
AcDbLine
 10
66.76148622057869
 20
48.35327681071905
 30
0.0
 11
68.26148622057866
 21
48.35327681071905
 31
0.0
  0
LINE
  5
9D64
330
18
100
AcDbEntity
  8
contour
100
AcDbLine
 10
69.26148622057866
 20
42.25327681071904
 30
0.0
 11
69.26148622057866
 21
45.35327681071904
 31
0.0
  0
ARC
  5
9D65
330
18
100
AcDbEntity
  8
contour
100
AcDbCircle
 10
68.26148622057866
 20
42.25327681071904
 30
0.0
 40
0.9999999999999998
100
AcDbArc
 50
270.0
 51
0.0
  0
LINE
  5
9D66
330
18
100
AcDbEntity
  8
contour
100
AcDbLine
 10
69.26148622057866
 20
49.35327681071904
 30
0.0
 11
69.26148622057866
 21
62.25327681071904
 31
0.0
  0
ARC
  5
9D67
330
18
100
AcDbEntity
  8
contour
100
AcDbCircle
 10
68.26148622057866
 20
49.35327681071904
 30
0.0
 40
0.9999999999999998
100
AcDbArc
 50
270.0
 51
0.0
  0
LINE
  5
9D68
330
18
100
AcDbEntity
  8
center
 48
0.2
100
AcDbLine
 10
44.26148622057866
 20
64.25327681071904
 30
0.0
 11
44.26148622057866
 21
40.25327681071904
 31
0.0
  0
LINE
  5
9D69
330
18
100
AcDbEntity
  8
contour
100
AcDbLine
 10
67.51148622057866
 20
51.15327681071904
 30
0.0
 11
67.51148622057866
 21
49.15327681071904
 31
0.0
  0
LINE
  5
9D6A
330
18
100
AcDbEntity
  8
contour
100
AcDbLine
 10
62.01148622057866
 20
46.35327681071905
 30
0.0
 11
62.01148622057866
 21
48.35327681071905
 31
0.0
  0
LINE
  5
9D6B
330
18
100
AcDbEntity
  8
contour
100
AcDbLine
 10
26.51148622057866
 20
46.35327681071904
 30
0.0
 11
26.51148622057866
 21
48.35327681071905
 31
0.0
  0
LINE
  5
9D6C
330
18
100
AcDbEntity
  8
contour
100
AcDbLine
 10
20.86148622057868
 20
44.01197373196133
 30
0.0
 11
20.86148622057866
 21
41.75327681071904
 31
0.0
  0
LINE
  5
9D6D
330
18
100
AcDbEntity
  8
contour
100
AcDbLine
 10
20.36148622057865
 20
41.25327681071904
 30
0.0
 11
20.86148622057866
 21
41.75327681071904
 31
0.0
  0
LINE
  5
9D6E
330
18
100
AcDbEntity
  8
contour
100
AcDbLine
 10
25.16148622057864
 20
44.01197373196135
 30
0.0
 11
25.16148622057864
 21
41.75327681071904
 31
0.0
  0
LINE
  5
9D6F
330
18
100
AcDbEntity
  8
contour
100
AcDbLine
 10
25.66148622057867
 20
41.25327681071904
 30
0.0
 11
25.16148622057867
 21
41.75327681071904
 31
0.0
  0
LINE
  5
9D70
330
18
100
AcDbEntity
  8
contour
100
AcDbLine
 10
25.16148622057867
 20
41.75327681071904
 30
0.0
 11
20.86148622057866
 21
41.75327681071904
 31
0.0
  0
LINE
  5
9D71
330
18
100
AcDbEntity
  8
center
 48
0.1
100
AcDbLine
 10
23.01148622057866
 20
40.25327681071904
 30
0.0
 11
23.01148622057866
 21
46.25327681071904
 31
0.0
  0
LINE
  5
9D72
330
18
100
AcDbEntity
  8
contour
100
AcDbLine
 10
23.01148622057869
 20
45.25327681071905
 30
0.0
 11
20.86148622057866
 21
44.01197373196134
 31
0.0
  0
LINE
  5
9D73
330
18
100
AcDbEntity
  8
contour
100
AcDbLine
 10
25.16148622057864
 20
44.01197373196135
 30
0.0
 11
20.86148622057866
 21
44.01197373196133
 31
0.0
  0
LINE
  5
9D74
330
18
100
AcDbEntity
  8
contour
100
AcDbLine
 10
25.26148622057866
 20
56.25327681071905
 30
0.0
 11
23.81811054760459
 21
58.75327681071905
 31
0.0
  0
LINE
  5
9D75
330
18
100
AcDbEntity
  8
contour
100
AcDbLine
 10
25.26148622057866
 20
56.25327681071905
 30
0.0
 11
23.81811054760456
 21
53.75327681071905
 31
0.0
  0
LINE
  5
9D76
330
18
100
AcDbEntity
  8
contour
100
AcDbLine
 10
19.76148622057866
 20
58.75327681071905
 30
0.0
 11
23.81811054760465
 21
58.75327681071905
 31
0.0
  0
LINE
  5
9D77
330
18
100
AcDbEntity
  8
contour
100
AcDbLine
 10
19.76148622057866
 20
53.75327681071905
 30
0.0
 11
23.81811054760453
 21
53.75327681071905
 31
0.0
  0
LINE
  5
9D78
330
18
100
AcDbEntity
  8
contour
100
AcDbLine
 10
23.81811054760459
 20
58.75327681071905
 30
0.0
 11
23.81811054760456
 21
53.75327681071905
 31
0.0
  0
LINE
  5
9D79
330
18
100
AcDbEntity
  8
contour
100
AcDbLine
 10
19.76148622057866
 20
58.75327681071905
 30
0.0
 11
19.76148622057866
 21
53.75327681071905
 31
0.0
  0
LINE
  5
9D7A
330
18
100
AcDbEntity
  8
contour
100
AcDbLine
 10
19.76148622057866
 20
53.75327681071905
 30
0.0
 11
19.26148622057866
 21
53.25327681071904
 31
0.0
  0
LINE
  5
9D7B
330
18
100
AcDbEntity
  8
contour
100
AcDbLine
 10
19.76148622057866
 20
58.75327681071905
 30
0.0
 11
19.26148622057866
 21
59.25327681071905
 31
0.0
  0
LINE
  5
9D7C
330
18
100
AcDbEntity
  8
contour
100
AcDbLine
 10
68.26148622057885
 20
41.55327681071916
 30
0.0
 11
68.26148622057894
 21
41.25327681071904
 31
0.0
  0
LINE
  5
9D7D
330
18
100
AcDbEntity
  8
contour
100
AcDbLine
 10
61.26148622057868
 20
41.55327681071911
 30
0.0
 11
61.26148622057868
 21
41.25327681071904
 31
0.0
  0
LINE
  5
9D7E
330
18
100
AcDbEntity
  8
contour
 62
     4
100
AcDbLine
 10
66.76148622057869
 20
56.45327681071903
 30
0.0
 11
66.76148622057863
 21
63.25327681071904
 31
0.0
  0
LINE
  5
9D7F
330
18
100
AcDbEntity
  8
contour
 62
     4
100
AcDbLine
 10
62.76148622057874
 20
56.45327681071903
 30
0.0
 11
62.76148622057869
 21
63.25327681071904
 31
0.0
  0
LINE
  5
9D80
330
18
100
AcDbEntity
  8
contour
100
AcDbLine
 10
63.1614862205787
 20
56.85327681071898
 30
0.0
 11
63.14048622057865
 21
63.25327681071904
 31
0.0
  0
LINE
  5
9D81
330
18
100
AcDbEntity
  8
contour
100
AcDbLine
 10
66.36148622057868
 20
56.85327681071898
 30
0.0
 11
66.36148622057868
 21
63.25327681071904
 31
0.0
  0
LINE
  5
9D82
330
18
100
AcDbEntity
  8
contour
100
AcDbLine
 10
62.01148622057866
 20
48.35327681071905
 30
0.0
 11
62.76148622057869
 21
48.35327681071905
 31
0.0
  0
LINE
  5
9D83
330
18
100
AcDbEntity
  8
contour
100
AcDbLine
 10
21.01148622057866
 20
49.15327681071911
 30
0.0
 11
62.76148622057869
 21
49.15327681071904
 31
0.0
  0
LINE
  5
9D84
330
18
100
AcDbEntity
  8
contour
100
AcDbLine
 10
21.01148622057866
 20
51.15327681071909
 30
0.0
 11
62.76148622057869
 21
51.15327681071903
 31
0.0
  0
LINE
  5
9D85
330
18
100
AcDbEntity
  8
contour
100
AcDbLine
 10
62.01148622057866
 20
46.35327681071905
 30
0.0
 11
62.76148622057869
 21
46.35327681071905
 31
0.0
  0
LINE
  5
9D86
330
18
100
AcDbEntity
  8
contour
100
AcDbLine
 10
21.01148622057866
 20
51.15327681071904
 30
0.0
 11
21.01148622057866
 21
49.15327681071904
 31
0.0
  0
LINE
  5
9D87
330
18
100
AcDbEntity
  8
contour
100
AcDbLine
 10
67.51148622057866
 20
51.15327681071904
 30
0.0
 11
66.76148622057872
 21
51.15327681071904
 31
0.0
  0
LINE
  5
9D88
330
18
100
AcDbEntity
  8
contour
100
AcDbLine
 10
67.51148622057866
 20
49.15327681071904
 30
0.0
 11
66.76148622057872
 21
49.15327681071904
 31
0.0
  0
LINE
  5
9D89
330
18
100
AcDbEntity
  8
contour
100
AcDbLine
 10
59.44948622057868
 20
61.75327681071904
 30
0.0
 11
59.44948622057864
 21
52.65327681071905
 31
0.0
  0
LINE
  5
9D8A
330
18
100
AcDbEntity
  8
contour
100
AcDbLine
 10
60.94948622057867
 20
63.25327681071904
 30
0.0
 11
59.44948622057868
 21
61.75327681071904
 31
0.0
  0
LINE
  5
9D8B
330
18
100
AcDbEntity
  8
contour
 62
     4
100
AcDbLine
 10
60.26148622057866
 20
62.56527681071903
 30
0.0
 11
60.26148622057866
 21
51.84127681071903
 31
0.0
  0
LINE
  5
9D8C
330
18
100
AcDbEntity
  8
contour
100
AcDbLine
 10
60.94948622057865
 20
51.15327681071903
 30
0.0
 11
59.44948622057864
 21
52.65327681071903
 31
0.0
  0
LINE
  5
9D8D
330
18
100
AcDbEntity
  8
contour
100
AcDbLine
 10
59.44948622057864
 20
47.65327681071903
 30
0.0
 11
59.44948622057862
 21
42.75327681071901
 31
0.0
  0
LINE
  5
9D8E
330
18
100
AcDbEntity
  8
contour
100
AcDbLine
 10
60.94948622057865
 20
49.15327681071904
 30
0.0
 11
59.44948622057864
 21
47.65327681071903
 31
0.0
  0
LINE
  5
9D8F
330
18
100
AcDbEntity
  8
contour
 62
     4
100
AcDbLine
 10
60.26148622057863
 20
48.46527681071902
 30
0.0
 11
60.26148622057863
 21
41.94127681071903
 31
0.0
  0
LINE
  5
9D90
330
18
100
AcDbEntity
  8
contour
100
AcDbLine
 10
60.94948622057862
 20
41.25327681071904
 30
0.0
 11
59.44948622057862
 21
42.75327681071904
 31
0.0
  0
LINE
  5
9D91
330
18
100
AcDbEntity
  8
contour
100
AcDbLine
 10
29.07348622057862
 20
61.75327681071904
 30
0.0
 11
29.07348622057867
 21
52.65327681071902
 31
0.0
  0
LINE
  5
9D92
330
18
100
AcDbEntity
  8
contour
100
AcDbLine
 10
27.57348622057862
 20
63.25327681071904
 30
0.0
 11
29.07348622057862
 21
61.75327681071904
 31
0.0
  0
LINE
  5
9D93
330
18
100
AcDbEntity
  8
contour
 62
     4
100
AcDbLine
 10
28.26148622057863
 20
62.56527681071903
 30
0.0
 11
28.26148622057863
 21
51.84127681071901
 31
0.0
  0
LINE
  5
9D94
330
18
100
AcDbEntity
  8
contour
100
AcDbLine
 10
27.57348622057865
 20
51.15327681071903
 30
0.0
 11
29.07348622057865
 21
52.65327681071903
 31
0.0
  0
LINE
  5
9D95
330
18
100
AcDbEntity
  8
contour
100
AcDbLine
 10
29.07348622057865
 20
47.65327681071903
 30
0.0
 11
29.07348622057867
 21
42.75327681071901
 31
0.0
  0
LINE
  5
9D96
330
18
100
AcDbEntity
  8
contour
100
AcDbLine
 10
27.57348622057865
 20
49.15327681071904
 30
0.0
 11
29.07348622057865
 21
47.65327681071903
 31
0.0
  0
LINE
  5
9D97
330
18
100
AcDbEntity
  8
contour
 62
     4
100
AcDbLine
 10
28.26148622057866
 20
48.46527681071902
 30
0.0
 11
28.26148622057866
 21
41.94127681071903
 31
0.0
  0
LINE
  5
9D98
330
18
100
AcDbEntity
  8
contour
100
AcDbLine
 10
27.57348622057867
 20
41.25327681071904
 30
0.0
 11
29.07348622057867
 21
42.75327681071904
 31
0.0
  0
LINE
  5
9D99
330
18
100
AcDbEntity
  8
contour
100
AcDbLine
 10
59.44948622057868
 20
61.75327681071904
 30
0.0
 11
29.07348622057862
 21
61.7532768107189
 31
0.0
  0
LINE
  5
9D9A
330
18
100
AcDbEntity
  8
contour
100
AcDbLine
 10
29.07348622057867
 20
52.65327681071902
 30
0.0
 11
59.44948622057864
 21
52.65327681071903
 31
0.0
  0
LINE
  5
9D9B
330
18
100
AcDbEntity
  8
contour
100
AcDbLine
 10
59.44948622057868
 20
47.65327681071904
 30
0.0
 11
29.07348622057865
 21
47.65327681071886
 31
0.0
  0
LINE
  5
9D9C
330
18
100
AcDbEntity
  8
contour
100
AcDbLine
 10
29.07348622057873
 20
42.75327681071904
 30
0.0
 11
59.44948622057864
 21
42.75327681071904
 31
0.0
  0
LINE
  5
9D9D
330
18
100
AcDbEntity
  8
center
 48
0.2
100
AcDbLine
 10
64.76148622057869
 20
62.25327681071904
 30
0.0
 11
64.76148622057869
 21
40.25327681071904
 31
0.0
  0
INSERT
  5
9D9E
330
18
100
AcDbEntity
  8
contour
100
AcDbBlockReference
  2
LS2
 10
204.5412416580868
 20
41.48774399964564
 30
0.0
 41
-1.0
  0
DIMENSION
  5
9DC7
330
18
100
AcDbEntity
  8
mark
100
AcDbDimension
  2
*D5
 10
28.26148622057866
 20
34.29930542821171
 30
0.0
 11
44.26148622057865
 21
35.32430542821171
 31
0.0
 70
    32
  1
M32X1.5P
 71
     5
 42
31.99999999999997
  3
STANDARD
100
AcDbAlignedDimension
 13
60.26148622057863
 23
41.94127681071903
 33
0.0
 14
28.26148622057866
 24
41.94127681071903
 34
0.0
100
AcDbRotatedDimension
  0
DIMENSION
  5
9DD4
330
18
100
AcDbEntity
  8
mark
100
AcDbDimension
  2
*D6
 10
74.24241793538499
 20
48.35327681071905
 30
0.0
 11
73.21741793538497
 21
55.80327681071905
 31
0.0
 70
    32
 71
     5
 42
14.9
  3
STANDARD
100
AcDbAlignedDimension
 13
68.26148622057866
 23
63.25327681071904
 33
0.0
 14
68.26148622057866
 24
48.35327681071905
 34
0.0
 50
90.0
100
AcDbRotatedDimension
  0
DIMENSION
  5
9DE1
330
18
100
AcDbEntity
  8
mark
100
AcDbDimension
  2
*D7
 10
74.24241793538499
 20
46.35327681071904
 30
0.0
 11
73.21741793538497
 21
47.35327681071905
 31
0.0
 70
    32
 71
     5
 42
2.0
  3
STANDARD
100
AcDbAlignedDimension
 13
68.26148622057866
 23
48.35327681071905
 33
0.0
 14
68.26148622057866
 24
46.35327681071904
 34
0.0
 50
90.0
100
AcDbRotatedDimension
  0
DIMENSION
  5
9DF0
330
18
100
AcDbEntity
  8
mark
100
AcDbDimension
  2
*D8
 10
78.58249709067457
 20
41.25327681071904
 30
0.0
 11
77.55749709067455
 21
52.25327681071905
 31
0.0
 70
    32
  1
22%%P0.2
 71
     5
 42
22.0
  3
STANDARD
100
AcDbAlignedDimension
 13
68.26148622057866
 23
63.25327681071904
 33
0.0
 14
68.26148622057894
 24
41.25327681071904
 34
0.0
 50
90.0
100
AcDbRotatedDimension
  0
HATCH
  5
A04A
330
18
100
AcDbEntity
  8
mark
100
AcDbHatch
 10
0.0
 20
0.0
 30
0.0
210
0.0
220
0.0
230
1.0
  2
SOLID
 70
     1
 71
     0
 91
        1
 92
        7
 72
     0
 73
     1
 93
        3
 10
28.26148622057866
 20
27.85763876154505
 10
28.26148622057866
 20
29.94097209487839
 10
29.30315288724532
 20
28.89930542821171
 97
        0
 75
     0
 76
     1
 47
0.0340840503434746
 98
        1
 10
28.75569813898912
 20
28.80300634254218
450
        0
451
        0
460
0.0
461
0.0
452
        1
462
1.0
453
        2
463
0.0
 63
     5
421
      255
463
1.0
 63
     7
421
 16777215
470
LINEAR
1001
ACAD
1010
0.0
1020
0.0
1030
0.0
  0
TOLERANCE
  5
A04B
330
18
100
AcDbEntity
  8
mark
100
AcDbFcf
  3
STANDARD
 10
34.51148622057869
 20
29.94097209487836
 30
0.0
  1
%%v%%v%%vA%%v%%v
 11
-0.0000000000000002
 21
-1.0
 31
0.0
  0
LINE
  5
A04C
330
18
100
AcDbEntity
  8
mark
100
AcDbLine
 10
33.26148622057869
 20
28.89930542821171
 30
0.0
 11
29.30315288724532
 21
28.89930542821171
 31
0.0
  0
LINE
  5
A04D
330
18
100
AcDbEntity
  8
mark
100
AcDbLine
 10
28.26148622057866
 20
27.85763876154505
 30
0.0
 11
29.30315288724532
 21
28.89930542821171
 31
0.0
  0
LINE
  5
A04E
330
18
100
AcDbEntity
  8
mark
100
AcDbLine
 10
29.30315288724532
 20
28.89930542821171
 30
0.0
 11
28.26148622057866
 21
29.94097209487839
 31
0.0
  0
TOLERANCE
  5
A04F
330
18
100
AcDbEntity
  8
mark
100
AcDbFcf
  3
STANDARD
 10
83.58249709067456
 20
68.25327681071904
 30
0.0
  1
{\Fgdt;h}%%v0.005%%v%%vA%%v%%v
  0
LINE
  5
A050
330
18
100
AcDbEntity
  8
mark
100
AcDbLine
 10
28.26148622057866
 20
33.89930542821171
 30
0.0
 11
28.26148622057866
 21
29.94097209487839
 31
0.0
  0
LINE
  5
A051
330
18
100
AcDbEntity
  8
mark
100
AcDbLine
 10
78.58249709067457
 20
68.25327681071904
 30
0.0
 11
83.58249709067456
 21
68.25327681071904
 31
0.0
  0
TEXT
  5
A052
330
18
100
AcDbEntity
  8
dim
100
AcDbText
 10
76.6991530197265
 20
34.10601849795866
 30
0.0
 40
2.5
  1
2
  7
TXT
100
AcDbText
  0
LINE
  5
A053
330
18
100
AcDbEntity
  8
mark
100
AcDbLine
 10
78.58249709067457
 20
63.25327681071904
 30
0.0
 11
78.58249709067457
 21
68.25327681071904
 31
0.0
  0
LEADER
  5
A054
330
18
100
AcDbEntity
  8
mark
100
AcDbLeader
  3
STANDARD
 76
     2
 10
65.91212131518962
 20
86.09862767672273
 30
0.0
 10
76.11515370946162
 20
80.2079041773393
 30
0.0
211
0.8660254037844383
221
-0.5000000000000005
231
0.0
1001
ACAD
1000
DSTYLE
1002
{
1070
   147
1040
0.4
1070
    77
1070
     0
1002
}
  0
TEXT
  5
A055
330
18
100
AcDbEntity
  8
dim
100
AcDbText
 10
77.05876672863348
 20
78.95281290567119
 30
0.0
 40
2.5
  1
1
  7
TXT
100
AcDbText
  0
LEADER
  5
A057
330
18
100
AcDbEntity
  8
mark
100
AcDbLeader
  3
STANDARD
 76
     2
 10
64.76148622057869
 20
41.17419217364702
 30
0.0
 10
76.11515370946162
 20
34.80604983788466
 30
0.0
211
0.8660254037844383
221
-0.5000000000000005
231
0.0
1001
ACAD
1000
DSTYLE
1002
{
1070
   147
1040
0.4
1070
    77
1070
     0
1002
}
  0
LEADER
  5
A058
330
18
100
AcDbEntity
  8
mark
100
AcDbLeader
  3
STANDARD
 76
     3
 10
19.26148622057869
 20
56.25327681071905
 30
0.0
 10
13.36148622057868
 20
50.35327681071906
 30
0.0
 10
4.184166337339718
 20
50.35327681071906
 30
0.0
1001
ACAD
1000
DSTYLE
1002
{
1070
   147
1040
0.4
1070
    77
1070
     0
1002
}
  0
TEXT
  5
A059
330
18
100
AcDbEntity
  8
dim
100
AcDbText
 10
4.260935052972399
 20
50.78849634275865
 30
0.0
 40
1.25
  1
4-%%C5深さ6
  7
TXT
100
AcDbText
  0
LEADER
  5
A05A
330
18
100
AcDbEntity
  8
mark
100
AcDbLeader
  3
STANDARD
 76
     3
 10
23.01148622057866
 20
41.25327681071904
 30
0.0
 10
16.05025808735596
 20
34.29204867749637
 30
0.0
 10
5.171652210719855
 20
34.29204867749637
 30
0.0
1001
ACAD
1000
DSTYLE
1002
{
1070
   147
1040
0.4
1070
    77
1070
     0
1002
}
  0
TEXT
  5
A05B
330
18
100
AcDbEntity
  8
dim
100
AcDbText
 10
5.365927302348353
 20
34.61240179084517
 30
0.0
 40
1.25
  1
4-%%C4.3深さ4
  7
TXT
100
AcDbText
  0
LEADER
  5
A05C
330
18
100
AcDbEntity
  8
mark
100
AcDbLeader
  3
STANDARD
 76
     2
 10
60.19948622057862
 20
42.00327681071904
 30
0.0
 10
54.57608874267762
 20
36.37987933281808
 30
0.0
1001
ACAD
1000
DSTYLE
1002
{
1070
   147
1040
0.4
1070
    77
1070
     0
1002
}
  0
TEXT
  5
A05D
330
18
100
AcDbEntity
  8
dim
100
AcDbText
 10
54.69775434542092
 20
37.34892344735495
 30
0.0
 40
1.25
  1
C1.5
 50
45.00000000000007
  7
TXT
100
AcDbText
  0
DIMENSION
  5
A12F
330
18
100
AcDbEntity
  8
mark
100
AcDbDimension
  2
*D9
 10
20.26148622057864
 20
42.25327681071905
 30
0.0
 11
16.18972967224615
 21
39.63108916381889
 31
0.0
 70
    36
 71
     5
 42
0.9999999999999786
  3
STANDARD
100
AcDbRadialDimension
 15
19.55437943939211
 25
41.5461700295325
 35
0.0
 40
0.0
1001
ACAD
1000
DSTYLE
1002
{
1070
   288
1070
     1
1002
}
  0
DIMENSION
  5
A13F
330
18
100
AcDbEntity
  8
mark
100
AcDbDimension
  2
*D10
 10
69.26148622057866
 20
68.21719862751763
 30
0.0
 11
44.26148622057867
 21
69.24219862751764
 31
0.0
 70
    32
  1
%%C50
 71
     5
 42
49.99999999999997
  3
STANDARD
100
AcDbAlignedDimension
 13
19.26148622057869
 23
62.25327681071904
 33
0.0
 14
69.26148622057866
 24
62.25327681071904
 34
0.0
100
AcDbRotatedDimension
  0
MTEXT
  5
A14C
330
18
100
AcDbEntity
  8
mark
 62
     3
100
AcDbMText
 10
46.40016716552866
 20
70.18428100396326
 30
0.0
 40
0.6200000000000001
 41
0.0
 71
     1
 72
     1
  1
+0\P-0.2
 73
     1
 44
1.0
1001
ACAD
1000
ACAD_MTEXT_DEFINED_HEIGHT_BEGIN
1070
    46
1040
0.0
1000
ACAD_MTEXT_DEFINED_HEIGHT_END
  0
HATCH
  5
A262
330
18
100
AcDbEntity
  8
section
100
AcDbHatch
 10
0.0
 20
0.0
 30
0.0
210
0.0
220
0.0
230
1.0
  2
ANSI31
 70
     0
 71
     0
 91
       11
 92
        7
 72
     1
 73
     1
 93
       11
 10
69.26148622057866
 20
62.25327681071904
 42
0.4142135623730951
 10
68.26148622057866
 20
63.25327681071904
 42
0.0
 10
66.76148622057862
 20
63.25327681071905
 42
0.0
 10
66.76148622057869
 20
56.45327681071903
 42
0.0
 10
66.76148622057869
 20
51.15327681071903
 42
0.0
 10
67.51148622057866
 20
51.15327681071904
 42
0.0
 10
67.51148622057866
 20
49.15327681071904
 42
0.0
 10
66.76148622057867
 20
49.15327681071904
 42
0.0
 10
66.76148622057867
 20
48.35327681071905
 42
0.0
 10
68.26148622057866
 20
48.35327681071905
 42
0.4142135623730951
 10
69.26148622057866
 20
49.35327681071904
 42
0.0
 97
        0
 92
        7
 72
     0
 73
     1
 93
        7
 10
62.76148622057869
 20
60.45327681071903
 10
62.76148622057869
 20
63.25327681071904
 10
60.94948622057867
 20
63.25327681071903
 10
60.26148622057867
 20
62.56527681071902
 10
60.26148622057866
 20
51.84127681071902
 10
60.94948622057867
 20
51.15327681071904
 10
62.76148622057871
 20
51.15327681071905
 97
        0
 92
        7
 72
     0
 73
     1
 93
        4
 10
60.26148622057865
 20
62.56527681071901
 10
59.44948622057869
 20
61.75327681071905
 10
59.44948622057864
 20
52.65327681071903
 10
60.26148622057866
 20
51.84127681071903
 97
        0
 92
        7
 72
     0
 73
     1
 93
        4
 10
60.26148622057863
 20
48.46527681071904
 10
59.44948622057864
 20
47.65327681071903
 10
59.4494862205786
 20
42.75327681071902
 10
60.26148622057863
 20
41.94127681071905
 97
        0
 92
        7
 72
     0
 73
     1
 93
       13
 10
62.01148622057866
 20
48.35327681071905
 10
62.76148622057867
 20
48.35327681071905
 10
62.76148622057867
 20
49.15327681071905
 10
60.94948622057866
 20
49.15327681071905
 10
60.26148622057863
 20
48.46527681071903
 10
60.26148622057863
 20
41.94127681071904
 10
60.94948622057863
 20
41.25327681071905
 10
61.26148622057867
 20
41.25327681071905
 10
61.26148622057868
 20
41.55327681071911
 10
61.2614862205787
 20
45.25327681071903
 10
62.76148622057867
 20
45.25327681071903
 10
62.76148622057869
 20
46.35327681071904
 10
62.01148622057866
 20
46.35327681071905
 97
        0
 92
        7
 72
     1
 73
     1
 93
        8
 10
69.26148622057866
 20
45.35327681071904
 42
0.4142135623730951
 10
68.26148622057866
 20
46.35327681071904
 42
0.0
 10
66.76148622057869
 20
46.35327681071905
 42
0.0
 10
66.76148622057869
 20
45.25327681071904
 42
0.0
 10
68.26148622057869
 20
45.25327681071904
 42
0.0
 10
68.26148622057869
 20
41.55327681071899
 42
0.0
 10
68.26148622057894
 20
41.25327681071904
 42
0.4142135623730118
 10
69.26148622057866
 20
42.25327681071904
 42
0.0
 97
        0
 92
        7
 72
     0
 73
     1
 93
        4
 10
66.76148622057863
 20
63.25327681071905
 10
66.36148622057868
 20
63.25327681071906
 10
66.36148622057868
 20
60.85327681071898
 10
66.76148622057865
 20
60.45327681071903
 97
        0
 92
        7
 72
     0
 73
     1
 93
        4
 10
63.14048622057867
 20
63.25327681071904
 10
62.76148622057869
 20
63.25327681071904
 10
62.76148622057869
 20
60.45327681071896
 10
63.14840414613541
 20
60.84019473627571
 97
        0
 92
        7
 72
     0
 73
     1
 93
        4
 10
29.07348622057862
 20
61.75327681071904
 10
28.26148622057863
 20
62.56527681071904
 10
28.26148622057863
 20
51.84127681071903
 10
29.07348622057868
 20
52.65327681071908
 97
        0
 92
        7
 72
     1
 73
     1
 93
       34
 10
28.26148622057863
 20
62.56527681071903
 42
0.0
 10
27.5734862205786
 20
63.25327681071905
 42
0.0
 10
20.26148622057869
 20
63.25327681071904
 42
0.4142135623730951
 10
19.26148622057869
 20
62.25327681071904
 42
0.0
 10
19.26148622057869
 20
59.25327681071903
 42
0.0
 10
19.76148622057865
 20
58.75327681071905
 42
0.0
 10
23.8181105476046
 20
58.75327681071905
 42
0.0
 10
25.26148622057865
 20
56.25327681071903
 42
0.0
 10
23.81811054760454
 20
53.75327681071904
 42
0.0
 10
19.76148622057867
 20
53.75327681071905
 42
0.0
 10
19.26148622057869
 20
53.25327681071906
 42
0.0
 10
19.26148622057869
 20
49.35327681071904
 42
0.4142135623730951
 10
20.26148622057869
 20
48.35327681071905
 42
0.0
 10
26.51148622057866
 20
48.35327681071905
 42
0.0
 10
26.51148622057866
 20
46.35327681071904
 42
0.0
 10
20.26148622057869
 20
46.35327681071903
 42
0.414213562373093
 10
19.26148622057869
 20
45.35327681071904
 42
0.0
 10
19.26148622057866
 20
42.25327681071905
 42
0.414213562373097
 10
20.26148622057866
 20
41.25327681071904
 42
0.0
 10
20.36148622057865
 20
41.25327681071904
 42
0.0
 10
20.86148622057866
 20
41.75327681071904
 42
0.0
 10
20.86148622057869
 20
44.01197373196136
 42
0.0
 10
23.01148622057869
 20
45.25327681071904
 42
0.0
 10
25.16148622057864
 20
44.01197373196136
 42
0.0
 10
25.16148622057864
 20
41.75327681071908
 42
0.0
 10
25.66148622057868
 20
41.25327681071904
 42
0.0
 10
27.57348622057867
 20
41.25327681071904
 42
0.0
 10
28.26148622057866
 20
41.94127681071903
 42
0.0
 10
28.26148622057866
 20
48.46527681071901
 42
0.0
 10
27.57348622057857
 20
49.15327681071911
 42
0.0
 10
21.01148622057866
 20
49.15327681071911
 42
0.0
 10
21.01148622057866
 20
51.15327681071908
 42
0.0
 10
27.57348622057868
 20
51.15327681071907
 42
0.0
 10
28.26148622057863
 20
51.84127681071901
 42
0.0
 97
        0
 92
        7
 72
     0
 73
     1
 93
        4
 10
29.07348622057865
 20
47.65327681071904
 10
28.26148622057866
 20
48.465276810719
 10
28.26148622057866
 20
41.94127681071903
 10
29.07348622057868
 20
42.75327681071905
 97
        0
 75
     0
 76
     1
 52
0.0
 41
0.5
 77
     0
 78
     1
 53
45.0
 43
-1.6913920478122
 44
0.0
 45
-1.122532015133643
 46
1.122532015133644
 79
     0
 47
0.0920053285866075
 98
       24
 10
24.27902366092832
 20
60.11241777984583
 10
28.89310885524168
 20
55.39496087855184
 10
28.99797401153825
 20
45.64555026579
 10
60.08066268678288
 20
45.96465732101546
 10
60.81472173525634
 20
45.96465732101546
 10
59.97579753048632
 20
55.7140679337773
 10
60.9195874824324
 20
55.7140679337773
 10
67.84071497846269
 20
55.81890032559647
 10
68.67963977411221
 20
45.75499253737717
 10
66.68750078950091
 20
53.34502807338123
 10
62.9696314756182
 20
54.06771841322387
 10
67.1522346014562
 20
58.50710130319942
 10
63.33109077887257
 20
58.40385972171231
 10
67.9267907577551
 20
59.28141243378559
 10
62.34998619605147
 20
58.3006185055088
 10
59.97468076824413
 20
57.68116974715332
 10
60.12959223585568
 20
46.63433258239069
 10
61.007422309976
 20
46.63433258239069
 10
68.64970995514323
 20
44.6727447258371
 10
66.53258991276885
 20
61.96569026489817
 10
62.86635696691729
 20
61.86244904869472
 10
28.96711355736744
 20
56.01514385706053
 10
26.57421764704765
 20
56.01514385706053
 10
28.96711355736744
 20
45.2505204633162
1001
ACAD
1010
0.0
1020
0.0
1030
0.0
  0
ARC
  5
A270
330
18
100
AcDbEntity
  8
center
 48
0.1
100
AcDbCircle
 10
44.26148622057868
 20
98.59862767672268
 30
0.0
 40
21.24999999999999
100
AcDbArc
 50
212.4371849935591
 51
237.5628150064418
  0
ARC
  5
A271
330
18
100
AcDbEntity
  8
center
 48
0.2
100
AcDbCircle
 10
44.26148622057868
 20
98.59862767672273
 30
0.0
 40
21.24999999999999
100
AcDbArc
 50
122.4371849935591
 51
164.7086177820558
  0
ARC
  5
A272
330
18
100
AcDbEntity
  8
center
 48
0.2
100
AcDbCircle
 10
44.26148622057865
 20
98.59862767672277
 30
0.0
 40
21.24999999999999
100
AcDbArc
 50
285.2913822179441
 51
327.5628150064404
  0
ARC
  5
A273
330
18
100
AcDbEntity
  8
center
 48
0.1
100
AcDbCircle
 10
44.26148622057873
 20
98.59862767672275
 30
0.0
 40
21.24999999999999
100
AcDbArc
 50
32.43718499355809
 51
57.56281500643966
  0
DIMENSION
  5
A274
330
18
100
AcDbEntity
  8
mark
100
AcDbDimension
  2
*D11
 10
24.76628425248968
 20
92.25929804154686
 30
0.0
 11
74.15670800725727
 21
108.3197716655185
 31
0.0
 70
   163
  1
P.C.D 41
 71
     5
 42
40.99999999999998
  3
STANDARD
100
AcDbDiametricDimension
 15
63.75668818866765
 25
104.9379573118986
 35
0.0
 40
0.0
1001
ACAD
1000
DSTYLE
1002
{
1070
   288
1070
     1
1002
}
  0
DIMENSION
  5
A280
330
18
100
AcDbEntity
  8
mark
100
AcDbDimension
  2
*D12
 10
64.29339194239087
 20
91.50741810765568
 30
0.0
 11
14.54305022452508
 21
109.1188278333885
 31
0.0
 70
   163
  1
P.C.D 42.5
 71
     5
 42
42.49999999999999
  3
STANDARD
100
AcDbDiametricDimension
 15
24.22958049876652
 25
105.6898372457898
 35
0.0
 40
0.0
1001
ACAD
1000
DSTYLE
1002
{
1070
   288
1070
     1
1002
}
  0
DIMENSION
  5
A317
330
18
100
AcDbEntity
  8
mark
100
AcDbDimension
  2
*D13
 10
15.37595932627334
 20
56.25327681071905
 30
0.0
 11
14.35095932627334
 21
59.75327681071905
 31
0.0
 70
    32
 71
     5
 42
7.0
  3
STANDARD
100
AcDbAlignedDimension
 13
20.26148622057869
 23
63.25327681071904
 33
0.0
 14
18.26148622057866
 24
56.25327681071905
 34
0.0
 50
90.0
100
AcDbRotatedDimension
  0
MTEXT
  5
A33D
330
18
100
AcDbEntity
  8
0
100
AcDbMText
 10
23.82548616095238
 20
9.538029508083077
 30
0.0
 40
2.25
 41
0.0
 71
     1
 72
     5
  1
{\Ftxt,bigfont|c128;小\~柳}
  7
JL
 73
     1
 44
1.0
1001
ACAD
1000
ACAD_MTEXT_DEFINED_HEIGHT_BEGIN
1070
    46
1040
0.0
1000
ACAD_MTEXT_DEFINED_HEIGHT_END
  0
MTEXT
  5
A366
330
18
100
AcDbEntity
  8
dim
100
AcDbMText
 10
4.966309857422174
 20
20.44354283834303
 30
0.0
 40
2.25
 41
0.0
 71
     1
 72
     5
  1
{\Ftxt,bigfont|c128;07.10.03\~寸法一部変更  林}
  7
JL
 73
     1
 44
1.0
1001
ACAD
1000
ACAD_MTEXT_DEFINED_HEIGHT_BEGIN
1070
    46
1040
0.0
1000
ACAD_MTEXT_DEFINED_HEIGHT_END
  0
CIRCLE
  5
A367
330
18
100
AcDbEntity
  8
dim
100
AcDbCircle
 10
22.18066791909462
 20
19.33593404993502
 30
0.0
 40
1.415637055873787
  0
LWPOLYLINE
  5
A36C
330
18
100
AcDbEntity
  8
mark
100
AcDbPolyline
 90
        3
 70
     1
 43
0.0
 10
69.71093889355109
 20
52.47753188691892
 10
71.96093889355108
 20
51.17849378124226
 10
71.96093889355108
 20
53.77656999259558
  0
TEXT
  5
A36D
330
18
100
AcDbEntity
  8
dim
100
AcDbText
 10
71.68133142557934
 20
52.28715008476335
 30
0.0
 40
1.25
  1
1
 50
90.0
  7
TXT
100
AcDbText
  0
MTEXT
  5
A3AF
330
18
100
AcDbEntity
  8
mark
 62
     3
100
AcDbMText
 10
71.33057441311371
 20
56.42974684851924
 30
0.0
 40
1.25
 41
0.0
 71
     5
 72
     1
  1
14.25
 11
0.0000000000000001
 21
1.0
 31
0.0
 73
     1
 44
1.0
1001
ACAD
1000
ACAD_MTEXT_DEFINED_HEIGHT_BEGIN
1070
    46
1040
0.0
1000
ACAD_MTEXT_DEFINED_HEIGHT_END
  0
LINE
  5
A3B0
330
18
100
AcDbEntity
  8
mark
 62
     1
100
AcDbLine
 10
72.97705291314162
 20
53.98045055348882
 30
0.0
 11
72.97705291314162
 21
57.7211774823515
 31
0.0
  0
LINE
  5
A3B1
330
18
100
AcDbEntity
  8
mark
 62
     1
100
AcDbLine
 10
73.43612459106987
 20
53.98045055348882
 30
0.0
 11
73.43612459106987
 21
57.7211774823515
 31
0.0
  0
LWPOLYLINE
  5
A3F2
330
18
100
AcDbEntity
  8
mark
100
AcDbPolyline
 90
        3
 70
     1
 43
0.0
 10
4.102741403785105
 20
21.62785935464988
 10
2.659365730811049
 20
24.12785935464988
 10
1.215990057836978
 20
21.62785935464988
  0
MTEXT
  5
A3F3
330
18
100
AcDbEntity
  8
dim
100
AcDbMText
 10
2.269046274005279
 20
23.19385423249331
 30
0.0
 40
1.25
 41
4.581557073439626
 71
     1
 72
     5
  1
2
 73
     1
 44
1.0
1001
ACAD
1000
ACAD_MTEXT_DEFINED_HEIGHT_BEGIN
1070
    46
1040
0.0
1000
ACAD_MTEXT_DEFINED_HEIGHT_END
  0
MTEXT
  5
A3F4
330
18
100
AcDbEntity
  8
dim
100
AcDbMText
 10
4.984340659520938
 20
23.85813834587503
 30
0.0
 40
2.25
 41
0.0
 71
     1
 72
     5
  1
{\Ftxt,bigfont|c128;08.08.08 振れ精度の変更  林}
  7
JL
 73
     1
 44
1.0
1001
ACAD
1000
ACAD_MTEXT_DEFINED_HEIGHT_BEGIN
1070
    46
1040
0.0
1000
ACAD_MTEXT_DEFINED_HEIGHT_END
  0
CIRCLE
  5
A3F5
330
18
100
AcDbEntity
  8
dim
100
AcDbCircle
 10
23.87149230653381
 20
22.70322903589164
 30
0.0
 40
1.381204854054431
  0
LWPOLYLINE
  5
A3F6
330
18
100
AcDbEntity
  8
mark
100
AcDbPolyline
 90
        3
 70
     1
 43
0.0
 10
4.084710601686341
 20
18.21326384711788
 10
2.641334928712285
 20
20.71326384711788
 10
1.197959255738214
 20
18.21326384711788
  0
MTEXT
  5
A3F7
330
18
100
AcDbEntity
  8
dim
100
AcDbMText
 10
2.467360459186255
 20
19.88736773445906
 30
0.0
 40
1.25
 41
4.581557073439626
 71
     1
 72
     5
  1
1
 73
     1
 44
1.0
1001
ACAD
1000
ACAD_MTEXT_DEFINED_HEIGHT_BEGIN
1070
    46
1040
0.0
1000
ACAD_MTEXT_DEFINED_HEIGHT_END
  0
LWPOLYLINE
  5
A3F8
330
18
100
AcDbEntity
  8
mark
100
AcDbPolyline
 90
        3
 70
     1
 43
0.0
 10
86.71230375779712
 20
70.3206830849536
 10
85.26892808482307
 20
72.8206830849536
 10
83.82555241184901
 20
70.3206830849536
  0
MTEXT
  5
A3F9
330
18
100
AcDbEntity
  8
dim
100
AcDbMText
 10
84.8786086280173
 20
71.88667796279702
 30
0.0
 40
1.25
 41
4.581557073439626
 71
     1
 72
     5
  1
2
 73
     1
 44
1.0
1001
ACAD
1000
ACAD_MTEXT_DEFINED_HEIGHT_BEGIN
1070
    46
1040
0.0
1000
ACAD_MTEXT_DEFINED_HEIGHT_END
  0
MTEXT
  5
A3FA
330
18
100
AcDbEntity
  8
dim
100
AcDbMText
 10
87.27568512234425
 20
71.88667796279702
 30
0.0
 40
1.25
 41
4.581557073439626
 71
     1
 72
     5
  1
0.007
 73
     1
 44
1.0
1001
ACAD
1000
ACAD_MTEXT_DEFINED_HEIGHT_BEGIN
1070
    46
1040
0.0
1000
ACAD_MTEXT_DEFINED_HEIGHT_END
  0
LINE
  5
A3FB
330
18
100
AcDbEntity
  8
mark
 62
     1
100
AcDbLine
 10
86.95914272738912
 20
68.4767579062688
 30
0.0
 11
91.99938090721445
 21
68.4767579062688
 31
0.0
  0
LINE
  5
A3FC
330
18
100
AcDbEntity
  8
mark
 62
     1
100
AcDbLine
 10
86.95914272738912
 20
68.04794774374915
 30
0.0
 11
91.99938090721445
 21
68.04794774374915
 31
0.0
  0
LWPOLYLINE
  5
A3FD
330
18
100
AcDbEntity
  8
mark
100
AcDbPolyline
 90
        3
 70
     1
 43
0.0
 10
90.78586819092764
 20
1.625797520327637
 10
89.34249251795359
 20
4.125797520327637
 10
87.89911684497951
 20
1.625797520327637
  0
MTEXT
  5
A3FE
330
18
100
AcDbEntity
  8
dim
100
AcDbMText
 10
88.95217306114782
 20
3.19179239817106
 30
0.0
 40
1.25
 41
4.581557073439626
 71
     1
 72
     5
  1
2
 73
     1
 44
1.0
1001
ACAD
1000
ACAD_MTEXT_DEFINED_HEIGHT_BEGIN
1070
    46
1040
0.0
1000
ACAD_MTEXT_DEFINED_HEIGHT_END
  0
ENDSEC
  0
SECTION
  2
OBJECTS
  0
DICTIONARY
  5
C
330
0
100
AcDbDictionary
281
     1
  3
ACAD_COLOR
350
7873
  3
ACAD_GROUP
350
D
  3
ACAD_LAYOUT
350
5CF3
  3
ACAD_MATERIAL
350
7872
  3
ACAD_MLINESTYLE
350
1B
  3
ACAD_PLOTSETTINGS
350
5CF4
  3
ACAD_PLOTSTYLENAME
350
5CF1
  3
ACAD_TABLESTYLE
350
7874
  3
AcadDim
350
9A73
  3
ACDBVARIABLEDICTIONARY
350
45D
  0
DICTIONARY
  5
7BFE
330
2
100
AcDbDictionary
280
     1
281
     1
  3
ACAD_LAYERFILTERS
360
7C00
  3
ACLYDICTIONARY
360
7BFF
  0
DICTIONARY
  5
45F
330
18
100
AcDbDictionary
280
     1
281
     1
  3
ACAD_LAYOUTSELFREF
360
5D8B
  3
ACAD_SORTENTS
360
460
  0
DICTIONARY
  5
5D89
330
15
100
AcDbDictionary
280
     1
281
     1
  3
ACAD_LAYOUTSELFREF
360
5D8A
  0
DICTIONARY
  5
7C0B
330
7C0A
100
AcDbDictionary
280
     1
281
     1
  3
AcDbBlockTableRecordData
360
7C0C
  0
DICTIONARY
  5
8E73
330
8E72
100
AcDbDictionary
280
     1
281
     1
  3
AcDbBlockTableRecordData
360
8E74
  0
DICTIONARY
  5
9D16
330
9D15
100
AcDbDictionary
280
     1
281
     1
  3
AcDbBlockTableRecordData
360
9D17
  0
DICTIONARY
  5
7873
102
{ACAD_REACTORS
330
C
102
}
330
C
100
AcDbDictionary
281
     1
  0
DICTIONARY
  5
D
102
{ACAD_REACTORS
330
C
102
}
330
C
100
AcDbDictionary
281
     1
  0
DICTIONARY
  5
5CF3
102
{ACAD_REACTORS
330
C
102
}
330
C
100
AcDbDictionary
281
     1
  3
Model
350
5CF5
  3
配置1
350
5CF6
  0
DICTIONARY
  5
7872
102
{ACAD_REACTORS
330
C
102
}
330
C
100
AcDbDictionary
281
     1
  0
DICTIONARY
  5
1B
102
{ACAD_REACTORS
330
C
102
}
330
C
100
AcDbDictionary
281
     1
  3
STANDARD
350
1C
  0
DICTIONARY
  5
5CF4
102
{ACAD_REACTORS
330
C
102
}
330
C
100
AcDbDictionary
281
     1
  0
ACDBDICTIONARYWDFLT
  5
5CF1
102
{ACAD_REACTORS
330
C
102
}
330
C
100
AcDbDictionary
281
     1
  3
Normal
350
5CF2
100
AcDbDictionaryWithDefault
340
5CF2
  0
DICTIONARY
  5
7874
102
{ACAD_REACTORS
330
C
102
}
330
C
100
AcDbDictionary
281
     1
  3
Standard
350
7875
  0
XRECORD
  5
9A73
102
{ACAD_REACTORS
330
C
102
}
330
C
100
AcDbXrecord
280
     1
 90
   990106
  3

 60
     0
 61
     0
 62
     1
 63
     3
 64
     0
 65
     0
 66
     0
 67
     3
 68
     1
 69
     0
 70
     0
 71
     0
 72
     0
 40
0.0
170
     0
  0
DICTIONARY
  5
45D
102
{ACAD_REACTORS
330
C
102
}
330
C
100
AcDbDictionary
281
     1
  3
CTABLESTYLE
350
7880
  3
SORTENTS
350
45E
  0
DICTIONARY
  5
7C00
102
{ACAD_REACTORS
330
7BFE
102
}
330
7BFE
100
AcDbDictionary
281
     1
  0
DICTIONARY
  5
7BFF
102
{ACAD_REACTORS
330
7BFE
102
}
330
7BFE
100
AcDbDictionary
281
     1
1001
ACAD
1000
<All
  0
XRECORD
  5
5D8B
102
{ACAD_REACTORS
330
45F
102
}
330
45F
100
AcDbXrecord
280
     1
340
18
  0
SORTENTSTABLE
  5
460
102
{ACAD_REACTORS
330
45F
102
}
330
45F
100
AcDbSortentsTable
330
18
331
7D9C
  5
7D9C
331
9AA2
  5
9ADB
331
9B19
  5
9B43
331
9D87
  5
9D89
331
9CF1
  5
9A9E
331
7DA4
  5
7DA4
331
C0
  5
CB
331
7D6D
  5
7D6D
331
9D8F
  5
9D91
331
9CF9
  5
9D39
331
7DAC
  5
7DAC
331
7D75
  5
7D75
331
9AC2
  5
9AE5
331
9D97
  5
9D99
331
9D58
  5
9D5A
331
7DB4
  5
7DB4
331
9ACA
  5
9AED
331
9D60
  5
9D62
331
7DBC
  5
7DBC
331
7D7D
  5
7D7D
331
9D68
  5
9D6A
331
7D85
  5
7D85
331
9B02
  5
9B27
331
9DC7
  5
9DD4
331
A04E
  5
A04F
331
9D70
  5
9D72
331
7D8D
  5
7D8D
331
9B0A
  5
9B31
331
9D78
  5
9D7A
331
7D95
  5
7D95
331
9B12
  5
9B3B
331
9D80
  5
9D82
331
7D9D
  5
7D9D
331
9B1A
  5
9B44
331
9D88
  5
9D8A
331
9D39
  5
9D3D
331
7D6E
  5
7D6E
331
7DA5
  5
7DA5
331
9D90
  5
9D92
331
9CFA
  5
9D3A
331
7DAD
  5
7DAD
331
7D76
  5
7D76
331
9AC3
  5
9AE7
331
9D59
  5
9D5B
331
7DB5
  5
7DB5
331
9ACB
  5
9AEE
331
9D98
  5
9D9A
331
9D61
  5
9D63
331
7DBD
  5
7DBD
331
7D7E
  5
7D7E
331
9D69
  5
9D6B
331
7D86
  5
7D86
331
9B03
  5
9B28
331
A04F
  5
A050
331
9D71
  5
9D73
331
7D8E
  5
7D8E
331
9B0B
  5
9B32
331
A057
  5
A058
331
9D79
  5
9D7B
331
7D96
  5
7D96
331
9B13
  5
9B3C
331
9D81
  5
9D83
331
7D9E
  5
7D9E
331
9B1B
  5
9B45
331
A36C
  5
A36C
331
A12F
  5
A13F
331
9D89
  5
9D8B
331
9CF3
  5
9D10
331
7D6F
  5
7D6F
331
7DA6
  5
7DA6
331
9D3A
  5
9D40
331
9CFB
  5
9D3B
331
7DAE
  5
7DAE
331
7D77
  5
7D77
331
9AC4
  5
9AE8
331
9D91
  5
9D93
331
9DF0
  5
A04A
331
A13F
  5
A14C
331
9D5A
  5
9D5C
331
7DB6
  5
7DB6
331
9D99
  5
9D9B
331
9D62
  5
9D64
331
7D7F
  5
7D7F
331
9D6A
  5
9D6C
331
9B04
  5
9B29
331
7D87
  5
7D87
331
A050
  5
A051
331
9D72
  5
9D74
331
9B0C
  5
9B33
331
7D8F
  5
7D8F
331
A33D
  5
A33D
331
A058
  5
A059
331
9D7A
  5
9D7C
331
7D97
  5
7D97
331
9A9D
  5
9AD7
331
9D82
  5
9D84
331
9B1C
  5
9B46
331
7D9F
  5
7D9F
331
A36D
  5
A36D
331
9DE1
  5
9DF0
331
9D8A
  5
9D8C
331
9CF4
  5
9D11
331
7D70
  5
7D70
331
9D3B
  5
9D41
331
7DAF
  5
7DAF
331
9AC5
  5
9AE9
331
9D92
  5
9D94
331
9D5B
  5
9D5D
331
7DB7
  5
7DB7
331
7D78
  5
7D78
331
9D9A
  5
9D9C
331
9D63
  5
9D65
331
9AFD
  5
9B20
331
7D80
  5
7D80
331
9D6B
  5
9D6D
331
9B05
  5
9B2A
331
7D88
  5
7D88
331
A051
  5
A052
331
9D73
  5
9D75
331
7D90
  5
7D90
331
9B0D
  5
9B34
331
A059
  5
A05A
331
A270
  5
A270
331
9B15
  5
9B3E
331
9D7B
  5
9D7D
331
A366
  5
A366
331
7D98
  5
7D98
331
9D83
  5
9D85
331
7DA0
  5
7DA0
331
9B1D
  5
9B47
331
A280
  5
A280
331
9D8B
  5
9D8D
331
7D71
  5
7D71
331
7DA8
  5
7DA8
331
9AB6
  5
9AE0
331
9CF5
  5
9D12
331
9D93
  5
9D95
331
9D54
  5
9D56
331
7DB0
  5
7DB0
331
9AC6
  5
9AEA
331
A317
  5
A317
331
9D5C
  5
9D5E
331
7DB8
  5
7DB8
331
7D79
  5
7D79
331
9D9B
  5
9D9D
331
9D64
  5
9D66
331
7D81
  5
7D81
331
9AFE
  5
9B23
331
A04A
  5
A04B
331
9D6C
  5
9D6E
331
7D89
  5
7D89
331
9B06
  5
9B2C
331
A052
  5
A053
331
9D74
  5
9D76
331
7D91
  5
7D91
331
9B0E
  5
9B36
331
A05A
  5
A05B
331
A271
  5
A271
331
9D7C
  5
9D7E
331
9B16
  5
9B40
331
A367
  5
A367
331
7D99
  5
7D99
331
9D84
  5
9D86
331
9B1E
  5
9B48
331
9D8C
  5
9D8E
331
7D72
  5
7D72
331
7DA9
  5
7DA9
331
9AB7
  5
9AE3
331
9CF6
  5
9D13
331
9D94
  5
9D96
331
9D55
  5
9D57
331
7DB1
  5
7DB1
331
9AC7
  5
9AEB
331
9D5D
  5
9D5F
331
7D7A
  5
7D7A
331
9D9C
  5
9D9E
331
9D65
  5
9D67
331
7D82
  5
7D82
331
9AFF
  5
9B24
331
A04B
  5
A04C
331
9D6D
  5
9D6F
331
7D8A
  5
7D8A
331
9B07
  5
9B2F
331
A053
  5
A054
331
A262
  5
9D55
331
9D75
  5
9D77
331
7D92
  5
7D92
331
9B0F
  5
9B37
331
A05B
  5
A05C
331
9DD4
  5
9DE1
331
A272
  5
A272
331
A3AF
  5
A3AF
331
9D7D
  5
9D7F
331
9B17
  5
9B41
331
7D9A
  5
7D9A
331
9AA0
  5
9AD8
331
9D85
  5
9D87
331
7DA2
  5
7DA2
331
9B1F
  5
9B49
331
9D8D
  5
9D8F
331
7DAA
  5
7DAA
331
7D73
  5
7D73
331
9AC0
  5
9AE4
331
9CF7
  5
9D14
331
9D95
  5
9D97
331
9D56
  5
9D58
331
7DB2
  5
7DB2
331
9D5E
  5
9D60
331
7DBA
  5
7DBA
331
7D7B
  5
7D7B
331
9D9D
  5
9DAC
331
9D66
  5
9D68
331
7D83
  5
7D83
331
9B00
  5
9B25
331
A04C
  5
A04D
331
9D6E
  5
9D70
331
7D8B
  5
7D8B
331
A054
  5
A055
331
9D76
  5
9D78
331
7D93
  5
7D93
331
9B10
  5
9B39
331
A05C
  5
A05D
331
A273
  5
A273
331
9D7E
  5
9D80
331
7D9B
  5
7D9B
331
9AA1
  5
9ADA
331
9B18
  5
9B42
331
9D86
  5
9D88
331
7DA3
  5
7DA3
331
7D6C
  5
7D6C
331
9D8E
  5
9D90
331
9CF8
  5
9D34
331
7D74
  5
7D74
331
9D96
  5
9D98
331
9D57
  5
9D59
331
9AC9
  5
9AEC
331
9D5F
  5
9D61
331
7D7C
  5
7D7C
331
7DBB
  5
7DBB
331
9AF9
  5
9B1F
331
9D9E
  5
9DC7
331
9D67
  5
9D69
331
7D84
  5
7D84
331
9B01
  5
9B26
331
A04D
  5
A04E
331
A14C
  5
A1B5
331
9D6F
  5
9D71
331
7D8C
  5
7D8C
331
9B09
  5
9B30
331
A055
  5
A057
331
9D77
  5
9D79
331
7D94
  5
7D94
331
9B11
  5
9B3A
331
A05D
  5
A116
331
A274
  5
A274
331
9D7F
  5
9D81
  0
XRECORD
  5
5D8A
102
{ACAD_REACTORS
330
5D89
102
}
330
5D89
100
AcDbXrecord
280
     1
340
15
  0
DICTIONARY
  5
7C0C
102
{ACAD_REACTORS
330
7C0B
102
}
330
7C0B
100
AcDbDictionary
280
     1
281
     1
  3
Edit
360
7C0D
  0
DICTIONARY
  5
8E74
102
{ACAD_REACTORS
330
8E73
102
}
330
8E73
100
AcDbDictionary
280
     1
281
     1
  3
Edit
360
8E75
  0
DICTIONARY
  5
9D17
102
{ACAD_REACTORS
330
9D16
102
}
330
9D16
100
AcDbDictionary
280
     1
281
     1
  3
Edit
360
9D18
  0
LAYOUT
  5
5CF5
102
{ACAD_REACTORS
330
5CF3
102
}
330
5CF3
100
AcDbPlotSettings
  1

  2
hp LaserJet 1300 PCL 6
  4
A4
  6

 40
5.027083396911621
 41
5.069413185119628
 42
5.027084350585937
 43
5.027069091796875
 44
209.9733276367187
 45
296.9683227539062
 46
4.959579944610595
 47
3.435920238494873
 48
0.0
 49
0.0
140
95.0
141
140.0
142
1.0
143
0.5
 70
 11956
 72
     1
 73
     0
 74
     4
  7
LIN.ctb
 75
    27
147
2.0
 76
     0
 77
     2
 78
   300
148
0.0
149
0.0
100
AcDbLayout
  1
Model
 70
     1
 71
     0
 10
0.0
 20
0.0
 11
12.0
 21
9.0
 12
0.0
 22
0.0
 32
0.0
 14
0.0
 24
0.0
 34
0.0
 15
0.0
 25
0.0
 35
0.0
146
0.0
 13
0.0
 23
0.0
 33
0.0
 16
1.0
 26
0.0
 36
0.0
 17
0.0
 27
1.0
 37
0.0
 76
     0
330
18
1001
ACAD_PSEXT
1000
hp LaserJet 1300 PCL 6
1000
hp LaserJet 1300 PCL 6
1000
HP 1300
1000

1070
     0
  0
LAYOUT
  5
5CF6
102
{ACAD_REACTORS
330
5CF3
102
}
330
5CF3
100
AcDbPlotSettings
  1

  2
EPSON STYLUS COLOR 440
  4

  6

 40
0.0
 41
0.0
 42
0.0
 43
0.0
 44
0.0
 45
0.0
 46
0.0
 47
0.0
 48
0.0
 49
0.0
140
0.0
141
0.0
142
1.0
143
1.0
 70
   688
 72
     0
 73
     0
 74
     5
  7
LIN.ctb
 75
    16
147
1.0
 76
     0
 77
     2
 78
   300
148
0.0
149
0.0
100
AcDbLayout
  1
ｰtｸm1
 70
     1
 71
     1
 10
0.0
 20
0.0
 11
420.0
 21
297.0
 12
0.0
 22
0.0
 32
0.0
 14
1.000000000000000E+20
 24
1.000000000000000E+20
 34
1.000000000000000E+20
 15
-1.000000000000000E+20
 25
-1.000000000000000E+20
 35
-1.000000000000000E+20
146
0.0
 13
0.0
 23
0.0
 33
0.0
 16
1.0
 26
0.0
 36
0.0
 17
0.0
 27
1.0
 37
0.0
 76
     0
330
15
  0
MLINESTYLE
  5
1C
102
{ACAD_REACTORS
330
1B
102
}
330
1B
100
AcDbMlineStyle
  2
STANDARD
 70
     0
  3

 62
   256
 51
90.0
 52
90.0
 71
     2
 49
0.5
 62
   256
  6
BYLAYER
 49
-0.5
 62
   256
  6
BYLAYER
  0
ACDBPLACEHOLDER
  5
5CF2
102
{ACAD_REACTORS
330
5CF1
102
}
330
5CF1
  0
TABLESTYLE
  5
7875
102
{ACAD_REACTORS
330
7874
102
}
330
7874
100
AcDbTableStyle
  3
Standard
 70
     0
 71
     8
 40
1.5
 41
1.5
280
     0
281
     0
  7
STANDARD
140
4.5
170
     2
 62
     0
 63
     7
283
     0
274
    -2
284
     1
 64
     0
275
    -2
285
     1
 65
     0
276
    -2
286
     1
 66
     0
277
    -2
287
     1
 67
     0
278
    -2
288
     1
 68
     0
279
    -2
289
     1
 69
     0
  7
STANDARD
140
6.0
170
     5
 62
     0
 63
     7
283
     0
274
    -2
284
     1
 64
     0
275
    -2
285
     1
 65
     0
276
    -2
286
     1
 66
     0
277
    -2
287
     1
 67
     0
278
    -2
288
     1
 68
     0
279
    -2
289
     1
 69
     0
  7
STANDARD
140
4.5
170
     5
 62
     0
 63
     7
283
     0
274
    -2
284
     1
 64
     0
275
    -2
285
     1
 65
     0
276
    -2
286
     1
 66
     0
277
    -2
287
     1
 67
     0
278
    -2
288
     1
 68
     0
279
    -2
289
     1
 69
     0
  0
DICTIONARYVAR
  5
7880
102
{ACAD_REACTORS
330
45D
102
}
330
45D
100
DictionaryVariables
280
     0
  1
STANDARD
  0
DICTIONARYVAR
  5
45E
102
{ACAD_REACTORS
330
45D
102
}
330
45D
100
DictionaryVariables
280
     0
  1
127
  0
XRECORD
  5
7C0D
102
{ACAD_REACTORS
330
7C0C
102
}
330
7C0C
100
AcDbXrecord
280
     1
1070
     0
1070
     1
1070
     1
  0
XRECORD
  5
8E75
102
{ACAD_REACTORS
330
8E74
102
}
330
8E74
100
AcDbXrecord
280
     1
1070
     0
1070
     1
1070
     1
  0
XRECORD
  5
9D18
102
{ACAD_REACTORS
330
9D17
102
}
330
9D17
100
AcDbXrecord
280
     1
1070
     0
1070
     1
1070
     1
  0
ENDSEC
  0
EOF
