  0
SECTION
  2
HEADER
  9
$ACADVER
  1
AC1018
  9
$ACADMAINTVER
 70
    76
  9
$DWGCODEPAGE
  3
ANSI_932
  9
$INSBASE
 10
0.0
 20
0.0
 30
0.0
  9
$EXTMIN
 10
0.0
 20
0.0
 30
0.0
  9
$EXTMAX
 10
190.0
 20
280.0
 30
3.838383838383842
  9
$LIMMIN
 10
0.0
 20
0.0
  9
$LIMMAX
 10
420.0
 20
297.0
  9
$ORTHOMODE
 70
     1
  9
$REGENMODE
 70
     1
  9
$FILLMODE
 70
     1
  9
$QTEXTMODE
 70
     0
  9
$MIRRTEXT
 70
     1
  9
$LTSCALE
 40
1.0
  9
$ATTMODE
 70
     1
  9
$TEXTSIZE
 40
1.25
  9
$TRACEWID
 40
1.0
  9
$TEXTSTYLE
  7
TXT
  9
$CLAYER
  8
mark
  9
$CELTYPE
  6
BYLAYER
  9
$CECOLOR
 62
   256
  9
$CELTSCALE
 40
1.0
  9
$DISPSILH
 70
     0
  9
$DIMSCALE
 40
1.0
  9
$DIMASZ
 40
2.5
  9
$DIMEXO
 40
0.85
  9
$DIMDLI
 40
0.38
  9
$DIMRND
 40
0.0
  9
$DIMDLE
 40
0.0
  9
$DIMEXE
 40
0.85
  9
$DIMTP
 40
0.0
  9
$DIMTM
 40
0.0
  9
$DIMTXT
 40
2.5
  9
$DIMCEN
 40
0.09
  9
$DIMTSZ
 40
0.0
  9
$DIMTOL
 70
     0
  9
$DIMLIM
 70
     0
  9
$DIMTIH
 70
     0
  9
$DIMTOH
 70
     0
  9
$DIMSE1
 70
     0
  9
$DIMSE2
 70
     0
  9
$DIMTAD
 70
     3
  9
$DIMZIN
 70
     8
  9
$DIMBLK
  1
Open30
  9
$DIMASO
 70
     1
  9
$DIMSHO
 70
     1
  9
$DIMPOST
  1

  9
$DIMAPOST
  1

  9
$DIMALT
 70
     0
  9
$DIMALTD
 70
     2
  9
$DIMALTF
 40
25.4
  9
$DIMLFAC
 40
1.0
  9
$DIMTOFL
 70
     1
  9
$DIMTVP
 40
0.0
  9
$DIMTIX
 70
     0
  9
$DIMSOXD
 70
     0
  9
$DIMSAH
 70
     0
  9
$DIMBLK1
  1

  9
$DIMBLK2
  1

  9
$DIMSTYLE
  2
STANDARD
  9
$DIMCLRD
 70
   256
  9
$DIMCLRE
 70
   256
  9
$DIMCLRT
 70
     3
  9
$DIMTFAC
 40
1.0
  9
$DIMGAP
 40
0.85
  9
$DIMJUST
 70
     0
  9
$DIMSD1
 70
     0
  9
$DIMSD2
 70
     0
  9
$DIMTOLJ
 70
     1
  9
$DIMTZIN
 70
     0
  9
$DIMALTZ
 70
     0
  9
$DIMALTTZ
 70
     0
  9
$DIMUPT
 70
     0
  9
$DIMDEC
 70
     2
  9
$DIMTDEC
 70
     2
  9
$DIMALTU
 70
     2
  9
$DIMALTTD
 70
     2
  9
$DIMTXSTY
  7
STANDARD
  9
$DIMAUNIT
 70
     0
  9
$DIMADEC
 70
     2
  9
$DIMALTRND
 40
0.0
  9
$DIMAZIN
 70
     2
  9
$DIMDSEP
 70
    46
  9
$DIMATFIT
 70
     3
  9
$DIMFRAC
 70
     0
  9
$DIMLDRBLK
  1
Open30
  9
$DIMLUNIT
 70
     2
  9
$DIMLWD
 70
    -2
  9
$DIMLWE
 70
    -2
  9
$DIMTMOVE
 70
     0
  9
$LUNITS
 70
     2
  9
$LUPREC
 70
     2
  9
$SKETCHINC
 40
1.0
  9
$FILLETRAD
 40
1.0
  9
$AUNITS
 70
     0
  9
$AUPREC
 70
     2
  9
$MENU
  1
.
  9
$ELEVATION
 40
0.0
  9
$PELEVATION
 40
0.0
  9
$THICKNESS
 40
0.0
  9
$LIMCHECK
 70
     0
  9
$CHAMFERA
 40
1.5
  9
$CHAMFERB
 40
1.5
  9
$CHAMFERC
 40
1.75
  9
$CHAMFERD
 40
0.0174532925199433
  9
$SKPOLY
 70
     0
  9
$TDCREATE
 40
2451555.620234838
  9
$TDUCREATE
 40
2451555.245234838
  9
$TDUPDATE
 40
2455846.619006528
  9
$TDUUPDATE
 40
2455846.244006528
  9
$TDINDWG
 40
2.5955496296
  9
$TDUSRTIMER
 40
2.5955496296
  9
$USRTIMER
 70
     1
  9
$ANGBASE
 50
0.0
  9
$ANGDIR
 70
     0
  9
$PDMODE
 70
     0
  9
$PDSIZE
 40
0.0
  9
$PLINEWID
 40
0.0
  9
$SPLFRAME
 70
     0
  9
$SPLINETYPE
 70
     6
  9
$SPLINESEGS
 70
     8
  9
$HANDSEED
  5
A9F5
  9
$SURFTAB1
 70
     6
  9
$SURFTAB2
 70
     6
  9
$SURFTYPE
 70
     6
  9
$SURFU
 70
     6
  9
$SURFV
 70
     6
  9
$UCSBASE
  2

  9
$UCSNAME
  2

  9
$UCSORG
 10
0.0
 20
0.0
 30
0.0
  9
$UCSXDIR
 10
1.0
 20
0.0
 30
0.0
  9
$UCSYDIR
 10
0.0
 20
1.0
 30
0.0
  9
$UCSORTHOREF
  2

  9
$UCSORTHOVIEW
 70
     0
  9
$UCSORGTOP
 10
0.0
 20
0.0
 30
0.0
  9
$UCSORGBOTTOM
 10
0.0
 20
0.0
 30
0.0
  9
$UCSORGLEFT
 10
0.0
 20
0.0
 30
0.0
  9
$UCSORGRIGHT
 10
0.0
 20
0.0
 30
0.0
  9
$UCSORGFRONT
 10
0.0
 20
0.0
 30
0.0
  9
$UCSORGBACK
 10
0.0
 20
0.0
 30
0.0
  9
$PUCSBASE
  2

  9
$PUCSNAME
  2

  9
$PUCSORG
 10
0.0
 20
0.0
 30
0.0
  9
$PUCSXDIR
 10
1.0
 20
0.0
 30
0.0
  9
$PUCSYDIR
 10
0.0
 20
1.0
 30
0.0
  9
$PUCSORTHOREF
  2

  9
$PUCSORTHOVIEW
 70
     0
  9
$PUCSORGTOP
 10
0.0
 20
0.0
 30
0.0
  9
$PUCSORGBOTTOM
 10
0.0
 20
0.0
 30
0.0
  9
$PUCSORGLEFT
 10
0.0
 20
0.0
 30
0.0
  9
$PUCSORGRIGHT
 10
0.0
 20
0.0
 30
0.0
  9
$PUCSORGFRONT
 10
0.0
 20
0.0
 30
0.0
  9
$PUCSORGBACK
 10
0.0
 20
0.0
 30
0.0
  9
$USERI1
 70
     0
  9
$USERI2
 70
     0
  9
$USERI3
 70
     0
  9
$USERI4
 70
     0
  9
$USERI5
 70
     0
  9
$USERR1
 40
0.0
  9
$USERR2
 40
0.0
  9
$USERR3
 40
0.0
  9
$USERR4
 40
0.0
  9
$USERR5
 40
0.0
  9
$WORLDVIEW
 70
     1
  9
$SHADEDGE
 70
     3
  9
$SHADEDIF
 70
    70
  9
$TILEMODE
 70
     1
  9
$MAXACTVP
 70
    48
  9
$PINSBASE
 10
0.0
 20
0.0
 30
0.0
  9
$PLIMCHECK
 70
     0
  9
$PEXTMIN
 10
1.000000000000000E+20
 20
1.000000000000000E+20
 30
1.000000000000000E+20
  9
$PEXTMAX
 10
-1.000000000000000E+20
 20
-1.000000000000000E+20
 30
-1.000000000000000E+20
  9
$PLIMMIN
 10
0.0
 20
0.0
  9
$PLIMMAX
 10
420.0
 20
297.0
  9
$UNITMODE
 70
     0
  9
$VISRETAIN
 70
     1
  9
$PLINEGEN
 70
     0
  9
$PSLTSCALE
 70
     1
  9
$TREEDEPTH
 70
  3020
  9
$CMLSTYLE
  2
STANDARD
  9
$CMLJUST
 70
     0
  9
$CMLSCALE
 40
20.0
  9
$PROXYGRAPHICS
 70
     1
  9
$MEASUREMENT
 70
     1
  9
$CELWEIGHT
370
    -1
  9
$ENDCAPS
280
     0
  9
$JOINSTYLE
280
     0
  9
$LWDISPLAY
290
     0
  9
$INSUNITS
 70
     0
  9
$HYPERLINKBASE
  1

  9
$STYLESHEET
  1
monochrome.ctb
  9
$XEDIT
290
     1
  9
$CEPSNTYPE
380
     0
  9
$PSTYLEMODE
290
     1
  9
$FINGERPRINTGUID
  2
{1CF51E8A-A506-11D4-A7D9-AF69F5C20846}
  9
$VERSIONGUID
  2
{73D54719-2743-489E-8D00-C6E9B19B3398}
  9
$EXTNAMES
290
     1
  9
$PSVPSCALE
 40
0.0
  9
$OLESTARTUP
290
     0
  9
$SORTENTS
280
   127
  9
$INDEXCTL
280
     0
  9
$HIDETEXT
280
     0
  9
$XCLIPFRAME
290
     0
  9
$HALOGAP
280
     0
  9
$OBSCOLOR
 70
   257
  9
$OBSLTYPE
280
     0
  9
$INTERSECTIONDISPLAY
280
     0
  9
$INTERSECTIONCOLOR
 70
   257
  9
$DIMASSOC
280
     1
  9
$PROJECTNAME
  1

  0
ENDSEC
  0
SECTION
  2
CLASSES
  0
CLASS
  1
DICTIONARYVAR
  2
AcDbDictionaryVar
  3
ObjectDBX Classes
 90
        0
 91
        2
280
     0
281
     0
  0
CLASS
  1
SORTENTSTABLE
  2
AcDbSortentsTable
  3
ObjectDBX Classes
 90
        0
 91
        1
280
     0
281
     0
  0
CLASS
  1
ACDBDICTIONARYWDFLT
  2
AcDbDictionaryWithDefault
  3
ObjectDBX Classes
 90
        0
 91
        1
280
     0
281
     0
  0
CLASS
  1
TABLESTYLE
  2
AcDbTableStyle
  3
ObjectDBX Classes
 90
     2047
 91
        1
280
     0
281
     0
  0
ENDSEC
  0
SECTION
  2
TABLES
  0
TABLE
  2
VPORT
  5
8
330
0
100
AcDbSymbolTable
 70
     2
  0
VPORT
  5
A9F4
330
8
100
AcDbSymbolTableRecord
100
AcDbViewportTableRecord
  2
*Active
 70
     0
 10
0.0
 20
0.0
 11
1.0
 21
1.0
 12
245.9815537239881
 22
139.998294503538
 13
0.0
 23
0.0
 14
10.0
 24
10.0
 15
10.0
 25
10.0
 16
0.0
 26
0.0
 36
1.0
 17
0.0
 27
0.0
 37
0.0
 40
283.4328141274632
 41
2.47104247104247
 42
50.0
 43
0.0
 44
0.0
 50
0.0
 51
0.0
 71
     0
 72
 20000
 73
     1
 74
     1
 75
     0
 76
     0
 77
     0
 78
     0
281
     0
 65
     1
110
0.0
120
0.0
130
0.0
111
1.0
121
0.0
131
0.0
112
0.0
122
1.0
132
0.0
 79
     0
146
0.0
  0
ENDTAB
  0
TABLE
  2
LTYPE
  5
5
330
0
100
AcDbSymbolTable
 70
     7
  0
LTYPE
  5
12
330
5
100
AcDbSymbolTableRecord
100
AcDbLinetypeTableRecord
  2
BYBLOCK
 70
     0
  3

 72
    65
 73
     0
 40
0.0
  0
LTYPE
  5
13
330
5
100
AcDbSymbolTableRecord
100
AcDbLinetypeTableRecord
  2
BYLAYER
 70
     0
  3

 72
    65
 73
     0
 40
0.0
  0
LTYPE
  5
14
330
5
100
AcDbSymbolTableRecord
100
AcDbLinetypeTableRecord
  2
CONTINUOUS
 70
     0
  3
Solid line
 72
    65
 73
     0
 40
0.0
  0
LTYPE
  5
9D
330
5
100
AcDbSymbolTableRecord
100
AcDbLinetypeTableRecord
  2
CENTERX2
 70
     0
  3
Center (2x) ________  __  ________  __  _____
 72
    65
 73
     4
 40
101.6
 49
63.5
 74
     0
 49
-12.7
 74
     0
 49
12.7
 74
     0
 49
-12.7
 74
     0
  0
LTYPE
  5
A1
330
5
100
AcDbSymbolTableRecord
100
AcDbLinetypeTableRecord
  2
DASHED
 70
     0
  3
Dashed __ __ __ __ __ __ __ __ __ __ __ __ __ _
 72
    65
 73
     2
 40
19.05
 49
12.7
 74
     0
 49
-6.349999999999999
 74
     0
  0
LTYPE
  5
A2
330
5
100
AcDbSymbolTableRecord
100
AcDbLinetypeTableRecord
  2
DASHED2
 70
     0
  3
Dashed (.5x) _ _ _ _ _ _ _ _ _ _ _ _ _ _ _ _ _
 72
    65
 73
     2
 40
9.524999999999998
 49
6.349999999999999
 74
     0
 49
-3.174999999999999
 74
     0
  0
LTYPE
  5
A5
330
5
100
AcDbSymbolTableRecord
100
AcDbLinetypeTableRecord
  2
DIVIDE2
 70
     0
  3
Divide (.5x) __..__..__..__..__..__..__..__.._
 72
    65
 73
     6
 40
15.875
 49
6.349999999999999
 74
     0
 49
-3.174999999999999
 74
     0
 49
0.0
 74
     0
 49
-3.174999999999999
 74
     0
 49
0.0
 74
     0
 49
-3.174999999999999
 74
     0
  0
LTYPE
  5
650B
330
5
100
AcDbSymbolTableRecord
100
AcDbLinetypeTableRecord
  2
CENTER
 70
     0
  3
Center ____ _ ____ _ ____ _ ____ _ ____ _ ____
 72
    65
 73
     4
 40
50.8
 49
31.75
 74
     0
 49
-6.349999999999999
 74
     0
 49
6.349999999999999
 74
     0
 49
-6.349999999999999
 74
     0
  0
LTYPE
  5
650C
330
5
100
AcDbSymbolTableRecord
100
AcDbLinetypeTableRecord
  2
HIDDEN
 70
     0
  3
Hidden __ __ __ __ __ __ __ __ __ __ __ __ __ _
 72
    65
 73
     2
 40
9.524999999999998
 49
6.349999999999999
 74
     0
 49
-3.174999999999999
 74
     0
  0
ENDTAB
  0
TABLE
  2
LAYER
  5
2
102
{ACAD_XDICTIONARY
360
7BFE
102
}
330
0
100
AcDbSymbolTable
 70
     9
  0
LAYER
  5
E
330
2
100
AcDbSymbolTableRecord
100
AcDbLayerTableRecord
  2
0
 70
     0
 62
     7
  6
CONTINUOUS
370
    -3
390
5CF2
  0
LAYER
  5
B9
330
2
100
AcDbSymbolTableRecord
100
AcDbLayerTableRecord
  2
dim
 70
     0
 62
     3
  6
CONTINUOUS
370
    -3
390
5CF2
  0
LAYER
  5
F2
330
2
100
AcDbSymbolTableRecord
100
AcDbLayerTableRecord
  2
DEFPOINTS
 70
     0
 62
     4
  6
CONTINUOUS
290
     0
370
    -3
390
5CF2
  0
LAYER
  5
5F8B
330
2
100
AcDbSymbolTableRecord
100
AcDbLayerTableRecord
  2
mark
 70
     0
 62
     6
  6
CONTINUOUS
370
    -3
390
5CF2
  0
LAYER
  5
644E
330
2
100
AcDbSymbolTableRecord
100
AcDbLayerTableRecord
  2
frame
 70
     0
 62
     9
  6
CONTINUOUS
370
    -3
390
5CF2
  0
LAYER
  5
650D
330
2
100
AcDbSymbolTableRecord
100
AcDbLayerTableRecord
  2
center
 70
     0
 62
     1
  6
CENTER
370
    -3
390
5CF2
  0
LAYER
  5
650E
330
2
100
AcDbSymbolTableRecord
100
AcDbLayerTableRecord
  2
bowle
 70
     0
 62
     4
  6
HIDDEN
370
    -3
390
5CF2
  0
LAYER
  5
650F
330
2
100
AcDbSymbolTableRecord
100
AcDbLayerTableRecord
  2
contour
 70
     0
 62
     2
  6
CONTINUOUS
370
    -3
390
5CF2
  0
LAYER
  5
6510
330
2
100
AcDbSymbolTableRecord
100
AcDbLayerTableRecord
  2
section
 70
     0
 62
     5
  6
CONTINUOUS
370
    -3
390
5CF2
  0
ENDTAB
  0
TABLE
  2
STYLE
  5
3
330
0
100
AcDbSymbolTable
 70
     5
  0
STYLE
  5
F
330
3
100
AcDbSymbolTableRecord
100
AcDbTextStyleTableRecord
  2
STANDARD
 70
     0
 40
0.0
 41
1.0
 50
0.0
 71
     0
 42
2.5
  3
txt
  4

  0
STYLE
  5
BE
330
3
100
AcDbSymbolTableRecord
100
AcDbTextStyleTableRecord
  2
ISOCP3
 70
     0
 40
0.0
 41
1.0
 50
0.0
 71
     0
 42
2.5
  3
isocp3.shx
  4

  0
STYLE
  5
2A37
330
3
100
AcDbSymbolTableRecord
100
AcDbTextStyleTableRecord
  2
TXT
 70
     0
 40
0.0
 41
1.0
 50
0.0
 71
     0
 42
1.25
  3
txt.shx
  4
bigfont.shx
  0
STYLE
  5
5DCB
330
3
100
AcDbSymbolTableRecord
100
AcDbTextStyleTableRecord
  2
LKK
 70
     0
 40
50.0
 41
1.5
 50
0.0
 71
     0
 42
50.0
  3
MS PGothic.ttf
  4

1001
ACAD
1000
MS PGothic
1071
    32818
  0
STYLE
  5
5DCC
330
3
100
AcDbSymbolTableRecord
100
AcDbTextStyleTableRecord
  2
JL
 70
     0
 40
10.0
 41
0.5
 50
0.0
 71
     0
 42
5.0
  3
MS Mincho.ttf
  4

1001
ACAD
1000
MS Mincho
1071
    32785
  0
ENDTAB
  0
TABLE
  2
VIEW
  5
6
330
0
100
AcDbSymbolTable
 70
     0
  0
ENDTAB
  0
TABLE
  2
UCS
  5
7
330
0
100
AcDbSymbolTable
 70
     0
  0
ENDTAB
  0
TABLE
  2
APPID
  5
9
330
0
100
AcDbSymbolTable
 70
    11
  0
APPID
  5
10
330
9
100
AcDbSymbolTableRecord
100
AcDbRegAppTableRecord
  2
ACAD
 70
     0
  0
APPID
  5
7C91
330
9
100
AcDbSymbolTableRecord
100
AcDbRegAppTableRecord
  2
ACAD_DSTYLE_DIMEXT_LENGTH
 70
     0
  0
APPID
  5
7C92
330
9
100
AcDbSymbolTableRecord
100
AcDbRegAppTableRecord
  2
ACAD_DSTYLE_DIMEXT_ENABLED
 70
     0
  0
APPID
  5
7C93
330
9
100
AcDbSymbolTableRecord
100
AcDbRegAppTableRecord
  2
ACAD_DSTYLE_DIMJOGGED_JOGANGLE_SYMBOL
 70
     0
  0
APPID
  5
7C94
330
9
100
AcDbSymbolTableRecord
100
AcDbRegAppTableRecord
  2
ACAD_DSTYLE_DIMARC_LENGTH_SYMBOL
 70
     0
  0
APPID
  5
7F1C
330
9
100
AcDbSymbolTableRecord
100
AcDbRegAppTableRecord
  2
ACAD_EXEMPT_FROM_CAD_STANDARDS
 70
     0
  0
APPID
  5
7F49
330
9
100
AcDbSymbolTableRecord
100
AcDbRegAppTableRecord
  2
ACAD_DSTYLE_DIMTEXT_FILL
 70
     0
  0
APPID
  5
7F4C
330
9
100
AcDbSymbolTableRecord
100
AcDbRegAppTableRecord
  2
ACAD_DSTYLE_DIM_LINETYPE
 70
     0
  0
APPID
  5
7F4D
330
9
100
AcDbSymbolTableRecord
100
AcDbRegAppTableRecord
  2
ACAD_DSTYLE_DIM_EXT1_LINETYPE
 70
     0
  0
APPID
  5
7F4E
330
9
100
AcDbSymbolTableRecord
100
AcDbRegAppTableRecord
  2
ACAD_DSTYLE_DIM_EXT2_LINETYPE
 70
     0
  0
APPID
  5
8C73
330
9
100
AcDbSymbolTableRecord
100
AcDbRegAppTableRecord
  2
ACAD_PSEXT
 70
     0
  0
ENDTAB
  0
TABLE
  2
DIMSTYLE
  5
A
330
0
100
AcDbSymbolTable
 70
     1
100
AcDbDimStyleTable
 71
     1
340
1D
  0
DIMSTYLE
105
1D
102
{ACAD_REACTORS
330
A63F
330
A64B
330
A65F
330
A66D
330
A67A
330
A6A1
330
A6EB
330
A716
102
}
330
A
100
AcDbSymbolTableRecord
100
AcDbDimStyleTableRecord
  2
STANDARD
 70
     0
 41
2.5
 42
0.85
 44
0.85
 73
     0
 74
     0
 77
     3
 78
     8
 79
     2
140
2.5
147
0.85
172
     1
176
   256
177
   256
178
     3
179
     2
271
     2
272
     2
340
F
341
7C04
342
7C04
1001
ACAD_DSTYLE_DIMEXT_LENGTH
1070
   378
1040
0.18
1001
ACAD_DSTYLE_DIMEXT_ENABLED
1070
   383
1070
     0
1001
ACAD_DSTYLE_DIMARC_LENGTH_SYMBOL
1070
   379
1070
     0
1001
ACAD_DSTYLE_DIMJOGGED_JOGANGLE_SYMBOL
1070
   384
1040
1.570796326794896
  0
ENDTAB
  0
TABLE
  2
BLOCK_RECORD
  5
1
330
0
100
AcDbSymbolTable
 70
    13
  0
BLOCK_RECORD
  5
18
102
{ACAD_XDICTIONARY
360
45F
102
}
330
1
100
AcDbSymbolTableRecord
100
AcDbBlockTableRecord
  2
*MODEL_SPACE
340
5CF5
  0
BLOCK_RECORD
  5
15
102
{ACAD_XDICTIONARY
360
5D89
102
}
330
1
100
AcDbSymbolTableRecord
100
AcDbBlockTableRecord
  2
*PAPER_SPACE
340
5CF6
  0
BLOCK_RECORD
  5
639D
330
1
100
AcDbSymbolTableRecord
100
AcDbBlockTableRecord
  2
A$C255C26A2
340
0
  0
BLOCK_RECORD
  5
7C04
330
1
100
AcDbSymbolTableRecord
100
AcDbBlockTableRecord
  2
_Open30
340
0
102
{BLKREFS
331
A6E6
331
A6E7
331
A839
331
A83A
331
A841
331
A842
331
A848
331
A849
331
A851
331
A852
331
A85A
331
A85B
331
A863
331
A864
331
A86C
331
A86D
331
A875
102
}
  0
BLOCK_RECORD
  5
7C0A
102
{ACAD_XDICTIONARY
360
7C0B
102
}
330
1
100
AcDbSymbolTableRecord
100
AcDbBlockTableRecord
  2
A
340
0
310
2800000020000000200000000100080000000000000400000000000000000000000000000000000000000000000080000080000000808000800000008000800080800000C0C0C000C0DCC000F0CAA6000020400000206000002080000020A0000020C0000020E00000400000004020000040400000406000004080000040A0
310
000040C0000040E00000600000006020000060400000606000006080000060A0000060C0000060E00000800000008020000080400000806000008080000080A0000080C0000080E00000A0000000A0200000A0400000A0600000A0800000A0A00000A0C00000A0E00000C0000000C0200000C0400000C0600000C0800000C0
310
A00000C0C00000C0E00000E0000000E0200000E0400000E0600000E0800000E0A00000E0C00000E0E00040000000400020004000400040006000400080004000A0004000C0004000E00040200000402020004020400040206000402080004020A0004020C0004020E000404000004040200040404000404060004040800040
310
40A0004040C0004040E00040600000406020004060400040606000406080004060A0004060C0004060E00040800000408020004080400040806000408080004080A0004080C0004080E00040A0000040A0200040A0400040A0600040A0800040A0A00040A0C00040A0E00040C0000040C0200040C0400040C0600040C08000
310
40C0A00040C0C00040C0E00040E0000040E0200040E0400040E0600040E0800040E0A00040E0C00040E0E00080000000800020008000400080006000800080008000A0008000C0008000E00080200000802020008020400080206000802080008020A0008020C0008020E00080400000804020008040400080406000804080
310
008040A0008040C0008040E00080600000806020008060400080606000806080008060A0008060C0008060E00080800000808020008080400080806000808080008080A0008080C0008080E00080A0000080A0200080A0400080A0600080A0800080A0A00080A0C00080A0E00080C0000080C0200080C0400080C0600080C0
310
800080C0A00080C0C00080C0E00080E0000080E0200080E0400080E0600080E0800080E0A00080E0C00080E0E000C0000000C0002000C0004000C0006000C0008000C000A000C000C000C000E000C0200000C0202000C0204000C0206000C0208000C020A000C020C000C020E000C0400000C0402000C0404000C0406000C0
310
408000C040A000C040C000C040E000C0600000C0602000C0604000C0606000C0608000C060A000C060C000C060E000C0800000C0802000C0804000C0806000C0808000C080A000C080C000C080E000C0A00000C0A02000C0A04000C0A06000C0A08000C0A0A000C0A0C000C0A0E000C0C00000C0C02000C0C04000C0C06000
310
C0C08000C0C0A000F0FBFF00A4A0A000808080000000FF0000FF000000FFFF00FF000000FF00FF00FFFF0000FFFFFF0000000000000000000000000000000000000000000000000000000000000000000000000000000000000000000000000000000000000000000000000000000000000000000000000000000000000000
310
00000000000000000000000000000000000000000000000000000000000000000000000000000000000000000000000000000000000000000000000000000000000000000000000000000000000000000000000000000000000000000000000000000000000000000000000000000000000000000000000000000000000000
310
00000000000000000000000000000000000000000000000000000000000000000000000000000000000000000000000000000000000000000000000000000000000000000000000000000000000000000000000000000000000000000000000000000000000000000000000000000000000000000000000000000000000000
310
000000000000FDFDFDFDFDFDFDFDFDFDFDFD0000FD0000000000000000000000000000000000FD0000FA0000000000FA00FD0000FDFD00000000000000000000000000000000FD0000FA0000000000FA00FD0000FDFDFD000000000000000000000000000000FD0000FA0000000000FA00FD0000FDFDFDFD00000000000000
310
00000000000000FD0000FAFAFAFAFAFAFA00FD0000FDFDFDFDFD00000000000000000000000000FD000000FA00000000FA00FD0000FDFDFDFDFDFDFDFDFDFDFDFDFDFDFDFDFDFDFD000000FA000000FA0000FD0000FDFDFDFDFD00000000000000000000000000FD00000000FA0000FA0000FD0000FDFDFDFD000000000000
310
0000000000000000FD00000000FA00FA000000FD0000FDFD00000000000000000000000000000000FD0000000000FAFA000000FD0000FD0000000000000000000000000000000000FD0000000000FA00000000FD0000000000000000000000000000000000000000FDFDFDFDFDFDFDFDFDFDFDFD0000000000000000000000
310
00000000000000000000000000000000000000000000000000000000000000000000000000000000000000000000000000000000000000000000000000000000000000000000000000000000000000000000000000000000000000000000000000000000000000000000000000000000000000000000000000000000000000
310
00000000000000000000000000000000000000000000000000000000000000000000000000000000000000000000000000000000000000000000000000000000000000000000000000000000000000000000000000000000000000000000000000000000000000000000000000000000000000000000000000000000000000
310
0000000000000000000000000000000000000000000000000000000000000000000000000000000000000000000000000000000000000000
  0
BLOCK_RECORD
  5
8E72
102
{ACAD_XDICTIONARY
360
8E73
102
}
330
1
100
AcDbSymbolTableRecord
100
AcDbBlockTableRecord
  2
LS
340
0
310
2800000020000000200000000100080000000000000400000000000000000000000000000000000000000000000080000080000000808000800000008000800080800000C0C0C000C0DCC000F0CAA6000020400000206000002080000020A0000020C0000020E00000400000004020000040400000406000004080000040A0
310
000040C0000040E00000600000006020000060400000606000006080000060A0000060C0000060E00000800000008020000080400000806000008080000080A0000080C0000080E00000A0000000A0200000A0400000A0600000A0800000A0A00000A0C00000A0E00000C0000000C0200000C0400000C0600000C0800000C0
310
A00000C0C00000C0E00000E0000000E0200000E0400000E0600000E0800000E0A00000E0C00000E0E00040000000400020004000400040006000400080004000A0004000C0004000E00040200000402020004020400040206000402080004020A0004020C0004020E000404000004040200040404000404060004040800040
310
40A0004040C0004040E00040600000406020004060400040606000406080004060A0004060C0004060E00040800000408020004080400040806000408080004080A0004080C0004080E00040A0000040A0200040A0400040A0600040A0800040A0A00040A0C00040A0E00040C0000040C0200040C0400040C0600040C08000
310
40C0A00040C0C00040C0E00040E0000040E0200040E0400040E0600040E0800040E0A00040E0C00040E0E00080000000800020008000400080006000800080008000A0008000C0008000E00080200000802020008020400080206000802080008020A0008020C0008020E00080400000804020008040400080406000804080
310
008040A0008040C0008040E00080600000806020008060400080606000806080008060A0008060C0008060E00080800000808020008080400080806000808080008080A0008080C0008080E00080A0000080A0200080A0400080A0600080A0800080A0A00080A0C00080A0E00080C0000080C0200080C0400080C0600080C0
310
800080C0A00080C0C00080C0E00080E0000080E0200080E0400080E0600080E0800080E0A00080E0C00080E0E000C0000000C0002000C0004000C0006000C0008000C000A000C000C000C000E000C0200000C0202000C0204000C0206000C0208000C020A000C020C000C020E000C0400000C0402000C0404000C0406000C0
310
408000C040A000C040C000C040E000C0600000C0602000C0604000C0606000C0608000C060A000C060C000C060E000C0800000C0802000C0804000C0806000C0808000C080A000C080C000C080E000C0A00000C0A02000C0A04000C0A06000C0A08000C0A0A000C0A0C000C0A0E000C0C00000C0C02000C0C04000C0C06000
310
C0C08000C0C0A000F0FBFF00A4A0A000808080000000FF0000FF000000FFFF00FF000000FF00FF00FFFF0000FFFFFF00000000000000000000000000000000000000000000000000000000000000000000000000000000000000FBFBFEFBFEFBFBFEFBFEFBFB00000000000000000000000000000000000000FBFBFBFEFBFE
310
FBFBFEFBFEFBFBFB000000000000000000000000000000000000FB0000FE00FE0000FE00FE0000FB000000000000000000000000000000000000FB0000FE00FE0000FE00FE0000FB000000000000000000000000000000000000FB0000FEFEFEFEFEFEFEFE0000FB000000000000000000000000000000000000FB000000FE
310
FE0000FEFE000000FB000000000000000000000000000000000000FB0000000000FEFE0000000000FB000000000000000000000000000000000000FBFBFBFEFBFBFBFBFBFBFEFBFBFB000000000000000000000000000000000000000000FBFE0000000000FE000000000000000000000000000000000000000000000000FB
310
FBFBFBFBFBFEFB000000000000000000000000000000000000000000000000FBFE00000000FEFB000000000000000000000000000000000000000000000000FBFE00000000FEFB000000000000000000000000000000000000000000000000FBFE00000000FEFB000000000000000000000000000000000000000000000000
310
FBFE00000000FEFB000000000000000000000000000000000000000000000000FBFE00000000FEFB000000000000000000000000000000000000000000000000FBFE00000000FEFB000000000000000000000000000000000000000000000000FBFE00000000FEFB0000000000000000000000000000000000000000000000
310
00FBFE00000000FEFB000000000000000000000000000000000000000000000000FBFE00000000FEFB000000000000000000000000000000000000000000000000FBFE00000000FEFB000000000000000000000000000000000000000000000000FBFE00000000FEFB00000000000000000000000000000000000000000000
310
0000FBFE00000000FEFB000000000000000000000000000000000000000000000000FBFE00000000FEFB000000000000000000000000000000000000000000000000FBFE00000000FEFB000000000000000000000000000000000000000000000000FBFE00000000FEFB000000000000000000000000000000000000000000
310
000000FBFE00000000FEFB000000000000000000000000000000000000000000000000FBFE00000000FEFB000000000000000000000000000000000000000000000000FBFEFBFBFBFBFEFB00000000000000000000000000000000000000000000000000FE00000000FEFB0000000000000000000000000000000000000000
310
0000000000FBFBFBFBFBFB000000000000000000000000000000000000000000000000000000000000000000000000000000000000000000
  0
BLOCK_RECORD
  5
9D15
102
{ACAD_XDICTIONARY
360
9D16
102
}
330
1
100
AcDbSymbolTableRecord
100
AcDbBlockTableRecord
  2
LS2
340
0
310
2800000020000000200000000100080000000000000400000000000000000000000000000000000000000000000080000080000000808000800000008000800080800000C0C0C000C0DCC000F0CAA6000020400000206000002080000020A0000020C0000020E00000400000004020000040400000406000004080000040A0
310
000040C0000040E00000600000006020000060400000606000006080000060A0000060C0000060E00000800000008020000080400000806000008080000080A0000080C0000080E00000A0000000A0200000A0400000A0600000A0800000A0A00000A0C00000A0E00000C0000000C0200000C0400000C0600000C0800000C0
310
A00000C0C00000C0E00000E0000000E0200000E0400000E0600000E0800000E0A00000E0C00000E0E00040000000400020004000400040006000400080004000A0004000C0004000E00040200000402020004020400040206000402080004020A0004020C0004020E000404000004040200040404000404060004040800040
310
40A0004040C0004040E00040600000406020004060400040606000406080004060A0004060C0004060E00040800000408020004080400040806000408080004080A0004080C0004080E00040A0000040A0200040A0400040A0600040A0800040A0A00040A0C00040A0E00040C0000040C0200040C0400040C0600040C08000
310
40C0A00040C0C00040C0E00040E0000040E0200040E0400040E0600040E0800040E0A00040E0C00040E0E00080000000800020008000400080006000800080008000A0008000C0008000E00080200000802020008020400080206000802080008020A0008020C0008020E00080400000804020008040400080406000804080
310
008040A0008040C0008040E00080600000806020008060400080606000806080008060A0008060C0008060E00080800000808020008080400080806000808080008080A0008080C0008080E00080A0000080A0200080A0400080A0600080A0800080A0A00080A0C00080A0E00080C0000080C0200080C0400080C0600080C0
310
800080C0A00080C0C00080C0E00080E0000080E0200080E0400080E0600080E0800080E0A00080E0C00080E0E000C0000000C0002000C0004000C0006000C0008000C000A000C000C000C000E000C0200000C0202000C0204000C0206000C0208000C020A000C020C000C020E000C0400000C0402000C0404000C0406000C0
310
408000C040A000C040C000C040E000C0600000C0602000C0604000C0606000C0608000C060A000C060C000C060E000C0800000C0802000C0804000C0806000C0808000C080A000C080C000C080E000C0A00000C0A02000C0A04000C0A06000C0A08000C0A0A000C0A0C000C0A0E000C0C00000C0C02000C0C04000C0C06000
310
C0C08000C0C0A000F0FBFF00A4A0A000808080000000FF0000FF000000FFFF00FF000000FF00FF00FFFF0000FFFFFF0000000000000000000000000000000000000000000000000000000000000000000000000000000000000000FBFBFEFEFBFBFEFEFBFB00000000000000000000000000000000000000000000FBFBFEFE
310
FBFBFEFEFBFB00000000000000000000000000000000000000000000FB00FEFE0000FEFE00FB00000000000000000000000000000000000000000000FB00FEFE0000FEFE00FB00000000000000000000000000000000000000000000FB00FEFEFEFEFEFE00FB00000000000000000000000000000000000000000000FB0000
310
FEFEFE000000FB00000000000000000000000000000000000000000000FBFBFEFBFBFBFBFEFBFB000000000000000000000000000000000000000000000000FBFBFBFBFBFE0000000000000000000000000000000000000000000000000000FE00000000FE0000000000000000000000000000000000000000000000000000
310
FE00000000FE0000000000000000000000000000000000000000000000000000FE00000000FE0000000000000000000000000000000000000000000000000000FE00000000FE0000000000000000000000000000000000000000000000000000FE00000000FE00000000000000000000000000000000000000000000000000
310
00FE00000000FE0000000000000000000000000000000000000000000000000000FE00000000FE0000000000000000000000000000000000000000000000000000FE00000000FE0000000000000000000000000000000000000000000000000000FE00000000FE000000000000000000000000000000000000000000000000
310
0000FE00000000FE0000000000000000000000000000000000000000000000000000FE00000000FE0000000000000000000000000000000000000000000000000000FE00000000FE0000000000000000000000000000000000000000000000000000FE00000000FE0000000000000000000000000000000000000000000000
310
000000FE00000000FE0000000000000000000000000000000000000000000000000000FE00000000FE0000000000000000000000000000000000000000000000000000FE00000000FE0000000000000000000000000000000000000000000000000000FE00000000FE00000000000000000000000000000000000000000000
310
00000000FE00000000FE0000000000000000000000000000000000000000000000000000FE00000000FE0000000000000000000000000000000000000000000000000000FEFBFBFBFBFE0000000000000000000000000000000000000000000000000000FEFB000000FE000000000000000000000000000000000000000000
310
000000000000FBFBFBFB00000000000000000000000000000000000000000000000000000000000000000000000000000000000000000000
102
{BLKREFS
331
9D9E
102
}
  0
BLOCK_RECORD
  5
A640
330
1
100
AcDbSymbolTableRecord
100
AcDbBlockTableRecord
  2
*D5
340
0
  0
BLOCK_RECORD
  5
A64C
330
1
100
AcDbSymbolTableRecord
100
AcDbBlockTableRecord
  2
*D6
340
0
  0
BLOCK_RECORD
  5
A660
330
1
100
AcDbSymbolTableRecord
100
AcDbBlockTableRecord
  2
*D7
340
0
  0
BLOCK_RECORD
  5
A66E
330
1
100
AcDbSymbolTableRecord
100
AcDbBlockTableRecord
  2
*D8
340
0
  0
BLOCK_RECORD
  5
A67B
330
1
100
AcDbSymbolTableRecord
100
AcDbBlockTableRecord
  2
*D9
340
0
  0
BLOCK_RECORD
  5
A6A2
330
1
100
AcDbSymbolTableRecord
100
AcDbBlockTableRecord
  2
*D10
340
0
  0
BLOCK_RECORD
  5
A6EC
330
1
100
AcDbSymbolTableRecord
100
AcDbBlockTableRecord
  2
*D11
340
0
  0
BLOCK_RECORD
  5
A717
330
1
100
AcDbSymbolTableRecord
100
AcDbBlockTableRecord
  2
*D12
340
0
  0
ENDTAB
  0
ENDSEC
  0
SECTION
  2
BLOCKS
  0
BLOCK
  5
19
330
18
100
AcDbEntity
  8
0
100
AcDbBlockBegin
  2
*MODEL_SPACE
 70
     0
 10
0.0
 20
0.0
 30
0.0
  3
*MODEL_SPACE
  1

  0
ENDBLK
  5
1A
330
18
100
AcDbEntity
  8
0
100
AcDbBlockEnd
  0
BLOCK
  5
16
330
15
100
AcDbEntity
 67
     1
  8
0
100
AcDbBlockBegin
  2
*PAPER_SPACE
 70
     0
 10
0.0
 20
0.0
 30
0.0
  3
*PAPER_SPACE
  1

  0
ENDBLK
  5
17
330
15
100
AcDbEntity
 67
     1
  8
0
100
AcDbBlockEnd
  0
BLOCK
  5
63A1
330
639D
100
AcDbEntity
  8
0
100
AcDbBlockBegin
  2
A$C255C26A2
 70
     0
 10
0.0
 20
0.0
 30
0.0
  3
A$C255C26A2
  1

  0
LWPOLYLINE
  5
639E
330
639D
100
AcDbEntity
  8
0
100
AcDbPolyline
 90
        3
 70
     1
 43
0.0
 10
7.014806023851633
 20
0.0000006939811783
 10
5.611844869720698
 20
2.430000693981241
 10
8.417767177982568
 20
2.430000693981241
  0
LWPOLYLINE
  5
639F
330
639D
100
AcDbEntity
  8
0
100
AcDbPolyline
 90
        3
 70
     1
 43
0.0
 10
4.20888371558999
 20
0.0000006939811783
 10
2.805922561459283
 20
2.430000693981241
 10
5.611844869720698
 20
2.430000693981241
  0
LWPOLYLINE
  5
63A0
330
639D
100
AcDbEntity
  8
0
100
AcDbPolyline
 90
        3
 70
     1
 43
0.0
 10
1.402961407328348
 20
0.0000006939811783
 10
0.0000002531974133
 20
2.430000693981241
 10
2.805922561459283
 20
2.430000693981241
  0
ENDBLK
  5
63A2
330
639D
100
AcDbEntity
  8
0
100
AcDbBlockEnd
  0
BLOCK
  5
7C05
330
7C04
100
AcDbEntity
  8
0
100
AcDbBlockBegin
  2
_Open30
 70
     0
 10
0.0
 20
0.0
 30
0.0
  3
_Open30
  1

  0
LINE
  5
7C06
330
7C04
100
AcDbEntity
  8
0
  6
ByBlock
 62
     0
370
    -2
100
AcDbLine
 10
-1.0
 20
0.26794919
 30
0.0
 11
0.0
 21
0.0
 31
0.0
  0
LINE
  5
7C07
330
7C04
100
AcDbEntity
  8
0
  6
ByBlock
 62
     0
370
    -2
100
AcDbLine
 10
0.0
 20
0.0
 30
0.0
 11
-1.0
 21
-0.26794919
 31
0.0
  0
LINE
  5
7C08
330
7C04
100
AcDbEntity
  8
0
  6
ByBlock
 62
     0
370
    -2
100
AcDbLine
 10
0.0
 20
0.0
 30
0.0
 11
-1.0
 21
0.0
 31
0.0
  0
ENDBLK
  5
7C09
330
7C04
100
AcDbEntity
  8
0
100
AcDbBlockEnd
  0
BLOCK
  5
7C0E
330
7C0A
100
AcDbEntity
  8
0
100
AcDbBlockBegin
  2
A
 70
     0
 10
0.0
 20
0.0
 30
0.0
  3
A
  1

  0
MTEXT
  5
7C0F
330
7C0A
100
AcDbEntity
  8
mark
 62
     3
100
AcDbMText
 10
10.65641897020822
 20
-5.596245361730467
 30
0.0
 40
2.5
 41
0.0
 71
     5
 72
     1
  1
A
 73
     1
 44
1.0
1001
ACAD
1000
ACAD_MTEXT_DEFINED_HEIGHT_BEGIN
1070
    46
1040
0.0
1000
ACAD_MTEXT_DEFINED_HEIGHT_END
  0
LWPOLYLINE
  5
7C10
330
7C0A
100
AcDbEntity
  8
mark
100
AcDbPolyline
 90
        4
 70
     1
 43
0.0
 10
9.07926800414657
 20
-7.141145101782569
 10
12.07926800414657
 20
-7.141145101782569
 10
12.07926800414657
 20
-4.141145101782569
 10
9.07926800414657
 20
-4.141145101782569
  0
HATCH
  5
7C11
330
7C0A
100
AcDbEntity
  8
mark
100
AcDbHatch
 10
0.0
 20
0.0
 30
0.0
210
0.0
220
0.0
230
1.0
  2
SOLID
 70
     1
 71
     0
 91
        1
 92
        7
 72
     0
 73
     1
 93
        3
 10
5.32926800414657
 20
-5.641145101782569
 10
4.07926800414657
 20
-4.391145101782541
 10
4.07926800414657
 20
-6.891145101782541
 97
        0
 75
     0
 76
     1
 47
0.0398277943677868
 98
        1
 10
4.589689734415287
 20
-5.732163331855076
450
        0
451
        0
460
0.0
461
0.0
452
        1
462
1.0
453
        2
463
0.0
 63
     5
421
      255
463
1.0
 63
     7
421
 16777215
470
LINEAR
1001
ACAD
1010
0.0
1020
0.0
1030
0.0
  0
LINE
  5
7C12
330
7C0A
100
AcDbEntity
  8
mark
100
AcDbLine
 10
5.32926800414657
 20
-5.641145101782569
 30
0.0
 11
9.07926800414657
 21
-5.641145101782569
 31
0.0
  0
LINE
  5
7C13
330
7C0A
100
AcDbEntity
  8
mark
100
AcDbLine
 10
5.32926800414657
 20
-5.641145101782569
 30
0.0
 11
4.07926800414657
 21
-4.391145101782569
 31
0.0
  0
LINE
  5
7C14
330
7C0A
100
AcDbEntity
  8
mark
100
AcDbLine
 10
5.32926800414657
 20
-5.641145101782569
 30
0.0
 11
4.07926800414657
 21
-6.891145101782569
 31
0.0
  0
ENDBLK
  5
7C15
330
7C0A
100
AcDbEntity
  8
0
100
AcDbBlockEnd
  0
BLOCK
  5
8E76
330
8E72
100
AcDbEntity
  8
0
100
AcDbBlockBegin
  2
LS
 70
     0
 10
0.0
 20
0.0
 30
0.0
  3
LS
  1

  0
LINE
  5
8E78
330
8E72
100
AcDbEntity
  8
contour
100
AcDbLine
 10
310.7457309951603
 20
181.0160360664828
 30
0.0
 11
310.7457309951603
 21
184.7160360664827
 31
0.0
  0
LINE
  5
8E79
330
8E72
100
AcDbEntity
  8
contour
100
AcDbLine
 10
310.7457309951603
 20
184.7160360664827
 30
0.0
 11
303.7457309951603
 21
184.7160360664827
 31
0.0
  0
LINE
  5
8E7A
330
8E72
100
AcDbEntity
  8
contour
100
AcDbLine
 10
308.4457309951603
 20
196.7160360664827
 30
0.0
 11
306.0457309951603
 21
196.7160360664826
 31
0.0
  0
LINE
  5
8E7B
330
8E72
100
AcDbEntity
  8
contour
100
AcDbLine
 10
309.2457309951603
 20
195.9160360664826
 30
0.0
 11
308.4457309951603
 21
196.7160360664826
 31
0.0
  0
LINE
  5
8E7C
330
8E72
100
AcDbEntity
  8
contour
100
AcDbLine
 10
303.7457309951603
 20
184.7160360664827
 30
0.0
 11
303.7457309951603
 21
181.0160360664827
 31
0.0
  0
LINE
  5
8E7D
330
8E72
100
AcDbEntity
  8
contour
100
AcDbLine
 10
304.0457309951603
 20
180.7160360664827
 30
0.0
 11
310.4457309951603
 21
180.7160360664828
 31
0.0
  0
LINE
  5
8E7E
330
8E72
100
AcDbEntity
  8
contour
100
AcDbLine
 10
310.7457309951603
 20
181.0160360664828
 30
0.0
 11
310.4457309951603
 21
180.7160360664828
 31
0.0
  0
LINE
  5
8E7F
330
8E72
100
AcDbEntity
  8
contour
100
AcDbLine
 10
303.7457309951603
 20
181.0160360664827
 30
0.0
 11
304.0457309951603
 21
180.7160360664827
 31
0.0
  0
LINE
  5
8E80
330
8E72
100
AcDbEntity
  8
contour
100
AcDbLine
 10
309.2457309951603
 20
184.7160360664826
 30
0.0
 11
309.2457309951603
 21
195.9160360664827
 31
0.0
  0
LINE
  5
8E81
330
8E72
100
AcDbEntity
  8
contour
100
AcDbLine
 10
305.2457309951603
 20
184.7160360664826
 30
0.0
 11
305.2457309951603
 21
195.9160360664827
 31
0.0
  0
LINE
  5
8E82
330
8E72
100
AcDbEntity
  8
contour
100
AcDbLine
 10
306.0457309951603
 20
196.7160360664826
 30
0.0
 11
305.2457309951603
 21
195.9160360664826
 31
0.0
  0
LINE
  5
8E83
330
8E72
100
AcDbEntity
  8
contour
100
AcDbLine
 10
309.2457309951603
 20
195.9160360664827
 30
0.0
 11
305.2457309951603
 21
195.9160360664827
 31
0.0
  0
LINE
  5
8E84
330
8E72
100
AcDbEntity
  8
contour
 62
     4
100
AcDbLine
 10
308.8667309951603
 20
185.3724833225513
 30
0.0
 11
308.8667309951603
 21
196.2950360664826
 31
0.0
  0
LINE
  5
8E85
330
8E72
100
AcDbEntity
  8
contour
 62
     4
100
AcDbLine
 10
305.6247309951603
 20
185.3724833225513
 30
0.0
 11
305.6247309951603
 21
196.2950360664826
 31
0.0
  0
LINE
  5
8E86
330
8E72
100
AcDbEntity
  8
contour
100
AcDbLine
 10
310.7457309951603
 20
181.0160360664828
 30
0.0
 11
303.7457309951603
 21
181.0160360664828
 31
0.0
  0
LINE
  5
8E87
330
8E72
100
AcDbEntity
  8
bowle
 48
0.1
100
AcDbLine
 10
308.1117563989447
 20
180.7160360664827
 30
0.0
 11
308.1117563989447
 21
182.9160360664827
 31
0.0
  0
LINE
  5
8E88
330
8E72
100
AcDbEntity
  8
bowle
 48
0.1
100
AcDbLine
 10
308.9777818027293
 20
180.7160360664827
 30
0.0
 11
308.9777818027293
 21
182.9160360664827
 31
0.0
  0
LINE
  5
8E89
330
8E72
100
AcDbEntity
  8
bowle
 48
0.1
100
AcDbLine
 10
306.3797055913759
 20
180.7160360664827
 30
0.0
 11
306.3797055913759
 21
182.9160360664826
 31
0.0
  0
LINE
  5
8E8A
330
8E72
100
AcDbEntity
  8
bowle
 48
0.1
100
AcDbLine
 10
305.5136801875914
 20
180.7160360664827
 30
0.0
 11
305.5136801875914
 21
182.9160360664826
 31
0.0
  0
LINE
  5
8E8B
330
8E72
100
AcDbEntity
  8
bowle
 48
0.1
100
AcDbLine
 10
308.9777818027292
 20
182.9160360664827
 30
0.0
 11
305.5136801875914
 21
182.9160360664827
 31
0.0
  0
LINE
  5
8E8C
330
8E72
100
AcDbEntity
  8
bowle
 48
0.1
100
AcDbLine
 10
305.5136801875914
 20
182.9160360664826
 30
0.0
 11
307.2457309951603
 21
183.9160360664826
 31
0.0
  0
LINE
  5
8E8D
330
8E72
100
AcDbEntity
  8
bowle
 48
0.1
100
AcDbLine
 10
308.9777818027292
 20
182.9160360664826
 30
0.0
 11
307.2457309951603
 21
183.9160360664826
 31
0.0
  0
LINE
  5
8E8E
330
8E72
100
AcDbEntity
  8
contour
 62
     4
100
AcDbLine
 10
305.6247309951603
 20
185.3724833225513
 30
0.0
 11
305.2457309951603
 21
184.7160360664826
 31
0.0
  0
LINE
  5
8E8F
330
8E72
100
AcDbEntity
  8
contour
100
AcDbLine
 10
305.2457309951603
 20
185.3724833225513
 30
0.0
 11
309.2457309951603
 21
185.3724833225513
 31
0.0
  0
LINE
  5
8E90
330
8E72
100
AcDbEntity
  8
contour
 62
     4
100
AcDbLine
 10
309.2457309951603
 20
184.7160360664827
 30
0.0
 11
308.8667309951603
 21
185.3724833225513
 31
0.0
  0
ENDBLK
  5
8E77
330
8E72
100
AcDbEntity
  8
0
100
AcDbBlockEnd
  0
BLOCK
  5
9D19
330
9D15
100
AcDbEntity
  8
0
100
AcDbBlockBegin
  2
LS2
 70
     0
 10
0.0
 20
0.0
 30
0.0
  3
LS2
  1

  0
LINE
  5
9D1B
330
9D15
100
AcDbEntity
  8
contour
100
AcDbLine
 10
143.2797554375081
 20
0.0655328110734672
 30
0.0
 11
143.2797554375081
 21
3.765532811073398
 31
0.0
  0
LINE
  5
9D1C
330
9D15
100
AcDbEntity
  8
contour
100
AcDbLine
 10
143.2797554375081
 20
3.765532811073398
 30
0.0
 11
136.2797554375081
 21
3.765532811073398
 31
0.0
  0
LINE
  5
9D1D
330
9D15
100
AcDbEntity
  8
contour
100
AcDbLine
 10
140.979755437508
 20
19.7655328110734
 30
0.0
 11
138.5797554375081
 21
19.76553281107334
 31
0.0
  0
LINE
  5
9D1E
330
9D15
100
AcDbEntity
  8
contour
100
AcDbLine
 10
141.7797554375081
 20
18.96553281107333
 30
0.0
 11
140.9797554375081
 21
19.76553281107334
 31
0.0
  0
LINE
  5
9D1F
330
9D15
100
AcDbEntity
  8
contour
100
AcDbLine
 10
136.2797554375081
 20
3.765532811073398
 30
0.0
 11
136.2797554375081
 21
0.0655328110733535
 31
0.0
  0
LINE
  5
9D20
330
9D15
100
AcDbEntity
  8
contour
100
AcDbLine
 10
136.5797554375081
 20
-0.2344671889266578
 30
0.0
 11
142.9797554375081
 21
-0.2344671889265442
 31
0.0
  0
LINE
  5
9D21
330
9D15
100
AcDbEntity
  8
contour
100
AcDbLine
 10
143.2797554375081
 20
0.0655328110734672
 30
0.0
 11
142.9797554375081
 21
-0.2344671889265442
 31
0.0
  0
LINE
  5
9D22
330
9D15
100
AcDbEntity
  8
contour
100
AcDbLine
 10
136.2797554375081
 20
0.0655328110733535
 30
0.0
 11
136.5797554375081
 21
-0.2344671889266578
 31
0.0
  0
LINE
  5
9D23
330
9D15
100
AcDbEntity
  8
contour
100
AcDbLine
 10
141.7797554375081
 20
3.765532811073342
 30
0.0
 11
141.7797554375081
 21
18.96553281107339
 31
0.0
  0
LINE
  5
9D24
330
9D15
100
AcDbEntity
  8
contour
100
AcDbLine
 10
137.7797554375081
 20
3.765532811073342
 30
0.0
 11
137.7797554375081
 21
18.96553281107339
 31
0.0
  0
LINE
  5
9D25
330
9D15
100
AcDbEntity
  8
contour
100
AcDbLine
 10
138.5797554375081
 20
19.76553281107334
 30
0.0
 11
137.7797554375081
 21
18.96553281107333
 31
0.0
  0
LINE
  5
9D26
330
9D15
100
AcDbEntity
  8
contour
100
AcDbLine
 10
141.7797554375081
 20
18.96553281107339
 30
0.0
 11
137.7797554375081
 21
18.96553281107339
 31
0.0
  0
LINE
  5
9D27
330
9D15
100
AcDbEntity
  8
contour
 62
     4
100
AcDbLine
 10
141.400755437508
 20
4.42198006714193
 30
0.0
 11
141.4007554375081
 21
19.34453281107327
 31
0.0
  0
LINE
  5
9D28
330
9D15
100
AcDbEntity
  8
contour
 62
     4
100
AcDbLine
 10
138.1587554375081
 20
4.42198006714193
 30
0.0
 11
138.1587554375081
 21
19.34453281107336
 31
0.0
  0
LINE
  5
9D29
330
9D15
100
AcDbEntity
  8
contour
100
AcDbLine
 10
143.2797554375081
 20
0.0655328110734672
 30
0.0
 11
136.2797554375081
 21
0.0655328110735241
 31
0.0
  0
LINE
  5
9D2A
330
9D15
100
AcDbEntity
  8
bowle
 48
0.1
100
AcDbLine
 10
140.6457808412925
 20
-0.234467188926601
 30
0.0
 11
140.6457808412925
 21
1.965532811073387
 31
0.0
  0
LINE
  5
9D2B
330
9D15
100
AcDbEntity
  8
bowle
 48
0.1
100
AcDbLine
 10
141.511806245077
 20
-0.2344671889266578
 30
0.0
 11
141.511806245077
 21
1.965532811073387
 31
0.0
  0
LINE
  5
9D2C
330
9D15
100
AcDbEntity
  8
bowle
 48
0.1
100
AcDbLine
 10
138.9137300337237
 20
-0.234467188926601
 30
0.0
 11
138.9137300337237
 21
1.96553281107333
 31
0.0
  0
LINE
  5
9D2D
330
9D15
100
AcDbEntity
  8
bowle
 48
0.1
100
AcDbLine
 10
138.0477046299392
 20
-0.2344671889266578
 30
0.0
 11
138.0477046299391
 21
1.96553281107333
 31
0.0
  0
LINE
  5
9D2E
330
9D15
100
AcDbEntity
  8
bowle
 48
0.1
100
AcDbLine
 10
141.511806245077
 20
1.965532811073387
 30
0.0
 11
138.0477046299391
 21
1.965532811073387
 31
0.0
  0
LINE
  5
9D2F
330
9D15
100
AcDbEntity
  8
bowle
 48
0.1
100
AcDbLine
 10
138.0477046299391
 20
1.96553281107333
 30
0.0
 11
139.779755437508
 21
2.96553281107333
 31
0.0
  0
LINE
  5
9D30
330
9D15
100
AcDbEntity
  8
bowle
 48
0.1
100
AcDbLine
 10
141.511806245077
 20
1.96553281107333
 30
0.0
 11
139.779755437508
 21
2.96553281107333
 31
0.0
  0
LINE
  5
9D31
330
9D15
100
AcDbEntity
  8
contour
 62
     4
100
AcDbLine
 10
138.1587554375081
 20
4.421980067141987
 30
0.0
 11
137.7797554375081
 21
3.765532811073342
 31
0.0
  0
LINE
  5
9D32
330
9D15
100
AcDbEntity
  8
contour
100
AcDbLine
 10
137.7797554375081
 20
4.42198006714193
 30
0.0
 11
141.7797554375081
 21
4.42198006714193
 31
0.0
  0
LINE
  5
9D33
330
9D15
100
AcDbEntity
  8
contour
 62
     4
100
AcDbLine
 10
141.7797554375081
 20
3.765532811073398
 30
0.0
 11
141.400755437508
 21
4.42198006714193
 31
0.0
  0
ENDBLK
  5
9D1A
330
9D15
100
AcDbEntity
  8
0
100
AcDbBlockEnd
  0
BLOCK
  5
A649
330
A640
100
AcDbEntity
  8
0
100
AcDbBlockBegin
  2
*D5
 70
     1
 10
0.0
 20
0.0
 30
0.0
  3
*D5
  1

  0
LINE
  5
A835
330
A640
100
AcDbEntity
  8
mark
370
    -2
100
AcDbLine
 10
140.1075473754973
 20
209.0149781312957
 30
0.0
 11
118.3631418796715
 21
202.1495120187489
 31
0.0
  0
LINE
  5
A836
330
A640
100
AcDbEntity
  8
mark
370
    -2
100
AcDbLine
 10
71.63685812032835
 20
187.3963968886709
 30
0.0
 11
69.25286405097409
 21
186.6436869330547
 31
0.0
  0
MTEXT
  5
A837
330
A640
100
AcDbEntity
  8
mark
 62
     3
100
AcDbMText
 10
131.1153984762441
 20
208.3780302385258
 30
0.0
 40
2.5
 41
0.0
 71
     5
 72
     1
  1
\A1;P.C.D 44
 11
0.953597627741699
 21
0.301083982246489
 31
0.0
 73
     1
 44
1.0
  0
LINE
  5
A838
330
A640
100
AcDbEntity
  8
mark
370
    -2
100
AcDbLine
 10
74.02085218968259
 20
188.1491068442871
 30
0.0
 11
115.9791478103173
 21
201.3968020631327
 31
0.0
  0
INSERT
  5
A839
330
A640
100
AcDbEntity
  8
mark
370
    -2
100
AcDbBlockReference
  2
_Open30
 10
74.02085218968259
 20
188.1491068442871
 30
0.0
 41
2.5
 42
2.5
 43
2.5
 50
17.52272123851411
  0
INSERT
  5
A83A
330
A640
100
AcDbEntity
  8
mark
370
    -2
100
AcDbBlockReference
  2
_Open30
 10
115.9791478103173
 20
201.3968020631327
 30
0.0
 41
2.5
 42
2.5
 43
2.5
 50
197.5227212385141
  0
POINT
  5
A83B
330
A640
100
AcDbEntity
  8
DEFPOINTS
 62
     0
100
AcDbPoint
 10
115.9791478103173
 20
201.3968020631327
 30
0.0
  0
POINT
  5
A83C
330
A640
100
AcDbEntity
  8
DEFPOINTS
 62
     0
100
AcDbPoint
 10
74.02085218968259
 20
188.1491068442871
 30
0.0
  0
ENDBLK
  5
A64A
330
A640
100
AcDbEntity
  8
0
100
AcDbBlockEnd
  0
BLOCK
  5
A655
330
A64C
100
AcDbEntity
  8
0
100
AcDbBlockBegin
  2
*D6
 70
     1
 10
0.0
 20
0.0
 30
0.0
  3
*D6
  1

  0
LINE
  5
A83D
330
A64C
100
AcDbEntity
  8
mark
370
    -2
100
AcDbLine
 10
49.21519938271692
 20
211.123254457484
 30
0.0
 11
71.22078404690302
 21
203.2647969308158
 31
0.0
  0
LINE
  5
A83E
330
A64C
100
AcDbEntity
  8
mark
370
    -2
100
AcDbLine
 10
118.7792159530969
 20
186.2811119766042
 30
0.0
 11
121.1335937702352
 21
185.4403354937224
 31
0.0
  0
MTEXT
  5
A83F
330
A64C
100
AcDbEntity
  8
mark
 62
     3
100
AcDbMText
 10
59.74705505186149
 20
209.5920913019869
 30
0.0
 40
2.5
 41
0.0
 71
     5
 72
     1
  1
\A1;P.C.D 45.5
 11
0.9417511268553257
 21
-0.336310593152705
 31
0.0
 73
     1
 44
1.0
  0
LINE
  5
A840
330
A64C
100
AcDbEntity
  8
mark
370
    -2
100
AcDbLine
 10
116.4248381359586
 20
187.1218884594859
 30
0.0
 11
73.57516186404133
 21
202.424020447934
 31
0.0
  0
INSERT
  5
A841
330
A64C
100
AcDbEntity
  8
mark
370
    -2
100
AcDbBlockReference
  2
_Open30
 10
116.4248381359586
 20
187.1218884594859
 30
0.0
 41
2.5
 42
2.5
 43
2.5
 50
160.347745845747
  0
INSERT
  5
A842
330
A64C
100
AcDbEntity
  8
mark
370
    -2
100
AcDbBlockReference
  2
_Open30
 10
73.57516186404133
 20
202.424020447934
 30
0.0
 41
2.5
 42
2.5
 43
2.5
 50
340.347745845747
  0
POINT
  5
A843
330
A64C
100
AcDbEntity
  8
DEFPOINTS
 62
     0
100
AcDbPoint
 10
73.57516186404133
 20
202.424020447934
 30
0.0
  0
POINT
  5
A844
330
A64C
100
AcDbEntity
  8
DEFPOINTS
 62
     0
100
AcDbPoint
 10
116.4248381359586
 20
187.1218884594859
 30
0.0
  0
ENDBLK
  5
A656
330
A64C
100
AcDbEntity
  8
0
100
AcDbBlockEnd
  0
BLOCK
  5
A66A
330
A660
100
AcDbEntity
  8
0
100
AcDbBlockBegin
  2
*D7
 70
     1
 10
0.0
 20
0.0
 30
0.0
  3
*D7
  1

  0
LINE
  5
A845
330
A660
100
AcDbEntity
  8
mark
370
    -2
100
AcDbLine
 10
68.5
 20
123.291281179616
 30
0.0
 11
68.5
 21
131.8213766788029
 31
0.0
  0
LINE
  5
A846
330
A660
100
AcDbEntity
  8
mark
370
    -2
100
AcDbLine
 10
121.4999999999999
 20
123.291281179616
 30
0.0
 11
121.4999999999999
 21
131.8213766788029
 31
0.0
  0
LINE
  5
A847
330
A660
100
AcDbEntity
  8
mark
370
    -2
100
AcDbLine
 10
71.0
 20
130.9713766788029
 30
0.0
 11
118.9999999999999
 21
130.9713766788029
 31
0.0
  0
INSERT
  5
A848
330
A660
100
AcDbEntity
  8
mark
370
    -2
100
AcDbBlockReference
  2
_Open30
 10
68.5
 20
130.9713766788029
 30
0.0
 41
2.5
 42
2.5
 43
2.5
 50
180.0
  0
INSERT
  5
A849
330
A660
100
AcDbEntity
  8
mark
370
    -2
100
AcDbBlockReference
  2
_Open30
 10
121.4999999999999
 20
130.9713766788029
 30
0.0
 41
2.5
 42
2.5
 43
2.5
  0
MTEXT
  5
A84A
330
A660
100
AcDbEntity
  8
mark
 62
     3
100
AcDbMText
 10
94.99999999999998
 20
133.0713766788029
 30
0.0
 40
2.5
 41
0.0
 71
     5
 72
     1
  1
\A1;%%C53
 73
     1
 44
1.0
  0
POINT
  5
A84B
330
A660
100
AcDbEntity
  8
DEFPOINTS
 62
     0
100
AcDbPoint
 10
68.5
 20
122.441281179616
 30
0.0
  0
POINT
  5
A84C
330
A660
100
AcDbEntity
  8
DEFPOINTS
 62
     0
100
AcDbPoint
 10
121.4999999999999
 20
122.441281179616
 30
0.0
  0
POINT
  5
A84D
330
A660
100
AcDbEntity
  8
DEFPOINTS
 62
     0
100
AcDbPoint
 10
121.4999999999999
 20
130.9713766788029
 30
0.0
  0
ENDBLK
  5
A66B
330
A660
100
AcDbEntity
  8
0
100
AcDbBlockEnd
  0
BLOCK
  5
A678
330
A66E
100
AcDbEntity
  8
0
100
AcDbBlockBegin
  2
*D8
 70
     1
 10
0.0
 20
0.0
 30
0.0
  3
*D8
  1

  0
LINE
  5
A84E
330
A66E
100
AcDbEntity
  8
mark
370
    -2
100
AcDbLine
 10
66.64999999999998
 20
116.441281179616
 30
0.0
 11
62.10295555619202
 21
116.441281179616
 31
0.0
  0
LINE
  5
A84F
330
A66E
100
AcDbEntity
  8
mark
370
    -2
100
AcDbLine
 10
68.65000000000001
 20
123.441281179616
 30
0.0
 11
62.10295555619202
 21
123.441281179616
 31
0.0
  0
LINE
  5
A850
330
A66E
100
AcDbEntity
  8
mark
370
    -2
100
AcDbLine
 10
62.95295555619202
 20
118.941281179616
 30
0.0
 11
62.95295555619202
 21
120.941281179616
 31
0.0
  0
INSERT
  5
A851
330
A66E
100
AcDbEntity
  8
mark
370
    -2
100
AcDbBlockReference
  2
_Open30
 10
62.95295555619202
 20
116.441281179616
 30
0.0
 41
2.5
 42
2.5
 43
2.5
 50
270.0
  0
INSERT
  5
A852
330
A66E
100
AcDbEntity
  8
mark
370
    -2
100
AcDbBlockReference
  2
_Open30
 10
62.95295555619202
 20
123.441281179616
 30
0.0
 41
2.5
 42
2.5
 43
2.5
 50
90.0
  0
MTEXT
  5
A853
330
A66E
100
AcDbEntity
  8
mark
 62
     3
100
AcDbMText
 10
60.852955556192
 20
119.941281179616
 30
0.0
 40
2.5
 41
0.0
 71
     5
 72
     1
  1
\A1;7
 11
0.0000000000000001
 21
1.0
 31
0.0
 73
     1
 44
1.0
  0
POINT
  5
A854
330
A66E
100
AcDbEntity
  8
DEFPOINTS
 62
     0
100
AcDbPoint
 10
67.49999999999997
 20
116.441281179616
 30
0.0
  0
POINT
  5
A855
330
A66E
100
AcDbEntity
  8
DEFPOINTS
 62
     0
100
AcDbPoint
 10
69.5
 20
123.441281179616
 30
0.0
  0
POINT
  5
A856
330
A66E
100
AcDbEntity
  8
DEFPOINTS
 62
     0
100
AcDbPoint
 10
62.95295555619202
 20
123.441281179616
 30
0.0
  0
ENDBLK
  5
A679
330
A66E
100
AcDbEntity
  8
0
100
AcDbBlockEnd
  0
BLOCK
  5
A685
330
A67B
100
AcDbEntity
  8
0
100
AcDbBlockBegin
  2
*D9
 70
     1
 10
0.0
 20
0.0
 30
0.0
  3
*D9
  1

  0
LINE
  5
A857
330
A67B
100
AcDbEntity
  8
mark
370
    -2
100
AcDbLine
 10
121.3499999999999
 20
123.441281179616
 30
0.0
 11
130.4974257442786
 21
123.441281179616
 31
0.0
  0
LINE
  5
A858
330
A67B
100
AcDbEntity
  8
mark
370
    -2
100
AcDbLine
 10
121.3499999999999
 20
108.541281179616
 30
0.0
 11
130.4974257442786
 21
108.541281179616
 31
0.0
  0
LINE
  5
A859
330
A67B
100
AcDbEntity
  8
mark
370
    -2
100
AcDbLine
 10
129.6474257442786
 20
120.941281179616
 30
0.0
 11
129.6474257442786
 21
111.041281179616
 31
0.0
  0
INSERT
  5
A85A
330
A67B
100
AcDbEntity
  8
mark
370
    -2
100
AcDbBlockReference
  2
_Open30
 10
129.6474257442786
 20
123.441281179616
 30
0.0
 41
2.5
 42
2.5
 43
2.5
 50
90.0
  0
INSERT
  5
A85B
330
A67B
100
AcDbEntity
  8
mark
370
    -2
100
AcDbBlockReference
  2
_Open30
 10
129.6474257442786
 20
108.541281179616
 30
0.0
 41
2.5
 42
2.5
 43
2.5
 50
270.0
  0
MTEXT
  5
A85C
330
A67B
100
AcDbEntity
  8
mark
 62
     3
100
AcDbMText
 10
127.5474257442786
 20
115.991281179616
 30
0.0
 40
2.5
 41
0.0
 71
     5
 72
     1
  1
\A1;14.9
 11
0.0000000000000001
 21
1.0
 31
0.0
 73
     1
 44
1.0
  0
POINT
  5
A85D
330
A67B
100
AcDbEntity
  8
DEFPOINTS
 62
     0
100
AcDbPoint
 10
120.5
 20
123.441281179616
 30
0.0
  0
POINT
  5
A85E
330
A67B
100
AcDbEntity
  8
DEFPOINTS
 62
     0
100
AcDbPoint
 10
120.5
 20
108.541281179616
 30
0.0
  0
POINT
  5
A85F
330
A67B
100
AcDbEntity
  8
DEFPOINTS
 62
     0
100
AcDbPoint
 10
129.6474257442786
 20
108.541281179616
 30
0.0
  0
ENDBLK
  5
A686
330
A67B
100
AcDbEntity
  8
0
100
AcDbBlockEnd
  0
BLOCK
  5
A6AC
330
A6A2
100
AcDbEntity
  8
0
100
AcDbBlockBegin
  2
*D10
 70
     1
 10
0.0
 20
0.0
 30
0.0
  3
*D10
  1

  0
LINE
  5
A860
330
A6A2
100
AcDbEntity
  8
mark
370
    -2
100
AcDbLine
 10
121.3499999999999
 20
101.441281179616
 30
0.0
 11
137.3011102047465
 21
101.441281179616
 31
0.0
  0
LINE
  5
A861
330
A6A2
100
AcDbEntity
  8
mark
370
    -2
100
AcDbLine
 10
121.3499999999999
 20
123.441281179616
 30
0.0
 11
137.3011102047465
 21
123.441281179616
 31
0.0
  0
LINE
  5
A862
330
A6A2
100
AcDbEntity
  8
mark
370
    -2
100
AcDbLine
 10
136.4511102047465
 20
103.941281179616
 30
0.0
 11
136.4511102047465
 21
120.941281179616
 31
0.0
  0
INSERT
  5
A863
330
A6A2
100
AcDbEntity
  8
mark
370
    -2
100
AcDbBlockReference
  2
_Open30
 10
136.4511102047465
 20
101.441281179616
 30
0.0
 41
2.5
 42
2.5
 43
2.5
 50
270.0
  0
INSERT
  5
A864
330
A6A2
100
AcDbEntity
  8
mark
370
    -2
100
AcDbBlockReference
  2
_Open30
 10
136.4511102047465
 20
123.441281179616
 30
0.0
 41
2.5
 42
2.5
 43
2.5
 50
90.0
  0
MTEXT
  5
A865
330
A6A2
100
AcDbEntity
  8
mark
 62
     3
100
AcDbMText
 10
134.3511102047465
 20
112.441281179616
 30
0.0
 40
2.5
 41
0.0
 71
     5
 72
     1
  1
\A1;22%%P0.2
 11
0.0000000000000001
 21
1.0
 31
0.0
 73
     1
 44
1.0
  0
POINT
  5
A866
330
A6A2
100
AcDbEntity
  8
DEFPOINTS
 62
     0
100
AcDbPoint
 10
120.5
 20
101.441281179616
 30
0.0
  0
POINT
  5
A867
330
A6A2
100
AcDbEntity
  8
DEFPOINTS
 62
     0
100
AcDbPoint
 10
120.5
 20
123.441281179616
 30
0.0
  0
POINT
  5
A868
330
A6A2
100
AcDbEntity
  8
DEFPOINTS
 62
     0
100
AcDbPoint
 10
136.4511102047465
 20
123.441281179616
 30
0.0
  0
ENDBLK
  5
A6AD
330
A6A2
100
AcDbEntity
  8
0
100
AcDbBlockEnd
  0
BLOCK
  5
A6F6
330
A6EC
100
AcDbEntity
  8
0
100
AcDbBlockBegin
  2
*D11
 70
     1
 10
0.0
 20
0.0
 30
0.0
  3
*D11
  1

  0
LINE
  5
A869
330
A6EC
100
AcDbEntity
  8
mark
370
    -2
100
AcDbLine
 10
77.49999999999997
 20
101.279281179616
 30
0.0
 11
77.49999999999997
 21
87.0044052785586
 31
0.0
  0
LINE
  5
A86A
330
A6EC
100
AcDbEntity
  8
mark
370
    -2
100
AcDbLine
 10
112.5
 20
101.2792811796159
 30
0.0
 11
112.5
 21
87.0044052785586
 31
0.0
  0
LINE
  5
A86B
330
A6EC
100
AcDbEntity
  8
mark
370
    -2
100
AcDbLine
 10
79.99999999999997
 20
87.85440527855859
 30
0.0
 11
109.9999999999999
 21
87.85440527855859
 31
0.0
  0
INSERT
  5
A86C
330
A6EC
100
AcDbEntity
  8
mark
370
    -2
100
AcDbBlockReference
  2
_Open30
 10
77.49999999999997
 20
87.85440527855859
 30
0.0
 41
2.5
 42
2.5
 43
2.5
 50
180.0
  0
INSERT
  5
A86D
330
A6EC
100
AcDbEntity
  8
mark
370
    -2
100
AcDbBlockReference
  2
_Open30
 10
112.5
 20
87.85440527855859
 30
0.0
 41
2.5
 42
2.5
 43
2.5
  0
MTEXT
  5
A86E
330
A6EC
100
AcDbEntity
  8
mark
 62
     3
100
AcDbMText
 10
94.99999999999998
 20
89.9544052785586
 30
0.0
 40
2.5
 41
0.0
 71
     5
 72
     1
  1
\A1;M35X1.5P
 73
     1
 44
1.0
  0
POINT
  5
A86F
330
A6EC
100
AcDbEntity
  8
DEFPOINTS
 62
     0
100
AcDbPoint
 10
77.49999999999997
 20
102.129281179616
 30
0.0
  0
POINT
  5
A870
330
A6EC
100
AcDbEntity
  8
DEFPOINTS
 62
     0
100
AcDbPoint
 10
112.5
 20
102.1292811796159
 30
0.0
  0
POINT
  5
A871
330
A6EC
100
AcDbEntity
  8
DEFPOINTS
 62
     0
100
AcDbPoint
 10
112.5
 20
87.85440527855859
 30
0.0
  0
ENDBLK
  5
A6F7
330
A6EC
100
AcDbEntity
  8
0
100
AcDbBlockEnd
  0
BLOCK
  5
A71E
330
A717
100
AcDbEntity
  8
0
100
AcDbBlockBegin
  2
*D12
 70
     1
 10
0.0
 20
0.0
 30
0.0
  3
*D12
  1

  0
LINE
  5
A872
330
A717
100
AcDbEntity
  8
mark
370
    -2
100
AcDbLine
 10
61.69825518090909
 20
94.63953636052385
 30
0.0
 11
67.02512626584726
 21
99.96640744546299
 31
0.0
  0
MTEXT
  5
A873
330
A717
100
AcDbEntity
  8
mark
 62
     3
100
AcDbMText
 10
61.99288300640318
 20
97.90401266700179
 30
0.0
 40
2.5
 41
0.0
 71
     5
 72
     1
  1
\A1;R1
 11
0.7071067811864835
 21
0.7071067811866117
 31
0.0
 73
     1
 44
1.0
  0
LINE
  5
A874
330
A717
100
AcDbEntity
  8
mark
370
    -2
100
AcDbLine
 10
69.49999999999994
 20
102.4412811796161
 30
0.0
 11
68.79289321881348
 21
101.7341743984295
 31
0.0
  0
INSERT
  5
A875
330
A717
100
AcDbEntity
  8
mark
370
    -2
100
AcDbBlockReference
  2
_Open30
 10
68.79289321881348
 20
101.7341743984295
 30
0.0
 41
2.5
 42
2.5
 43
2.5
 50
45.00000000000519
  0
POINT
  5
A876
330
A717
100
AcDbEntity
  8
DEFPOINTS
 62
     0
100
AcDbPoint
 10
68.79289321881348
 20
101.7341743984295
 30
0.0
  0
POINT
  5
A877
330
A717
100
AcDbEntity
  8
DEFPOINTS
 62
     0
100
AcDbPoint
 10
69.49999999999994
 20
102.4412811796161
 30
0.0
  0
ENDBLK
  5
A71F
330
A717
100
AcDbEntity
  8
0
100
AcDbBlockEnd
  0
ENDSEC
  0
SECTION
  2
ENTITIES
  0
MTEXT
  5
C0
330
18
100
AcDbEntity
  8
0
100
AcDbMText
 10
41.26970765600413
 20
233.6950877649332
 30
0.0
 40
2.5
 41
0.0
 71
     1
 72
     5
  1

  7
ISOCP3
 73
     1
 44
1.0
  0
LWPOLYLINE
  5
7D6C
330
18
100
AcDbEntity
  8
frame
100
AcDbPolyline
 90
        4
 70
     1
 43
0.0
 10
190.0
 20
280.0
 10
0.0
 20
280.0
 10
0.0
 20
0.0
 10
190.0
 20
0.0
  0
MTEXT
  5
7D6D
330
18
100
AcDbEntity
  8
0
100
AcDbMText
 10
17.09950368689175
 20
19.07605901616614
 30
0.0
 40
4.5
 41
0.0
 71
     1
 72
     5
  1
{\Ftxt,bigfont|c128;林彦旭}
  7
JL
 73
     1
 44
1.0
1001
ACAD
1000
ACAD_MTEXT_DEFINED_HEIGHT_BEGIN
1070
    46
1040
0.0
1000
ACAD_MTEXT_DEFINED_HEIGHT_END
  0
MTEXT
  5
7D6E
330
18
100
AcDbEntity
  8
0
100
AcDbMText
 10
77.95294729228851
 20
28.93578979870677
 30
0.0
 40
4.5
 41
0.0
 71
     1
 72
     5
  1
{\Ftxt,bigfont|c128;1 : 1}
  7
JL
 73
     1
 44
1.0
1001
ACAD
1000
ACAD_MTEXT_DEFINED_HEIGHT_BEGIN
1070
    46
1040
0.0
1000
ACAD_MTEXT_DEFINED_HEIGHT_END
  0
MTEXT
  5
7D6F
330
18
100
AcDbEntity
  8
0
 48
2.0
370
    25
100
AcDbMText
 10
140.2194500465656
 20
3.490021654633892
 30
0.0
 40
4.5
 41
0.0
 71
     5
 72
     1
  1
{\Ftxt,bigfont|c128;N L 4 0 2 7 2}
 73
     1
 44
1.0
1001
ACAD
1000
ACAD_MTEXT_DEFINED_HEIGHT_BEGIN
1070
    46
1040
0.0
1000
ACAD_MTEXT_DEFINED_HEIGHT_END
  0
MTEXT
  5
7D70
330
18
100
AcDbEntity
  8
0
 48
2.0
100
AcDbMText
 10
169.7361678594701
 20
21.76437127823692
 30
0.0
 40
4.318181818181822
 41
0.0
 71
     5
 72
     1
  1
\P{\Ftxt,bigfont|c128;MKR35X1.5P}
 73
     1
 44
1.0
1001
ACAD
1000
ACAD_MTEXT_DEFINED_HEIGHT_BEGIN
1070
    46
1040
0.0
1000
ACAD_MTEXT_DEFINED_HEIGHT_END
  0
MTEXT
  5
7D71
330
18
100
AcDbEntity
  8
0
100
AcDbMText
 10
15.3760677136774
 20
28.37740359834709
 30
0.0
 40
4.5
 41
0.0
 71
     1
 72
     5
  1
{\Ftxt,bigfont|c128;06.10.17}
  7
JL
 73
     1
 44
1.0
1001
ACAD
1000
ACAD_MTEXT_DEFINED_HEIGHT_BEGIN
1070
    46
1040
0.0
1000
ACAD_MTEXT_DEFINED_HEIGHT_END
  0
LINE
  5
7D72
330
18
100
AcDbEntity
  8
0
 62
     7
 48
5.0
100
AcDbLine
 39
3.838383838383842
 10
47.92942413992534
 20
27.65712907016086
 30
0.0
 11
53.04580144287854
 21
28.93622339589922
 31
0.0
  0
MTEXT
  5
7D73
330
18
100
AcDbEntity
  8
0
100
AcDbMText
 10
14.91235548326415
 20
9.242195050049303
 30
0.0
 40
6.0
 41
0.0
 71
     1
 72
     5
  1
\Ftxt.shx,bigfont.shx|c128;日機株式会社
  7
LKK
 73
     1
 44
1.0
  0
LINE
  5
7D74
330
18
100
AcDbEntity
  8
frame
100
AcDbLine
 10
0.0
 20
12.0
 30
0.0
 11
190.0
 21
12.00000000000005
 31
0.0
  0
LINE
  5
7D75
330
18
100
AcDbEntity
  8
frame
100
AcDbLine
 10
0.0
 20
22.0
 30
0.0
 11
92.12121212121223
 21
22.0
 31
0.0
  0
LINE
  5
7D76
330
18
100
AcDbEntity
  8
frame
100
AcDbLine
 10
0.0
 20
32.0
 30
0.0
 11
190.0
 21
32.0
 31
0.0
  0
LINE
  5
7D77
330
18
100
AcDbEntity
  8
frame
100
AcDbLine
 10
12.19077332493799
 20
32.0
 30
0.0
 11
12.19077332493799
 21
12.0
 31
0.0
  0
LINE
  5
7D78
330
18
100
AcDbEntity
  8
frame
100
AcDbLine
 10
30.70707070707067
 20
32.0
 30
0.0
 11
30.70707070707078
 21
12.0
 31
0.0
  0
MTEXT
  5
7D79
330
18
100
AcDbEntity
  8
0
100
AcDbMText
 10
2.830274784221955
 20
29.08190089582831
 30
0.0
 40
4.5
 41
0.0
 71
     1
 72
     5
  1
\Ftxt.shx,bigfont.shx|c128;日 付
  7
JL
 73
     1
 44
1.0
  0
MTEXT
  5
7D7A
330
18
100
AcDbEntity
  8
0
100
AcDbMText
 10
2.97063307743889
 20
19.52163842926637
 30
0.0
 40
4.5
 41
0.0
 71
     1
 72
     5
  1
\Ftxt.shx,bigfont.shx|c128;製 図
  7
JL
 73
     1
 44
1.0
  0
LINE
  5
7D7B
330
18
100
AcDbEntity
  8
0
 62
     7
370
    25
100
AcDbLine
 10
53.04580144287854
 20
23.81984609294597
 30
0.0
 11
53.04580144287854
 21
28.93622339589922
 31
0.0
  0
MTEXT
  5
7D7C
330
18
100
AcDbEntity
  8
0
100
AcDbMText
 10
64.00748852490835
 20
29.12242703792379
 30
0.0
 40
4.5
 41
0.0
 71
     1
 72
     5
  1
\Ftxt.shx,bigfont.shx|c128;尺 度
  7
JL
 73
     1
 44
1.0
  0
LINE
  5
7D7D
330
18
100
AcDbEntity
  8
frame
100
AcDbLine
 10
61.41414141414145
 20
32.0
 30
0.0
 11
61.41414141414145
 21
12.0
 31
0.0
  0
LINE
  5
7D7E
330
18
100
AcDbEntity
  8
0
 62
     7
370
    25
100
AcDbLine
 10
39.6153110226262
 20
23.18889018332635
 30
0.0
 11
39.6153110226262
 21
29.36457992429672
 31
0.0
  0
CIRCLE
  5
7D7F
330
18
100
AcDbEntity
  8
0
 62
     7
100
AcDbCircle
 10
39.6153110226262
 20
26.37803474442251
 30
0.0
 40
2.558188651476678
  0
LINE
  5
7D80
330
18
100
AcDbEntity
  8
0
 62
     7
370
    25
100
AcDbLine
 10
47.19321986919976
 20
26.37803474442262
 30
0.0
 11
53.50512581624241
 21
26.37803474442262
 31
0.0
  0
LINE
  5
7D81
330
18
100
AcDbEntity
  8
0
 62
     7
100
AcDbLine
 10
47.92942413992534
 20
25.09894041868427
 30
0.0
 11
53.04580144287854
 21
23.81984609294597
 31
0.0
  0
LINE
  5
7D82
330
18
100
AcDbEntity
  8
frame
100
AcDbLine
 10
42.742241959951
 20
22.0
 30
0.0
 11
42.742241959951
 21
12.0
 31
0.0
  0
LINE
  5
7D83
330
18
100
AcDbEntity
  8
0
 62
     7
370
    25
100
AcDbLine
 10
36.41832228486612
 20
26.37803474442251
 30
0.0
 11
43.00325267619268
 21
26.37803474442262
 31
0.0
  0
CIRCLE
  5
7D84
330
18
100
AcDbEntity
  8
0
 62
     7
100
AcDbCircle
 10
39.6153110226262
 20
26.37803474442251
 30
0.0
 40
1.279094325738339
  0
MTEXT
  5
7D85
330
18
100
AcDbEntity
  8
0
100
AcDbMText
 10
33.70184032462407
 20
19.41013815785266
 30
0.0
 40
4.5
 41
0.0
 71
     1
 72
     5
  1
\Ftxt.shx,bigfont.shx|c128;検 図
  7
JL
 73
     1
 44
1.0
  0
LINE
  5
7D86
330
18
100
AcDbEntity
  8
0
 62
     7
370
    25
100
AcDbLine
 10
47.92942413992534
 20
25.09894041868427
 30
0.0
 11
47.92942413992534
 21
27.65712907016086
 31
0.0
  0
MTEXT
  5
7D87
330
18
100
AcDbEntity
  8
0
100
AcDbMText
 10
64.28820249919829
 20
19.32058534748881
 30
0.0
 40
4.5
 41
0.0
 71
     1
 72
     5
  1
\Ftxt.shx,bigfont.shx|c128;承 認
  7
JL
 73
     1
 44
1.0
  0
MTEXT
  5
7D88
330
18
100
AcDbEntity
  8
0
100
AcDbMText
 10
93.71128715606699
 20
10.7026821961914
 30
0.0
 40
4.5
 41
0.0
 71
     1
 72
     5
  1
\Ftxt.shx,bigfont.shx|c128;図  面  番  号
  7
JL
 73
     1
 44
1.0
  0
MTEXT
  5
7D89
330
18
100
AcDbEntity
  8
0
 48
2.0
100
AcDbMText
 10
116.9038190021384
 20
21.8757473149584
 30
0.0
 40
4.5
 41
0.0
 71
     5
 72
     1
  1
\P\Ftxt.shx,bigfont.shx|c128;    精密ロックナット
 73
     1
 44
1.0
  0
MTEXT
  5
7D8A
330
18
100
AcDbEntity
  8
0
100
AcDbMText
 10
94.8083613031232
 20
29.03862457973275
 30
0.0
 40
4.5
 41
0.0
 71
     1
 72
     5
  1
\Ftxt.shx,bigfont.shx|c128;品  名
  7
JL
 73
     1
 44
1.0
  0
LINE
  5
7D8B
330
18
100
AcDbEntity
  8
frame
100
AcDbLine
 10
92.12121212121223
 20
32.0
 30
0.0
 11
92.12121212121223
 21
0.1833227579584786
 31
0.0
  0
LINE
  5
7D8C
330
18
100
AcDbEntity
  8
frame
100
AcDbLine
 10
73.41414141414145
 20
32.0
 30
0.0
 11
73.41414141414145
 21
12.0
 31
0.0
  0
LINE
  5
7D8D
330
18
100
AcDbEntity
  8
frame
100
AcDbLine
 10
147.0327092740656
 20
32.0
 30
0.0
 11
147.0327092740657
 21
12.0
 31
0.0
  0
MTEXT
  5
7D8E
330
18
100
AcDbEntity
  8
0
100
AcDbMText
 10
150.895959446773
 20
29.04517782830391
 30
0.0
 40
4.5
 41
0.0
 71
     1
 72
     5
  1
\Ftxt.shx,bigfont.shx|c128;型  番
  7
JL
 73
     1
 44
1.0
  0
MTEXT
  5
7D8F
330
18
100
AcDbEntity
  8
0
100
AcDbMText
 10
165.8059614810325
 20
10.78298174971564
 30
0.0
 40
4.5
 41
0.0
 71
     1
 72
     5
  1
\Ftxt.shx,bigfont.shx|c128;変更
  7
JL
 73
     1
 44
1.0
  0
LINE
  5
7D90
330
18
100
AcDbEntity
  8
frame
100
AcDbLine
 10
164.0909090909092
 20
12.00000000000005
 30
0.0
 11
164.0909090909093
 21
0.0
 31
0.0
  0
LINE
  5
7D91
330
18
100
AcDbEntity
  8
frame
100
AcDbLine
 10
124.6157900786393
 20
43.13491348924492
 30
0.0
 11
184.6157900786393
 21
43.13491348924481
 31
0.0
  0
LINE
  5
7D92
330
18
100
AcDbEntity
  8
frame
100
AcDbLine
 10
124.6157900786393
 20
50.33491348924497
 30
0.0
 11
184.6157900786393
 21
50.33491348924497
 31
0.0
  0
LINE
  5
7D93
330
18
100
AcDbEntity
  8
frame
100
AcDbLine
 10
124.6157900786393
 20
57.5349134892449
 30
0.0
 11
184.6157900786393
 21
57.53491348924478
 31
0.0
  0
LINE
  5
7D94
330
18
100
AcDbEntity
  8
frame
100
AcDbLine
 10
124.6157900786393
 20
64.73491348924494
 30
0.0
 11
184.6157900786393
 21
64.73491348924483
 31
0.0
  0
LINE
  5
7D95
330
18
100
AcDbEntity
  8
frame
100
AcDbLine
 10
124.6157900786393
 20
35.93491348924488
 30
0.0
 11
184.6157900786393
 21
35.93491348924488
 31
0.0
  0
MTEXT
  5
7D96
330
18
100
AcDbEntity
  8
0
 62
     7
 48
2.0
100
AcDbMText
 10
154.5011900445106
 20
65.52808189982909
 30
0.0
 40
4.8
 41
0.0
 71
     5
 72
     1
  1
\P\Ftxt.shx,bigfont.shx|c128;諸　　　　元
 73
     1
 44
1.0
  0
LINE
  5
7D97
330
18
100
AcDbEntity
  8
frame
100
AcDbLine
 10
124.6157900786393
 20
64.73491348924483
 30
0.0
 11
124.6157900786393
 21
35.93491348924488
 31
0.0
  0
MTEXT
  5
7D98
330
18
100
AcDbEntity
  8
0
100
AcDbMText
 10
128.1382258923195
 20
56.00840432212407
 30
0.0
 40
4.4
 41
163.916286842249
 71
     1
 72
     5
  1
\Ftxt.shx,bigfont.shx|c128;熱　処　理
  7
JL
 73
     1
 44
1.0
  0
LINE
  5
7D99
330
18
100
AcDbEntity
  8
frame
100
AcDbLine
 10
148.6157900786393
 20
57.53491348924478
 30
0.0
 11
148.6157900786393
 21
35.93491348924488
 31
0.0
  0
MTEXT
  5
7D9A
330
18
100
AcDbEntity
  8
0
100
AcDbMText
 10
127.8579515249403
 20
49.00617587486397
 30
0.0
 40
4.4
 41
163.6058628849672
 71
     1
 72
     5
  1
\Ftxt.shx,bigfont.shx|c128;表 面 処 理
  7
JL
 73
     1
 44
1.0
  0
MTEXT
  5
7D9B
330
18
100
AcDbEntity
  8
0
100
AcDbMText
 10
128.1480173733753
 20
41.71770302125605
 30
0.0
 40
4.4
 41
166.1718
 71
     1
 72
     5
  1
\Ftxt.shx,bigfont.shx|c128;等     　級
  7
JL
 73
     1
 44
1.0
  0
LINE
  5
7D9C
330
18
100
AcDbEntity
  8
frame
100
AcDbLine
 10
184.6157900786393
 20
64.73491348924483
 30
0.0
 11
184.6157900786393
 21
35.93491348924499
 31
0.0
  0
MTEXT
  5
7D9D
330
18
100
AcDbEntity
  8
0
100
AcDbMText
 10
153.3627933880818
 20
55.83344641471445
 30
0.0
 40
4.4
 41
291.8960056857887
 71
     1
 72
     5
  1
\Ftxt.shx,bigfont.shx|c128;調質　HRC30%%d%%p２%%d
  7
JL
 73
     1
 44
1.0
  0
MTEXT
  5
7D9E
330
18
100
AcDbEntity
  8
0
100
AcDbMText
 10
153.6234323895182
 20
41.7183135927072
 30
0.0
 40
4.4
 41
290.783364796891
 71
     1
 72
     5
  1
\Ftxt.shx,bigfont.shx|c128;ＩＳＯ - ４Ｈ
  7
JL
 73
     1
 44
1.0
  0
MTEXT
  5
7D9F
330
18
100
AcDbEntity
  8
0
100
AcDbMText
 10
153.7978935876485
 20
48.65328293790913
 30
0.0
 40
4.4
 41
291.4548
 71
     1
 72
     5
  1
\Ftxt.shx,bigfont.shx|c128;黒  　    染
  7
JL
 73
     1
 44
1.0
  0
MTEXT
  5
7DA0
330
18
100
AcDbEntity
  8
0
100
AcDbMText
 10
57.63639061334425
 20
260.9000583279474
 30
0.0
 40
5.0
 41
0.0
 71
     1
 72
     5
  1
{\Ftxt,bigfont|c128;M4X0.7P-16L}
  7
JL
 73
     1
 44
1.0
1001
ACAD
1000
ACAD_MTEXT_DEFINED_HEIGHT_BEGIN
1070
    46
1040
0.0
1000
ACAD_MTEXT_DEFINED_HEIGHT_END
  0
LINE
  5
7DA2
330
18
100
AcDbEntity
  8
frame
100
AcDbLine
 10
0.0
 20
254.0
 30
0.0
 11
190.0
 21
254.0
 31
0.0
  0
LINE
  5
7DA3
330
18
100
AcDbEntity
  8
frame
100
AcDbLine
 10
0.0
 20
262.0
 30
0.0
 11
190.0
 21
262.0
 31
0.0
  0
LINE
  5
7DA4
330
18
100
AcDbEntity
  8
frame
 62
     9
100
AcDbLine
 10
0.0
 20
270.0
 30
0.0
 11
190.0
 21
270.0
 31
0.0
  0
MTEXT
  5
7DA5
330
18
100
AcDbEntity
  8
0
100
AcDbMText
 10
57.0156439060371
 20
277.4240560049041
 30
0.0
 40
5.0
 41
0.0
 71
     1
 72
     5
  1
\Ftxt.shx,bigfont.shx|c128;図    番 / 規　　格
  7
JL
 73
     1
 44
1.0
  0
LINE
  5
7DA6
330
18
100
AcDbEntity
  8
frame
100
AcDbLine
 10
0.0
 20
254.0
 30
0.0
 11
190.0
 21
254.0
 31
0.0
  0
MTEXT
  5
7DA8
330
18
100
AcDbEntity
  8
0
100
AcDbMText
 10
21.12488048923433
 20
277.4637981386743
 30
0.0
 40
5.0
 41
0.0
 71
     1
 72
     5
  1
\Ftxt.shx,bigfont.shx|c128;品　          名
  7
JL
 73
     1
 44
1.0
  0
MTEXT
  5
7DA9
330
18
100
AcDbEntity
  8
0
100
AcDbMText
 10
18.10281387110132
 20
260.7907237289111
 30
0.0
 40
5.0
 41
0.0
 71
     1
 72
     5
  1
\Ftxt.shx,bigfont.shx|c128;セットスクリュ-
  7
JL
 73
     1
 44
1.0
  0
MTEXT
  5
7DAA
330
18
100
AcDbEntity
  8
0
100
AcDbMText
 10
17.91509480863158
 20
268.8361230282964
 30
0.0
 40
5.0
 41
0.0
 71
     1
 72
     5
  1
\Ftxt.shx,bigfont.shx|c128;ロックナット　  
  7
JL
 73
     1
 44
1.0
  0
LINE
  5
7DAC
330
18
100
AcDbEntity
  8
frame
 62
     9
100
AcDbLine
 10
14.39393939393937
 20
279.9999999999999
 30
0.0
 11
14.39393939393964
 21
254.0
 31
0.0
  0
LINE
  5
7DAD
330
18
100
AcDbEntity
  8
frame
 62
     9
100
AcDbLine
 10
14.39393939393937
 20
279.9999999999999
 30
0.0
 11
14.39393939393937
 21
255.0505050505051
 31
0.0
  0
MTEXT
  5
7DAE
330
18
100
AcDbEntity
  8
0
100
AcDbMText
 10
6.815009268013795
 20
268.7281674434121
 30
0.0
 40
5.0
 41
0.0
 71
     1
 72
     5
  1
\Ftxt.shx,bigfont.shx|c128;1
  7
JL
 73
     1
 44
1.0
  0
MTEXT
  5
7DAF
330
18
100
AcDbEntity
  8
0
100
AcDbMText
 10
2.119828072980226
 20
277.4734782639491
 30
0.0
 40
5.0
 41
0.0
 71
     1
 72
     5
  1
\Ftxt.shx,bigfont.shx|c128;照   号
  7
JL
 73
     1
 44
1.0
  0
LINE
  5
7DB0
330
18
100
AcDbEntity
  8
frame
 62
     9
100
AcDbLine
 10
52.77777777777783
 20
279.9999999999999
 30
0.0
 11
52.77777777777784
 21
254.0
 31
0.0
  0
MTEXT
  5
7DB1
330
18
100
AcDbEntity
  8
0
100
AcDbMText
 10
145.5736374372851
 20
277.6781663894194
 30
0.0
 40
5.0
 41
0.0
 71
     1
 72
     5
  1
\Ftxt.shx,bigfont.shx|c128;備           考
  7
JL
 73
     1
 44
1.0
  0
LINE
  5
7DB2
330
18
100
AcDbEntity
  8
frame
 62
     9
100
AcDbLine
 10
91.16161616161617
 20
280.0
 30
0.0
 11
91.16161616161617
 21
254.0
 31
0.0
  0
MTEXT
  5
7DB4
330
18
100
AcDbEntity
  8
0
100
AcDbMText
 10
92.87341089179369
 20
268.8361230282964
 30
0.0
 40
5.0
 41
0.0
 71
     1
 72
     5
  1
\Ftxt.shx,bigfont.shx|c128;SCM-440
  7
JL
 73
     1
 44
1.0
  0
MTEXT
  5
7DB5
330
18
100
AcDbEntity
  8
0
100
AcDbMText
 10
92.87341089179369
 20
260.765002012584
 30
0.0
 40
5.0
 41
0.0
 71
     1
 72
     5
  1
\Ftxt.shx,bigfont.shx|c128;SCM435
  7
JL
 73
     1
 44
1.0
  0
MTEXT
  5
7DB6
330
18
100
AcDbEntity
  8
0
100
AcDbMText
 10
95.76798863104192
 20
277.5645499482919
 30
0.0
 40
5.0
 41
0.0
 71
     1
 72
     5
  1
\Ftxt.shx,bigfont.shx|c128;材　質
  7
JL
 73
     1
 44
1.0
  0
LINE
  5
7DB7
330
18
100
AcDbEntity
  8
frame
 62
     9
100
AcDbLine
 10
110.3535353535354
 20
280.0
 30
0.0
 11
110.3535353535354
 21
254.0
 31
0.0
  0
LINE
  5
7DB8
330
18
100
AcDbEntity
  8
frame
100
AcDbLine
 10
124.7474747474747
 20
280.0
 30
0.0
 11
124.7474747474748
 21
254.0
 31
0.0
  0
MTEXT
  5
7DBA
330
18
100
AcDbEntity
  8
0
100
AcDbMText
 10
117.1685446215491
 20
269.0412711679932
 30
0.0
 40
5.0
 41
0.0
 71
     1
 72
     5
  1
\Ftxt.shx,bigfont.shx|c128;1
  7
JL
 73
     1
 44
1.0
  0
MTEXT
  5
7DBB
330
18
100
AcDbEntity
  8
0
100
AcDbMText
 10
116.5939070266884
 20
260.5092290150679
 30
0.0
 40
5.0
 41
0.0
 71
     1
 72
     5
  1
{\Ftxt,bigfont|c128;4}
  7
JL
 73
     1
 44
1.0
1001
ACAD
1000
ACAD_MTEXT_DEFINED_HEIGHT_BEGIN
1070
    46
1040
0.0
1000
ACAD_MTEXT_DEFINED_HEIGHT_END
  0
MTEXT
  5
7DBC
330
18
100
AcDbEntity
  8
0
100
AcDbMText
 10
112.4223895919262
 20
277.5645499482919
 30
0.0
 40
5.0
 41
0.0
 71
     1
 72
     5
  1
\Ftxt.shx,bigfont.shx|c128;数   量
  7
JL
 73
     1
 44
1.0
  0
MTEXT
  5
7DBD
330
18
100
AcDbEntity
  8
0
100
AcDbMText
 10
6.404019699055993
 20
260.7281674434121
 30
0.0
 40
5.0
 41
0.0
 71
     1
 72
     5
  1
{\Ftxt,bigfont|c128;2}
  7
JL
 73
     1
 44
1.0
1001
ACAD
1000
ACAD_MTEXT_DEFINED_HEIGHT_BEGIN
1070
    46
1040
0.0
1000
ACAD_MTEXT_DEFINED_HEIGHT_END
  0
LINE
  5
9D54
102
{ACAD_REACTORS
330
A90F
102
}
330
18
100
AcDbEntity
  8
contour
100
AcDbLine
 10
120.5
 20
123.441281179616
 30
0.0
 11
69.5
 21
123.441281179616
 31
0.0
  0
ARC
  5
9D55
102
{ACAD_REACTORS
330
A90F
102
}
330
18
100
AcDbEntity
  8
contour
100
AcDbCircle
 10
120.5
 20
122.441281179616
 30
0.0
 40
0.9999999999999998
100
AcDbArc
 50
0.0
 51
90.0
  0
LINE
  5
9D56
330
18
100
AcDbEntity
  8
center
 48
0.1
100
AcDbLine
 10
75.49999999999997
 20
116.441281179616
 30
0.0
 11
67.49999999999997
 21
116.441281179616
 31
0.0
  0
LINE
  5
9D57
102
{ACAD_REACTORS
330
A90F
102
}
330
18
100
AcDbEntity
  8
contour
100
AcDbLine
 10
68.5
 20
122.441281179616
 30
0.0
 11
68.5
 21
109.541281179616
 31
0.0
  0
ARC
  5
9D58
102
{ACAD_REACTORS
330
A90F
102
}
330
18
100
AcDbEntity
  8
contour
100
AcDbCircle
 10
69.5
 20
122.441281179616
 30
0.0
 40
0.9999999999999998
100
AcDbArc
 50
90.0
 51
180.0
  0
LINE
  5
9D59
102
{ACAD_REACTORS
330
A90F
102
}
330
18
100
AcDbEntity
  8
contour
100
AcDbLine
 10
68.5
 20
105.541281179616
 30
0.0
 11
68.49999999999997
 21
102.441281179616
 31
0.0
  0
ARC
  5
9D5A
102
{ACAD_REACTORS
330
A90F
102
}
330
18
100
AcDbEntity
  8
contour
100
AcDbCircle
 10
69.5
 20
105.541281179616
 30
0.0
 40
0.9999999999999998
100
AcDbArc
 50
90.0
 51
180.0
  0
LINE
  5
9D5B
102
{ACAD_REACTORS
330
A90F
102
}
330
18
100
AcDbEntity
  8
contour
100
AcDbLine
 10
69.49999999999997
 20
101.441281179616
 30
0.0
 11
120.5000000000002
 21
101.441281179616
 31
0.0
  0
ARC
  5
9D5C
102
{ACAD_REACTORS
330
A90F
102
}
330
18
100
AcDbEntity
  8
contour
100
AcDbCircle
 10
69.49999999999997
 20
102.441281179616
 30
0.0
 40
0.9999999999999998
100
AcDbArc
 50
179.9999999999996
 51
270.0
  0
LINE
  5
9D5D
102
{ACAD_REACTORS
330
A90F
102
}
330
18
100
AcDbEntity
  8
contour
100
AcDbLine
 10
72.25
 20
105.441281179616
 30
0.0
 11
74.39999999999997
 21
104.1999781008583
 31
0.0
  0
LINE
  5
9D5E
102
{ACAD_REACTORS
330
A90F
102
}
330
18
100
AcDbEntity
  8
contour
100
AcDbLine
 10
69.5
 20
106.541281179616
 30
0.0
 11
75.74999999999997
 21
106.541281179616
 31
0.0
  0
LINE
  5
9D5F
102
{ACAD_REACTORS
330
A90F
102
}
330
18
100
AcDbEntity
  8
contour
100
AcDbLine
 10
118.9999999999999
 20
106.541281179616
 30
0.0
 11
120.5
 21
106.541281179616
 31
0.0
  0
ARC
  5
9D60
102
{ACAD_REACTORS
330
A90F
102
}
330
18
100
AcDbEntity
  8
contour
100
AcDbCircle
 10
120.5
 20
105.541281179616
 30
0.0
 40
0.9999999999999998
100
AcDbArc
 50
0.0
 51
90.0
  0
LINE
  5
9D61
102
{ACAD_REACTORS
330
A90F
102
}
330
18
100
AcDbEntity
  8
contour
100
AcDbLine
 10
69.5
 20
108.541281179616
 30
0.0
 11
75.74999999999997
 21
108.541281179616
 31
0.0
  0
ARC
  5
9D62
102
{ACAD_REACTORS
330
A90F
102
}
330
18
100
AcDbEntity
  8
contour
100
AcDbCircle
 10
69.5
 20
109.541281179616
 30
0.0
 40
0.9999999999999998
100
AcDbArc
 50
180.0
 51
270.0
  0
LINE
  5
9D63
102
{ACAD_REACTORS
330
A90F
102
}
330
18
100
AcDbEntity
  8
contour
100
AcDbLine
 10
118.9999999999999
 20
108.541281179616
 30
0.0
 11
120.5
 21
108.541281179616
 31
0.0
  0
LINE
  5
9D64
102
{ACAD_REACTORS
330
A90F
102
}
330
18
100
AcDbEntity
  8
contour
100
AcDbLine
 10
121.4999999999999
 20
102.441281179616
 30
0.0
 11
121.4999999999999
 21
105.541281179616
 31
0.0
  0
ARC
  5
9D65
102
{ACAD_REACTORS
330
A90F
102
}
330
18
100
AcDbEntity
  8
contour
100
AcDbCircle
 10
120.5
 20
102.441281179616
 30
0.0
 40
0.9999999999999998
100
AcDbArc
 50
270.0
 51
0.0
  0
LINE
  5
9D66
102
{ACAD_REACTORS
330
A90F
102
}
330
18
100
AcDbEntity
  8
contour
100
AcDbLine
 10
121.4999999999999
 20
109.541281179616
 30
0.0
 11
121.4999999999999
 21
122.441281179616
 31
0.0
  0
ARC
  5
9D67
102
{ACAD_REACTORS
330
A90F
102
}
330
18
100
AcDbEntity
  8
contour
100
AcDbCircle
 10
120.5
 20
109.541281179616
 30
0.0
 40
0.9999999999999998
100
AcDbArc
 50
270.0
 51
0.0
  0
LINE
  5
9D68
330
18
100
AcDbEntity
  8
center
 48
0.2
100
AcDbLine
 10
94.99999999999998
 20
124.441281179616
 30
0.0
 11
94.99999999999998
 21
100.441281179616
 31
0.0
  0
LINE
  5
9D69
102
{ACAD_REACTORS
330
A90F
102
}
330
18
100
AcDbEntity
  8
contour
100
AcDbLine
 10
119.75
 20
111.341281179616
 30
0.0
 11
119.75
 21
109.3412811796159
 31
0.0
  0
LINE
  5
9D6A
102
{ACAD_REACTORS
330
A90F
102
}
330
18
100
AcDbEntity
  8
contour
100
AcDbLine
 10
114.25
 20
106.541281179616
 30
0.0
 11
114.25
 21
108.541281179616
 31
0.0
  0
LINE
  5
9D6B
102
{ACAD_REACTORS
330
A90F
102
}
330
18
100
AcDbEntity
  8
contour
100
AcDbLine
 10
75.74999999999997
 20
106.541281179616
 30
0.0
 11
75.74999999999997
 21
108.541281179616
 31
0.0
  0
LINE
  5
9D6C
102
{ACAD_REACTORS
330
A90F
102
}
330
18
100
AcDbEntity
  8
contour
100
AcDbLine
 10
70.09999999999999
 20
104.1999781008583
 30
0.0
 11
70.09999999999997
 21
101.941281179616
 31
0.0
  0
LINE
  5
9D6D
102
{ACAD_REACTORS
330
A90F
102
}
330
18
100
AcDbEntity
  8
contour
100
AcDbLine
 10
69.59999999999997
 20
101.441281179616
 30
0.0
 11
70.09999999999997
 21
101.941281179616
 31
0.0
  0
LINE
  5
9D6E
102
{ACAD_REACTORS
330
A90F
102
}
330
18
100
AcDbEntity
  8
contour
100
AcDbLine
 10
74.39999999999995
 20
104.1999781008583
 30
0.0
 11
74.39999999999995
 21
101.941281179616
 31
0.0
  0
LINE
  5
9D6F
102
{ACAD_REACTORS
330
A90F
102
}
330
18
100
AcDbEntity
  8
contour
100
AcDbLine
 10
74.89999999999998
 20
101.441281179616
 30
0.0
 11
74.39999999999997
 21
101.941281179616
 31
0.0
  0
LINE
  5
9D70
330
18
100
AcDbEntity
  8
contour
100
AcDbLine
 10
74.39999999999997
 20
101.941281179616
 30
0.0
 11
70.09999999999997
 21
101.941281179616
 31
0.0
  0
LINE
  5
9D71
330
18
100
AcDbEntity
  8
center
 48
0.1
100
AcDbLine
 10
72.24999999999997
 20
100.441281179616
 30
0.0
 11
72.24999999999997
 21
106.441281179616
 31
0.0
  0
LINE
  5
9D72
102
{ACAD_REACTORS
330
A90F
102
}
330
18
100
AcDbEntity
  8
contour
100
AcDbLine
 10
72.25
 20
105.441281179616
 30
0.0
 11
70.09999999999997
 21
104.1999781008583
 31
0.0
  0
LINE
  5
9D73
330
18
100
AcDbEntity
  8
contour
100
AcDbLine
 10
74.39999999999995
 20
104.1999781008583
 30
0.0
 11
70.09999999999997
 21
104.1999781008583
 31
0.0
  0
LINE
  5
9D74
102
{ACAD_REACTORS
330
A90F
102
}
330
18
100
AcDbEntity
  8
contour
100
AcDbLine
 10
74.49999999999997
 20
116.441281179616
 30
0.0
 11
73.0566243270259
 21
118.941281179616
 31
0.0
  0
LINE
  5
9D75
102
{ACAD_REACTORS
330
A90F
102
}
330
18
100
AcDbEntity
  8
contour
100
AcDbLine
 10
74.49999999999997
 20
116.441281179616
 30
0.0
 11
73.05662432702587
 21
113.941281179616
 31
0.0
  0
LINE
  5
9D76
102
{ACAD_REACTORS
330
A90F
102
}
330
18
100
AcDbEntity
  8
contour
100
AcDbLine
 10
68.99999999999997
 20
118.941281179616
 30
0.0
 11
73.05662432702596
 21
118.941281179616
 31
0.0
  0
LINE
  5
9D77
102
{ACAD_REACTORS
330
A90F
102
}
330
18
100
AcDbEntity
  8
contour
100
AcDbLine
 10
68.99999999999997
 20
113.941281179616
 30
0.0
 11
73.05662432702584
 21
113.941281179616
 31
0.0
  0
LINE
  5
9D78
330
18
100
AcDbEntity
  8
contour
100
AcDbLine
 10
73.0566243270259
 20
118.941281179616
 30
0.0
 11
73.05662432702587
 21
113.941281179616
 31
0.0
  0
LINE
  5
9D79
330
18
100
AcDbEntity
  8
contour
100
AcDbLine
 10
68.99999999999997
 20
118.941281179616
 30
0.0
 11
68.99999999999997
 21
113.941281179616
 31
0.0
  0
LINE
  5
9D7A
102
{ACAD_REACTORS
330
A90F
102
}
330
18
100
AcDbEntity
  8
contour
100
AcDbLine
 10
68.99999999999997
 20
113.941281179616
 30
0.0
 11
68.49999999999997
 21
113.441281179616
 31
0.0
  0
LINE
  5
9D7B
102
{ACAD_REACTORS
330
A90F
102
}
330
18
100
AcDbEntity
  8
contour
100
AcDbLine
 10
68.99999999999997
 20
118.941281179616
 30
0.0
 11
68.49999999999997
 21
119.441281179616
 31
0.0
  0
LINE
  5
9D7C
102
{ACAD_REACTORS
330
A90F
102
}
330
18
100
AcDbEntity
  8
contour
100
AcDbLine
 10
120.5000000000002
 20
101.7412811796161
 30
0.0
 11
120.5000000000002
 21
101.441281179616
 31
0.0
  0
LINE
  5
9D7D
102
{ACAD_REACTORS
330
A90F
102
}
330
18
100
AcDbEntity
  8
contour
100
AcDbLine
 10
113.5
 20
101.741281179616
 30
0.0
 11
113.5
 21
101.441281179616
 31
0.0
  0
LINE
  5
9D7E
102
{ACAD_REACTORS
330
A90F
102
}
330
18
100
AcDbEntity
  8
contour
 62
     4
100
AcDbLine
 10
118.9999999999999
 20
116.641281179616
 30
0.0
 11
118.9999999999999
 21
123.441281179616
 31
0.0
  0
LINE
  5
9D7F
102
{ACAD_REACTORS
330
A90F
102
}
330
18
100
AcDbEntity
  8
contour
 62
     4
100
AcDbLine
 10
115.0000000000001
 20
116.641281179616
 30
0.0
 11
114.9999999999999
 21
123.441281179616
 31
0.0
  0
LINE
  5
9D82
102
{ACAD_REACTORS
330
A90F
102
}
330
18
100
AcDbEntity
  8
contour
100
AcDbLine
 10
114.25
 20
108.541281179616
 30
0.0
 11
114.9999999999999
 21
108.541281179616
 31
0.0
  0
LINE
  5
9D83
102
{ACAD_REACTORS
330
A90F
102
}
330
18
100
AcDbEntity
  8
contour
100
AcDbLine
 10
70.24999999999995
 20
109.341281179616
 30
0.0
 11
115.0
 21
109.3412811796159
 31
0.0
  0
LINE
  5
9D84
102
{ACAD_REACTORS
330
A90F
102
}
330
18
100
AcDbEntity
  8
contour
100
AcDbLine
 10
70.24999999999995
 20
111.341281179616
 30
0.0
 11
115.0
 21
111.3412811796159
 31
0.0
  0
LINE
  5
9D85
102
{ACAD_REACTORS
330
A90F
102
}
330
18
100
AcDbEntity
  8
contour
100
AcDbLine
 10
114.25
 20
106.541281179616
 30
0.0
 11
114.9999999999999
 21
106.541281179616
 31
0.0
  0
LINE
  5
9D86
102
{ACAD_REACTORS
330
A90F
102
}
330
18
100
AcDbEntity
  8
contour
100
AcDbLine
 10
70.24999999999997
 20
111.341281179616
 30
0.0
 11
70.24999999999997
 21
109.3412811796159
 31
0.0
  0
LINE
  5
9D87
102
{ACAD_REACTORS
330
A90F
102
}
330
18
100
AcDbEntity
  8
contour
100
AcDbLine
 10
119.75
 20
111.341281179616
 30
0.0
 11
119.0
 21
111.341281179616
 31
0.0
  0
LINE
  5
9D88
102
{ACAD_REACTORS
330
A90F
102
}
330
18
100
AcDbEntity
  8
contour
100
AcDbLine
 10
119.75
 20
109.3412811796159
 30
0.0
 11
119.0
 21
109.3412811796159
 31
0.0
  0
LINE
  5
9D89
102
{ACAD_REACTORS
330
A90F
102
}
330
18
100
AcDbEntity
  8
contour
100
AcDbLine
 10
111.6879999999999
 20
121.941281179616
 30
0.0
 11
111.6879999999999
 21
112.841281179616
 31
0.0
  0
LINE
  5
9D8A
102
{ACAD_REACTORS
330
A90F
102
}
330
18
100
AcDbEntity
  8
contour
100
AcDbLine
 10
113.1879999999999
 20
123.441281179616
 30
0.0
 11
111.6879999999999
 21
121.941281179616
 31
0.0
  0
LINE
  5
9D8B
102
{ACAD_REACTORS
330
A90F
102
}
330
18
100
AcDbEntity
  8
contour
 62
     4
100
AcDbLine
 10
112.5
 20
122.753281179616
 30
0.0
 11
112.5
 21
112.0292811796159
 31
0.0
  0
LINE
  5
9D8C
102
{ACAD_REACTORS
330
A90F
102
}
330
18
100
AcDbEntity
  8
contour
100
AcDbLine
 10
113.1879999999999
 20
111.3412811796159
 30
0.0
 11
111.6879999999999
 21
112.841281179616
 31
0.0
  0
LINE
  5
9D8D
102
{ACAD_REACTORS
330
A90F
102
}
330
18
100
AcDbEntity
  8
contour
100
AcDbLine
 10
111.6879999999999
 20
107.8412811796159
 30
0.0
 11
111.6879999999999
 21
102.9412811796159
 31
0.0
  0
LINE
  5
9D8E
102
{ACAD_REACTORS
330
A90F
102
}
330
18
100
AcDbEntity
  8
contour
100
AcDbLine
 10
113.1879999999999
 20
109.3412811796159
 30
0.0
 11
111.6879999999999
 21
107.8412811796159
 31
0.0
  0
LINE
  5
9D8F
102
{ACAD_REACTORS
330
A90F
102
}
330
18
100
AcDbEntity
  8
contour
 62
     4
100
AcDbLine
 10
112.5
 20
108.653281179616
 30
0.0
 11
112.5
 21
102.129281179616
 31
0.0
  0
LINE
  5
9D90
102
{ACAD_REACTORS
330
A90F
102
}
330
18
100
AcDbEntity
  8
contour
100
AcDbLine
 10
113.1879999999999
 20
101.441281179616
 30
0.0
 11
111.6879999999999
 21
102.941281179616
 31
0.0
  0
LINE
  5
9D91
102
{ACAD_REACTORS
330
A90F
102
}
330
18
100
AcDbEntity
  8
contour
100
AcDbLine
 10
78.31199999999992
 20
121.941281179616
 30
0.0
 11
78.31199999999999
 21
112.841281179616
 31
0.0
  0
LINE
  5
9D92
102
{ACAD_REACTORS
330
A90F
102
}
330
18
100
AcDbEntity
  8
contour
100
AcDbLine
 10
76.81199999999993
 20
123.441281179616
 30
0.0
 11
78.31199999999992
 21
121.941281179616
 31
0.0
  0
LINE
  5
9D93
102
{ACAD_REACTORS
330
A90F
102
}
330
18
100
AcDbEntity
  8
contour
 62
     4
100
AcDbLine
 10
77.49999999999994
 20
122.753281179616
 30
0.0
 11
77.49999999999994
 21
112.0292811796159
 31
0.0
  0
LINE
  5
9D94
102
{ACAD_REACTORS
330
A90F
102
}
330
18
100
AcDbEntity
  8
contour
100
AcDbLine
 10
76.81199999999996
 20
111.3412811796159
 30
0.0
 11
78.31199999999995
 21
112.841281179616
 31
0.0
  0
LINE
  5
9D95
102
{ACAD_REACTORS
330
A90F
102
}
330
18
100
AcDbEntity
  8
contour
100
AcDbLine
 10
78.31199999999995
 20
107.8412811796159
 30
0.0
 11
78.31199999999999
 21
102.9412811796159
 31
0.0
  0
LINE
  5
9D96
102
{ACAD_REACTORS
330
A90F
102
}
330
18
100
AcDbEntity
  8
contour
100
AcDbLine
 10
76.81199999999996
 20
109.3412811796159
 30
0.0
 11
78.31199999999995
 21
107.8412811796159
 31
0.0
  0
LINE
  5
9D97
102
{ACAD_REACTORS
330
A90F
102
}
330
18
100
AcDbEntity
  8
contour
 62
     4
100
AcDbLine
 10
77.49999999999997
 20
108.653281179616
 30
0.0
 11
77.49999999999997
 21
102.129281179616
 31
0.0
  0
LINE
  5
9D98
102
{ACAD_REACTORS
330
A90F
102
}
330
18
100
AcDbEntity
  8
contour
100
AcDbLine
 10
76.81199999999998
 20
101.441281179616
 30
0.0
 11
78.31199999999999
 21
102.941281179616
 31
0.0
  0
LINE
  5
9D99
330
18
100
AcDbEntity
  8
contour
100
AcDbLine
 10
111.6879999999999
 20
121.941281179616
 30
0.0
 11
78.31199999999992
 21
121.9412811796158
 31
0.0
  0
LINE
  5
9D9A
330
18
100
AcDbEntity
  8
contour
100
AcDbLine
 10
78.31199999999995
 20
112.841281179616
 30
0.0
 11
111.6879999999999
 21
112.841281179616
 31
0.0
  0
LINE
  5
9D9B
330
18
100
AcDbEntity
  8
contour
100
AcDbLine
 10
111.6879999999999
 20
107.841281179616
 30
0.0
 11
78.31200000000001
 21
107.8412811796158
 31
0.0
  0
LINE
  5
9D9C
330
18
100
AcDbEntity
  8
contour
100
AcDbLine
 10
78.31200000000004
 20
102.941281179616
 30
0.0
 11
111.6879999999999
 21
102.941281179616
 31
0.0
  0
LINE
  5
9D9D
330
18
100
AcDbEntity
  8
center
 48
0.2
100
AcDbLine
 10
116.9999999999999
 20
124.441281179616
 30
0.0
 11
116.9999999999999
 21
100.441281179616
 31
0.0
  0
INSERT
  5
9D9E
102
{ACAD_REACTORS
330
A90F
102
}
330
18
100
AcDbEntity
  8
contour
100
AcDbBlockReference
  2
LS2
 10
256.7797554375081
 20
101.6757483685426
 30
0.0
 41
-1.0
  0
LINE
  5
9DC7
330
18
100
AcDbEntity
  8
center
 48
0.25
100
AcDbLine
 10
94.99999999999998
 20
167.27295445371
 30
0.0
 11
94.99999999999998
 21
222.27295445371
 31
0.0
  0
LINE
  5
9DC8
330
18
100
AcDbEntity
  8
center
 48
0.25
100
AcDbLine
 10
122.4999999999999
 20
194.77295445371
 30
0.0
 11
67.5
 21
194.77295445371
 31
0.0
  0
CIRCLE
  5
9DCE
330
18
100
AcDbEntity
  8
contour
100
AcDbCircle
 10
94.99999999999998
 20
194.77295445371
 30
0.0
 40
16.68800000000004
  0
ARC
  5
9DCF
330
18
100
AcDbEntity
  8
contour
 62
     4
100
AcDbCircle
 10
94.99999999999998
 20
194.77295445371
 30
0.0
 40
17.50000000000003
100
AcDbArc
 50
168.4630409671843
 51
101.5369590328148
  0
CIRCLE
  5
9DD0
330
18
100
AcDbEntity
  8
contour
100
AcDbCircle
 10
94.99999999999998
 20
194.77295445371
 30
0.0
 40
18.18800000000004
  0
CIRCLE
  5
9DD1
330
18
100
AcDbEntity
  8
contour
100
AcDbCircle
 10
94.99999999999998
 20
194.77295445371
 30
0.0
 40
26.49999999999997
  0
CIRCLE
  5
9DDA
330
18
100
AcDbEntity
  8
contour
100
AcDbCircle
 10
116.9999999999999
 20
194.77295445371
 30
0.0
 40
1.621000000000066
  0
ARC
  5
9DDB
330
18
100
AcDbEntity
  8
contour
 62
     4
100
AcDbCircle
 10
116.9999999999999
 20
194.77295445371
 30
0.0
 40
2.000000000000028
100
AcDbArc
 50
168.4630409671843
 51
101.5369590328148
  0
CIRCLE
  5
9DDC
330
18
100
AcDbEntity
  8
bowle
 48
0.2
100
AcDbCircle
 10
116.9999999999999
 20
194.77295445371
 30
0.0
 40
3.500000000000028
  0
CIRCLE
  5
9DDF
330
18
100
AcDbEntity
  8
bowle
 48
0.2
100
AcDbCircle
 10
78.91332072800603
 20
178.686275181716
 30
0.0
 40
2.150000000000005
  0
CIRCLE
  5
9DE0
330
18
100
AcDbEntity
  8
bowle
 48
0.2
100
AcDbCircle
 10
78.91332072800603
 20
178.686275181716
 30
0.0
 40
2.650000000000005
  0
LINE
  5
9DE1
330
18
100
AcDbEntity
  8
center
 48
0.2
100
AcDbLine
 10
83.90690881674535
 20
183.6798632704554
 30
0.0
 11
75.55456351736992
 21
175.3275179710799
 31
0.0
  0
LINE
  5
9DE2
330
18
100
AcDbEntity
  8
bowle
 48
0.2
100
AcDbLine
 10
80.50431098567575
 20
180.2772654393857
 30
0.0
 11
77.71592330654974
 21
181.0244116661925
 31
0.0
  0
LINE
  5
9DE3
330
18
100
AcDbEntity
  8
bowle
 48
0.2
100
AcDbLine
 10
80.50431098567575
 20
180.2772654393857
 30
0.0
 11
81.25145721248244
 21
177.4888777602597
 31
0.0
  0
LINE
  5
9DE4
330
18
100
AcDbEntity
  8
bowle
 48
0.2
100
AcDbLine
 10
74.84745673618338
 20
178.1559450958261
 30
0.0
 11
77.71592330654977
 21
181.0244116661925
 31
0.0
  0
LINE
  5
9DE5
330
18
100
AcDbEntity
  8
bowle
 48
0.2
100
AcDbLine
 10
78.38299064211608
 20
174.6204111898934
 30
0.0
 11
81.25145721248243
 21
177.4888777602597
 31
0.0
  0
LINE
  5
9DE6
330
18
100
AcDbEntity
  8
bowle
 48
0.2
100
AcDbLine
 10
77.71592330654974
 20
181.0244116661925
 30
0.0
 11
81.25145721248244
 21
177.4888777602597
 31
0.0
  0
LINE
  5
9DE7
330
18
100
AcDbEntity
  8
bowle
 48
0.2
100
AcDbLine
 10
74.84745673618338
 20
178.1559450958261
 30
0.0
 11
78.38299064211614
 21
174.6204111898933
 31
0.0
  0
LINE
  5
9DE8
330
18
100
AcDbEntity
  8
bowle
 48
0.2
100
AcDbLine
 10
78.38299064211614
 20
174.6204111898933
 30
0.0
 11
78.38299064211614
 21
174.130159100367
 31
0.0
  0
LINE
  5
9DE9
330
18
100
AcDbEntity
  8
bowle
 48
0.2
100
AcDbLine
 10
74.84745673618338
 20
178.1559450958261
 30
0.0
 11
74.35720464665701
 21
178.1559450958261
 31
0.0
  0
CIRCLE
  5
9DF2
330
18
100
AcDbEntity
  8
contour
100
AcDbCircle
 10
94.99999999999998
 20
216.77295445371
 30
0.0
 40
1.621000000000066
  0
CIRCLE
  5
9DF3
330
18
100
AcDbEntity
  8
bowle
 48
0.2
100
AcDbCircle
 10
94.99999999999998
 20
216.77295445371
 30
0.0
 40
3.500000000000028
  0
CIRCLE
  5
9DF4
330
18
100
AcDbEntity
  8
contour
100
AcDbCircle
 10
72.99999999999994
 20
194.77295445371
 30
0.0
 40
1.621000000000066
  0
CIRCLE
  5
9DF5
330
18
100
AcDbEntity
  8
bowle
 48
0.2
100
AcDbCircle
 10
72.99999999999994
 20
194.77295445371
 30
0.0
 40
3.500000000000028
  0
CIRCLE
  5
9DF6
330
18
100
AcDbEntity
  8
contour
100
AcDbCircle
 10
94.99999999999998
 20
172.7729544537099
 30
0.0
 40
1.621000000000066
  0
CIRCLE
  5
9DF7
330
18
100
AcDbEntity
  8
bowle
 48
0.2
100
AcDbCircle
 10
94.99999999999998
 20
172.7729544537099
 30
0.0
 40
3.500000000000028
  0
ARC
  5
9DF8
330
18
100
AcDbEntity
  8
contour
 62
     4
100
AcDbCircle
 10
94.99999999999998
 20
216.77295445371
 30
0.0
 40
2.000000000000028
100
AcDbArc
 50
168.4630409671843
 51
101.5369590328148
  0
ARC
  5
9DF9
330
18
100
AcDbEntity
  8
contour
 62
     4
100
AcDbCircle
 10
72.99999999999994
 20
194.77295445371
 30
0.0
 40
2.000000000000028
100
AcDbArc
 50
168.4630409671843
 51
101.5369590328148
  0
ARC
  5
9DFA
330
18
100
AcDbEntity
  8
contour
 62
     4
100
AcDbCircle
 10
94.99999999999998
 20
172.7729544537099
 30
0.0
 40
2.000000000000028
100
AcDbArc
 50
168.4630409671843
 51
101.5369590328148
  0
CIRCLE
  5
9DFB
330
18
100
AcDbEntity
  8
bowle
 48
0.2
100
AcDbCircle
 10
111.0866792719939
 20
178.686275181716
 30
0.0
 40
2.150000000000005
  0
CIRCLE
  5
9DFC
330
18
100
AcDbEntity
  8
bowle
 48
0.2
100
AcDbCircle
 10
111.0866792719939
 20
178.686275181716
 30
0.0
 40
2.650000000000005
  0
LINE
  5
9DFD
330
18
100
AcDbEntity
  8
center
 48
0.2
100
AcDbLine
 10
106.0930911832545
 20
183.6798632704553
 30
0.0
 11
114.44543648263
 21
175.3275179710799
 31
0.0
  0
LINE
  5
9DFE
330
18
100
AcDbEntity
  8
bowle
 48
0.2
100
AcDbLine
 10
109.4956890143242
 20
180.2772654393857
 30
0.0
 11
108.7485427875174
 21
177.4888777602597
 31
0.0
  0
LINE
  5
9DFF
330
18
100
AcDbEntity
  8
bowle
 48
0.2
100
AcDbLine
 10
109.4956890143242
 20
180.2772654393857
 30
0.0
 11
112.2840766934502
 21
181.0244116661925
 31
0.0
  0
LINE
  5
9E00
330
18
100
AcDbEntity
  8
bowle
 48
0.2
100
AcDbLine
 10
111.6170093578838
 20
174.6204111898934
 30
0.0
 11
108.7485427875174
 21
177.4888777602597
 31
0.0
  0
LINE
  5
9E01
330
18
100
AcDbEntity
  8
bowle
 48
0.2
100
AcDbLine
 10
115.1525432638165
 20
178.1559450958261
 30
0.0
 11
112.2840766934502
 21
181.0244116661924
 31
0.0
  0
LINE
  5
9E02
330
18
100
AcDbEntity
  8
bowle
 48
0.2
100
AcDbLine
 10
108.7485427875174
 20
177.4888777602597
 30
0.0
 11
112.2840766934502
 21
181.0244116661925
 31
0.0
  0
LINE
  5
9E03
330
18
100
AcDbEntity
  8
bowle
 48
0.2
100
AcDbLine
 10
111.6170093578838
 20
174.6204111898934
 30
0.0
 11
115.1525432638165
 21
178.1559450958261
 31
0.0
  0
LINE
  5
9E04
330
18
100
AcDbEntity
  8
bowle
 48
0.2
100
AcDbLine
 10
115.1525432638165
 20
178.1559450958261
 30
0.0
 11
115.6427953533429
 21
178.1559450958261
 31
0.0
  0
LINE
  5
9E05
330
18
100
AcDbEntity
  8
bowle
 48
0.2
100
AcDbLine
 10
111.6170093578838
 20
174.6204111898934
 30
0.0
 11
111.6170093578838
 21
174.130159100367
 31
0.0
  0
CIRCLE
  5
9E06
330
18
100
AcDbEntity
  8
bowle
 48
0.2
100
AcDbCircle
 10
111.0866792719939
 20
210.8596337257039
 30
0.0
 40
2.150000000000005
  0
CIRCLE
  5
9E07
330
18
100
AcDbEntity
  8
bowle
 48
0.2
100
AcDbCircle
 10
111.0866792719939
 20
210.8596337257039
 30
0.0
 40
2.650000000000005
  0
LINE
  5
9E08
330
18
100
AcDbEntity
  8
center
 48
0.2
100
AcDbLine
 10
106.0930911832546
 20
205.8660456369645
 30
0.0
 11
114.44543648263
 21
214.21839093634
 31
0.0
  0
LINE
  5
9E09
330
18
100
AcDbEntity
  8
bowle
 48
0.2
100
AcDbLine
 10
109.4956890143242
 20
209.2686434680342
 30
0.0
 11
112.2840766934502
 21
208.5214972412274
 31
0.0
  0
LINE
  5
9E0A
330
18
100
AcDbEntity
  8
bowle
 48
0.2
100
AcDbLine
 10
109.4956890143242
 20
209.2686434680342
 30
0.0
 11
108.7485427875175
 21
212.0570311471602
 31
0.0
  0
LINE
  5
9E0B
330
18
100
AcDbEntity
  8
bowle
 48
0.2
100
AcDbLine
 10
115.1525432638165
 20
211.3899638115938
 30
0.0
 11
112.2840766934502
 21
208.5214972412274
 31
0.0
  0
LINE
  5
9E0C
330
18
100
AcDbEntity
  8
bowle
 48
0.2
100
AcDbLine
 10
111.6170093578839
 20
214.9254977175266
 30
0.0
 11
108.7485427875175
 21
212.0570311471603
 31
0.0
  0
LINE
  5
9E0D
330
18
100
AcDbEntity
  8
bowle
 48
0.2
100
AcDbLine
 10
112.2840766934502
 20
208.5214972412274
 30
0.0
 11
108.7485427875175
 21
212.0570311471602
 31
0.0
  0
LINE
  5
9E0E
330
18
100
AcDbEntity
  8
bowle
 48
0.2
100
AcDbLine
 10
115.1525432638165
 20
211.3899638115938
 30
0.0
 11
111.6170093578838
 21
214.9254977175266
 31
0.0
  0
LINE
  5
9E0F
330
18
100
AcDbEntity
  8
bowle
 48
0.2
100
AcDbLine
 10
111.6170093578838
 20
214.9254977175266
 30
0.0
 11
111.6170093578838
 21
215.4157498070529
 31
0.0
  0
LINE
  5
9E10
330
18
100
AcDbEntity
  8
bowle
 48
0.2
100
AcDbLine
 10
115.1525432638165
 20
211.3899638115938
 30
0.0
 11
115.6427953533429
 21
211.3899638115938
 31
0.0
  0
CIRCLE
  5
9E11
330
18
100
AcDbEntity
  8
bowle
 48
0.2
100
AcDbCircle
 10
78.91332072800603
 20
210.8596337257039
 30
0.0
 40
2.150000000000005
  0
CIRCLE
  5
9E12
330
18
100
AcDbEntity
  8
bowle
 48
0.2
100
AcDbCircle
 10
78.91332072800603
 20
210.8596337257039
 30
0.0
 40
2.650000000000005
  0
LINE
  5
9E13
330
18
100
AcDbEntity
  8
center
 48
0.2
100
AcDbLine
 10
83.90690881674542
 20
205.8660456369646
 30
0.0
 11
75.55456351736996
 21
214.21839093634
 31
0.0
  0
LINE
  5
9E14
330
18
100
AcDbEntity
  8
bowle
 48
0.2
100
AcDbLine
 10
80.50431098567576
 20
209.2686434680342
 30
0.0
 11
81.2514572124825
 21
212.0570311471602
 31
0.0
  0
LINE
  5
9E15
330
18
100
AcDbEntity
  8
bowle
 48
0.2
100
AcDbLine
 10
80.50431098567576
 20
209.2686434680342
 30
0.0
 11
77.71592330654974
 21
208.5214972412275
 31
0.0
  0
LINE
  5
9E16
330
18
100
AcDbEntity
  8
bowle
 48
0.2
100
AcDbLine
 10
78.38299064211614
 20
214.9254977175266
 30
0.0
 11
81.25145721248253
 21
212.0570311471602
 31
0.0
  0
LINE
  5
9E17
330
18
100
AcDbEntity
  8
bowle
 48
0.2
100
AcDbLine
 10
74.8474567361834
 20
211.3899638115938
 30
0.0
 11
77.71592330654971
 21
208.5214972412275
 31
0.0
  0
LINE
  5
9E18
330
18
100
AcDbEntity
  8
bowle
 48
0.2
100
AcDbLine
 10
81.2514572124825
 20
212.0570311471602
 30
0.0
 11
77.71592330654974
 21
208.5214972412275
 31
0.0
  0
LINE
  5
9E19
330
18
100
AcDbEntity
  8
bowle
 48
0.2
100
AcDbLine
 10
78.38299064211614
 20
214.9254977175266
 30
0.0
 11
74.84745673618338
 21
211.3899638115938
 31
0.0
  0
LINE
  5
9E1A
330
18
100
AcDbEntity
  8
bowle
 48
0.2
100
AcDbLine
 10
74.84745673618338
 20
211.3899638115938
 30
0.0
 11
74.35720464665704
 21
211.3899638115938
 31
0.0
  0
LINE
  5
9E1B
330
18
100
AcDbEntity
  8
bowle
 48
0.2
100
AcDbLine
 10
78.38299064211614
 20
214.9254977175266
 30
0.0
 11
78.38299064211617
 21
215.4157498070529
 31
0.0
  0
CIRCLE
  5
9F7F
330
18
100
AcDbEntity
  8
center
 48
0.25
100
AcDbCircle
 10
94.99999999999998
 20
194.77295445371
 30
0.0
 40
22.0
  0
ARC
  5
9F87
330
18
100
AcDbEntity
  8
center
 48
0.2
100
AcDbCircle
 10
94.99999999999998
 20
194.77295445371
 30
0.0
 40
22.74999999999996
100
AcDbArc
 50
120.7336736612644
 51
165.0
  0
CIRCLE
  5
9F88
330
18
100
AcDbEntity
  8
bowle
 48
0.2
100
AcDbCircle
 10
78.91332072800603
 20
210.8596337257039
 30
0.0
 40
3.650000000000005
  0
ARC
  5
9F8C
330
18
100
AcDbEntity
  8
center
 48
0.2
100
AcDbCircle
 10
94.99999999999991
 20
194.77295445371
 30
0.0
 40
22.74999999999996
100
AcDbArc
 50
210.7336736612646
 51
239.266326338734
  0
ARC
  5
9F8D
330
18
100
AcDbEntity
  8
center
 48
0.2
100
AcDbCircle
 10
94.99999999999991
 20
194.7729544537099
 30
0.0
 40
22.74999999999996
100
AcDbArc
 50
300.7336736612661
 51
345.0000000000001
  0
ARC
  5
9F8E
330
18
100
AcDbEntity
  8
center
 48
0.2
100
AcDbCircle
 10
94.99999999999994
 20
194.7729544537099
 30
0.0
 40
22.74999999999996
100
AcDbArc
 50
30.733673661266
 51
59.26632633873574
  0
LINE
  5
A111
102
{ACAD_REACTORS
330
A90F
102
}
330
18
100
AcDbEntity
  8
contour
100
AcDbLine
 10
115.379
 20
121.0202811796159
 30
0.0
 11
115.379
 21
123.441281179616
 31
0.0
  0
LINE
  5
A112
102
{ACAD_REACTORS
330
A90F
102
}
330
18
100
AcDbEntity
  8
contour
100
AcDbLine
 10
118.6209999999999
 20
121.0202811796159
 30
0.0
 11
118.6209999999999
 21
123.441281179616
 31
0.0
  0
DIMENSION
  5
A63F
330
18
100
AcDbEntity
  8
mark
100
AcDbDimension
  2
*D5
 10
74.02085218968259
 20
188.1491068442871
 30
0.0
 11
131.7476748389618
 21
206.3754752202682
 31
0.0
 70
   163
  1
P.C.D 44
 71
     5
 42
43.99999999999998
  3
STANDARD
100
AcDbDiametricDimension
 15
115.9791478103173
 25
201.3968020631327
 35
0.0
 40
0.0
1001
ACAD
1000
DSTYLE
1002
{
1070
   288
1070
     1
1002
}
  0
DIMENSION
  5
A64B
330
18
100
AcDbEntity
  8
mark
100
AcDbDimension
  2
*D6
 10
116.4248381359586
 20
187.1218884594859
 30
0.0
 11
59.74705505186149
 21
209.5920913019869
 31
0.0
 70
    35
  1
P.C.D 45.5
 71
     5
 42
45.49999999999994
  3
STANDARD
100
AcDbDiametricDimension
 15
73.57516186404133
 25
202.424020447934
 35
0.0
 40
0.0
1001
ACAD
1000
DSTYLE
1002
{
1070
   288
1070
     1
1002
}
  0
DIMENSION
  5
A65F
330
18
100
AcDbEntity
  8
mark
100
AcDbDimension
  2
*D7
 10
121.4999999999999
 20
130.9713766788029
 30
0.0
 11
94.99999999999998
 21
133.0713766788029
 31
0.0
 70
    32
  1
%%C53
 71
     5
 42
52.99999999999997
  3
STANDARD
100
AcDbAlignedDimension
 13
68.5
 23
122.441281179616
 33
0.0
 14
121.4999999999999
 24
122.441281179616
 34
0.0
100
AcDbRotatedDimension
  0
DIMENSION
  5
A66D
330
18
100
AcDbEntity
  8
mark
100
AcDbDimension
  2
*D8
 10
62.95295555619202
 20
123.441281179616
 30
0.0
 11
60.852955556192
 21
119.941281179616
 31
0.0
 70
    32
 71
     5
 42
7.0
  3
STANDARD
100
AcDbAlignedDimension
 13
67.49999999999997
 23
116.441281179616
 33
0.0
 14
69.5
 24
123.441281179616
 34
0.0
 50
90.0
100
AcDbRotatedDimension
  0
DIMENSION
  5
A67A
330
18
100
AcDbEntity
  8
mark
100
AcDbDimension
  2
*D9
 10
129.6474257442786
 20
108.541281179616
 30
0.0
 11
127.5474257442786
 21
115.991281179616
 31
0.0
 70
    32
 71
     5
 42
14.9
  3
STANDARD
100
AcDbAlignedDimension
 13
120.5
 23
123.441281179616
 33
0.0
 14
120.5
 24
108.541281179616
 34
0.0
 50
90.0
100
AcDbRotatedDimension
  0
DIMENSION
  5
A6A1
330
18
100
AcDbEntity
  8
mark
100
AcDbDimension
  2
*D10
 10
136.4511102047465
 20
123.441281179616
 30
0.0
 11
134.3511102047465
 21
112.441281179616
 31
0.0
 70
    32
  1
22%%P0.2
 71
     5
 42
22.0
  3
STANDARD
100
AcDbAlignedDimension
 13
120.5
 23
101.441281179616
 33
0.0
 14
120.5
 24
123.441281179616
 34
0.0
 50
90.0
100
AcDbRotatedDimension
  0
LINE
  5
A6E1
330
18
100
AcDbEntity
  8
mark
100
AcDbLine
 10
121.3499999999999
 20
108.541281179616
 30
0.0
 11
130.4974257442786
 21
108.541281179616
 31
0.0
  0
LINE
  5
A6E2
330
18
100
AcDbEntity
  8
mark
100
AcDbLine
 10
121.3499999999999
 20
106.541281179616
 30
0.0
 11
130.4974257442786
 21
106.541281179616
 31
0.0
  0
LINE
  5
A6E3
330
18
100
AcDbEntity
  8
mark
100
AcDbLine
 10
129.6474257442786
 20
111.041281179616
 30
0.0
 11
129.6474257442786
 21
113.541281179616
 31
0.0
  0
LINE
  5
A6E4
330
18
100
AcDbEntity
  8
mark
100
AcDbLine
 10
129.6474257442786
 20
104.041281179616
 30
0.0
 11
129.6474257442786
 21
102.791281179616
 31
0.0
  0
LINE
  5
A6E5
330
18
100
AcDbEntity
  8
mark
100
AcDbLine
 10
129.6474257442786
 20
108.541281179616
 30
0.0
 11
129.6474257442786
 21
106.541281179616
 31
0.0
  0
INSERT
  5
A6E6
330
18
100
AcDbEntity
  8
mark
100
AcDbBlockReference
  2
_Open30
 10
129.6474257442786
 20
108.541281179616
 30
0.0
 41
2.5
 42
2.5
 43
2.5
 50
270.0
  0
INSERT
  5
A6E7
330
18
100
AcDbEntity
  8
mark
100
AcDbBlockReference
  2
_Open30
 10
129.6474257442786
 20
106.541281179616
 30
0.0
 41
2.5
 42
2.5
 43
2.5
 50
90.0
  0
MTEXT
  5
A6E8
330
18
100
AcDbEntity
  8
mark
 62
     3
100
AcDbMText
 10
127.5474257442786
 20
107.541281179616
 30
0.0
 40
2.5
 41
0.0
 71
     5
 72
     1
  1
\A1;2
 11
0.0000000000000001
 21
1.0
 31
0.0
 73
     1
 44
1.0
  0
DIMENSION
  5
A6EB
330
18
100
AcDbEntity
  8
mark
100
AcDbDimension
  2
*D11
 10
112.5
 20
87.85440527855859
 30
0.0
 11
94.99999999999998
 21
89.9544052785586
 31
0.0
 70
    32
  1
M35X1.5P
 71
     5
 42
35.0
  3
STANDARD
100
AcDbAlignedDimension
 13
77.49999999999997
 23
102.129281179616
 33
0.0
 14
112.5
 24
102.1292811796159
 34
0.0
100
AcDbRotatedDimension
  0
LEADER
  5
A6F8
330
18
100
AcDbEntity
  8
mark
100
AcDbLeader
  3
STANDARD
 76
     2
 10
112.4379999999999
 20
102.191281179616
 30
0.0
 10
103.6064647466879
 20
93.35974592630398
 30
0.0
1001
ACAD
1000
DSTYLE
1002
{
1070
   147
1040
0.85
1070
    77
1070
     0
1002
}
  0
MTEXT
  5
A714
330
18
100
AcDbEntity
  8
mark
 62
     3
100
AcDbMText
 10
104.9114559612393
 20
97.44877896769942
 30
0.0
 40
2.5
 41
0.0
 71
     5
 72
     1
  1
C1.5
 11
0.7071067811865476
 21
0.7071067811865475
 31
0.0
 73
     1
 44
1.0
1001
ACAD
1000
ACAD_MTEXT_DEFINED_HEIGHT_BEGIN
1070
    46
1040
0.0
1000
ACAD_MTEXT_DEFINED_HEIGHT_END
  0
DIMENSION
  5
A716
330
18
100
AcDbEntity
  8
mark
100
AcDbDimension
  2
*D12
 10
69.49999999999994
 20
102.4412811796161
 30
0.0
 11
61.99288300640318
 21
97.90401266700179
 31
0.0
 70
    36
 71
     5
 42
0.9999999999999715
  3
STANDARD
100
AcDbRadialDimension
 15
68.79289321881348
 25
101.7341743984295
 35
0.0
 40
0.0
1001
ACAD
1000
DSTYLE
1002
{
1070
   288
1070
     1
1002
}
  0
LEADER
  5
A727
330
18
100
AcDbEntity
  8
mark
100
AcDbLeader
  3
STANDARD
 76
     3
 10
68.5
 20
116.441281179616
 30
0.0
 10
61.42893218813452
 20
109.3702133677505
 30
0.0
 10
42.70348574161471
 20
109.3702133677505
 30
0.0
1001
ACAD
1000
DSTYLE
1002
{
1070
   147
1040
0.85
1070
    77
1070
     0
1002
}
  0
MTEXT
  5
A743
330
18
100
AcDbEntity
  8
mark
 62
     3
100
AcDbMText
 10
51.7314948090968
 20
111.524209286862
 30
0.0
 40
2.5
 41
0.0
 71
     5
 72
     1
  1
{\Ftxt,bigfont|c136;4-%%C5\Ftxt,bigfont|c128;深さ6}
 73
     1
 44
1.0
1001
ACAD
1000
ACAD_MTEXT_DEFINED_HEIGHT_BEGIN
1070
    46
1040
0.0
1000
ACAD_MTEXT_DEFINED_HEIGHT_END
  0
LEADER
  5
A744
330
18
100
AcDbEntity
  8
mark
100
AcDbLeader
  3
STANDARD
 76
     3
 10
72.24999999999997
 20
101.441281179616
 30
0.0
 10
61.42893218813452
 20
90.62021336775057
 30
0.0
 10
39.68319009836171
 20
90.62021336775057
 30
0.0
1001
ACAD
1000
DSTYLE
1002
{
1070
   147
1040
0.85
1070
    77
1070
     0
1002
}
  0
MTEXT
  5
A745
330
18
100
AcDbEntity
  8
mark
 62
     3
100
AcDbMText
 10
50.21957986712639
 20
92.77420928686208
 30
0.0
 40
2.5
 41
0.0
 71
     5
 72
     1
  1
{\Ftxt,bigfont|c136;4-%%C4.3\Ftxt,bigfont|c128;深さ4}
 73
     1
 44
1.0
1001
ACAD
1000
ACAD_MTEXT_DEFINED_HEIGHT_BEGIN
1070
    46
1040
0.0
1000
ACAD_MTEXT_DEFINED_HEIGHT_END
  0
MTEXT
  5
A763
330
18
100
AcDbEntity
  8
mark
 62
     3
100
AcDbMText
 10
99.27732413699708
 20
133.4025313649787
 30
0.0
 40
1.25
 41
0.0
 71
     4
 72
     1
  1
+0\P-0.2
 73
     1
 44
1.0
1001
ACAD
1000
ACAD_MTEXT_DEFINED_HEIGHT_BEGIN
1070
    46
1040
0.0
1000
ACAD_MTEXT_DEFINED_HEIGHT_END
  0
LINE
  5
A764
330
18
100
AcDbEntity
  8
mark
100
AcDbLine
 10
136.4511102047465
 20
123.441281179616
 30
0.0
 11
136.4511102047465
 21
128.441281179616
 31
0.0
  0
LINE
  5
A765
330
18
100
AcDbEntity
  8
mark
100
AcDbLine
 10
136.4511102047465
 20
128.441281179616
 30
0.0
 11
141.4511102047465
 21
128.441281179616
 31
0.0
  0
TOLERANCE
  5
A767
330
18
100
AcDbEntity
  8
mark
100
AcDbFcf
  3
STANDARD
 10
141.4511102047465
 20
128.441281179616
 30
0.0
  1
{\Fgdt;h}%%v0.005%%v%%vA%%v%%v
  0
TOLERANCE
  5
A769
330
18
100
AcDbEntity
  8
mark
100
AcDbFcf
  3
STANDARD
 10
87.49999999999998
 20
81.32841205881836
 30
0.0
  1
%%v%%v%%vA%%v%%v
  0
LINE
  5
A76A
330
18
100
AcDbEntity
  8
mark
100
AcDbLine
 10
77.49999999999997
 20
87.0044052785586
 30
0.0
 11
77.49999999999997
 21
78.82841205881837
 31
0.0
  0
LINE
  5
A76B
330
18
100
AcDbEntity
  8
mark
100
AcDbLine
 10
77.49999999999997
 20
81.32841205881836
 30
0.0
 11
87.49999999999998
 21
81.32841205881836
 31
0.0
  0
LINE
  5
A76D
330
18
100
AcDbEntity
  8
mark
100
AcDbLine
 10
77.49999999999997
 20
83.82841205881836
 30
0.0
 11
79.99999999999997
 21
81.32841205881836
 31
0.0
  0
LINE
  5
A76E
330
18
100
AcDbEntity
  8
mark
100
AcDbLine
 10
79.99999999999997
 20
81.32841205881836
 30
0.0
 11
77.49999999999997
 21
78.82841205881837
 31
0.0
  0
LINE
  5
A76F
330
18
100
AcDbEntity
  8
mark
100
AcDbLine
 10
77.49999999999997
 20
78.82841205881837
 30
0.0
 11
77.49999999999997
 21
81.32841205881836
 31
0.0
  0
HATCH
  5
A799
330
18
100
AcDbEntity
  8
mark
100
AcDbHatch
 10
0.0
 20
0.0
 30
0.0
210
0.0
220
0.0
230
1.0
  2
SOLID
 70
     1
 71
     0
 91
        2
 92
        7
 72
     0
 73
     1
 93
        3
 10
77.49999999999997
 20
83.82841205881833
 10
77.49999999999996
 20
81.32841205881836
 10
80.0
 20
81.32841205881836
 97
        0
 92
        7
 72
     0
 73
     1
 93
        3
 10
79.99999999999997
 20
81.32841205881836
 10
77.49999999999999
 20
81.32841205881836
 10
77.49999999999999
 20
78.82841205881838
 97
        0
 75
     0
 76
     1
 47
0.1023763232943895
 98
        2
 10
78.4003217270938
 20
82.26706737644281
 10
78.09307784954478
 20
80.83379914576449
450
        0
451
        0
460
0.0
461
0.0
452
        1
462
1.0
453
        2
463
0.0
 63
     5
421
      255
463
1.0
 63
     7
421
 16777215
470
LINEAR
1001
ACAD
1010
0.0
1020
0.0
1030
0.0
  0
LEADER
  5
A7DF
330
18
100
AcDbEntity
  8
mark
100
AcDbLeader
  3
STANDARD
 76
     2
 10
117.9496732002875
 20
181.52295445371
 30
0.0
 10
131.9928115505538
 20
173.4151447469166
 30
0.0
211
0.8660254037844385
221
-0.5000000000000002
231
0.0
1001
ACAD
1000
DSTYLE
1002
{
1070
   147
1040
0.85
1070
    77
1070
     0
1002
}
  0
LEADER
  5
A7E0
330
18
100
AcDbEntity
  8
mark
100
AcDbLeader
  3
STANDARD
 76
     2
 10
117.0
 20
101.441281179616
 30
0.0
 10
131.9928115505538
 20
92.78517739499445
 30
0.0
211
0.8660254037844385
221
-0.5000000000000002
231
0.0
1001
ACAD
1000
DSTYLE
1002
{
1070
   147
1040
0.85
1070
    77
1070
     0
1002
}
  0
MTEXT
  5
A7E3
330
18
100
AcDbEntity
  8
mark
 62
     3
100
AcDbMText
 10
136.0421677891636
 20
173.9681451214236
 30
0.0
 40
5.0
 41
0.0
 71
     5
 72
     1
  1
{\Ftxt,bigfont|c136;1}
 73
     1
 44
1.0
1001
ACAD
1000
ACAD_MTEXT_DEFINED_HEIGHT_BEGIN
1070
    46
1040
0.0
1000
ACAD_MTEXT_DEFINED_HEIGHT_END
  0
MTEXT
  5
A7E4
330
18
100
AcDbEntity
  8
mark
 62
     3
100
AcDbMText
 10
136.0421677891636
 20
93.33817776950148
 30
0.0
 40
5.0
 41
0.0
 71
     5
 72
     1
  1
{\Ftxt,bigfont|c136;2}
 73
     1
 44
1.0
1001
ACAD
1000
ACAD_MTEXT_DEFINED_HEIGHT_BEGIN
1070
    46
1040
0.0
1000
ACAD_MTEXT_DEFINED_HEIGHT_END
  0
HATCH
  5
A90F
330
18
100
AcDbEntity
  8
section
100
AcDbHatch
 10
0.0
 20
0.0
 30
0.0
210
0.0
220
0.0
230
1.0
  2
ANSI31
 70
     0
 71
     1
 91
       11
 92
        7
 72
     1
 73
     1
 93
       34
 10
77.49999999999994
 20
122.753281179616
 42
0.0
 10
76.81199999999989
 20
123.441281179616
 42
0.0
 10
69.5
 20
123.441281179616
 42
0.4142135623730951
 10
68.5
 20
122.441281179616
 42
0.0
 10
68.50000000000001
 20
119.4412811796159
 42
0.0
 10
68.99999999999997
 20
118.9412811796159
 42
0.0
 10
73.0566243270259
 20
118.9412811796159
 42
0.0
 10
74.49999999999997
 20
116.441281179616
 42
0.0
 10
73.05662432702584
 20
113.941281179616
 42
0.0
 10
68.99999999999997
 20
113.941281179616
 42
0.0
 10
68.50000000000001
 20
113.441281179616
 42
0.0
 10
68.5
 20
109.541281179616
 42
0.4142135623730951
 10
69.5
 20
108.541281179616
 42
0.0
 10
75.74999999999997
 20
108.541281179616
 42
0.0
 10
75.74999999999997
 20
106.541281179616
 42
0.0
 10
69.5
 20
106.541281179616
 42
0.4142135623730909
 10
68.5
 20
105.541281179616
 42
0.0
 10
68.49999999999997
 20
102.441281179616
 42
0.4142135623730929
 10
69.49999999999997
 20
101.441281179616
 42
0.0
 10
69.59999999999997
 20
101.441281179616
 42
0.0
 10
70.09999999999997
 20
101.941281179616
 42
0.0
 10
70.10000000000001
 20
104.1999781008583
 42
0.0
 10
72.25
 20
105.441281179616
 42
0.0
 10
74.39999999999995
 20
104.1999781008583
 42
0.0
 10
74.39999999999995
 20
101.941281179616
 42
0.0
 10
74.89999999999998
 20
101.441281179616
 42
0.0
 10
76.81199999999998
 20
101.441281179616
 42
0.0
 10
77.49999999999997
 20
102.129281179616
 42
0.0
 10
77.49999999999997
 20
108.6532811796159
 42
0.0
 10
76.81199999999986
 20
109.341281179616
 42
0.0
 10
70.24999999999997
 20
109.341281179616
 42
0.0
 10
70.24999999999998
 20
111.341281179616
 42
0.0
 10
76.812
 20
111.341281179616
 42
0.0
 10
77.49999999999996
 20
112.0292811796159
 42
0.0
 97
       32
330
9D92
330
9D54
330
9D58
330
9D57
330
9D7B
330
9D76
330
9D74
330
9D75
330
9D77
330
9D7A
330
9D62
330
9D61
330
9D6B
330
9D5E
330
9D5A
330
9D59
330
9D5C
330
9D5B
330
9D6D
330
9D6C
330
9D72
330
9D5D
330
9D6E
330
9D6F
330
9D98
330
9D97
330
9D96
330
9D83
330
9D86
330
9D84
330
9D94
330
9D93
 92
        7
 72
     0
 73
     1
 93
        4
 10
78.31199999999992
 20
121.941281179616
 10
77.49999999999996
 20
122.753281179616
 10
77.49999999999994
 20
112.029281179616
 10
78.31199999999999
 20
112.841281179616
 97
        4
330
9D92
330
9D93
330
9D94
330
9D91
 92
        7
 72
     0
 73
     1
 93
        4
 10
78.31199999999995
 20
107.8412811796159
 10
77.49999999999997
 20
108.6532811796159
 10
77.49999999999997
 20
102.129281179616
 10
78.31199999999997
 20
102.941281179616
 97
        4
330
9D96
330
9D97
330
9D98
330
9D95
 92
        7
 72
     0
 73
     1
 93
        4
 10
112.5
 20
122.753281179616
 10
111.6879999999999
 20
121.941281179616
 10
111.6879999999999
 20
112.8412811796159
 10
112.5
 20
112.0292811796159
 97
        4
330
9D8A
330
9D89
330
9D8C
330
9D8B
 92
        7
 72
     0
 73
     1
 93
        7
 10
115.0
 20
120.641281179616
 10
115.0
 20
123.441281179616
 10
113.188
 20
123.441281179616
 10
112.5
 20
122.753281179616
 10
112.4999999999999
 20
112.0292811796159
 10
113.188
 20
111.3412811796159
 10
115.0
 20
111.341281179616
 97
        7
330
9D7F
330
9D54
330
9D8A
330
9D8B
330
9D8C
330
9D84
330
9D9E
 92
        7
 72
     1
 73
     1
 93
       11
 10
121.4999999999999
 20
122.441281179616
 42
0.4142135623730951
 10
120.5
 20
123.441281179616
 42
0.0
 10
118.9999999999999
 20
123.441281179616
 42
0.0
 10
118.9999999999999
 20
116.641281179616
 42
0.0
 10
119.0
 20
111.341281179616
 42
0.0
 10
119.75
 20
111.341281179616
 42
0.0
 10
119.7499999999999
 20
109.3412811796159
 42
0.0
 10
119.0
 20
109.3412811796159
 42
0.0
 10
119.0
 20
108.541281179616
 42
0.0
 10
120.5
 20
108.541281179616
 42
0.4142135623730951
 10
121.4999999999999
 20
109.541281179616
 42
0.0
 97
       10
330
9D55
330
9D54
330
9D7E
330
9D9E
330
9D87
330
9D69
330
9D88
330
9D63
330
9D67
330
9D66
 92
        7
 72
     0
 73
     1
 93
        4
 10
112.4999999999999
 20
108.653281179616
 10
111.6879999999999
 20
107.8412811796159
 10
111.6879999999999
 20
102.941281179616
 10
112.5
 20
102.1292811796159
 97
        4
330
9D8E
330
9D8D
330
9D90
330
9D8F
 92
        7
 72
     0
 73
     1
 93
       13
 10
115.0
 20
106.541281179616
 10
114.25
 20
106.541281179616
 10
114.25
 20
108.541281179616
 10
115.0
 20
108.541281179616
 10
115.0
 20
109.341281179616
 10
113.1879999999999
 20
109.341281179616
 10
112.5
 20
108.653281179616
 10
112.5
 20
102.1292811796159
 10
113.1879999999999
 20
101.441281179616
 10
113.5
 20
101.4412811796159
 10
113.5
 20
101.741281179616
 10
113.5
 20
105.441281179616
 10
115.0
 20
105.441281179616
 97
       10
330
9D85
330
9D6A
330
9D82
330
9D9E
330
9D83
330
9D8E
330
9D8F
330
9D90
330
9D5B
330
9D7D
 92
        7
 72
     1
 73
     1
 93
        8
 10
121.4999999999999
 20
105.541281179616
 42
0.4142135623730951
 10
120.5
 20
106.541281179616
 42
0.0
 10
119.0
 20
106.541281179616
 42
0.0
 10
119.0
 20
105.4412811796159
 42
0.0
 10
120.5
 20
105.4412811796159
 42
0.0
 10
120.5
 20
101.7412811796159
 42
0.0
 10
120.5000000000002
 20
101.441281179616
 42
0.4142135623730118
 10
121.4999999999999
 20
102.441281179616
 42
0.0
 97
        6
330
9D60
330
9D5F
330
9D9E
330
9D7C
330
9D65
330
9D64
 92
        7
 72
     0
 73
     1
 93
        4
 10
115.379
 20
123.441281179616
 10
115.0
 20
123.441281179616
 10
115.0
 20
120.6412811796159
 10
115.379
 20
121.0202811796159
 97
        4
330
9D54
330
9D7F
330
9D9E
330
A111
 92
        7
 72
     0
 73
     1
 93
        4
 10
119.0
 20
123.441281179616
 10
118.6209999999999
 20
123.441281179616
 10
118.6209999999999
 20
121.020281179616
 10
118.9999999999999
 20
120.6412811796159
 97
        4
330
9D54
330
A112
330
9D9E
330
9D7E
 75
     0
 76
     1
 52
0.0
 41
0.5
 77
     0
 78
     1
 53
45.0
 43
0.0
 44
0.0
 45
-1.122532015133643
 46
1.122532015133644
 79
     0
 47
0.0568202132206493
 98
       11
 10
76.26072350503296
 20
120.1665004206805
 10
78.10622959265299
 20
117.1686783658507
 10
77.99088571868253
 20
105.0620910229284
 10
112.1327421835157
 20
116.2462721884526
 10
113.6322158284059
 20
116.4768737328021
 10
121.0142393580678
 20
116.1309710865634
 10
111.7867105616043
 20
105.8691974172947
 10
113.5168719544355
 20
106.0997989616442
 10
120.8988946632788
 20
104.9467905804679
 10
115.1444285759627
 20
122.582718923064
 10
118.8391286885921
 20
122.1281569404394
1001
ACAD
1010
0.0
1020
0.0
1030
0.0
  0
MTEXT
  5
A925
330
18
100
AcDbEntity
  8
0
100
AcDbMText
 10
47.65097232190476
 20
19.07605901616614
 30
0.0
 40
4.5
 41
0.0
 71
     1
 72
     5
  1
{\Ftxt,bigfont|c128;小\~柳}
  7
JL
 73
     1
 44
1.0
1001
ACAD
1000
ACAD_MTEXT_DEFINED_HEIGHT_BEGIN
1070
    46
1040
0.0
1000
ACAD_MTEXT_DEFINED_HEIGHT_END
  0
MTEXT
  5
A93C
330
18
100
AcDbEntity
  8
dim
100
AcDbMText
 10
9.789628560569212
 20
41.39250353347245
 30
0.0
 40
4.5
 41
0.0
 71
     1
 72
     5
  1
{\Ftxt,bigfont|c128;07.10.03\~寸法一部変更  林}
  7
JL
 73
     1
 44
1.0
1001
ACAD
1000
ACAD_MTEXT_DEFINED_HEIGHT_BEGIN
1070
    46
1040
0.0
1000
ACAD_MTEXT_DEFINED_HEIGHT_END
  0
CIRCLE
  5
A941
330
18
100
AcDbEntity
  8
dim
100
AcDbCircle
 10
44.2873657053974
 20
39.06991008907517
 30
0.0
 40
2.750054604459023
  0
LWPOLYLINE
  5
A946
330
18
100
AcDbEntity
  8
mark
100
AcDbPolyline
 90
        3
 70
     1
 43
0.0
 10
124.0998162938713
 20
127.3051930952725
 10
128.5998162938713
 20
124.7071168839192
 10
128.5998162938713
 20
129.9032693066259
  0
TEXT
  5
A947
330
18
100
AcDbEntity
  8
dim
100
AcDbText
 10
128.0406013579278
 20
126.9244294909614
 30
0.0
 40
2.5
  1
1
 50
90.0
  7
TXT
100
AcDbText
  0
LINE
  5
A977
330
18
100
AcDbEntity
  8
mark
 62
     1
100
AcDbLine
 10
127.1936115456865
 20
119.9462392693634
 30
0.0
 11
127.1936115456865
 21
112.1167979379545
 31
0.0
  0
LINE
  5
A97F
330
18
100
AcDbEntity
  8
mark
 62
     1
100
AcDbLine
 10
128.0482137605884
 20
119.9462392693634
 30
0.0
 11
128.0482137605884
 21
112.1167979379545
 31
0.0
  0
MTEXT
  5
A99B
330
18
100
AcDbEntity
  8
mark
 62
     3
100
AcDbMText
 10
127.3706389394524
 20
135.4767101390612
 30
0.0
 40
2.5
 41
0.0
 71
     5
 72
     1
  1
14.25
 11
0.0000000000000001
 21
1.0
 31
0.0
 73
     1
 44
1.0
1001
ACAD
1000
ACAD_MTEXT_DEFINED_HEIGHT_BEGIN
1070
    46
1040
0.0
1000
ACAD_MTEXT_DEFINED_HEIGHT_END
  0
LWPOLYLINE
  5
A9DA
330
18
100
AcDbEntity
  8
mark
100
AcDbPolyline
 90
        3
 70
     1
 43
0.0
 10
7.879241392341619
 20
44.68837560480412
 10
4.992490046393504
 20
49.68837560480412
 10
2.105738700445364
 20
44.68837560480412
  0
MTEXT
  5
A9DB
330
18
100
AcDbEntity
  8
dim
100
AcDbMText
 10
4.200791386674643
 20
47.72614012569133
 30
0.0
 40
2.5
 41
9.163114146879252
 71
     1
 72
     5
  1
2
 73
     1
 44
1.0
1001
ACAD
1000
ACAD_MTEXT_DEFINED_HEIGHT_BEGIN
1070
    46
1040
0.0
1000
ACAD_MTEXT_DEFINED_HEIGHT_END
  0
MTEXT
  5
A9DC
330
18
100
AcDbEntity
  8
dim
100
AcDbMText
 10
9.642439903813283
 20
49.14893358725442
 30
0.0
 40
4.5
 41
0.0
 71
     1
 72
     5
  1
{\Ftxt,bigfont|c128;08.08.08 振れ精度の変更  林}
  7
JL
 73
     1
 44
1.0
1001
ACAD
1000
ACAD_MTEXT_DEFINED_HEIGHT_BEGIN
1070
    46
1040
0.0
1000
ACAD_MTEXT_DEFINED_HEIGHT_END
  0
CIRCLE
  5
A9DD
330
18
100
AcDbEntity
  8
dim
100
AcDbCircle
 10
47.41674319783903
 20
46.83911496728763
 30
0.0
 40
2.762409708108862
  0
LWPOLYLINE
  5
A9DE
330
18
100
AcDbEntity
  8
mark
100
AcDbPolyline
 90
        3
 70
     1
 43
0.0
 10
8.026430049097548
 20
36.93194555102215
 10
5.139678703149433
 20
41.93194555102215
 10
2.252927357201294
 20
36.93194555102215
  0
MTEXT
  5
A9DF
330
18
100
AcDbEntity
  8
dim
100
AcDbMText
 10
4.791729764097373
 20
40.2801533257045
 30
0.0
 40
2.5
 41
9.163114146879252
 71
     1
 72
     5
  1
1
 73
     1
 44
1.0
1001
ACAD
1000
ACAD_MTEXT_DEFINED_HEIGHT_BEGIN
1070
    46
1040
0.0
1000
ACAD_MTEXT_DEFINED_HEIGHT_END
  0
LWPOLYLINE
  5
A9E0
330
18
100
AcDbEntity
  8
mark
100
AcDbPolyline
 90
        3
 70
     1
 43
0.0
 10
147.7252645163437
 20
132.0643666678392
 10
144.8385131703956
 20
137.0643666678392
 10
141.9517618244474
 20
132.0643666678392
  0
MTEXT
  5
A9E1
330
18
100
AcDbEntity
  8
dim
100
AcDbMText
 10
144.0468145106767
 20
135.1021311887264
 30
0.0
 40
2.5
 41
9.163114146879252
 71
     1
 72
     5
  1
2
 73
     1
 44
1.0
1001
ACAD
1000
ACAD_MTEXT_DEFINED_HEIGHT_BEGIN
1070
    46
1040
0.0
1000
ACAD_MTEXT_DEFINED_HEIGHT_END
  0
MTEXT
  5
A9E2
330
18
100
AcDbEntity
  8
dim
100
AcDbMText
 10
148.8006220380795
 20
135.1021311887264
 30
0.0
 40
2.5
 41
9.163114146879252
 71
     1
 72
     5
  1
0.007
 73
     1
 44
1.0
1001
ACAD
1000
ACAD_MTEXT_DEFINED_HEIGHT_BEGIN
1070
    46
1040
0.0
1000
ACAD_MTEXT_DEFINED_HEIGHT_END
  0
LINE
  5
A9E3
330
18
100
AcDbEntity
  8
mark
 62
     1
100
AcDbLine
 10
148.1083893011389
 20
128.964745922943
 30
0.0
 11
158.4110783947658
 21
128.964745922943
 31
0.0
  0
LINE
  5
A9E4
330
18
100
AcDbEntity
  8
mark
 62
     1
100
AcDbLine
 10
148.1083893011389
 20
127.9665505579234
 30
0.0
 11
158.4110783947658
 21
127.9665505579234
 31
0.0
  0
LWPOLYLINE
  5
A9E5
330
18
100
AcDbEntity
  8
mark
100
AcDbPolyline
 90
        3
 70
     1
 43
0.0
 10
181.1650965870644
 20
3.418801450374758
 10
178.2783452411163
 20
8.418801450374758
 10
175.3915938951682
 20
3.418801450374758
  0
MTEXT
  5
A9E6
330
18
100
AcDbEntity
  8
dim
100
AcDbMText
 10
177.4866465813974
 20
6.456565971261966
 30
0.0
 40
2.5
 41
9.163114146879252
 71
     1
 72
     5
  1
2
 73
     1
 44
1.0
1001
ACAD
1000
ACAD_MTEXT_DEFINED_HEIGHT_BEGIN
1070
    46
1040
0.0
1000
ACAD_MTEXT_DEFINED_HEIGHT_END
  0
ENDSEC
  0
SECTION
  2
OBJECTS
  0
DICTIONARY
  5
C
330
0
100
AcDbDictionary
281
     1
  3
ACAD_COLOR
350
7873
  3
ACAD_GROUP
350
D
  3
ACAD_LAYOUT
350
5CF3
  3
ACAD_MATERIAL
350
7872
  3
ACAD_MLINESTYLE
350
1B
  3
ACAD_PLOTSETTINGS
350
5CF4
  3
ACAD_PLOTSTYLENAME
350
5CF1
  3
ACAD_TABLESTYLE
350
7874
  3
AcadDim
350
A046
  3
ACDBVARIABLEDICTIONARY
350
45D
  0
DICTIONARY
  5
7BFE
330
2
100
AcDbDictionary
280
     1
281
     1
  3
ACAD_LAYERFILTERS
360
7C00
  3
ACLYDICTIONARY
360
7BFF
  0
DICTIONARY
  5
45F
330
18
100
AcDbDictionary
280
     1
281
     1
  3
ACAD_LAYOUTSELFREF
360
5D8B
  3
ACAD_SORTENTS
360
460
  0
DICTIONARY
  5
5D89
330
15
100
AcDbDictionary
280
     1
281
     1
  3
ACAD_LAYOUTSELFREF
360
5D8A
  0
DICTIONARY
  5
7C0B
330
7C0A
100
AcDbDictionary
280
     1
281
     1
  3
AcDbBlockTableRecordData
360
7C0C
  0
DICTIONARY
  5
8E73
330
8E72
100
AcDbDictionary
280
     1
281
     1
  3
AcDbBlockTableRecordData
360
8E74
  0
DICTIONARY
  5
9D16
330
9D15
100
AcDbDictionary
280
     1
281
     1
  3
AcDbBlockTableRecordData
360
9D17
  0
DICTIONARY
  5
7873
102
{ACAD_REACTORS
330
C
102
}
330
C
100
AcDbDictionary
281
     1
  0
DICTIONARY
  5
D
102
{ACAD_REACTORS
330
C
102
}
330
C
100
AcDbDictionary
281
     1
  0
DICTIONARY
  5
5CF3
102
{ACAD_REACTORS
330
C
102
}
330
C
100
AcDbDictionary
281
     1
  3
Model
350
5CF5
  3
配置1
350
5CF6
  0
DICTIONARY
  5
7872
102
{ACAD_REACTORS
330
C
102
}
330
C
100
AcDbDictionary
281
     1
  0
DICTIONARY
  5
1B
102
{ACAD_REACTORS
330
C
102
}
330
C
100
AcDbDictionary
281
     1
  3
STANDARD
350
1C
  0
DICTIONARY
  5
5CF4
102
{ACAD_REACTORS
330
C
102
}
330
C
100
AcDbDictionary
281
     1
  0
ACDBDICTIONARYWDFLT
  5
5CF1
102
{ACAD_REACTORS
330
C
102
}
330
C
100
AcDbDictionary
281
     1
  3
Normal
350
5CF2
100
AcDbDictionaryWithDefault
340
5CF2
  0
DICTIONARY
  5
7874
102
{ACAD_REACTORS
330
C
102
}
330
C
100
AcDbDictionary
281
     1
  3
Standard
350
7875
  0
XRECORD
  5
A046
102
{ACAD_REACTORS
330
C
102
}
330
C
100
AcDbXrecord
280
     1
 90
   990106
  3

 60
     0
 61
     0
 62
     1
 63
     3
 64
     0
 65
     0
 66
     0
 67
     3
 68
     1
 69
     0
 70
     0
 71
     0
 72
     0
 40
0.0
170
     0
  0
DICTIONARY
  5
45D
102
{ACAD_REACTORS
330
C
102
}
330
C
100
AcDbDictionary
281
     1
  3
CTABLESTYLE
350
7880
  3
SORTENTS
350
45E
  0
DICTIONARY
  5
7C00
102
{ACAD_REACTORS
330
7BFE
102
}
330
7BFE
100
AcDbDictionary
281
     1
  0
DICTIONARY
  5
7BFF
102
{ACAD_REACTORS
330
7BFE
102
}
330
7BFE
100
AcDbDictionary
281
     1
1001
ACAD
1000
<All
  0
XRECORD
  5
5D8B
102
{ACAD_REACTORS
330
45F
102
}
330
45F
100
AcDbXrecord
280
     1
340
18
  0
SORTENTSTABLE
  5
460
102
{ACAD_REACTORS
330
45F
102
}
330
45F
100
AcDbSortentsTable
330
18
331
7D9C
  5
7D9C
331
9D79
  5
9D7C
331
9DD0
  5
9DDD
331
A7E3
  5
A7E4
331
A714
  5
A716
331
C0
  5
CB
331
7D6D
  5
7D6D
331
7DA4
  5
7DA4
331
9E17
  5
9E1B
331
7D75
  5
7D75
331
7DAC
  5
7DAC
331
9D89
  5
9D8C
331
9DE0
  5
9DE3
331
7DB4
  5
7DB4
331
9DE8
  5
9DF2
331
9F7F
  5
9F8C
331
A744
  5
A745
331
7D7D
  5
7D7D
331
7DBC
  5
7DBC
331
9D5A
  5
9D5D
331
9D91
  5
9D94
331
A764
  5
A765
331
9F87
  5
9F8D
331
A6E5
  5
A6E5
331
7D85
  5
7D85
331
9D62
  5
9D65
331
9D99
  5
9D9C
331
9DF8
  5
9DFA
331
7D8D
  5
7D8D
331
9D6A
  5
9D6D
331
9E00
  5
9E02
331
7D95
  5
7D95
331
9D72
  5
9D75
331
9E08
  5
9E0A
331
7D9D
  5
7D9D
331
9D7A
  5
9D7D
331
9DD1
  5
9DDE
331
9E10
  5
9E12
331
A7E4
  5
A88F
331
A63F
  5
A64B
331
7D6E
  5
7D6E
331
7DA5
  5
7DA5
331
9D82
  5
9D85
331
9E18
  5
9F7F
331
7D76
  5
7D76
331
7DAD
  5
7DAD
331
9D8A
  5
9D8D
331
9DE1
  5
9DE4
331
7DB5
  5
7DB5
331
9DE9
  5
9DF3
331
A745
  5
A763
331
7D7E
  5
7D7E
331
7DBD
  5
7DBD
331
9D5B
  5
9D5E
331
9D92
  5
9D95
331
A765
  5
A767
331
9F88
  5
9E16
331
A65F
  5
A66D
331
A6E6
  5
A6E6
331
7D86
  5
7D86
331
9D63
  5
9D66
331
9D9A
  5
9D9D
331
9DF9
  5
9DFB
331
A76D
  5
A76F
331
7D8E
  5
7D8E
331
9D6B
  5
9D6E
331
9E01
  5
9E03
331
7D96
  5
7D96
331
9D73
  5
9D76
331
9E09
  5
9E0B
331
7D9E
  5
7D9E
331
9D7B
  5
9D7E
331
9E11
  5
9E13
331
A716
  5
A727
331
7DA6
  5
7DA6
331
7D6F
  5
7D6F
331
9D83
  5
9D86
331
9DDA
  5
9DDF
331
9E19
  5
9F87
331
A99B
  5
A99B
331
7DAE
  5
7DAE
331
7D77
  5
7D77
331
9D8B
  5
9D8E
331
9DE2
  5
9DE5
331
7DB6
  5
7DB6
331
9D54
  5
9D57
331
7D7F
  5
7D7F
331
9D5C
  5
9D5F
331
9D93
  5
9D96
331
9DF2
  5
9DF4
331
A6E7
  5
A6E7
331
7D87
  5
7D87
331
9D64
  5
9D67
331
9D9B
  5
9D9E
331
9DFA
  5
9DFC
331
A93C
  5
A93C
331
A76E
  5
A770
331
7D8F
  5
7D8F
331
9D6C
  5
9D6F
331
9E02
  5
9E04
331
A111
  5
A112
331
7D97
  5
7D97
331
9D74
  5
9D77
331
9E0A
  5
9E0C
331
7D9F
  5
7D9F
331
9D7C
  5
9D7F
331
9E12
  5
9E15
331
7D70
  5
7D70
331
9D84
  5
9D87
331
9DDB
  5
9DE0
331
9E1A
  5
9F88
331
7DAF
  5
7DAF
331
9D8C
  5
9D8F
331
9DE3
  5
9DE6
331
A727
  5
A743
331
7DB7
  5
7DB7
331
9D55
  5
9D58
331
7D78
  5
7D78
331
7D80
  5
7D80
331
9D5D
  5
9D60
331
9D94
  5
9D97
331
9DF3
  5
9DF5
331
A767
  5
A769
331
A6E8
  5
A6E8
331
A925
  5
A925
331
7D88
  5
7D88
331
9D65
  5
9D68
331
9D9C
  5
9DAC
331
9DFB
  5
9DFD
331
A76F
  5
A7DF
331
7D90
  5
7D90
331
9D6D
  5
9D70
331
9E03
  5
9E05
331
A6F8
  5
A714
331
A112
  5
A63F
331
9D75
  5
9D78
331
9E0B
  5
9E0D
331
A7DF
  5
A7E0
331
7D98
  5
7D98
331
7DA0
  5
7DA0
331
9D7D
  5
9D80
331
9E13
  5
9E17
331
A6A1
  5
A6EB
331
7DA8
  5
7DA8
331
7D71
  5
7D71
331
9D85
  5
9D88
331
9DDC
  5
9DE1
331
9E1B
  5
9F89
331
7DB0
  5
7DB0
331
9D8D
  5
9D90
331
9DE4
  5
9DE7
331
9D56
  5
9D59
331
7D79
  5
7D79
331
7DB8
  5
7DB8
331
A6E1
  5
A6E1
331
7D81
  5
7D81
331
9D5E
  5
9D61
331
9D95
  5
9D98
331
9DF4
  5
9DF6
331
7D89
  5
7D89
331
9D66
  5
9D69
331
9D9D
  5
9DC7
331
9DFC
  5
9DFE
331
7D91
  5
7D91
331
9D6E
  5
9D71
331
9E04
  5
9E06
331
A946
  5
A946
331
A67A
  5
A6A1
331
9D76
  5
9D79
331
9E0C
  5
9E0E
331
7D99
  5
7D99
331
A7E0
  5
A7E3
331
9D7E
  5
9D81
331
9E14
  5
9E18
331
7DA9
  5
7DA9
331
7D72
  5
7D72
331
9D86
  5
9D89
331
A64B
  5
A65F
331
7DB1
  5
7DB1
331
9D8E
  5
9D91
331
9DE5
  5
9DE8
331
9D57
  5
9D5A
331
A90F
  5
9D56
331
7D7A
  5
7D7A
331
A6E2
  5
A6E2
331
7D82
  5
7D82
331
9D5F
  5
9D62
331
9D96
  5
9D99
331
9DF5
  5
9DF7
331
A769
  5
A76A
331
9F8C
  5
9F8E
331
7D8A
  5
7D8A
331
9D67
  5
9D6A
331
9D9E
  5
9DCE
331
9DFD
  5
9DFF
331
A799
  5
A76B
331
7D92
  5
7D92
331
9D6F
  5
9D72
331
9E05
  5
9E07
331
A947
  5
A947
331
9D77
  5
9D7A
331
9DCE
  5
9DD6
331
9E0D
  5
9E0F
331
A977
  5
A977
331
7D9A
  5
7D9A
331
7DA2
  5
7DA2
331
9D7F
  5
9D84
331
9E15
  5
9E19
331
A97F
  5
A97F
331
7D73
  5
7D73
331
7DAA
  5
7DAA
331
9D87
  5
9D8A
331
7DB2
  5
7DB2
331
9D8F
  5
9D92
331
9DE6
  5
9DE9
331
7D7B
  5
7D7B
331
7DBA
  5
7DBA
331
9D58
  5
9D5B
331
A6E3
  5
A6E3
331
7D83
  5
7D83
331
9D60
  5
9D63
331
9D97
  5
9D9A
331
9DF6
  5
9DF8
331
A6EB
  5
A6F8
331
9F8D
  5
9F8F
331
A76A
  5
A76D
331
7D8B
  5
7D8B
331
9D68
  5
9D6B
331
9DFE
  5
9E00
331
7D93
  5
7D93
331
9D70
  5
9D73
331
9DC7
  5
9DD1
331
9E06
  5
9E08
331
9DCF
  5
9DDC
331
9E0E
  5
9E10
331
7D9B
  5
7D9B
331
9D78
  5
9D7B
331
7D6C
  5
7D6C
331
7DA3
  5
7DA3
331
9E16
  5
9E1A
331
7D74
  5
7D74
331
9D88
  5
9D8B
331
9DDF
  5
9DE2
331
9DE7
  5
9DEA
331
A743
  5
A744
331
7DBB
  5
7DBB
331
7D7C
  5
7D7C
331
9D59
  5
9D5C
331
9D90
  5
9D93
331
A763
  5
A764
331
A6E4
  5
A6E4
331
7D84
  5
7D84
331
9D61
  5
9D64
331
9D98
  5
9D9B
331
9DF7
  5
9DF9
331
9F8E
  5
A111
331
A76B
  5
A76E
331
7D8C
  5
7D8C
331
9D69
  5
9D6C
331
9DFF
  5
9E01
331
A66D
  5
A67A
331
A941
  5
A941
331
7D94
  5
7D94
331
9D71
  5
9D74
331
9DC8
  5
9DD5
331
9E07
  5
9E09
331
9E0F
  5
9E11
  0
XRECORD
  5
5D8A
102
{ACAD_REACTORS
330
5D89
102
}
330
5D89
100
AcDbXrecord
280
     1
340
15
  0
DICTIONARY
  5
7C0C
102
{ACAD_REACTORS
330
7C0B
102
}
330
7C0B
100
AcDbDictionary
280
     1
281
     1
  3
Edit
360
7C0D
  0
DICTIONARY
  5
8E74
102
{ACAD_REACTORS
330
8E73
102
}
330
8E73
100
AcDbDictionary
280
     1
281
     1
  3
Edit
360
8E75
  0
DICTIONARY
  5
9D17
102
{ACAD_REACTORS
330
9D16
102
}
330
9D16
100
AcDbDictionary
280
     1
281
     1
  3
Edit
360
9D18
  0
LAYOUT
  5
5CF5
102
{ACAD_REACTORS
330
5CF3
102
}
330
5CF3
100
AcDbPlotSettings
  1

  2
hp LaserJet 1300 PCL 6
  4
A4
  6

 40
5.027083396911621
 41
5.069413185119628
 42
5.027084350585937
 43
5.027069091796875
 44
209.9733276367187
 45
296.9683227539062
 46
4.959579944610595
 47
3.435920238494873
 48
0.0
 49
0.0
140
190.0
141
280.0
142
1.0
143
1.0
 70
 11940
 72
     1
 73
     0
 74
     4
  7
LIN.ctb
 75
    27
147
2.0
 76
     0
 77
     2
 78
   300
148
0.0
149
0.0
100
AcDbLayout
  1
Model
 70
     1
 71
     0
 10
0.0
 20
0.0
 11
12.0
 21
9.0
 12
0.0
 22
0.0
 32
0.0
 14
0.0
 24
0.0
 34
0.0
 15
0.0
 25
0.0
 35
0.0
146
0.0
 13
0.0
 23
0.0
 33
0.0
 16
1.0
 26
0.0
 36
0.0
 17
0.0
 27
1.0
 37
0.0
 76
     0
330
18
1001
ACAD_PSEXT
1000
hp LaserJet 1300 PCL 6
1000
hp LaserJet 1300 PCL 6
1000
HP 1300
1000

1070
     0
  0
LAYOUT
  5
5CF6
102
{ACAD_REACTORS
330
5CF3
102
}
330
5CF3
100
AcDbPlotSettings
  1

  2
EPSON STYLUS COLOR 440
  4

  6

 40
0.0
 41
0.0
 42
0.0
 43
0.0
 44
0.0
 45
0.0
 46
0.0
 47
0.0
 48
0.0
 49
0.0
140
0.0
141
0.0
142
1.0
143
1.0
 70
   688
 72
     0
 73
     0
 74
     5
  7
LIN.ctb
 75
    16
147
1.0
 76
     0
 77
     2
 78
   300
148
0.0
149
0.0
100
AcDbLayout
  1
ｰtｸm1
 70
     1
 71
     1
 10
0.0
 20
0.0
 11
420.0
 21
297.0
 12
0.0
 22
0.0
 32
0.0
 14
1.000000000000000E+20
 24
1.000000000000000E+20
 34
1.000000000000000E+20
 15
-1.000000000000000E+20
 25
-1.000000000000000E+20
 35
-1.000000000000000E+20
146
0.0
 13
0.0
 23
0.0
 33
0.0
 16
1.0
 26
0.0
 36
0.0
 17
0.0
 27
1.0
 37
0.0
 76
     0
330
15
  0
MLINESTYLE
  5
1C
102
{ACAD_REACTORS
330
1B
102
}
330
1B
100
AcDbMlineStyle
  2
STANDARD
 70
     0
  3

 62
   256
 51
90.0
 52
90.0
 71
     2
 49
0.5
 62
   256
  6
BYLAYER
 49
-0.5
 62
   256
  6
BYLAYER
  0
ACDBPLACEHOLDER
  5
5CF2
102
{ACAD_REACTORS
330
5CF1
102
}
330
5CF1
  0
TABLESTYLE
  5
7875
102
{ACAD_REACTORS
330
7874
102
}
330
7874
100
AcDbTableStyle
  3
Standard
 70
     0
 71
     8
 40
1.5
 41
1.5
280
     0
281
     0
  7
STANDARD
140
4.5
170
     2
 62
     0
 63
     7
283
     0
274
    -2
284
     1
 64
     0
275
    -2
285
     1
 65
     0
276
    -2
286
     1
 66
     0
277
    -2
287
     1
 67
     0
278
    -2
288
     1
 68
     0
279
    -2
289
     1
 69
     0
  7
STANDARD
140
6.0
170
     5
 62
     0
 63
     7
283
     0
274
    -2
284
     1
 64
     0
275
    -2
285
     1
 65
     0
276
    -2
286
     1
 66
     0
277
    -2
287
     1
 67
     0
278
    -2
288
     1
 68
     0
279
    -2
289
     1
 69
     0
  7
STANDARD
140
4.5
170
     5
 62
     0
 63
     7
283
     0
274
    -2
284
     1
 64
     0
275
    -2
285
     1
 65
     0
276
    -2
286
     1
 66
     0
277
    -2
287
     1
 67
     0
278
    -2
288
     1
 68
     0
279
    -2
289
     1
 69
     0
  0
DICTIONARYVAR
  5
7880
102
{ACAD_REACTORS
330
45D
102
}
330
45D
100
DictionaryVariables
280
     0
  1
STANDARD
  0
DICTIONARYVAR
  5
45E
102
{ACAD_REACTORS
330
45D
102
}
330
45D
100
DictionaryVariables
280
     0
  1
127
  0
XRECORD
  5
7C0D
102
{ACAD_REACTORS
330
7C0C
102
}
330
7C0C
100
AcDbXrecord
280
     1
1070
     0
1070
     1
1070
     1
  0
XRECORD
  5
8E75
102
{ACAD_REACTORS
330
8E74
102
}
330
8E74
100
AcDbXrecord
280
     1
1070
     0
1070
     1
1070
     1
  0
XRECORD
  5
9D18
102
{ACAD_REACTORS
330
9D17
102
}
330
9D17
100
AcDbXrecord
280
     1
1070
     0
1070
     1
1070
     1
  0
ENDSEC
  0
EOF
