  0
SECTION
  2
HEADER
  9
$ACADVER
  1
AC1018
  9
$ACADMAINTVER
 70
    76
  9
$DWGCODEPAGE
  3
ANSI_932
  9
$INSBASE
 10
0.0
 20
0.0
 30
0.0
  9
$EXTMIN
 10
0.0
 20
0.0
 30
0.0
  9
$EXTMAX
 10
190.0
 20
280.0
 30
3.838383838383842
  9
$LIMMIN
 10
0.0
 20
0.0
  9
$LIMMAX
 10
420.0
 20
297.0
  9
$ORTHOMODE
 70
     1
  9
$REGENMODE
 70
     1
  9
$FILLMODE
 70
     1
  9
$QTEXTMODE
 70
     0
  9
$MIRRTEXT
 70
     1
  9
$LTSCALE
 40
1.0
  9
$ATTMODE
 70
     1
  9
$TEXTSIZE
 40
1.25
  9
$TRACEWID
 40
1.0
  9
$TEXTSTYLE
  7
TXT
  9
$CLAYER
  8
mark
  9
$CELTYPE
  6
BYLAYER
  9
$CECOLOR
 62
   256
  9
$CELTSCALE
 40
1.0
  9
$DISPSILH
 70
     0
  9
$DIMSCALE
 40
2.0
  9
$DIMASZ
 40
1.25
  9
$DIMEXO
 40
0.4
  9
$DIMDLI
 40
0.38
  9
$DIMRND
 40
0.0
  9
$DIMDLE
 40
0.0
  9
$DIMEXE
 40
0.4
  9
$DIMTP
 40
0.0
  9
$DIMTM
 40
0.0
  9
$DIMTXT
 40
1.25
  9
$DIMCEN
 40
0.09
  9
$DIMTSZ
 40
0.0
  9
$DIMTOL
 70
     0
  9
$DIMLIM
 70
     0
  9
$DIMTIH
 70
     0
  9
$DIMTOH
 70
     0
  9
$DIMSE1
 70
     0
  9
$DIMSE2
 70
     0
  9
$DIMTAD
 70
     3
  9
$DIMZIN
 70
     8
  9
$DIMBLK
  1
Open30
  9
$DIMASO
 70
     1
  9
$DIMSHO
 70
     1
  9
$DIMPOST
  1

  9
$DIMAPOST
  1

  9
$DIMALT
 70
     0
  9
$DIMALTD
 70
     2
  9
$DIMALTF
 40
25.4
  9
$DIMLFAC
 40
1.0
  9
$DIMTOFL
 70
     1
  9
$DIMTVP
 40
0.0
  9
$DIMTIX
 70
     0
  9
$DIMSOXD
 70
     0
  9
$DIMSAH
 70
     0
  9
$DIMBLK1
  1

  9
$DIMBLK2
  1

  9
$DIMSTYLE
  2
STANDARD
  9
$DIMCLRD
 70
   256
  9
$DIMCLRE
 70
   256
  9
$DIMCLRT
 70
     3
  9
$DIMTFAC
 40
1.0
  9
$DIMGAP
 40
0.4
  9
$DIMJUST
 70
     0
  9
$DIMSD1
 70
     0
  9
$DIMSD2
 70
     0
  9
$DIMTOLJ
 70
     1
  9
$DIMTZIN
 70
     0
  9
$DIMALTZ
 70
     0
  9
$DIMALTTZ
 70
     0
  9
$DIMUPT
 70
     0
  9
$DIMDEC
 70
     2
  9
$DIMTDEC
 70
     2
  9
$DIMALTU
 70
     2
  9
$DIMALTTD
 70
     2
  9
$DIMTXSTY
  7
STANDARD
  9
$DIMAUNIT
 70
     0
  9
$DIMADEC
 70
     2
  9
$DIMALTRND
 40
0.0
  9
$DIMAZIN
 70
     2
  9
$DIMDSEP
 70
    46
  9
$DIMATFIT
 70
     3
  9
$DIMFRAC
 70
     0
  9
$DIMLDRBLK
  1
Open30
  9
$DIMLUNIT
 70
     2
  9
$DIMLWD
 70
    -2
  9
$DIMLWE
 70
    -2
  9
$DIMTMOVE
 70
     0
  9
$LUNITS
 70
     2
  9
$LUPREC
 70
     2
  9
$SKETCHINC
 40
1.0
  9
$FILLETRAD
 40
1.0
  9
$AUNITS
 70
     0
  9
$AUPREC
 70
     2
  9
$MENU
  1
.
  9
$ELEVATION
 40
0.0
  9
$PELEVATION
 40
0.0
  9
$THICKNESS
 40
0.0
  9
$LIMCHECK
 70
     0
  9
$CHAMFERA
 40
1.5
  9
$CHAMFERB
 40
1.5
  9
$CHAMFERC
 40
1.75
  9
$CHAMFERD
 40
0.0174532925199433
  9
$SKPOLY
 70
     0
  9
$TDCREATE
 40
2451555.620234838
  9
$TDUCREATE
 40
2451555.245234838
  9
$TDUPDATE
 40
2455846.619255371
  9
$TDUUPDATE
 40
2455846.244255370
  9
$TDINDWG
 40
2.5914509375
  9
$TDUSRTIMER
 40
2.5914509375
  9
$USRTIMER
 70
     1
  9
$ANGBASE
 50
0.0
  9
$ANGDIR
 70
     0
  9
$PDMODE
 70
     0
  9
$PDSIZE
 40
0.0
  9
$PLINEWID
 40
0.0
  9
$SPLFRAME
 70
     0
  9
$SPLINETYPE
 70
     6
  9
$SPLINESEGS
 70
     8
  9
$HANDSEED
  5
A3DB
  9
$SURFTAB1
 70
     6
  9
$SURFTAB2
 70
     6
  9
$SURFTYPE
 70
     6
  9
$SURFU
 70
     6
  9
$SURFV
 70
     6
  9
$UCSBASE
  2

  9
$UCSNAME
  2

  9
$UCSORG
 10
0.0
 20
0.0
 30
0.0
  9
$UCSXDIR
 10
1.0
 20
0.0
 30
0.0
  9
$UCSYDIR
 10
0.0
 20
1.0
 30
0.0
  9
$UCSORTHOREF
  2

  9
$UCSORTHOVIEW
 70
     0
  9
$UCSORGTOP
 10
0.0
 20
0.0
 30
0.0
  9
$UCSORGBOTTOM
 10
0.0
 20
0.0
 30
0.0
  9
$UCSORGLEFT
 10
0.0
 20
0.0
 30
0.0
  9
$UCSORGRIGHT
 10
0.0
 20
0.0
 30
0.0
  9
$UCSORGFRONT
 10
0.0
 20
0.0
 30
0.0
  9
$UCSORGBACK
 10
0.0
 20
0.0
 30
0.0
  9
$PUCSBASE
  2

  9
$PUCSNAME
  2

  9
$PUCSORG
 10
0.0
 20
0.0
 30
0.0
  9
$PUCSXDIR
 10
1.0
 20
0.0
 30
0.0
  9
$PUCSYDIR
 10
0.0
 20
1.0
 30
0.0
  9
$PUCSORTHOREF
  2

  9
$PUCSORTHOVIEW
 70
     0
  9
$PUCSORGTOP
 10
0.0
 20
0.0
 30
0.0
  9
$PUCSORGBOTTOM
 10
0.0
 20
0.0
 30
0.0
  9
$PUCSORGLEFT
 10
0.0
 20
0.0
 30
0.0
  9
$PUCSORGRIGHT
 10
0.0
 20
0.0
 30
0.0
  9
$PUCSORGFRONT
 10
0.0
 20
0.0
 30
0.0
  9
$PUCSORGBACK
 10
0.0
 20
0.0
 30
0.0
  9
$USERI1
 70
     0
  9
$USERI2
 70
     0
  9
$USERI3
 70
     0
  9
$USERI4
 70
     0
  9
$USERI5
 70
     0
  9
$USERR1
 40
0.0
  9
$USERR2
 40
0.0
  9
$USERR3
 40
0.0
  9
$USERR4
 40
0.0
  9
$USERR5
 40
0.0
  9
$WORLDVIEW
 70
     1
  9
$SHADEDGE
 70
     3
  9
$SHADEDIF
 70
    70
  9
$TILEMODE
 70
     1
  9
$MAXACTVP
 70
    48
  9
$PINSBASE
 10
0.0
 20
0.0
 30
0.0
  9
$PLIMCHECK
 70
     0
  9
$PEXTMIN
 10
1.000000000000000E+20
 20
1.000000000000000E+20
 30
1.000000000000000E+20
  9
$PEXTMAX
 10
-1.000000000000000E+20
 20
-1.000000000000000E+20
 30
-1.000000000000000E+20
  9
$PLIMMIN
 10
0.0
 20
0.0
  9
$PLIMMAX
 10
420.0
 20
297.0
  9
$UNITMODE
 70
     0
  9
$VISRETAIN
 70
     1
  9
$PLINEGEN
 70
     0
  9
$PSLTSCALE
 70
     1
  9
$TREEDEPTH
 70
  3020
  9
$CMLSTYLE
  2
STANDARD
  9
$CMLJUST
 70
     0
  9
$CMLSCALE
 40
20.0
  9
$PROXYGRAPHICS
 70
     1
  9
$MEASUREMENT
 70
     1
  9
$CELWEIGHT
370
    -1
  9
$ENDCAPS
280
     0
  9
$JOINSTYLE
280
     0
  9
$LWDISPLAY
290
     0
  9
$INSUNITS
 70
     0
  9
$HYPERLINKBASE
  1

  9
$STYLESHEET
  1
monochrome.ctb
  9
$XEDIT
290
     1
  9
$CEPSNTYPE
380
     0
  9
$PSTYLEMODE
290
     1
  9
$FINGERPRINTGUID
  2
{1CF51E8A-A506-11D4-A7D9-AF69F5C20846}
  9
$VERSIONGUID
  2
{AC892C00-2763-4AF8-88A5-08F418071951}
  9
$EXTNAMES
290
     1
  9
$PSVPSCALE
 40
0.0
  9
$OLESTARTUP
290
     0
  9
$SORTENTS
280
   127
  9
$INDEXCTL
280
     0
  9
$HIDETEXT
280
     0
  9
$XCLIPFRAME
290
     0
  9
$HALOGAP
280
     0
  9
$OBSCOLOR
 70
   257
  9
$OBSLTYPE
280
     0
  9
$INTERSECTIONDISPLAY
280
     0
  9
$INTERSECTIONCOLOR
 70
   257
  9
$DIMASSOC
280
     1
  9
$PROJECTNAME
  1

  0
ENDSEC
  0
SECTION
  2
CLASSES
  0
CLASS
  1
DICTIONARYVAR
  2
AcDbDictionaryVar
  3
ObjectDBX Classes
 90
        0
 91
        2
280
     0
281
     0
  0
CLASS
  1
SORTENTSTABLE
  2
AcDbSortentsTable
  3
ObjectDBX Classes
 90
        0
 91
        1
280
     0
281
     0
  0
CLASS
  1
ACDBDICTIONARYWDFLT
  2
AcDbDictionaryWithDefault
  3
ObjectDBX Classes
 90
        0
 91
        1
280
     0
281
     0
  0
CLASS
  1
TABLESTYLE
  2
AcDbTableStyle
  3
ObjectDBX Classes
 90
     2047
 91
        1
280
     0
281
     0
  0
ENDSEC
  0
SECTION
  2
TABLES
  0
TABLE
  2
VPORT
  5
8
330
0
100
AcDbSymbolTable
 70
     2
  0
VPORT
  5
A3DA
330
8
100
AcDbSymbolTableRecord
100
AcDbViewportTableRecord
  2
*Active
 70
     0
 10
0.0
 20
0.0
 11
1.0
 21
1.0
 12
71.42434165778889
 22
138.9060496713113
 13
0.0
 23
0.0
 14
10.0
 24
10.0
 15
10.0
 25
10.0
 16
0.0
 26
0.0
 36
1.0
 17
0.0
 27
0.0
 37
0.0
 40
283.4290658696427
 41
2.47104247104247
 42
50.0
 43
0.0
 44
0.0
 50
0.0
 51
0.0
 71
     0
 72
 20000
 73
     1
 74
     1
 75
     0
 76
     0
 77
     0
 78
     0
281
     0
 65
     1
110
0.0
120
0.0
130
0.0
111
1.0
121
0.0
131
0.0
112
0.0
122
1.0
132
0.0
 79
     0
146
0.0
  0
ENDTAB
  0
TABLE
  2
LTYPE
  5
5
330
0
100
AcDbSymbolTable
 70
     7
  0
LTYPE
  5
12
330
5
100
AcDbSymbolTableRecord
100
AcDbLinetypeTableRecord
  2
BYBLOCK
 70
     0
  3

 72
    65
 73
     0
 40
0.0
  0
LTYPE
  5
13
330
5
100
AcDbSymbolTableRecord
100
AcDbLinetypeTableRecord
  2
BYLAYER
 70
     0
  3

 72
    65
 73
     0
 40
0.0
  0
LTYPE
  5
14
330
5
100
AcDbSymbolTableRecord
100
AcDbLinetypeTableRecord
  2
CONTINUOUS
 70
     0
  3
Solid line
 72
    65
 73
     0
 40
0.0
  0
LTYPE
  5
9D
330
5
100
AcDbSymbolTableRecord
100
AcDbLinetypeTableRecord
  2
CENTERX2
 70
     0
  3
Center (2x) ________  __  ________  __  _____
 72
    65
 73
     4
 40
101.6
 49
63.5
 74
     0
 49
-12.7
 74
     0
 49
12.7
 74
     0
 49
-12.7
 74
     0
  0
LTYPE
  5
A1
330
5
100
AcDbSymbolTableRecord
100
AcDbLinetypeTableRecord
  2
DASHED
 70
     0
  3
Dashed __ __ __ __ __ __ __ __ __ __ __ __ __ _
 72
    65
 73
     2
 40
19.05
 49
12.7
 74
     0
 49
-6.349999999999999
 74
     0
  0
LTYPE
  5
A2
330
5
100
AcDbSymbolTableRecord
100
AcDbLinetypeTableRecord
  2
DASHED2
 70
     0
  3
Dashed (.5x) _ _ _ _ _ _ _ _ _ _ _ _ _ _ _ _ _
 72
    65
 73
     2
 40
9.524999999999998
 49
6.349999999999999
 74
     0
 49
-3.174999999999999
 74
     0
  0
LTYPE
  5
A5
330
5
100
AcDbSymbolTableRecord
100
AcDbLinetypeTableRecord
  2
DIVIDE2
 70
     0
  3
Divide (.5x) __..__..__..__..__..__..__..__.._
 72
    65
 73
     6
 40
15.875
 49
6.349999999999999
 74
     0
 49
-3.174999999999999
 74
     0
 49
0.0
 74
     0
 49
-3.174999999999999
 74
     0
 49
0.0
 74
     0
 49
-3.174999999999999
 74
     0
  0
LTYPE
  5
650B
330
5
100
AcDbSymbolTableRecord
100
AcDbLinetypeTableRecord
  2
CENTER
 70
     0
  3
Center ____ _ ____ _ ____ _ ____ _ ____ _ ____
 72
    65
 73
     4
 40
50.8
 49
31.75
 74
     0
 49
-6.349999999999999
 74
     0
 49
6.349999999999999
 74
     0
 49
-6.349999999999999
 74
     0
  0
LTYPE
  5
650C
330
5
100
AcDbSymbolTableRecord
100
AcDbLinetypeTableRecord
  2
HIDDEN
 70
     0
  3
Hidden __ __ __ __ __ __ __ __ __ __ __ __ __ _
 72
    65
 73
     2
 40
9.524999999999998
 49
6.349999999999999
 74
     0
 49
-3.174999999999999
 74
     0
  0
ENDTAB
  0
TABLE
  2
LAYER
  5
2
102
{ACAD_XDICTIONARY
360
7BFE
102
}
330
0
100
AcDbSymbolTable
 70
     9
  0
LAYER
  5
E
330
2
100
AcDbSymbolTableRecord
100
AcDbLayerTableRecord
  2
0
 70
     0
 62
     7
  6
CONTINUOUS
370
    -3
390
5CF2
  0
LAYER
  5
B9
330
2
100
AcDbSymbolTableRecord
100
AcDbLayerTableRecord
  2
dim
 70
     0
 62
     3
  6
CONTINUOUS
370
    -3
390
5CF2
  0
LAYER
  5
F2
330
2
100
AcDbSymbolTableRecord
100
AcDbLayerTableRecord
  2
DEFPOINTS
 70
     0
 62
     4
  6
CONTINUOUS
290
     0
370
    -3
390
5CF2
  0
LAYER
  5
5F8B
330
2
100
AcDbSymbolTableRecord
100
AcDbLayerTableRecord
  2
mark
 70
     0
 62
     6
  6
CONTINUOUS
370
    -3
390
5CF2
  0
LAYER
  5
644E
330
2
100
AcDbSymbolTableRecord
100
AcDbLayerTableRecord
  2
frame
 70
     0
 62
     9
  6
CONTINUOUS
370
    -3
390
5CF2
  0
LAYER
  5
650D
330
2
100
AcDbSymbolTableRecord
100
AcDbLayerTableRecord
  2
center
 70
     0
 62
     1
  6
CENTER
370
    -3
390
5CF2
  0
LAYER
  5
650E
330
2
100
AcDbSymbolTableRecord
100
AcDbLayerTableRecord
  2
bowle
 70
     0
 62
     4
  6
HIDDEN
370
    -3
390
5CF2
  0
LAYER
  5
650F
330
2
100
AcDbSymbolTableRecord
100
AcDbLayerTableRecord
  2
contour
 70
     0
 62
     2
  6
CONTINUOUS
370
    -3
390
5CF2
  0
LAYER
  5
6510
330
2
100
AcDbSymbolTableRecord
100
AcDbLayerTableRecord
  2
section
 70
     0
 62
     5
  6
CONTINUOUS
370
    -3
390
5CF2
  0
ENDTAB
  0
TABLE
  2
STYLE
  5
3
330
0
100
AcDbSymbolTable
 70
     5
  0
STYLE
  5
F
330
3
100
AcDbSymbolTableRecord
100
AcDbTextStyleTableRecord
  2
STANDARD
 70
     0
 40
0.0
 41
1.0
 50
0.0
 71
     0
 42
2.5
  3
txt
  4

  0
STYLE
  5
BE
330
3
100
AcDbSymbolTableRecord
100
AcDbTextStyleTableRecord
  2
ISOCP3
 70
     0
 40
0.0
 41
1.0
 50
0.0
 71
     0
 42
2.5
  3
isocp3.shx
  4

  0
STYLE
  5
2A37
330
3
100
AcDbSymbolTableRecord
100
AcDbTextStyleTableRecord
  2
TXT
 70
     0
 40
0.0
 41
1.0
 50
0.0
 71
     0
 42
1.25
  3
txt.shx
  4
bigfont.shx
  0
STYLE
  5
5DCB
330
3
100
AcDbSymbolTableRecord
100
AcDbTextStyleTableRecord
  2
LKK
 70
     0
 40
50.0
 41
1.5
 50
0.0
 71
     0
 42
50.0
  3
MS PGothic.ttf
  4

1001
ACAD
1000
MS PGothic
1071
    32818
  0
STYLE
  5
5DCC
330
3
100
AcDbSymbolTableRecord
100
AcDbTextStyleTableRecord
  2
JL
 70
     0
 40
10.0
 41
0.5
 50
0.0
 71
     0
 42
5.0
  3
MS Mincho.ttf
  4

1001
ACAD
1000
MS Mincho
1071
    32785
  0
ENDTAB
  0
TABLE
  2
VIEW
  5
6
330
0
100
AcDbSymbolTable
 70
     0
  0
ENDTAB
  0
TABLE
  2
UCS
  5
7
330
0
100
AcDbSymbolTable
 70
     0
  0
ENDTAB
  0
TABLE
  2
APPID
  5
9
330
0
100
AcDbSymbolTable
 70
    11
  0
APPID
  5
10
330
9
100
AcDbSymbolTableRecord
100
AcDbRegAppTableRecord
  2
ACAD
 70
     0
  0
APPID
  5
7C91
330
9
100
AcDbSymbolTableRecord
100
AcDbRegAppTableRecord
  2
ACAD_DSTYLE_DIMEXT_LENGTH
 70
     0
  0
APPID
  5
7C92
330
9
100
AcDbSymbolTableRecord
100
AcDbRegAppTableRecord
  2
ACAD_DSTYLE_DIMEXT_ENABLED
 70
     0
  0
APPID
  5
7C93
330
9
100
AcDbSymbolTableRecord
100
AcDbRegAppTableRecord
  2
ACAD_DSTYLE_DIMJOGGED_JOGANGLE_SYMBOL
 70
     0
  0
APPID
  5
7C94
330
9
100
AcDbSymbolTableRecord
100
AcDbRegAppTableRecord
  2
ACAD_DSTYLE_DIMARC_LENGTH_SYMBOL
 70
     0
  0
APPID
  5
7F1C
330
9
100
AcDbSymbolTableRecord
100
AcDbRegAppTableRecord
  2
ACAD_EXEMPT_FROM_CAD_STANDARDS
 70
     0
  0
APPID
  5
7F49
330
9
100
AcDbSymbolTableRecord
100
AcDbRegAppTableRecord
  2
ACAD_DSTYLE_DIMTEXT_FILL
 70
     0
  0
APPID
  5
7F4C
330
9
100
AcDbSymbolTableRecord
100
AcDbRegAppTableRecord
  2
ACAD_DSTYLE_DIM_LINETYPE
 70
     0
  0
APPID
  5
7F4D
330
9
100
AcDbSymbolTableRecord
100
AcDbRegAppTableRecord
  2
ACAD_DSTYLE_DIM_EXT1_LINETYPE
 70
     0
  0
APPID
  5
7F4E
330
9
100
AcDbSymbolTableRecord
100
AcDbRegAppTableRecord
  2
ACAD_DSTYLE_DIM_EXT2_LINETYPE
 70
     0
  0
APPID
  5
8C73
330
9
100
AcDbSymbolTableRecord
100
AcDbRegAppTableRecord
  2
ACAD_PSEXT
 70
     0
  0
ENDTAB
  0
TABLE
  2
DIMSTYLE
  5
A
330
0
100
AcDbSymbolTable
 70
     1
100
AcDbDimStyleTable
 71
     1
340
1D
  0
DIMSTYLE
105
1D
102
{ACAD_REACTORS
330
A10E
330
A140
330
A14D
330
A17D
330
A1F4
330
A245
330
A25D
330
A30D
330
A31E
102
}
330
A
100
AcDbSymbolTableRecord
100
AcDbDimStyleTableRecord
  2
STANDARD
 70
     0
 40
2.0
 41
1.25
 42
0.4
 44
0.4
 73
     0
 74
     0
 77
     3
 78
     8
 79
     2
140
1.25
147
0.4
172
     1
176
   256
177
   256
178
     3
179
     2
271
     2
272
     2
340
F
341
7C04
342
7C04
1001
ACAD_DSTYLE_DIMEXT_LENGTH
1070
   378
1040
0.18
1001
ACAD_DSTYLE_DIMEXT_ENABLED
1070
   383
1070
     0
1001
ACAD_DSTYLE_DIMARC_LENGTH_SYMBOL
1070
   379
1070
     0
1001
ACAD_DSTYLE_DIMJOGGED_JOGANGLE_SYMBOL
1070
   384
1040
1.570796326794896
  0
ENDTAB
  0
TABLE
  2
BLOCK_RECORD
  5
1
330
0
100
AcDbSymbolTable
 70
    14
  0
BLOCK_RECORD
  5
18
102
{ACAD_XDICTIONARY
360
45F
102
}
330
1
100
AcDbSymbolTableRecord
100
AcDbBlockTableRecord
  2
*MODEL_SPACE
340
5CF5
  0
BLOCK_RECORD
  5
15
102
{ACAD_XDICTIONARY
360
5D89
102
}
330
1
100
AcDbSymbolTableRecord
100
AcDbBlockTableRecord
  2
*PAPER_SPACE
340
5CF6
  0
BLOCK_RECORD
  5
639D
330
1
100
AcDbSymbolTableRecord
100
AcDbBlockTableRecord
  2
A$C255C26A2
340
0
  0
BLOCK_RECORD
  5
7C04
330
1
100
AcDbSymbolTableRecord
100
AcDbBlockTableRecord
  2
_Open30
340
0
102
{BLKREFS
331
A145
331
A146
331
A1B7
331
A1D0
331
A1D1
331
A1F9
331
A1FA
331
A23E
331
A23F
331
A252
331
A313
331
A314
331
A324
331
A325
102
}
  0
BLOCK_RECORD
  5
7C0A
102
{ACAD_XDICTIONARY
360
7C0B
102
}
330
1
100
AcDbSymbolTableRecord
100
AcDbBlockTableRecord
  2
A
340
0
310
2800000020000000200000000100080000000000000400000000000000000000000000000000000000000000000080000080000000808000800000008000800080800000C0C0C000C0DCC000F0CAA6000020400000206000002080000020A0000020C0000020E00000400000004020000040400000406000004080000040A0
310
000040C0000040E00000600000006020000060400000606000006080000060A0000060C0000060E00000800000008020000080400000806000008080000080A0000080C0000080E00000A0000000A0200000A0400000A0600000A0800000A0A00000A0C00000A0E00000C0000000C0200000C0400000C0600000C0800000C0
310
A00000C0C00000C0E00000E0000000E0200000E0400000E0600000E0800000E0A00000E0C00000E0E00040000000400020004000400040006000400080004000A0004000C0004000E00040200000402020004020400040206000402080004020A0004020C0004020E000404000004040200040404000404060004040800040
310
40A0004040C0004040E00040600000406020004060400040606000406080004060A0004060C0004060E00040800000408020004080400040806000408080004080A0004080C0004080E00040A0000040A0200040A0400040A0600040A0800040A0A00040A0C00040A0E00040C0000040C0200040C0400040C0600040C08000
310
40C0A00040C0C00040C0E00040E0000040E0200040E0400040E0600040E0800040E0A00040E0C00040E0E00080000000800020008000400080006000800080008000A0008000C0008000E00080200000802020008020400080206000802080008020A0008020C0008020E00080400000804020008040400080406000804080
310
008040A0008040C0008040E00080600000806020008060400080606000806080008060A0008060C0008060E00080800000808020008080400080806000808080008080A0008080C0008080E00080A0000080A0200080A0400080A0600080A0800080A0A00080A0C00080A0E00080C0000080C0200080C0400080C0600080C0
310
800080C0A00080C0C00080C0E00080E0000080E0200080E0400080E0600080E0800080E0A00080E0C00080E0E000C0000000C0002000C0004000C0006000C0008000C000A000C000C000C000E000C0200000C0202000C0204000C0206000C0208000C020A000C020C000C020E000C0400000C0402000C0404000C0406000C0
310
408000C040A000C040C000C040E000C0600000C0602000C0604000C0606000C0608000C060A000C060C000C060E000C0800000C0802000C0804000C0806000C0808000C080A000C080C000C080E000C0A00000C0A02000C0A04000C0A06000C0A08000C0A0A000C0A0C000C0A0E000C0C00000C0C02000C0C04000C0C06000
310
C0C08000C0C0A000F0FBFF00A4A0A000808080000000FF0000FF000000FFFF00FF000000FF00FF00FFFF0000FFFFFF0000000000000000000000000000000000000000000000000000000000000000000000000000000000000000000000000000000000000000000000000000000000000000000000000000000000000000
310
00000000000000000000000000000000000000000000000000000000000000000000000000000000000000000000000000000000000000000000000000000000000000000000000000000000000000000000000000000000000000000000000000000000000000000000000000000000000000000000000000000000000000
310
00000000000000000000000000000000000000000000000000000000000000000000000000000000000000000000000000000000000000000000000000000000000000000000000000000000000000000000000000000000000000000000000000000000000000000000000000000000000000000000000000000000000000
310
000000000000FDFDFDFDFDFDFDFDFDFDFDFD0000FD0000000000000000000000000000000000FD0000FA0000000000FA00FD0000FDFD00000000000000000000000000000000FD0000FA0000000000FA00FD0000FDFDFD000000000000000000000000000000FD0000FA0000000000FA00FD0000FDFDFDFD00000000000000
310
00000000000000FD0000FAFAFAFAFAFAFA00FD0000FDFDFDFDFD00000000000000000000000000FD000000FA00000000FA00FD0000FDFDFDFDFDFDFDFDFDFDFDFDFDFDFDFDFDFDFD000000FA000000FA0000FD0000FDFDFDFDFD00000000000000000000000000FD00000000FA0000FA0000FD0000FDFDFDFD000000000000
310
0000000000000000FD00000000FA00FA000000FD0000FDFD00000000000000000000000000000000FD0000000000FAFA000000FD0000FD0000000000000000000000000000000000FD0000000000FA00000000FD0000000000000000000000000000000000000000FDFDFDFDFDFDFDFDFDFDFDFD0000000000000000000000
310
00000000000000000000000000000000000000000000000000000000000000000000000000000000000000000000000000000000000000000000000000000000000000000000000000000000000000000000000000000000000000000000000000000000000000000000000000000000000000000000000000000000000000
310
00000000000000000000000000000000000000000000000000000000000000000000000000000000000000000000000000000000000000000000000000000000000000000000000000000000000000000000000000000000000000000000000000000000000000000000000000000000000000000000000000000000000000
310
0000000000000000000000000000000000000000000000000000000000000000000000000000000000000000000000000000000000000000
  0
BLOCK_RECORD
  5
8E72
102
{ACAD_XDICTIONARY
360
8E73
102
}
330
1
100
AcDbSymbolTableRecord
100
AcDbBlockTableRecord
  2
LS
340
0
310
2800000020000000200000000100080000000000000400000000000000000000000000000000000000000000000080000080000000808000800000008000800080800000C0C0C000C0DCC000F0CAA6000020400000206000002080000020A0000020C0000020E00000400000004020000040400000406000004080000040A0
310
000040C0000040E00000600000006020000060400000606000006080000060A0000060C0000060E00000800000008020000080400000806000008080000080A0000080C0000080E00000A0000000A0200000A0400000A0600000A0800000A0A00000A0C00000A0E00000C0000000C0200000C0400000C0600000C0800000C0
310
A00000C0C00000C0E00000E0000000E0200000E0400000E0600000E0800000E0A00000E0C00000E0E00040000000400020004000400040006000400080004000A0004000C0004000E00040200000402020004020400040206000402080004020A0004020C0004020E000404000004040200040404000404060004040800040
310
40A0004040C0004040E00040600000406020004060400040606000406080004060A0004060C0004060E00040800000408020004080400040806000408080004080A0004080C0004080E00040A0000040A0200040A0400040A0600040A0800040A0A00040A0C00040A0E00040C0000040C0200040C0400040C0600040C08000
310
40C0A00040C0C00040C0E00040E0000040E0200040E0400040E0600040E0800040E0A00040E0C00040E0E00080000000800020008000400080006000800080008000A0008000C0008000E00080200000802020008020400080206000802080008020A0008020C0008020E00080400000804020008040400080406000804080
310
008040A0008040C0008040E00080600000806020008060400080606000806080008060A0008060C0008060E00080800000808020008080400080806000808080008080A0008080C0008080E00080A0000080A0200080A0400080A0600080A0800080A0A00080A0C00080A0E00080C0000080C0200080C0400080C0600080C0
310
800080C0A00080C0C00080C0E00080E0000080E0200080E0400080E0600080E0800080E0A00080E0C00080E0E000C0000000C0002000C0004000C0006000C0008000C000A000C000C000C000E000C0200000C0202000C0204000C0206000C0208000C020A000C020C000C020E000C0400000C0402000C0404000C0406000C0
310
408000C040A000C040C000C040E000C0600000C0602000C0604000C0606000C0608000C060A000C060C000C060E000C0800000C0802000C0804000C0806000C0808000C080A000C080C000C080E000C0A00000C0A02000C0A04000C0A06000C0A08000C0A0A000C0A0C000C0A0E000C0C00000C0C02000C0C04000C0C06000
310
C0C08000C0C0A000F0FBFF00A4A0A000808080000000FF0000FF000000FFFF00FF000000FF00FF00FFFF0000FFFFFF00000000000000000000000000000000000000000000000000000000000000000000000000000000000000FBFBFEFBFEFBFBFEFBFEFBFB00000000000000000000000000000000000000FBFBFBFEFBFE
310
FBFBFEFBFEFBFBFB000000000000000000000000000000000000FB0000FE00FE0000FE00FE0000FB000000000000000000000000000000000000FB0000FE00FE0000FE00FE0000FB000000000000000000000000000000000000FB0000FEFEFEFEFEFEFEFE0000FB000000000000000000000000000000000000FB000000FE
310
FE0000FEFE000000FB000000000000000000000000000000000000FB0000000000FEFE0000000000FB000000000000000000000000000000000000FBFBFBFEFBFBFBFBFBFBFEFBFBFB000000000000000000000000000000000000000000FBFE0000000000FE000000000000000000000000000000000000000000000000FB
310
FBFBFBFBFBFEFB000000000000000000000000000000000000000000000000FBFE00000000FEFB000000000000000000000000000000000000000000000000FBFE00000000FEFB000000000000000000000000000000000000000000000000FBFE00000000FEFB000000000000000000000000000000000000000000000000
310
FBFE00000000FEFB000000000000000000000000000000000000000000000000FBFE00000000FEFB000000000000000000000000000000000000000000000000FBFE00000000FEFB000000000000000000000000000000000000000000000000FBFE00000000FEFB0000000000000000000000000000000000000000000000
310
00FBFE00000000FEFB000000000000000000000000000000000000000000000000FBFE00000000FEFB000000000000000000000000000000000000000000000000FBFE00000000FEFB000000000000000000000000000000000000000000000000FBFE00000000FEFB00000000000000000000000000000000000000000000
310
0000FBFE00000000FEFB000000000000000000000000000000000000000000000000FBFE00000000FEFB000000000000000000000000000000000000000000000000FBFE00000000FEFB000000000000000000000000000000000000000000000000FBFE00000000FEFB000000000000000000000000000000000000000000
310
000000FBFE00000000FEFB000000000000000000000000000000000000000000000000FBFE00000000FEFB000000000000000000000000000000000000000000000000FBFEFBFBFBFBFEFB00000000000000000000000000000000000000000000000000FE00000000FEFB0000000000000000000000000000000000000000
310
0000000000FBFBFBFBFBFB000000000000000000000000000000000000000000000000000000000000000000000000000000000000000000
  0
BLOCK_RECORD
  5
9D15
102
{ACAD_XDICTIONARY
360
9D16
102
}
330
1
100
AcDbSymbolTableRecord
100
AcDbBlockTableRecord
  2
LS2
340
0
310
2800000020000000200000000100080000000000000400000000000000000000000000000000000000000000000080000080000000808000800000008000800080800000C0C0C000C0DCC000F0CAA6000020400000206000002080000020A0000020C0000020E00000400000004020000040400000406000004080000040A0
310
000040C0000040E00000600000006020000060400000606000006080000060A0000060C0000060E00000800000008020000080400000806000008080000080A0000080C0000080E00000A0000000A0200000A0400000A0600000A0800000A0A00000A0C00000A0E00000C0000000C0200000C0400000C0600000C0800000C0
310
A00000C0C00000C0E00000E0000000E0200000E0400000E0600000E0800000E0A00000E0C00000E0E00040000000400020004000400040006000400080004000A0004000C0004000E00040200000402020004020400040206000402080004020A0004020C0004020E000404000004040200040404000404060004040800040
310
40A0004040C0004040E00040600000406020004060400040606000406080004060A0004060C0004060E00040800000408020004080400040806000408080004080A0004080C0004080E00040A0000040A0200040A0400040A0600040A0800040A0A00040A0C00040A0E00040C0000040C0200040C0400040C0600040C08000
310
40C0A00040C0C00040C0E00040E0000040E0200040E0400040E0600040E0800040E0A00040E0C00040E0E00080000000800020008000400080006000800080008000A0008000C0008000E00080200000802020008020400080206000802080008020A0008020C0008020E00080400000804020008040400080406000804080
310
008040A0008040C0008040E00080600000806020008060400080606000806080008060A0008060C0008060E00080800000808020008080400080806000808080008080A0008080C0008080E00080A0000080A0200080A0400080A0600080A0800080A0A00080A0C00080A0E00080C0000080C0200080C0400080C0600080C0
310
800080C0A00080C0C00080C0E00080E0000080E0200080E0400080E0600080E0800080E0A00080E0C00080E0E000C0000000C0002000C0004000C0006000C0008000C000A000C000C000C000E000C0200000C0202000C0204000C0206000C0208000C020A000C020C000C020E000C0400000C0402000C0404000C0406000C0
310
408000C040A000C040C000C040E000C0600000C0602000C0604000C0606000C0608000C060A000C060C000C060E000C0800000C0802000C0804000C0806000C0808000C080A000C080C000C080E000C0A00000C0A02000C0A04000C0A06000C0A08000C0A0A000C0A0C000C0A0E000C0C00000C0C02000C0C04000C0C06000
310
C0C08000C0C0A000F0FBFF00A4A0A000808080000000FF0000FF000000FFFF00FF000000FF00FF00FFFF0000FFFFFF0000000000000000000000000000000000000000000000000000000000000000000000000000000000000000FBFBFEFEFBFBFEFEFBFB00000000000000000000000000000000000000000000FBFBFEFE
310
FBFBFEFEFBFB00000000000000000000000000000000000000000000FB00FEFE0000FEFE00FB00000000000000000000000000000000000000000000FB00FEFE0000FEFE00FB00000000000000000000000000000000000000000000FB00FEFEFEFEFEFE00FB00000000000000000000000000000000000000000000FB0000
310
FEFEFE000000FB00000000000000000000000000000000000000000000FBFBFEFBFBFBFBFEFBFB000000000000000000000000000000000000000000000000FBFBFBFBFBFE0000000000000000000000000000000000000000000000000000FE00000000FE0000000000000000000000000000000000000000000000000000
310
FE00000000FE0000000000000000000000000000000000000000000000000000FE00000000FE0000000000000000000000000000000000000000000000000000FE00000000FE0000000000000000000000000000000000000000000000000000FE00000000FE00000000000000000000000000000000000000000000000000
310
00FE00000000FE0000000000000000000000000000000000000000000000000000FE00000000FE0000000000000000000000000000000000000000000000000000FE00000000FE0000000000000000000000000000000000000000000000000000FE00000000FE000000000000000000000000000000000000000000000000
310
0000FE00000000FE0000000000000000000000000000000000000000000000000000FE00000000FE0000000000000000000000000000000000000000000000000000FE00000000FE0000000000000000000000000000000000000000000000000000FE00000000FE0000000000000000000000000000000000000000000000
310
000000FE00000000FE0000000000000000000000000000000000000000000000000000FE00000000FE0000000000000000000000000000000000000000000000000000FE00000000FE0000000000000000000000000000000000000000000000000000FE00000000FE00000000000000000000000000000000000000000000
310
00000000FE00000000FE0000000000000000000000000000000000000000000000000000FE00000000FE0000000000000000000000000000000000000000000000000000FEFBFBFBFBFE0000000000000000000000000000000000000000000000000000FEFB000000FE000000000000000000000000000000000000000000
310
000000000000FBFBFBFB00000000000000000000000000000000000000000000000000000000000000000000000000000000000000000000
102
{BLKREFS
331
9D9E
102
}
  0
BLOCK_RECORD
  5
A10F
330
1
100
AcDbSymbolTableRecord
100
AcDbBlockTableRecord
  2
*D5
340
0
  0
BLOCK_RECORD
  5
A141
330
1
100
AcDbSymbolTableRecord
100
AcDbBlockTableRecord
  2
*D6
340
0
  0
BLOCK_RECORD
  5
A14E
330
1
100
AcDbSymbolTableRecord
100
AcDbBlockTableRecord
  2
*D7
340
0
  0
BLOCK_RECORD
  5
A17E
330
1
100
AcDbSymbolTableRecord
100
AcDbBlockTableRecord
  2
*D8
340
0
  0
BLOCK_RECORD
  5
A18A
330
1
100
AcDbSymbolTableRecord
100
AcDbBlockTableRecord
  2
_DotSmall
340
0
102
{BLKREFS
331
A1B8
331
A1CA
331
A1CB
102
}
  0
BLOCK_RECORD
  5
A1F5
330
1
100
AcDbSymbolTableRecord
100
AcDbBlockTableRecord
  2
*D10
340
0
  0
BLOCK_RECORD
  5
A246
330
1
100
AcDbSymbolTableRecord
100
AcDbBlockTableRecord
  2
*D11
340
0
  0
BLOCK_RECORD
  5
A30E
330
1
100
AcDbSymbolTableRecord
100
AcDbBlockTableRecord
  2
*D12
340
0
  0
BLOCK_RECORD
  5
A31F
330
1
100
AcDbSymbolTableRecord
100
AcDbBlockTableRecord
  2
*D13
340
0
  0
ENDTAB
  0
ENDSEC
  0
SECTION
  2
BLOCKS
  0
BLOCK
  5
19
330
18
100
AcDbEntity
  8
0
100
AcDbBlockBegin
  2
*MODEL_SPACE
 70
     0
 10
0.0
 20
0.0
 30
0.0
  3
*MODEL_SPACE
  1

  0
ENDBLK
  5
1A
330
18
100
AcDbEntity
  8
0
100
AcDbBlockEnd
  0
BLOCK
  5
16
330
15
100
AcDbEntity
 67
     1
  8
0
100
AcDbBlockBegin
  2
*PAPER_SPACE
 70
     0
 10
0.0
 20
0.0
 30
0.0
  3
*PAPER_SPACE
  1

  0
ENDBLK
  5
17
330
15
100
AcDbEntity
 67
     1
  8
0
100
AcDbBlockEnd
  0
BLOCK
  5
63A1
330
639D
100
AcDbEntity
  8
0
100
AcDbBlockBegin
  2
A$C255C26A2
 70
     0
 10
0.0
 20
0.0
 30
0.0
  3
A$C255C26A2
  1

  0
LWPOLYLINE
  5
639E
330
639D
100
AcDbEntity
  8
0
100
AcDbPolyline
 90
        3
 70
     1
 43
0.0
 10
7.014806023851633
 20
0.0000006939811783
 10
5.611844869720698
 20
2.430000693981241
 10
8.417767177982568
 20
2.430000693981241
  0
LWPOLYLINE
  5
639F
330
639D
100
AcDbEntity
  8
0
100
AcDbPolyline
 90
        3
 70
     1
 43
0.0
 10
4.20888371558999
 20
0.0000006939811783
 10
2.805922561459283
 20
2.430000693981241
 10
5.611844869720698
 20
2.430000693981241
  0
LWPOLYLINE
  5
63A0
330
639D
100
AcDbEntity
  8
0
100
AcDbPolyline
 90
        3
 70
     1
 43
0.0
 10
1.402961407328348
 20
0.0000006939811783
 10
0.0000002531974133
 20
2.430000693981241
 10
2.805922561459283
 20
2.430000693981241
  0
ENDBLK
  5
63A2
330
639D
100
AcDbEntity
  8
0
100
AcDbBlockEnd
  0
BLOCK
  5
7C05
330
7C04
100
AcDbEntity
  8
0
100
AcDbBlockBegin
  2
_Open30
 70
     0
 10
0.0
 20
0.0
 30
0.0
  3
_Open30
  1

  0
LINE
  5
7C06
330
7C04
100
AcDbEntity
  8
0
  6
ByBlock
 62
     0
370
    -2
100
AcDbLine
 10
-1.0
 20
0.26794919
 30
0.0
 11
0.0
 21
0.0
 31
0.0
  0
LINE
  5
7C07
330
7C04
100
AcDbEntity
  8
0
  6
ByBlock
 62
     0
370
    -2
100
AcDbLine
 10
0.0
 20
0.0
 30
0.0
 11
-1.0
 21
-0.26794919
 31
0.0
  0
LINE
  5
7C08
330
7C04
100
AcDbEntity
  8
0
  6
ByBlock
 62
     0
370
    -2
100
AcDbLine
 10
0.0
 20
0.0
 30
0.0
 11
-1.0
 21
0.0
 31
0.0
  0
ENDBLK
  5
7C09
330
7C04
100
AcDbEntity
  8
0
100
AcDbBlockEnd
  0
BLOCK
  5
7C0E
330
7C0A
100
AcDbEntity
  8
0
100
AcDbBlockBegin
  2
A
 70
     0
 10
0.0
 20
0.0
 30
0.0
  3
A
  1

  0
MTEXT
  5
7C0F
330
7C0A
100
AcDbEntity
  8
mark
 62
     3
100
AcDbMText
 10
10.65641897020822
 20
-5.596245361730467
 30
0.0
 40
2.5
 41
0.0
 71
     5
 72
     1
  1
A
 73
     1
 44
1.0
1001
ACAD
1000
ACAD_MTEXT_DEFINED_HEIGHT_BEGIN
1070
    46
1040
0.0
1000
ACAD_MTEXT_DEFINED_HEIGHT_END
  0
LWPOLYLINE
  5
7C10
330
7C0A
100
AcDbEntity
  8
mark
100
AcDbPolyline
 90
        4
 70
     1
 43
0.0
 10
9.07926800414657
 20
-7.141145101782569
 10
12.07926800414657
 20
-7.141145101782569
 10
12.07926800414657
 20
-4.141145101782569
 10
9.07926800414657
 20
-4.141145101782569
  0
HATCH
  5
7C11
330
7C0A
100
AcDbEntity
  8
mark
100
AcDbHatch
 10
0.0
 20
0.0
 30
0.0
210
0.0
220
0.0
230
1.0
  2
SOLID
 70
     1
 71
     0
 91
        1
 92
        7
 72
     0
 73
     1
 93
        3
 10
5.32926800414657
 20
-5.641145101782569
 10
4.07926800414657
 20
-4.391145101782541
 10
4.07926800414657
 20
-6.891145101782541
 97
        0
 75
     0
 76
     1
 47
0.0398277943677868
 98
        1
 10
4.589689734415287
 20
-5.732163331855076
450
        0
451
        0
460
0.0
461
0.0
452
        1
462
1.0
453
        2
463
0.0
 63
     5
421
      255
463
1.0
 63
     7
421
 16777215
470
LINEAR
1001
ACAD
1010
0.0
1020
0.0
1030
0.0
  0
LINE
  5
7C12
330
7C0A
100
AcDbEntity
  8
mark
100
AcDbLine
 10
5.32926800414657
 20
-5.641145101782569
 30
0.0
 11
9.07926800414657
 21
-5.641145101782569
 31
0.0
  0
LINE
  5
7C13
330
7C0A
100
AcDbEntity
  8
mark
100
AcDbLine
 10
5.32926800414657
 20
-5.641145101782569
 30
0.0
 11
4.07926800414657
 21
-4.391145101782569
 31
0.0
  0
LINE
  5
7C14
330
7C0A
100
AcDbEntity
  8
mark
100
AcDbLine
 10
5.32926800414657
 20
-5.641145101782569
 30
0.0
 11
4.07926800414657
 21
-6.891145101782569
 31
0.0
  0
ENDBLK
  5
7C15
330
7C0A
100
AcDbEntity
  8
0
100
AcDbBlockEnd
  0
BLOCK
  5
8E76
330
8E72
100
AcDbEntity
  8
0
100
AcDbBlockBegin
  2
LS
 70
     0
 10
0.0
 20
0.0
 30
0.0
  3
LS
  1

  0
LINE
  5
8E78
330
8E72
100
AcDbEntity
  8
contour
100
AcDbLine
 10
310.7457309951603
 20
181.0160360664828
 30
0.0
 11
310.7457309951603
 21
184.7160360664827
 31
0.0
  0
LINE
  5
8E79
330
8E72
100
AcDbEntity
  8
contour
100
AcDbLine
 10
310.7457309951603
 20
184.7160360664827
 30
0.0
 11
303.7457309951603
 21
184.7160360664827
 31
0.0
  0
LINE
  5
8E7A
330
8E72
100
AcDbEntity
  8
contour
100
AcDbLine
 10
308.4457309951603
 20
196.7160360664827
 30
0.0
 11
306.0457309951603
 21
196.7160360664826
 31
0.0
  0
LINE
  5
8E7B
330
8E72
100
AcDbEntity
  8
contour
100
AcDbLine
 10
309.2457309951603
 20
195.9160360664826
 30
0.0
 11
308.4457309951603
 21
196.7160360664826
 31
0.0
  0
LINE
  5
8E7C
330
8E72
100
AcDbEntity
  8
contour
100
AcDbLine
 10
303.7457309951603
 20
184.7160360664827
 30
0.0
 11
303.7457309951603
 21
181.0160360664827
 31
0.0
  0
LINE
  5
8E7D
330
8E72
100
AcDbEntity
  8
contour
100
AcDbLine
 10
304.0457309951603
 20
180.7160360664827
 30
0.0
 11
310.4457309951603
 21
180.7160360664828
 31
0.0
  0
LINE
  5
8E7E
330
8E72
100
AcDbEntity
  8
contour
100
AcDbLine
 10
310.7457309951603
 20
181.0160360664828
 30
0.0
 11
310.4457309951603
 21
180.7160360664828
 31
0.0
  0
LINE
  5
8E7F
330
8E72
100
AcDbEntity
  8
contour
100
AcDbLine
 10
303.7457309951603
 20
181.0160360664827
 30
0.0
 11
304.0457309951603
 21
180.7160360664827
 31
0.0
  0
LINE
  5
8E80
330
8E72
100
AcDbEntity
  8
contour
100
AcDbLine
 10
309.2457309951603
 20
184.7160360664826
 30
0.0
 11
309.2457309951603
 21
195.9160360664827
 31
0.0
  0
LINE
  5
8E81
330
8E72
100
AcDbEntity
  8
contour
100
AcDbLine
 10
305.2457309951603
 20
184.7160360664826
 30
0.0
 11
305.2457309951603
 21
195.9160360664827
 31
0.0
  0
LINE
  5
8E82
330
8E72
100
AcDbEntity
  8
contour
100
AcDbLine
 10
306.0457309951603
 20
196.7160360664826
 30
0.0
 11
305.2457309951603
 21
195.9160360664826
 31
0.0
  0
LINE
  5
8E83
330
8E72
100
AcDbEntity
  8
contour
100
AcDbLine
 10
309.2457309951603
 20
195.9160360664827
 30
0.0
 11
305.2457309951603
 21
195.9160360664827
 31
0.0
  0
LINE
  5
8E84
330
8E72
100
AcDbEntity
  8
contour
 62
     4
100
AcDbLine
 10
308.8667309951603
 20
185.3724833225513
 30
0.0
 11
308.8667309951603
 21
196.2950360664826
 31
0.0
  0
LINE
  5
8E85
330
8E72
100
AcDbEntity
  8
contour
 62
     4
100
AcDbLine
 10
305.6247309951603
 20
185.3724833225513
 30
0.0
 11
305.6247309951603
 21
196.2950360664826
 31
0.0
  0
LINE
  5
8E86
330
8E72
100
AcDbEntity
  8
contour
100
AcDbLine
 10
310.7457309951603
 20
181.0160360664828
 30
0.0
 11
303.7457309951603
 21
181.0160360664828
 31
0.0
  0
LINE
  5
8E87
330
8E72
100
AcDbEntity
  8
bowle
 48
0.1
100
AcDbLine
 10
308.1117563989447
 20
180.7160360664827
 30
0.0
 11
308.1117563989447
 21
182.9160360664827
 31
0.0
  0
LINE
  5
8E88
330
8E72
100
AcDbEntity
  8
bowle
 48
0.1
100
AcDbLine
 10
308.9777818027293
 20
180.7160360664827
 30
0.0
 11
308.9777818027293
 21
182.9160360664827
 31
0.0
  0
LINE
  5
8E89
330
8E72
100
AcDbEntity
  8
bowle
 48
0.1
100
AcDbLine
 10
306.3797055913759
 20
180.7160360664827
 30
0.0
 11
306.3797055913759
 21
182.9160360664826
 31
0.0
  0
LINE
  5
8E8A
330
8E72
100
AcDbEntity
  8
bowle
 48
0.1
100
AcDbLine
 10
305.5136801875914
 20
180.7160360664827
 30
0.0
 11
305.5136801875914
 21
182.9160360664826
 31
0.0
  0
LINE
  5
8E8B
330
8E72
100
AcDbEntity
  8
bowle
 48
0.1
100
AcDbLine
 10
308.9777818027292
 20
182.9160360664827
 30
0.0
 11
305.5136801875914
 21
182.9160360664827
 31
0.0
  0
LINE
  5
8E8C
330
8E72
100
AcDbEntity
  8
bowle
 48
0.1
100
AcDbLine
 10
305.5136801875914
 20
182.9160360664826
 30
0.0
 11
307.2457309951603
 21
183.9160360664826
 31
0.0
  0
LINE
  5
8E8D
330
8E72
100
AcDbEntity
  8
bowle
 48
0.1
100
AcDbLine
 10
308.9777818027292
 20
182.9160360664826
 30
0.0
 11
307.2457309951603
 21
183.9160360664826
 31
0.0
  0
LINE
  5
8E8E
330
8E72
100
AcDbEntity
  8
contour
 62
     4
100
AcDbLine
 10
305.6247309951603
 20
185.3724833225513
 30
0.0
 11
305.2457309951603
 21
184.7160360664826
 31
0.0
  0
LINE
  5
8E8F
330
8E72
100
AcDbEntity
  8
contour
100
AcDbLine
 10
305.2457309951603
 20
185.3724833225513
 30
0.0
 11
309.2457309951603
 21
185.3724833225513
 31
0.0
  0
LINE
  5
8E90
330
8E72
100
AcDbEntity
  8
contour
 62
     4
100
AcDbLine
 10
309.2457309951603
 20
184.7160360664827
 30
0.0
 11
308.8667309951603
 21
185.3724833225513
 31
0.0
  0
ENDBLK
  5
8E77
330
8E72
100
AcDbEntity
  8
0
100
AcDbBlockEnd
  0
BLOCK
  5
9D19
330
9D15
100
AcDbEntity
  8
0
100
AcDbBlockBegin
  2
LS2
 70
     0
 10
0.0
 20
0.0
 30
0.0
  3
LS2
  1

  0
LINE
  5
9D1B
330
9D15
100
AcDbEntity
  8
contour
100
AcDbLine
 10
143.2797554375081
 20
0.0655328110734672
 30
0.0
 11
143.2797554375081
 21
3.765532811073398
 31
0.0
  0
LINE
  5
9D1C
330
9D15
100
AcDbEntity
  8
contour
100
AcDbLine
 10
143.2797554375081
 20
3.765532811073398
 30
0.0
 11
136.2797554375081
 21
3.765532811073398
 31
0.0
  0
LINE
  5
9D1D
330
9D15
100
AcDbEntity
  8
contour
100
AcDbLine
 10
140.979755437508
 20
19.7655328110734
 30
0.0
 11
138.5797554375081
 21
19.76553281107334
 31
0.0
  0
LINE
  5
9D1E
330
9D15
100
AcDbEntity
  8
contour
100
AcDbLine
 10
141.7797554375081
 20
18.96553281107333
 30
0.0
 11
140.9797554375081
 21
19.76553281107334
 31
0.0
  0
LINE
  5
9D1F
330
9D15
100
AcDbEntity
  8
contour
100
AcDbLine
 10
136.2797554375081
 20
3.765532811073398
 30
0.0
 11
136.2797554375081
 21
0.0655328110733535
 31
0.0
  0
LINE
  5
9D20
330
9D15
100
AcDbEntity
  8
contour
100
AcDbLine
 10
136.5797554375081
 20
-0.2344671889266578
 30
0.0
 11
142.9797554375081
 21
-0.2344671889265442
 31
0.0
  0
LINE
  5
9D21
330
9D15
100
AcDbEntity
  8
contour
100
AcDbLine
 10
143.2797554375081
 20
0.0655328110734672
 30
0.0
 11
142.9797554375081
 21
-0.2344671889265442
 31
0.0
  0
LINE
  5
9D22
330
9D15
100
AcDbEntity
  8
contour
100
AcDbLine
 10
136.2797554375081
 20
0.0655328110733535
 30
0.0
 11
136.5797554375081
 21
-0.2344671889266578
 31
0.0
  0
LINE
  5
9D23
330
9D15
100
AcDbEntity
  8
contour
100
AcDbLine
 10
141.7797554375081
 20
3.765532811073342
 30
0.0
 11
141.7797554375081
 21
18.96553281107339
 31
0.0
  0
LINE
  5
9D24
330
9D15
100
AcDbEntity
  8
contour
100
AcDbLine
 10
137.7797554375081
 20
3.765532811073342
 30
0.0
 11
137.7797554375081
 21
18.96553281107339
 31
0.0
  0
LINE
  5
9D25
330
9D15
100
AcDbEntity
  8
contour
100
AcDbLine
 10
138.5797554375081
 20
19.76553281107334
 30
0.0
 11
137.7797554375081
 21
18.96553281107333
 31
0.0
  0
LINE
  5
9D26
330
9D15
100
AcDbEntity
  8
contour
100
AcDbLine
 10
141.7797554375081
 20
18.96553281107339
 30
0.0
 11
137.7797554375081
 21
18.96553281107339
 31
0.0
  0
LINE
  5
9D27
330
9D15
100
AcDbEntity
  8
contour
 62
     4
100
AcDbLine
 10
141.400755437508
 20
4.42198006714193
 30
0.0
 11
141.4007554375081
 21
19.34453281107327
 31
0.0
  0
LINE
  5
9D28
330
9D15
100
AcDbEntity
  8
contour
 62
     4
100
AcDbLine
 10
138.1587554375081
 20
4.42198006714193
 30
0.0
 11
138.1587554375081
 21
19.34453281107336
 31
0.0
  0
LINE
  5
9D29
330
9D15
100
AcDbEntity
  8
contour
100
AcDbLine
 10
143.2797554375081
 20
0.0655328110734672
 30
0.0
 11
136.2797554375081
 21
0.0655328110735241
 31
0.0
  0
LINE
  5
9D2A
330
9D15
100
AcDbEntity
  8
bowle
 48
0.1
100
AcDbLine
 10
140.6457808412925
 20
-0.234467188926601
 30
0.0
 11
140.6457808412925
 21
1.965532811073387
 31
0.0
  0
LINE
  5
9D2B
330
9D15
100
AcDbEntity
  8
bowle
 48
0.1
100
AcDbLine
 10
141.511806245077
 20
-0.2344671889266578
 30
0.0
 11
141.511806245077
 21
1.965532811073387
 31
0.0
  0
LINE
  5
9D2C
330
9D15
100
AcDbEntity
  8
bowle
 48
0.1
100
AcDbLine
 10
138.9137300337237
 20
-0.234467188926601
 30
0.0
 11
138.9137300337237
 21
1.96553281107333
 31
0.0
  0
LINE
  5
9D2D
330
9D15
100
AcDbEntity
  8
bowle
 48
0.1
100
AcDbLine
 10
138.0477046299392
 20
-0.2344671889266578
 30
0.0
 11
138.0477046299391
 21
1.96553281107333
 31
0.0
  0
LINE
  5
9D2E
330
9D15
100
AcDbEntity
  8
bowle
 48
0.1
100
AcDbLine
 10
141.511806245077
 20
1.965532811073387
 30
0.0
 11
138.0477046299391
 21
1.965532811073387
 31
0.0
  0
LINE
  5
9D2F
330
9D15
100
AcDbEntity
  8
bowle
 48
0.1
100
AcDbLine
 10
138.0477046299391
 20
1.96553281107333
 30
0.0
 11
139.779755437508
 21
2.96553281107333
 31
0.0
  0
LINE
  5
9D30
330
9D15
100
AcDbEntity
  8
bowle
 48
0.1
100
AcDbLine
 10
141.511806245077
 20
1.96553281107333
 30
0.0
 11
139.779755437508
 21
2.96553281107333
 31
0.0
  0
LINE
  5
9D31
330
9D15
100
AcDbEntity
  8
contour
 62
     4
100
AcDbLine
 10
138.1587554375081
 20
4.421980067141987
 30
0.0
 11
137.7797554375081
 21
3.765532811073342
 31
0.0
  0
LINE
  5
9D32
330
9D15
100
AcDbEntity
  8
contour
100
AcDbLine
 10
137.7797554375081
 20
4.42198006714193
 30
0.0
 11
141.7797554375081
 21
4.42198006714193
 31
0.0
  0
LINE
  5
9D33
330
9D15
100
AcDbEntity
  8
contour
 62
     4
100
AcDbLine
 10
141.7797554375081
 20
3.765532811073398
 30
0.0
 11
141.400755437508
 21
4.42198006714193
 31
0.0
  0
ENDBLK
  5
9D1A
330
9D15
100
AcDbEntity
  8
0
100
AcDbBlockEnd
  0
BLOCK
  5
A119
330
A10F
100
AcDbEntity
  8
0
100
AcDbBlockBegin
  2
*D5
 70
     1
 10
0.0
 20
0.0
 30
0.0
  3
*D5
  1

  0
LINE
  5
A23B
330
A10F
100
AcDbEntity
  8
mark
370
    -2
100
AcDbLine
 10
121.1212121212122
 20
119.8012522021701
 30
0.0
 11
121.1212121212122
 21
128.8012522021702
 31
0.0
  0
LINE
  5
A23C
330
A10F
100
AcDbEntity
  8
mark
370
    -2
100
AcDbLine
 10
63.12121212121226
 20
119.8012522021701
 30
0.0
 11
63.12121212121226
 21
128.8012522021702
 31
0.0
  0
LINE
  5
A23D
330
A10F
100
AcDbEntity
  8
mark
370
    -2
100
AcDbLine
 10
118.6212121212122
 20
128.0012522021702
 30
0.0
 11
65.62121212121226
 21
128.0012522021702
 31
0.0
  0
INSERT
  5
A23E
330
A10F
100
AcDbEntity
  8
mark
370
    -2
100
AcDbBlockReference
  2
_Open30
 10
121.1212121212122
 20
128.0012522021702
 30
0.0
 41
2.5
 42
2.5
 43
2.5
  0
INSERT
  5
A23F
330
A10F
100
AcDbEntity
  8
mark
370
    -2
100
AcDbBlockReference
  2
_Open30
 10
63.12121212121226
 20
128.0012522021702
 30
0.0
 41
2.5
 42
2.5
 43
2.5
 50
180.0
  0
MTEXT
  5
A240
330
A10F
100
AcDbEntity
  8
mark
 62
     3
100
AcDbMText
 10
92.12121212121223
 20
130.0512522021702
 30
0.0
 40
2.5
 41
0.0
 71
     5
 72
     1
  1
\A1;%%c58
 73
     1
 44
1.0
  0
POINT
  5
A241
330
A10F
100
AcDbEntity
  8
DEFPOINTS
 62
     0
100
AcDbPoint
 10
121.1212121212122
 20
119.0012522021701
 30
0.0
  0
POINT
  5
A242
330
A10F
100
AcDbEntity
  8
DEFPOINTS
 62
     0
100
AcDbPoint
 10
63.12121212121226
 20
119.0012522021701
 30
0.0
  0
POINT
  5
A243
330
A10F
100
AcDbEntity
  8
DEFPOINTS
 62
     0
100
AcDbPoint
 10
63.12121212121226
 20
128.0012522021702
 30
0.0
  0
ENDBLK
  5
A11A
330
A10F
100
AcDbEntity
  8
0
100
AcDbBlockEnd
  0
BLOCK
  5
A14B
330
A141
100
AcDbEntity
  8
0
100
AcDbBlockBegin
  2
*D6
 70
     1
 10
0.0
 20
0.0
 30
0.0
  3
*D6
  1

  0
LINE
  5
A142
330
A141
100
AcDbEntity
  8
mark
370
    -2
100
AcDbLine
 10
63.32121212121227
 20
120.0012522021701
 30
0.0
 11
57.00406043601841
 21
120.0012522021701
 31
0.0
  0
LINE
  5
A143
330
A141
100
AcDbEntity
  8
mark
370
    -2
100
AcDbLine
 10
61.32121212121224
 20
113.0012522021701
 30
0.0
 11
57.00406043601841
 21
113.0012522021701
 31
0.0
  0
LINE
  5
A144
330
A141
100
AcDbEntity
  8
mark
370
    -2
100
AcDbLine
 10
57.8040604360184
 20
117.5012522021701
 30
0.0
 11
57.8040604360184
 21
115.5012522021701
 31
0.0
  0
INSERT
  5
A145
330
A141
100
AcDbEntity
  8
mark
370
    -2
100
AcDbBlockReference
  2
_Open30
 10
57.8040604360184
 20
120.0012522021701
 30
0.0
 41
2.5
 42
2.5
 43
2.5
 50
90.0
  0
INSERT
  5
A146
330
A141
100
AcDbEntity
  8
mark
370
    -2
100
AcDbBlockReference
  2
_Open30
 10
57.8040604360184
 20
113.0012522021701
 30
0.0
 41
2.5
 42
2.5
 43
2.5
 50
270.0
  0
MTEXT
  5
A147
330
A141
100
AcDbEntity
  8
mark
 62
     3
100
AcDbMText
 10
55.75406043601838
 20
116.5012522021702
 30
0.0
 40
2.5
 41
0.0
 71
     5
 72
     1
  1
\A1;7
 11
0.0000000000000001
 21
1.0
 31
0.0
 73
     1
 44
1.0
  0
POINT
  5
A148
330
A141
100
AcDbEntity
  8
DEFPOINTS
 62
     0
100
AcDbPoint
 10
64.12121212121227
 20
120.0012522021701
 30
0.0
  0
POINT
  5
A149
330
A141
100
AcDbEntity
  8
DEFPOINTS
 62
     0
100
AcDbPoint
 10
62.12121212121224
 20
113.0012522021701
 30
0.0
  0
POINT
  5
A14A
330
A141
100
AcDbEntity
  8
DEFPOINTS
 62
     0
100
AcDbPoint
 10
57.8040604360184
 20
113.0012522021701
 30
0.0
  0
ENDBLK
  5
A14C
330
A141
100
AcDbEntity
  8
0
100
AcDbBlockEnd
  0
BLOCK
  5
A158
330
A14E
100
AcDbEntity
  8
0
100
AcDbBlockBegin
  2
*D7
 70
     1
 10
0.0
 20
0.0
 30
0.0
  3
*D7
  1

  0
LINE
  5
A1B4
330
A14E
100
AcDbEntity
  8
mark
370
    -2
100
AcDbLine
 10
120.9212121212122
 20
120.0012522021701
 30
0.0
 11
129.7289367440396
 21
120.0012522021701
 31
0.0
  0
LINE
  5
A1B5
330
A14E
100
AcDbEntity
  8
mark
370
    -2
100
AcDbLine
 10
120.9212121212122
 20
105.1012522021702
 30
0.0
 11
129.7289367440396
 21
105.1012522021702
 31
0.0
  0
LINE
  5
A1B6
330
A14E
100
AcDbEntity
  8
mark
370
    -2
100
AcDbLine
 10
128.9289367440395
 20
117.5012522021701
 30
0.0
 11
128.9289367440395
 21
105.1012522021702
 31
0.0
  0
INSERT
  5
A1B7
330
A14E
100
AcDbEntity
  8
mark
370
    -2
100
AcDbBlockReference
  2
_Open30
 10
128.9289367440395
 20
120.0012522021701
 30
0.0
 41
2.5
 42
2.5
 43
2.5
 50
90.0
  0
INSERT
  5
A1B8
330
A14E
100
AcDbEntity
  8
mark
370
    -2
100
AcDbBlockReference
  2
_DotSmall
 10
128.9289367440395
 20
105.1012522021702
 30
0.0
 41
2.5
 42
2.5
 43
2.5
 50
270.0
  0
MTEXT
  5
A1B9
330
A14E
100
AcDbEntity
  8
mark
 62
     3
100
AcDbMText
 10
126.8789367440395
 20
111.3012522021702
 30
0.0
 40
2.5
 41
0.0
 71
     5
 72
     1
  1
\A1;14.9
 11
0.0000000000000001
 21
1.0
 31
0.0
 73
     1
 44
1.0
  0
POINT
  5
A1BA
330
A14E
100
AcDbEntity
  8
DEFPOINTS
 62
     0
100
AcDbPoint
 10
120.1212121212122
 20
120.0012522021701
 30
0.0
  0
POINT
  5
A1BB
330
A14E
100
AcDbEntity
  8
DEFPOINTS
 62
     0
100
AcDbPoint
 10
120.1212121212122
 20
105.1012522021702
 30
0.0
  0
POINT
  5
A1BC
330
A14E
100
AcDbEntity
  8
DEFPOINTS
 62
     0
100
AcDbPoint
 10
128.9289367440395
 20
105.1012522021702
 30
0.0
  0
ENDBLK
  5
A159
330
A14E
100
AcDbEntity
  8
0
100
AcDbBlockEnd
  0
BLOCK
  5
A188
330
A17E
100
AcDbEntity
  8
0
100
AcDbBlockBegin
  2
*D8
 70
     1
 10
0.0
 20
0.0
 30
0.0
  3
*D8
  1

  0
LINE
  5
A1CD
330
A17E
100
AcDbEntity
  8
mark
370
    -2
100
AcDbLine
 10
120.9212121212122
 20
120.0012522021701
 30
0.0
 11
137.3889101748993
 21
120.0012522021701
 31
0.0
  0
LINE
  5
A1CE
330
A17E
100
AcDbEntity
  8
mark
370
    -2
100
AcDbLine
 10
120.9212121212122
 20
98.00125220217017
 30
0.0
 11
137.3889101748993
 21
98.00125220217017
 31
0.0
  0
LINE
  5
A1CF
330
A17E
100
AcDbEntity
  8
mark
370
    -2
100
AcDbLine
 10
136.5889101748993
 20
117.5012522021701
 30
0.0
 11
136.5889101748993
 21
100.5012522021701
 31
0.0
  0
INSERT
  5
A1D0
330
A17E
100
AcDbEntity
  8
mark
370
    -2
100
AcDbBlockReference
  2
_Open30
 10
136.5889101748993
 20
120.0012522021701
 30
0.0
 41
2.5
 42
2.5
 43
2.5
 50
90.0
  0
INSERT
  5
A1D1
330
A17E
100
AcDbEntity
  8
mark
370
    -2
100
AcDbBlockReference
  2
_Open30
 10
136.5889101748993
 20
98.00125220217017
 30
0.0
 41
2.5
 42
2.5
 43
2.5
 50
270.0
  0
MTEXT
  5
A1D2
330
A17E
100
AcDbEntity
  8
mark
 62
     3
100
AcDbMText
 10
134.5389101748992
 20
109.0012522021702
 30
0.0
 40
2.5
 41
0.0
 71
     5
 72
     1
  1
\A1;22%%p0.2
 11
0.0000000000000001
 21
1.0
 31
0.0
 73
     1
 44
1.0
  0
POINT
  5
A1D3
330
A17E
100
AcDbEntity
  8
DEFPOINTS
 62
     0
100
AcDbPoint
 10
120.1212121212122
 20
120.0012522021701
 30
0.0
  0
POINT
  5
A1D4
330
A17E
100
AcDbEntity
  8
DEFPOINTS
 62
     0
100
AcDbPoint
 10
120.1212121212122
 20
98.00125220217017
 30
0.0
  0
POINT
  5
A1D5
330
A17E
100
AcDbEntity
  8
DEFPOINTS
 62
     0
100
AcDbPoint
 10
136.5889101748993
 20
98.00125220217017
 30
0.0
  0
ENDBLK
  5
A189
330
A17E
100
AcDbEntity
  8
0
100
AcDbBlockEnd
  0
BLOCK
  5
A18C
330
A18A
100
AcDbEntity
  8
0
100
AcDbBlockBegin
  2
_DotSmall
 70
     0
 10
0.0
 20
0.0
 30
0.0
  3
_DotSmall
  1

  0
LWPOLYLINE
  5
A18B
330
A18A
100
AcDbEntity
  8
0
  6
ByBlock
 62
     0
100
AcDbPolyline
 90
        2
 70
     1
 43
0.5
 10
-0.0625
 20
0.0
 42
1.0
 10
0.0625
 20
0.0
 42
1.0
  0
ENDBLK
  5
A18D
330
A18A
100
AcDbEntity
  8
0
100
AcDbBlockEnd
  0
BLOCK
  5
A1FF
330
A1F5
100
AcDbEntity
  8
0
100
AcDbBlockBegin
  2
*D10
 70
     1
 10
0.0
 20
0.0
 30
0.0
  3
*D10
  1

  0
LINE
  5
A1F6
330
A1F5
100
AcDbEntity
  8
mark
370
    -2
100
AcDbLine
 10
111.1212121212122
 20
97.88925220217016
 30
0.0
 11
111.1212121212122
 21
83.89743539648341
 31
0.0
  0
LINE
  5
A1F7
330
A1F5
100
AcDbEntity
  8
mark
370
    -2
100
AcDbLine
 10
73.12121212121224
 20
97.88925220217016
 30
0.0
 11
73.12121212121224
 21
83.89743539648341
 31
0.0
  0
LINE
  5
A1F8
330
A1F5
100
AcDbEntity
  8
mark
370
    -2
100
AcDbLine
 10
108.6212121212122
 20
84.69743539648339
 30
0.0
 11
75.62121212121224
 21
84.69743539648339
 31
0.0
  0
INSERT
  5
A1F9
330
A1F5
100
AcDbEntity
  8
mark
370
    -2
100
AcDbBlockReference
  2
_Open30
 10
111.1212121212122
 20
84.69743539648339
 30
0.0
 41
2.5
 42
2.5
 43
2.5
  0
INSERT
  5
A1FA
330
A1F5
100
AcDbEntity
  8
mark
370
    -2
100
AcDbBlockReference
  2
_Open30
 10
73.12121212121224
 20
84.69743539648339
 30
0.0
 41
2.5
 42
2.5
 43
2.5
 50
180.0
  0
MTEXT
  5
A1FB
330
A1F5
100
AcDbEntity
  8
mark
 62
     3
100
AcDbMText
 10
92.12121212121223
 20
86.74743539648339
 30
0.0
 40
2.5
 41
0.0
 71
     5
 72
     1
  1
\A1;M38X1.5P
 73
     1
 44
1.0
  0
POINT
  5
A1FC
330
A1F5
100
AcDbEntity
  8
DEFPOINTS
 62
     0
100
AcDbPoint
 10
111.1212121212122
 20
98.68925220217015
 30
0.0
  0
POINT
  5
A1FD
330
A1F5
100
AcDbEntity
  8
DEFPOINTS
 62
     0
100
AcDbPoint
 10
73.12121212121224
 20
98.68925220217015
 30
0.0
  0
POINT
  5
A1FE
330
A1F5
100
AcDbEntity
  8
DEFPOINTS
 62
     0
100
AcDbPoint
 10
73.12121212121224
 20
84.69743539648339
 30
0.0
  0
ENDBLK
  5
A200
330
A1F5
100
AcDbEntity
  8
0
100
AcDbBlockEnd
  0
BLOCK
  5
A24D
330
A246
100
AcDbEntity
  8
0
100
AcDbBlockBegin
  2
*D11
 70
     1
 10
0.0
 20
0.0
 30
0.0
  3
*D11
  1

  0
LINE
  5
A24F
330
A246
100
AcDbEntity
  8
mark
370
    -2
100
AcDbLine
 10
56.3901779802392
 20
91.27021806119733
 30
0.0
 11
61.64633838705928
 21
96.52637846801727
 31
0.0
  0
MTEXT
  5
A250
330
A246
100
AcDbEntity
  8
mark
 62
     3
100
AcDbMText
 10
56.68480580573365
 20
94.46398368955659
 30
0.0
 40
2.5
 41
0.0
 71
     5
 72
     1
  1
\A1;R1
 11
0.7071067811865584
 21
0.7071067811865368
 31
0.0
 73
     1
 44
1.0
  0
LINE
  5
A251
330
A246
100
AcDbEntity
  8
mark
370
    -2
100
AcDbLine
 10
64.12121212121227
 20
99.00125220217018
 30
0.0
 11
63.41410534002569
 21
98.29414542098362
 31
0.0
  0
INSERT
  5
A252
330
A246
100
AcDbEntity
  8
mark
370
    -2
100
AcDbBlockReference
  2
_Open30
 10
63.41410534002569
 20
98.29414542098362
 30
0.0
 41
2.5
 42
2.5
 43
2.5
 50
44.99999999999912
  0
POINT
  5
A253
330
A246
100
AcDbEntity
  8
DEFPOINTS
 62
     0
100
AcDbPoint
 10
63.41410534002569
 20
98.29414542098362
 30
0.0
  0
POINT
  5
A254
330
A246
100
AcDbEntity
  8
DEFPOINTS
 62
     0
100
AcDbPoint
 10
64.12121212121227
 20
99.00125220217018
 30
0.0
  0
ENDBLK
  5
A24E
330
A246
100
AcDbEntity
  8
0
100
AcDbBlockEnd
  0
BLOCK
  5
A317
330
A30E
100
AcDbEntity
  8
0
100
AcDbBlockBegin
  2
*D12
 70
     1
 10
0.0
 20
0.0
 30
0.0
  3
*D12
  1

  0
LINE
  5
A30F
330
A30E
100
AcDbEntity
  8
mark
370
    -2
100
AcDbLine
 10
139.3617202613862
 20
196.1454650499732
 30
0.0
 11
117.6038676584549
 21
191.7389859019459
 31
0.0
  0
LINE
  5
A310
330
A30E
100
AcDbEntity
  8
mark
370
    -2
100
AcDbLine
 10
66.63855658396953
 20
181.4173064319696
 30
0.0
 11
64.18830124385005
 21
180.9210718420669
 31
0.0
  0
MTEXT
  5
A311
330
A30E
100
AcDbEntity
  8
mark
 62
     3
100
AcDbMText
 10
130.4115842784494
 20
196.4244698254104
 30
0.0
 40
2.5
 41
0.0
 71
     5
 72
     1
  1
\A1;P.C.D 47
 11
0.9801021360477973
 21
0.1984938359610824
 31
0.0
 73
     1
 44
1.0
  0
LINE
  5
A312
330
A30E
100
AcDbEntity
  8
mark
370
    -2
100
AcDbLine
 10
69.08881192408903
 20
181.9135410218723
 30
0.0
 11
115.1536123183354
 21
191.2427513120432
 31
0.0
  0
INSERT
  5
A313
330
A30E
100
AcDbEntity
  8
mark
370
    -2
100
AcDbBlockReference
  2
_Open30
 10
69.08881192408903
 20
181.9135410218723
 30
0.0
 41
2.5
 42
2.5
 43
2.5
 50
11.44889646605349
  0
INSERT
  5
A314
330
A30E
100
AcDbEntity
  8
mark
370
    -2
100
AcDbBlockReference
  2
_Open30
 10
115.1536123183354
 20
191.2427513120432
 30
0.0
 41
2.5
 42
2.5
 43
2.5
 50
191.4488964660534
  0
POINT
  5
A315
330
A30E
100
AcDbEntity
  8
DEFPOINTS
 62
     0
100
AcDbPoint
 10
115.1536123183354
 20
191.2427513120432
 30
0.0
  0
POINT
  5
A316
330
A30E
100
AcDbEntity
  8
DEFPOINTS
 62
     0
100
AcDbPoint
 10
69.08881192408903
 20
181.9135410218723
 30
0.0
  0
ENDBLK
  5
A318
330
A30E
100
AcDbEntity
  8
0
100
AcDbBlockEnd
  0
BLOCK
  5
A328
330
A31F
100
AcDbEntity
  8
0
100
AcDbBlockBegin
  2
*D13
 70
     1
 10
0.0
 20
0.0
 30
0.0
  3
*D13
  1

  0
LINE
  5
A320
330
A31F
100
AcDbEntity
  8
mark
370
    -2
100
AcDbLine
 10
42.67088053140603
 20
199.1560041066575
 30
0.0
 11
66.19667264308127
 21
193.1721398617399
 31
0.0
  0
LINE
  5
A321
330
A31F
100
AcDbEntity
  8
mark
370
    -2
100
AcDbLine
 10
118.0457515993432
 20
179.9841524721756
 30
0.0
 11
120.4686057561779
 21
179.3678913792053
 31
0.0
  0
MTEXT
  5
A322
330
A31F
100
AcDbEntity
  8
mark
 62
     3
100
AcDbMText
 10
53.23913555902835
 20
198.583206775792
 30
0.0
 40
2.5
 41
0.0
 71
     5
 72
     1
  1
\A1;P.C.D 48.5
 11
0.9691416627338693
 21
-0.2465044371881182
 31
0.0
 73
     1
 44
1.0
  0
LINE
  5
A323
330
A31F
100
AcDbEntity
  8
mark
370
    -2
100
AcDbLine
 10
115.6228974425085
 20
180.6004135651459
 30
0.0
 11
68.61952679991595
 21
192.5558787687696
 31
0.0
  0
INSERT
  5
A324
330
A31F
100
AcDbEntity
  8
mark
370
    -2
100
AcDbBlockReference
  2
_Open30
 10
115.6228974425085
 20
180.6004135651459
 30
0.0
 41
2.5
 42
2.5
 43
2.5
 50
165.729241268284
  0
INSERT
  5
A325
330
A31F
100
AcDbEntity
  8
mark
370
    -2
100
AcDbBlockReference
  2
_Open30
 10
68.61952679991595
 20
192.5558787687696
 30
0.0
 41
2.5
 42
2.5
 43
2.5
 50
345.729241268284
  0
POINT
  5
A326
330
A31F
100
AcDbEntity
  8
DEFPOINTS
 62
     0
100
AcDbPoint
 10
68.61952679991595
 20
192.5558787687696
 30
0.0
  0
POINT
  5
A327
330
A31F
100
AcDbEntity
  8
DEFPOINTS
 62
     0
100
AcDbPoint
 10
115.6228974425085
 20
180.6004135651459
 30
0.0
  0
ENDBLK
  5
A329
330
A31F
100
AcDbEntity
  8
0
100
AcDbBlockEnd
  0
ENDSEC
  0
SECTION
  2
ENTITIES
  0
MTEXT
  5
C0
330
18
100
AcDbEntity
  8
0
100
AcDbMText
 10
41.26970765600413
 20
233.6950877649332
 30
0.0
 40
2.5
 41
0.0
 71
     1
 72
     5
  1

  7
ISOCP3
 73
     1
 44
1.0
  0
LWPOLYLINE
  5
7D6C
330
18
100
AcDbEntity
  8
frame
100
AcDbPolyline
 90
        4
 70
     1
 43
0.0
 10
190.0
 20
280.0
 10
0.0
 20
280.0
 10
0.0
 20
0.0
 10
190.0
 20
0.0
  0
MTEXT
  5
7D6D
330
18
100
AcDbEntity
  8
0
100
AcDbMText
 10
17.09950368689175
 20
19.07605901616614
 30
0.0
 40
4.5
 41
0.0
 71
     1
 72
     5
  1
{\Ftxt,bigfont|c128;林彦旭}
  7
JL
 73
     1
 44
1.0
1001
ACAD
1000
ACAD_MTEXT_DEFINED_HEIGHT_BEGIN
1070
    46
1040
0.0
1000
ACAD_MTEXT_DEFINED_HEIGHT_END
  0
MTEXT
  5
7D6E
330
18
100
AcDbEntity
  8
0
100
AcDbMText
 10
77.95294729228851
 20
28.93578979870677
 30
0.0
 40
4.5
 41
0.0
 71
     1
 72
     5
  1
{\Ftxt,bigfont|c128;2 : 1}
  7
JL
 73
     1
 44
1.0
1001
ACAD
1000
ACAD_MTEXT_DEFINED_HEIGHT_BEGIN
1070
    46
1040
0.0
1000
ACAD_MTEXT_DEFINED_HEIGHT_END
  0
MTEXT
  5
7D6F
330
18
100
AcDbEntity
  8
0
 48
2.0
370
    25
100
AcDbMText
 10
140.2194500465656
 20
3.490021654633892
 30
0.0
 40
4.5
 41
0.0
 71
     5
 72
     1
  1
{\Ftxt,bigfont|c128;N L 4 0 2 7 3}
 73
     1
 44
1.0
1001
ACAD
1000
ACAD_MTEXT_DEFINED_HEIGHT_BEGIN
1070
    46
1040
0.0
1000
ACAD_MTEXT_DEFINED_HEIGHT_END
  0
MTEXT
  5
7D70
330
18
100
AcDbEntity
  8
0
 48
2.0
100
AcDbMText
 10
169.738815357387
 20
21.76437127823692
 30
0.0
 40
4.318181818181822
 41
0.0
 71
     5
 72
     1
  1
\P{\Ftxt,bigfont|c128;MKR38X1.5P}
 73
     1
 44
1.0
1001
ACAD
1000
ACAD_MTEXT_DEFINED_HEIGHT_BEGIN
1070
    46
1040
0.0
1000
ACAD_MTEXT_DEFINED_HEIGHT_END
  0
MTEXT
  5
7D71
330
18
100
AcDbEntity
  8
0
100
AcDbMText
 10
15.3760677136774
 20
28.37740359834709
 30
0.0
 40
4.5
 41
0.0
 71
     1
 72
     5
  1
{\Ftxt,bigfont|c128;07.09.04}
  7
JL
 73
     1
 44
1.0
1001
ACAD
1000
ACAD_MTEXT_DEFINED_HEIGHT_BEGIN
1070
    46
1040
0.0
1000
ACAD_MTEXT_DEFINED_HEIGHT_END
  0
LINE
  5
7D72
330
18
100
AcDbEntity
  8
0
 62
     7
 48
5.0
100
AcDbLine
 39
3.838383838383842
 10
47.92942413992534
 20
27.65712907016086
 30
0.0
 11
53.04580144287854
 21
28.93622339589922
 31
0.0
  0
MTEXT
  5
7D73
330
18
100
AcDbEntity
  8
0
100
AcDbMText
 10
14.91235548326415
 20
9.242195050049303
 30
0.0
 40
6.0
 41
0.0
 71
     1
 72
     5
  1
\Ftxt.shx,bigfont.shx|c128;日機株式会社
  7
LKK
 73
     1
 44
1.0
  0
LINE
  5
7D74
330
18
100
AcDbEntity
  8
frame
100
AcDbLine
 10
0.0
 20
12.0
 30
0.0
 11
190.0
 21
12.00000000000005
 31
0.0
  0
LINE
  5
7D75
330
18
100
AcDbEntity
  8
frame
100
AcDbLine
 10
0.0
 20
22.0
 30
0.0
 11
92.12121212121223
 21
22.0
 31
0.0
  0
LINE
  5
7D76
330
18
100
AcDbEntity
  8
frame
100
AcDbLine
 10
0.0
 20
32.0
 30
0.0
 11
190.0
 21
32.0
 31
0.0
  0
LINE
  5
7D77
330
18
100
AcDbEntity
  8
frame
100
AcDbLine
 10
12.19077332493799
 20
32.0
 30
0.0
 11
12.19077332493799
 21
12.0
 31
0.0
  0
LINE
  5
7D78
330
18
100
AcDbEntity
  8
frame
100
AcDbLine
 10
30.70707070707067
 20
32.0
 30
0.0
 11
30.70707070707078
 21
12.0
 31
0.0
  0
MTEXT
  5
7D79
330
18
100
AcDbEntity
  8
0
100
AcDbMText
 10
2.830274784221955
 20
29.08190089582831
 30
0.0
 40
4.5
 41
0.0
 71
     1
 72
     5
  1
\Ftxt.shx,bigfont.shx|c128;日 付
  7
JL
 73
     1
 44
1.0
  0
MTEXT
  5
7D7A
330
18
100
AcDbEntity
  8
0
100
AcDbMText
 10
2.97063307743889
 20
19.52163842926637
 30
0.0
 40
4.5
 41
0.0
 71
     1
 72
     5
  1
\Ftxt.shx,bigfont.shx|c128;製 図
  7
JL
 73
     1
 44
1.0
  0
LINE
  5
7D7B
330
18
100
AcDbEntity
  8
0
 62
     7
370
    25
100
AcDbLine
 10
53.04580144287854
 20
23.81984609294597
 30
0.0
 11
53.04580144287854
 21
28.93622339589922
 31
0.0
  0
MTEXT
  5
7D7C
330
18
100
AcDbEntity
  8
0
100
AcDbMText
 10
64.00748852490835
 20
29.12242703792379
 30
0.0
 40
4.5
 41
0.0
 71
     1
 72
     5
  1
\Ftxt.shx,bigfont.shx|c128;尺 度
  7
JL
 73
     1
 44
1.0
  0
LINE
  5
7D7D
330
18
100
AcDbEntity
  8
frame
100
AcDbLine
 10
61.41414141414145
 20
32.0
 30
0.0
 11
61.41414141414145
 21
12.0
 31
0.0
  0
LINE
  5
7D7E
330
18
100
AcDbEntity
  8
0
 62
     7
370
    25
100
AcDbLine
 10
39.6153110226262
 20
23.18889018332635
 30
0.0
 11
39.6153110226262
 21
29.36457992429672
 31
0.0
  0
CIRCLE
  5
7D7F
330
18
100
AcDbEntity
  8
0
 62
     7
100
AcDbCircle
 10
39.6153110226262
 20
26.37803474442251
 30
0.0
 40
2.558188651476678
  0
LINE
  5
7D80
330
18
100
AcDbEntity
  8
0
 62
     7
370
    25
100
AcDbLine
 10
47.19321986919976
 20
26.37803474442262
 30
0.0
 11
53.50512581624241
 21
26.37803474442262
 31
0.0
  0
LINE
  5
7D81
330
18
100
AcDbEntity
  8
0
 62
     7
100
AcDbLine
 10
47.92942413992534
 20
25.09894041868427
 30
0.0
 11
53.04580144287854
 21
23.81984609294597
 31
0.0
  0
LINE
  5
7D82
330
18
100
AcDbEntity
  8
frame
100
AcDbLine
 10
42.742241959951
 20
22.0
 30
0.0
 11
42.742241959951
 21
12.0
 31
0.0
  0
LINE
  5
7D83
330
18
100
AcDbEntity
  8
0
 62
     7
370
    25
100
AcDbLine
 10
36.41832228486612
 20
26.37803474442251
 30
0.0
 11
43.00325267619268
 21
26.37803474442262
 31
0.0
  0
CIRCLE
  5
7D84
330
18
100
AcDbEntity
  8
0
 62
     7
100
AcDbCircle
 10
39.6153110226262
 20
26.37803474442251
 30
0.0
 40
1.279094325738339
  0
MTEXT
  5
7D85
330
18
100
AcDbEntity
  8
0
100
AcDbMText
 10
33.70184032462407
 20
19.41013815785266
 30
0.0
 40
4.5
 41
0.0
 71
     1
 72
     5
  1
\Ftxt.shx,bigfont.shx|c128;検 図
  7
JL
 73
     1
 44
1.0
  0
LINE
  5
7D86
330
18
100
AcDbEntity
  8
0
 62
     7
370
    25
100
AcDbLine
 10
47.92942413992534
 20
25.09894041868427
 30
0.0
 11
47.92942413992534
 21
27.65712907016086
 31
0.0
  0
MTEXT
  5
7D87
330
18
100
AcDbEntity
  8
0
100
AcDbMText
 10
64.28820249919829
 20
19.32058534748881
 30
0.0
 40
4.5
 41
0.0
 71
     1
 72
     5
  1
\Ftxt.shx,bigfont.shx|c128;承 認
  7
JL
 73
     1
 44
1.0
  0
MTEXT
  5
7D88
330
18
100
AcDbEntity
  8
0
100
AcDbMText
 10
93.71128715606699
 20
10.7026821961914
 30
0.0
 40
4.5
 41
0.0
 71
     1
 72
     5
  1
\Ftxt.shx,bigfont.shx|c128;図  面  番  号
  7
JL
 73
     1
 44
1.0
  0
MTEXT
  5
7D89
330
18
100
AcDbEntity
  8
0
 48
2.0
100
AcDbMText
 10
116.9038190021384
 20
21.8757473149584
 30
0.0
 40
4.5
 41
0.0
 71
     5
 72
     1
  1
\P\Ftxt.shx,bigfont.shx|c128;    精密ロックナット
 73
     1
 44
1.0
  0
MTEXT
  5
7D8A
330
18
100
AcDbEntity
  8
0
100
AcDbMText
 10
94.8083613031232
 20
29.03862457973275
 30
0.0
 40
4.5
 41
0.0
 71
     1
 72
     5
  1
\Ftxt.shx,bigfont.shx|c128;品  名
  7
JL
 73
     1
 44
1.0
  0
LINE
  5
7D8B
330
18
100
AcDbEntity
  8
frame
100
AcDbLine
 10
92.12121212121223
 20
32.0
 30
0.0
 11
92.12121212121223
 21
0.1833227579584786
 31
0.0
  0
LINE
  5
7D8C
330
18
100
AcDbEntity
  8
frame
100
AcDbLine
 10
73.41414141414145
 20
32.0
 30
0.0
 11
73.41414141414145
 21
12.0
 31
0.0
  0
LINE
  5
7D8D
330
18
100
AcDbEntity
  8
frame
100
AcDbLine
 10
147.0327092740656
 20
32.0
 30
0.0
 11
147.0327092740657
 21
12.0
 31
0.0
  0
MTEXT
  5
7D8E
330
18
100
AcDbEntity
  8
0
100
AcDbMText
 10
150.895959446773
 20
29.04517782830391
 30
0.0
 40
4.5
 41
0.0
 71
     1
 72
     5
  1
\Ftxt.shx,bigfont.shx|c128;型  番
  7
JL
 73
     1
 44
1.0
  0
MTEXT
  5
7D8F
330
18
100
AcDbEntity
  8
0
100
AcDbMText
 10
165.8059614810325
 20
10.78298174971564
 30
0.0
 40
4.5
 41
0.0
 71
     1
 72
     5
  1
\Ftxt.shx,bigfont.shx|c128;変更
  7
JL
 73
     1
 44
1.0
  0
LINE
  5
7D90
330
18
100
AcDbEntity
  8
frame
100
AcDbLine
 10
164.0909090909092
 20
12.00000000000005
 30
0.0
 11
164.0909090909093
 21
0.0
 31
0.0
  0
LINE
  5
7D91
330
18
100
AcDbEntity
  8
frame
100
AcDbLine
 10
124.6157900786393
 20
43.13491348924492
 30
0.0
 11
184.6157900786393
 21
43.13491348924481
 31
0.0
  0
LINE
  5
7D92
330
18
100
AcDbEntity
  8
frame
100
AcDbLine
 10
124.6157900786393
 20
50.33491348924497
 30
0.0
 11
184.6157900786393
 21
50.33491348924497
 31
0.0
  0
LINE
  5
7D93
330
18
100
AcDbEntity
  8
frame
100
AcDbLine
 10
124.6157900786393
 20
57.5349134892449
 30
0.0
 11
184.6157900786393
 21
57.53491348924478
 31
0.0
  0
LINE
  5
7D94
330
18
100
AcDbEntity
  8
frame
100
AcDbLine
 10
124.6157900786393
 20
64.73491348924494
 30
0.0
 11
184.6157900786393
 21
64.73491348924483
 31
0.0
  0
LINE
  5
7D95
330
18
100
AcDbEntity
  8
frame
100
AcDbLine
 10
124.6157900786393
 20
35.93491348924488
 30
0.0
 11
184.6157900786393
 21
35.93491348924488
 31
0.0
  0
MTEXT
  5
7D96
330
18
100
AcDbEntity
  8
0
 62
     7
 48
2.0
100
AcDbMText
 10
154.5011900445106
 20
65.52808189982909
 30
0.0
 40
4.8
 41
0.0
 71
     5
 72
     1
  1
\P\Ftxt.shx,bigfont.shx|c128;諸　　　　元
 73
     1
 44
1.0
  0
LINE
  5
7D97
330
18
100
AcDbEntity
  8
frame
100
AcDbLine
 10
124.6157900786393
 20
64.73491348924483
 30
0.0
 11
124.6157900786393
 21
35.93491348924488
 31
0.0
  0
MTEXT
  5
7D98
330
18
100
AcDbEntity
  8
0
100
AcDbMText
 10
128.1382258923195
 20
56.00840432212407
 30
0.0
 40
4.4
 41
163.916286842249
 71
     1
 72
     5
  1
\Ftxt.shx,bigfont.shx|c128;熱　処　理
  7
JL
 73
     1
 44
1.0
  0
LINE
  5
7D99
330
18
100
AcDbEntity
  8
frame
100
AcDbLine
 10
148.6157900786393
 20
57.53491348924478
 30
0.0
 11
148.6157900786393
 21
35.93491348924488
 31
0.0
  0
MTEXT
  5
7D9A
330
18
100
AcDbEntity
  8
0
100
AcDbMText
 10
127.8579515249403
 20
49.00617587486397
 30
0.0
 40
4.4
 41
163.6058628849672
 71
     1
 72
     5
  1
\Ftxt.shx,bigfont.shx|c128;表 面 処 理
  7
JL
 73
     1
 44
1.0
  0
MTEXT
  5
7D9B
330
18
100
AcDbEntity
  8
0
100
AcDbMText
 10
128.1480173733753
 20
41.71770302125605
 30
0.0
 40
4.4
 41
166.1718
 71
     1
 72
     5
  1
\Ftxt.shx,bigfont.shx|c128;等     　級
  7
JL
 73
     1
 44
1.0
  0
LINE
  5
7D9C
330
18
100
AcDbEntity
  8
frame
100
AcDbLine
 10
184.6157900786393
 20
64.73491348924483
 30
0.0
 11
184.6157900786393
 21
35.93491348924499
 31
0.0
  0
MTEXT
  5
7D9D
330
18
100
AcDbEntity
  8
0
100
AcDbMText
 10
153.3627933880818
 20
55.83344641471445
 30
0.0
 40
4.4
 41
291.8960056857887
 71
     1
 72
     5
  1
\Ftxt.shx,bigfont.shx|c128;調質　HRC30%%d%%p２%%d
  7
JL
 73
     1
 44
1.0
  0
MTEXT
  5
7D9E
330
18
100
AcDbEntity
  8
0
100
AcDbMText
 10
153.6234323895182
 20
41.7183135927072
 30
0.0
 40
4.4
 41
290.783364796891
 71
     1
 72
     5
  1
\Ftxt.shx,bigfont.shx|c128;ＩＳＯ - ４Ｈ
  7
JL
 73
     1
 44
1.0
  0
MTEXT
  5
7D9F
330
18
100
AcDbEntity
  8
0
100
AcDbMText
 10
153.7978935876485
 20
48.65328293790913
 30
0.0
 40
4.4
 41
291.4548
 71
     1
 72
     5
  1
\Ftxt.shx,bigfont.shx|c128;黒  　    染
  7
JL
 73
     1
 44
1.0
  0
MTEXT
  5
7DA0
330
18
100
AcDbEntity
  8
0
100
AcDbMText
 10
57.63639061334425
 20
260.9000583279474
 30
0.0
 40
5.0
 41
0.0
 71
     1
 72
     5
  1
{\Ftxt,bigfont|c128;M4X0.7P-16L}
  7
JL
 73
     1
 44
1.0
1001
ACAD
1000
ACAD_MTEXT_DEFINED_HEIGHT_BEGIN
1070
    46
1040
0.0
1000
ACAD_MTEXT_DEFINED_HEIGHT_END
  0
LINE
  5
7DA2
330
18
100
AcDbEntity
  8
frame
100
AcDbLine
 10
0.0
 20
254.0
 30
0.0
 11
190.0
 21
254.0
 31
0.0
  0
LINE
  5
7DA3
330
18
100
AcDbEntity
  8
frame
100
AcDbLine
 10
0.0
 20
262.0
 30
0.0
 11
190.0
 21
262.0
 31
0.0
  0
LINE
  5
7DA4
330
18
100
AcDbEntity
  8
frame
 62
     9
100
AcDbLine
 10
0.0
 20
270.0
 30
0.0
 11
190.0
 21
270.0
 31
0.0
  0
MTEXT
  5
7DA5
330
18
100
AcDbEntity
  8
0
100
AcDbMText
 10
57.0156439060371
 20
277.4240560049041
 30
0.0
 40
5.0
 41
0.0
 71
     1
 72
     5
  1
\Ftxt.shx,bigfont.shx|c128;図    番 / 規　　格
  7
JL
 73
     1
 44
1.0
  0
LINE
  5
7DA6
330
18
100
AcDbEntity
  8
frame
100
AcDbLine
 10
0.0
 20
254.0
 30
0.0
 11
190.0
 21
254.0
 31
0.0
  0
MTEXT
  5
7DA8
330
18
100
AcDbEntity
  8
0
100
AcDbMText
 10
21.12488048923433
 20
277.4637981386743
 30
0.0
 40
5.0
 41
0.0
 71
     1
 72
     5
  1
\Ftxt.shx,bigfont.shx|c128;品　          名
  7
JL
 73
     1
 44
1.0
  0
MTEXT
  5
7DA9
330
18
100
AcDbEntity
  8
0
100
AcDbMText
 10
18.10281387110132
 20
260.7907237289111
 30
0.0
 40
5.0
 41
0.0
 71
     1
 72
     5
  1
\Ftxt.shx,bigfont.shx|c128;セットスクリュ-
  7
JL
 73
     1
 44
1.0
  0
MTEXT
  5
7DAA
330
18
100
AcDbEntity
  8
0
100
AcDbMText
 10
17.91509480863158
 20
268.8361230282964
 30
0.0
 40
5.0
 41
0.0
 71
     1
 72
     5
  1
\Ftxt.shx,bigfont.shx|c128;ロックナット　  
  7
JL
 73
     1
 44
1.0
  0
LINE
  5
7DAC
330
18
100
AcDbEntity
  8
frame
 62
     9
100
AcDbLine
 10
14.39393939393937
 20
279.9999999999999
 30
0.0
 11
14.39393939393964
 21
254.0
 31
0.0
  0
LINE
  5
7DAD
330
18
100
AcDbEntity
  8
frame
 62
     9
100
AcDbLine
 10
14.39393939393937
 20
279.9999999999999
 30
0.0
 11
14.39393939393937
 21
255.0505050505051
 31
0.0
  0
MTEXT
  5
7DAE
330
18
100
AcDbEntity
  8
0
100
AcDbMText
 10
6.815009268013795
 20
268.7281674434121
 30
0.0
 40
5.0
 41
0.0
 71
     1
 72
     5
  1
\Ftxt.shx,bigfont.shx|c128;1
  7
JL
 73
     1
 44
1.0
  0
MTEXT
  5
7DAF
330
18
100
AcDbEntity
  8
0
100
AcDbMText
 10
2.119828072980226
 20
277.4734782639491
 30
0.0
 40
5.0
 41
0.0
 71
     1
 72
     5
  1
\Ftxt.shx,bigfont.shx|c128;照   号
  7
JL
 73
     1
 44
1.0
  0
LINE
  5
7DB0
330
18
100
AcDbEntity
  8
frame
 62
     9
100
AcDbLine
 10
52.77777777777783
 20
279.9999999999999
 30
0.0
 11
52.77777777777784
 21
254.0
 31
0.0
  0
MTEXT
  5
7DB1
330
18
100
AcDbEntity
  8
0
100
AcDbMText
 10
145.5736374372851
 20
277.6781663894194
 30
0.0
 40
5.0
 41
0.0
 71
     1
 72
     5
  1
\Ftxt.shx,bigfont.shx|c128;備           考
  7
JL
 73
     1
 44
1.0
  0
LINE
  5
7DB2
330
18
100
AcDbEntity
  8
frame
 62
     9
100
AcDbLine
 10
91.16161616161617
 20
280.0
 30
0.0
 11
91.16161616161617
 21
254.0
 31
0.0
  0
MTEXT
  5
7DB4
330
18
100
AcDbEntity
  8
0
100
AcDbMText
 10
92.87341089179369
 20
268.8361230282964
 30
0.0
 40
5.0
 41
0.0
 71
     1
 72
     5
  1
\Ftxt.shx,bigfont.shx|c128;SCM-440
  7
JL
 73
     1
 44
1.0
  0
MTEXT
  5
7DB5
330
18
100
AcDbEntity
  8
0
100
AcDbMText
 10
92.87341089179369
 20
260.765002012584
 30
0.0
 40
5.0
 41
0.0
 71
     1
 72
     5
  1
\Ftxt.shx,bigfont.shx|c128;SCM435
  7
JL
 73
     1
 44
1.0
  0
MTEXT
  5
7DB6
330
18
100
AcDbEntity
  8
0
100
AcDbMText
 10
95.76798863104192
 20
277.5645499482919
 30
0.0
 40
5.0
 41
0.0
 71
     1
 72
     5
  1
\Ftxt.shx,bigfont.shx|c128;材　質
  7
JL
 73
     1
 44
1.0
  0
LINE
  5
7DB7
330
18
100
AcDbEntity
  8
frame
 62
     9
100
AcDbLine
 10
110.3535353535354
 20
280.0
 30
0.0
 11
110.3535353535354
 21
254.0
 31
0.0
  0
LINE
  5
7DB8
330
18
100
AcDbEntity
  8
frame
100
AcDbLine
 10
124.7474747474747
 20
280.0
 30
0.0
 11
124.7474747474748
 21
254.0
 31
0.0
  0
MTEXT
  5
7DBA
330
18
100
AcDbEntity
  8
0
100
AcDbMText
 10
117.1685446215491
 20
269.0412711679932
 30
0.0
 40
5.0
 41
0.0
 71
     1
 72
     5
  1
\Ftxt.shx,bigfont.shx|c128;1
  7
JL
 73
     1
 44
1.0
  0
MTEXT
  5
7DBB
330
18
100
AcDbEntity
  8
0
100
AcDbMText
 10
116.5939070266884
 20
260.5092290150679
 30
0.0
 40
5.0
 41
0.0
 71
     1
 72
     5
  1
{\Ftxt,bigfont|c128;4}
  7
JL
 73
     1
 44
1.0
1001
ACAD
1000
ACAD_MTEXT_DEFINED_HEIGHT_BEGIN
1070
    46
1040
0.0
1000
ACAD_MTEXT_DEFINED_HEIGHT_END
  0
MTEXT
  5
7DBC
330
18
100
AcDbEntity
  8
0
100
AcDbMText
 10
112.4223895919262
 20
277.5645499482919
 30
0.0
 40
5.0
 41
0.0
 71
     1
 72
     5
  1
\Ftxt.shx,bigfont.shx|c128;数   量
  7
JL
 73
     1
 44
1.0
  0
MTEXT
  5
7DBD
330
18
100
AcDbEntity
  8
0
100
AcDbMText
 10
6.404019699055993
 20
260.7281674434121
 30
0.0
 40
5.0
 41
0.0
 71
     1
 72
     5
  1
{\Ftxt,bigfont|c128;2}
  7
JL
 73
     1
 44
1.0
1001
ACAD
1000
ACAD_MTEXT_DEFINED_HEIGHT_BEGIN
1070
    46
1040
0.0
1000
ACAD_MTEXT_DEFINED_HEIGHT_END
  0
LINE
  5
9D54
102
{ACAD_REACTORS
330
A30C
102
}
330
18
100
AcDbEntity
  8
contour
100
AcDbLine
 10
120.1212121212122
 20
120.0012522021701
 30
0.0
 11
64.12121212121227
 21
120.0012522021701
 31
0.0
  0
ARC
  5
9D55
102
{ACAD_REACTORS
330
A30C
102
}
330
18
100
AcDbEntity
  8
contour
100
AcDbCircle
 10
120.1212121212122
 20
119.0012522021701
 30
0.0
 40
0.9999999999999998
100
AcDbArc
 50
0.0
 51
90.0
  0
LINE
  5
9D56
330
18
100
AcDbEntity
  8
center
 48
0.1
100
AcDbLine
 10
70.12121212121224
 20
113.0012522021701
 30
0.0
 11
62.12121212121224
 21
113.0012522021701
 31
0.0
  0
LINE
  5
9D57
102
{ACAD_REACTORS
330
A30C
102
}
330
18
100
AcDbEntity
  8
contour
100
AcDbLine
 10
63.12121212121226
 20
119.0012522021701
 30
0.0
 11
63.12121212121226
 21
106.1012522021701
 31
0.0
  0
ARC
  5
9D58
102
{ACAD_REACTORS
330
A30C
102
}
330
18
100
AcDbEntity
  8
contour
100
AcDbCircle
 10
64.12121212121227
 20
119.0012522021701
 30
0.0
 40
0.9999999999999998
100
AcDbArc
 50
90.0
 51
180.0
  0
LINE
  5
9D59
102
{ACAD_REACTORS
330
A30C
102
}
330
18
100
AcDbEntity
  8
contour
100
AcDbLine
 10
63.12121212121226
 20
102.1012522021701
 30
0.0
 11
63.12121212121224
 21
99.00125220217018
 31
0.0
  0
ARC
  5
9D5A
102
{ACAD_REACTORS
330
A30C
102
}
330
18
100
AcDbEntity
  8
contour
100
AcDbCircle
 10
64.12121212121227
 20
102.1012522021701
 30
0.0
 40
0.9999999999999998
100
AcDbArc
 50
90.0
 51
180.0
  0
LINE
  5
9D5B
102
{ACAD_REACTORS
330
A30C
102
}
330
18
100
AcDbEntity
  8
contour
100
AcDbLine
 10
64.12121212121224
 20
98.00125220217017
 30
0.0
 11
120.1212121212125
 21
98.00125220217017
 31
0.0
  0
ARC
  5
9D5C
102
{ACAD_REACTORS
330
A30C
102
}
330
18
100
AcDbEntity
  8
contour
100
AcDbCircle
 10
64.12121212121224
 20
99.00125220217017
 30
0.0
 40
0.9999999999999998
100
AcDbArc
 50
179.9999999999996
 51
270.0
  0
LINE
  5
9D5D
102
{ACAD_REACTORS
330
A30C
102
}
330
18
100
AcDbEntity
  8
contour
100
AcDbLine
 10
67.87121212121227
 20
102.0012522021701
 30
0.0
 11
70.02121212121224
 21
100.7599491234124
 31
0.0
  0
LINE
  5
9D5E
102
{ACAD_REACTORS
330
A30C
102
}
330
18
100
AcDbEntity
  8
contour
100
AcDbLine
 10
64.12121212121227
 20
103.1012522021701
 30
0.0
 11
71.37121212121224
 21
103.1012522021701
 31
0.0
  0
LINE
  5
9D5F
102
{ACAD_REACTORS
330
A30C
102
}
330
18
100
AcDbEntity
  8
contour
100
AcDbLine
 10
117.6212121212122
 20
103.1012522021701
 30
0.0
 11
120.1212121212122
 21
103.1012522021701
 31
0.0
  0
ARC
  5
9D60
102
{ACAD_REACTORS
330
A30C
102
}
330
18
100
AcDbEntity
  8
contour
100
AcDbCircle
 10
120.1212121212122
 20
102.1012522021701
 30
0.0
 40
0.9999999999999998
100
AcDbArc
 50
0.0
 51
90.0
  0
LINE
  5
9D61
102
{ACAD_REACTORS
330
A30C
102
}
330
18
100
AcDbEntity
  8
contour
100
AcDbLine
 10
64.12121212121227
 20
105.1012522021701
 30
0.0
 11
71.37121212121224
 21
105.1012522021701
 31
0.0
  0
ARC
  5
9D62
102
{ACAD_REACTORS
330
A30C
102
}
330
18
100
AcDbEntity
  8
contour
100
AcDbCircle
 10
64.12121212121227
 20
106.1012522021701
 30
0.0
 40
0.9999999999999998
100
AcDbArc
 50
179.9999999999996
 51
270.0
  0
LINE
  5
9D63
102
{ACAD_REACTORS
330
A30C
102
}
330
18
100
AcDbEntity
  8
contour
100
AcDbLine
 10
117.6212121212122
 20
105.1012522021701
 30
0.0
 11
120.1212121212122
 21
105.1012522021701
 31
0.0
  0
LINE
  5
9D64
102
{ACAD_REACTORS
330
A30C
102
}
330
18
100
AcDbEntity
  8
contour
100
AcDbLine
 10
121.1212121212122
 20
99.00125220217017
 30
0.0
 11
121.1212121212122
 21
102.1012522021701
 31
0.0
  0
ARC
  5
9D65
102
{ACAD_REACTORS
330
A30C
102
}
330
18
100
AcDbEntity
  8
contour
100
AcDbCircle
 10
120.1212121212122
 20
99.00125220217017
 30
0.0
 40
0.9999999999999998
100
AcDbArc
 50
270.0
 51
0.0
  0
LINE
  5
9D66
102
{ACAD_REACTORS
330
A30C
102
}
330
18
100
AcDbEntity
  8
contour
100
AcDbLine
 10
121.1212121212122
 20
106.1012522021701
 30
0.0
 11
121.1212121212122
 21
119.0012522021701
 31
0.0
  0
ARC
  5
9D67
102
{ACAD_REACTORS
330
A30C
102
}
330
18
100
AcDbEntity
  8
contour
100
AcDbCircle
 10
120.1212121212122
 20
106.1012522021701
 30
0.0
 40
0.9999999999999998
100
AcDbArc
 50
270.0
 51
0.0
  0
LINE
  5
9D68
330
18
100
AcDbEntity
  8
center
 48
0.2
100
AcDbLine
 10
92.12121212121223
 20
121.0012522021701
 30
0.0
 11
92.12121212121223
 21
97.00125220217017
 31
0.0
  0
LINE
  5
9D69
102
{ACAD_REACTORS
330
A30C
102
}
330
18
100
AcDbEntity
  8
contour
100
AcDbLine
 10
118.3712121212122
 20
107.9012522021701
 30
0.0
 11
118.3712121212122
 21
105.9012522021701
 31
0.0
  0
LINE
  5
9D6A
102
{ACAD_REACTORS
330
A30C
102
}
330
18
100
AcDbEntity
  8
contour
100
AcDbLine
 10
112.8712121212122
 20
103.1012522021701
 30
0.0
 11
112.8712121212122
 21
105.1012522021701
 31
0.0
  0
LINE
  5
9D6B
102
{ACAD_REACTORS
330
A30C
102
}
330
18
100
AcDbEntity
  8
contour
100
AcDbLine
 10
71.37121212121224
 20
103.1012522021701
 30
0.0
 11
71.37121212121224
 21
105.1012522021701
 31
0.0
  0
LINE
  5
9D6C
102
{ACAD_REACTORS
330
A30C
102
}
330
18
100
AcDbEntity
  8
contour
100
AcDbLine
 10
65.72121212121226
 20
100.7599491234124
 30
0.0
 11
65.72121212121223
 21
98.50125220217016
 31
0.0
  0
LINE
  5
9D6D
102
{ACAD_REACTORS
330
A30C
102
}
330
18
100
AcDbEntity
  8
contour
100
AcDbLine
 10
65.22121212121223
 20
98.00125220217017
 30
0.0
 11
65.72121212121223
 21
98.50125220217016
 31
0.0
  0
LINE
  5
9D6E
102
{ACAD_REACTORS
330
A30C
102
}
330
18
100
AcDbEntity
  8
contour
100
AcDbLine
 10
70.02121212121221
 20
100.7599491234124
 30
0.0
 11
70.02121212121221
 21
98.50125220217016
 31
0.0
  0
LINE
  5
9D6F
102
{ACAD_REACTORS
330
A30C
102
}
330
18
100
AcDbEntity
  8
contour
100
AcDbLine
 10
70.52121212121225
 20
98.00125220217017
 30
0.0
 11
70.02121212121224
 21
98.50125220217016
 31
0.0
  0
LINE
  5
9D70
330
18
100
AcDbEntity
  8
contour
100
AcDbLine
 10
70.02121212121224
 20
98.50125220217016
 30
0.0
 11
65.72121212121223
 21
98.50125220217016
 31
0.0
  0
LINE
  5
9D71
330
18
100
AcDbEntity
  8
center
 48
0.1
100
AcDbLine
 10
67.87121212121224
 20
97.00125220217017
 30
0.0
 11
67.87121212121224
 21
103.0012522021701
 31
0.0
  0
LINE
  5
9D72
102
{ACAD_REACTORS
330
A30C
102
}
330
18
100
AcDbEntity
  8
contour
100
AcDbLine
 10
67.87121212121227
 20
102.0012522021702
 30
0.0
 11
65.72121212121223
 21
100.7599491234124
 31
0.0
  0
LINE
  5
9D73
330
18
100
AcDbEntity
  8
contour
100
AcDbLine
 10
70.02121212121221
 20
100.7599491234124
 30
0.0
 11
65.72121212121223
 21
100.7599491234124
 31
0.0
  0
LINE
  5
9D74
102
{ACAD_REACTORS
330
A30C
102
}
330
18
100
AcDbEntity
  8
contour
100
AcDbLine
 10
69.12121212121224
 20
113.0012522021701
 30
0.0
 11
67.67783644823817
 21
115.5012522021702
 31
0.0
  0
LINE
  5
9D75
102
{ACAD_REACTORS
330
A30C
102
}
330
18
100
AcDbEntity
  8
contour
100
AcDbLine
 10
69.12121212121224
 20
113.0012522021701
 30
0.0
 11
67.67783644823814
 21
110.5012522021701
 31
0.0
  0
LINE
  5
9D76
102
{ACAD_REACTORS
330
A30C
102
}
330
18
100
AcDbEntity
  8
contour
100
AcDbLine
 10
63.62121212121223
 20
115.5012522021701
 30
0.0
 11
67.67783644823822
 21
115.5012522021701
 31
0.0
  0
LINE
  5
9D77
102
{ACAD_REACTORS
330
A30C
102
}
330
18
100
AcDbEntity
  8
contour
100
AcDbLine
 10
63.62121212121223
 20
110.5012522021701
 30
0.0
 11
67.67783644823811
 21
110.5012522021701
 31
0.0
  0
LINE
  5
9D78
330
18
100
AcDbEntity
  8
contour
100
AcDbLine
 10
67.67783644823817
 20
115.5012522021702
 30
0.0
 11
67.67783644823814
 21
110.5012522021701
 31
0.0
  0
LINE
  5
9D79
330
18
100
AcDbEntity
  8
contour
100
AcDbLine
 10
63.62121212121223
 20
115.5012522021701
 30
0.0
 11
63.62121212121223
 21
110.5012522021701
 31
0.0
  0
LINE
  5
9D7A
102
{ACAD_REACTORS
330
A30C
102
}
330
18
100
AcDbEntity
  8
contour
100
AcDbLine
 10
63.62121212121223
 20
110.5012522021701
 30
0.0
 11
63.12121212121224
 21
110.0012522021701
 31
0.0
  0
LINE
  5
9D7B
102
{ACAD_REACTORS
330
A30C
102
}
330
18
100
AcDbEntity
  8
contour
100
AcDbLine
 10
63.62121212121223
 20
115.5012522021701
 30
0.0
 11
63.12121212121224
 21
116.0012522021702
 31
0.0
  0
LINE
  5
9D83
102
{ACAD_REACTORS
330
A30C
102
}
330
18
100
AcDbEntity
  8
contour
100
AcDbLine
 10
65.87121212121227
 20
105.9012522021702
 30
0.0
 11
113.6212121212122
 21
105.9012522021701
 31
0.0
  0
LINE
  5
9D84
102
{ACAD_REACTORS
330
A30C
102
}
330
18
100
AcDbEntity
  8
contour
100
AcDbLine
 10
65.87121212121227
 20
107.9012522021702
 30
0.0
 11
113.6212121212122
 21
107.9012522021701
 31
0.0
  0
LINE
  5
9D86
102
{ACAD_REACTORS
330
A30C
102
}
330
18
100
AcDbEntity
  8
contour
100
AcDbLine
 10
65.87121212121224
 20
107.9012522021701
 30
0.0
 11
65.87121212121224
 21
105.9012522021701
 31
0.0
  0
LINE
  5
9D89
102
{ACAD_REACTORS
330
A30C
102
}
330
18
100
AcDbEntity
  8
contour
100
AcDbLine
 10
110.3092121212122
 20
118.5012522021701
 30
0.0
 11
110.3092121212122
 21
109.4012522021701
 31
0.0
  0
LINE
  5
9D8A
102
{ACAD_REACTORS
330
A30C
102
}
330
18
100
AcDbEntity
  8
contour
100
AcDbLine
 10
111.8092121212122
 20
120.0012522021701
 30
0.0
 11
110.3092121212122
 21
118.5012522021701
 31
0.0
  0
LINE
  5
9D8B
102
{ACAD_REACTORS
330
A30C
102
}
330
18
100
AcDbEntity
  8
contour
 62
     4
100
AcDbLine
 10
111.1212121212122
 20
119.3132522021701
 30
0.0
 11
111.1212121212122
 21
108.5892522021701
 31
0.0
  0
LINE
  5
9D8C
102
{ACAD_REACTORS
330
A30C
102
}
330
18
100
AcDbEntity
  8
contour
100
AcDbLine
 10
111.8092121212122
 20
107.9012522021701
 30
0.0
 11
110.3092121212122
 21
109.4012522021701
 31
0.0
  0
LINE
  5
9D8D
102
{ACAD_REACTORS
330
A30C
102
}
330
18
100
AcDbEntity
  8
contour
100
AcDbLine
 10
110.3092121212122
 20
104.4012522021701
 30
0.0
 11
110.3092121212122
 21
99.50125220217014
 31
0.0
  0
LINE
  5
9D8E
102
{ACAD_REACTORS
330
A30C
102
}
330
18
100
AcDbEntity
  8
contour
100
AcDbLine
 10
111.8092121212122
 20
105.9012522021701
 30
0.0
 11
110.3092121212122
 21
104.4012522021701
 31
0.0
  0
LINE
  5
9D8F
102
{ACAD_REACTORS
330
A30C
102
}
330
18
100
AcDbEntity
  8
contour
 62
     4
100
AcDbLine
 10
111.1212121212122
 20
105.2132522021701
 30
0.0
 11
111.1212121212122
 21
98.68925220217015
 31
0.0
  0
LINE
  5
9D90
102
{ACAD_REACTORS
330
A30C
102
}
330
18
100
AcDbEntity
  8
contour
100
AcDbLine
 10
111.8092121212122
 20
98.00125220217017
 30
0.0
 11
110.3092121212122
 21
99.50125220217017
 31
0.0
  0
LINE
  5
9D91
102
{ACAD_REACTORS
330
A30C
102
}
330
18
100
AcDbEntity
  8
contour
100
AcDbLine
 10
73.93321212121219
 20
118.5012522021701
 30
0.0
 11
73.93321212121225
 21
109.4012522021701
 31
0.0
  0
LINE
  5
9D92
102
{ACAD_REACTORS
330
A30C
102
}
330
18
100
AcDbEntity
  8
contour
100
AcDbLine
 10
72.4332121212122
 20
120.0012522021701
 30
0.0
 11
73.93321212121219
 21
118.5012522021701
 31
0.0
  0
LINE
  5
9D93
102
{ACAD_REACTORS
330
A30C
102
}
330
18
100
AcDbEntity
  8
contour
 62
     4
100
AcDbLine
 10
73.12121212121221
 20
119.3132522021701
 30
0.0
 11
73.12121212121221
 21
108.5892522021701
 31
0.0
  0
LINE
  5
9D94
102
{ACAD_REACTORS
330
A30C
102
}
330
18
100
AcDbEntity
  8
contour
100
AcDbLine
 10
72.43321212121222
 20
107.9012522021701
 30
0.0
 11
73.93321212121222
 21
109.4012522021701
 31
0.0
  0
LINE
  5
9D95
102
{ACAD_REACTORS
330
A30C
102
}
330
18
100
AcDbEntity
  8
contour
100
AcDbLine
 10
73.93321212121222
 20
104.4012522021701
 30
0.0
 11
73.93321212121225
 21
99.50125220217014
 31
0.0
  0
LINE
  5
9D96
102
{ACAD_REACTORS
330
A30C
102
}
330
18
100
AcDbEntity
  8
contour
100
AcDbLine
 10
72.43321212121222
 20
105.9012522021701
 30
0.0
 11
73.93321212121222
 21
104.4012522021701
 31
0.0
  0
LINE
  5
9D97
102
{ACAD_REACTORS
330
A30C
102
}
330
18
100
AcDbEntity
  8
contour
 62
     4
100
AcDbLine
 10
73.12121212121224
 20
105.2132522021701
 30
0.0
 11
73.12121212121224
 21
98.68925220217015
 31
0.0
  0
LINE
  5
9D98
102
{ACAD_REACTORS
330
A30C
102
}
330
18
100
AcDbEntity
  8
contour
100
AcDbLine
 10
72.43321212121225
 20
98.00125220217017
 30
0.0
 11
73.93321212121225
 21
99.50125220217017
 31
0.0
  0
LINE
  5
9D99
330
18
100
AcDbEntity
  8
contour
100
AcDbLine
 10
110.3092121212122
 20
118.5012522021702
 30
0.0
 11
73.93321212121219
 21
118.50125220217
 31
0.0
  0
LINE
  5
9D9A
330
18
100
AcDbEntity
  8
contour
100
AcDbLine
 10
73.93321212121225
 20
109.4012522021701
 30
0.0
 11
110.3092121212122
 21
109.4012522021701
 31
0.0
  0
LINE
  5
9D9B
330
18
100
AcDbEntity
  8
contour
100
AcDbLine
 10
110.3092121212122
 20
104.4012522021702
 30
0.0
 11
73.93321212121225
 21
104.4012522021699
 31
0.0
  0
LINE
  5
9D9C
330
18
100
AcDbEntity
  8
contour
100
AcDbLine
 10
73.93321212121225
 20
99.50125220217017
 30
0.0
 11
110.3092121212122
 21
99.50125220217016
 31
0.0
  0
INSERT
  5
9D9E
102
{ACAD_REACTORS
330
A30C
102
}
330
18
100
AcDbEntity
  8
contour
100
AcDbBlockReference
  2
LS2
 10
255.4009675587204
 20
98.23571939109676
 30
0.0
 41
-1.0
  0
LINE
  5
9E25
330
18
100
AcDbEntity
  8
center
 48
0.2
100
AcDbLine
 10
115.6212121212122
 20
121.0012522021701
 30
0.0
 11
115.6212121212122
 21
97.00125220217017
 31
0.0
  0
LINE
  5
9E26
102
{ACAD_REACTORS
330
A30C
102
}
330
18
100
AcDbEntity
  8
contour
 62
     4
100
AcDbLine
 10
113.6212121212122
 20
117.2012522021701
 30
0.0
 11
113.6212121212122
 21
120.0012522021701
 31
0.0
  0
LINE
  5
9E27
102
{ACAD_REACTORS
330
A30C
102
}
330
18
100
AcDbEntity
  8
contour
100
AcDbLine
 10
114.0002121212122
 20
117.58025220217
 30
0.0
 11
114.0002121212122
 21
120.0012522021701
 31
0.0
  0
LINE
  5
9E28
102
{ACAD_REACTORS
330
A30C
102
}
330
18
100
AcDbEntity
  8
contour
100
AcDbLine
 10
117.2422121212122
 20
117.5802522021701
 30
0.0
 11
117.2422121212122
 21
120.0012522021701
 31
0.0
  0
LINE
  5
9E29
102
{ACAD_REACTORS
330
A30C
102
}
330
18
100
AcDbEntity
  8
contour
 62
     4
100
AcDbLine
 10
117.6212121212122
 20
117.2012522021701
 30
0.0
 11
117.6212121212122
 21
120.0012522021701
 31
0.0
  0
LINE
  5
9E2A
102
{ACAD_REACTORS
330
A30C
102
}
330
18
100
AcDbEntity
  8
contour
100
AcDbLine
 10
119.1212121212122
 20
98.30125220217013
 30
0.0
 11
119.1212121212122
 21
98.00125220217017
 31
0.0
  0
LINE
  5
9E2B
102
{ACAD_REACTORS
330
A30C
102
}
330
18
100
AcDbEntity
  8
contour
100
AcDbLine
 10
112.1212121212122
 20
98.30125220217023
 30
0.0
 11
112.1212121212122
 21
98.00125220217017
 31
0.0
  0
LINE
  5
9E2C
102
{ACAD_REACTORS
330
A30C
102
}
330
18
100
AcDbEntity
  8
contour
100
AcDbLine
 10
112.8712121212122
 20
105.1012522021701
 30
0.0
 11
113.6212121212122
 21
105.1012522021701
 31
0.0
  0
LINE
  5
9E2D
102
{ACAD_REACTORS
330
A30C
102
}
330
18
100
AcDbEntity
  8
contour
100
AcDbLine
 10
112.8712121212122
 20
103.1012522021701
 30
0.0
 11
113.6212121212122
 21
103.1012522021701
 31
0.0
  0
LINE
  5
9E30
102
{ACAD_REACTORS
330
A30C
102
}
330
18
100
AcDbEntity
  8
contour
100
AcDbLine
 10
118.3712121212122
 20
107.9012522021701
 30
0.0
 11
117.6212121212122
 21
107.9012522021701
 31
0.0
  0
LINE
  5
9E31
102
{ACAD_REACTORS
330
A30C
102
}
330
18
100
AcDbEntity
  8
contour
100
AcDbLine
 10
118.3712121212122
 20
105.9012522021701
 30
0.0
 11
117.6212121212122
 21
105.9012522021701
 31
0.0
  0
LINE
  5
9E36
330
18
100
AcDbEntity
  8
center
 48
0.25
100
AcDbLine
 10
92.12121212121223
 20
156.5781461669577
 30
0.0
 11
92.12121212121223
 21
216.5781461669577
 31
0.0
  0
LINE
  5
9E37
330
18
100
AcDbEntity
  8
center
 48
0.25
100
AcDbLine
 10
122.1212121212122
 20
186.5781461669577
 30
0.0
 11
62.12121212121227
 21
186.5781461669577
 31
0.0
  0
CIRCLE
  5
9E3C
330
18
100
AcDbEntity
  8
contour
100
AcDbCircle
 10
92.12121212121223
 20
186.5781461669577
 30
0.0
 40
18.18800000000002
  0
ARC
  5
9E3D
330
18
100
AcDbEntity
  8
contour
 62
     4
100
AcDbCircle
 10
92.12121212121223
 20
186.5781461669577
 30
0.0
 40
19.00000000000003
100
AcDbArc
 50
168.4630409671852
 51
101.5369590328147
  0
CIRCLE
  5
9E3E
330
18
100
AcDbEntity
  8
contour
100
AcDbCircle
 10
92.12121212121223
 20
186.5781461669577
 30
0.0
 40
19.68800000000004
  0
CIRCLE
  5
9E3F
330
18
100
AcDbEntity
  8
contour
100
AcDbCircle
 10
92.12121212121223
 20
186.5781461669577
 30
0.0
 40
28.99999999999997
  0
CIRCLE
  5
9E47
330
18
100
AcDbEntity
  8
contour
100
AcDbCircle
 10
115.6212121212122
 20
186.5781461669577
 30
0.0
 40
1.621000000000009
  0
ARC
  5
9E48
330
18
100
AcDbEntity
  8
contour
 62
     4
100
AcDbCircle
 10
115.6212121212122
 20
186.5781461669577
 30
0.0
 40
1.999999999999971
100
AcDbArc
 50
168.4630409671852
 51
101.5369590328147
  0
CIRCLE
  5
9E49
330
18
100
AcDbEntity
  8
bowle
 48
0.2
100
AcDbCircle
 10
115.6212121212122
 20
186.5781461669577
 30
0.0
 40
3.499999999999943
  0
CIRCLE
  5
9E4C
330
18
100
AcDbEntity
  8
contour
100
AcDbCircle
 10
92.12121212121223
 20
210.0781461669577
 30
0.0
 40
1.621000000000009
  0
CIRCLE
  5
9E4D
330
18
100
AcDbEntity
  8
bowle
 48
0.2
100
AcDbCircle
 10
92.12121212121223
 20
210.0781461669577
 30
0.0
 40
3.499999999999943
  0
CIRCLE
  5
9E4E
330
18
100
AcDbEntity
  8
contour
100
AcDbCircle
 10
68.62121212121223
 20
186.5781461669577
 30
0.0
 40
1.621000000000009
  0
CIRCLE
  5
9E4F
330
18
100
AcDbEntity
  8
bowle
 48
0.2
100
AcDbCircle
 10
68.62121212121223
 20
186.5781461669577
 30
0.0
 40
3.499999999999943
  0
CIRCLE
  5
9E50
330
18
100
AcDbEntity
  8
contour
100
AcDbCircle
 10
92.12121212121223
 20
163.0781461669577
 30
0.0
 40
1.621000000000009
  0
CIRCLE
  5
9E51
330
18
100
AcDbEntity
  8
bowle
 48
0.2
100
AcDbCircle
 10
92.12121212121223
 20
163.0781461669577
 30
0.0
 40
3.499999999999943
  0
ARC
  5
9E52
330
18
100
AcDbEntity
  8
contour
 62
     4
100
AcDbCircle
 10
92.12121212121223
 20
210.0781461669577
 30
0.0
 40
1.999999999999971
100
AcDbArc
 50
168.4630409671852
 51
101.5369590328147
  0
ARC
  5
9E53
330
18
100
AcDbEntity
  8
contour
 62
     4
100
AcDbCircle
 10
68.62121212121223
 20
186.5781461669577
 30
0.0
 40
1.999999999999971
100
AcDbArc
 50
168.4630409671852
 51
101.5369590328147
  0
ARC
  5
9E54
330
18
100
AcDbEntity
  8
contour
 62
     4
100
AcDbCircle
 10
92.12121212121223
 20
163.0781461669577
 30
0.0
 40
1.999999999999971
100
AcDbArc
 50
168.4630409671852
 51
101.5369590328147
  0
CIRCLE
  5
9E58
330
18
100
AcDbEntity
  8
bowle
 48
0.2
100
AcDbCircle
 10
74.9738726774385
 20
203.7254856107315
 30
0.0
 40
2.150000000000005
  0
CIRCLE
  5
9E59
330
18
100
AcDbEntity
  8
bowle
 48
0.2
100
AcDbCircle
 10
74.9738726774385
 20
203.7254856107315
 30
0.0
 40
2.650000000000005
  0
LINE
  5
9E5A
330
18
100
AcDbEntity
  8
center
 48
0.1
100
AcDbLine
 10
79.96746076617785
 20
198.7318975219921
 30
0.0
 11
70.90800868561581
 21
207.7913496025542
 31
0.0
  0
LINE
  5
9E5B
330
18
100
AcDbEntity
  8
bowle
 48
0.2
100
AcDbLine
 10
75.85775615392165
 20
202.8416021342483
 30
0.0
 11
76.60490238072836
 21
205.6299898133744
 31
0.0
  0
LINE
  5
9E5C
330
18
100
AcDbEntity
  8
bowle
 48
0.2
100
AcDbLine
 10
75.85775615392165
 20
202.8416021342483
 30
0.0
 11
73.06936847479559
 21
202.0944559074417
 31
0.0
  0
LINE
  5
9E5D
330
18
100
AcDbEntity
  8
bowle
 48
0.2
100
AcDbLine
 10
73.73643581036199
 20
208.4984563837407
 30
0.0
 11
76.60490238072839
 21
205.6299898133743
 31
0.0
  0
LINE
  5
9E5E
330
18
100
AcDbEntity
  8
bowle
 48
0.2
100
AcDbLine
 10
70.20090190442928
 20
204.962922477808
 30
0.0
 11
73.06936847479559
 21
202.0944559074417
 31
0.0
  0
LINE
  5
9E5F
330
18
100
AcDbEntity
  8
bowle
 48
0.2
100
AcDbLine
 10
76.60490238072836
 20
205.6299898133744
 30
0.0
 11
73.06936847479559
 21
202.0944559074417
 31
0.0
  0
LINE
  5
9E60
330
18
100
AcDbEntity
  8
bowle
 48
0.2
100
AcDbLine
 10
73.73643581036199
 20
208.4984563837407
 30
0.0
 11
70.20090190442928
 21
204.962922477808
 31
0.0
  0
LINE
  5
9E61
330
18
100
AcDbEntity
  8
bowle
 48
0.2
100
AcDbLine
 10
70.20090190442928
 20
204.962922477808
 30
0.0
 11
69.69355062920647
 21
204.962922477808
 31
0.0
  0
LINE
  5
9E62
330
18
100
AcDbEntity
  8
bowle
 48
0.2
100
AcDbLine
 10
73.73643581036199
 20
208.4984563837407
 30
0.0
 11
73.73643581036199
 21
209.0058076589635
 31
0.0
  0
CIRCLE
  5
9E65
330
18
100
AcDbEntity
  8
bowle
 48
0.2
100
AcDbCircle
 10
74.97387267743846
 20
169.430806723184
 30
0.0
 40
2.150000000000005
  0
CIRCLE
  5
9E66
330
18
100
AcDbEntity
  8
bowle
 48
0.2
100
AcDbCircle
 10
74.97387267743846
 20
169.430806723184
 30
0.0
 40
2.650000000000005
  0
LINE
  5
9E67
330
18
100
AcDbEntity
  8
center
 48
0.2
100
AcDbLine
 10
79.96746076617785
 20
174.4243948119233
 30
0.0
 11
70.90800868561581
 21
165.3649427313613
 31
0.0
  0
LINE
  5
9E68
330
18
100
AcDbEntity
  8
bowle
 48
0.2
100
AcDbLine
 10
75.85775615392165
 20
170.3146901996671
 30
0.0
 11
73.06936847479559
 21
171.0618364264739
 31
0.0
  0
LINE
  5
9E69
330
18
100
AcDbEntity
  8
bowle
 48
0.2
100
AcDbLine
 10
75.85775615392165
 20
170.3146901996671
 30
0.0
 11
76.60490238072833
 21
167.5263025205411
 31
0.0
  0
LINE
  5
9E6A
330
18
100
AcDbEntity
  8
bowle
 48
0.2
100
AcDbLine
 10
70.20090190442926
 20
168.1933698561075
 30
0.0
 11
73.06936847479565
 21
171.0618364264739
 31
0.0
  0
LINE
  5
9E6B
330
18
100
AcDbEntity
  8
bowle
 48
0.2
100
AcDbLine
 10
73.73643581036199
 20
164.6578359501748
 30
0.0
 11
76.60490238072831
 21
167.5263025205411
 31
0.0
  0
LINE
  5
9E6C
330
18
100
AcDbEntity
  8
bowle
 48
0.2
100
AcDbLine
 10
73.06936847479559
 20
171.0618364264739
 30
0.0
 11
76.60490238072833
 21
167.5263025205411
 31
0.0
  0
LINE
  5
9E6D
330
18
100
AcDbEntity
  8
bowle
 48
0.2
100
AcDbLine
 10
70.20090190442926
 20
168.1933698561075
 30
0.0
 11
73.73643581036199
 21
164.6578359501748
 31
0.0
  0
LINE
  5
9E6E
330
18
100
AcDbEntity
  8
bowle
 48
0.2
100
AcDbLine
 10
73.73643581036199
 20
164.6578359501748
 30
0.0
 11
73.73643581036199
 21
164.150484674952
 31
0.0
  0
LINE
  5
9E6F
330
18
100
AcDbEntity
  8
bowle
 48
0.2
100
AcDbLine
 10
70.20090190442926
 20
168.1933698561075
 30
0.0
 11
69.69355062920644
 21
168.1933698561075
 31
0.0
  0
CIRCLE
  5
9E70
330
18
100
AcDbEntity
  8
bowle
 48
0.2
100
AcDbCircle
 10
109.2685515649859
 20
169.4308067231839
 30
0.0
 40
2.150000000000005
  0
CIRCLE
  5
9E71
330
18
100
AcDbEntity
  8
bowle
 48
0.2
100
AcDbCircle
 10
109.2685515649859
 20
169.4308067231839
 30
0.0
 40
2.650000000000005
  0
LINE
  5
9E72
330
18
100
AcDbEntity
  8
center
 48
0.2
100
AcDbLine
 10
104.2749634762466
 20
174.4243948119233
 30
0.0
 11
113.3344155568086
 21
165.3649427313613
 31
0.0
  0
LINE
  5
9E73
330
18
100
AcDbEntity
  8
bowle
 48
0.2
100
AcDbLine
 10
108.3846680885028
 20
170.3146901996671
 30
0.0
 11
107.6375218616961
 21
167.5263025205411
 31
0.0
  0
LINE
  5
9E74
330
18
100
AcDbEntity
  8
bowle
 48
0.2
100
AcDbLine
 10
108.3846680885028
 20
170.3146901996671
 30
0.0
 11
111.1730557676288
 21
171.0618364264738
 31
0.0
  0
LINE
  5
9E75
330
18
100
AcDbEntity
  8
bowle
 48
0.2
100
AcDbLine
 10
110.5059884320625
 20
164.6578359501747
 30
0.0
 11
107.6375218616961
 21
167.5263025205411
 31
0.0
  0
LINE
  5
9E76
330
18
100
AcDbEntity
  8
bowle
 48
0.2
100
AcDbLine
 10
114.0415223379951
 20
168.1933698561075
 30
0.0
 11
111.1730557676288
 21
171.0618364264738
 31
0.0
  0
LINE
  5
9E77
330
18
100
AcDbEntity
  8
bowle
 48
0.2
100
AcDbLine
 10
107.6375218616961
 20
167.5263025205411
 30
0.0
 11
111.1730557676288
 21
171.0618364264738
 31
0.0
  0
LINE
  5
9E78
330
18
100
AcDbEntity
  8
bowle
 48
0.2
100
AcDbLine
 10
110.5059884320625
 20
164.6578359501747
 30
0.0
 11
114.0415223379951
 21
168.1933698561075
 31
0.0
  0
LINE
  5
9E79
330
18
100
AcDbEntity
  8
bowle
 48
0.2
100
AcDbLine
 10
114.0415223379951
 20
168.1933698561075
 30
0.0
 11
114.548873613218
 21
168.1933698561075
 31
0.0
  0
LINE
  5
9E7A
330
18
100
AcDbEntity
  8
bowle
 48
0.2
100
AcDbLine
 10
110.5059884320625
 20
164.6578359501747
 30
0.0
 11
110.5059884320624
 21
164.1504846749519
 31
0.0
  0
CIRCLE
  5
9E7B
330
18
100
AcDbEntity
  8
bowle
 48
0.2
100
AcDbCircle
 10
109.268551564986
 20
203.7254856107315
 30
0.0
 40
2.150000000000005
  0
CIRCLE
  5
9E7C
330
18
100
AcDbEntity
  8
bowle
 48
0.2
100
AcDbCircle
 10
109.268551564986
 20
203.7254856107315
 30
0.0
 40
2.650000000000005
  0
LINE
  5
9E7D
330
18
100
AcDbEntity
  8
center
 48
0.2
100
AcDbLine
 10
104.2749634762466
 20
198.7318975219921
 30
0.0
 11
113.3344155568087
 21
207.7913496025541
 31
0.0
  0
LINE
  5
9E7E
330
18
100
AcDbEntity
  8
bowle
 48
0.2
100
AcDbLine
 10
108.3846680885028
 20
202.8416021342483
 30
0.0
 11
111.1730557676289
 21
202.0944559074416
 31
0.0
  0
LINE
  5
9E7F
330
18
100
AcDbEntity
  8
bowle
 48
0.2
100
AcDbLine
 10
108.3846680885028
 20
202.8416021342483
 30
0.0
 11
107.6375218616962
 21
205.6299898133744
 31
0.0
  0
LINE
  5
9E80
330
18
100
AcDbEntity
  8
bowle
 48
0.2
100
AcDbLine
 10
114.0415223379952
 20
204.962922477808
 30
0.0
 11
111.1730557676288
 21
202.0944559074416
 31
0.0
  0
LINE
  5
9E81
330
18
100
AcDbEntity
  8
bowle
 48
0.2
100
AcDbLine
 10
110.5059884320625
 20
208.4984563837407
 30
0.0
 11
107.6375218616962
 21
205.6299898133744
 31
0.0
  0
LINE
  5
9E82
330
18
100
AcDbEntity
  8
bowle
 48
0.2
100
AcDbLine
 10
111.1730557676289
 20
202.0944559074416
 30
0.0
 11
107.6375218616962
 21
205.6299898133744
 31
0.0
  0
LINE
  5
9E83
330
18
100
AcDbEntity
  8
bowle
 48
0.2
100
AcDbLine
 10
114.0415223379952
 20
204.962922477808
 30
0.0
 11
110.5059884320625
 21
208.4984563837407
 31
0.0
  0
LINE
  5
9E84
330
18
100
AcDbEntity
  8
bowle
 48
0.2
100
AcDbLine
 10
110.5059884320625
 20
208.4984563837407
 30
0.0
 11
110.5059884320625
 21
209.0058076589635
 31
0.0
  0
LINE
  5
9E85
330
18
100
AcDbEntity
  8
bowle
 48
0.2
100
AcDbLine
 10
114.0415223379952
 20
204.962922477808
 30
0.0
 11
114.548873613218
 21
204.9629224778079
 31
0.0
  0
CIRCLE
  5
9E86
330
18
100
AcDbEntity
  8
bowle
 48
0.2
100
AcDbCircle
 10
74.97387267743846
 20
169.430806723184
 30
0.0
 40
2.150000000000005
  0
CIRCLE
  5
9E87
330
18
100
AcDbEntity
  8
bowle
 48
0.2
100
AcDbCircle
 10
74.97387267743846
 20
169.430806723184
 30
0.0
 40
2.650000000000005
  0
LINE
  5
9E88
330
18
100
AcDbEntity
  8
center
 48
0.1
100
AcDbLine
 10
79.96746076617785
 20
174.4243948119233
 30
0.0
 11
70.90800868561581
 21
165.3649427313613
 31
0.0
  0
LINE
  5
9E89
330
18
100
AcDbEntity
  8
bowle
 48
0.2
100
AcDbLine
 10
75.85775615392165
 20
170.3146901996671
 30
0.0
 11
73.06936847479559
 21
171.0618364264739
 31
0.0
  0
LINE
  5
9E8A
330
18
100
AcDbEntity
  8
bowle
 48
0.2
100
AcDbLine
 10
75.85775615392165
 20
170.3146901996671
 30
0.0
 11
76.60490238072833
 21
167.5263025205411
 31
0.0
  0
LINE
  5
9E8B
330
18
100
AcDbEntity
  8
bowle
 48
0.2
100
AcDbLine
 10
70.20090190442926
 20
168.1933698561075
 30
0.0
 11
73.06936847479565
 21
171.0618364264739
 31
0.0
  0
LINE
  5
9E8C
330
18
100
AcDbEntity
  8
bowle
 48
0.2
100
AcDbLine
 10
73.73643581036199
 20
164.6578359501748
 30
0.0
 11
76.60490238072831
 21
167.5263025205411
 31
0.0
  0
LINE
  5
9E8D
330
18
100
AcDbEntity
  8
bowle
 48
0.2
100
AcDbLine
 10
73.06936847479559
 20
171.0618364264739
 30
0.0
 11
76.60490238072833
 21
167.5263025205411
 31
0.0
  0
LINE
  5
9E8E
330
18
100
AcDbEntity
  8
bowle
 48
0.2
100
AcDbLine
 10
70.20090190442926
 20
168.1933698561075
 30
0.0
 11
73.73643581036199
 21
164.6578359501748
 31
0.0
  0
LINE
  5
9E8F
330
18
100
AcDbEntity
  8
bowle
 48
0.2
100
AcDbLine
 10
73.73643581036199
 20
164.6578359501748
 30
0.0
 11
73.73643581036199
 21
164.150484674952
 31
0.0
  0
LINE
  5
9E90
330
18
100
AcDbEntity
  8
bowle
 48
0.2
100
AcDbLine
 10
70.20090190442926
 20
168.1933698561075
 30
0.0
 11
69.69355062920644
 21
168.1933698561075
 31
0.0
  0
CIRCLE
  5
9E91
330
18
100
AcDbEntity
  8
bowle
 48
0.2
100
AcDbCircle
 10
109.2685515649859
 20
169.4308067231839
 30
0.0
 40
2.150000000000005
  0
CIRCLE
  5
9E92
330
18
100
AcDbEntity
  8
bowle
 48
0.2
100
AcDbCircle
 10
109.2685515649859
 20
169.4308067231839
 30
0.0
 40
2.650000000000005
  0
LINE
  5
9E93
330
18
100
AcDbEntity
  8
center
 48
0.1
100
AcDbLine
 10
104.2749634762466
 20
174.4243948119233
 30
0.0
 11
113.3344155568086
 21
165.3649427313613
 31
0.0
  0
LINE
  5
9E94
330
18
100
AcDbEntity
  8
bowle
 48
0.2
100
AcDbLine
 10
108.3846680885028
 20
170.3146901996671
 30
0.0
 11
107.6375218616961
 21
167.5263025205411
 31
0.0
  0
LINE
  5
9E95
330
18
100
AcDbEntity
  8
bowle
 48
0.2
100
AcDbLine
 10
108.3846680885028
 20
170.3146901996671
 30
0.0
 11
111.1730557676288
 21
171.0618364264738
 31
0.0
  0
LINE
  5
9E96
330
18
100
AcDbEntity
  8
bowle
 48
0.2
100
AcDbLine
 10
110.5059884320625
 20
164.6578359501747
 30
0.0
 11
107.6375218616961
 21
167.5263025205411
 31
0.0
  0
LINE
  5
9E97
330
18
100
AcDbEntity
  8
bowle
 48
0.2
100
AcDbLine
 10
114.0415223379951
 20
168.1933698561075
 30
0.0
 11
111.1730557676288
 21
171.0618364264738
 31
0.0
  0
LINE
  5
9E98
330
18
100
AcDbEntity
  8
bowle
 48
0.2
100
AcDbLine
 10
107.6375218616961
 20
167.5263025205411
 30
0.0
 11
111.1730557676288
 21
171.0618364264738
 31
0.0
  0
LINE
  5
9E99
330
18
100
AcDbEntity
  8
bowle
 48
0.2
100
AcDbLine
 10
110.5059884320625
 20
164.6578359501747
 30
0.0
 11
114.0415223379951
 21
168.1933698561075
 31
0.0
  0
LINE
  5
9E9A
330
18
100
AcDbEntity
  8
bowle
 48
0.2
100
AcDbLine
 10
114.0415223379951
 20
168.1933698561075
 30
0.0
 11
114.548873613218
 21
168.1933698561075
 31
0.0
  0
LINE
  5
9E9B
330
18
100
AcDbEntity
  8
bowle
 48
0.2
100
AcDbLine
 10
110.5059884320625
 20
164.6578359501747
 30
0.0
 11
110.5059884320624
 21
164.1504846749519
 31
0.0
  0
CIRCLE
  5
9E9C
330
18
100
AcDbEntity
  8
bowle
 48
0.2
100
AcDbCircle
 10
109.268551564986
 20
203.7254856107315
 30
0.0
 40
2.150000000000005
  0
CIRCLE
  5
9E9D
330
18
100
AcDbEntity
  8
bowle
 48
0.2
100
AcDbCircle
 10
109.268551564986
 20
203.7254856107315
 30
0.0
 40
2.650000000000005
  0
LINE
  5
9E9E
330
18
100
AcDbEntity
  8
center
 48
0.1
100
AcDbLine
 10
104.2749634762466
 20
198.7318975219921
 30
0.0
 11
113.3344155568087
 21
207.7913496025541
 31
0.0
  0
LINE
  5
9E9F
330
18
100
AcDbEntity
  8
bowle
 48
0.2
100
AcDbLine
 10
108.3846680885028
 20
202.8416021342483
 30
0.0
 11
111.1730557676289
 21
202.0944559074416
 31
0.0
  0
LINE
  5
9EA0
330
18
100
AcDbEntity
  8
bowle
 48
0.2
100
AcDbLine
 10
108.3846680885028
 20
202.8416021342483
 30
0.0
 11
107.6375218616962
 21
205.6299898133744
 31
0.0
  0
LINE
  5
9EA1
330
18
100
AcDbEntity
  8
bowle
 48
0.2
100
AcDbLine
 10
114.0415223379952
 20
204.962922477808
 30
0.0
 11
111.1730557676288
 21
202.0944559074416
 31
0.0
  0
LINE
  5
9EA2
330
18
100
AcDbEntity
  8
bowle
 48
0.2
100
AcDbLine
 10
110.5059884320625
 20
208.4984563837407
 30
0.0
 11
107.6375218616962
 21
205.6299898133744
 31
0.0
  0
LINE
  5
9EA3
330
18
100
AcDbEntity
  8
bowle
 48
0.2
100
AcDbLine
 10
111.1730557676289
 20
202.0944559074416
 30
0.0
 11
107.6375218616962
 21
205.6299898133744
 31
0.0
  0
LINE
  5
9EA4
330
18
100
AcDbEntity
  8
bowle
 48
0.2
100
AcDbLine
 10
114.0415223379952
 20
204.962922477808
 30
0.0
 11
110.5059884320625
 21
208.4984563837407
 31
0.0
  0
LINE
  5
9EA5
330
18
100
AcDbEntity
  8
bowle
 48
0.2
100
AcDbLine
 10
110.5059884320625
 20
208.4984563837407
 30
0.0
 11
110.5059884320625
 21
209.0058076589635
 31
0.0
  0
LINE
  5
9EA6
330
18
100
AcDbEntity
  8
bowle
 48
0.2
100
AcDbLine
 10
114.0415223379952
 20
204.962922477808
 30
0.0
 11
114.548873613218
 21
204.9629224778079
 31
0.0
  0
CIRCLE
  5
9EA9
330
18
100
AcDbEntity
  8
center
 48
0.25
100
AcDbCircle
 10
92.12121212121223
 20
186.5781461669577
 30
0.0
 40
23.49999999999997
  0
ARC
  5
9EAA
330
18
100
AcDbEntity
  8
center
 48
0.1
100
AcDbCircle
 10
92.12121212121223
 20
186.5781461669577
 30
0.0
 40
24.24999999999997
100
AcDbArc
 50
126.3679377792984
 51
169.3351376535588
  0
ARC
  5
9EB0
330
18
100
AcDbEntity
  8
center
 48
0.1
100
AcDbCircle
 10
92.12121212121223
 20
186.5781461669577
 30
0.0
 40
24.24999999999997
100
AcDbArc
 50
306.3679377792984
 51
349.3351376535589
  0
DIMENSION
  5
A10E
330
18
100
AcDbEntity
  8
mark
100
AcDbDimension
  2
*D5
 10
63.12121212121226
 20
128.0012522021702
 30
0.0
 11
92.12121212121223
 21
130.0512522021702
 31
0.0
 70
    32
  1
%%c<>
 71
     5
 42
57.99999999999997
  3
STANDARD
100
AcDbAlignedDimension
 13
121.1212121212122
 23
119.0012522021701
 33
0.0
 14
63.12121212121226
 24
119.0012522021701
 34
0.0
100
AcDbRotatedDimension
  0
MTEXT
  5
A136
330
18
100
AcDbEntity
  8
contour
 62
     3
100
AcDbMText
 10
96.2113588092326
 20
130.3810666662368
 30
0.0
 40
1.25
 41
0.0
 71
     4
 72
     1
  1
+0\P-0.2
 73
     1
 44
1.0
1001
ACAD
1000
ACAD_MTEXT_DEFINED_HEIGHT_BEGIN
1070
    46
1040
0.0
1000
ACAD_MTEXT_DEFINED_HEIGHT_END
  0
DIMENSION
  5
A140
330
18
100
AcDbEntity
  8
mark
100
AcDbDimension
  2
*D6
 10
57.8040604360184
 20
113.0012522021701
 30
0.0
 11
55.75406043601838
 21
116.5012522021702
 31
0.0
 70
    32
 71
     5
 42
7.0
  3
STANDARD
100
AcDbAlignedDimension
 13
64.12121212121227
 23
120.0012522021701
 33
0.0
 14
62.12121212121224
 24
113.0012522021701
 34
0.0
 50
90.0
100
AcDbRotatedDimension
  0
DIMENSION
  5
A14D
330
18
100
AcDbEntity
  8
mark
100
AcDbDimension
  2
*D7
 10
128.9289367440395
 20
105.1012522021702
 30
0.0
 11
126.8789367440395
 21
111.3012522021702
 31
0.0
 70
    32
 71
     5
 42
14.89999999999997
  3
STANDARD
100
AcDbAlignedDimension
 13
120.1212121212122
 23
120.0012522021701
 33
0.0
 14
120.1212121212122
 24
105.1012522021702
 34
0.0
 50
90.0
100
AcDbRotatedDimension
1001
ACAD
1000
DSTYLE
1002
{
1070
   343
1005
7C04
1070
   342
1005
0
1070
   173
1070
     1
1070
   344
1005
A18A
1002
}
  0
DIMENSION
  5
A17D
330
18
100
AcDbEntity
  8
mark
100
AcDbDimension
  2
*D8
 10
136.5889101748993
 20
98.00125220217017
 30
0.0
 11
134.5389101748992
 21
109.0012522021702
 31
0.0
 70
    32
  1
<>%%p0.2
 71
     5
 42
22.0
  3
STANDARD
100
AcDbAlignedDimension
 13
120.1212121212122
 23
120.0012522021701
 33
0.0
 14
120.1212121212122
 24
98.00125220217017
 34
0.0
 50
90.0
100
AcDbRotatedDimension
  0
LINE
  5
A1C7
330
18
100
AcDbEntity
  8
mark
100
AcDbLine
 10
120.9212121212122
 20
105.1012522021701
 30
0.0
 11
129.7289367440396
 21
105.1012522021701
 31
0.0
  0
LINE
  5
A1C8
330
18
100
AcDbEntity
  8
mark
100
AcDbLine
 10
120.9212121212122
 20
103.1012522021702
 30
0.0
 11
129.7289367440396
 21
103.1012522021702
 31
0.0
  0
LINE
  5
A1C9
330
18
100
AcDbEntity
  8
mark
100
AcDbLine
 10
128.9289367440396
 20
105.1012522021701
 30
0.0
 11
128.9289367440396
 21
103.1012522021702
 31
0.0
  0
INSERT
  5
A1CA
330
18
100
AcDbEntity
  8
mark
100
AcDbBlockReference
  2
_DotSmall
 10
128.9289367440396
 20
105.1012522021701
 30
0.0
 41
2.5
 42
2.5
 43
2.5
 50
90.0
  0
INSERT
  5
A1CB
330
18
100
AcDbEntity
  8
mark
100
AcDbBlockReference
  2
_DotSmall
 10
128.9289367440396
 20
103.1012522021702
 30
0.0
 41
2.5
 42
2.5
 43
2.5
 50
270.0
  0
MTEXT
  5
A1CC
330
18
100
AcDbEntity
  8
mark
 62
     3
100
AcDbMText
 10
126.8789367440395
 20
104.1012522021702
 30
0.0
 40
2.5
 41
0.0
 71
     5
 72
     1
  1
{\W0.8;2}
 11
0.0000000000000001
 21
1.0
 31
0.0
 73
     1
 44
1.0
1001
ACAD
1000
ACAD_MTEXT_DEFINED_HEIGHT_BEGIN
1070
    46
1040
0.0
1000
ACAD_MTEXT_DEFINED_HEIGHT_END
  0
LEADER
  5
A1D6
330
18
100
AcDbEntity
  8
mark
100
AcDbLeader
  3
STANDARD
 76
     2
 10
111.0592121212122
 20
98.75125220217016
 30
0.0
 10
101.6787681027701
 20
89.37080818372809
 30
0.0
211
0.7071067811865476
221
0.7071067811865475
231
0.0
1001
ACAD
1000
DSTYLE
1002
{
1070
   147
1040
0.4
1070
    77
1070
     0
1002
}
  0
MTEXT
  5
A1F2
330
18
100
AcDbEntity
  8
mark
 62
     3
100
AcDbMText
 10
102.4814791287812
 20
93.29231097294945
 30
0.0
 40
2.5
 41
0.0
 71
     5
 72
     1
  1
C1.5
 11
0.7071067811865476
 21
0.7071067811865475
 31
0.0
 73
     1
 44
1.0
1001
ACAD
1000
ACAD_MTEXT_DEFINED_HEIGHT_BEGIN
1070
    46
1040
0.0
1000
ACAD_MTEXT_DEFINED_HEIGHT_END
  0
DIMENSION
  5
A1F4
330
18
100
AcDbEntity
  8
mark
100
AcDbDimension
  2
*D10
 10
73.12121212121224
 20
84.69743539648339
 30
0.0
 11
92.12121212121223
 21
86.74743539648339
 31
0.0
 70
    32
  1
M38X1.5P
 71
     5
 42
38.0
  3
STANDARD
100
AcDbAlignedDimension
 13
111.1212121212122
 23
98.68925220217015
 33
0.0
 14
73.12121212121224
 24
98.68925220217015
 34
0.0
100
AcDbRotatedDimension
  0
TOLERANCE
  5
A203
330
18
100
AcDbEntity
  8
mark
100
AcDbFcf
  3
STANDARD
 10
85.62121212121224
 20
75.98076872981673
 30
0.0
  1
%%v%%v%%v%%v%%vA
 11
-0.0000000000000002
 21
-1.0
 31
0.0
  0
LINE
  5
A204
102
{ACAD_REACTORS
330
A232
102
}
330
18
100
AcDbEntity
  8
mark
100
AcDbLine
 10
73.12121212121224
 20
83.89743539648341
 30
0.0
 11
73.12121212121224
 21
71.81410206315006
 31
0.0
  0
LINE
  5
A205
330
18
100
AcDbEntity
  8
mark
100
AcDbLine
 10
75.20454545454558
 20
73.8974353964834
 30
0.0
 11
83.12121212121224
 21
73.8974353964834
 31
0.0
  0
LINE
  5
A20D
102
{ACAD_REACTORS
330
A232
102
}
330
18
100
AcDbEntity
  8
mark
100
AcDbLine
 10
73.12121212121224
 20
75.98076872981675
 30
0.0
 11
75.20454545454558
 21
73.8974353964834
 31
0.0
  0
LINE
  5
A20E
102
{ACAD_REACTORS
330
A232
102
}
330
18
100
AcDbEntity
  8
mark
100
AcDbLine
 10
73.12121212121224
 20
71.81410206315006
 30
0.0
 11
75.20454545454558
 21
73.8974353964834
 31
0.0
  0
HATCH
  5
A232
330
18
100
AcDbEntity
  8
mark
100
AcDbHatch
 10
0.0
 20
0.0
 30
0.0
210
0.0
220
0.0
230
1.0
  2
SOLID
 70
     1
 71
     1
 91
        1
 92
        7
 72
     0
 73
     1
 93
        3
 10
75.20454545454559
 20
73.8974353964834
 10
73.12121212121225
 20
75.98076872981673
 10
73.12121212121225
 20
71.81410206315007
 97
        3
330
A20D
330
A204
330
A20E
 75
     0
 76
     1
 47
0.1425734510534226
 98
        1
 10
73.52374106218156
 20
73.2281316760284
450
        0
451
        0
460
0.0
461
0.0
452
        1
462
1.0
453
        2
463
0.0
 63
     5
421
      255
463
1.0
 63
     7
421
 16777215
470
LINEAR
1001
ACAD
1010
0.0
1020
0.0
1030
0.0
  0
TOLERANCE
  5
A236
330
18
100
AcDbEntity
  8
mark
100
AcDbFcf
  3
STANDARD
 10
144.5889101748993
 20
128.0012522021702
 30
0.0
  1
{\Fgdt;h}%%v0.005%%v%%vA%%v%%v
  0
LINE
  5
A238
330
18
100
AcDbEntity
  8
mark
100
AcDbLine
 10
136.5889101748993
 20
120.0012522021701
 30
0.0
 11
136.5889101748993
 21
128.0012522021702
 31
0.0
  0
LINE
  5
A239
330
18
100
AcDbEntity
  8
mark
100
AcDbLine
 10
136.5889101748993
 20
128.0012522021702
 30
0.0
 11
144.5889101748993
 21
128.0012522021702
 31
0.0
  0
DIMENSION
  5
A245
330
18
100
AcDbEntity
  8
mark
100
AcDbDimension
  2
*D11
 10
64.12121212121227
 20
99.00125220217018
 30
0.0
 11
56.68480580573365
 21
94.46398368955659
 31
0.0
 70
    36
 71
     5
 42
1.000000000000028
  3
STANDARD
100
AcDbRadialDimension
 15
63.41410534002569
 25
98.29414542098362
 35
0.0
 40
0.0
1001
ACAD
1000
DSTYLE
1002
{
1070
   288
1070
     1
1002
}
  0
LEADER
  5
A25D
330
18
100
AcDbEntity
  8
mark
100
AcDbLeader
  3
STANDARD
 76
     3
 10
63.12121212121226
 20
113.0012522021701
 30
0.0
 10
54.22121212121226
 20
104.1012522021701
 30
0.0
 10
35.63293827323548
 20
104.1012522021701
 30
0.0
  0
TEXT
  5
A25E
330
18
100
AcDbEntity
  8
dim
100
AcDbText
 10
36.25424649515668
 20
104.8235131729378
 30
0.0
 40
2.5
  1
4-%%C5深さ6
  7
TXT
100
AcDbText
  0
LEADER
  5
A261
330
18
100
AcDbEntity
  8
mark
100
AcDbLeader
  3
STANDARD
 76
     3
 10
67.87121212121224
 20
98.00125220217017
 30
0.0
 10
55.97121212121223
 20
86.10125220217017
 30
0.0
 10
34.91837980074604
 20
86.10125220217017
 30
0.0
  0
TEXT
  5
A262
330
18
100
AcDbEntity
  8
dim
100
AcDbText
 10
34.65977163782114
 20
86.65181812434784
 30
0.0
 40
2.5
  1
4-%%C4.3深さ4
  7
TXT
100
AcDbText
  0
HATCH
  5
A30C
330
18
100
AcDbEntity
  8
section
100
AcDbHatch
 10
0.0
 20
0.0
 30
0.0
210
0.0
220
0.0
230
1.0
  2
ANSI31
 70
     0
 71
     1
 91
       11
 92
        7
 72
     1
 73
     1
 93
       34
 10
73.12121212121223
 20
119.3132522021701
 42
0.0
 10
72.43321212121216
 20
120.0012522021701
 42
0.0
 10
64.12121212121227
 20
120.0012522021701
 42
0.4142135623730951
 10
63.12121212121226
 20
119.0012522021701
 42
0.0
 10
63.12121212121227
 20
116.0012522021701
 42
0.0
 10
63.62121212121228
 20
115.5012522021701
 42
0.0
 10
67.67783644823817
 20
115.5012522021702
 42
0.0
 10
69.12121212121225
 20
113.0012522021702
 42
0.0
 10
67.67783644823814
 20
110.5012522021701
 42
0.0
 10
63.62121212121227
 20
110.5012522021701
 42
0.0
 10
63.12121212121226
 20
110.0012522021702
 42
0.0
 10
63.12121212121226
 20
106.1012522021701
 42
0.4142135623730929
 10
64.12121212121227
 20
105.1012522021701
 42
0.0
 10
71.37121212121225
 20
105.1012522021702
 42
0.0
 10
71.37121212121224
 20
103.1012522021701
 42
0.0
 10
64.12121212121227
 20
103.1012522021701
 42
0.4142135623730909
 10
63.12121212121226
 20
102.1012522021701
 42
0.0
 10
63.12121212121224
 20
99.00125220217018
 42
0.4142135623730971
 10
64.12121212121224
 20
98.00125220217017
 42
0.0
 10
65.22121212121223
 20
98.00125220217015
 42
0.0
 10
65.72121212121223
 20
98.50125220217016
 42
0.0
 10
65.72121212121226
 20
100.7599491234125
 42
0.0
 10
67.87121212121225
 20
102.0012522021702
 42
0.0
 10
70.02121212121221
 20
100.7599491234125
 42
0.0
 10
70.02121212121221
 20
98.50125220217018
 42
0.0
 10
70.52121212121226
 20
98.00125220217017
 42
0.0
 10
72.43321212121225
 20
98.00125220217017
 42
0.0
 10
73.12121212121224
 20
98.68925220217015
 42
0.0
 10
73.12121212121224
 20
105.2132522021701
 42
0.0
 10
72.43321212121216
 20
105.9012522021702
 42
0.0
 10
65.87121212121224
 20
105.9012522021702
 42
0.0
 10
65.87121212121222
 20
107.9012522021702
 42
0.0
 10
72.43321212121227
 20
107.9012522021702
 42
0.0
 10
73.12121212121221
 20
108.5892522021701
 42
0.0
 97
       32
330
9D92
330
9D54
330
9D58
330
9D57
330
9D7B
330
9D76
330
9D74
330
9D75
330
9D77
330
9D7A
330
9D62
330
9D61
330
9D6B
330
9D5E
330
9D5A
330
9D59
330
9D5C
330
9D5B
330
9D6D
330
9D6C
330
9D72
330
9D5D
330
9D6E
330
9D6F
330
9D98
330
9D97
330
9D96
330
9D83
330
9D86
330
9D84
330
9D94
330
9D93
 92
        7
 72
     0
 73
     1
 93
        4
 10
73.93321212121219
 20
118.5012522021702
 10
73.12121212121221
 20
119.3132522021701
 10
73.12121212121221
 20
108.5892522021701
 10
73.93321212121226
 20
109.4012522021702
 97
        4
330
9D92
330
9D93
330
9D94
330
9D91
 92
        7
 72
     0
 73
     1
 93
        4
 10
73.93321212121222
 20
104.4012522021701
 10
73.12121212121224
 20
105.2132522021701
 10
73.12121212121224
 20
98.68925220217015
 10
73.93321212121225
 20
99.50125220217016
 97
        4
330
9D96
330
9D97
330
9D98
330
9D95
 92
        7
 72
     0
 73
     1
 93
        4
 10
111.1212121212122
 20
119.3132522021701
 10
110.3092121212122
 20
118.5012522021701
 10
110.3092121212122
 20
109.4012522021701
 10
111.1212121212122
 20
108.5892522021701
 97
        4
330
9D8A
330
9D89
330
9D8C
330
9D8B
 92
        7
 72
     0
 73
     1
 93
        7
 10
113.6212121212123
 20
117.2012522021701
 10
113.6212121212122
 20
120.0012522021701
 10
111.8092121212122
 20
120.0012522021701
 10
111.1212121212122
 20
119.3132522021702
 10
111.1212121212122
 20
108.5892522021701
 10
111.8092121212122
 20
107.9012522021701
 10
113.6212121212123
 20
107.9012522021701
 97
        7
330
9E26
330
9D54
330
9D8A
330
9D8B
330
9D8C
330
9D84
330
9D9E
 92
        7
 72
     0
 73
     1
 93
        4
 10
111.1212121212122
 20
105.2132522021701
 10
110.3092121212122
 20
104.4012522021701
 10
110.3092121212122
 20
99.50125220217014
 10
111.1212121212122
 20
98.68925220217015
 97
        4
330
9D8E
330
9D8D
330
9D90
330
9D8F
 92
        7
 72
     0
 73
     1
 93
       13
 10
112.8712121212122
 20
105.1012522021702
 10
113.6212121212123
 20
105.1012522021701
 10
113.6212121212123
 20
105.9012522021701
 10
111.8092121212121
 20
105.9012522021701
 10
111.1212121212122
 20
105.2132522021702
 10
111.1212121212122
 20
98.68925220217015
 10
111.8092121212122
 20
98.00125220217015
 10
112.1212121212122
 20
98.00125220217017
 10
112.1212121212122
 20
98.30125220217023
 10
112.1212121212123
 20
102.0012522021701
 10
113.6212121212123
 20
102.0012522021701
 10
113.6212121212123
 20
103.1012522021701
 10
112.8712121212122
 20
103.1012522021702
 97
       10
330
9E2C
330
9D9E
330
9D83
330
9D8E
330
9D8F
330
9D90
330
9D5B
330
9E2B
330
9E2D
330
9D6A
 92
        7
 72
     1
 73
     1
 93
       11
 10
121.1212121212122
 20
119.0012522021701
 42
0.4142135623730951
 10
120.1212121212122
 20
120.0012522021701
 42
0.0
 10
117.6212121212122
 20
120.0012522021701
 42
0.0
 10
117.6212121212122
 20
117.2012522021701
 42
0.0
 10
117.6212121212122
 20
107.9012522021701
 42
0.0
 10
118.3712121212122
 20
107.9012522021701
 42
0.0
 10
118.3712121212122
 20
105.9012522021701
 42
0.0
 10
117.6212121212122
 20
105.9012522021701
 42
0.0
 10
117.6212121212122
 20
105.1012522021701
 42
0.0
 10
120.1212121212122
 20
105.1012522021701
 42
0.4142135623730951
 10
121.1212121212122
 20
106.1012522021701
 42
0.0
 97
       10
330
9D55
330
9D54
330
9E29
330
9D9E
330
9E30
330
9D69
330
9E31
330
9D63
330
9D67
330
9D66
 92
        7
 72
     1
 73
     1
 93
        9
 10
121.1212121212122
 20
102.1012522021701
 42
0.4142135623730951
 10
120.1212121212122
 20
103.1012522021701
 42
0.0
 10
117.6212121212123
 20
103.1012522021701
 42
0.0
 10
117.6212121212122
 20
102.0012522021701
 42
0.0
 10
119.1212121212122
 20
102.0012522021701
 42
0.0
 10
119.1212121212122
 20
98.30125220217013
 42
0.0
 10
119.1212121212122
 20
98.00125220217017
 42
0.0
 10
120.1212121212125
 20
98.00125220217017
 42
0.4142135623730118
 10
121.1212121212122
 20
99.00125220217017
 42
0.0
 97
        7
330
9D60
330
9D5F
330
9D9E
330
9E2A
330
9D5B
330
9D65
330
9D64
 92
        7
 72
     0
 73
     1
 93
        4
 10
114.0002121212122
 20
120.0012522021701
 10
113.6212121212122
 20
120.0012522021701
 10
113.6212121212122
 20
117.20125220217
 10
114.0002121212122
 20
117.58025220217
 97
        4
330
9D54
330
9E26
330
9D9E
330
9E27
 92
        7
 72
     0
 73
     1
 93
        4
 10
117.6212121212122
 20
120.0012522021701
 10
117.2422121212122
 20
120.0012522021701
 10
117.2422121212122
 20
117.5802522021701
 10
117.6212121212122
 20
117.2012522021701
 97
        4
330
9D54
330
9E28
330
9D9E
330
9E29
 75
     0
 76
     1
 52
0.0
 41
0.5
 77
     0
 78
     1
 53
45.0
 43
0.0
 44
0.0
 45
-1.122532015133643
 46
1.122532015133644
 79
     0
 47
0.1782159688465112
 98
       13
 10
70.79554157884206
 20
115.9038674690134
 10
74.130409499356
 20
115.7451236361087
 10
70.50681711694153
 20
108.9022267207934
 10
73.40888615820801
 20
109.6862758890916
 10
73.48732069504968
 20
103.8843106880792
 10
110.5062945426058
 20
113.401290068624
 10
111.7329671481626
 20
113.401290068624
 10
110.6178103676848
 20
103.9260046390965
 10
112.4020613634806
 20
104.1489527282518
 10
119.6505819068985
 20
112.6209724343836
 10
119.7620969968214
 20
101.0276821912904
 10
113.8655630284187
 20
117.9418621011889
 10
117.4654510383376
 20
118.0579440797158
1001
ACAD
1010
0.0
1020
0.0
1030
0.0
  0
DIMENSION
  5
A30D
330
18
100
AcDbEntity
  8
mark
100
AcDbDimension
  2
*D12
 10
69.08881192408903
 20
181.9135410218723
 30
0.0
 11
130.8184966421696
 21
194.4152604465124
 31
0.0
 70
   163
  1
P.C.D 47
 71
     5
 42
46.99999999999993
  3
STANDARD
100
AcDbDiametricDimension
 15
115.1536123183354
 25
191.2427513120432
 35
0.0
 40
0.0
1001
ACAD
1000
DSTYLE
1002
{
1070
   288
1070
     1
1002
}
  0
DIMENSION
  5
A31E
330
18
100
AcDbEntity
  8
mark
100
AcDbDimension
  2
*D13
 10
115.6228974425085
 20
180.6004135651459
 30
0.0
 11
52.73380146279271
 21
196.5964663671875
 31
0.0
 70
   163
  1
P.C.D 48.5
 71
     5
 42
48.49999999999992
  3
STANDARD
100
AcDbDiametricDimension
 15
68.61952679991595
 25
192.5558787687696
 35
0.0
 40
0.0
1001
ACAD
1000
DSTYLE
1002
{
1070
   288
1070
     1
1002
}
  0
LEADER
  5
A32A
330
18
100
AcDbEntity
  8
mark
100
AcDbLeader
  3
STANDARD
 76
     2
 10
117.2359488309609
 20
172.0781461669578
 30
0.0
 10
133.6244313043625
 20
162.6162513993299
 30
0.0
211
0.8660254037844383
221
-0.5000000000000005
231
0.0
1001
ACAD
1000
DSTYLE
1002
{
1070
   147
1040
0.4
1070
    77
1070
     0
1002
}
  0
MTEXT
  5
A32B
330
18
100
AcDbEntity
  8
dim
100
AcDbMText
 10
135.7402482069138
 20
165.2175925054164
 30
0.0
 40
5.0
 41
18.70679546285737
 71
     1
 72
     5
  1
1
  7
TXT
 73
     1
 44
1.0
1001
ACAD
1000
ACAD_MTEXT_DEFINED_HEIGHT_BEGIN
1070
    46
1040
0.0
1000
ACAD_MTEXT_DEFINED_HEIGHT_END
  0
LEADER
  5
A32F
330
18
100
AcDbEntity
  8
mark
100
AcDbLeader
  3
STANDARD
 76
     2
 10
115.6212121212123
 20
98.00125220217017
 30
0.0
 10
133.6244313043625
 20
86.9963482165466
 30
0.0
1001
ACAD
1000
DSTYLE
1002
{
1070
   147
1040
0.4
1070
    77
1070
     0
1002
}
  0
MTEXT
  5
A330
330
18
100
AcDbEntity
  8
dim
100
AcDbMText
 10
135.7402482069138
 20
89.59768932263314
 30
0.0
 40
5.0
 41
18.70679546285737
 71
     1
 72
     5
  1
2
  7
TXT
 73
     1
 44
1.0
1001
ACAD
1000
ACAD_MTEXT_DEFINED_HEIGHT_BEGIN
1070
    46
1040
0.0
1000
ACAD_MTEXT_DEFINED_HEIGHT_END
  0
MTEXT
  5
A33E
330
18
100
AcDbEntity
  8
0
100
AcDbMText
 10
47.65097232190476
 20
19.07605901616614
 30
0.0
 40
4.5
 41
0.0
 71
     1
 72
     5
  1
{\Ftxt,bigfont|c128;小\~柳}
  7
JL
 73
     1
 44
1.0
1001
ACAD
1000
ACAD_MTEXT_DEFINED_HEIGHT_BEGIN
1070
    46
1040
0.0
1000
ACAD_MTEXT_DEFINED_HEIGHT_END
  0
MTEXT
  5
A35D
330
18
100
AcDbEntity
  8
dim
100
AcDbMText
 10
9.809807675380284
 20
40.33363618535702
 30
0.0
 40
4.5
 41
0.0
 71
     1
 72
     5
  1
{\Ftxt,bigfont|c128;07.10.03\~寸法一部変更  林}
  7
JL
 73
     1
 44
1.0
1001
ACAD
1000
ACAD_MTEXT_DEFINED_HEIGHT_BEGIN
1070
    46
1040
0.0
1000
ACAD_MTEXT_DEFINED_HEIGHT_END
  0
CIRCLE
  5
A360
330
18
100
AcDbEntity
  8
dim
100
AcDbCircle
 10
44.19227447960224
 20
38.01104274095974
 30
0.0
 40
2.750054604459023
  0
LWPOLYLINE
  5
A363
330
18
100
AcDbEntity
  8
mark
100
AcDbPolyline
 90
        3
 70
     1
 43
0.0
 10
123.6339506521296
 20
123.543263915212
 10
128.1339506521296
 20
120.9451877038587
 10
128.1339506521296
 20
126.1413401265653
  0
TEXT
  5
A364
330
18
100
AcDbEntity
  8
dim
100
AcDbText
 10
127.5747357161862
 20
123.1625003109009
 30
0.0
 40
2.5
  1
1
 50
90.0
  7
TXT
100
AcDbText
  0
LINE
  5
A365
330
18
100
AcDbEntity
  8
mark
 62
     1
100
AcDbLine
 10
126.3068272594009
 20
115.1413430697837
 30
0.0
 11
126.3068272594009
 21
107.4314334500918
 31
0.0
  0
LINE
  5
A366
330
18
100
AcDbEntity
  8
mark
 62
     1
100
AcDbLine
 10
127.2907643520641
 20
115.1413430697837
 30
0.0
 11
127.2907643520641
 21
107.4314334500918
 31
0.0
  0
MTEXT
  5
A382
330
18
100
AcDbEntity
  8
mark
 62
     3
100
AcDbMText
 10
126.8787421529189
 20
131.9530885631325
 30
0.0
 40
2.5
 41
0.0
 71
     5
 72
     1
  1
14.25
 11
0.0000000000000001
 21
1.0
 31
0.0
 73
     1
 44
1.0
1001
ACAD
1000
ACAD_MTEXT_DEFINED_HEIGHT_BEGIN
1070
    46
1040
0.0
1000
ACAD_MTEXT_DEFINED_HEIGHT_END
  0
LWPOLYLINE
  5
A3C1
330
18
100
AcDbEntity
  8
mark
100
AcDbPolyline
 90
        3
 70
     1
 43
0.0
 10
7.931554253642225
 20
43.65585124014373
 10
5.04480290769411
 20
48.65585124014373
 10
2.158051561745971
 20
43.65585124014373
  0
MTEXT
  5
A3C2
330
18
100
AcDbEntity
  8
dim
100
AcDbMText
 10
4.253104247975249
 20
46.69361576103094
 30
0.0
 40
2.5
 41
9.163114146879252
 71
     1
 72
     5
  1
2
 73
     1
 44
1.0
1001
ACAD
1000
ACAD_MTEXT_DEFINED_HEIGHT_BEGIN
1070
    46
1040
0.0
1000
ACAD_MTEXT_DEFINED_HEIGHT_END
  0
MTEXT
  5
A3C3
330
18
100
AcDbEntity
  8
dim
100
AcDbMText
 10
9.694752765113889
 20
48.11640922259403
 30
0.0
 40
4.5
 41
0.0
 71
     1
 72
     5
  1
{\Ftxt,bigfont|c128;08.08.08 振れ精度の変更  林}
  7
JL
 73
     1
 44
1.0
1001
ACAD
1000
ACAD_MTEXT_DEFINED_HEIGHT_BEGIN
1070
    46
1040
0.0
1000
ACAD_MTEXT_DEFINED_HEIGHT_END
  0
CIRCLE
  5
A3C4
330
18
100
AcDbEntity
  8
dim
100
AcDbCircle
 10
47.46905605913963
 20
45.80659060262724
 30
0.0
 40
2.762409708108862
  0
LWPOLYLINE
  5
A3C5
330
18
100
AcDbEntity
  8
mark
100
AcDbPolyline
 90
        3
 70
     1
 43
0.0
 10
7.931554253642225
 20
35.87307820290674
 10
5.04480290769411
 20
40.87307820290673
 10
2.158051561745971
 20
35.87307820290674
  0
MTEXT
  5
A3C6
330
18
100
AcDbEntity
  8
dim
100
AcDbMText
 10
4.666690859138077
 20
39.03126900672951
 30
0.0
 40
2.5
 41
9.163114146879252
 71
     1
 72
     5
  1
1
 73
     1
 44
1.0
1001
ACAD
1000
ACAD_MTEXT_DEFINED_HEIGHT_BEGIN
1070
    46
1040
0.0
1000
ACAD_MTEXT_DEFINED_HEIGHT_END
  0
LWPOLYLINE
  5
A3C7
330
18
100
AcDbEntity
  8
mark
100
AcDbPolyline
 90
        3
 70
     1
 43
0.0
 10
150.7637276228632
 20
131.8791968950174
 10
147.8769762769151
 20
136.8791968950174
 10
144.9902249309669
 20
131.8791968950174
  0
MTEXT
  5
A3C8
330
18
100
AcDbEntity
  8
dim
100
AcDbMText
 10
147.0852776171962
 20
134.9169614159047
 30
0.0
 40
2.5
 41
9.163114146879252
 71
     1
 72
     5
  1
2
 73
     1
 44
1.0
1001
ACAD
1000
ACAD_MTEXT_DEFINED_HEIGHT_BEGIN
1070
    46
1040
0.0
1000
ACAD_MTEXT_DEFINED_HEIGHT_END
  0
MTEXT
  5
A3C9
330
18
100
AcDbEntity
  8
dim
100
AcDbMText
 10
152.0549418617868
 20
134.9169614159047
 30
0.0
 40
2.5
 41
9.163114146879252
 71
     1
 72
     5
  1
0.007
 73
     1
 44
1.0
1001
ACAD
1000
ACAD_MTEXT_DEFINED_HEIGHT_BEGIN
1070
    46
1040
0.0
1000
ACAD_MTEXT_DEFINED_HEIGHT_END
  0
LINE
  5
A3CA
330
18
100
AcDbEntity
  8
mark
 62
     1
100
AcDbLine
 10
151.134849347809
 20
128.4546185343027
 30
0.0
 11
161.5560140389864
 21
128.4546185343027
 31
0.0
  0
LINE
  5
A3CB
330
18
100
AcDbEntity
  8
mark
 62
     1
100
AcDbLine
 10
151.134849347809
 20
127.5348737729003
 30
0.0
 11
161.5560140389864
 21
127.5348737729003
 31
0.0
  0
LWPOLYLINE
  5
A3CC
330
18
100
AcDbEntity
  8
mark
100
AcDbPolyline
 90
        3
 70
     1
 43
0.0
 10
181.5052945615455
 20
2.739493858638411
 10
178.6185432155973
 20
7.739493858638411
 10
175.7317918696492
 20
2.739493858638411
  0
MTEXT
  5
A3CD
330
18
100
AcDbEntity
  8
dim
100
AcDbMText
 10
177.8268445558785
 20
5.777258379525619
 30
0.0
 40
2.5
 41
9.163114146879252
 71
     1
 72
     5
  1
2
 73
     1
 44
1.0
1001
ACAD
1000
ACAD_MTEXT_DEFINED_HEIGHT_BEGIN
1070
    46
1040
0.0
1000
ACAD_MTEXT_DEFINED_HEIGHT_END
  0
ENDSEC
  0
SECTION
  2
OBJECTS
  0
DICTIONARY
  5
C
330
0
100
AcDbDictionary
281
     1
  3
ACAD_COLOR
350
7873
  3
ACAD_GROUP
350
D
  3
ACAD_LAYOUT
350
5CF3
  3
ACAD_MATERIAL
350
7872
  3
ACAD_MLINESTYLE
350
1B
  3
ACAD_PLOTSETTINGS
350
5CF4
  3
ACAD_PLOTSTYLENAME
350
5CF1
  3
ACAD_TABLESTYLE
350
7874
  3
AcadDim
350
A202
  3
ACDBVARIABLEDICTIONARY
350
45D
  0
DICTIONARY
  5
7BFE
330
2
100
AcDbDictionary
280
     1
281
     1
  3
ACAD_LAYERFILTERS
360
7C00
  3
ACLYDICTIONARY
360
7BFF
  0
DICTIONARY
  5
45F
330
18
100
AcDbDictionary
280
     1
281
     1
  3
ACAD_LAYOUTSELFREF
360
5D8B
  3
ACAD_SORTENTS
360
460
  0
DICTIONARY
  5
5D89
330
15
100
AcDbDictionary
280
     1
281
     1
  3
ACAD_LAYOUTSELFREF
360
5D8A
  0
DICTIONARY
  5
7C0B
330
7C0A
100
AcDbDictionary
280
     1
281
     1
  3
AcDbBlockTableRecordData
360
7C0C
  0
DICTIONARY
  5
8E73
330
8E72
100
AcDbDictionary
280
     1
281
     1
  3
AcDbBlockTableRecordData
360
8E74
  0
DICTIONARY
  5
9D16
330
9D15
100
AcDbDictionary
280
     1
281
     1
  3
AcDbBlockTableRecordData
360
9D17
  0
DICTIONARY
  5
7873
102
{ACAD_REACTORS
330
C
102
}
330
C
100
AcDbDictionary
281
     1
  0
DICTIONARY
  5
D
102
{ACAD_REACTORS
330
C
102
}
330
C
100
AcDbDictionary
281
     1
  0
DICTIONARY
  5
5CF3
102
{ACAD_REACTORS
330
C
102
}
330
C
100
AcDbDictionary
281
     1
  3
Model
350
5CF5
  3
配置1
350
5CF6
  0
DICTIONARY
  5
7872
102
{ACAD_REACTORS
330
C
102
}
330
C
100
AcDbDictionary
281
     1
  0
DICTIONARY
  5
1B
102
{ACAD_REACTORS
330
C
102
}
330
C
100
AcDbDictionary
281
     1
  3
STANDARD
350
1C
  0
DICTIONARY
  5
5CF4
102
{ACAD_REACTORS
330
C
102
}
330
C
100
AcDbDictionary
281
     1
  0
ACDBDICTIONARYWDFLT
  5
5CF1
102
{ACAD_REACTORS
330
C
102
}
330
C
100
AcDbDictionary
281
     1
  3
Normal
350
5CF2
100
AcDbDictionaryWithDefault
340
5CF2
  0
DICTIONARY
  5
7874
102
{ACAD_REACTORS
330
C
102
}
330
C
100
AcDbDictionary
281
     1
  3
Standard
350
7875
  0
XRECORD
  5
A202
102
{ACAD_REACTORS
330
C
102
}
330
C
100
AcDbXrecord
280
     1
 90
   990106
  3

 60
     0
 61
     0
 62
     1
 63
     3
 64
     0
 65
     0
 66
     0
 67
     3
 68
     1
 69
     0
 70
     0
 71
     0
 72
     0
 40
0.0
170
     0
  0
DICTIONARY
  5
45D
102
{ACAD_REACTORS
330
C
102
}
330
C
100
AcDbDictionary
281
     1
  3
CTABLESTYLE
350
7880
  3
SORTENTS
350
45E
  0
DICTIONARY
  5
7C00
102
{ACAD_REACTORS
330
7BFE
102
}
330
7BFE
100
AcDbDictionary
281
     1
  0
DICTIONARY
  5
7BFF
102
{ACAD_REACTORS
330
7BFE
102
}
330
7BFE
100
AcDbDictionary
281
     1
1001
ACAD
1000
<All
  0
XRECORD
  5
5D8B
102
{ACAD_REACTORS
330
45F
102
}
330
45F
100
AcDbXrecord
280
     1
340
18
  0
SORTENTSTABLE
  5
460
102
{ACAD_REACTORS
330
45F
102
}
330
45F
100
AcDbSortentsTable
330
18
331
9D79
  5
9D84
331
7D9C
  5
7D9C
331
9E30
  5
9E33
331
9E77
  5
9E7C
331
7DA4
  5
7DA4
331
7D6D
  5
7D6D
331
C0
  5
CB
331
A17D
  5
A204
331
A1F4
  5
A20E
331
A32A
  5
A32A
331
9D89
  5
9D8D
331
7D75
  5
7D75
331
7DAC
  5
7DAC
331
9E7F
  5
9E84
331
9E48
  5
9E4C
331
7DB4
  5
7DB4
331
9E87
  5
9E8C
331
A10E
  5
A1C7
331
A204
  5
A238
331
9D5A
  5
9D5C
331
7DBC
  5
7DBC
331
7D7D
  5
7D7D
331
9D91
  5
9D95
331
9E50
  5
9E54
331
9D62
  5
9D64
331
7D85
  5
7D85
331
9D99
  5
9D9D
331
9E58
  5
9E5D
331
9E8F
  5
9E94
331
A136
  5
A1C8
331
9D6A
  5
9D6E
331
7D8D
  5
7D8D
331
9E60
  5
9E67
331
9E97
  5
9E9D
331
A382
  5
A382
331
9D72
  5
9D76
331
7D95
  5
7D95
331
9E29
  5
9E2B
331
9E68
  5
9E6D
331
9E9F
  5
9EA5
331
9D7A
  5
9D85
331
7D9D
  5
7D9D
331
9E31
  5
9E36
331
9E70
  5
9E75
331
9E78
  5
9E7D
331
7DA5
  5
7DA5
331
7D6E
  5
7D6E
331
A32B
  5
A32B
331
9D8A
  5
9D8E
331
7D76
  5
7D76
331
7DAD
  5
7DAD
331
9E80
  5
9E85
331
9E49
  5
9E4D
331
7DB5
  5
7DB5
331
A205
  5
A239
331
A20D
  5
A245
331
9D5B
  5
9D5D
331
7DBD
  5
7DBD
331
7D7E
  5
7D7E
331
9D92
  5
9D96
331
9E51
  5
9E58
331
9E88
  5
9E8D
331
A363
  5
A363
331
9D63
  5
9D65
331
7D86
  5
7D86
331
9D9A
  5
9DAC
331
9E59
  5
9E5E
331
9E90
  5
9E95
331
A30C
  5
9D55
331
9D6B
  5
9D6F
331
7D8E
  5
7D8E
331
9E61
  5
9E68
331
9E98
  5
9E9E
331
9D73
  5
9D77
331
7D96
  5
7D96
331
9E2A
  5
9E2C
331
9E69
  5
9E6E
331
9EA0
  5
9EA6
331
A245
  5
A263
331
A1D6
  5
A205
331
9D7B
  5
9D87
331
7D9E
  5
7D9E
331
9E71
  5
9E76
331
9EB0
  5
A17D
331
9D83
  5
9D8A
331
7D6F
  5
7D6F
331
7DA6
  5
7DA6
331
9E79
  5
9E7E
331
A25D
  5
A30D
331
9D8B
  5
9D8F
331
7D77
  5
7D77
331
7DAE
  5
7DAE
331
9E81
  5
9E86
331
9D54
  5
9D56
331
7DB6
  5
7DB6
331
A20E
  5
A25D
331
9E89
  5
9E8E
331
9D5C
  5
9D5E
331
7D7F
  5
7D7F
331
9D93
  5
9D97
331
9E52
  5
9E59
331
A364
  5
A364
331
A30D
  5
A31D
331
9E91
  5
9E96
331
A140
  5
A1C9
331
A236
  5
A25E
331
9D64
  5
9D66
331
7D87
  5
7D87
331
9D9B
  5
9E25
331
9E5A
  5
9E60
331
9E99
  5
9E9F
331
A1C7
  5
A1CB
331
9D6C
  5
9D70
331
7D8F
  5
7D8F
331
9E62
  5
9E69
331
9EA1
  5
9EA9
331
9D74
  5
9D78
331
7D97
  5
7D97
331
9E2B
  5
9E2D
331
9E6A
  5
9E6F
331
9EA9
  5
A140
331
9E72
  5
9E77
331
7D9F
  5
7D9F
331
9D84
  5
9D8B
331
7D70
  5
7D70
331
9E7A
  5
9E7F
331
A25E
  5
A31A
331
9D8C
  5
9D90
331
7DAF
  5
7DAF
331
9E82
  5
9E87
331
9D55
  5
9D57
331
7DB7
  5
7DB7
331
A35D
  5
A35D
331
7D78
  5
7D78
331
9E8A
  5
9E8F
331
9D5D
  5
9D5F
331
7D80
  5
7D80
331
9D94
  5
9D98
331
9E53
  5
9E5B
331
A365
  5
A365
331
9E92
  5
9E97
331
9D65
  5
9D67
331
7D88
  5
7D88
331
9D9C
  5
9E26
331
9E5B
  5
9E61
331
9E9A
  5
9EA0
331
A1C8
  5
A1CC
331
9D6D
  5
9D71
331
7D90
  5
7D90
331
9EA2
  5
9EAA
331
A31E
  5
A31E
331
9D75
  5
9D79
331
9E2C
  5
9E30
331
9E6B
  5
9E70
331
7D98
  5
7D98
331
9EAA
  5
A14D
331
9E73
  5
9E78
331
7DA0
  5
7DA0
331
9E3C
  5
9E42
331
7D71
  5
7D71
331
7DA8
  5
7DA8
331
9E7B
  5
9E80
331
9E83
  5
9E88
331
7DB0
  5
7DB0
331
9D8D
  5
9D91
331
A33E
  5
A33E
331
9D56
  5
9D58
331
9E4C
  5
9E4F
331
7DB8
  5
7DB8
331
7D79
  5
7D79
331
9E8B
  5
9E90
331
9D5E
  5
9D60
331
7D81
  5
7D81
331
9D95
  5
9D99
331
9E54
  5
9E5C
331
A366
  5
A366
331
9E93
  5
9E99
331
A238
  5
A261
331
9D66
  5
9D68
331
7D89
  5
7D89
331
9E5C
  5
9E62
331
9E9B
  5
9EA1
331
A1C9
  5
A1D6
331
9E25
  5
9D6C
331
9D6E
  5
9D72
331
7D91
  5
7D91
331
9EA3
  5
9EAB
331
9D76
  5
9D7A
331
9E2D
  5
9E31
331
9E6C
  5
9E71
331
7D99
  5
7D99
331
9E74
  5
9E79
331
A32F
  5
A32F
331
9D86
  5
9D8C
331
7D72
  5
7D72
331
7DA9
  5
7DA9
331
9E3D
  5
9E43
331
9E7C
  5
9E81
331
9E84
  5
9E89
331
9D8E
  5
9D92
331
7DB1
  5
7DB1
331
9D57
  5
9D59
331
9E4D
  5
9E50
331
7D7A
  5
7D7A
331
9E8C
  5
9E91
331
9D5F
  5
9D61
331
7D82
  5
7D82
331
9D96
  5
9D9A
331
9E94
  5
9E9A
331
A239
  5
A262
331
9D67
  5
9D69
331
7D8A
  5
7D8A
331
9D9E
  5
9E27
331
9E5D
  5
9E64
331
9E9C
  5
9EA2
331
A1CA
  5
A1F2
331
9D6F
  5
9D73
331
7D92
  5
7D92
331
9E26
  5
9E28
331
9E65
  5
9E6A
331
9EA4
  5
9EAF
331
9D77
  5
9D7B
331
9E6D
  5
9E72
331
7D9A
  5
7D9A
331
9E36
  5
9E38
331
7DA2
  5
7DA2
331
9E75
  5
9E7A
331
A1F2
  5
A20D
331
9E3E
  5
9E49
331
7DAA
  5
7DAA
331
7D73
  5
7D73
331
9E7D
  5
9E82
331
A330
  5
A330
331
9E85
  5
9E8A
331
9D8F
  5
9D93
331
7DB2
  5
7DB2
331
A261
  5
A31B
331
9E4E
  5
9E51
331
9D58
  5
9D5A
331
7DBA
  5
7DBA
331
7D7B
  5
7D7B
331
A360
  5
A360
331
9D60
  5
9D62
331
7D83
  5
7D83
331
9D97
  5
9D9B
331
9E8D
  5
9E92
331
A232
  5
A236
331
9D68
  5
9D6B
331
7D8B
  5
7D8B
331
9E5E
  5
9E65
331
9E95
  5
9E9B
331
9D70
  5
9D74
331
7D93
  5
7D93
331
9E27
  5
9E29
331
9E66
  5
9E6B
331
9E9D
  5
9EA3
331
A1CB
  5
A1F4
331
9E6E
  5
9E73
331
9EA5
  5
9EB1
331
9D78
  5
9D7C
331
7D9B
  5
7D9B
331
9E37
  5
9E3F
331
7DA3
  5
7DA3
331
7D6C
  5
7D6C
331
9E76
  5
9E7B
331
9E3F
  5
9E4A
331
7D74
  5
7D74
331
9E7E
  5
9E83
331
9E86
  5
9E8B
331
9E47
  5
9E4B
331
A203
  5
A20F
331
A262
  5
A31C
331
9E4F
  5
9E53
331
9D90
  5
9D94
331
9D59
  5
9D5B
331
7D7C
  5
7D7C
331
7DBB
  5
7DBB
331
9D61
  5
9D63
331
7D84
  5
7D84
331
9D98
  5
9D9C
331
9E8E
  5
9E93
331
9D69
  5
9D6D
331
7D8C
  5
7D8C
331
9E5F
  5
9E66
331
9E96
  5
9E9C
331
A14D
  5
A1CA
331
9D71
  5
9D75
331
7D94
  5
7D94
331
9E28
  5
9E2A
331
9E67
  5
9E6C
331
9E9E
  5
9EA4
331
A1CC
  5
A203
331
9E6F
  5
9E74
331
9EA6
  5
A136
  0
XRECORD
  5
5D8A
102
{ACAD_REACTORS
330
5D89
102
}
330
5D89
100
AcDbXrecord
280
     1
340
15
  0
DICTIONARY
  5
7C0C
102
{ACAD_REACTORS
330
7C0B
102
}
330
7C0B
100
AcDbDictionary
280
     1
281
     1
  3
Edit
360
7C0D
  0
DICTIONARY
  5
8E74
102
{ACAD_REACTORS
330
8E73
102
}
330
8E73
100
AcDbDictionary
280
     1
281
     1
  3
Edit
360
8E75
  0
DICTIONARY
  5
9D17
102
{ACAD_REACTORS
330
9D16
102
}
330
9D16
100
AcDbDictionary
280
     1
281
     1
  3
Edit
360
9D18
  0
LAYOUT
  5
5CF5
102
{ACAD_REACTORS
330
5CF3
102
}
330
5CF3
100
AcDbPlotSettings
  1

  2
hp LaserJet 1300 PCL 6
  4
A4
  6

 40
5.027083396911621
 41
5.069413185119628
 42
5.027084350585937
 43
5.027069091796875
 44
209.9733276367187
 45
296.9683227539062
 46
2.628062639917644
 47
0.0
 48
0.0
 49
0.0
140
190.0
141
280.0
142
1.0
143
0.9760456081518363
 70
 11956
 72
     1
 73
     0
 74
     4
  7
LIN.ctb
 75
     0
147
1.02454228741782
 76
     0
 77
     2
 78
   300
148
0.0
149
0.0
100
AcDbLayout
  1
Model
 70
     1
 71
     0
 10
0.0
 20
0.0
 11
12.0
 21
9.0
 12
0.0
 22
0.0
 32
0.0
 14
0.0
 24
0.0
 34
0.0
 15
0.0
 25
0.0
 35
0.0
146
0.0
 13
0.0
 23
0.0
 33
0.0
 16
1.0
 26
0.0
 36
0.0
 17
0.0
 27
1.0
 37
0.0
 76
     0
330
18
1001
ACAD_PSEXT
1000
hp LaserJet 1300 PCL 6
1000
hp LaserJet 1300 PCL 6
1000
HP 1300
1000

1070
     0
  0
LAYOUT
  5
5CF6
102
{ACAD_REACTORS
330
5CF3
102
}
330
5CF3
100
AcDbPlotSettings
  1

  2
EPSON STYLUS COLOR 440
  4

  6

 40
0.0
 41
0.0
 42
0.0
 43
0.0
 44
0.0
 45
0.0
 46
0.0
 47
0.0
 48
0.0
 49
0.0
140
0.0
141
0.0
142
1.0
143
1.0
 70
   688
 72
     0
 73
     0
 74
     5
  7
LIN.ctb
 75
    16
147
1.0
 76
     0
 77
     2
 78
   300
148
0.0
149
0.0
100
AcDbLayout
  1
ｰtｸm1
 70
     1
 71
     1
 10
0.0
 20
0.0
 11
420.0
 21
297.0
 12
0.0
 22
0.0
 32
0.0
 14
1.000000000000000E+20
 24
1.000000000000000E+20
 34
1.000000000000000E+20
 15
-1.000000000000000E+20
 25
-1.000000000000000E+20
 35
-1.000000000000000E+20
146
0.0
 13
0.0
 23
0.0
 33
0.0
 16
1.0
 26
0.0
 36
0.0
 17
0.0
 27
1.0
 37
0.0
 76
     0
330
15
  0
MLINESTYLE
  5
1C
102
{ACAD_REACTORS
330
1B
102
}
330
1B
100
AcDbMlineStyle
  2
STANDARD
 70
     0
  3

 62
   256
 51
90.0
 52
90.0
 71
     2
 49
0.5
 62
   256
  6
BYLAYER
 49
-0.5
 62
   256
  6
BYLAYER
  0
ACDBPLACEHOLDER
  5
5CF2
102
{ACAD_REACTORS
330
5CF1
102
}
330
5CF1
  0
TABLESTYLE
  5
7875
102
{ACAD_REACTORS
330
7874
102
}
330
7874
100
AcDbTableStyle
  3
Standard
 70
     0
 71
     8
 40
1.5
 41
1.5
280
     0
281
     0
  7
STANDARD
140
4.5
170
     2
 62
     0
 63
     7
283
     0
274
    -2
284
     1
 64
     0
275
    -2
285
     1
 65
     0
276
    -2
286
     1
 66
     0
277
    -2
287
     1
 67
     0
278
    -2
288
     1
 68
     0
279
    -2
289
     1
 69
     0
  7
STANDARD
140
6.0
170
     5
 62
     0
 63
     7
283
     0
274
    -2
284
     1
 64
     0
275
    -2
285
     1
 65
     0
276
    -2
286
     1
 66
     0
277
    -2
287
     1
 67
     0
278
    -2
288
     1
 68
     0
279
    -2
289
     1
 69
     0
  7
STANDARD
140
4.5
170
     5
 62
     0
 63
     7
283
     0
274
    -2
284
     1
 64
     0
275
    -2
285
     1
 65
     0
276
    -2
286
     1
 66
     0
277
    -2
287
     1
 67
     0
278
    -2
288
     1
 68
     0
279
    -2
289
     1
 69
     0
  0
DICTIONARYVAR
  5
7880
102
{ACAD_REACTORS
330
45D
102
}
330
45D
100
DictionaryVariables
280
     0
  1
STANDARD
  0
DICTIONARYVAR
  5
45E
102
{ACAD_REACTORS
330
45D
102
}
330
45D
100
DictionaryVariables
280
     0
  1
127
  0
XRECORD
  5
7C0D
102
{ACAD_REACTORS
330
7C0C
102
}
330
7C0C
100
AcDbXrecord
280
     1
1070
     0
1070
     1
1070
     1
  0
XRECORD
  5
8E75
102
{ACAD_REACTORS
330
8E74
102
}
330
8E74
100
AcDbXrecord
280
     1
1070
     0
1070
     1
1070
     1
  0
XRECORD
  5
9D18
102
{ACAD_REACTORS
330
9D17
102
}
330
9D17
100
AcDbXrecord
280
     1
1070
     0
1070
     1
1070
     1
  0
ENDSEC
  0
EOF
