  0
SECTION
  2
HEADER
  9
$ACADVER
  1
AC1018
  9
$ACADMAINTVER
 70
    76
  9
$DWGCODEPAGE
  3
ANSI_932
  9
$INSBASE
 10
0.0
 20
0.0
 30
0.0
  9
$EXTMIN
 10
0.0
 20
0.0
 30
0.0
  9
$EXTMAX
 10
190.0
 20
280.0
 30
3.838383838383842
  9
$LIMMIN
 10
0.0
 20
0.0
  9
$LIMMAX
 10
420.0
 20
297.0
  9
$ORTHOMODE
 70
     1
  9
$REGENMODE
 70
     1
  9
$FILLMODE
 70
     1
  9
$QTEXTMODE
 70
     0
  9
$MIRRTEXT
 70
     1
  9
$LTSCALE
 40
1.0
  9
$ATTMODE
 70
     1
  9
$TEXTSIZE
 40
1.25
  9
$TRACEWID
 40
1.0
  9
$TEXTSTYLE
  7
TXT
  9
$CLAYER
  8
mark
  9
$CELTYPE
  6
BYLAYER
  9
$CECOLOR
 62
   256
  9
$CELTSCALE
 40
1.0
  9
$DISPSILH
 70
     0
  9
$DIMSCALE
 40
1.0
  9
$DIMASZ
 40
2.5
  9
$DIMEXO
 40
0.85
  9
$DIMDLI
 40
0.38
  9
$DIMRND
 40
0.0
  9
$DIMDLE
 40
0.0
  9
$DIMEXE
 40
0.85
  9
$DIMTP
 40
0.0
  9
$DIMTM
 40
0.0
  9
$DIMTXT
 40
2.5
  9
$DIMCEN
 40
0.09
  9
$DIMTSZ
 40
0.0
  9
$DIMTOL
 70
     0
  9
$DIMLIM
 70
     0
  9
$DIMTIH
 70
     0
  9
$DIMTOH
 70
     0
  9
$DIMSE1
 70
     0
  9
$DIMSE2
 70
     0
  9
$DIMTAD
 70
     3
  9
$DIMZIN
 70
     8
  9
$DIMBLK
  1
Open30
  9
$DIMASO
 70
     1
  9
$DIMSHO
 70
     1
  9
$DIMPOST
  1

  9
$DIMAPOST
  1

  9
$DIMALT
 70
     0
  9
$DIMALTD
 70
     2
  9
$DIMALTF
 40
25.4
  9
$DIMLFAC
 40
1.0
  9
$DIMTOFL
 70
     1
  9
$DIMTVP
 40
0.0
  9
$DIMTIX
 70
     0
  9
$DIMSOXD
 70
     0
  9
$DIMSAH
 70
     0
  9
$DIMBLK1
  1

  9
$DIMBLK2
  1

  9
$DIMSTYLE
  2
STANDARD
  9
$DIMCLRD
 70
   256
  9
$DIMCLRE
 70
   256
  9
$DIMCLRT
 70
     3
  9
$DIMTFAC
 40
1.0
  9
$DIMGAP
 40
0.85
  9
$DIMJUST
 70
     0
  9
$DIMSD1
 70
     0
  9
$DIMSD2
 70
     0
  9
$DIMTOLJ
 70
     1
  9
$DIMTZIN
 70
     0
  9
$DIMALTZ
 70
     0
  9
$DIMALTTZ
 70
     0
  9
$DIMUPT
 70
     0
  9
$DIMDEC
 70
     2
  9
$DIMTDEC
 70
     2
  9
$DIMALTU
 70
     2
  9
$DIMALTTD
 70
     2
  9
$DIMTXSTY
  7
STANDARD
  9
$DIMAUNIT
 70
     0
  9
$DIMADEC
 70
     2
  9
$DIMALTRND
 40
0.0
  9
$DIMAZIN
 70
     2
  9
$DIMDSEP
 70
    46
  9
$DIMATFIT
 70
     3
  9
$DIMFRAC
 70
     0
  9
$DIMLDRBLK
  1
Open30
  9
$DIMLUNIT
 70
     2
  9
$DIMLWD
 70
    -2
  9
$DIMLWE
 70
    -2
  9
$DIMTMOVE
 70
     0
  9
$LUNITS
 70
     2
  9
$LUPREC
 70
     2
  9
$SKETCHINC
 40
1.0
  9
$FILLETRAD
 40
1.0
  9
$AUNITS
 70
     0
  9
$AUPREC
 70
     2
  9
$MENU
  1
.
  9
$ELEVATION
 40
0.0
  9
$PELEVATION
 40
0.0
  9
$THICKNESS
 40
0.0
  9
$LIMCHECK
 70
     0
  9
$CHAMFERA
 40
1.5
  9
$CHAMFERB
 40
1.5
  9
$CHAMFERC
 40
1.75
  9
$CHAMFERD
 40
0.0174532925199433
  9
$SKPOLY
 70
     0
  9
$TDCREATE
 40
2451555.620234838
  9
$TDUCREATE
 40
2451555.245234838
  9
$TDUPDATE
 40
2455846.619444722
  9
$TDUUPDATE
 40
2455846.244444722
  9
$TDINDWG
 40
2.6030148843
  9
$TDUSRTIMER
 40
2.6030148843
  9
$USRTIMER
 70
     1
  9
$ANGBASE
 50
0.0
  9
$ANGDIR
 70
     0
  9
$PDMODE
 70
     0
  9
$PDSIZE
 40
0.0
  9
$PLINEWID
 40
0.0
  9
$SPLFRAME
 70
     0
  9
$SPLINETYPE
 70
     6
  9
$SPLINESEGS
 70
     8
  9
$HANDSEED
  5
A5B0
  9
$SURFTAB1
 70
     6
  9
$SURFTAB2
 70
     6
  9
$SURFTYPE
 70
     6
  9
$SURFU
 70
     6
  9
$SURFV
 70
     6
  9
$UCSBASE
  2

  9
$UCSNAME
  2

  9
$UCSORG
 10
0.0
 20
0.0
 30
0.0
  9
$UCSXDIR
 10
1.0
 20
0.0
 30
0.0
  9
$UCSYDIR
 10
0.0
 20
1.0
 30
0.0
  9
$UCSORTHOREF
  2

  9
$UCSORTHOVIEW
 70
     0
  9
$UCSORGTOP
 10
0.0
 20
0.0
 30
0.0
  9
$UCSORGBOTTOM
 10
0.0
 20
0.0
 30
0.0
  9
$UCSORGLEFT
 10
0.0
 20
0.0
 30
0.0
  9
$UCSORGRIGHT
 10
0.0
 20
0.0
 30
0.0
  9
$UCSORGFRONT
 10
0.0
 20
0.0
 30
0.0
  9
$UCSORGBACK
 10
0.0
 20
0.0
 30
0.0
  9
$PUCSBASE
  2

  9
$PUCSNAME
  2

  9
$PUCSORG
 10
0.0
 20
0.0
 30
0.0
  9
$PUCSXDIR
 10
1.0
 20
0.0
 30
0.0
  9
$PUCSYDIR
 10
0.0
 20
1.0
 30
0.0
  9
$PUCSORTHOREF
  2

  9
$PUCSORTHOVIEW
 70
     0
  9
$PUCSORGTOP
 10
0.0
 20
0.0
 30
0.0
  9
$PUCSORGBOTTOM
 10
0.0
 20
0.0
 30
0.0
  9
$PUCSORGLEFT
 10
0.0
 20
0.0
 30
0.0
  9
$PUCSORGRIGHT
 10
0.0
 20
0.0
 30
0.0
  9
$PUCSORGFRONT
 10
0.0
 20
0.0
 30
0.0
  9
$PUCSORGBACK
 10
0.0
 20
0.0
 30
0.0
  9
$USERI1
 70
     0
  9
$USERI2
 70
     0
  9
$USERI3
 70
     0
  9
$USERI4
 70
     0
  9
$USERI5
 70
     0
  9
$USERR1
 40
0.0
  9
$USERR2
 40
0.0
  9
$USERR3
 40
0.0
  9
$USERR4
 40
0.0
  9
$USERR5
 40
0.0
  9
$WORLDVIEW
 70
     1
  9
$SHADEDGE
 70
     3
  9
$SHADEDIF
 70
    70
  9
$TILEMODE
 70
     1
  9
$MAXACTVP
 70
    48
  9
$PINSBASE
 10
0.0
 20
0.0
 30
0.0
  9
$PLIMCHECK
 70
     0
  9
$PEXTMIN
 10
1.000000000000000E+20
 20
1.000000000000000E+20
 30
1.000000000000000E+20
  9
$PEXTMAX
 10
-1.000000000000000E+20
 20
-1.000000000000000E+20
 30
-1.000000000000000E+20
  9
$PLIMMIN
 10
0.0
 20
0.0
  9
$PLIMMAX
 10
420.0
 20
297.0
  9
$UNITMODE
 70
     0
  9
$VISRETAIN
 70
     1
  9
$PLINEGEN
 70
     0
  9
$PSLTSCALE
 70
     1
  9
$TREEDEPTH
 70
  3020
  9
$CMLSTYLE
  2
STANDARD
  9
$CMLJUST
 70
     0
  9
$CMLSCALE
 40
20.0
  9
$PROXYGRAPHICS
 70
     1
  9
$MEASUREMENT
 70
     1
  9
$CELWEIGHT
370
    -1
  9
$ENDCAPS
280
     0
  9
$JOINSTYLE
280
     0
  9
$LWDISPLAY
290
     0
  9
$INSUNITS
 70
     0
  9
$HYPERLINKBASE
  1

  9
$STYLESHEET
  1
monochrome.ctb
  9
$XEDIT
290
     1
  9
$CEPSNTYPE
380
     0
  9
$PSTYLEMODE
290
     1
  9
$FINGERPRINTGUID
  2
{1CF51E8A-A506-11D4-A7D9-AF69F5C20846}
  9
$VERSIONGUID
  2
{AB9FFFE4-F1AC-4119-AFE3-D9B2009BE827}
  9
$EXTNAMES
290
     1
  9
$PSVPSCALE
 40
0.0
  9
$OLESTARTUP
290
     0
  9
$SORTENTS
280
   127
  9
$INDEXCTL
280
     0
  9
$HIDETEXT
280
     0
  9
$XCLIPFRAME
290
     0
  9
$HALOGAP
280
     0
  9
$OBSCOLOR
 70
   257
  9
$OBSLTYPE
280
     0
  9
$INTERSECTIONDISPLAY
280
     0
  9
$INTERSECTIONCOLOR
 70
   257
  9
$DIMASSOC
280
     1
  9
$PROJECTNAME
  1

  0
ENDSEC
  0
SECTION
  2
CLASSES
  0
CLASS
  1
DICTIONARYVAR
  2
AcDbDictionaryVar
  3
ObjectDBX Classes
 90
        0
 91
        2
280
     0
281
     0
  0
CLASS
  1
SORTENTSTABLE
  2
AcDbSortentsTable
  3
ObjectDBX Classes
 90
        0
 91
        2
280
     0
281
     0
  0
CLASS
  1
ACDBDICTIONARYWDFLT
  2
AcDbDictionaryWithDefault
  3
ObjectDBX Classes
 90
        0
 91
        1
280
     0
281
     0
  0
CLASS
  1
TABLESTYLE
  2
AcDbTableStyle
  3
ObjectDBX Classes
 90
     2047
 91
        1
280
     0
281
     0
  0
ENDSEC
  0
SECTION
  2
TABLES
  0
TABLE
  2
VPORT
  5
8
330
0
100
AcDbSymbolTable
 70
     2
  0
VPORT
  5
A5AF
330
8
100
AcDbSymbolTableRecord
100
AcDbViewportTableRecord
  2
*Active
 70
     0
 10
0.0
 20
0.0
 11
1.0
 21
1.0
 12
245.9792054483759
 22
139.9955774407757
 13
0.0
 23
0.0
 14
10.0
 24
10.0
 15
10.0
 25
10.0
 16
0.0
 26
0.0
 36
1.0
 17
0.0
 27
0.0
 37
0.0
 40
283.4377191999428
 41
2.47104247104247
 42
50.0
 43
0.0
 44
0.0
 50
0.0
 51
0.0
 71
     0
 72
 20000
 73
     1
 74
     1
 75
     0
 76
     0
 77
     0
 78
     0
281
     0
 65
     1
110
0.0
120
0.0
130
0.0
111
1.0
121
0.0
131
0.0
112
0.0
122
1.0
132
0.0
 79
     0
146
0.0
  0
ENDTAB
  0
TABLE
  2
LTYPE
  5
5
330
0
100
AcDbSymbolTable
 70
     7
  0
LTYPE
  5
12
330
5
100
AcDbSymbolTableRecord
100
AcDbLinetypeTableRecord
  2
BYBLOCK
 70
     0
  3

 72
    65
 73
     0
 40
0.0
  0
LTYPE
  5
13
330
5
100
AcDbSymbolTableRecord
100
AcDbLinetypeTableRecord
  2
BYLAYER
 70
     0
  3

 72
    65
 73
     0
 40
0.0
  0
LTYPE
  5
14
330
5
100
AcDbSymbolTableRecord
100
AcDbLinetypeTableRecord
  2
CONTINUOUS
 70
     0
  3
Solid line
 72
    65
 73
     0
 40
0.0
  0
LTYPE
  5
9D
330
5
100
AcDbSymbolTableRecord
100
AcDbLinetypeTableRecord
  2
CENTERX2
 70
     0
  3
Center (2x) ________  __  ________  __  _____
 72
    65
 73
     4
 40
101.6
 49
63.5
 74
     0
 49
-12.7
 74
     0
 49
12.7
 74
     0
 49
-12.7
 74
     0
  0
LTYPE
  5
A1
330
5
100
AcDbSymbolTableRecord
100
AcDbLinetypeTableRecord
  2
DASHED
 70
     0
  3
Dashed __ __ __ __ __ __ __ __ __ __ __ __ __ _
 72
    65
 73
     2
 40
19.05
 49
12.7
 74
     0
 49
-6.349999999999999
 74
     0
  0
LTYPE
  5
A2
330
5
100
AcDbSymbolTableRecord
100
AcDbLinetypeTableRecord
  2
DASHED2
 70
     0
  3
Dashed (.5x) _ _ _ _ _ _ _ _ _ _ _ _ _ _ _ _ _
 72
    65
 73
     2
 40
9.524999999999998
 49
6.349999999999999
 74
     0
 49
-3.174999999999999
 74
     0
  0
LTYPE
  5
A5
330
5
100
AcDbSymbolTableRecord
100
AcDbLinetypeTableRecord
  2
DIVIDE2
 70
     0
  3
Divide (.5x) __..__..__..__..__..__..__..__.._
 72
    65
 73
     6
 40
15.875
 49
6.349999999999999
 74
     0
 49
-3.174999999999999
 74
     0
 49
0.0
 74
     0
 49
-3.174999999999999
 74
     0
 49
0.0
 74
     0
 49
-3.174999999999999
 74
     0
  0
LTYPE
  5
650B
330
5
100
AcDbSymbolTableRecord
100
AcDbLinetypeTableRecord
  2
CENTER
 70
     0
  3
Center ____ _ ____ _ ____ _ ____ _ ____ _ ____
 72
    65
 73
     4
 40
50.8
 49
31.75
 74
     0
 49
-6.349999999999999
 74
     0
 49
6.349999999999999
 74
     0
 49
-6.349999999999999
 74
     0
  0
LTYPE
  5
650C
330
5
100
AcDbSymbolTableRecord
100
AcDbLinetypeTableRecord
  2
HIDDEN
 70
     0
  3
Hidden __ __ __ __ __ __ __ __ __ __ __ __ __ _
 72
    65
 73
     2
 40
9.524999999999998
 49
6.349999999999999
 74
     0
 49
-3.174999999999999
 74
     0
  0
ENDTAB
  0
TABLE
  2
LAYER
  5
2
102
{ACAD_XDICTIONARY
360
7BFE
102
}
330
0
100
AcDbSymbolTable
 70
     9
  0
LAYER
  5
E
330
2
100
AcDbSymbolTableRecord
100
AcDbLayerTableRecord
  2
0
 70
     0
 62
     7
  6
CONTINUOUS
370
    -3
390
5CF2
  0
LAYER
  5
B9
330
2
100
AcDbSymbolTableRecord
100
AcDbLayerTableRecord
  2
dim
 70
     0
 62
     3
  6
CONTINUOUS
370
    -3
390
5CF2
  0
LAYER
  5
F2
330
2
100
AcDbSymbolTableRecord
100
AcDbLayerTableRecord
  2
DEFPOINTS
 70
     0
 62
     4
  6
CONTINUOUS
290
     0
370
    -3
390
5CF2
  0
LAYER
  5
5F8B
330
2
100
AcDbSymbolTableRecord
100
AcDbLayerTableRecord
  2
mark
 70
     0
 62
     6
  6
CONTINUOUS
370
    -3
390
5CF2
  0
LAYER
  5
644E
330
2
100
AcDbSymbolTableRecord
100
AcDbLayerTableRecord
  2
frame
 70
     0
 62
     9
  6
CONTINUOUS
370
    -3
390
5CF2
  0
LAYER
  5
650D
330
2
100
AcDbSymbolTableRecord
100
AcDbLayerTableRecord
  2
center
 70
     0
 62
     1
  6
CENTER
370
    -3
390
5CF2
  0
LAYER
  5
650E
330
2
100
AcDbSymbolTableRecord
100
AcDbLayerTableRecord
  2
bowle
 70
     0
 62
     4
  6
HIDDEN
370
    -3
390
5CF2
  0
LAYER
  5
650F
330
2
100
AcDbSymbolTableRecord
100
AcDbLayerTableRecord
  2
contour
 70
     0
 62
     2
  6
CONTINUOUS
370
    -3
390
5CF2
  0
LAYER
  5
6510
330
2
100
AcDbSymbolTableRecord
100
AcDbLayerTableRecord
  2
section
 70
     0
 62
     5
  6
CONTINUOUS
370
    -3
390
5CF2
  0
ENDTAB
  0
TABLE
  2
STYLE
  5
3
330
0
100
AcDbSymbolTable
 70
     5
  0
STYLE
  5
F
330
3
100
AcDbSymbolTableRecord
100
AcDbTextStyleTableRecord
  2
STANDARD
 70
     0
 40
0.0
 41
1.0
 50
0.0
 71
     0
 42
2.5
  3
txt
  4

  0
STYLE
  5
BE
330
3
100
AcDbSymbolTableRecord
100
AcDbTextStyleTableRecord
  2
ISOCP3
 70
     0
 40
0.0
 41
1.0
 50
0.0
 71
     0
 42
2.5
  3
isocp3.shx
  4

  0
STYLE
  5
2A37
330
3
100
AcDbSymbolTableRecord
100
AcDbTextStyleTableRecord
  2
TXT
 70
     0
 40
0.0
 41
1.0
 50
0.0
 71
     0
 42
1.25
  3
txt.shx
  4
bigfont.shx
  0
STYLE
  5
5DCB
330
3
100
AcDbSymbolTableRecord
100
AcDbTextStyleTableRecord
  2
LKK
 70
     0
 40
50.0
 41
1.5
 50
0.0
 71
     0
 42
50.0
  3
MS PGothic.ttf
  4

1001
ACAD
1000
MS PGothic
1071
    32818
  0
STYLE
  5
5DCC
330
3
100
AcDbSymbolTableRecord
100
AcDbTextStyleTableRecord
  2
JL
 70
     0
 40
10.0
 41
0.5
 50
0.0
 71
     0
 42
5.0
  3
MS Mincho.ttf
  4

1001
ACAD
1000
MS Mincho
1071
    32785
  0
ENDTAB
  0
TABLE
  2
VIEW
  5
6
330
0
100
AcDbSymbolTable
 70
     0
  0
ENDTAB
  0
TABLE
  2
UCS
  5
7
330
0
100
AcDbSymbolTable
 70
     0
  0
ENDTAB
  0
TABLE
  2
APPID
  5
9
330
0
100
AcDbSymbolTable
 70
    11
  0
APPID
  5
10
330
9
100
AcDbSymbolTableRecord
100
AcDbRegAppTableRecord
  2
ACAD
 70
     0
  0
APPID
  5
7C91
330
9
100
AcDbSymbolTableRecord
100
AcDbRegAppTableRecord
  2
ACAD_DSTYLE_DIMEXT_LENGTH
 70
     0
  0
APPID
  5
7C92
330
9
100
AcDbSymbolTableRecord
100
AcDbRegAppTableRecord
  2
ACAD_DSTYLE_DIMEXT_ENABLED
 70
     0
  0
APPID
  5
7C93
330
9
100
AcDbSymbolTableRecord
100
AcDbRegAppTableRecord
  2
ACAD_DSTYLE_DIMJOGGED_JOGANGLE_SYMBOL
 70
     0
  0
APPID
  5
7C94
330
9
100
AcDbSymbolTableRecord
100
AcDbRegAppTableRecord
  2
ACAD_DSTYLE_DIMARC_LENGTH_SYMBOL
 70
     0
  0
APPID
  5
7F1C
330
9
100
AcDbSymbolTableRecord
100
AcDbRegAppTableRecord
  2
ACAD_EXEMPT_FROM_CAD_STANDARDS
 70
     0
  0
APPID
  5
7F49
330
9
100
AcDbSymbolTableRecord
100
AcDbRegAppTableRecord
  2
ACAD_DSTYLE_DIMTEXT_FILL
 70
     0
  0
APPID
  5
7F4C
330
9
100
AcDbSymbolTableRecord
100
AcDbRegAppTableRecord
  2
ACAD_DSTYLE_DIM_LINETYPE
 70
     0
  0
APPID
  5
7F4D
330
9
100
AcDbSymbolTableRecord
100
AcDbRegAppTableRecord
  2
ACAD_DSTYLE_DIM_EXT1_LINETYPE
 70
     0
  0
APPID
  5
7F4E
330
9
100
AcDbSymbolTableRecord
100
AcDbRegAppTableRecord
  2
ACAD_DSTYLE_DIM_EXT2_LINETYPE
 70
     0
  0
APPID
  5
8C73
330
9
100
AcDbSymbolTableRecord
100
AcDbRegAppTableRecord
  2
ACAD_PSEXT
 70
     0
  0
ENDTAB
  0
TABLE
  2
DIMSTYLE
  5
A
330
0
100
AcDbSymbolTable
 70
     1
100
AcDbDimStyleTable
 71
     1
340
1D
  0
DIMSTYLE
105
1D
102
{ACAD_REACTORS
330
A2A2
330
A2C8
330
A2F4
330
A31D
330
A34F
330
A376
330
A392
330
A3A1
102
}
330
A
100
AcDbSymbolTableRecord
100
AcDbDimStyleTableRecord
  2
STANDARD
 70
     0
 41
2.5
 42
0.85
 44
0.85
 73
     0
 74
     0
 77
     3
 78
     8
 79
     2
140
2.5
147
0.85
172
     1
176
   256
177
   256
178
     3
179
     2
271
     2
272
     2
340
F
341
7C04
342
7C04
1001
ACAD_DSTYLE_DIMEXT_LENGTH
1070
   378
1040
0.18
1001
ACAD_DSTYLE_DIMEXT_ENABLED
1070
   383
1070
     0
1001
ACAD_DSTYLE_DIMARC_LENGTH_SYMBOL
1070
   379
1070
     0
1001
ACAD_DSTYLE_DIMJOGGED_JOGANGLE_SYMBOL
1070
   384
1040
1.570796326794896
  0
ENDTAB
  0
TABLE
  2
BLOCK_RECORD
  5
1
330
0
100
AcDbSymbolTable
 70
    14
  0
BLOCK_RECORD
  5
18
102
{ACAD_XDICTIONARY
360
45F
102
}
330
1
100
AcDbSymbolTableRecord
100
AcDbBlockTableRecord
  2
*MODEL_SPACE
340
5CF5
  0
BLOCK_RECORD
  5
15
102
{ACAD_XDICTIONARY
360
5D89
102
}
330
1
100
AcDbSymbolTableRecord
100
AcDbBlockTableRecord
  2
*PAPER_SPACE
340
5CF6
  0
BLOCK_RECORD
  5
639D
330
1
100
AcDbSymbolTableRecord
100
AcDbBlockTableRecord
  2
A$C255C26A2
340
0
  0
BLOCK_RECORD
  5
7C04
330
1
100
AcDbSymbolTableRecord
100
AcDbBlockTableRecord
  2
_Open30
340
0
102
{BLKREFS
331
A2D8
331
A2D9
331
A2F0
331
A2F1
331
A2F9
331
A2FA
331
A322
331
A323
331
A354
331
A355
331
A37B
331
A37C
331
A388
331
A389
331
A397
331
A398
331
A3AE
102
}
  0
BLOCK_RECORD
  5
7C0A
102
{ACAD_XDICTIONARY
360
7C0B
102
}
330
1
100
AcDbSymbolTableRecord
100
AcDbBlockTableRecord
  2
A
340
0
310
2800000020000000200000000100080000000000000400000000000000000000000000000000000000000000000080000080000000808000800000008000800080800000C0C0C000C0DCC000F0CAA6000020400000206000002080000020A0000020C0000020E00000400000004020000040400000406000004080000040A0
310
000040C0000040E00000600000006020000060400000606000006080000060A0000060C0000060E00000800000008020000080400000806000008080000080A0000080C0000080E00000A0000000A0200000A0400000A0600000A0800000A0A00000A0C00000A0E00000C0000000C0200000C0400000C0600000C0800000C0
310
A00000C0C00000C0E00000E0000000E0200000E0400000E0600000E0800000E0A00000E0C00000E0E00040000000400020004000400040006000400080004000A0004000C0004000E00040200000402020004020400040206000402080004020A0004020C0004020E000404000004040200040404000404060004040800040
310
40A0004040C0004040E00040600000406020004060400040606000406080004060A0004060C0004060E00040800000408020004080400040806000408080004080A0004080C0004080E00040A0000040A0200040A0400040A0600040A0800040A0A00040A0C00040A0E00040C0000040C0200040C0400040C0600040C08000
310
40C0A00040C0C00040C0E00040E0000040E0200040E0400040E0600040E0800040E0A00040E0C00040E0E00080000000800020008000400080006000800080008000A0008000C0008000E00080200000802020008020400080206000802080008020A0008020C0008020E00080400000804020008040400080406000804080
310
008040A0008040C0008040E00080600000806020008060400080606000806080008060A0008060C0008060E00080800000808020008080400080806000808080008080A0008080C0008080E00080A0000080A0200080A0400080A0600080A0800080A0A00080A0C00080A0E00080C0000080C0200080C0400080C0600080C0
310
800080C0A00080C0C00080C0E00080E0000080E0200080E0400080E0600080E0800080E0A00080E0C00080E0E000C0000000C0002000C0004000C0006000C0008000C000A000C000C000C000E000C0200000C0202000C0204000C0206000C0208000C020A000C020C000C020E000C0400000C0402000C0404000C0406000C0
310
408000C040A000C040C000C040E000C0600000C0602000C0604000C0606000C0608000C060A000C060C000C060E000C0800000C0802000C0804000C0806000C0808000C080A000C080C000C080E000C0A00000C0A02000C0A04000C0A06000C0A08000C0A0A000C0A0C000C0A0E000C0C00000C0C02000C0C04000C0C06000
310
C0C08000C0C0A000F0FBFF00A4A0A000808080000000FF0000FF000000FFFF00FF000000FF00FF00FFFF0000FFFFFF0000000000000000000000000000000000000000000000000000000000000000000000000000000000000000000000000000000000000000000000000000000000000000000000000000000000000000
310
00000000000000000000000000000000000000000000000000000000000000000000000000000000000000000000000000000000000000000000000000000000000000000000000000000000000000000000000000000000000000000000000000000000000000000000000000000000000000000000000000000000000000
310
00000000000000000000000000000000000000000000000000000000000000000000000000000000000000000000000000000000000000000000000000000000000000000000000000000000000000000000000000000000000000000000000000000000000000000000000000000000000000000000000000000000000000
310
000000000000FDFDFDFDFDFDFDFDFDFDFDFD0000FD0000000000000000000000000000000000FD0000FA0000000000FA00FD0000FDFD00000000000000000000000000000000FD0000FA0000000000FA00FD0000FDFDFD000000000000000000000000000000FD0000FA0000000000FA00FD0000FDFDFDFD00000000000000
310
00000000000000FD0000FAFAFAFAFAFAFA00FD0000FDFDFDFDFD00000000000000000000000000FD000000FA00000000FA00FD0000FDFDFDFDFDFDFDFDFDFDFDFDFDFDFDFDFDFDFD000000FA000000FA0000FD0000FDFDFDFDFD00000000000000000000000000FD00000000FA0000FA0000FD0000FDFDFDFD000000000000
310
0000000000000000FD00000000FA00FA000000FD0000FDFD00000000000000000000000000000000FD0000000000FAFA000000FD0000FD0000000000000000000000000000000000FD0000000000FA00000000FD0000000000000000000000000000000000000000FDFDFDFDFDFDFDFDFDFDFDFD0000000000000000000000
310
00000000000000000000000000000000000000000000000000000000000000000000000000000000000000000000000000000000000000000000000000000000000000000000000000000000000000000000000000000000000000000000000000000000000000000000000000000000000000000000000000000000000000
310
00000000000000000000000000000000000000000000000000000000000000000000000000000000000000000000000000000000000000000000000000000000000000000000000000000000000000000000000000000000000000000000000000000000000000000000000000000000000000000000000000000000000000
310
0000000000000000000000000000000000000000000000000000000000000000000000000000000000000000000000000000000000000000
  0
BLOCK_RECORD
  5
8E72
102
{ACAD_XDICTIONARY
360
8E73
102
}
330
1
100
AcDbSymbolTableRecord
100
AcDbBlockTableRecord
  2
LS
340
0
310
2800000020000000200000000100080000000000000400000000000000000000000000000000000000000000000080000080000000808000800000008000800080800000C0C0C000C0DCC000F0CAA6000020400000206000002080000020A0000020C0000020E00000400000004020000040400000406000004080000040A0
310
000040C0000040E00000600000006020000060400000606000006080000060A0000060C0000060E00000800000008020000080400000806000008080000080A0000080C0000080E00000A0000000A0200000A0400000A0600000A0800000A0A00000A0C00000A0E00000C0000000C0200000C0400000C0600000C0800000C0
310
A00000C0C00000C0E00000E0000000E0200000E0400000E0600000E0800000E0A00000E0C00000E0E00040000000400020004000400040006000400080004000A0004000C0004000E00040200000402020004020400040206000402080004020A0004020C0004020E000404000004040200040404000404060004040800040
310
40A0004040C0004040E00040600000406020004060400040606000406080004060A0004060C0004060E00040800000408020004080400040806000408080004080A0004080C0004080E00040A0000040A0200040A0400040A0600040A0800040A0A00040A0C00040A0E00040C0000040C0200040C0400040C0600040C08000
310
40C0A00040C0C00040C0E00040E0000040E0200040E0400040E0600040E0800040E0A00040E0C00040E0E00080000000800020008000400080006000800080008000A0008000C0008000E00080200000802020008020400080206000802080008020A0008020C0008020E00080400000804020008040400080406000804080
310
008040A0008040C0008040E00080600000806020008060400080606000806080008060A0008060C0008060E00080800000808020008080400080806000808080008080A0008080C0008080E00080A0000080A0200080A0400080A0600080A0800080A0A00080A0C00080A0E00080C0000080C0200080C0400080C0600080C0
310
800080C0A00080C0C00080C0E00080E0000080E0200080E0400080E0600080E0800080E0A00080E0C00080E0E000C0000000C0002000C0004000C0006000C0008000C000A000C000C000C000E000C0200000C0202000C0204000C0206000C0208000C020A000C020C000C020E000C0400000C0402000C0404000C0406000C0
310
408000C040A000C040C000C040E000C0600000C0602000C0604000C0606000C0608000C060A000C060C000C060E000C0800000C0802000C0804000C0806000C0808000C080A000C080C000C080E000C0A00000C0A02000C0A04000C0A06000C0A08000C0A0A000C0A0C000C0A0E000C0C00000C0C02000C0C04000C0C06000
310
C0C08000C0C0A000F0FBFF00A4A0A000808080000000FF0000FF000000FFFF00FF000000FF00FF00FFFF0000FFFFFF00000000000000000000000000000000000000000000000000000000000000000000000000000000000000FBFBFEFBFEFBFBFEFBFEFBFB00000000000000000000000000000000000000FBFBFBFEFBFE
310
FBFBFEFBFEFBFBFB000000000000000000000000000000000000FB0000FE00FE0000FE00FE0000FB000000000000000000000000000000000000FB0000FE00FE0000FE00FE0000FB000000000000000000000000000000000000FB0000FEFEFEFEFEFEFEFE0000FB000000000000000000000000000000000000FB000000FE
310
FE0000FEFE000000FB000000000000000000000000000000000000FB0000000000FEFE0000000000FB000000000000000000000000000000000000FBFBFBFEFBFBFBFBFBFBFEFBFBFB000000000000000000000000000000000000000000FBFE0000000000FE000000000000000000000000000000000000000000000000FB
310
FBFBFBFBFBFEFB000000000000000000000000000000000000000000000000FBFE00000000FEFB000000000000000000000000000000000000000000000000FBFE00000000FEFB000000000000000000000000000000000000000000000000FBFE00000000FEFB000000000000000000000000000000000000000000000000
310
FBFE00000000FEFB000000000000000000000000000000000000000000000000FBFE00000000FEFB000000000000000000000000000000000000000000000000FBFE00000000FEFB000000000000000000000000000000000000000000000000FBFE00000000FEFB0000000000000000000000000000000000000000000000
310
00FBFE00000000FEFB000000000000000000000000000000000000000000000000FBFE00000000FEFB000000000000000000000000000000000000000000000000FBFE00000000FEFB000000000000000000000000000000000000000000000000FBFE00000000FEFB00000000000000000000000000000000000000000000
310
0000FBFE00000000FEFB000000000000000000000000000000000000000000000000FBFE00000000FEFB000000000000000000000000000000000000000000000000FBFE00000000FEFB000000000000000000000000000000000000000000000000FBFE00000000FEFB000000000000000000000000000000000000000000
310
000000FBFE00000000FEFB000000000000000000000000000000000000000000000000FBFE00000000FEFB000000000000000000000000000000000000000000000000FBFEFBFBFBFBFEFB00000000000000000000000000000000000000000000000000FE00000000FEFB0000000000000000000000000000000000000000
310
0000000000FBFBFBFBFBFB000000000000000000000000000000000000000000000000000000000000000000000000000000000000000000
  0
BLOCK_RECORD
  5
9D15
102
{ACAD_XDICTIONARY
360
9D16
102
}
330
1
100
AcDbSymbolTableRecord
100
AcDbBlockTableRecord
  2
LS2
340
0
310
2800000020000000200000000100080000000000000400000000000000000000000000000000000000000000000080000080000000808000800000008000800080800000C0C0C000C0DCC000F0CAA6000020400000206000002080000020A0000020C0000020E00000400000004020000040400000406000004080000040A0
310
000040C0000040E00000600000006020000060400000606000006080000060A0000060C0000060E00000800000008020000080400000806000008080000080A0000080C0000080E00000A0000000A0200000A0400000A0600000A0800000A0A00000A0C00000A0E00000C0000000C0200000C0400000C0600000C0800000C0
310
A00000C0C00000C0E00000E0000000E0200000E0400000E0600000E0800000E0A00000E0C00000E0E00040000000400020004000400040006000400080004000A0004000C0004000E00040200000402020004020400040206000402080004020A0004020C0004020E000404000004040200040404000404060004040800040
310
40A0004040C0004040E00040600000406020004060400040606000406080004060A0004060C0004060E00040800000408020004080400040806000408080004080A0004080C0004080E00040A0000040A0200040A0400040A0600040A0800040A0A00040A0C00040A0E00040C0000040C0200040C0400040C0600040C08000
310
40C0A00040C0C00040C0E00040E0000040E0200040E0400040E0600040E0800040E0A00040E0C00040E0E00080000000800020008000400080006000800080008000A0008000C0008000E00080200000802020008020400080206000802080008020A0008020C0008020E00080400000804020008040400080406000804080
310
008040A0008040C0008040E00080600000806020008060400080606000806080008060A0008060C0008060E00080800000808020008080400080806000808080008080A0008080C0008080E00080A0000080A0200080A0400080A0600080A0800080A0A00080A0C00080A0E00080C0000080C0200080C0400080C0600080C0
310
800080C0A00080C0C00080C0E00080E0000080E0200080E0400080E0600080E0800080E0A00080E0C00080E0E000C0000000C0002000C0004000C0006000C0008000C000A000C000C000C000E000C0200000C0202000C0204000C0206000C0208000C020A000C020C000C020E000C0400000C0402000C0404000C0406000C0
310
408000C040A000C040C000C040E000C0600000C0602000C0604000C0606000C0608000C060A000C060C000C060E000C0800000C0802000C0804000C0806000C0808000C080A000C080C000C080E000C0A00000C0A02000C0A04000C0A06000C0A08000C0A0A000C0A0C000C0A0E000C0C00000C0C02000C0C04000C0C06000
310
C0C08000C0C0A000F0FBFF00A4A0A000808080000000FF0000FF000000FFFF00FF000000FF00FF00FFFF0000FFFFFF0000000000000000000000000000000000000000000000000000000000000000000000000000000000000000FBFBFEFEFBFBFEFEFBFB00000000000000000000000000000000000000000000FBFBFEFE
310
FBFBFEFEFBFB00000000000000000000000000000000000000000000FB00FEFE0000FEFE00FB00000000000000000000000000000000000000000000FB00FEFE0000FEFE00FB00000000000000000000000000000000000000000000FB00FEFEFEFEFEFE00FB00000000000000000000000000000000000000000000FB0000
310
FEFEFE000000FB00000000000000000000000000000000000000000000FBFBFEFBFBFBFBFEFBFB000000000000000000000000000000000000000000000000FBFBFBFBFBFE0000000000000000000000000000000000000000000000000000FE00000000FE0000000000000000000000000000000000000000000000000000
310
FE00000000FE0000000000000000000000000000000000000000000000000000FE00000000FE0000000000000000000000000000000000000000000000000000FE00000000FE0000000000000000000000000000000000000000000000000000FE00000000FE00000000000000000000000000000000000000000000000000
310
00FE00000000FE0000000000000000000000000000000000000000000000000000FE00000000FE0000000000000000000000000000000000000000000000000000FE00000000FE0000000000000000000000000000000000000000000000000000FE00000000FE000000000000000000000000000000000000000000000000
310
0000FE00000000FE0000000000000000000000000000000000000000000000000000FE00000000FE0000000000000000000000000000000000000000000000000000FE00000000FE0000000000000000000000000000000000000000000000000000FE00000000FE0000000000000000000000000000000000000000000000
310
000000FE00000000FE0000000000000000000000000000000000000000000000000000FE00000000FE0000000000000000000000000000000000000000000000000000FE00000000FE0000000000000000000000000000000000000000000000000000FE00000000FE00000000000000000000000000000000000000000000
310
00000000FE00000000FE0000000000000000000000000000000000000000000000000000FE00000000FE0000000000000000000000000000000000000000000000000000FEFBFBFBFBFE0000000000000000000000000000000000000000000000000000FEFB000000FE000000000000000000000000000000000000000000
310
000000000000FBFBFBFB00000000000000000000000000000000000000000000000000000000000000000000000000000000000000000000
102
{BLKREFS
331
9D9E
102
}
  0
BLOCK_RECORD
  5
A2A3
330
1
100
AcDbSymbolTableRecord
100
AcDbBlockTableRecord
  2
*D5
340
0
  0
BLOCK_RECORD
  5
A2C9
330
1
100
AcDbSymbolTableRecord
100
AcDbBlockTableRecord
  2
*D6
340
0
  0
BLOCK_RECORD
  5
A2F5
330
1
100
AcDbSymbolTableRecord
100
AcDbBlockTableRecord
  2
*D7
340
0
  0
BLOCK_RECORD
  5
A31E
330
1
100
AcDbSymbolTableRecord
100
AcDbBlockTableRecord
  2
*D8
340
0
  0
BLOCK_RECORD
  5
A350
330
1
100
AcDbSymbolTableRecord
100
AcDbBlockTableRecord
  2
*D9
340
0
  0
BLOCK_RECORD
  5
A377
330
1
100
AcDbSymbolTableRecord
100
AcDbBlockTableRecord
  2
*D10
340
0
  0
BLOCK_RECORD
  5
A393
330
1
100
AcDbSymbolTableRecord
100
AcDbBlockTableRecord
  2
*D11
340
0
  0
BLOCK_RECORD
  5
A3A2
330
1
100
AcDbSymbolTableRecord
100
AcDbBlockTableRecord
  2
*D12
340
0
  0
BLOCK_RECORD
  5
A584
102
{ACAD_XDICTIONARY
360
A589
102
}
330
1
100
AcDbSymbolTableRecord
100
AcDbBlockTableRecord
  2
A$C36FE390F
340
0
1001
ACAD
1000
DesignCenter Data
1002
{
1070
     1
1070
     0
1002
}
  0
ENDTAB
  0
ENDSEC
  0
SECTION
  2
BLOCKS
  0
BLOCK
  5
19
330
18
100
AcDbEntity
  8
0
100
AcDbBlockBegin
  2
*MODEL_SPACE
 70
     0
 10
0.0
 20
0.0
 30
0.0
  3
*MODEL_SPACE
  1

  0
ENDBLK
  5
1A
330
18
100
AcDbEntity
  8
0
100
AcDbBlockEnd
  0
BLOCK
  5
16
330
15
100
AcDbEntity
 67
     1
  8
0
100
AcDbBlockBegin
  2
*PAPER_SPACE
 70
     0
 10
0.0
 20
0.0
 30
0.0
  3
*PAPER_SPACE
  1

  0
ENDBLK
  5
17
330
15
100
AcDbEntity
 67
     1
  8
0
100
AcDbBlockEnd
  0
BLOCK
  5
63A1
330
639D
100
AcDbEntity
  8
0
100
AcDbBlockBegin
  2
A$C255C26A2
 70
     0
 10
0.0
 20
0.0
 30
0.0
  3
A$C255C26A2
  1

  0
LWPOLYLINE
  5
639E
330
639D
100
AcDbEntity
  8
0
100
AcDbPolyline
 90
        3
 70
     1
 43
0.0
 10
7.014806023851633
 20
0.0000006939811783
 10
5.611844869720698
 20
2.430000693981241
 10
8.417767177982568
 20
2.430000693981241
  0
LWPOLYLINE
  5
639F
330
639D
100
AcDbEntity
  8
0
100
AcDbPolyline
 90
        3
 70
     1
 43
0.0
 10
4.20888371558999
 20
0.0000006939811783
 10
2.805922561459283
 20
2.430000693981241
 10
5.611844869720698
 20
2.430000693981241
  0
LWPOLYLINE
  5
63A0
330
639D
100
AcDbEntity
  8
0
100
AcDbPolyline
 90
        3
 70
     1
 43
0.0
 10
1.402961407328348
 20
0.0000006939811783
 10
0.0000002531974133
 20
2.430000693981241
 10
2.805922561459283
 20
2.430000693981241
  0
ENDBLK
  5
63A2
330
639D
100
AcDbEntity
  8
0
100
AcDbBlockEnd
  0
BLOCK
  5
7C05
330
7C04
100
AcDbEntity
  8
0
100
AcDbBlockBegin
  2
_Open30
 70
     0
 10
0.0
 20
0.0
 30
0.0
  3
_Open30
  1

  0
LINE
  5
7C06
330
7C04
100
AcDbEntity
  8
0
  6
ByBlock
 62
     0
370
    -2
100
AcDbLine
 10
-1.0
 20
0.26794919
 30
0.0
 11
0.0
 21
0.0
 31
0.0
  0
LINE
  5
7C07
330
7C04
100
AcDbEntity
  8
0
  6
ByBlock
 62
     0
370
    -2
100
AcDbLine
 10
0.0
 20
0.0
 30
0.0
 11
-1.0
 21
-0.26794919
 31
0.0
  0
LINE
  5
7C08
330
7C04
100
AcDbEntity
  8
0
  6
ByBlock
 62
     0
370
    -2
100
AcDbLine
 10
0.0
 20
0.0
 30
0.0
 11
-1.0
 21
0.0
 31
0.0
  0
ENDBLK
  5
7C09
330
7C04
100
AcDbEntity
  8
0
100
AcDbBlockEnd
  0
BLOCK
  5
7C0E
330
7C0A
100
AcDbEntity
  8
0
100
AcDbBlockBegin
  2
A
 70
     0
 10
0.0
 20
0.0
 30
0.0
  3
A
  1

  0
MTEXT
  5
7C0F
330
7C0A
100
AcDbEntity
  8
mark
 62
     3
100
AcDbMText
 10
10.65641897020822
 20
-5.596245361730467
 30
0.0
 40
2.5
 41
0.0
 71
     5
 72
     1
  1
A
 73
     1
 44
1.0
1001
ACAD
1000
ACAD_MTEXT_DEFINED_HEIGHT_BEGIN
1070
    46
1040
0.0
1000
ACAD_MTEXT_DEFINED_HEIGHT_END
  0
LWPOLYLINE
  5
7C10
330
7C0A
100
AcDbEntity
  8
mark
100
AcDbPolyline
 90
        4
 70
     1
 43
0.0
 10
9.07926800414657
 20
-7.141145101782569
 10
12.07926800414657
 20
-7.141145101782569
 10
12.07926800414657
 20
-4.141145101782569
 10
9.07926800414657
 20
-4.141145101782569
  0
HATCH
  5
7C11
330
7C0A
100
AcDbEntity
  8
mark
100
AcDbHatch
 10
0.0
 20
0.0
 30
0.0
210
0.0
220
0.0
230
1.0
  2
SOLID
 70
     1
 71
     0
 91
        1
 92
        7
 72
     0
 73
     1
 93
        3
 10
5.32926800414657
 20
-5.641145101782569
 10
4.07926800414657
 20
-4.391145101782541
 10
4.07926800414657
 20
-6.891145101782541
 97
        0
 75
     0
 76
     1
 47
0.0398277943677868
 98
        1
 10
4.589689734415287
 20
-5.732163331855076
450
        0
451
        0
460
0.0
461
0.0
452
        1
462
1.0
453
        2
463
0.0
 63
     5
421
      255
463
1.0
 63
     7
421
 16777215
470
LINEAR
1001
ACAD
1010
0.0
1020
0.0
1030
0.0
  0
LINE
  5
7C12
330
7C0A
100
AcDbEntity
  8
mark
100
AcDbLine
 10
5.32926800414657
 20
-5.641145101782569
 30
0.0
 11
9.07926800414657
 21
-5.641145101782569
 31
0.0
  0
LINE
  5
7C13
330
7C0A
100
AcDbEntity
  8
mark
100
AcDbLine
 10
5.32926800414657
 20
-5.641145101782569
 30
0.0
 11
4.07926800414657
 21
-4.391145101782569
 31
0.0
  0
LINE
  5
7C14
330
7C0A
100
AcDbEntity
  8
mark
100
AcDbLine
 10
5.32926800414657
 20
-5.641145101782569
 30
0.0
 11
4.07926800414657
 21
-6.891145101782569
 31
0.0
  0
ENDBLK
  5
7C15
330
7C0A
100
AcDbEntity
  8
0
100
AcDbBlockEnd
  0
BLOCK
  5
8E76
330
8E72
100
AcDbEntity
  8
0
100
AcDbBlockBegin
  2
LS
 70
     0
 10
0.0
 20
0.0
 30
0.0
  3
LS
  1

  0
LINE
  5
8E78
330
8E72
100
AcDbEntity
  8
contour
100
AcDbLine
 10
310.7457309951603
 20
181.0160360664828
 30
0.0
 11
310.7457309951603
 21
184.7160360664827
 31
0.0
  0
LINE
  5
8E79
330
8E72
100
AcDbEntity
  8
contour
100
AcDbLine
 10
310.7457309951603
 20
184.7160360664827
 30
0.0
 11
303.7457309951603
 21
184.7160360664827
 31
0.0
  0
LINE
  5
8E7A
330
8E72
100
AcDbEntity
  8
contour
100
AcDbLine
 10
308.4457309951603
 20
196.7160360664827
 30
0.0
 11
306.0457309951603
 21
196.7160360664826
 31
0.0
  0
LINE
  5
8E7B
330
8E72
100
AcDbEntity
  8
contour
100
AcDbLine
 10
309.2457309951603
 20
195.9160360664826
 30
0.0
 11
308.4457309951603
 21
196.7160360664826
 31
0.0
  0
LINE
  5
8E7C
330
8E72
100
AcDbEntity
  8
contour
100
AcDbLine
 10
303.7457309951603
 20
184.7160360664827
 30
0.0
 11
303.7457309951603
 21
181.0160360664827
 31
0.0
  0
LINE
  5
8E7D
330
8E72
100
AcDbEntity
  8
contour
100
AcDbLine
 10
304.0457309951603
 20
180.7160360664827
 30
0.0
 11
310.4457309951603
 21
180.7160360664828
 31
0.0
  0
LINE
  5
8E7E
330
8E72
100
AcDbEntity
  8
contour
100
AcDbLine
 10
310.7457309951603
 20
181.0160360664828
 30
0.0
 11
310.4457309951603
 21
180.7160360664828
 31
0.0
  0
LINE
  5
8E7F
330
8E72
100
AcDbEntity
  8
contour
100
AcDbLine
 10
303.7457309951603
 20
181.0160360664827
 30
0.0
 11
304.0457309951603
 21
180.7160360664827
 31
0.0
  0
LINE
  5
8E80
330
8E72
100
AcDbEntity
  8
contour
100
AcDbLine
 10
309.2457309951603
 20
184.7160360664826
 30
0.0
 11
309.2457309951603
 21
195.9160360664827
 31
0.0
  0
LINE
  5
8E81
330
8E72
100
AcDbEntity
  8
contour
100
AcDbLine
 10
305.2457309951603
 20
184.7160360664826
 30
0.0
 11
305.2457309951603
 21
195.9160360664827
 31
0.0
  0
LINE
  5
8E82
330
8E72
100
AcDbEntity
  8
contour
100
AcDbLine
 10
306.0457309951603
 20
196.7160360664826
 30
0.0
 11
305.2457309951603
 21
195.9160360664826
 31
0.0
  0
LINE
  5
8E83
330
8E72
100
AcDbEntity
  8
contour
100
AcDbLine
 10
309.2457309951603
 20
195.9160360664827
 30
0.0
 11
305.2457309951603
 21
195.9160360664827
 31
0.0
  0
LINE
  5
8E84
330
8E72
100
AcDbEntity
  8
contour
 62
     4
100
AcDbLine
 10
308.8667309951603
 20
185.3724833225513
 30
0.0
 11
308.8667309951603
 21
196.2950360664826
 31
0.0
  0
LINE
  5
8E85
330
8E72
100
AcDbEntity
  8
contour
 62
     4
100
AcDbLine
 10
305.6247309951603
 20
185.3724833225513
 30
0.0
 11
305.6247309951603
 21
196.2950360664826
 31
0.0
  0
LINE
  5
8E86
330
8E72
100
AcDbEntity
  8
contour
100
AcDbLine
 10
310.7457309951603
 20
181.0160360664828
 30
0.0
 11
303.7457309951603
 21
181.0160360664828
 31
0.0
  0
LINE
  5
8E87
330
8E72
100
AcDbEntity
  8
bowle
 48
0.1
100
AcDbLine
 10
308.1117563989447
 20
180.7160360664827
 30
0.0
 11
308.1117563989447
 21
182.9160360664827
 31
0.0
  0
LINE
  5
8E88
330
8E72
100
AcDbEntity
  8
bowle
 48
0.1
100
AcDbLine
 10
308.9777818027293
 20
180.7160360664827
 30
0.0
 11
308.9777818027293
 21
182.9160360664827
 31
0.0
  0
LINE
  5
8E89
330
8E72
100
AcDbEntity
  8
bowle
 48
0.1
100
AcDbLine
 10
306.3797055913759
 20
180.7160360664827
 30
0.0
 11
306.3797055913759
 21
182.9160360664826
 31
0.0
  0
LINE
  5
8E8A
330
8E72
100
AcDbEntity
  8
bowle
 48
0.1
100
AcDbLine
 10
305.5136801875914
 20
180.7160360664827
 30
0.0
 11
305.5136801875914
 21
182.9160360664826
 31
0.0
  0
LINE
  5
8E8B
330
8E72
100
AcDbEntity
  8
bowle
 48
0.1
100
AcDbLine
 10
308.9777818027292
 20
182.9160360664827
 30
0.0
 11
305.5136801875914
 21
182.9160360664827
 31
0.0
  0
LINE
  5
8E8C
330
8E72
100
AcDbEntity
  8
bowle
 48
0.1
100
AcDbLine
 10
305.5136801875914
 20
182.9160360664826
 30
0.0
 11
307.2457309951603
 21
183.9160360664826
 31
0.0
  0
LINE
  5
8E8D
330
8E72
100
AcDbEntity
  8
bowle
 48
0.1
100
AcDbLine
 10
308.9777818027292
 20
182.9160360664826
 30
0.0
 11
307.2457309951603
 21
183.9160360664826
 31
0.0
  0
LINE
  5
8E8E
330
8E72
100
AcDbEntity
  8
contour
 62
     4
100
AcDbLine
 10
305.6247309951603
 20
185.3724833225513
 30
0.0
 11
305.2457309951603
 21
184.7160360664826
 31
0.0
  0
LINE
  5
8E8F
330
8E72
100
AcDbEntity
  8
contour
100
AcDbLine
 10
305.2457309951603
 20
185.3724833225513
 30
0.0
 11
309.2457309951603
 21
185.3724833225513
 31
0.0
  0
LINE
  5
8E90
330
8E72
100
AcDbEntity
  8
contour
 62
     4
100
AcDbLine
 10
309.2457309951603
 20
184.7160360664827
 30
0.0
 11
308.8667309951603
 21
185.3724833225513
 31
0.0
  0
ENDBLK
  5
8E77
330
8E72
100
AcDbEntity
  8
0
100
AcDbBlockEnd
  0
BLOCK
  5
9D19
330
9D15
100
AcDbEntity
  8
0
100
AcDbBlockBegin
  2
LS2
 70
     0
 10
0.0
 20
0.0
 30
0.0
  3
LS2
  1

  0
LINE
  5
9D1B
330
9D15
100
AcDbEntity
  8
contour
100
AcDbLine
 10
143.2797554375081
 20
0.0655328110734672
 30
0.0
 11
143.2797554375081
 21
3.765532811073398
 31
0.0
  0
LINE
  5
9D1C
330
9D15
100
AcDbEntity
  8
contour
100
AcDbLine
 10
143.2797554375081
 20
3.765532811073398
 30
0.0
 11
136.2797554375081
 21
3.765532811073398
 31
0.0
  0
LINE
  5
9D1D
330
9D15
100
AcDbEntity
  8
contour
100
AcDbLine
 10
140.979755437508
 20
19.7655328110734
 30
0.0
 11
138.5797554375081
 21
19.76553281107334
 31
0.0
  0
LINE
  5
9D1E
330
9D15
100
AcDbEntity
  8
contour
100
AcDbLine
 10
141.7797554375081
 20
18.96553281107333
 30
0.0
 11
140.9797554375081
 21
19.76553281107334
 31
0.0
  0
LINE
  5
9D1F
330
9D15
100
AcDbEntity
  8
contour
100
AcDbLine
 10
136.2797554375081
 20
3.765532811073398
 30
0.0
 11
136.2797554375081
 21
0.0655328110733535
 31
0.0
  0
LINE
  5
9D20
330
9D15
100
AcDbEntity
  8
contour
100
AcDbLine
 10
136.5797554375081
 20
-0.2344671889266578
 30
0.0
 11
142.9797554375081
 21
-0.2344671889265442
 31
0.0
  0
LINE
  5
9D21
330
9D15
100
AcDbEntity
  8
contour
100
AcDbLine
 10
143.2797554375081
 20
0.0655328110734672
 30
0.0
 11
142.9797554375081
 21
-0.2344671889265442
 31
0.0
  0
LINE
  5
9D22
330
9D15
100
AcDbEntity
  8
contour
100
AcDbLine
 10
136.2797554375081
 20
0.0655328110733535
 30
0.0
 11
136.5797554375081
 21
-0.2344671889266578
 31
0.0
  0
LINE
  5
9D23
330
9D15
100
AcDbEntity
  8
contour
100
AcDbLine
 10
141.7797554375081
 20
3.765532811073342
 30
0.0
 11
141.7797554375081
 21
18.96553281107339
 31
0.0
  0
LINE
  5
9D24
330
9D15
100
AcDbEntity
  8
contour
100
AcDbLine
 10
137.7797554375081
 20
3.765532811073342
 30
0.0
 11
137.7797554375081
 21
18.96553281107339
 31
0.0
  0
LINE
  5
9D25
330
9D15
100
AcDbEntity
  8
contour
100
AcDbLine
 10
138.5797554375081
 20
19.76553281107334
 30
0.0
 11
137.7797554375081
 21
18.96553281107333
 31
0.0
  0
LINE
  5
9D26
330
9D15
100
AcDbEntity
  8
contour
100
AcDbLine
 10
141.7797554375081
 20
18.96553281107339
 30
0.0
 11
137.7797554375081
 21
18.96553281107339
 31
0.0
  0
LINE
  5
9D27
330
9D15
100
AcDbEntity
  8
contour
 62
     4
100
AcDbLine
 10
141.400755437508
 20
4.42198006714193
 30
0.0
 11
141.4007554375081
 21
19.34453281107327
 31
0.0
  0
LINE
  5
9D28
330
9D15
100
AcDbEntity
  8
contour
 62
     4
100
AcDbLine
 10
138.1587554375081
 20
4.42198006714193
 30
0.0
 11
138.1587554375081
 21
19.34453281107336
 31
0.0
  0
LINE
  5
9D29
330
9D15
100
AcDbEntity
  8
contour
100
AcDbLine
 10
143.2797554375081
 20
0.0655328110734672
 30
0.0
 11
136.2797554375081
 21
0.0655328110735241
 31
0.0
  0
LINE
  5
9D2A
330
9D15
100
AcDbEntity
  8
bowle
 48
0.1
100
AcDbLine
 10
140.6457808412925
 20
-0.234467188926601
 30
0.0
 11
140.6457808412925
 21
1.965532811073387
 31
0.0
  0
LINE
  5
9D2B
330
9D15
100
AcDbEntity
  8
bowle
 48
0.1
100
AcDbLine
 10
141.511806245077
 20
-0.2344671889266578
 30
0.0
 11
141.511806245077
 21
1.965532811073387
 31
0.0
  0
LINE
  5
9D2C
330
9D15
100
AcDbEntity
  8
bowle
 48
0.1
100
AcDbLine
 10
138.9137300337237
 20
-0.234467188926601
 30
0.0
 11
138.9137300337237
 21
1.96553281107333
 31
0.0
  0
LINE
  5
9D2D
330
9D15
100
AcDbEntity
  8
bowle
 48
0.1
100
AcDbLine
 10
138.0477046299392
 20
-0.2344671889266578
 30
0.0
 11
138.0477046299391
 21
1.96553281107333
 31
0.0
  0
LINE
  5
9D2E
330
9D15
100
AcDbEntity
  8
bowle
 48
0.1
100
AcDbLine
 10
141.511806245077
 20
1.965532811073387
 30
0.0
 11
138.0477046299391
 21
1.965532811073387
 31
0.0
  0
LINE
  5
9D2F
330
9D15
100
AcDbEntity
  8
bowle
 48
0.1
100
AcDbLine
 10
138.0477046299391
 20
1.96553281107333
 30
0.0
 11
139.779755437508
 21
2.96553281107333
 31
0.0
  0
LINE
  5
9D30
330
9D15
100
AcDbEntity
  8
bowle
 48
0.1
100
AcDbLine
 10
141.511806245077
 20
1.96553281107333
 30
0.0
 11
139.779755437508
 21
2.96553281107333
 31
0.0
  0
LINE
  5
9D31
330
9D15
100
AcDbEntity
  8
contour
 62
     4
100
AcDbLine
 10
138.1587554375081
 20
4.421980067141987
 30
0.0
 11
137.7797554375081
 21
3.765532811073342
 31
0.0
  0
LINE
  5
9D32
330
9D15
100
AcDbEntity
  8
contour
100
AcDbLine
 10
137.7797554375081
 20
4.42198006714193
 30
0.0
 11
141.7797554375081
 21
4.42198006714193
 31
0.0
  0
LINE
  5
9D33
330
9D15
100
AcDbEntity
  8
contour
 62
     4
100
AcDbLine
 10
141.7797554375081
 20
3.765532811073398
 30
0.0
 11
141.400755437508
 21
4.42198006714193
 31
0.0
  0
ENDBLK
  5
9D1A
330
9D15
100
AcDbEntity
  8
0
100
AcDbBlockEnd
  0
BLOCK
  5
A2AC
330
A2A3
100
AcDbEntity
  8
0
100
AcDbBlockBegin
  2
*D5
 70
     1
 10
0.0
 20
0.0
 30
0.0
  3
*D5
  1

  0
LINE
  5
A2EC
330
A2A3
100
AcDbEntity
  8
mark
370
    -2
100
AcDbLine
 10
141.693253850999
 20
208.3249976692794
 30
0.0
 11
120.8823646192234
 21
202.1435216242772
 31
0.0
  0
LINE
  5
A2ED
330
A2A3
100
AcDbEntity
  8
mark
370
    -2
100
AcDbLine
 10
69.11763538077645
 20
186.7678002795634
 30
0.0
 11
66.72112013825577
 21
186.0559613284192
 31
0.0
  0
MTEXT
  5
A2EE
330
A2A3
100
AcDbEntity
  8
mark
 62
     3
100
AcDbMText
 10
132.691529014932
 20
207.8418885509846
 30
0.0
 40
2.5
 41
0.0
 71
     5
 72
     1
  1
\A1;P.C.D 49
 11
0.9586060970082749
 21
0.2847355804576619
 31
0.0
 73
     1
 44
1.0
  0
LINE
  5
A2EF
330
A2A3
100
AcDbEntity
  8
mark
370
    -2
100
AcDbLine
 10
71.51415062329715
 20
187.4796392307075
 30
0.0
 11
118.4858493767027
 21
201.431682673133
 31
0.0
  0
INSERT
  5
A2F0
330
A2A3
100
AcDbEntity
  8
mark
370
    -2
100
AcDbBlockReference
  2
_Open30
 10
71.51415062329715
 20
187.4796392307075
 30
0.0
 41
2.5
 42
2.5
 43
2.5
 50
16.54304361223972
  0
INSERT
  5
A2F1
330
A2A3
100
AcDbEntity
  8
mark
370
    -2
100
AcDbBlockReference
  2
_Open30
 10
118.4858493767027
 20
201.431682673133
 30
0.0
 41
2.5
 42
2.5
 43
2.5
 50
196.5430436122397
  0
POINT
  5
A2F2
330
A2A3
100
AcDbEntity
  8
DEFPOINTS
 62
     0
100
AcDbPoint
 10
118.4858493767027
 20
201.431682673133
 30
0.0
  0
POINT
  5
A2F3
330
A2A3
100
AcDbEntity
  8
DEFPOINTS
 62
     0
100
AcDbPoint
 10
71.51415062329715
 20
187.4796392307075
 30
0.0
  0
ENDBLK
  5
A2AD
330
A2A3
100
AcDbEntity
  8
0
100
AcDbBlockEnd
  0
BLOCK
  5
A2D2
330
A2C9
100
AcDbEntity
  8
0
100
AcDbBlockBegin
  2
*D6
 70
     1
 10
0.0
 20
0.0
 30
0.0
  3
*D6
  1

  0
LINE
  5
A2D4
330
A2C9
100
AcDbEntity
  8
mark
370
    -2
100
AcDbLine
 10
46.72236193988029
 20
210.9778041905945
 30
0.0
 11
68.74496710148104
 21
203.4409682642879
 31
0.0
  0
LINE
  5
A2D5
330
A2C9
100
AcDbEntity
  8
mark
370
    -2
100
AcDbLine
 10
121.2550328985189
 20
185.4703536395525
 30
0.0
 11
123.6203511776647
 21
184.6608664942942
 31
0.0
  0
MTEXT
  5
A2D6
330
A2C9
100
AcDbEntity
  8
mark
 62
     3
100
AcDbMText
 10
57.07648290360384
 20
209.6538691209703
 30
0.0
 40
2.5
 41
0.0
 71
     5
 72
     1
  1
\A1;P.C.D 50.5
 11
0.9461273116583402
 21
-0.3237948581033405
 31
0.0
 73
     1
 44
1.0
  0
LINE
  5
A2D7
330
A2C9
100
AcDbEntity
  8
mark
370
    -2
100
AcDbLine
 10
118.889714619373
 20
186.2798407848109
 30
0.0
 11
71.11028538062689
 21
202.6314811190295
 31
0.0
  0
INSERT
  5
A2D8
330
A2C9
100
AcDbEntity
  8
mark
370
    -2
100
AcDbBlockReference
  2
_Open30
 10
118.889714619373
 20
186.2798407848109
 30
0.0
 41
2.5
 42
2.5
 43
2.5
 50
161.1074221849044
  0
INSERT
  5
A2D9
330
A2C9
100
AcDbEntity
  8
mark
370
    -2
100
AcDbBlockReference
  2
_Open30
 10
71.11028538062689
 20
202.6314811190295
 30
0.0
 41
2.5
 42
2.5
 43
2.5
 50
341.1074221849045
  0
POINT
  5
A2DA
330
A2C9
100
AcDbEntity
  8
DEFPOINTS
 62
     0
100
AcDbPoint
 10
71.11028538062689
 20
202.6314811190295
 30
0.0
  0
POINT
  5
A2DB
330
A2C9
100
AcDbEntity
  8
DEFPOINTS
 62
     0
100
AcDbPoint
 10
118.889714619373
 20
186.2798407848109
 30
0.0
  0
ENDBLK
  5
A2D3
330
A2C9
100
AcDbEntity
  8
0
100
AcDbBlockEnd
  0
BLOCK
  5
A2FF
330
A2F5
100
AcDbEntity
  8
0
100
AcDbBlockBegin
  2
*D7
 70
     1
 10
0.0
 20
0.0
 30
0.0
  3
*D7
  1

  0
LINE
  5
A2F6
330
A2F5
100
AcDbEntity
  8
mark
370
    -2
100
AcDbLine
 10
123.9999999999999
 20
113.0047139494147
 30
0.0
 11
123.9999999999999
 21
121.6794855075946
 31
0.0
  0
LINE
  5
A2F7
330
A2F5
100
AcDbEntity
  8
mark
370
    -2
100
AcDbLine
 10
66.0
 20
113.0047139494147
 30
0.0
 11
66.0
 21
121.6794855075946
 31
0.0
  0
LINE
  5
A2F8
330
A2F5
100
AcDbEntity
  8
mark
370
    -2
100
AcDbLine
 10
121.4999999999999
 20
120.8294855075946
 30
0.0
 11
68.5
 21
120.8294855075946
 31
0.0
  0
INSERT
  5
A2F9
330
A2F5
100
AcDbEntity
  8
mark
370
    -2
100
AcDbBlockReference
  2
_Open30
 10
123.9999999999999
 20
120.8294855075946
 30
0.0
 41
2.5
 42
2.5
 43
2.5
  0
INSERT
  5
A2FA
330
A2F5
100
AcDbEntity
  8
mark
370
    -2
100
AcDbBlockReference
  2
_Open30
 10
66.0
 20
120.8294855075946
 30
0.0
 41
2.5
 42
2.5
 43
2.5
 50
180.0
  0
MTEXT
  5
A2FB
330
A2F5
100
AcDbEntity
  8
mark
 62
     3
100
AcDbMText
 10
94.99999999999998
 20
122.9294855075946
 30
0.0
 40
2.5
 41
0.0
 71
     5
 72
     1
  1
\A1;%%C58
 73
     1
 44
1.0
  0
POINT
  5
A2FC
330
A2F5
100
AcDbEntity
  8
DEFPOINTS
 62
     0
100
AcDbPoint
 10
123.9999999999999
 20
112.1547139494147
 30
0.0
  0
POINT
  5
A2FD
330
A2F5
100
AcDbEntity
  8
DEFPOINTS
 62
     0
100
AcDbPoint
 10
66.0
 20
112.1547139494147
 30
0.0
  0
POINT
  5
A2FE
330
A2F5
100
AcDbEntity
  8
DEFPOINTS
 62
     0
100
AcDbPoint
 10
66.0
 20
120.8294855075946
 30
0.0
  0
ENDBLK
  5
A300
330
A2F5
100
AcDbEntity
  8
0
100
AcDbBlockEnd
  0
BLOCK
  5
A328
330
A31E
100
AcDbEntity
  8
0
100
AcDbBlockBegin
  2
*D8
 70
     1
 10
0.0
 20
0.0
 30
0.0
  3
*D8
  1

  0
LINE
  5
A31F
330
A31E
100
AcDbEntity
  8
mark
370
    -2
100
AcDbLine
 10
64.14999999999998
 20
106.1547139494147
 30
0.0
 11
58.23742284490279
 21
106.1547139494147
 31
0.0
  0
LINE
  5
A320
330
A31E
100
AcDbEntity
  8
mark
370
    -2
100
AcDbLine
 10
66.15000000000001
 20
113.1547139494147
 30
0.0
 11
58.23742284490279
 21
113.1547139494147
 31
0.0
  0
LINE
  5
A321
330
A31E
100
AcDbEntity
  8
mark
370
    -2
100
AcDbLine
 10
59.08742284490279
 20
108.6547139494147
 30
0.0
 11
59.08742284490279
 21
110.6547139494147
 31
0.0
  0
INSERT
  5
A322
330
A31E
100
AcDbEntity
  8
mark
370
    -2
100
AcDbBlockReference
  2
_Open30
 10
59.08742284490279
 20
106.1547139494147
 30
0.0
 41
2.5
 42
2.5
 43
2.5
 50
270.0
  0
INSERT
  5
A323
330
A31E
100
AcDbEntity
  8
mark
370
    -2
100
AcDbBlockReference
  2
_Open30
 10
59.0874228449028
 20
113.1547139494147
 30
0.0
 41
2.5
 42
2.5
 43
2.5
 50
90.0
  0
MTEXT
  5
A324
330
A31E
100
AcDbEntity
  8
mark
 62
     3
100
AcDbMText
 10
56.98742284490277
 20
109.6547139494147
 30
0.0
 40
2.5
 41
0.0
 71
     5
 72
     1
  1
\A1;7
 11
0.0000000000000001
 21
1.0
 31
0.0
 73
     1
 44
1.0
  0
POINT
  5
A325
330
A31E
100
AcDbEntity
  8
DEFPOINTS
 62
     0
100
AcDbPoint
 10
64.99999999999997
 20
106.1547139494147
 30
0.0
  0
POINT
  5
A326
330
A31E
100
AcDbEntity
  8
DEFPOINTS
 62
     0
100
AcDbPoint
 10
67.0
 20
113.1547139494147
 30
0.0
  0
POINT
  5
A327
330
A31E
100
AcDbEntity
  8
DEFPOINTS
 62
     0
100
AcDbPoint
 10
59.0874228449028
 20
113.1547139494147
 30
0.0
  0
ENDBLK
  5
A329
330
A31E
100
AcDbEntity
  8
0
100
AcDbBlockEnd
  0
BLOCK
  5
A35A
330
A350
100
AcDbEntity
  8
0
100
AcDbBlockBegin
  2
*D9
 70
     1
 10
0.0
 20
0.0
 30
0.0
  3
*D9
  1

  0
LINE
  5
A351
330
A350
100
AcDbEntity
  8
mark
370
    -2
100
AcDbLine
 10
123.8499999999999
 20
113.1547139494147
 30
0.0
 11
134.7629750900654
 21
113.1547139494147
 31
0.0
  0
LINE
  5
A352
330
A350
100
AcDbEntity
  8
mark
370
    -2
100
AcDbLine
 10
123.8499999999999
 20
98.25471394941471
 30
0.0
 11
134.7629750900654
 21
98.25471394941471
 31
0.0
  0
LINE
  5
A353
330
A350
100
AcDbEntity
  8
mark
370
    -2
100
AcDbLine
 10
133.9129750900654
 20
110.6547139494147
 30
0.0
 11
133.9129750900654
 21
100.7547139494147
 31
0.0
  0
INSERT
  5
A354
330
A350
100
AcDbEntity
  8
mark
370
    -2
100
AcDbBlockReference
  2
_Open30
 10
133.9129750900654
 20
113.1547139494147
 30
0.0
 41
2.5
 42
2.5
 43
2.5
 50
90.0
  0
INSERT
  5
A355
330
A350
100
AcDbEntity
  8
mark
370
    -2
100
AcDbBlockReference
  2
_Open30
 10
133.9129750900654
 20
98.25471394941471
 30
0.0
 41
2.5
 42
2.5
 43
2.5
 50
270.0
  0
MTEXT
  5
A356
330
A350
100
AcDbEntity
  8
mark
 62
     3
100
AcDbMText
 10
131.8129750900653
 20
105.7047139494147
 30
0.0
 40
2.5
 41
0.0
 71
     5
 72
     1
  1
\A1;14.9
 11
0.0000000000000001
 21
1.0
 31
0.0
 73
     1
 44
1.0
  0
POINT
  5
A357
330
A350
100
AcDbEntity
  8
DEFPOINTS
 62
     0
100
AcDbPoint
 10
122.9999999999999
 20
113.1547139494147
 30
0.0
  0
POINT
  5
A358
330
A350
100
AcDbEntity
  8
DEFPOINTS
 62
     0
100
AcDbPoint
 10
122.9999999999999
 20
98.25471394941471
 30
0.0
  0
POINT
  5
A359
330
A350
100
AcDbEntity
  8
DEFPOINTS
 62
     0
100
AcDbPoint
 10
133.9129750900654
 20
98.25471394941471
 30
0.0
  0
ENDBLK
  5
A35B
330
A350
100
AcDbEntity
  8
0
100
AcDbBlockEnd
  0
BLOCK
  5
A381
330
A377
100
AcDbEntity
  8
0
100
AcDbBlockBegin
  2
*D10
 70
     1
 10
0.0
 20
0.0
 30
0.0
  3
*D10
  1

  0
LINE
  5
A378
330
A377
100
AcDbEntity
  8
mark
370
    -2
100
AcDbLine
 10
123.8500000000002
 20
91.1547139494147
 30
0.0
 11
141.8451782286017
 21
91.1547139494147
 31
0.0
  0
LINE
  5
A379
330
A377
100
AcDbEntity
  8
mark
370
    -2
100
AcDbLine
 10
123.8499999999999
 20
113.1547139494147
 30
0.0
 11
141.8451782286017
 21
113.1547139494147
 31
0.0
  0
LINE
  5
A37A
330
A377
100
AcDbEntity
  8
mark
370
    -2
100
AcDbLine
 10
140.9951782286017
 20
93.6547139494147
 30
0.0
 11
140.9951782286017
 21
110.6547139494147
 31
0.0
  0
INSERT
  5
A37B
330
A377
100
AcDbEntity
  8
mark
370
    -2
100
AcDbBlockReference
  2
_Open30
 10
140.9951782286017
 20
91.1547139494147
 30
0.0
 41
2.5
 42
2.5
 43
2.5
 50
270.0
  0
INSERT
  5
A37C
330
A377
100
AcDbEntity
  8
mark
370
    -2
100
AcDbBlockReference
  2
_Open30
 10
140.9951782286017
 20
113.1547139494147
 30
0.0
 41
2.5
 42
2.5
 43
2.5
 50
90.0
  0
MTEXT
  5
A37D
330
A377
100
AcDbEntity
  8
mark
 62
     3
100
AcDbMText
 10
138.8951782286017
 20
102.1547139494147
 30
0.0
 40
2.5
 41
0.0
 71
     5
 72
     1
  1
\A1;22%%P0.2
 11
0.0000000000000001
 21
1.0
 31
0.0
 73
     1
 44
1.0
  0
POINT
  5
A37E
330
A377
100
AcDbEntity
  8
DEFPOINTS
 62
     0
100
AcDbPoint
 10
123.0000000000002
 20
91.1547139494147
 30
0.0
  0
POINT
  5
A37F
330
A377
100
AcDbEntity
  8
DEFPOINTS
 62
     0
100
AcDbPoint
 10
122.9999999999999
 20
113.1547139494147
 30
0.0
  0
POINT
  5
A380
330
A377
100
AcDbEntity
  8
DEFPOINTS
 62
     0
100
AcDbPoint
 10
140.9951782286017
 20
113.1547139494147
 30
0.0
  0
ENDBLK
  5
A382
330
A377
100
AcDbEntity
  8
0
100
AcDbBlockEnd
  0
BLOCK
  5
A39D
330
A393
100
AcDbEntity
  8
0
100
AcDbBlockBegin
  2
*D11
 70
     1
 10
0.0
 20
0.0
 30
0.0
  3
*D11
  1

  0
LINE
  5
A394
330
A393
100
AcDbEntity
  8
mark
370
    -2
100
AcDbLine
 10
74.99999999999997
 20
90.99271394941471
 30
0.0
 11
74.99999999999997
 21
76.75468111017929
 31
0.0
  0
LINE
  5
A395
330
A393
100
AcDbEntity
  8
mark
370
    -2
100
AcDbLine
 10
114.9999999999999
 20
90.99271394941471
 30
0.0
 11
114.9999999999999
 21
76.75468111017929
 31
0.0
  0
LINE
  5
A396
330
A393
100
AcDbEntity
  8
mark
370
    -2
100
AcDbLine
 10
77.49999999999997
 20
77.60468111017928
 30
0.0
 11
112.5
 21
77.60468111017928
 31
0.0
  0
INSERT
  5
A397
330
A393
100
AcDbEntity
  8
mark
370
    -2
100
AcDbBlockReference
  2
_Open30
 10
74.99999999999997
 20
77.60468111017928
 30
0.0
 41
2.5
 42
2.5
 43
2.5
 50
180.0
  0
INSERT
  5
A398
330
A393
100
AcDbEntity
  8
mark
370
    -2
100
AcDbBlockReference
  2
_Open30
 10
114.9999999999999
 20
77.60468111017928
 30
0.0
 41
2.5
 42
2.5
 43
2.5
  0
MTEXT
  5
A399
330
A393
100
AcDbEntity
  8
mark
 62
     3
100
AcDbMText
 10
94.99999999999998
 20
79.70468111017928
 30
0.0
 40
2.5
 41
0.0
 71
     5
 72
     1
  1
\A1;M40X1.5P
 73
     1
 44
1.0
  0
POINT
  5
A39A
330
A393
100
AcDbEntity
  8
DEFPOINTS
 62
     0
100
AcDbPoint
 10
74.99999999999997
 20
91.8427139494147
 30
0.0
  0
POINT
  5
A39B
330
A393
100
AcDbEntity
  8
DEFPOINTS
 62
     0
100
AcDbPoint
 10
114.9999999999999
 20
91.8427139494147
 30
0.0
  0
POINT
  5
A39C
330
A393
100
AcDbEntity
  8
DEFPOINTS
 62
     0
100
AcDbPoint
 10
114.9999999999999
 20
77.60468111017928
 30
0.0
  0
ENDBLK
  5
A39E
330
A393
100
AcDbEntity
  8
0
100
AcDbBlockEnd
  0
BLOCK
  5
A3A9
330
A3A2
100
AcDbEntity
  8
0
100
AcDbBlockBegin
  2
*D12
 70
     1
 10
0.0
 20
0.0
 30
0.0
  3
*D12
  1

  0
LINE
  5
A3AB
330
A3A2
100
AcDbEntity
  8
mark
370
    -2
100
AcDbLine
 10
59.19825518090801
 20
84.35296913032347
 30
0.0
 11
64.52512626584692
 21
89.67984021526186
 31
0.0
  0
MTEXT
  5
A3AC
330
A3A2
100
AcDbEntity
  8
mark
 62
     3
100
AcDbMText
 10
59.49288300640256
 20
87.61744543680135
 30
0.0
 40
2.5
 41
0.0
 71
     5
 72
     1
  1
\A1;R1
 11
0.707106781186583
 21
0.7071067811865121
 31
0.0
 73
     1
 44
1.0
  0
LINE
  5
A3AD
330
A3A2
100
AcDbEntity
  8
mark
370
    -2
100
AcDbLine
 10
66.99999999999999
 20
92.15471394941468
 30
0.0
 11
66.29289321881339
 21
91.44760716822814
 31
0.0
  0
INSERT
  5
A3AE
330
A3A2
100
AcDbEntity
  8
mark
370
    -2
100
AcDbBlockReference
  2
_Open30
 10
66.29289321881339
 20
91.44760716822814
 30
0.0
 41
2.5
 42
2.5
 43
2.5
 50
44.99999999999712
  0
POINT
  5
A3AF
330
A3A2
100
AcDbEntity
  8
DEFPOINTS
 62
     0
100
AcDbPoint
 10
66.29289321881339
 20
91.44760716822814
 30
0.0
  0
POINT
  5
A3B0
330
A3A2
100
AcDbEntity
  8
DEFPOINTS
 62
     0
100
AcDbPoint
 10
66.99999999999999
 20
92.15471394941468
 30
0.0
  0
ENDBLK
  5
A3AA
330
A3A2
100
AcDbEntity
  8
0
100
AcDbBlockEnd
  0
BLOCK
  5
A58B
330
A584
100
AcDbEntity
  8
0
100
AcDbBlockBegin
  2
A$C36FE390F
 70
     0
 10
0.0
 20
0.0
 30
0.0
  3
A$C36FE390F
  1

  0
LWPOLYLINE
  5
A585
330
A584
100
AcDbEntity
  8
mark
100
AcDbPolyline
 90
        3
 70
     1
 43
0.0
 10
5.773503220243419
 20
0.6116704744286779
 10
2.886751874295304
 20
5.611670474428677
 10
0.0000005283471651
 20
0.6116704744286779
  0
MTEXT
  5
A586
330
A584
100
AcDbEntity
  8
dim
100
AcDbMText
 10
2.095053214576443
 20
3.649434995315885
 30
0.0
 40
2.5
 41
9.163114146879252
 71
     1
 72
     5
  1
2
 73
     1
 44
1.0
1001
ACAD
1000
ACAD_MTEXT_DEFINED_HEIGHT_BEGIN
1070
    46
1040
0.0
1000
ACAD_MTEXT_DEFINED_HEIGHT_END
  0
MTEXT
  5
A587
330
A584
100
AcDbEntity
  8
dim
100
AcDbMText
 10
7.536701731715083
 20
5.072228456878974
 30
0.0
 40
4.5
 41
0.0
 71
     1
 72
     5
  1
{\Ftxt,bigfont|c128;08.08.08 振れ精度の変更  林}
  7
JL
 73
     1
 44
1.0
1001
ACAD
1000
ACAD_MTEXT_DEFINED_HEIGHT_BEGIN
1070
    46
1040
0.0
1000
ACAD_MTEXT_DEFINED_HEIGHT_END
  0
CIRCLE
  5
A588
330
A584
100
AcDbEntity
  8
dim
100
AcDbCircle
 10
45.31100502574083
 20
2.762409836912183
 30
0.0
 40
2.762409708108862
  0
ENDBLK
  5
A58C
330
A584
100
AcDbEntity
  8
0
100
AcDbBlockEnd
  0
ENDSEC
  0
SECTION
  2
ENTITIES
  0
MTEXT
  5
C0
330
18
100
AcDbEntity
  8
0
100
AcDbMText
 10
41.26970765600413
 20
233.6950877649332
 30
0.0
 40
2.5
 41
0.0
 71
     1
 72
     5
  1

  7
ISOCP3
 73
     1
 44
1.0
  0
LWPOLYLINE
  5
7D6C
330
18
100
AcDbEntity
  8
frame
100
AcDbPolyline
 90
        4
 70
     1
 43
0.0
 10
190.0
 20
280.0
 10
0.0
 20
280.0
 10
0.0
 20
0.0
 10
190.0
 20
0.0
  0
MTEXT
  5
7D6D
330
18
100
AcDbEntity
  8
0
100
AcDbMText
 10
17.09950368689175
 20
19.07605901616614
 30
0.0
 40
4.5
 41
0.0
 71
     1
 72
     5
  1
{\Ftxt,bigfont|c128;林彦旭}
  7
JL
 73
     1
 44
1.0
1001
ACAD
1000
ACAD_MTEXT_DEFINED_HEIGHT_BEGIN
1070
    46
1040
0.0
1000
ACAD_MTEXT_DEFINED_HEIGHT_END
  0
MTEXT
  5
7D6E
330
18
100
AcDbEntity
  8
0
100
AcDbMText
 10
77.95294729228851
 20
28.93578979870677
 30
0.0
 40
4.5
 41
0.0
 71
     1
 72
     5
  1
{\Ftxt,bigfont|c128;1 : 1}
  7
JL
 73
     1
 44
1.0
1001
ACAD
1000
ACAD_MTEXT_DEFINED_HEIGHT_BEGIN
1070
    46
1040
0.0
1000
ACAD_MTEXT_DEFINED_HEIGHT_END
  0
MTEXT
  5
7D6F
330
18
100
AcDbEntity
  8
0
 48
2.0
370
    25
100
AcDbMText
 10
140.2194500465656
 20
3.490021654633892
 30
0.0
 40
4.5
 41
0.0
 71
     5
 72
     1
  1
{\Ftxt,bigfont|c128;N L 4 0 2 7 4}
 73
     1
 44
1.0
1001
ACAD
1000
ACAD_MTEXT_DEFINED_HEIGHT_BEGIN
1070
    46
1040
0.0
1000
ACAD_MTEXT_DEFINED_HEIGHT_END
  0
MTEXT
  5
7D70
330
18
100
AcDbEntity
  8
0
 48
2.0
100
AcDbMText
 10
169.5788245898021
 20
21.76437127823692
 30
0.0
 40
4.318181818181822
 41
0.0
 71
     5
 72
     1
  1
\P{\Ftxt,bigfont|c128;MKR40X1.5P}
 73
     1
 44
1.0
1001
ACAD
1000
ACAD_MTEXT_DEFINED_HEIGHT_BEGIN
1070
    46
1040
0.0
1000
ACAD_MTEXT_DEFINED_HEIGHT_END
  0
MTEXT
  5
7D71
330
18
100
AcDbEntity
  8
0
100
AcDbMText
 10
15.3760677136774
 20
28.37740359834709
 30
0.0
 40
4.5
 41
0.0
 71
     1
 72
     5
  1
{\Ftxt,bigfont|c128;06.10.17}
  7
JL
 73
     1
 44
1.0
1001
ACAD
1000
ACAD_MTEXT_DEFINED_HEIGHT_BEGIN
1070
    46
1040
0.0
1000
ACAD_MTEXT_DEFINED_HEIGHT_END
  0
LINE
  5
7D72
330
18
100
AcDbEntity
  8
0
 62
     7
 48
5.0
100
AcDbLine
 39
3.838383838383842
 10
47.92942413992534
 20
27.65712907016086
 30
0.0
 11
53.04580144287854
 21
28.93622339589922
 31
0.0
  0
MTEXT
  5
7D73
330
18
100
AcDbEntity
  8
0
100
AcDbMText
 10
14.91235548326415
 20
9.242195050049303
 30
0.0
 40
6.0
 41
0.0
 71
     1
 72
     5
  1
\Ftxt.shx,bigfont.shx|c128;日機株式会社
  7
LKK
 73
     1
 44
1.0
  0
LINE
  5
7D74
330
18
100
AcDbEntity
  8
frame
100
AcDbLine
 10
0.0
 20
12.0
 30
0.0
 11
190.0
 21
12.00000000000005
 31
0.0
  0
LINE
  5
7D75
330
18
100
AcDbEntity
  8
frame
100
AcDbLine
 10
0.0
 20
22.0
 30
0.0
 11
92.12121212121223
 21
22.0
 31
0.0
  0
LINE
  5
7D76
330
18
100
AcDbEntity
  8
frame
100
AcDbLine
 10
0.0
 20
32.0
 30
0.0
 11
190.0
 21
32.0
 31
0.0
  0
LINE
  5
7D77
330
18
100
AcDbEntity
  8
frame
100
AcDbLine
 10
12.19077332493799
 20
32.0
 30
0.0
 11
12.19077332493799
 21
12.0
 31
0.0
  0
LINE
  5
7D78
330
18
100
AcDbEntity
  8
frame
100
AcDbLine
 10
30.70707070707067
 20
32.0
 30
0.0
 11
30.70707070707078
 21
12.0
 31
0.0
  0
MTEXT
  5
7D79
330
18
100
AcDbEntity
  8
0
100
AcDbMText
 10
2.830274784221955
 20
29.08190089582831
 30
0.0
 40
4.5
 41
0.0
 71
     1
 72
     5
  1
\Ftxt.shx,bigfont.shx|c128;日 付
  7
JL
 73
     1
 44
1.0
  0
MTEXT
  5
7D7A
330
18
100
AcDbEntity
  8
0
100
AcDbMText
 10
2.97063307743889
 20
19.52163842926637
 30
0.0
 40
4.5
 41
0.0
 71
     1
 72
     5
  1
\Ftxt.shx,bigfont.shx|c128;製 図
  7
JL
 73
     1
 44
1.0
  0
LINE
  5
7D7B
330
18
100
AcDbEntity
  8
0
 62
     7
370
    25
100
AcDbLine
 10
53.04580144287854
 20
23.81984609294597
 30
0.0
 11
53.04580144287854
 21
28.93622339589922
 31
0.0
  0
MTEXT
  5
7D7C
330
18
100
AcDbEntity
  8
0
100
AcDbMText
 10
64.00748852490835
 20
29.12242703792379
 30
0.0
 40
4.5
 41
0.0
 71
     1
 72
     5
  1
\Ftxt.shx,bigfont.shx|c128;尺 度
  7
JL
 73
     1
 44
1.0
  0
LINE
  5
7D7D
330
18
100
AcDbEntity
  8
frame
100
AcDbLine
 10
61.41414141414145
 20
32.0
 30
0.0
 11
61.41414141414145
 21
12.0
 31
0.0
  0
LINE
  5
7D7E
330
18
100
AcDbEntity
  8
0
 62
     7
370
    25
100
AcDbLine
 10
39.6153110226262
 20
23.18889018332635
 30
0.0
 11
39.6153110226262
 21
29.36457992429672
 31
0.0
  0
CIRCLE
  5
7D7F
330
18
100
AcDbEntity
  8
0
 62
     7
100
AcDbCircle
 10
39.6153110226262
 20
26.37803474442251
 30
0.0
 40
2.558188651476678
  0
LINE
  5
7D80
330
18
100
AcDbEntity
  8
0
 62
     7
370
    25
100
AcDbLine
 10
47.19321986919976
 20
26.37803474442262
 30
0.0
 11
53.50512581624241
 21
26.37803474442262
 31
0.0
  0
LINE
  5
7D81
330
18
100
AcDbEntity
  8
0
 62
     7
100
AcDbLine
 10
47.92942413992534
 20
25.09894041868427
 30
0.0
 11
53.04580144287854
 21
23.81984609294597
 31
0.0
  0
LINE
  5
7D82
330
18
100
AcDbEntity
  8
frame
100
AcDbLine
 10
42.742241959951
 20
22.0
 30
0.0
 11
42.742241959951
 21
12.0
 31
0.0
  0
LINE
  5
7D83
330
18
100
AcDbEntity
  8
0
 62
     7
370
    25
100
AcDbLine
 10
36.41832228486612
 20
26.37803474442251
 30
0.0
 11
43.00325267619268
 21
26.37803474442262
 31
0.0
  0
CIRCLE
  5
7D84
330
18
100
AcDbEntity
  8
0
 62
     7
100
AcDbCircle
 10
39.6153110226262
 20
26.37803474442251
 30
0.0
 40
1.279094325738339
  0
MTEXT
  5
7D85
330
18
100
AcDbEntity
  8
0
100
AcDbMText
 10
33.70184032462407
 20
19.41013815785266
 30
0.0
 40
4.5
 41
0.0
 71
     1
 72
     5
  1
\Ftxt.shx,bigfont.shx|c128;検 図
  7
JL
 73
     1
 44
1.0
  0
LINE
  5
7D86
330
18
100
AcDbEntity
  8
0
 62
     7
370
    25
100
AcDbLine
 10
47.92942413992534
 20
25.09894041868427
 30
0.0
 11
47.92942413992534
 21
27.65712907016086
 31
0.0
  0
MTEXT
  5
7D87
330
18
100
AcDbEntity
  8
0
100
AcDbMText
 10
64.28820249919829
 20
19.32058534748881
 30
0.0
 40
4.5
 41
0.0
 71
     1
 72
     5
  1
\Ftxt.shx,bigfont.shx|c128;承 認
  7
JL
 73
     1
 44
1.0
  0
MTEXT
  5
7D88
330
18
100
AcDbEntity
  8
0
100
AcDbMText
 10
93.71128715606699
 20
10.7026821961914
 30
0.0
 40
4.5
 41
0.0
 71
     1
 72
     5
  1
\Ftxt.shx,bigfont.shx|c128;図  面  番  号
  7
JL
 73
     1
 44
1.0
  0
MTEXT
  5
7D89
330
18
100
AcDbEntity
  8
0
 48
2.0
100
AcDbMText
 10
116.9038190021384
 20
21.8757473149584
 30
0.0
 40
4.5
 41
0.0
 71
     5
 72
     1
  1
\P\Ftxt.shx,bigfont.shx|c128;    精密ロックナット
 73
     1
 44
1.0
  0
MTEXT
  5
7D8A
330
18
100
AcDbEntity
  8
0
100
AcDbMText
 10
94.8083613031232
 20
29.03862457973275
 30
0.0
 40
4.5
 41
0.0
 71
     1
 72
     5
  1
\Ftxt.shx,bigfont.shx|c128;品  名
  7
JL
 73
     1
 44
1.0
  0
LINE
  5
7D8B
330
18
100
AcDbEntity
  8
frame
100
AcDbLine
 10
92.12121212121223
 20
32.0
 30
0.0
 11
92.12121212121223
 21
0.1833227579584786
 31
0.0
  0
LINE
  5
7D8C
330
18
100
AcDbEntity
  8
frame
100
AcDbLine
 10
73.41414141414145
 20
32.0
 30
0.0
 11
73.41414141414145
 21
12.0
 31
0.0
  0
LINE
  5
7D8D
330
18
100
AcDbEntity
  8
frame
100
AcDbLine
 10
147.0327092740656
 20
32.0
 30
0.0
 11
147.0327092740657
 21
12.0
 31
0.0
  0
MTEXT
  5
7D8E
330
18
100
AcDbEntity
  8
0
100
AcDbMText
 10
150.895959446773
 20
29.04517782830391
 30
0.0
 40
4.5
 41
0.0
 71
     1
 72
     5
  1
\Ftxt.shx,bigfont.shx|c128;型  番
  7
JL
 73
     1
 44
1.0
  0
MTEXT
  5
7D8F
330
18
100
AcDbEntity
  8
0
100
AcDbMText
 10
165.8059614810325
 20
10.78298174971564
 30
0.0
 40
4.5
 41
0.0
 71
     1
 72
     5
  1
\Ftxt.shx,bigfont.shx|c128;変更
  7
JL
 73
     1
 44
1.0
  0
LINE
  5
7D90
330
18
100
AcDbEntity
  8
frame
100
AcDbLine
 10
164.0909090909092
 20
12.00000000000005
 30
0.0
 11
164.0909090909093
 21
0.0
 31
0.0
  0
LINE
  5
7D91
330
18
100
AcDbEntity
  8
frame
100
AcDbLine
 10
124.6157900786393
 20
43.13491348924492
 30
0.0
 11
184.6157900786393
 21
43.13491348924481
 31
0.0
  0
LINE
  5
7D92
330
18
100
AcDbEntity
  8
frame
100
AcDbLine
 10
124.6157900786393
 20
50.33491348924497
 30
0.0
 11
184.6157900786393
 21
50.33491348924497
 31
0.0
  0
LINE
  5
7D93
330
18
100
AcDbEntity
  8
frame
100
AcDbLine
 10
124.6157900786393
 20
57.5349134892449
 30
0.0
 11
184.6157900786393
 21
57.53491348924478
 31
0.0
  0
LINE
  5
7D94
330
18
100
AcDbEntity
  8
frame
100
AcDbLine
 10
124.6157900786393
 20
64.73491348924494
 30
0.0
 11
184.6157900786393
 21
64.73491348924483
 31
0.0
  0
LINE
  5
7D95
330
18
100
AcDbEntity
  8
frame
100
AcDbLine
 10
124.6157900786393
 20
35.93491348924488
 30
0.0
 11
184.6157900786393
 21
35.93491348924488
 31
0.0
  0
MTEXT
  5
7D96
330
18
100
AcDbEntity
  8
0
 62
     7
 48
2.0
100
AcDbMText
 10
154.5011900445106
 20
65.52808189982909
 30
0.0
 40
4.8
 41
0.0
 71
     5
 72
     1
  1
\P\Ftxt.shx,bigfont.shx|c128;諸　　　　元
 73
     1
 44
1.0
  0
LINE
  5
7D97
330
18
100
AcDbEntity
  8
frame
100
AcDbLine
 10
124.6157900786393
 20
64.73491348924483
 30
0.0
 11
124.6157900786393
 21
35.93491348924488
 31
0.0
  0
MTEXT
  5
7D98
330
18
100
AcDbEntity
  8
0
100
AcDbMText
 10
128.1382258923195
 20
56.00840432212407
 30
0.0
 40
4.4
 41
163.916286842249
 71
     1
 72
     5
  1
\Ftxt.shx,bigfont.shx|c128;熱　処　理
  7
JL
 73
     1
 44
1.0
  0
LINE
  5
7D99
330
18
100
AcDbEntity
  8
frame
100
AcDbLine
 10
148.6157900786393
 20
57.53491348924478
 30
0.0
 11
148.6157900786393
 21
35.93491348924488
 31
0.0
  0
MTEXT
  5
7D9A
330
18
100
AcDbEntity
  8
0
100
AcDbMText
 10
127.8579515249403
 20
49.00617587486397
 30
0.0
 40
4.4
 41
163.6058628849672
 71
     1
 72
     5
  1
\Ftxt.shx,bigfont.shx|c128;表 面 処 理
  7
JL
 73
     1
 44
1.0
  0
MTEXT
  5
7D9B
330
18
100
AcDbEntity
  8
0
100
AcDbMText
 10
128.1480173733753
 20
41.71770302125605
 30
0.0
 40
4.4
 41
166.1718
 71
     1
 72
     5
  1
\Ftxt.shx,bigfont.shx|c128;等     　級
  7
JL
 73
     1
 44
1.0
  0
LINE
  5
7D9C
330
18
100
AcDbEntity
  8
frame
100
AcDbLine
 10
184.6157900786393
 20
64.73491348924483
 30
0.0
 11
184.6157900786393
 21
35.93491348924499
 31
0.0
  0
MTEXT
  5
7D9D
330
18
100
AcDbEntity
  8
0
100
AcDbMText
 10
153.3627933880818
 20
55.83344641471445
 30
0.0
 40
4.4
 41
291.8960056857887
 71
     1
 72
     5
  1
\Ftxt.shx,bigfont.shx|c128;調質　HRC30%%d%%p２%%d
  7
JL
 73
     1
 44
1.0
  0
MTEXT
  5
7D9E
330
18
100
AcDbEntity
  8
0
100
AcDbMText
 10
153.6234323895182
 20
41.7183135927072
 30
0.0
 40
4.4
 41
290.783364796891
 71
     1
 72
     5
  1
\Ftxt.shx,bigfont.shx|c128;ＩＳＯ - ４Ｈ
  7
JL
 73
     1
 44
1.0
  0
MTEXT
  5
7D9F
330
18
100
AcDbEntity
  8
0
100
AcDbMText
 10
153.7978935876485
 20
48.65328293790913
 30
0.0
 40
4.4
 41
291.4548
 71
     1
 72
     5
  1
\Ftxt.shx,bigfont.shx|c128;黒  　    染
  7
JL
 73
     1
 44
1.0
  0
MTEXT
  5
7DA0
330
18
100
AcDbEntity
  8
0
100
AcDbMText
 10
57.63639061334425
 20
260.9000583279474
 30
0.0
 40
5.0
 41
0.0
 71
     1
 72
     5
  1
{\Ftxt,bigfont|c128;M4X0.7P-16L}
  7
JL
 73
     1
 44
1.0
1001
ACAD
1000
ACAD_MTEXT_DEFINED_HEIGHT_BEGIN
1070
    46
1040
0.0
1000
ACAD_MTEXT_DEFINED_HEIGHT_END
  0
LINE
  5
7DA2
330
18
100
AcDbEntity
  8
frame
100
AcDbLine
 10
0.0
 20
254.0
 30
0.0
 11
190.0
 21
254.0
 31
0.0
  0
LINE
  5
7DA3
330
18
100
AcDbEntity
  8
frame
100
AcDbLine
 10
0.0
 20
262.0
 30
0.0
 11
190.0
 21
262.0
 31
0.0
  0
LINE
  5
7DA4
330
18
100
AcDbEntity
  8
frame
 62
     9
100
AcDbLine
 10
0.0
 20
270.0
 30
0.0
 11
190.0
 21
270.0
 31
0.0
  0
MTEXT
  5
7DA5
330
18
100
AcDbEntity
  8
0
100
AcDbMText
 10
57.0156439060371
 20
277.4240560049041
 30
0.0
 40
5.0
 41
0.0
 71
     1
 72
     5
  1
\Ftxt.shx,bigfont.shx|c128;図    番 / 規　　格
  7
JL
 73
     1
 44
1.0
  0
LINE
  5
7DA6
330
18
100
AcDbEntity
  8
frame
100
AcDbLine
 10
0.0
 20
254.0
 30
0.0
 11
190.0
 21
254.0
 31
0.0
  0
MTEXT
  5
7DA8
330
18
100
AcDbEntity
  8
0
100
AcDbMText
 10
21.12488048923433
 20
277.4637981386743
 30
0.0
 40
5.0
 41
0.0
 71
     1
 72
     5
  1
\Ftxt.shx,bigfont.shx|c128;品　          名
  7
JL
 73
     1
 44
1.0
  0
MTEXT
  5
7DA9
330
18
100
AcDbEntity
  8
0
100
AcDbMText
 10
18.10281387110132
 20
260.7907237289111
 30
0.0
 40
5.0
 41
0.0
 71
     1
 72
     5
  1
\Ftxt.shx,bigfont.shx|c128;セットスクリュ-
  7
JL
 73
     1
 44
1.0
  0
MTEXT
  5
7DAA
330
18
100
AcDbEntity
  8
0
100
AcDbMText
 10
17.91509480863158
 20
268.8361230282964
 30
0.0
 40
5.0
 41
0.0
 71
     1
 72
     5
  1
\Ftxt.shx,bigfont.shx|c128;ロックナット　  
  7
JL
 73
     1
 44
1.0
  0
LINE
  5
7DAC
330
18
100
AcDbEntity
  8
frame
 62
     9
100
AcDbLine
 10
14.39393939393937
 20
279.9999999999999
 30
0.0
 11
14.39393939393964
 21
254.0
 31
0.0
  0
LINE
  5
7DAD
330
18
100
AcDbEntity
  8
frame
 62
     9
100
AcDbLine
 10
14.39393939393937
 20
279.9999999999999
 30
0.0
 11
14.39393939393937
 21
255.0505050505051
 31
0.0
  0
MTEXT
  5
7DAE
330
18
100
AcDbEntity
  8
0
100
AcDbMText
 10
6.815009268013795
 20
268.7281674434121
 30
0.0
 40
5.0
 41
0.0
 71
     1
 72
     5
  1
\Ftxt.shx,bigfont.shx|c128;1
  7
JL
 73
     1
 44
1.0
  0
MTEXT
  5
7DAF
330
18
100
AcDbEntity
  8
0
100
AcDbMText
 10
2.119828072980226
 20
277.4734782639491
 30
0.0
 40
5.0
 41
0.0
 71
     1
 72
     5
  1
\Ftxt.shx,bigfont.shx|c128;照   号
  7
JL
 73
     1
 44
1.0
  0
LINE
  5
7DB0
330
18
100
AcDbEntity
  8
frame
 62
     9
100
AcDbLine
 10
52.77777777777783
 20
279.9999999999999
 30
0.0
 11
52.77777777777784
 21
254.0
 31
0.0
  0
MTEXT
  5
7DB1
330
18
100
AcDbEntity
  8
0
100
AcDbMText
 10
145.5736374372851
 20
277.6781663894194
 30
0.0
 40
5.0
 41
0.0
 71
     1
 72
     5
  1
\Ftxt.shx,bigfont.shx|c128;備           考
  7
JL
 73
     1
 44
1.0
  0
LINE
  5
7DB2
330
18
100
AcDbEntity
  8
frame
 62
     9
100
AcDbLine
 10
91.16161616161617
 20
280.0
 30
0.0
 11
91.16161616161617
 21
254.0
 31
0.0
  0
MTEXT
  5
7DB4
330
18
100
AcDbEntity
  8
0
100
AcDbMText
 10
92.87341089179369
 20
268.8361230282964
 30
0.0
 40
5.0
 41
0.0
 71
     1
 72
     5
  1
\Ftxt.shx,bigfont.shx|c128;SCM-440
  7
JL
 73
     1
 44
1.0
  0
MTEXT
  5
7DB5
330
18
100
AcDbEntity
  8
0
100
AcDbMText
 10
92.87341089179369
 20
260.765002012584
 30
0.0
 40
5.0
 41
0.0
 71
     1
 72
     5
  1
\Ftxt.shx,bigfont.shx|c128;SCM435
  7
JL
 73
     1
 44
1.0
  0
MTEXT
  5
7DB6
330
18
100
AcDbEntity
  8
0
100
AcDbMText
 10
95.76798863104192
 20
277.5645499482919
 30
0.0
 40
5.0
 41
0.0
 71
     1
 72
     5
  1
\Ftxt.shx,bigfont.shx|c128;材　質
  7
JL
 73
     1
 44
1.0
  0
LINE
  5
7DB7
330
18
100
AcDbEntity
  8
frame
 62
     9
100
AcDbLine
 10
110.3535353535354
 20
280.0
 30
0.0
 11
110.3535353535354
 21
254.0
 31
0.0
  0
LINE
  5
7DB8
330
18
100
AcDbEntity
  8
frame
100
AcDbLine
 10
124.7474747474747
 20
280.0
 30
0.0
 11
124.7474747474748
 21
254.0
 31
0.0
  0
MTEXT
  5
7DBA
330
18
100
AcDbEntity
  8
0
100
AcDbMText
 10
117.1685446215491
 20
269.0412711679932
 30
0.0
 40
5.0
 41
0.0
 71
     1
 72
     5
  1
\Ftxt.shx,bigfont.shx|c128;1
  7
JL
 73
     1
 44
1.0
  0
MTEXT
  5
7DBB
330
18
100
AcDbEntity
  8
0
100
AcDbMText
 10
116.5939070266884
 20
260.5092290150679
 30
0.0
 40
5.0
 41
0.0
 71
     1
 72
     5
  1
{\Ftxt,bigfont|c128;4}
  7
JL
 73
     1
 44
1.0
1001
ACAD
1000
ACAD_MTEXT_DEFINED_HEIGHT_BEGIN
1070
    46
1040
0.0
1000
ACAD_MTEXT_DEFINED_HEIGHT_END
  0
MTEXT
  5
7DBC
330
18
100
AcDbEntity
  8
0
100
AcDbMText
 10
112.4223895919262
 20
277.5645499482919
 30
0.0
 40
5.0
 41
0.0
 71
     1
 72
     5
  1
\Ftxt.shx,bigfont.shx|c128;数   量
  7
JL
 73
     1
 44
1.0
  0
MTEXT
  5
7DBD
330
18
100
AcDbEntity
  8
0
100
AcDbMText
 10
6.404019699055993
 20
260.7281674434121
 30
0.0
 40
5.0
 41
0.0
 71
     1
 72
     5
  1
{\Ftxt,bigfont|c128;2}
  7
JL
 73
     1
 44
1.0
1001
ACAD
1000
ACAD_MTEXT_DEFINED_HEIGHT_BEGIN
1070
    46
1040
0.0
1000
ACAD_MTEXT_DEFINED_HEIGHT_END
  0
LINE
  5
9D54
102
{ACAD_REACTORS
330
A4E9
102
}
330
18
100
AcDbEntity
  8
contour
100
AcDbLine
 10
122.9999999999999
 20
113.1547139494147
 30
0.0
 11
67.0
 21
113.1547139494147
 31
0.0
  0
ARC
  5
9D55
102
{ACAD_REACTORS
330
A4E9
102
}
330
18
100
AcDbEntity
  8
contour
100
AcDbCircle
 10
122.9999999999999
 20
112.1547139494147
 30
0.0
 40
0.9999999999999998
100
AcDbArc
 50
0.0
 51
90.0
  0
LINE
  5
9D56
330
18
100
AcDbEntity
  8
center
 48
0.1
100
AcDbLine
 10
72.99999999999997
 20
106.1547139494147
 30
0.0
 11
64.99999999999997
 21
106.1547139494147
 31
0.0
  0
LINE
  5
9D57
102
{ACAD_REACTORS
330
A4E9
102
}
330
18
100
AcDbEntity
  8
contour
100
AcDbLine
 10
66.0
 20
112.1547139494147
 30
0.0
 11
66.0
 21
99.25471394941471
 31
0.0
  0
ARC
  5
9D58
102
{ACAD_REACTORS
330
A4E9
102
}
330
18
100
AcDbEntity
  8
contour
100
AcDbCircle
 10
67.0
 20
112.1547139494147
 30
0.0
 40
0.9999999999999998
100
AcDbArc
 50
90.0
 51
180.0
  0
LINE
  5
9D59
102
{ACAD_REACTORS
330
A4E9
102
}
330
18
100
AcDbEntity
  8
contour
100
AcDbLine
 10
66.0
 20
95.25471394941471
 30
0.0
 11
65.99999999999997
 21
92.15471394941472
 31
0.0
  0
ARC
  5
9D5A
102
{ACAD_REACTORS
330
A4E9
102
}
330
18
100
AcDbEntity
  8
contour
100
AcDbCircle
 10
67.0
 20
95.25471394941471
 30
0.0
 40
0.9999999999999998
100
AcDbArc
 50
90.0
 51
180.0
  0
LINE
  5
9D5B
102
{ACAD_REACTORS
330
A4E9
102
}
330
18
100
AcDbEntity
  8
contour
100
AcDbLine
 10
66.99999999999997
 20
91.1547139494147
 30
0.0
 11
123.0000000000002
 21
91.1547139494147
 31
0.0
  0
ARC
  5
9D5C
102
{ACAD_REACTORS
330
A4E9
102
}
330
18
100
AcDbEntity
  8
contour
100
AcDbCircle
 10
66.99999999999997
 20
92.15471394941472
 30
0.0
 40
0.9999999999999998
100
AcDbArc
 50
179.9999999999996
 51
270.0
  0
LINE
  5
9D5D
102
{ACAD_REACTORS
330
A4E9
102
}
330
18
100
AcDbEntity
  8
contour
100
AcDbLine
 10
69.75
 20
95.15471394941471
 30
0.0
 11
71.89999999999997
 21
93.91341087065702
 31
0.0
  0
LINE
  5
9D5E
102
{ACAD_REACTORS
330
A4E9
102
}
330
18
100
AcDbEntity
  8
contour
100
AcDbLine
 10
67.0
 20
96.2547139494147
 30
0.0
 11
73.25
 21
96.25471394941472
 31
0.0
  0
LINE
  5
9D5F
102
{ACAD_REACTORS
330
A4E9
102
}
330
18
100
AcDbEntity
  8
contour
100
AcDbLine
 10
121.4999999999999
 20
96.2547139494147
 30
0.0
 11
122.9999999999999
 21
96.2547139494147
 31
0.0
  0
ARC
  5
9D60
102
{ACAD_REACTORS
330
A4E9
102
}
330
18
100
AcDbEntity
  8
contour
100
AcDbCircle
 10
122.9999999999999
 20
95.25471394941471
 30
0.0
 40
0.9999999999999998
100
AcDbArc
 50
0.0
 51
90.0
  0
LINE
  5
9D61
102
{ACAD_REACTORS
330
A4E9
102
}
330
18
100
AcDbEntity
  8
contour
100
AcDbLine
 10
67.0
 20
98.25471394941471
 30
0.0
 11
73.25
 21
98.25471394941473
 31
0.0
  0
ARC
  5
9D62
102
{ACAD_REACTORS
330
A4E9
102
}
330
18
100
AcDbEntity
  8
contour
100
AcDbCircle
 10
67.0
 20
99.25471394941471
 30
0.0
 40
0.9999999999999998
100
AcDbArc
 50
179.9999999999996
 51
270.0
  0
LINE
  5
9D63
102
{ACAD_REACTORS
330
A4E9
102
}
330
18
100
AcDbEntity
  8
contour
100
AcDbLine
 10
121.4999999999999
 20
98.25471394941471
 30
0.0
 11
122.9999999999999
 21
98.25471394941471
 31
0.0
  0
LINE
  5
9D64
102
{ACAD_REACTORS
330
A4E9
102
}
330
18
100
AcDbEntity
  8
contour
100
AcDbLine
 10
123.9999999999999
 20
92.15471394941472
 30
0.0
 11
123.9999999999999
 21
95.25471394941471
 31
0.0
  0
ARC
  5
9D65
102
{ACAD_REACTORS
330
A4E9
102
}
330
18
100
AcDbEntity
  8
contour
100
AcDbCircle
 10
122.9999999999999
 20
92.15471394941472
 30
0.0
 40
0.9999999999999998
100
AcDbArc
 50
270.0
 51
0.0
  0
LINE
  5
9D66
102
{ACAD_REACTORS
330
A4E9
102
}
330
18
100
AcDbEntity
  8
contour
100
AcDbLine
 10
123.9999999999999
 20
99.25471394941471
 30
0.0
 11
123.9999999999999
 21
112.1547139494147
 31
0.0
  0
ARC
  5
9D67
102
{ACAD_REACTORS
330
A4E9
102
}
330
18
100
AcDbEntity
  8
contour
100
AcDbCircle
 10
122.9999999999999
 20
99.25471394941471
 30
0.0
 40
0.9999999999999998
100
AcDbArc
 50
270.0
 51
0.0
  0
LINE
  5
9D68
330
18
100
AcDbEntity
  8
center
 48
0.2
100
AcDbLine
 10
94.99999999999998
 20
114.1547139494147
 30
0.0
 11
94.99999999999998
 21
90.15471394941471
 31
0.0
  0
LINE
  5
9D69
102
{ACAD_REACTORS
330
A4E9
102
}
330
18
100
AcDbEntity
  8
contour
100
AcDbLine
 10
122.2499999999999
 20
101.0547139494147
 30
0.0
 11
122.2499999999999
 21
99.05471394941471
 31
0.0
  0
LINE
  5
9D6A
102
{ACAD_REACTORS
330
A4E9
102
}
330
18
100
AcDbEntity
  8
contour
100
AcDbLine
 10
116.7499999999999
 20
96.25471394941472
 30
0.0
 11
116.7499999999999
 21
98.25471394941471
 31
0.0
  0
LINE
  5
9D6B
102
{ACAD_REACTORS
330
A4E9
102
}
330
18
100
AcDbEntity
  8
contour
100
AcDbLine
 10
73.24999999999997
 20
96.2547139494147
 30
0.0
 11
73.24999999999997
 21
98.25471394941471
 31
0.0
  0
LINE
  5
9D6C
102
{ACAD_REACTORS
330
A4E9
102
}
330
18
100
AcDbEntity
  8
contour
100
AcDbLine
 10
67.59999999999999
 20
93.91341087065701
 30
0.0
 11
67.59999999999997
 21
91.65471394941471
 31
0.0
  0
LINE
  5
9D6D
102
{ACAD_REACTORS
330
A4E9
102
}
330
18
100
AcDbEntity
  8
contour
100
AcDbLine
 10
67.09999999999997
 20
91.1547139494147
 30
0.0
 11
67.59999999999997
 21
91.65471394941471
 31
0.0
  0
LINE
  5
9D6E
102
{ACAD_REACTORS
330
A4E9
102
}
330
18
100
AcDbEntity
  8
contour
100
AcDbLine
 10
71.89999999999995
 20
93.91341087065702
 30
0.0
 11
71.89999999999995
 21
91.65471394941471
 31
0.0
  0
LINE
  5
9D6F
102
{ACAD_REACTORS
330
A4E9
102
}
330
18
100
AcDbEntity
  8
contour
100
AcDbLine
 10
72.39999999999998
 20
91.1547139494147
 30
0.0
 11
71.89999999999997
 21
91.65471394941471
 31
0.0
  0
LINE
  5
9D70
330
18
100
AcDbEntity
  8
contour
100
AcDbLine
 10
71.89999999999997
 20
91.65471394941471
 30
0.0
 11
67.59999999999997
 21
91.65471394941471
 31
0.0
  0
LINE
  5
9D71
330
18
100
AcDbEntity
  8
center
 48
0.1
100
AcDbLine
 10
69.74999999999997
 20
90.15471394941471
 30
0.0
 11
69.74999999999997
 21
96.15471394941472
 31
0.0
  0
LINE
  5
9D72
102
{ACAD_REACTORS
330
A4E9
102
}
330
18
100
AcDbEntity
  8
contour
100
AcDbLine
 10
69.75
 20
95.15471394941471
 30
0.0
 11
67.59999999999997
 21
93.91341087065701
 31
0.0
  0
LINE
  5
9D73
330
18
100
AcDbEntity
  8
contour
100
AcDbLine
 10
71.89999999999995
 20
93.91341087065702
 30
0.0
 11
67.59999999999997
 21
93.91341087065701
 31
0.0
  0
LINE
  5
9D74
102
{ACAD_REACTORS
330
A4E9
102
}
330
18
100
AcDbEntity
  8
contour
100
AcDbLine
 10
71.99999999999997
 20
106.1547139494147
 30
0.0
 11
70.5566243270259
 21
108.6547139494147
 31
0.0
  0
LINE
  5
9D75
102
{ACAD_REACTORS
330
A4E9
102
}
330
18
100
AcDbEntity
  8
contour
100
AcDbLine
 10
71.99999999999997
 20
106.1547139494147
 30
0.0
 11
70.55662432702587
 21
103.6547139494147
 31
0.0
  0
LINE
  5
9D76
102
{ACAD_REACTORS
330
A4E9
102
}
330
18
100
AcDbEntity
  8
contour
100
AcDbLine
 10
66.49999999999997
 20
108.6547139494147
 30
0.0
 11
70.55662432702596
 21
108.6547139494147
 31
0.0
  0
LINE
  5
9D77
102
{ACAD_REACTORS
330
A4E9
102
}
330
18
100
AcDbEntity
  8
contour
100
AcDbLine
 10
66.49999999999997
 20
103.6547139494147
 30
0.0
 11
70.55662432702584
 21
103.6547139494147
 31
0.0
  0
LINE
  5
9D78
330
18
100
AcDbEntity
  8
contour
100
AcDbLine
 10
70.5566243270259
 20
108.6547139494147
 30
0.0
 11
70.55662432702587
 21
103.6547139494147
 31
0.0
  0
LINE
  5
9D79
330
18
100
AcDbEntity
  8
contour
100
AcDbLine
 10
66.49999999999997
 20
108.6547139494147
 30
0.0
 11
66.49999999999997
 21
103.6547139494147
 31
0.0
  0
LINE
  5
9D7A
102
{ACAD_REACTORS
330
A4E9
102
}
330
18
100
AcDbEntity
  8
contour
100
AcDbLine
 10
66.49999999999997
 20
103.6547139494147
 30
0.0
 11
65.99999999999997
 21
103.1547139494147
 31
0.0
  0
LINE
  5
9D7B
102
{ACAD_REACTORS
330
A4E9
102
}
330
18
100
AcDbEntity
  8
contour
100
AcDbLine
 10
66.49999999999997
 20
108.6547139494147
 30
0.0
 11
65.99999999999997
 21
109.1547139494147
 31
0.0
  0
LINE
  5
9D83
102
{ACAD_REACTORS
330
A4E9
102
}
330
18
100
AcDbEntity
  8
contour
100
AcDbLine
 10
67.74999999999997
 20
99.05471394941478
 30
0.0
 11
117.5
 21
99.0547139494147
 31
0.0
  0
LINE
  5
9D84
102
{ACAD_REACTORS
330
A4E9
102
}
330
18
100
AcDbEntity
  8
contour
100
AcDbLine
 10
67.74999999999997
 20
101.0547139494148
 30
0.0
 11
117.5
 21
101.0547139494147
 31
0.0
  0
LINE
  5
9D86
102
{ACAD_REACTORS
330
A4E9
102
}
330
18
100
AcDbEntity
  8
contour
100
AcDbLine
 10
67.74999999999997
 20
101.0547139494147
 30
0.0
 11
67.74999999999997
 21
99.05471394941471
 31
0.0
  0
LINE
  5
9D89
102
{ACAD_REACTORS
330
A4E9
102
}
330
18
100
AcDbEntity
  8
contour
100
AcDbLine
 10
114.188
 20
111.6547139494147
 30
0.0
 11
114.1879999999999
 21
102.5547139494147
 31
0.0
  0
LINE
  5
9D8A
102
{ACAD_REACTORS
330
A4E9
102
}
330
18
100
AcDbEntity
  8
contour
100
AcDbLine
 10
115.6879999999999
 20
113.1547139494147
 30
0.0
 11
114.188
 21
111.6547139494147
 31
0.0
  0
LINE
  5
9D8B
102
{ACAD_REACTORS
330
A4E9
102
}
330
18
100
AcDbEntity
  8
contour
 62
     4
100
AcDbLine
 10
114.9999999999999
 20
112.4667139494147
 30
0.0
 11
114.9999999999999
 21
101.7427139494147
 31
0.0
  0
LINE
  5
9D8C
102
{ACAD_REACTORS
330
A4E9
102
}
330
18
100
AcDbEntity
  8
contour
100
AcDbLine
 10
115.6879999999999
 20
101.0547139494147
 30
0.0
 11
114.1879999999999
 21
102.5547139494147
 31
0.0
  0
LINE
  5
9D8D
102
{ACAD_REACTORS
330
A4E9
102
}
330
18
100
AcDbEntity
  8
contour
100
AcDbLine
 10
114.1879999999999
 20
97.55471394941471
 30
0.0
 11
114.1879999999999
 21
92.65471394941469
 31
0.0
  0
LINE
  5
9D8E
102
{ACAD_REACTORS
330
A4E9
102
}
330
18
100
AcDbEntity
  8
contour
100
AcDbLine
 10
115.6879999999999
 20
99.05471394941471
 30
0.0
 11
114.1879999999999
 21
97.55471394941471
 31
0.0
  0
LINE
  5
9D8F
102
{ACAD_REACTORS
330
A4E9
102
}
330
18
100
AcDbEntity
  8
contour
 62
     4
100
AcDbLine
 10
114.9999999999999
 20
98.3667139494147
 30
0.0
 11
114.9999999999999
 21
91.8427139494147
 31
0.0
  0
LINE
  5
9D90
102
{ACAD_REACTORS
330
A4E9
102
}
330
18
100
AcDbEntity
  8
contour
100
AcDbLine
 10
115.6879999999999
 20
91.1547139494147
 30
0.0
 11
114.1879999999999
 21
92.65471394941471
 31
0.0
  0
LINE
  5
9D91
102
{ACAD_REACTORS
330
A4E9
102
}
330
18
100
AcDbEntity
  8
contour
100
AcDbLine
 10
75.81199999999992
 20
111.6547139494147
 30
0.0
 11
75.81199999999999
 21
102.5547139494147
 31
0.0
  0
LINE
  5
9D92
102
{ACAD_REACTORS
330
A4E9
102
}
330
18
100
AcDbEntity
  8
contour
100
AcDbLine
 10
74.31199999999993
 20
113.1547139494147
 30
0.0
 11
75.81199999999992
 21
111.6547139494147
 31
0.0
  0
LINE
  5
9D93
102
{ACAD_REACTORS
330
A4E9
102
}
330
18
100
AcDbEntity
  8
contour
 62
     4
100
AcDbLine
 10
74.99999999999994
 20
112.4667139494147
 30
0.0
 11
74.99999999999994
 21
101.7427139494146
 31
0.0
  0
LINE
  5
9D94
102
{ACAD_REACTORS
330
A4E9
102
}
330
18
100
AcDbEntity
  8
contour
100
AcDbLine
 10
74.31199999999996
 20
101.0547139494147
 30
0.0
 11
75.81199999999995
 21
102.5547139494147
 31
0.0
  0
LINE
  5
9D95
102
{ACAD_REACTORS
330
A4E9
102
}
330
18
100
AcDbEntity
  8
contour
100
AcDbLine
 10
75.81199999999995
 20
97.55471394941471
 30
0.0
 11
75.81199999999999
 21
92.65471394941469
 31
0.0
  0
LINE
  5
9D96
102
{ACAD_REACTORS
330
A4E9
102
}
330
18
100
AcDbEntity
  8
contour
100
AcDbLine
 10
74.31199999999996
 20
99.05471394941471
 30
0.0
 11
75.81199999999995
 21
97.55471394941471
 31
0.0
  0
LINE
  5
9D97
102
{ACAD_REACTORS
330
A4E9
102
}
330
18
100
AcDbEntity
  8
contour
 62
     4
100
AcDbLine
 10
74.99999999999997
 20
98.3667139494147
 30
0.0
 11
74.99999999999997
 21
91.8427139494147
 31
0.0
  0
LINE
  5
9D98
102
{ACAD_REACTORS
330
A4E9
102
}
330
18
100
AcDbEntity
  8
contour
100
AcDbLine
 10
74.31199999999998
 20
91.1547139494147
 30
0.0
 11
75.81199999999999
 21
92.65471394941471
 31
0.0
  0
LINE
  5
9D99
330
18
100
AcDbEntity
  8
contour
100
AcDbLine
 10
114.1879999999999
 20
111.6547139494147
 30
0.0
 11
75.8119999999999
 21
111.6547139494145
 31
0.0
  0
LINE
  5
9D9A
330
18
100
AcDbEntity
  8
contour
100
AcDbLine
 10
75.81199999999999
 20
102.5547139494147
 30
0.0
 11
114.1879999999999
 21
102.5547139494147
 31
0.0
  0
LINE
  5
9D9B
330
18
100
AcDbEntity
  8
contour
100
AcDbLine
 10
114.1879999999999
 20
97.55471394941473
 30
0.0
 11
75.81200000000001
 21
97.55471394941451
 31
0.0
  0
LINE
  5
9D9C
330
18
100
AcDbEntity
  8
contour
100
AcDbLine
 10
75.81200000000004
 20
92.65471394941471
 30
0.0
 11
114.1879999999999
 21
92.65471394941471
 31
0.0
  0
INSERT
  5
9D9E
102
{ACAD_REACTORS
330
A4E9
102
}
330
18
100
AcDbEntity
  8
contour
100
AcDbBlockReference
  2
LS2
 10
259.2797554375081
 20
91.38918113834131
 30
0.0
 41
-1.0
  0
LINE
  5
9E25
330
18
100
AcDbEntity
  8
center
 48
0.2
100
AcDbLine
 10
119.5
 20
114.1547139494147
 30
0.0
 11
119.5
 21
90.15471394941471
 31
0.0
  0
LINE
  5
9E26
102
{ACAD_REACTORS
330
A4E9
102
}
330
18
100
AcDbEntity
  8
contour
 62
     4
100
AcDbLine
 10
117.5
 20
110.3547139494147
 30
0.0
 11
117.5
 21
113.1547139494147
 31
0.0
  0
LINE
  5
9E27
102
{ACAD_REACTORS
330
A4E9
102
}
330
18
100
AcDbEntity
  8
contour
100
AcDbLine
 10
117.879
 20
110.7337139494146
 30
0.0
 11
117.879
 21
113.1547139494147
 31
0.0
  0
LINE
  5
9E28
102
{ACAD_REACTORS
330
A4E9
102
}
330
18
100
AcDbEntity
  8
contour
100
AcDbLine
 10
121.1209999999999
 20
110.7337139494146
 30
0.0
 11
121.1209999999999
 21
113.1547139494147
 31
0.0
  0
LINE
  5
9E29
102
{ACAD_REACTORS
330
A4E9
102
}
330
18
100
AcDbEntity
  8
contour
 62
     4
100
AcDbLine
 10
121.4999999999999
 20
110.3547139494147
 30
0.0
 11
121.4999999999999
 21
113.1547139494147
 31
0.0
  0
LINE
  5
9E2A
102
{ACAD_REACTORS
330
A4E9
102
}
330
18
100
AcDbEntity
  8
contour
100
AcDbLine
 10
122.9999999999999
 20
91.45471394941466
 30
0.0
 11
122.9999999999999
 21
91.1547139494147
 31
0.0
  0
LINE
  5
9E2B
102
{ACAD_REACTORS
330
A4E9
102
}
330
18
100
AcDbEntity
  8
contour
100
AcDbLine
 10
115.9999999999999
 20
91.45471394941479
 30
0.0
 11
115.9999999999999
 21
91.1547139494147
 31
0.0
  0
LINE
  5
9E2C
102
{ACAD_REACTORS
330
A4E9
102
}
330
18
100
AcDbEntity
  8
contour
100
AcDbLine
 10
116.7499999999999
 20
98.25471394941471
 30
0.0
 11
117.5
 21
98.25471394941471
 31
0.0
  0
LINE
  5
9E2D
102
{ACAD_REACTORS
330
A4E9
102
}
330
18
100
AcDbEntity
  8
contour
100
AcDbLine
 10
116.7499999999999
 20
96.25471394941472
 30
0.0
 11
117.5
 21
96.25471394941472
 31
0.0
  0
LINE
  5
9E30
102
{ACAD_REACTORS
330
A4E9
102
}
330
18
100
AcDbEntity
  8
contour
100
AcDbLine
 10
122.2499999999999
 20
101.0547139494147
 30
0.0
 11
121.4999999999999
 21
101.0547139494147
 31
0.0
  0
LINE
  5
9E31
102
{ACAD_REACTORS
330
A4E9
102
}
330
18
100
AcDbEntity
  8
contour
100
AcDbLine
 10
122.2499999999999
 20
99.05471394941471
 30
0.0
 11
121.4999999999999
 21
99.05471394941471
 31
0.0
  0
LINE
  5
9ECA
330
18
100
AcDbEntity
  8
center
 48
0.25
100
AcDbLine
 10
94.99999999999998
 20
164.4556609519202
 30
0.0
 11
95.0
 21
224.4556609519202
 31
0.0
  0
LINE
  5
9ECB
330
18
100
AcDbEntity
  8
center
 48
0.25
100
AcDbLine
 10
125.0
 20
194.4556609519202
 30
0.0
 11
65.0
 21
194.4556609519203
 31
0.0
  0
CIRCLE
  5
9ED0
330
18
100
AcDbEntity
  8
contour
100
AcDbCircle
 10
95.0
 20
194.4556609519202
 30
0.0
 40
19.18800000000007
  0
ARC
  5
9ED1
330
18
100
AcDbEntity
  8
contour
 62
     4
100
AcDbCircle
 10
95.0
 20
194.4556609519202
 30
0.0
 40
20.00000000000003
100
AcDbArc
 50
168.4630409671852
 51
101.5369590328148
  0
CIRCLE
  5
9ED2
330
18
100
AcDbEntity
  8
contour
100
AcDbCircle
 10
95.0
 20
194.4556609519202
 30
0.0
 40
20.68800000000004
  0
CIRCLE
  5
9ED3
330
18
100
AcDbEntity
  8
contour
100
AcDbCircle
 10
95.0
 20
194.4556609519202
 30
0.0
 40
28.99999999999997
  0
CIRCLE
  5
9EDE
330
18
100
AcDbEntity
  8
contour
100
AcDbCircle
 10
119.5
 20
194.4556609519202
 30
0.0
 40
1.621000000000037
  0
ARC
  5
9EDF
330
18
100
AcDbEntity
  8
contour
 62
     4
100
AcDbCircle
 10
119.5
 20
194.4556609519202
 30
0.0
 40
1.999999999999971
100
AcDbArc
 50
168.4630409671852
 51
101.5369590328164
  0
CIRCLE
  5
9EE0
330
18
100
AcDbEntity
  8
bowle
 48
0.2
100
AcDbCircle
 10
119.5
 20
194.4556609519202
 30
0.0
 40
3.499999999999971
  0
CIRCLE
  5
9EE3
330
18
100
AcDbEntity
  8
contour
100
AcDbCircle
 10
95.0
 20
218.9556609519203
 30
0.0
 40
1.621000000000037
  0
CIRCLE
  5
9EE4
330
18
100
AcDbEntity
  8
bowle
 48
0.2
100
AcDbCircle
 10
95.0
 20
218.9556609519202
 30
0.0
 40
3.499999999999971
  0
CIRCLE
  5
9EE5
330
18
100
AcDbEntity
  8
contour
100
AcDbCircle
 10
70.49999999999997
 20
194.4556609519202
 30
0.0
 40
1.621000000000037
  0
CIRCLE
  5
9EE6
330
18
100
AcDbEntity
  8
bowle
 48
0.2
100
AcDbCircle
 10
70.49999999999997
 20
194.4556609519202
 30
0.0
 40
3.499999999999971
  0
CIRCLE
  5
9EE7
330
18
100
AcDbEntity
  8
contour
100
AcDbCircle
 10
94.99999999999998
 20
169.9556609519202
 30
0.0
 40
1.621000000000037
  0
CIRCLE
  5
9EE8
330
18
100
AcDbEntity
  8
bowle
 48
0.2
100
AcDbCircle
 10
95.0
 20
169.9556609519202
 30
0.0
 40
3.499999999999971
  0
ARC
  5
9EE9
330
18
100
AcDbEntity
  8
contour
 62
     4
100
AcDbCircle
 10
94.99999999999994
 20
169.9556609519202
 30
0.0
 40
1.999999999999971
100
AcDbArc
 50
168.4630409671852
 51
101.5369590328164
  0
ARC
  5
9EEA
330
18
100
AcDbEntity
  8
contour
 62
     4
100
AcDbCircle
 10
70.49999999999997
 20
194.4556609519202
 30
0.0
 40
1.999999999999971
100
AcDbArc
 50
168.4630409671852
 51
101.5369590328148
  0
ARC
  5
9EEB
330
18
100
AcDbEntity
  8
contour
 62
     4
100
AcDbCircle
 10
94.99999999999994
 20
218.9556609519203
 30
0.0
 40
1.999999999999971
100
AcDbArc
 50
168.4630409671852
 51
101.5369590328164
  0
CIRCLE
  5
9EED
330
18
100
AcDbEntity
  8
bowle
 48
0.2
100
AcDbCircle
 10
77.14555377503967
 20
212.3101071768806
 30
0.0
 40
2.150000000000005
  0
CIRCLE
  5
9EEE
330
18
100
AcDbEntity
  8
bowle
 48
0.2
100
AcDbCircle
 10
77.14555377503967
 20
212.3101071768806
 30
0.0
 40
2.650000000000005
  0
LINE
  5
9EEF
330
18
100
AcDbEntity
  8
center
 48
0.15
100
AcDbLine
 10
82.13914186377904
 20
207.3165190881412
 30
0.0
 11
73.78679656440358
 21
215.6688643875167
 31
0.0
  0
LINE
  5
9EF0
330
18
100
AcDbEntity
  8
bowle
 48
0.2
100
AcDbLine
 10
78.73654403270942
 20
210.7191169192109
 30
0.0
 11
79.48369025951612
 21
213.5075045983369
 31
0.0
  0
LINE
  5
9EF1
330
18
100
AcDbEntity
  8
bowle
 48
0.2
100
AcDbLine
 10
78.73654403270942
 20
210.7191169192109
 30
0.0
 11
75.94815635358336
 21
209.9719706924042
 31
0.0
  0
LINE
  5
9EF2
330
18
100
AcDbEntity
  8
bowle
 48
0.2
100
AcDbLine
 10
76.61522368914976
 20
216.3759711687033
 30
0.0
 11
79.48369025951615
 21
213.5075045983369
 31
0.0
  0
LINE
  5
9EF3
330
18
100
AcDbEntity
  8
bowle
 48
0.2
100
AcDbLine
 10
73.07968978321702
 20
212.8404372627705
 30
0.0
 11
75.94815635358333
 21
209.9719706924042
 31
0.0
  0
LINE
  5
9EF4
330
18
100
AcDbEntity
  8
bowle
 48
0.2
100
AcDbLine
 10
79.48369025951612
 20
213.5075045983369
 30
0.0
 11
75.94815635358336
 21
209.9719706924042
 31
0.0
  0
LINE
  5
9EF5
330
18
100
AcDbEntity
  8
bowle
 48
0.2
100
AcDbLine
 10
76.61522368914976
 20
216.3759711687033
 30
0.0
 11
73.07968978321702
 21
212.8404372627705
 31
0.0
  0
LINE
  5
9EF6
330
18
100
AcDbEntity
  8
bowle
 48
0.2
100
AcDbLine
 10
73.07968978321702
 20
212.8404372627705
 30
0.0
 11
72.57233850799423
 21
212.8404372627705
 31
0.0
  0
LINE
  5
9EF7
330
18
100
AcDbEntity
  8
bowle
 48
0.2
100
AcDbLine
 10
76.61522368914976
 20
216.3759711687033
 30
0.0
 11
76.61522368914976
 21
216.8833224439261
 31
0.0
  0
CIRCLE
  5
9EF8
330
18
100
AcDbEntity
  8
bowle
 48
0.2
100
AcDbCircle
 10
77.14555377503964
 20
176.6012147269599
 30
0.0
 40
2.150000000000005
  0
CIRCLE
  5
9EF9
330
18
100
AcDbEntity
  8
bowle
 48
0.2
100
AcDbCircle
 10
77.14555377503964
 20
176.6012147269599
 30
0.0
 40
2.650000000000005
  0
LINE
  5
9EFA
330
18
100
AcDbEntity
  8
center
 48
0.15
100
AcDbLine
 10
82.139141863779
 20
181.5948028156992
 30
0.0
 11
73.78679656440354
 21
173.2424575163238
 31
0.0
  0
LINE
  5
9EFB
330
18
100
AcDbEntity
  8
bowle
 48
0.2
100
AcDbLine
 10
78.73654403270939
 20
178.1922049846296
 30
0.0
 11
75.94815635358333
 21
178.9393512114363
 31
0.0
  0
LINE
  5
9EFC
330
18
100
AcDbEntity
  8
bowle
 48
0.2
100
AcDbLine
 10
78.73654403270939
 20
178.1922049846296
 30
0.0
 11
79.48369025951606
 21
175.4038173055036
 31
0.0
  0
LINE
  5
9EFD
330
18
100
AcDbEntity
  8
bowle
 48
0.2
100
AcDbLine
 10
73.07968978321699
 20
176.07088464107
 30
0.0
 11
75.94815635358338
 21
178.9393512114363
 31
0.0
  0
LINE
  5
9EFE
330
18
100
AcDbEntity
  8
bowle
 48
0.2
100
AcDbLine
 10
76.61522368914972
 20
172.5353507351373
 30
0.0
 11
79.48369025951603
 21
175.4038173055035
 31
0.0
  0
LINE
  5
9EFF
330
18
100
AcDbEntity
  8
bowle
 48
0.2
100
AcDbLine
 10
75.94815635358333
 20
178.9393512114363
 30
0.0
 11
79.48369025951606
 21
175.4038173055036
 31
0.0
  0
LINE
  5
9F00
330
18
100
AcDbEntity
  8
bowle
 48
0.2
100
AcDbLine
 10
73.07968978321699
 20
176.07088464107
 30
0.0
 11
76.61522368914972
 21
172.5353507351372
 31
0.0
  0
LINE
  5
9F01
330
18
100
AcDbEntity
  8
bowle
 48
0.2
100
AcDbLine
 10
76.61522368914972
 20
172.5353507351372
 30
0.0
 11
76.61522368914972
 21
172.0279994599144
 31
0.0
  0
LINE
  5
9F02
330
18
100
AcDbEntity
  8
bowle
 48
0.2
100
AcDbLine
 10
73.07968978321699
 20
176.07088464107
 30
0.0
 11
72.57233850799417
 21
176.07088464107
 31
0.0
  0
CIRCLE
  5
9F03
330
18
100
AcDbEntity
  8
bowle
 48
0.2
100
AcDbCircle
 10
112.8544462249602
 20
176.6012147269599
 30
0.0
 40
2.150000000000005
  0
CIRCLE
  5
9F04
330
18
100
AcDbEntity
  8
bowle
 48
0.2
100
AcDbCircle
 10
112.8544462249602
 20
176.6012147269599
 30
0.0
 40
2.650000000000005
  0
LINE
  5
9F05
330
18
100
AcDbEntity
  8
center
 48
0.15
100
AcDbLine
 10
107.8608581362209
 20
181.5948028156992
 30
0.0
 11
116.2132034355963
 21
173.2424575163238
 31
0.0
  0
LINE
  5
9F06
330
18
100
AcDbEntity
  8
bowle
 48
0.2
100
AcDbLine
 10
111.2634559672905
 20
178.1922049846296
 30
0.0
 11
110.5163097404838
 21
175.4038173055036
 31
0.0
  0
LINE
  5
9F07
330
18
100
AcDbEntity
  8
bowle
 48
0.2
100
AcDbLine
 10
111.2634559672905
 20
178.1922049846296
 30
0.0
 11
114.0518436464166
 21
178.9393512114363
 31
0.0
  0
LINE
  5
9F08
330
18
100
AcDbEntity
  8
bowle
 48
0.2
100
AcDbLine
 10
113.3847763108501
 20
172.5353507351372
 30
0.0
 11
110.5163097404838
 21
175.4038173055036
 31
0.0
  0
LINE
  5
9F09
330
18
100
AcDbEntity
  8
bowle
 48
0.2
100
AcDbLine
 10
116.9203102167829
 20
176.0708846410699
 30
0.0
 11
114.0518436464166
 21
178.9393512114362
 31
0.0
  0
LINE
  5
9F0A
330
18
100
AcDbEntity
  8
bowle
 48
0.2
100
AcDbLine
 10
110.5163097404838
 20
175.4038173055036
 30
0.0
 11
114.0518436464166
 21
178.9393512114363
 31
0.0
  0
LINE
  5
9F0B
330
18
100
AcDbEntity
  8
bowle
 48
0.2
100
AcDbLine
 10
113.3847763108501
 20
172.5353507351372
 30
0.0
 11
116.9203102167829
 21
176.0708846410699
 31
0.0
  0
LINE
  5
9F0C
330
18
100
AcDbEntity
  8
bowle
 48
0.2
100
AcDbLine
 10
116.9203102167829
 20
176.0708846410699
 30
0.0
 11
117.4276614920057
 21
176.0708846410699
 31
0.0
  0
LINE
  5
9F0D
330
18
100
AcDbEntity
  8
bowle
 48
0.2
100
AcDbLine
 10
113.3847763108501
 20
172.5353507351372
 30
0.0
 11
113.3847763108501
 21
172.0279994599144
 31
0.0
  0
CIRCLE
  5
9F0E
330
18
100
AcDbEntity
  8
bowle
 48
0.2
100
AcDbCircle
 10
112.8544462249603
 20
212.3101071768805
 30
0.0
 40
2.150000000000005
  0
CIRCLE
  5
9F0F
330
18
100
AcDbEntity
  8
bowle
 48
0.2
100
AcDbCircle
 10
112.8544462249603
 20
212.3101071768805
 30
0.0
 40
2.650000000000005
  0
LINE
  5
9F10
330
18
100
AcDbEntity
  8
center
 48
0.15
100
AcDbLine
 10
107.860858136221
 20
207.3165190881412
 30
0.0
 11
116.2132034355964
 21
215.6688643875166
 31
0.0
  0
LINE
  5
9F11
330
18
100
AcDbEntity
  8
bowle
 48
0.2
100
AcDbLine
 10
111.2634559672906
 20
210.7191169192108
 30
0.0
 11
114.0518436464166
 21
209.971970692404
 31
0.0
  0
LINE
  5
9F12
330
18
100
AcDbEntity
  8
bowle
 48
0.2
100
AcDbLine
 10
111.2634559672906
 20
210.7191169192108
 30
0.0
 11
110.5163097404839
 21
213.5075045983368
 31
0.0
  0
LINE
  5
9F13
330
18
100
AcDbEntity
  8
bowle
 48
0.2
100
AcDbLine
 10
116.920310216783
 20
212.8404372627704
 30
0.0
 11
114.0518436464166
 21
209.971970692404
 31
0.0
  0
LINE
  5
9F14
330
18
100
AcDbEntity
  8
bowle
 48
0.2
100
AcDbLine
 10
113.3847763108502
 20
216.3759711687032
 30
0.0
 11
110.5163097404839
 21
213.5075045983369
 31
0.0
  0
LINE
  5
9F15
330
18
100
AcDbEntity
  8
bowle
 48
0.2
100
AcDbLine
 10
114.0518436464166
 20
209.971970692404
 30
0.0
 11
110.5163097404839
 21
213.5075045983368
 31
0.0
  0
LINE
  5
9F16
330
18
100
AcDbEntity
  8
bowle
 48
0.2
100
AcDbLine
 10
116.920310216783
 20
212.8404372627704
 30
0.0
 11
113.3847763108502
 21
216.3759711687032
 31
0.0
  0
LINE
  5
9F17
330
18
100
AcDbEntity
  8
bowle
 48
0.2
100
AcDbLine
 10
113.3847763108502
 20
216.3759711687032
 30
0.0
 11
113.3847763108502
 21
216.883322443926
 31
0.0
  0
LINE
  5
9F18
330
18
100
AcDbEntity
  8
bowle
 48
0.2
100
AcDbLine
 10
116.920310216783
 20
212.8404372627704
 30
0.0
 11
117.4276614920057
 21
212.8404372627704
 31
0.0
  0
CIRCLE
  5
9F28
330
18
100
AcDbEntity
  8
center
 48
0.25
100
AcDbCircle
 10
94.99999999999998
 20
194.4556609519202
 30
0.0
 40
24.50000000000006
  0
ARC
  5
9F29
330
18
100
AcDbEntity
  8
center
 48
0.25
100
AcDbCircle
 10
94.99999999999998
 20
194.4556609519202
 30
0.0
 40
25.24999999999999
100
AcDbArc
 50
119.8662659762179
 51
164.9543640680224
  0
ARC
  5
9F33
330
18
100
AcDbEntity
  8
center
 48
0.25
100
AcDbCircle
 10
94.99999999999998
 20
194.4556609519202
 30
0.0
 40
25.24999999999999
100
AcDbArc
 50
209.8662659762167
 51
240.1337340237819
  0
ARC
  5
9F34
330
18
100
AcDbEntity
  8
center
 48
0.25
100
AcDbCircle
 10
94.99999999999998
 20
194.4556609519202
 30
0.0
 40
25.24999999999999
100
AcDbArc
 50
299.866265976218
 51
344.9543640680226
  0
ARC
  5
9F35
330
18
100
AcDbEntity
  8
center
 48
0.25
100
AcDbCircle
 10
94.99999999999998
 20
194.4556609519202
 30
0.0
 40
25.24999999999999
100
AcDbArc
 50
29.86626597621618
 51
60.13373402378348
  0
DIMENSION
  5
A2A2
330
18
100
AcDbEntity
  8
mark
100
AcDbDimension
  2
*D5
 10
71.51415062329715
 20
187.4796392307075
 30
0.0
 11
133.2894737338931
 21
205.8288157472672
 31
0.0
 70
   163
  1
P.C.D 49
 71
     5
 42
49.00000000000011
  3
STANDARD
100
AcDbDiametricDimension
 15
118.4858493767027
 25
201.431682673133
 35
0.0
 40
0.0
1001
ACAD
1000
DSTYLE
1002
{
1070
   288
1070
     1
1002
}
  0
DIMENSION
  5
A2C8
330
18
100
AcDbEntity
  8
mark
100
AcDbDimension
  2
*D6
 10
118.889714619373
 20
186.2798407848109
 30
0.0
 11
56.39651370158682
 21
207.6670017664878
 31
0.0
 70
   163
  1
P.C.D 50.5
 71
     5
 42
50.49999999999998
  3
STANDARD
100
AcDbDiametricDimension
 15
71.11028538062689
 25
202.6314811190295
 35
0.0
 40
0.0
1001
ACAD
1000
DSTYLE
1002
{
1070
   288
1070
     1
1002
}
  0
DIMENSION
  5
A2F4
330
18
100
AcDbEntity
  8
mark
100
AcDbDimension
  2
*D7
 10
66.0
 20
120.8294855075946
 30
0.0
 11
94.99999999999998
 21
122.9294855075946
 31
0.0
 70
    32
  1
%%C58
 71
     5
 42
57.99999999999997
  3
STANDARD
100
AcDbAlignedDimension
 13
123.9999999999999
 23
112.1547139494147
 33
0.0
 14
66.0
 24
112.1547139494147
 34
0.0
100
AcDbRotatedDimension
  0
MTEXT
  5
A31C
330
18
100
AcDbEntity
  8
mark
 62
     3
100
AcDbMText
 10
99.06293508059626
 20
123.3668025265294
 30
0.0
 40
1.25
 41
0.0
 71
     4
 72
     1
  1
+0\P-0.2
 73
     1
 44
1.0
1001
ACAD
1000
ACAD_MTEXT_DEFINED_HEIGHT_BEGIN
1070
    46
1040
0.0
1000
ACAD_MTEXT_DEFINED_HEIGHT_END
  0
DIMENSION
  5
A31D
330
18
100
AcDbEntity
  8
mark
100
AcDbDimension
  2
*D8
 10
59.0874228449028
 20
113.1547139494147
 30
0.0
 11
56.98742284490277
 21
109.6547139494147
 31
0.0
 70
    32
 71
     5
 42
7.0
  3
STANDARD
100
AcDbAlignedDimension
 13
64.99999999999997
 23
106.1547139494147
 33
0.0
 14
67.0
 24
113.1547139494147
 34
0.0
 50
90.0
100
AcDbRotatedDimension
  0
LEADER
  5
A340
330
18
100
AcDbEntity
  8
mark
100
AcDbLeader
  3
STANDARD
 76
     2
 10
114.9379999999999
 20
91.90471394941472
 30
0.0
 10
106.1064647466879
 20
83.07317869610271
 30
0.0
1001
ACAD
1000
DSTYLE
1002
{
1070
   147
1040
0.85
1070
    77
1070
     0
1002
}
  0
MTEXT
  5
A341
330
18
100
AcDbEntity
  8
mark
 62
     3
100
AcDbMText
 10
107.4114559612393
 20
87.16221173749813
 30
0.0
 40
2.5
 41
0.0
 71
     5
 72
     1
  1
C1.5
 11
0.7071067811865476
 21
0.7071067811865475
 31
0.0
 73
     1
 44
1.0
1001
ACAD
1000
ACAD_MTEXT_DEFINED_HEIGHT_BEGIN
1070
    46
1040
0.0
1000
ACAD_MTEXT_DEFINED_HEIGHT_END
  0
LEADER
  5
A342
330
18
100
AcDbEntity
  8
mark
100
AcDbLeader
  3
STANDARD
 76
     3
 10
66.0
 20
106.1547139494147
 30
0.0
 10
58.92893218813452
 20
99.08364613754924
 30
0.0
 10
40.20348574161471
 20
99.08364613754924
 30
0.0
1001
ACAD
1000
DSTYLE
1002
{
1070
   147
1040
0.85
1070
    77
1070
     0
1002
}
  0
MTEXT
  5
A343
330
18
100
AcDbEntity
  8
mark
 62
     3
100
AcDbMText
 10
49.2314948090968
 20
101.2376420566607
 30
0.0
 40
2.5
 41
0.0
 71
     5
 72
     1
  1
{\Ftxt,bigfont|c136;4-%%C5\Ftxt,bigfont|c128;深さ6}
 73
     1
 44
1.0
1001
ACAD
1000
ACAD_MTEXT_DEFINED_HEIGHT_BEGIN
1070
    46
1040
0.0
1000
ACAD_MTEXT_DEFINED_HEIGHT_END
  0
LEADER
  5
A344
330
18
100
AcDbEntity
  8
mark
100
AcDbLeader
  3
STANDARD
 76
     3
 10
69.74999999999997
 20
91.1547139494147
 30
0.0
 10
58.92893218813452
 20
80.33364613754928
 30
0.0
 10
37.18319009836171
 20
80.33364613754928
 30
0.0
1001
ACAD
1000
DSTYLE
1002
{
1070
   147
1040
0.85
1070
    77
1070
     0
1002
}
  0
MTEXT
  5
A345
330
18
100
AcDbEntity
  8
mark
 62
     3
100
AcDbMText
 10
47.71957986712638
 20
82.48764205666079
 30
0.0
 40
2.5
 41
0.0
 71
     5
 72
     1
  1
{\Ftxt,bigfont|c136;4-%%C4.3\Ftxt,bigfont|c128;深さ4}
 73
     1
 44
1.0
1001
ACAD
1000
ACAD_MTEXT_DEFINED_HEIGHT_BEGIN
1070
    46
1040
0.0
1000
ACAD_MTEXT_DEFINED_HEIGHT_END
  0
LINE
  5
A346
330
18
100
AcDbEntity
  8
mark
100
AcDbLine
 10
140.9951782286017
 20
118.1547139494147
 30
0.0
 11
145.9951782286017
 21
118.1547139494147
 31
0.0
  0
TOLERANCE
  5
A347
330
18
100
AcDbEntity
  8
mark
100
AcDbFcf
  3
STANDARD
 10
145.9951782286017
 20
118.1547139494147
 30
0.0
  1
{\Fgdt;h}%%v0.005%%v%%vA%%v%%v
  0
TOLERANCE
  5
A348
330
18
100
AcDbEntity
  8
mark
100
AcDbFcf
  3
STANDARD
 10
84.99999999999998
 20
66.75468111017929
 30
0.0
  1
%%v%%v%%vA%%v%%v
  0
HATCH
  5
A349
330
18
100
AcDbEntity
  8
mark
100
AcDbHatch
 10
0.0
 20
0.0
 30
0.0
210
0.0
220
0.0
230
1.0
  2
SOLID
 70
     1
 71
     0
 91
        2
 92
        7
 72
     0
 73
     1
 93
        3
 10
74.99999999999997
 20
69.25468111017925
 10
74.99999999999996
 20
66.75468111017929
 10
77.5
 20
66.75468111017929
 97
        0
 92
        7
 72
     0
 73
     1
 93
        3
 10
77.49999999999997
 20
66.75468111017929
 10
74.99999999999999
 20
66.75468111017929
 10
74.99999999999999
 20
64.25468111017931
 97
        0
 75
     0
 76
     1
 47
0.1023763232943895
 98
        2
 10
75.9003217270938
 20
67.69333642780373
 10
75.59307784954478
 20
66.2600681971254
450
        0
451
        0
460
0.0
461
0.0
452
        1
462
1.0
453
        2
463
0.0
 63
     5
421
      255
463
1.0
 63
     7
421
 16777215
470
LINEAR
1001
ACAD
1010
0.0
1020
0.0
1030
0.0
  0
LINE
  5
A34B
330
18
100
AcDbEntity
  8
mark
100
AcDbLine
 10
74.99999999999997
 20
66.75468111017929
 30
0.0
 11
84.99999999999998
 21
66.75468111017929
 31
0.0
  0
LINE
  5
A34C
330
18
100
AcDbEntity
  8
mark
100
AcDbLine
 10
74.99999999999997
 20
69.25468111017929
 30
0.0
 11
77.49999999999997
 21
66.75468111017929
 31
0.0
  0
LINE
  5
A34D
330
18
100
AcDbEntity
  8
mark
100
AcDbLine
 10
77.49999999999997
 20
66.75468111017929
 30
0.0
 11
74.99999999999997
 21
64.25468111017929
 31
0.0
  0
LINE
  5
A34E
330
18
100
AcDbEntity
  8
mark
100
AcDbLine
 10
74.99999999999997
 20
64.25468111017929
 30
0.0
 11
74.99999999999997
 21
66.75468111017929
 31
0.0
  0
DIMENSION
  5
A34F
330
18
100
AcDbEntity
  8
mark
100
AcDbDimension
  2
*D9
 10
133.9129750900654
 20
98.25471394941471
 30
0.0
 11
131.8129750900653
 21
105.7047139494147
 31
0.0
 70
    32
 71
     5
 42
14.9
  3
STANDARD
100
AcDbAlignedDimension
 13
122.9999999999999
 23
113.1547139494147
 33
0.0
 14
122.9999999999999
 24
98.25471394941471
 34
0.0
 50
90.0
100
AcDbRotatedDimension
  0
DIMENSION
  5
A376
330
18
100
AcDbEntity
  8
mark
100
AcDbDimension
  2
*D10
 10
140.9951782286017
 20
113.1547139494147
 30
0.0
 11
138.8951782286017
 21
102.1547139494147
 31
0.0
 70
    32
  1
22%%P0.2
 71
     5
 42
22.0
  3
STANDARD
100
AcDbAlignedDimension
 13
123.0000000000002
 23
91.1547139494147
 33
0.0
 14
122.9999999999999
 24
113.1547139494147
 34
0.0
 50
90.0
100
AcDbRotatedDimension
  0
LINE
  5
A383
330
18
100
AcDbEntity
  8
mark
100
AcDbLine
 10
123.8499999999999
 20
98.25471394941471
 30
0.0
 11
134.7629750900654
 21
98.25471394941471
 31
0.0
  0
LINE
  5
A384
330
18
100
AcDbEntity
  8
mark
100
AcDbLine
 10
123.8499999999999
 20
96.2547139494147
 30
0.0
 11
134.7629750900654
 21
96.2547139494147
 31
0.0
  0
LINE
  5
A385
330
18
100
AcDbEntity
  8
mark
100
AcDbLine
 10
133.9129750900654
 20
100.7547139494147
 30
0.0
 11
133.9129750900654
 21
103.2547139494147
 31
0.0
  0
LINE
  5
A386
330
18
100
AcDbEntity
  8
mark
100
AcDbLine
 10
133.9129750900654
 20
93.7547139494147
 30
0.0
 11
133.9129750900654
 21
92.5047139494147
 31
0.0
  0
LINE
  5
A387
330
18
100
AcDbEntity
  8
mark
100
AcDbLine
 10
133.9129750900654
 20
98.25471394941471
 30
0.0
 11
133.9129750900654
 21
96.2547139494147
 31
0.0
  0
INSERT
  5
A388
330
18
100
AcDbEntity
  8
mark
100
AcDbBlockReference
  2
_Open30
 10
133.9129750900654
 20
98.25471394941471
 30
0.0
 41
2.5
 42
2.5
 43
2.5
 50
270.0
  0
INSERT
  5
A389
330
18
100
AcDbEntity
  8
mark
100
AcDbBlockReference
  2
_Open30
 10
133.9129750900654
 20
96.2547139494147
 30
0.0
 41
2.5
 42
2.5
 43
2.5
 50
90.0
  0
MTEXT
  5
A38A
330
18
100
AcDbEntity
  8
mark
 62
     3
100
AcDbMText
 10
131.8129750900654
 20
97.25471394941472
 30
0.0
 40
2.5
 41
0.0
 71
     5
 72
     1
  1
\A1;2
 11
0.0000000000000001
 21
1.0
 31
0.0
 73
     1
 44
1.0
  0
DIMENSION
  5
A392
330
18
100
AcDbEntity
  8
mark
100
AcDbDimension
  2
*D11
 10
114.9999999999999
 20
77.60468111017928
 30
0.0
 11
94.99999999999998
 21
79.70468111017928
 31
0.0
 70
    32
  1
M40X1.5P
 71
     5
 42
40.0
  3
STANDARD
100
AcDbAlignedDimension
 13
74.99999999999997
 23
91.8427139494147
 33
0.0
 14
114.9999999999999
 24
91.8427139494147
 34
0.0
100
AcDbRotatedDimension
  0
LINE
  5
A39F
330
18
100
AcDbEntity
  8
mark
100
AcDbLine
 10
140.9951782286017
 20
113.1547139494147
 30
0.0
 11
140.9951782286017
 21
118.1547139494147
 31
0.0
  0
LINE
  5
A3A0
330
18
100
AcDbEntity
  8
mark
100
AcDbLine
 10
74.99999999999997
 20
76.75468111017929
 30
0.0
 11
74.99999999999997
 21
66.75468111017929
 31
0.0
  0
DIMENSION
  5
A3A1
330
18
100
AcDbEntity
  8
mark
100
AcDbDimension
  2
*D12
 10
66.99999999999999
 20
92.15471394941468
 30
0.0
 11
59.49288300640256
 21
87.61744543680135
 31
0.0
 70
    36
 71
     5
 42
1.000000000000028
  3
STANDARD
100
AcDbRadialDimension
 15
66.29289321881339
 25
91.44760716822814
 35
0.0
 40
0.0
1001
ACAD
1000
DSTYLE
1002
{
1070
   279
1070
     1
1070
   288
1070
     1
1002
}
  0
HATCH
  5
A4E9
330
18
100
AcDbEntity
  8
section
100
AcDbHatch
 10
0.0
 20
0.0
 30
0.0
210
0.0
220
0.0
230
1.0
  2
ANSI31
 70
     0
 71
     1
 91
       11
 92
        7
 72
     1
 73
     1
 93
       34
 10
74.99999999999996
 20
112.4667139494147
 42
0.0
 10
74.31199999999991
 20
113.1547139494147
 42
0.0
 10
67.0
 20
113.1547139494147
 42
0.4142135623730951
 10
66.0
 20
112.1547139494147
 42
0.0
 10
66.0
 20
109.1547139494147
 42
0.0
 10
66.49999999999998
 20
108.6547139494147
 42
0.0
 10
70.55662432702591
 20
108.6547139494147
 42
0.0
 10
71.99999999999997
 20
106.1547139494147
 42
0.0
 10
70.55662432702586
 20
103.6547139494147
 42
0.0
 10
66.49999999999998
 20
103.6547139494147
 42
0.0
 10
66.0
 20
103.1547139494147
 42
0.0
 10
66.0
 20
99.25471394941471
 42
0.4142135623730929
 10
67.0
 20
98.25471394941471
 42
0.0
 10
73.24999999999997
 20
98.25471394941473
 42
0.0
 10
73.24999999999997
 20
96.25471394941472
 42
0.0
 10
67.0
 20
96.2547139494147
 42
0.4142135623730909
 10
66.0
 20
95.25471394941472
 42
0.0
 10
65.99999999999997
 20
92.15471394941472
 42
0.4142135623730929
 10
66.99999999999997
 20
91.1547139494147
 42
0.0
 10
67.09999999999995
 20
91.1547139494147
 42
0.0
 10
67.59999999999995
 20
91.65471394941469
 42
0.0
 10
67.60000000000001
 20
93.91341087065702
 42
0.0
 10
69.75000000000001
 20
95.15471394941471
 42
0.0
 10
71.89999999999995
 20
93.91341087065702
 42
0.0
 10
71.89999999999995
 20
91.65471394941473
 42
0.0
 10
72.40000000000001
 20
91.1547139494147
 42
0.0
 10
74.31199999999998
 20
91.1547139494147
 42
0.0
 10
74.99999999999997
 20
91.8427139494147
 42
0.0
 10
74.99999999999997
 20
98.3667139494147
 42
0.0
 10
74.31199999999987
 20
99.05471394941477
 42
0.0
 10
67.74999999999997
 20
99.0547139494148
 42
0.0
 10
67.74999999999995
 20
101.0547139494147
 42
0.0
 10
74.312
 20
101.0547139494147
 42
0.0
 10
74.99999999999994
 20
101.7427139494147
 42
0.0
 97
       32
330
9D92
330
9D54
330
9D58
330
9D57
330
9D7B
330
9D76
330
9D74
330
9D75
330
9D77
330
9D7A
330
9D62
330
9D61
330
9D6B
330
9D5E
330
9D5A
330
9D59
330
9D5C
330
9D5B
330
9D6D
330
9D6C
330
9D72
330
9D5D
330
9D6E
330
9D6F
330
9D98
330
9D97
330
9D96
330
9D83
330
9D86
330
9D84
330
9D94
330
9D93
 92
        7
 72
     0
 73
     1
 93
        4
 10
75.81199999999992
 20
111.6547139494147
 10
74.99999999999994
 20
112.4667139494147
 10
74.99999999999994
 20
101.7427139494147
 10
75.81199999999999
 20
102.5547139494147
 97
        4
330
9D92
330
9D93
330
9D94
330
9D91
 92
        7
 72
     0
 73
     1
 93
        4
 10
75.81199999999995
 20
97.55471394941473
 10
74.99999999999997
 20
98.36671394941472
 10
74.99999999999997
 20
91.84271394941468
 10
75.81199999999997
 20
92.65471394941469
 97
        4
330
9D96
330
9D97
330
9D98
330
9D95
 92
        7
 72
     0
 73
     1
 93
        4
 10
114.9999999999999
 20
112.4667139494147
 10
114.188
 20
111.6547139494147
 10
114.1879999999999
 20
102.5547139494147
 10
115.0
 20
101.7427139494146
 97
        4
330
9D8A
330
9D89
330
9D8C
330
9D8B
 92
        7
 72
     0
 73
     1
 93
        7
 10
117.5
 20
110.3547139494147
 10
117.5
 20
113.1547139494147
 10
115.6879999999999
 20
113.1547139494147
 10
115.0
 20
112.4667139494147
 10
114.9999999999999
 20
101.7427139494146
 10
115.6879999999999
 20
101.0547139494147
 10
117.5
 20
101.0547139494147
 97
        7
330
9E26
330
9D54
330
9D8A
330
9D8B
330
9D8C
330
9D84
330
9D9E
 92
        7
 72
     0
 73
     1
 93
        4
 10
117.879
 20
113.1547139494147
 10
117.4999999999999
 20
113.1547139494147
 10
117.4999999999999
 20
110.3547139494145
 10
117.879
 20
110.7337139494146
 97
        4
330
9D54
330
9E26
330
9D9E
330
9E27
 92
        7
 72
     0
 73
     1
 93
        4
 10
121.5
 20
113.1547139494147
 10
121.1209999999999
 20
113.1547139494147
 10
121.1209999999999
 20
110.7337139494147
 10
121.4999999999999
 20
110.3547139494147
 97
        4
330
9D54
330
9E28
330
9D9E
330
9E29
 92
        7
 72
     1
 73
     1
 93
       11
 10
123.9999999999999
 20
112.1547139494147
 42
0.4142135623730951
 10
122.9999999999999
 20
113.1547139494147
 42
0.0
 10
121.4999999999999
 20
113.1547139494147
 42
0.0
 10
121.4999999999999
 20
110.3547139494147
 42
0.0
 10
121.5
 20
101.0547139494147
 42
0.0
 10
122.2499999999999
 20
101.0547139494147
 42
0.0
 10
122.2499999999999
 20
99.05471394941471
 42
0.0
 10
121.5
 20
99.05471394941471
 42
0.0
 10
121.5
 20
98.25471394941471
 42
0.0
 10
122.9999999999999
 20
98.25471394941471
 42
0.4142135623730951
 10
123.9999999999999
 20
99.25471394941471
 42
0.0
 97
       10
330
9D55
330
9D54
330
9E29
330
9D9E
330
9E30
330
9D69
330
9E31
330
9D63
330
9D67
330
9D66
 92
        7
 72
     0
 73
     1
 93
        4
 10
114.9999999999999
 20
98.36671394941474
 10
114.188
 20
97.55471394941473
 10
114.1879999999999
 20
92.65471394941471
 10
114.9999999999999
 20
91.84271394941468
 97
        4
330
9D8E
330
9D8D
330
9D90
330
9D8F
 92
        7
 72
     0
 73
     1
 93
       13
 10
117.5
 20
96.2547139494147
 10
116.7499999999999
 20
96.25471394941472
 10
116.7499999999999
 20
98.2547139494147
 10
117.5
 20
98.25471394941471
 10
117.5
 20
99.0547139494147
 10
115.6879999999999
 20
99.0547139494147
 10
114.9999999999999
 20
98.3667139494147
 10
115.0
 20
91.84271394941466
 10
115.6879999999999
 20
91.1547139494147
 10
116.0
 20
91.1547139494147
 10
115.9999999999999
 20
91.45471394941479
 10
116.0
 20
95.15471394941471
 10
117.5
 20
95.15471394941471
 97
       10
330
9E2D
330
9D6A
330
9E2C
330
9D9E
330
9D83
330
9D8E
330
9D8F
330
9D90
330
9D5B
330
9E2B
 92
        7
 72
     1
 73
     1
 93
        8
 10
123.9999999999999
 20
95.25471394941471
 42
0.4142135623730951
 10
122.9999999999999
 20
96.2547139494147
 42
0.0
 10
121.5
 20
96.25471394941468
 42
0.0
 10
121.5
 20
95.15471394941473
 42
0.0
 10
123.0
 20
95.15471394941471
 42
0.0
 10
123.0
 20
91.45471394941466
 42
0.0
 10
122.9999999999999
 20
91.1547139494147
 42
0.4142135623730951
 10
123.9999999999999
 20
92.15471394941472
 42
0.0
 97
        6
330
9D60
330
9D5F
330
9D9E
330
9E2A
330
9D65
330
9D64
 75
     0
 76
     1
 52
0.0
 41
0.5
 77
     0
 78
     1
 53
45.0
 43
0.0
 44
0.0
 45
-1.122532015133643
 46
1.122532015133644
 79
     0
 47
0.0642650274046731
 98
       11
 10
72.45620506789464
 20
104.511182004167
 10
75.54208443007974
 20
105.4108926318518
 10
75.41350653058123
 20
95.77113826609252
 10
114.3085407230266
 20
107.6062243811124
 10
115.4657450765869
 20
107.6704895122678
 10
117.780154435322
 20
111.0765362267104
 10
121.2517687992322
 20
111.3978610768268
 10
122.1518173537953
 20
110.4981508519723
 10
114.7613294753217
 20
95.96245809212218
 10
116.2399798808577
 20
96.21951821391348
 10
123.6332325601521
 20
94.48436249252967
1001
ACAD
1010
0.0
1020
0.0
1030
0.0
  0
LEADER
  5
A4EA
330
18
100
AcDbEntity
  8
mark
100
AcDbLeader
  3
STANDARD
 76
     2
 10
120.1147367097487
 20
179.9556609519202
 30
0.0
 10
138.0421834155579
 20
169.6052447704386
 30
0.0
211
0.8660254037844383
221
-0.5000000000000005
231
0.0
1001
ACAD
1000
DSTYLE
1002
{
1070
   147
1040
0.85
1070
    77
1070
     0
1002
}
  0
MTEXT
  5
A4EB
330
18
100
AcDbEntity
  8
mark
 62
     3
100
AcDbMText
 10
142.1198322629549
 20
169.1935037341867
 30
0.0
 40
5.0
 41
0.0
 71
     5
 72
     1
  1
{\Ftxt,bigfont|c136;1}
 73
     1
 44
1.0
1001
ACAD
1000
ACAD_MTEXT_DEFINED_HEIGHT_BEGIN
1070
    46
1040
0.0
1000
ACAD_MTEXT_DEFINED_HEIGHT_END
  0
LEADER
  5
A4EC
330
18
100
AcDbEntity
  8
mark
100
AcDbLeader
  3
STANDARD
 76
     2
 10
119.5
 20
91.1547139494147
 30
0.0
 10
138.0421834155579
 20
80.44937936307894
 30
0.0
211
0.8660254037844383
221
-0.5000000000000005
231
0.0
1001
ACAD
1000
DSTYLE
1002
{
1070
   147
1040
0.85
1070
    77
1070
     0
1002
}
  0
MTEXT
  5
A4EF
330
18
100
AcDbEntity
  8
mark
 62
     3
100
AcDbMText
 10
142.1198322629549
 20
80.037638326827
 30
0.0
 40
5.0
 41
0.0
 71
     5
 72
     1
  1
{\Ftxt,bigfont|c136;2}
 73
     1
 44
1.0
1001
ACAD
1000
ACAD_MTEXT_DEFINED_HEIGHT_BEGIN
1070
    46
1040
0.0
1000
ACAD_MTEXT_DEFINED_HEIGHT_END
  0
MTEXT
  5
A511
330
18
100
AcDbEntity
  8
0
100
AcDbMText
 10
47.65097232190476
 20
19.07605901616614
 30
0.0
 40
4.5
 41
0.0
 71
     1
 72
     5
  1
{\Ftxt,bigfont|c128;小\~柳}
  7
JL
 73
     1
 44
1.0
1001
ACAD
1000
ACAD_MTEXT_DEFINED_HEIGHT_BEGIN
1070
    46
1040
0.0
1000
ACAD_MTEXT_DEFINED_HEIGHT_END
  0
MTEXT
  5
A528
330
18
100
AcDbEntity
  8
dim
100
AcDbMText
 10
9.759904228490427
 20
40.49407800490882
 30
0.0
 40
4.5
 41
0.0
 71
     1
 72
     5
  1
{\Ftxt,bigfont|c128;07.10.03\~寸法一部変更  林}
  7
JL
 73
     1
 44
1.0
1001
ACAD
1000
ACAD_MTEXT_DEFINED_HEIGHT_BEGIN
1070
    46
1040
0.0
1000
ACAD_MTEXT_DEFINED_HEIGHT_END
  0
CIRCLE
  5
A52B
330
18
100
AcDbEntity
  8
dim
100
AcDbCircle
 10
44.19068710204373
 20
38.17148456051155
 30
0.0
 40
2.750054604459023
  0
LWPOLYLINE
  5
A52E
330
18
100
AcDbEntity
  8
mark
100
AcDbPolyline
 90
        3
 70
     1
 43
0.0
 10
128.5903756817337
 20
117.1581450318244
 10
133.0903756817337
 20
114.5600688204711
 10
133.0903756817337
 20
119.7562212431777
  0
TEXT
  5
A52F
330
18
100
AcDbEntity
  8
dim
100
AcDbText
 10
132.5311607457902
 20
116.7773814275132
 30
0.0
 40
2.5
  1
1
 50
90.0
  7
TXT
100
AcDbText
  0
MTEXT
  5
A54B
330
18
100
AcDbEntity
  8
mark
 62
     3
100
AcDbMText
 10
131.8477401576904
 20
125.2984570076397
 30
0.0
 40
2.5
 41
0.0
 71
     5
 72
     1
  1
14.25
 11
0.0000000000000001
 21
1.0
 31
0.0
 73
     1
 44
1.0
1001
ACAD
1000
ACAD_MTEXT_DEFINED_HEIGHT_BEGIN
1070
    46
1040
0.0
1000
ACAD_MTEXT_DEFINED_HEIGHT_END
  0
LINE
  5
A54C
330
18
100
AcDbEntity
  8
mark
 62
     1
100
AcDbLine
 10
131.2810250310785
 20
109.344385848329
 30
0.0
 11
131.2810250310785
 21
102.0514096994407
 31
0.0
  0
LINE
  5
A54D
330
18
100
AcDbEntity
  8
mark
 62
     1
100
AcDbLine
 10
132.4493768052093
 20
109.344385848329
 30
0.0
 11
132.4493768052093
 21
102.0514096994407
 31
0.0
  0
LWPOLYLINE
  5
A597
330
18
100
AcDbEntity
  8
mark
100
AcDbPolyline
 90
        3
 70
     1
 43
0.0
 10
7.783352575776298
 20
43.4622025667289
 10
4.896601229828183
 20
48.4622025667289
 10
2.009849883880043
 20
43.4622025667289
  0
MTEXT
  5
A598
330
18
100
AcDbEntity
  8
dim
100
AcDbMText
 10
4.104902570109322
 20
46.49996708761611
 30
0.0
 40
2.5
 41
9.163114146879252
 71
     1
 72
     5
  1
2
 73
     1
 44
1.0
1001
ACAD
1000
ACAD_MTEXT_DEFINED_HEIGHT_BEGIN
1070
    46
1040
0.0
1000
ACAD_MTEXT_DEFINED_HEIGHT_END
  0
MTEXT
  5
A599
330
18
100
AcDbEntity
  8
dim
100
AcDbMText
 10
9.546551087247962
 20
47.9227605491792
 30
0.0
 40
4.5
 41
0.0
 71
     1
 72
     5
  1
{\Ftxt,bigfont|c128;08.08.08 振れ精度の変更  林}
  7
JL
 73
     1
 44
1.0
1001
ACAD
1000
ACAD_MTEXT_DEFINED_HEIGHT_BEGIN
1070
    46
1040
0.0
1000
ACAD_MTEXT_DEFINED_HEIGHT_END
  0
CIRCLE
  5
A59A
330
18
100
AcDbEntity
  8
dim
100
AcDbCircle
 10
47.3208543812737
 20
45.6129419292124
 30
0.0
 40
2.762409708108862
  0
LWPOLYLINE
  5
A59B
330
18
100
AcDbEntity
  8
mark
100
AcDbPolyline
 90
        3
 70
     1
 43
0.0
 10
7.996705717018762
 20
36.03352002245853
 10
5.109954371070648
 20
41.03352002245853
 10
2.223203025122508
 20
36.03352002245853
  0
MTEXT
  5
A59C
330
18
100
AcDbEntity
  8
dim
100
AcDbMText
 10
4.687179426440399
 20
39.25563940073184
 30
0.0
 40
2.5
 41
9.163114146879252
 71
     1
 72
     5
  1
1
 73
     1
 44
1.0
1001
ACAD
1000
ACAD_MTEXT_DEFINED_HEIGHT_BEGIN
1070
    46
1040
0.0
1000
ACAD_MTEXT_DEFINED_HEIGHT_END
  0
LWPOLYLINE
  5
A59D
330
18
100
AcDbEntity
  8
mark
100
AcDbPolyline
 90
        3
 70
     1
 43
0.0
 10
152.247980693228
 20
122.0626555171824
 10
149.3612293472799
 20
127.0626555171824
 10
146.4744780013318
 20
122.0626555171824
  0
MTEXT
  5
A59E
330
18
100
AcDbEntity
  8
dim
100
AcDbMText
 10
148.5695306875611
 20
125.1004200380696
 30
0.0
 40
2.5
 41
9.163114146879252
 71
     1
 72
     5
  1
2
 73
     1
 44
1.0
1001
ACAD
1000
ACAD_MTEXT_DEFINED_HEIGHT_BEGIN
1070
    46
1040
0.0
1000
ACAD_MTEXT_DEFINED_HEIGHT_END
  0
MTEXT
  5
A59F
330
18
100
AcDbEntity
  8
dim
100
AcDbMText
 10
153.5216211221436
 20
125.1004200380696
 30
0.0
 40
2.5
 41
9.163114146879252
 71
     1
 72
     5
  1
0.007
 73
     1
 44
1.0
1001
ACAD
1000
ACAD_MTEXT_DEFINED_HEIGHT_BEGIN
1070
    46
1040
0.0
1000
ACAD_MTEXT_DEFINED_HEIGHT_END
  0
LINE
  5
A5A0
330
18
100
AcDbEntity
  8
mark
 62
     1
100
AcDbLine
 10
152.7229022001049
 20
118.647561478854
 30
0.0
 11
163.1136289962799
 21
118.647561478854
 31
0.0
  0
LINE
  5
A5A1
330
18
100
AcDbEntity
  8
mark
 62
     1
100
AcDbLine
 10
152.7229022001049
 20
117.6688377409393
 30
0.0
 11
163.1136289962799
 21
117.6688377409393
 31
0.0
  0
LWPOLYLINE
  5
A5A2
330
18
100
AcDbEntity
  8
mark
100
AcDbPolyline
 90
        3
 70
     1
 43
0.0
 10
181.3772497036137
 20
2.600235408404955
 10
178.4904983576655
 20
7.600235408404955
 10
175.6037470117174
 20
2.600235408404955
  0
MTEXT
  5
A5A3
330
18
100
AcDbEntity
  8
dim
100
AcDbMText
 10
177.6987996979467
 20
5.637999929292163
 30
0.0
 40
2.5
 41
9.163114146879252
 71
     1
 72
     5
  1
2
 73
     1
 44
1.0
1001
ACAD
1000
ACAD_MTEXT_DEFINED_HEIGHT_BEGIN
1070
    46
1040
0.0
1000
ACAD_MTEXT_DEFINED_HEIGHT_END
  0
ENDSEC
  0
SECTION
  2
OBJECTS
  0
DICTIONARY
  5
C
330
0
100
AcDbDictionary
281
     1
  3
ACAD_COLOR
350
7873
  3
ACAD_GROUP
350
D
  3
ACAD_LAYOUT
350
5CF3
  3
ACAD_MATERIAL
350
7872
  3
ACAD_MLINESTYLE
350
1B
  3
ACAD_PLOTSETTINGS
350
5CF4
  3
ACAD_PLOTSTYLENAME
350
5CF1
  3
ACAD_TABLESTYLE
350
7874
  3
AcadDim
350
9A73
  3
ACDBVARIABLEDICTIONARY
350
45D
  0
DICTIONARY
  5
7BFE
330
2
100
AcDbDictionary
280
     1
281
     1
  3
ACAD_LAYERFILTERS
360
7C00
  3
ACLYDICTIONARY
360
7BFF
  0
DICTIONARY
  5
45F
330
18
100
AcDbDictionary
280
     1
281
     1
  3
ACAD_LAYOUTSELFREF
360
5D8B
  3
ACAD_SORTENTS
360
460
  0
DICTIONARY
  5
5D89
330
15
100
AcDbDictionary
280
     1
281
     1
  3
ACAD_LAYOUTSELFREF
360
5D8A
  0
DICTIONARY
  5
7C0B
330
7C0A
100
AcDbDictionary
280
     1
281
     1
  3
AcDbBlockTableRecordData
360
7C0C
  0
DICTIONARY
  5
8E73
330
8E72
100
AcDbDictionary
280
     1
281
     1
  3
AcDbBlockTableRecordData
360
8E74
  0
DICTIONARY
  5
9D16
330
9D15
100
AcDbDictionary
280
     1
281
     1
  3
AcDbBlockTableRecordData
360
9D17
  0
DICTIONARY
  5
A589
330
A584
100
AcDbDictionary
280
     1
281
     1
  3
ACAD_SORTENTS
360
A58A
  0
DICTIONARY
  5
7873
102
{ACAD_REACTORS
330
C
102
}
330
C
100
AcDbDictionary
281
     1
  0
DICTIONARY
  5
D
102
{ACAD_REACTORS
330
C
102
}
330
C
100
AcDbDictionary
281
     1
  0
DICTIONARY
  5
5CF3
102
{ACAD_REACTORS
330
C
102
}
330
C
100
AcDbDictionary
281
     1
  3
Model
350
5CF5
  3
配置1
350
5CF6
  0
DICTIONARY
  5
7872
102
{ACAD_REACTORS
330
C
102
}
330
C
100
AcDbDictionary
281
     1
  0
DICTIONARY
  5
1B
102
{ACAD_REACTORS
330
C
102
}
330
C
100
AcDbDictionary
281
     1
  3
STANDARD
350
1C
  0
DICTIONARY
  5
5CF4
102
{ACAD_REACTORS
330
C
102
}
330
C
100
AcDbDictionary
281
     1
  0
ACDBDICTIONARYWDFLT
  5
5CF1
102
{ACAD_REACTORS
330
C
102
}
330
C
100
AcDbDictionary
281
     1
  3
Normal
350
5CF2
100
AcDbDictionaryWithDefault
340
5CF2
  0
DICTIONARY
  5
7874
102
{ACAD_REACTORS
330
C
102
}
330
C
100
AcDbDictionary
281
     1
  3
Standard
350
7875
  0
XRECORD
  5
9A73
102
{ACAD_REACTORS
330
C
102
}
330
C
100
AcDbXrecord
280
     1
 90
   990106
  3

 60
     0
 61
     0
 62
     1
 63
     3
 64
     0
 65
     0
 66
     0
 67
     3
 68
     1
 69
     0
 70
     0
 71
     0
 72
     0
 40
0.0
170
     0
  0
DICTIONARY
  5
45D
102
{ACAD_REACTORS
330
C
102
}
330
C
100
AcDbDictionary
281
     1
  3
CTABLESTYLE
350
7880
  3
SORTENTS
350
45E
  0
DICTIONARY
  5
7C00
102
{ACAD_REACTORS
330
7BFE
102
}
330
7BFE
100
AcDbDictionary
281
     1
  0
DICTIONARY
  5
7BFF
102
{ACAD_REACTORS
330
7BFE
102
}
330
7BFE
100
AcDbDictionary
281
     1
1001
ACAD
1000
<All
  0
XRECORD
  5
5D8B
102
{ACAD_REACTORS
330
45F
102
}
330
45F
100
AcDbXrecord
280
     1
340
18
  0
SORTENTSTABLE
  5
460
102
{ACAD_REACTORS
330
45F
102
}
330
45F
100
AcDbSortentsTable
330
18
331
9E28
  5
9E2B
331
9D71
  5
9D76
331
7D9C
  5
7D9C
331
9E30
  5
9ECA
331
9D79
  5
9D85
331
C0
  5
CB
331
7D6D
  5
7D6D
331
7DA4
  5
7DA4
331
9EFF
  5
9F04
331
A31D
  5
A341
331
7DAC
  5
7DAC
331
7D75
  5
7D75
331
9F07
  5
9F0C
331
A4EB
  5
A4EB
331
7DB4
  5
7DB4
331
9ED0
  5
9ED7
331
9F0F
  5
9F14
331
A384
  5
A385
331
9D89
  5
9D8E
331
7D7D
  5
7D7D
331
7DBC
  5
7DBC
331
9F17
  5
9F30
331
9D91
  5
9D96
331
9D5A
  5
9D5D
331
7D85
  5
7D85
331
9EE0
  5
9EE5
331
A52B
  5
A52B
331
A345
  5
A347
331
9D99
  5
9DAC
331
9D62
  5
9D65
331
7D8D
  5
7D8D
331
9EE8
  5
9EEB
331
A34D
  5
A34F
331
A54B
  5
A54B
331
9D6A
  5
9D6F
331
7D95
  5
7D95
331
9EF0
  5
9EF5
331
9E29
  5
9E2C
331
9D72
  5
9D77
331
7D9D
  5
7D9D
331
9EF8
  5
9EFD
331
9E31
  5
9ECC
331
9D7A
  5
9D87
331
7D6E
  5
7D6E
331
7DA5
  5
7DA5
331
9F00
  5
9F05
331
7DAD
  5
7DAD
331
7D76
  5
7D76
331
9F08
  5
9F0D
331
A4EC
  5
A4EC
331
7DB5
  5
7DB5
331
9ED1
  5
9EDA
331
A385
  5
A386
331
9F10
  5
9F15
331
9D8A
  5
9D8F
331
7D7E
  5
7D7E
331
7DBD
  5
7DBD
331
9F18
  5
9F31
331
9D92
  5
9D97
331
9D5B
  5
9D5E
331
7D86
  5
7D86
331
A346
  5
A348
331
9F28
  5
9F33
331
9D9A
  5
9E25
331
9D63
  5
9D66
331
7D8E
  5
7D8E
331
9EE9
  5
9EED
331
A34E
  5
A376
331
9D6B
  5
9D70
331
7D96
  5
7D96
331
9EF1
  5
9EF6
331
9E2A
  5
9E2D
331
9D73
  5
9D78
331
7D9E
  5
7D9E
331
9EF9
  5
9EFE
331
9F01
  5
9F06
331
9D7B
  5
9D8A
331
7DA6
  5
7DA6
331
7D6F
  5
7D6F
331
A376
  5
A39F
331
9F09
  5
9F0E
331
9D83
  5
9D8B
331
7DAE
  5
7DAE
331
7D77
  5
7D77
331
9ECA
  5
9ED3
331
A2C8
  5
A31C
331
7DB6
  5
7DB6
331
9ED2
  5
9EE1
331
A386
  5
A387
331
9D8B
  5
9D90
331
9D54
  5
9D57
331
7D7F
  5
7D7F
331
9F11
  5
9F16
331
9D93
  5
9D98
331
9D5C
  5
9D5F
331
7D87
  5
7D87
331
A347
  5
A349
331
9D9B
  5
9E26
331
9D64
  5
9D67
331
7D8F
  5
7D8F
331
9EEA
  5
9EEE
331
9F29
  5
9F34
331
9D6C
  5
9D71
331
7D97
  5
7D97
331
9EF2
  5
9EF7
331
A34F
  5
A383
331
9E2B
  5
9E30
331
9D74
  5
9D79
331
7D9F
  5
7D9F
331
9EFA
  5
9EFF
331
9F02
  5
9F07
331
7D70
  5
7D70
331
9F0A
  5
9F0F
331
9D84
  5
9D8C
331
7DAF
  5
7DAF
331
9ECB
  5
9ED6
331
7DB7
  5
7DB7
331
9ED3
  5
9EE2
331
A387
  5
A388
331
7D78
  5
7D78
331
9D8C
  5
9D91
331
9D55
  5
9D58
331
7D80
  5
7D80
331
9F12
  5
9F17
331
9D94
  5
9D99
331
9D5D
  5
9D60
331
7D88
  5
7D88
331
9EE3
  5
9EE6
331
A340
  5
A342
331
A52E
  5
A52E
331
9D9C
  5
9E27
331
9D65
  5
9D68
331
7D90
  5
7D90
331
9EEB
  5
9EEF
331
A348
  5
A34B
331
9D6D
  5
9D72
331
9EF3
  5
9EF8
331
A39F
  5
A3A1
331
7D98
  5
7D98
331
9E2C
  5
9E31
331
9D75
  5
9D7A
331
7DA0
  5
7DA0
331
9EFB
  5
9F00
331
A2A2
  5
A2F4
331
9F03
  5
9F08
331
7DA8
  5
7DA8
331
7D71
  5
7D71
331
9F0B
  5
9F10
331
7DB0
  5
7DB0
331
A4EF
  5
A4EF
331
7D79
  5
7D79
331
7DB8
  5
7DB8
331
A388
  5
A389
331
9D8D
  5
9D92
331
9D56
  5
9D59
331
7D81
  5
7D81
331
9F13
  5
9F18
331
9D95
  5
9D9A
331
9D5E
  5
9D61
331
7D89
  5
7D89
331
9EE4
  5
9EE7
331
A341
  5
A343
331
A52F
  5
A52F
331
9D66
  5
9D69
331
7D91
  5
7D91
331
A349
  5
A34C
331
A3A0
  5
A3D0
331
9D6E
  5
9D73
331
9E25
  5
9D6D
331
9EF4
  5
9EF9
331
9F33
  5
9F35
331
7D99
  5
7D99
331
9E2D
  5
9E33
331
9D76
  5
9D7B
331
9EFC
  5
9F01
331
9F04
  5
9F09
331
7DA9
  5
7DA9
331
7D72
  5
7D72
331
9F0C
  5
9F11
331
9D86
  5
9D8D
331
7DB1
  5
7DB1
331
7D7A
  5
7D7A
331
A389
  5
A38A
331
9D8E
  5
9D93
331
9D57
  5
9D5A
331
7D82
  5
7D82
331
9F14
  5
9F19
331
A528
  5
A528
331
9D96
  5
9D9B
331
9D5F
  5
9D62
331
7D8A
  5
7D8A
331
9EE5
  5
9EE8
331
A342
  5
A344
331
9D9E
  5
9E28
331
9D67
  5
9D6B
331
7D92
  5
7D92
331
9EED
  5
9EF2
331
A3A1
  5
A463
331
9E26
  5
9E29
331
9D6F
  5
9D74
331
9EF5
  5
9EFA
331
9F34
  5
A2A2
331
7D9A
  5
7D9A
331
9D77
  5
9D7C
331
7DA2
  5
7DA2
331
9EFD
  5
9F02
331
9F05
  5
9F0A
331
7D73
  5
7D73
331
7DAA
  5
7DAA
331
9F0D
  5
9F12
331
7DB2
  5
7DB2
331
A4E9
  5
9D56
331
7D7B
  5
7D7B
331
7DBA
  5
7DBA
331
A38A
  5
A392
331
9D8F
  5
9D94
331
9D58
  5
9D5B
331
7D83
  5
7D83
331
9EDE
  5
9EE3
331
9F15
  5
9F28
331
A511
  5
A511
331
A392
  5
A3A0
331
9D97
  5
9D9C
331
9D60
  5
9D63
331
7D8B
  5
7D8B
331
9EE6
  5
9EE9
331
A343
  5
A345
331
A34B
  5
A34D
331
9D68
  5
9D6C
331
7D93
  5
7D93
331
9EEE
  5
9EF3
331
A2F4
  5
A31D
331
9E27
  5
9E2A
331
9EF6
  5
9EFB
331
9F35
  5
A2C8
331
9D70
  5
9D75
331
7D9B
  5
7D9B
331
9D78
  5
9D84
331
7D6C
  5
7D6C
331
7DA3
  5
7DA3
331
9EFE
  5
9F03
331
9F06
  5
9F0B
331
7D74
  5
7D74
331
A31C
  5
A340
331
9F0E
  5
9F13
331
A4EA
  5
A4EA
331
A383
  5
A384
331
7DBB
  5
7DBB
331
7D7C
  5
7D7C
331
9D90
  5
9D95
331
9D59
  5
9D5C
331
7D84
  5
7D84
331
9EDF
  5
9EE4
331
9F16
  5
9F29
331
9D98
  5
9D9D
331
9D61
  5
9D64
331
7D8C
  5
7D8C
331
9EE7
  5
9EEA
331
A344
  5
A346
331
9EEF
  5
9EF4
331
9D69
  5
9D6E
331
7D94
  5
7D94
331
A34C
  5
A34E
331
9EF7
  5
9EFC
  0
XRECORD
  5
5D8A
102
{ACAD_REACTORS
330
5D89
102
}
330
5D89
100
AcDbXrecord
280
     1
340
15
  0
DICTIONARY
  5
7C0C
102
{ACAD_REACTORS
330
7C0B
102
}
330
7C0B
100
AcDbDictionary
280
     1
281
     1
  3
Edit
360
7C0D
  0
DICTIONARY
  5
8E74
102
{ACAD_REACTORS
330
8E73
102
}
330
8E73
100
AcDbDictionary
280
     1
281
     1
  3
Edit
360
8E75
  0
DICTIONARY
  5
9D17
102
{ACAD_REACTORS
330
9D16
102
}
330
9D16
100
AcDbDictionary
280
     1
281
     1
  3
Edit
360
9D18
  0
SORTENTSTABLE
  5
A58A
102
{ACAD_REACTORS
330
A589
102
}
330
A589
100
AcDbSortentsTable
330
A584
  0
LAYOUT
  5
5CF5
102
{ACAD_REACTORS
330
5CF3
102
}
330
5CF3
100
AcDbPlotSettings
  1

  2
hp LaserJet 1300 PCL 6
  4
A4
  6

 40
5.027083396911621
 41
5.069413185119628
 42
5.027084350585937
 43
5.027069091796875
 44
209.9733276367187
 45
296.9683227539062
 46
4.959579944610595
 47
3.435920238494873
 48
0.0
 49
0.0
140
190.0
141
280.0
142
1.0
143
1.0
 70
 11940
 72
     1
 73
     0
 74
     4
  7
LIN.ctb
 75
    27
147
2.0
 76
     0
 77
     2
 78
   300
148
0.0
149
0.0
100
AcDbLayout
  1
Model
 70
     1
 71
     0
 10
0.0
 20
0.0
 11
12.0
 21
9.0
 12
0.0
 22
0.0
 32
0.0
 14
0.0
 24
0.0
 34
0.0
 15
0.0
 25
0.0
 35
0.0
146
0.0
 13
0.0
 23
0.0
 33
0.0
 16
1.0
 26
0.0
 36
0.0
 17
0.0
 27
1.0
 37
0.0
 76
     0
330
18
1001
ACAD_PSEXT
1000
hp LaserJet 1300 PCL 6
1000
hp LaserJet 1300 PCL 6
1000
HP 1300
1000

1070
     0
  0
LAYOUT
  5
5CF6
102
{ACAD_REACTORS
330
5CF3
102
}
330
5CF3
100
AcDbPlotSettings
  1

  2
EPSON STYLUS COLOR 440
  4

  6

 40
0.0
 41
0.0
 42
0.0
 43
0.0
 44
0.0
 45
0.0
 46
0.0
 47
0.0
 48
0.0
 49
0.0
140
0.0
141
0.0
142
1.0
143
1.0
 70
   688
 72
     0
 73
     0
 74
     5
  7
LIN.ctb
 75
    16
147
1.0
 76
     0
 77
     2
 78
   300
148
0.0
149
0.0
100
AcDbLayout
  1
ｰtｸm1
 70
     1
 71
     1
 10
0.0
 20
0.0
 11
420.0
 21
297.0
 12
0.0
 22
0.0
 32
0.0
 14
1.000000000000000E+20
 24
1.000000000000000E+20
 34
1.000000000000000E+20
 15
-1.000000000000000E+20
 25
-1.000000000000000E+20
 35
-1.000000000000000E+20
146
0.0
 13
0.0
 23
0.0
 33
0.0
 16
1.0
 26
0.0
 36
0.0
 17
0.0
 27
1.0
 37
0.0
 76
     0
330
15
  0
MLINESTYLE
  5
1C
102
{ACAD_REACTORS
330
1B
102
}
330
1B
100
AcDbMlineStyle
  2
STANDARD
 70
     0
  3

 62
   256
 51
90.0
 52
90.0
 71
     2
 49
0.5
 62
   256
  6
BYLAYER
 49
-0.5
 62
   256
  6
BYLAYER
  0
ACDBPLACEHOLDER
  5
5CF2
102
{ACAD_REACTORS
330
5CF1
102
}
330
5CF1
  0
TABLESTYLE
  5
7875
102
{ACAD_REACTORS
330
7874
102
}
330
7874
100
AcDbTableStyle
  3
Standard
 70
     0
 71
     8
 40
1.5
 41
1.5
280
     0
281
     0
  7
STANDARD
140
4.5
170
     2
 62
     0
 63
     7
283
     0
274
    -2
284
     1
 64
     0
275
    -2
285
     1
 65
     0
276
    -2
286
     1
 66
     0
277
    -2
287
     1
 67
     0
278
    -2
288
     1
 68
     0
279
    -2
289
     1
 69
     0
  7
STANDARD
140
6.0
170
     5
 62
     0
 63
     7
283
     0
274
    -2
284
     1
 64
     0
275
    -2
285
     1
 65
     0
276
    -2
286
     1
 66
     0
277
    -2
287
     1
 67
     0
278
    -2
288
     1
 68
     0
279
    -2
289
     1
 69
     0
  7
STANDARD
140
4.5
170
     5
 62
     0
 63
     7
283
     0
274
    -2
284
     1
 64
     0
275
    -2
285
     1
 65
     0
276
    -2
286
     1
 66
     0
277
    -2
287
     1
 67
     0
278
    -2
288
     1
 68
     0
279
    -2
289
     1
 69
     0
  0
DICTIONARYVAR
  5
7880
102
{ACAD_REACTORS
330
45D
102
}
330
45D
100
DictionaryVariables
280
     0
  1
STANDARD
  0
DICTIONARYVAR
  5
45E
102
{ACAD_REACTORS
330
45D
102
}
330
45D
100
DictionaryVariables
280
     0
  1
127
  0
XRECORD
  5
7C0D
102
{ACAD_REACTORS
330
7C0C
102
}
330
7C0C
100
AcDbXrecord
280
     1
1070
     0
1070
     1
1070
     1
  0
XRECORD
  5
8E75
102
{ACAD_REACTORS
330
8E74
102
}
330
8E74
100
AcDbXrecord
280
     1
1070
     0
1070
     1
1070
     1
  0
XRECORD
  5
9D18
102
{ACAD_REACTORS
330
9D17
102
}
330
9D17
100
AcDbXrecord
280
     1
1070
     0
1070
     1
1070
     1
  0
ENDSEC
  0
EOF
