  0
SECTION
  2
HEADER
  9
$ACADVER
  1
AC1018
  9
$ACADMAINTVER
 70
    76
  9
$DWGCODEPAGE
  3
ANSI_932
  9
$INSBASE
 10
0.0
 20
0.0
 30
0.0
  9
$EXTMIN
 10
0.0
 20
0.0
 30
0.0
  9
$EXTMAX
 10
190.0
 20
280.0
 30
3.838383838383842
  9
$LIMMIN
 10
0.0
 20
0.0
  9
$LIMMAX
 10
420.0
 20
297.0
  9
$ORTHOMODE
 70
     0
  9
$REGENMODE
 70
     1
  9
$FILLMODE
 70
     1
  9
$QTEXTMODE
 70
     0
  9
$MIRRTEXT
 70
     1
  9
$LTSCALE
 40
1.0
  9
$ATTMODE
 70
     1
  9
$TEXTSIZE
 40
1.25
  9
$TRACEWID
 40
1.0
  9
$TEXTSTYLE
  7
TXT
  9
$CLAYER
  8
section
  9
$CELTYPE
  6
BYLAYER
  9
$CECOLOR
 62
   256
  9
$CELTSCALE
 40
1.0
  9
$DISPSILH
 70
     0
  9
$DIMSCALE
 40
1.0
  9
$DIMASZ
 40
2.5
  9
$DIMEXO
 40
0.85
  9
$DIMDLI
 40
0.38
  9
$DIMRND
 40
0.0
  9
$DIMDLE
 40
0.0
  9
$DIMEXE
 40
0.85
  9
$DIMTP
 40
0.0
  9
$DIMTM
 40
0.0
  9
$DIMTXT
 40
2.5
  9
$DIMCEN
 40
0.09
  9
$DIMTSZ
 40
0.0
  9
$DIMTOL
 70
     0
  9
$DIMLIM
 70
     0
  9
$DIMTIH
 70
     0
  9
$DIMTOH
 70
     0
  9
$DIMSE1
 70
     0
  9
$DIMSE2
 70
     0
  9
$DIMTAD
 70
     3
  9
$DIMZIN
 70
     8
  9
$DIMBLK
  1
Open30
  9
$DIMASO
 70
     1
  9
$DIMSHO
 70
     1
  9
$DIMPOST
  1

  9
$DIMAPOST
  1

  9
$DIMALT
 70
     0
  9
$DIMALTD
 70
     2
  9
$DIMALTF
 40
25.4
  9
$DIMLFAC
 40
1.0
  9
$DIMTOFL
 70
     1
  9
$DIMTVP
 40
0.0
  9
$DIMTIX
 70
     0
  9
$DIMSOXD
 70
     0
  9
$DIMSAH
 70
     0
  9
$DIMBLK1
  1

  9
$DIMBLK2
  1

  9
$DIMSTYLE
  2
STANDARD
  9
$DIMCLRD
 70
   256
  9
$DIMCLRE
 70
   256
  9
$DIMCLRT
 70
     3
  9
$DIMTFAC
 40
1.0
  9
$DIMGAP
 40
0.85
  9
$DIMJUST
 70
     0
  9
$DIMSD1
 70
     0
  9
$DIMSD2
 70
     0
  9
$DIMTOLJ
 70
     1
  9
$DIMTZIN
 70
     0
  9
$DIMALTZ
 70
     0
  9
$DIMALTTZ
 70
     0
  9
$DIMUPT
 70
     0
  9
$DIMDEC
 70
     2
  9
$DIMTDEC
 70
     2
  9
$DIMALTU
 70
     2
  9
$DIMALTTD
 70
     2
  9
$DIMTXSTY
  7
STANDARD
  9
$DIMAUNIT
 70
     0
  9
$DIMADEC
 70
     2
  9
$DIMALTRND
 40
0.0
  9
$DIMAZIN
 70
     2
  9
$DIMDSEP
 70
    46
  9
$DIMATFIT
 70
     3
  9
$DIMFRAC
 70
     0
  9
$DIMLDRBLK
  1
Open30
  9
$DIMLUNIT
 70
     2
  9
$DIMLWD
 70
    -2
  9
$DIMLWE
 70
    -2
  9
$DIMTMOVE
 70
     0
  9
$LUNITS
 70
     2
  9
$LUPREC
 70
     2
  9
$SKETCHINC
 40
1.0
  9
$FILLETRAD
 40
1.0
  9
$AUNITS
 70
     0
  9
$AUPREC
 70
     2
  9
$MENU
  1
.
  9
$ELEVATION
 40
0.0
  9
$PELEVATION
 40
0.0
  9
$THICKNESS
 40
0.0
  9
$LIMCHECK
 70
     0
  9
$CHAMFERA
 40
1.5
  9
$CHAMFERB
 40
1.5
  9
$CHAMFERC
 40
1.75
  9
$CHAMFERD
 40
0.0174532925199433
  9
$SKPOLY
 70
     0
  9
$TDCREATE
 40
2451555.620234838
  9
$TDUCREATE
 40
2451555.245234838
  9
$TDUPDATE
 40
2455846.619711643
  9
$TDUUPDATE
 40
2455846.244711644
  9
$TDINDWG
 40
2.6133855671
  9
$TDUSRTIMER
 40
2.6133855671
  9
$USRTIMER
 70
     1
  9
$ANGBASE
 50
0.0
  9
$ANGDIR
 70
     0
  9
$PDMODE
 70
     0
  9
$PDSIZE
 40
0.0
  9
$PLINEWID
 40
0.0
  9
$SPLFRAME
 70
     0
  9
$SPLINETYPE
 70
     6
  9
$SPLINESEGS
 70
     8
  9
$HANDSEED
  5
A676
  9
$SURFTAB1
 70
     6
  9
$SURFTAB2
 70
     6
  9
$SURFTYPE
 70
     6
  9
$SURFU
 70
     6
  9
$SURFV
 70
     6
  9
$UCSBASE
  2

  9
$UCSNAME
  2

  9
$UCSORG
 10
0.0
 20
0.0
 30
0.0
  9
$UCSXDIR
 10
1.0
 20
0.0
 30
0.0
  9
$UCSYDIR
 10
0.0
 20
1.0
 30
0.0
  9
$UCSORTHOREF
  2

  9
$UCSORTHOVIEW
 70
     0
  9
$UCSORGTOP
 10
0.0
 20
0.0
 30
0.0
  9
$UCSORGBOTTOM
 10
0.0
 20
0.0
 30
0.0
  9
$UCSORGLEFT
 10
0.0
 20
0.0
 30
0.0
  9
$UCSORGRIGHT
 10
0.0
 20
0.0
 30
0.0
  9
$UCSORGFRONT
 10
0.0
 20
0.0
 30
0.0
  9
$UCSORGBACK
 10
0.0
 20
0.0
 30
0.0
  9
$PUCSBASE
  2

  9
$PUCSNAME
  2

  9
$PUCSORG
 10
0.0
 20
0.0
 30
0.0
  9
$PUCSXDIR
 10
1.0
 20
0.0
 30
0.0
  9
$PUCSYDIR
 10
0.0
 20
1.0
 30
0.0
  9
$PUCSORTHOREF
  2

  9
$PUCSORTHOVIEW
 70
     0
  9
$PUCSORGTOP
 10
0.0
 20
0.0
 30
0.0
  9
$PUCSORGBOTTOM
 10
0.0
 20
0.0
 30
0.0
  9
$PUCSORGLEFT
 10
0.0
 20
0.0
 30
0.0
  9
$PUCSORGRIGHT
 10
0.0
 20
0.0
 30
0.0
  9
$PUCSORGFRONT
 10
0.0
 20
0.0
 30
0.0
  9
$PUCSORGBACK
 10
0.0
 20
0.0
 30
0.0
  9
$USERI1
 70
     0
  9
$USERI2
 70
     0
  9
$USERI3
 70
     0
  9
$USERI4
 70
     0
  9
$USERI5
 70
     0
  9
$USERR1
 40
0.0
  9
$USERR2
 40
0.0
  9
$USERR3
 40
0.0
  9
$USERR4
 40
0.0
  9
$USERR5
 40
0.0
  9
$WORLDVIEW
 70
     1
  9
$SHADEDGE
 70
     3
  9
$SHADEDIF
 70
    70
  9
$TILEMODE
 70
     1
  9
$MAXACTVP
 70
    48
  9
$PINSBASE
 10
0.0
 20
0.0
 30
0.0
  9
$PLIMCHECK
 70
     0
  9
$PEXTMIN
 10
1.000000000000000E+20
 20
1.000000000000000E+20
 30
1.000000000000000E+20
  9
$PEXTMAX
 10
-1.000000000000000E+20
 20
-1.000000000000000E+20
 30
-1.000000000000000E+20
  9
$PLIMMIN
 10
0.0
 20
0.0
  9
$PLIMMAX
 10
420.0
 20
297.0
  9
$UNITMODE
 70
     0
  9
$VISRETAIN
 70
     1
  9
$PLINEGEN
 70
     0
  9
$PSLTSCALE
 70
     1
  9
$TREEDEPTH
 70
  3020
  9
$CMLSTYLE
  2
STANDARD
  9
$CMLJUST
 70
     0
  9
$CMLSCALE
 40
20.0
  9
$PROXYGRAPHICS
 70
     1
  9
$MEASUREMENT
 70
     1
  9
$CELWEIGHT
370
    -1
  9
$ENDCAPS
280
     0
  9
$JOINSTYLE
280
     0
  9
$LWDISPLAY
290
     0
  9
$INSUNITS
 70
     0
  9
$HYPERLINKBASE
  1

  9
$STYLESHEET
  1
monochrome.ctb
  9
$XEDIT
290
     1
  9
$CEPSNTYPE
380
     0
  9
$PSTYLEMODE
290
     1
  9
$FINGERPRINTGUID
  2
{1CF51E8A-A506-11D4-A7D9-AF69F5C20846}
  9
$VERSIONGUID
  2
{AF57073A-98C9-4AB9-84B1-4D86F2D65194}
  9
$EXTNAMES
290
     1
  9
$PSVPSCALE
 40
0.0
  9
$OLESTARTUP
290
     0
  9
$SORTENTS
280
   127
  9
$INDEXCTL
280
     0
  9
$HIDETEXT
280
     0
  9
$XCLIPFRAME
290
     0
  9
$HALOGAP
280
     0
  9
$OBSCOLOR
 70
   257
  9
$OBSLTYPE
280
     0
  9
$INTERSECTIONDISPLAY
280
     0
  9
$INTERSECTIONCOLOR
 70
   257
  9
$DIMASSOC
280
     1
  9
$PROJECTNAME
  1

  0
ENDSEC
  0
SECTION
  2
CLASSES
  0
CLASS
  1
DICTIONARYVAR
  2
AcDbDictionaryVar
  3
ObjectDBX Classes
 90
        0
 91
        2
280
     0
281
     0
  0
CLASS
  1
SORTENTSTABLE
  2
AcDbSortentsTable
  3
ObjectDBX Classes
 90
        0
 91
        1
280
     0
281
     0
  0
CLASS
  1
ACDBDICTIONARYWDFLT
  2
AcDbDictionaryWithDefault
  3
ObjectDBX Classes
 90
        0
 91
        1
280
     0
281
     0
  0
CLASS
  1
TABLESTYLE
  2
AcDbTableStyle
  3
ObjectDBX Classes
 90
     2047
 91
        1
280
     0
281
     0
  0
ENDSEC
  0
SECTION
  2
TABLES
  0
TABLE
  2
VPORT
  5
8
330
0
100
AcDbSymbolTable
 70
     2
  0
VPORT
  5
A675
330
8
100
AcDbSymbolTableRecord
100
AcDbViewportTableRecord
  2
*Active
 70
     0
 10
0.0
 20
0.0
 11
1.0
 21
1.0
 12
139.8193866060486
 22
134.528766877175
 13
0.0
 23
0.0
 14
10.0
 24
10.0
 15
10.0
 25
10.0
 16
0.0
 26
0.0
 36
1.0
 17
0.0
 27
0.0
 37
0.0
 40
283.4290658696427
 41
2.47104247104247
 42
50.0
 43
0.0
 44
0.0
 50
0.0
 51
0.0
 71
     0
 72
 20000
 73
     1
 74
     1
 75
     0
 76
     0
 77
     0
 78
     0
281
     0
 65
     1
110
0.0
120
0.0
130
0.0
111
1.0
121
0.0
131
0.0
112
0.0
122
1.0
132
0.0
 79
     0
146
0.0
  0
ENDTAB
  0
TABLE
  2
LTYPE
  5
5
330
0
100
AcDbSymbolTable
 70
     7
  0
LTYPE
  5
12
330
5
100
AcDbSymbolTableRecord
100
AcDbLinetypeTableRecord
  2
BYBLOCK
 70
     0
  3

 72
    65
 73
     0
 40
0.0
  0
LTYPE
  5
13
330
5
100
AcDbSymbolTableRecord
100
AcDbLinetypeTableRecord
  2
BYLAYER
 70
     0
  3

 72
    65
 73
     0
 40
0.0
  0
LTYPE
  5
14
330
5
100
AcDbSymbolTableRecord
100
AcDbLinetypeTableRecord
  2
CONTINUOUS
 70
     0
  3
Solid line
 72
    65
 73
     0
 40
0.0
  0
LTYPE
  5
9D
330
5
100
AcDbSymbolTableRecord
100
AcDbLinetypeTableRecord
  2
CENTERX2
 70
     0
  3
Center (2x) ________  __  ________  __  _____
 72
    65
 73
     4
 40
101.6
 49
63.5
 74
     0
 49
-12.7
 74
     0
 49
12.7
 74
     0
 49
-12.7
 74
     0
  0
LTYPE
  5
A1
330
5
100
AcDbSymbolTableRecord
100
AcDbLinetypeTableRecord
  2
DASHED
 70
     0
  3
Dashed __ __ __ __ __ __ __ __ __ __ __ __ __ _
 72
    65
 73
     2
 40
19.05
 49
12.7
 74
     0
 49
-6.349999999999999
 74
     0
  0
LTYPE
  5
A2
330
5
100
AcDbSymbolTableRecord
100
AcDbLinetypeTableRecord
  2
DASHED2
 70
     0
  3
Dashed (.5x) _ _ _ _ _ _ _ _ _ _ _ _ _ _ _ _ _
 72
    65
 73
     2
 40
9.524999999999998
 49
6.349999999999999
 74
     0
 49
-3.174999999999999
 74
     0
  0
LTYPE
  5
A5
330
5
100
AcDbSymbolTableRecord
100
AcDbLinetypeTableRecord
  2
DIVIDE2
 70
     0
  3
Divide (.5x) __..__..__..__..__..__..__..__.._
 72
    65
 73
     6
 40
15.875
 49
6.349999999999999
 74
     0
 49
-3.174999999999999
 74
     0
 49
0.0
 74
     0
 49
-3.174999999999999
 74
     0
 49
0.0
 74
     0
 49
-3.174999999999999
 74
     0
  0
LTYPE
  5
650B
330
5
100
AcDbSymbolTableRecord
100
AcDbLinetypeTableRecord
  2
CENTER
 70
     0
  3
Center ____ _ ____ _ ____ _ ____ _ ____ _ ____
 72
    65
 73
     4
 40
50.8
 49
31.75
 74
     0
 49
-6.349999999999999
 74
     0
 49
6.349999999999999
 74
     0
 49
-6.349999999999999
 74
     0
  0
LTYPE
  5
650C
330
5
100
AcDbSymbolTableRecord
100
AcDbLinetypeTableRecord
  2
HIDDEN
 70
     0
  3
Hidden __ __ __ __ __ __ __ __ __ __ __ __ __ _
 72
    65
 73
     2
 40
9.524999999999998
 49
6.349999999999999
 74
     0
 49
-3.174999999999999
 74
     0
  0
ENDTAB
  0
TABLE
  2
LAYER
  5
2
102
{ACAD_XDICTIONARY
360
7BFE
102
}
330
0
100
AcDbSymbolTable
 70
     9
  0
LAYER
  5
E
330
2
100
AcDbSymbolTableRecord
100
AcDbLayerTableRecord
  2
0
 70
     0
 62
     7
  6
CONTINUOUS
370
    -3
390
5CF2
  0
LAYER
  5
B9
330
2
100
AcDbSymbolTableRecord
100
AcDbLayerTableRecord
  2
dim
 70
     0
 62
     3
  6
CONTINUOUS
370
    -3
390
5CF2
  0
LAYER
  5
F2
330
2
100
AcDbSymbolTableRecord
100
AcDbLayerTableRecord
  2
DEFPOINTS
 70
     0
 62
     4
  6
CONTINUOUS
290
     0
370
    -3
390
5CF2
  0
LAYER
  5
5F8B
330
2
100
AcDbSymbolTableRecord
100
AcDbLayerTableRecord
  2
mark
 70
     0
 62
     6
  6
CONTINUOUS
370
    -3
390
5CF2
  0
LAYER
  5
644E
330
2
100
AcDbSymbolTableRecord
100
AcDbLayerTableRecord
  2
frame
 70
     0
 62
     9
  6
CONTINUOUS
370
    -3
390
5CF2
  0
LAYER
  5
650D
330
2
100
AcDbSymbolTableRecord
100
AcDbLayerTableRecord
  2
center
 70
     0
 62
     1
  6
CENTER
370
    -3
390
5CF2
  0
LAYER
  5
650E
330
2
100
AcDbSymbolTableRecord
100
AcDbLayerTableRecord
  2
bowle
 70
     0
 62
     4
  6
HIDDEN
370
    -3
390
5CF2
  0
LAYER
  5
650F
330
2
100
AcDbSymbolTableRecord
100
AcDbLayerTableRecord
  2
contour
 70
     0
 62
     2
  6
CONTINUOUS
370
    -3
390
5CF2
  0
LAYER
  5
6510
330
2
100
AcDbSymbolTableRecord
100
AcDbLayerTableRecord
  2
section
 70
     0
 62
     5
  6
CONTINUOUS
370
    -3
390
5CF2
  0
ENDTAB
  0
TABLE
  2
STYLE
  5
3
330
0
100
AcDbSymbolTable
 70
     5
  0
STYLE
  5
F
330
3
100
AcDbSymbolTableRecord
100
AcDbTextStyleTableRecord
  2
STANDARD
 70
     0
 40
0.0
 41
1.0
 50
0.0
 71
     0
 42
2.5
  3
txt
  4

  0
STYLE
  5
BE
330
3
100
AcDbSymbolTableRecord
100
AcDbTextStyleTableRecord
  2
ISOCP3
 70
     0
 40
0.0
 41
1.0
 50
0.0
 71
     0
 42
2.5
  3
isocp3.shx
  4

  0
STYLE
  5
2A37
330
3
100
AcDbSymbolTableRecord
100
AcDbTextStyleTableRecord
  2
TXT
 70
     0
 40
0.0
 41
1.0
 50
0.0
 71
     0
 42
1.25
  3
txt.shx
  4
bigfont.shx
  0
STYLE
  5
5DCB
330
3
100
AcDbSymbolTableRecord
100
AcDbTextStyleTableRecord
  2
LKK
 70
     0
 40
50.0
 41
1.5
 50
0.0
 71
     0
 42
50.0
  3
MS PGothic.ttf
  4

1001
ACAD
1000
MS PGothic
1071
    32818
  0
STYLE
  5
5DCC
330
3
100
AcDbSymbolTableRecord
100
AcDbTextStyleTableRecord
  2
JL
 70
     0
 40
10.0
 41
0.5
 50
0.0
 71
     0
 42
5.0
  3
MS Mincho.ttf
  4

1001
ACAD
1000
MS Mincho
1071
    32785
  0
ENDTAB
  0
TABLE
  2
VIEW
  5
6
330
0
100
AcDbSymbolTable
 70
     0
  0
ENDTAB
  0
TABLE
  2
UCS
  5
7
330
0
100
AcDbSymbolTable
 70
     0
  0
ENDTAB
  0
TABLE
  2
APPID
  5
9
330
0
100
AcDbSymbolTable
 70
    11
  0
APPID
  5
10
330
9
100
AcDbSymbolTableRecord
100
AcDbRegAppTableRecord
  2
ACAD
 70
     0
  0
APPID
  5
7C91
330
9
100
AcDbSymbolTableRecord
100
AcDbRegAppTableRecord
  2
ACAD_DSTYLE_DIMEXT_LENGTH
 70
     0
  0
APPID
  5
7C92
330
9
100
AcDbSymbolTableRecord
100
AcDbRegAppTableRecord
  2
ACAD_DSTYLE_DIMEXT_ENABLED
 70
     0
  0
APPID
  5
7C93
330
9
100
AcDbSymbolTableRecord
100
AcDbRegAppTableRecord
  2
ACAD_DSTYLE_DIMJOGGED_JOGANGLE_SYMBOL
 70
     0
  0
APPID
  5
7C94
330
9
100
AcDbSymbolTableRecord
100
AcDbRegAppTableRecord
  2
ACAD_DSTYLE_DIMARC_LENGTH_SYMBOL
 70
     0
  0
APPID
  5
7F1C
330
9
100
AcDbSymbolTableRecord
100
AcDbRegAppTableRecord
  2
ACAD_EXEMPT_FROM_CAD_STANDARDS
 70
     0
  0
APPID
  5
7F49
330
9
100
AcDbSymbolTableRecord
100
AcDbRegAppTableRecord
  2
ACAD_DSTYLE_DIMTEXT_FILL
 70
     0
  0
APPID
  5
7F4C
330
9
100
AcDbSymbolTableRecord
100
AcDbRegAppTableRecord
  2
ACAD_DSTYLE_DIM_LINETYPE
 70
     0
  0
APPID
  5
7F4D
330
9
100
AcDbSymbolTableRecord
100
AcDbRegAppTableRecord
  2
ACAD_DSTYLE_DIM_EXT1_LINETYPE
 70
     0
  0
APPID
  5
7F4E
330
9
100
AcDbSymbolTableRecord
100
AcDbRegAppTableRecord
  2
ACAD_DSTYLE_DIM_EXT2_LINETYPE
 70
     0
  0
APPID
  5
8C73
330
9
100
AcDbSymbolTableRecord
100
AcDbRegAppTableRecord
  2
ACAD_PSEXT
 70
     0
  0
ENDTAB
  0
TABLE
  2
DIMSTYLE
  5
A
330
0
100
AcDbSymbolTable
 70
     1
100
AcDbDimStyleTable
 71
     1
340
1D
  0
DIMSTYLE
105
1D
102
{ACAD_REACTORS
330
A34D
330
A35B
330
A367
330
A375
330
A382
330
A3A9
330
A3C5
330
A3D5
102
}
330
A
100
AcDbSymbolTableRecord
100
AcDbDimStyleTableRecord
  2
STANDARD
 70
     0
 41
2.5
 42
0.85
 44
0.85
 73
     0
 74
     0
 77
     3
 78
     8
 79
     2
140
2.5
147
0.85
172
     1
176
   256
177
   256
178
     3
179
     2
271
     2
272
     2
340
F
341
7C04
342
7C04
1001
ACAD_DSTYLE_DIMEXT_LENGTH
1070
   378
1040
0.18
1001
ACAD_DSTYLE_DIMEXT_ENABLED
1070
   383
1070
     0
1001
ACAD_DSTYLE_DIMARC_LENGTH_SYMBOL
1070
   379
1070
     0
1001
ACAD_DSTYLE_DIMJOGGED_JOGANGLE_SYMBOL
1070
   384
1040
1.570796326794896
  0
ENDTAB
  0
TABLE
  2
BLOCK_RECORD
  5
1
330
0
100
AcDbSymbolTable
 70
    13
  0
BLOCK_RECORD
  5
18
102
{ACAD_XDICTIONARY
360
45F
102
}
330
1
100
AcDbSymbolTableRecord
100
AcDbBlockTableRecord
  2
*MODEL_SPACE
340
5CF5
  0
BLOCK_RECORD
  5
15
102
{ACAD_XDICTIONARY
360
5D89
102
}
330
1
100
AcDbSymbolTableRecord
100
AcDbBlockTableRecord
  2
*PAPER_SPACE
340
5CF6
  0
BLOCK_RECORD
  5
639D
330
1
100
AcDbSymbolTableRecord
100
AcDbBlockTableRecord
  2
A$C255C26A2
340
0
  0
BLOCK_RECORD
  5
7C04
330
1
100
AcDbSymbolTableRecord
100
AcDbBlockTableRecord
  2
_Open30
340
0
102
{BLKREFS
331
A3BB
331
A3BC
331
A4C0
331
A4C1
331
A4C8
331
A4C9
331
A502
331
A503
331
A50B
331
A50C
331
A514
331
A515
331
A51D
331
A51E
331
A526
331
A52C
331
A52D
102
}
  0
BLOCK_RECORD
  5
7C0A
102
{ACAD_XDICTIONARY
360
7C0B
102
}
330
1
100
AcDbSymbolTableRecord
100
AcDbBlockTableRecord
  2
A
340
0
310
2800000020000000200000000100080000000000000400000000000000000000000000000000000000000000000080000080000000808000800000008000800080800000C0C0C000C0DCC000F0CAA6000020400000206000002080000020A0000020C0000020E00000400000004020000040400000406000004080000040A0
310
000040C0000040E00000600000006020000060400000606000006080000060A0000060C0000060E00000800000008020000080400000806000008080000080A0000080C0000080E00000A0000000A0200000A0400000A0600000A0800000A0A00000A0C00000A0E00000C0000000C0200000C0400000C0600000C0800000C0
310
A00000C0C00000C0E00000E0000000E0200000E0400000E0600000E0800000E0A00000E0C00000E0E00040000000400020004000400040006000400080004000A0004000C0004000E00040200000402020004020400040206000402080004020A0004020C0004020E000404000004040200040404000404060004040800040
310
40A0004040C0004040E00040600000406020004060400040606000406080004060A0004060C0004060E00040800000408020004080400040806000408080004080A0004080C0004080E00040A0000040A0200040A0400040A0600040A0800040A0A00040A0C00040A0E00040C0000040C0200040C0400040C0600040C08000
310
40C0A00040C0C00040C0E00040E0000040E0200040E0400040E0600040E0800040E0A00040E0C00040E0E00080000000800020008000400080006000800080008000A0008000C0008000E00080200000802020008020400080206000802080008020A0008020C0008020E00080400000804020008040400080406000804080
310
008040A0008040C0008040E00080600000806020008060400080606000806080008060A0008060C0008060E00080800000808020008080400080806000808080008080A0008080C0008080E00080A0000080A0200080A0400080A0600080A0800080A0A00080A0C00080A0E00080C0000080C0200080C0400080C0600080C0
310
800080C0A00080C0C00080C0E00080E0000080E0200080E0400080E0600080E0800080E0A00080E0C00080E0E000C0000000C0002000C0004000C0006000C0008000C000A000C000C000C000E000C0200000C0202000C0204000C0206000C0208000C020A000C020C000C020E000C0400000C0402000C0404000C0406000C0
310
408000C040A000C040C000C040E000C0600000C0602000C0604000C0606000C0608000C060A000C060C000C060E000C0800000C0802000C0804000C0806000C0808000C080A000C080C000C080E000C0A00000C0A02000C0A04000C0A06000C0A08000C0A0A000C0A0C000C0A0E000C0C00000C0C02000C0C04000C0C06000
310
C0C08000C0C0A000F0FBFF00A4A0A000808080000000FF0000FF000000FFFF00FF000000FF00FF00FFFF0000FFFFFF0000000000000000000000000000000000000000000000000000000000000000000000000000000000000000000000000000000000000000000000000000000000000000000000000000000000000000
310
00000000000000000000000000000000000000000000000000000000000000000000000000000000000000000000000000000000000000000000000000000000000000000000000000000000000000000000000000000000000000000000000000000000000000000000000000000000000000000000000000000000000000
310
00000000000000000000000000000000000000000000000000000000000000000000000000000000000000000000000000000000000000000000000000000000000000000000000000000000000000000000000000000000000000000000000000000000000000000000000000000000000000000000000000000000000000
310
000000000000FDFDFDFDFDFDFDFDFDFDFDFD0000FD0000000000000000000000000000000000FD0000FA0000000000FA00FD0000FDFD00000000000000000000000000000000FD0000FA0000000000FA00FD0000FDFDFD000000000000000000000000000000FD0000FA0000000000FA00FD0000FDFDFDFD00000000000000
310
00000000000000FD0000FAFAFAFAFAFAFA00FD0000FDFDFDFDFD00000000000000000000000000FD000000FA00000000FA00FD0000FDFDFDFDFDFDFDFDFDFDFDFDFDFDFDFDFDFDFD000000FA000000FA0000FD0000FDFDFDFDFD00000000000000000000000000FD00000000FA0000FA0000FD0000FDFDFDFD000000000000
310
0000000000000000FD00000000FA00FA000000FD0000FDFD00000000000000000000000000000000FD0000000000FAFA000000FD0000FD0000000000000000000000000000000000FD0000000000FA00000000FD0000000000000000000000000000000000000000FDFDFDFDFDFDFDFDFDFDFDFD0000000000000000000000
310
00000000000000000000000000000000000000000000000000000000000000000000000000000000000000000000000000000000000000000000000000000000000000000000000000000000000000000000000000000000000000000000000000000000000000000000000000000000000000000000000000000000000000
310
00000000000000000000000000000000000000000000000000000000000000000000000000000000000000000000000000000000000000000000000000000000000000000000000000000000000000000000000000000000000000000000000000000000000000000000000000000000000000000000000000000000000000
310
0000000000000000000000000000000000000000000000000000000000000000000000000000000000000000000000000000000000000000
  0
BLOCK_RECORD
  5
8E72
102
{ACAD_XDICTIONARY
360
8E73
102
}
330
1
100
AcDbSymbolTableRecord
100
AcDbBlockTableRecord
  2
LS
340
0
310
2800000020000000200000000100080000000000000400000000000000000000000000000000000000000000000080000080000000808000800000008000800080800000C0C0C000C0DCC000F0CAA6000020400000206000002080000020A0000020C0000020E00000400000004020000040400000406000004080000040A0
310
000040C0000040E00000600000006020000060400000606000006080000060A0000060C0000060E00000800000008020000080400000806000008080000080A0000080C0000080E00000A0000000A0200000A0400000A0600000A0800000A0A00000A0C00000A0E00000C0000000C0200000C0400000C0600000C0800000C0
310
A00000C0C00000C0E00000E0000000E0200000E0400000E0600000E0800000E0A00000E0C00000E0E00040000000400020004000400040006000400080004000A0004000C0004000E00040200000402020004020400040206000402080004020A0004020C0004020E000404000004040200040404000404060004040800040
310
40A0004040C0004040E00040600000406020004060400040606000406080004060A0004060C0004060E00040800000408020004080400040806000408080004080A0004080C0004080E00040A0000040A0200040A0400040A0600040A0800040A0A00040A0C00040A0E00040C0000040C0200040C0400040C0600040C08000
310
40C0A00040C0C00040C0E00040E0000040E0200040E0400040E0600040E0800040E0A00040E0C00040E0E00080000000800020008000400080006000800080008000A0008000C0008000E00080200000802020008020400080206000802080008020A0008020C0008020E00080400000804020008040400080406000804080
310
008040A0008040C0008040E00080600000806020008060400080606000806080008060A0008060C0008060E00080800000808020008080400080806000808080008080A0008080C0008080E00080A0000080A0200080A0400080A0600080A0800080A0A00080A0C00080A0E00080C0000080C0200080C0400080C0600080C0
310
800080C0A00080C0C00080C0E00080E0000080E0200080E0400080E0600080E0800080E0A00080E0C00080E0E000C0000000C0002000C0004000C0006000C0008000C000A000C000C000C000E000C0200000C0202000C0204000C0206000C0208000C020A000C020C000C020E000C0400000C0402000C0404000C0406000C0
310
408000C040A000C040C000C040E000C0600000C0602000C0604000C0606000C0608000C060A000C060C000C060E000C0800000C0802000C0804000C0806000C0808000C080A000C080C000C080E000C0A00000C0A02000C0A04000C0A06000C0A08000C0A0A000C0A0C000C0A0E000C0C00000C0C02000C0C04000C0C06000
310
C0C08000C0C0A000F0FBFF00A4A0A000808080000000FF0000FF000000FFFF00FF000000FF00FF00FFFF0000FFFFFF00000000000000000000000000000000000000000000000000000000000000000000000000000000000000FBFBFEFBFEFBFBFEFBFEFBFB00000000000000000000000000000000000000FBFBFBFEFBFE
310
FBFBFEFBFEFBFBFB000000000000000000000000000000000000FB0000FE00FE0000FE00FE0000FB000000000000000000000000000000000000FB0000FE00FE0000FE00FE0000FB000000000000000000000000000000000000FB0000FEFEFEFEFEFEFEFE0000FB000000000000000000000000000000000000FB000000FE
310
FE0000FEFE000000FB000000000000000000000000000000000000FB0000000000FEFE0000000000FB000000000000000000000000000000000000FBFBFBFEFBFBFBFBFBFBFEFBFBFB000000000000000000000000000000000000000000FBFE0000000000FE000000000000000000000000000000000000000000000000FB
310
FBFBFBFBFBFEFB000000000000000000000000000000000000000000000000FBFE00000000FEFB000000000000000000000000000000000000000000000000FBFE00000000FEFB000000000000000000000000000000000000000000000000FBFE00000000FEFB000000000000000000000000000000000000000000000000
310
FBFE00000000FEFB000000000000000000000000000000000000000000000000FBFE00000000FEFB000000000000000000000000000000000000000000000000FBFE00000000FEFB000000000000000000000000000000000000000000000000FBFE00000000FEFB0000000000000000000000000000000000000000000000
310
00FBFE00000000FEFB000000000000000000000000000000000000000000000000FBFE00000000FEFB000000000000000000000000000000000000000000000000FBFE00000000FEFB000000000000000000000000000000000000000000000000FBFE00000000FEFB00000000000000000000000000000000000000000000
310
0000FBFE00000000FEFB000000000000000000000000000000000000000000000000FBFE00000000FEFB000000000000000000000000000000000000000000000000FBFE00000000FEFB000000000000000000000000000000000000000000000000FBFE00000000FEFB000000000000000000000000000000000000000000
310
000000FBFE00000000FEFB000000000000000000000000000000000000000000000000FBFE00000000FEFB000000000000000000000000000000000000000000000000FBFEFBFBFBFBFEFB00000000000000000000000000000000000000000000000000FE00000000FEFB0000000000000000000000000000000000000000
310
0000000000FBFBFBFBFBFB000000000000000000000000000000000000000000000000000000000000000000000000000000000000000000
  0
BLOCK_RECORD
  5
9D15
102
{ACAD_XDICTIONARY
360
9D16
102
}
330
1
100
AcDbSymbolTableRecord
100
AcDbBlockTableRecord
  2
LS2
340
0
310
2800000020000000200000000100080000000000000400000000000000000000000000000000000000000000000080000080000000808000800000008000800080800000C0C0C000C0DCC000F0CAA6000020400000206000002080000020A0000020C0000020E00000400000004020000040400000406000004080000040A0
310
000040C0000040E00000600000006020000060400000606000006080000060A0000060C0000060E00000800000008020000080400000806000008080000080A0000080C0000080E00000A0000000A0200000A0400000A0600000A0800000A0A00000A0C00000A0E00000C0000000C0200000C0400000C0600000C0800000C0
310
A00000C0C00000C0E00000E0000000E0200000E0400000E0600000E0800000E0A00000E0C00000E0E00040000000400020004000400040006000400080004000A0004000C0004000E00040200000402020004020400040206000402080004020A0004020C0004020E000404000004040200040404000404060004040800040
310
40A0004040C0004040E00040600000406020004060400040606000406080004060A0004060C0004060E00040800000408020004080400040806000408080004080A0004080C0004080E00040A0000040A0200040A0400040A0600040A0800040A0A00040A0C00040A0E00040C0000040C0200040C0400040C0600040C08000
310
40C0A00040C0C00040C0E00040E0000040E0200040E0400040E0600040E0800040E0A00040E0C00040E0E00080000000800020008000400080006000800080008000A0008000C0008000E00080200000802020008020400080206000802080008020A0008020C0008020E00080400000804020008040400080406000804080
310
008040A0008040C0008040E00080600000806020008060400080606000806080008060A0008060C0008060E00080800000808020008080400080806000808080008080A0008080C0008080E00080A0000080A0200080A0400080A0600080A0800080A0A00080A0C00080A0E00080C0000080C0200080C0400080C0600080C0
310
800080C0A00080C0C00080C0E00080E0000080E0200080E0400080E0600080E0800080E0A00080E0C00080E0E000C0000000C0002000C0004000C0006000C0008000C000A000C000C000C000E000C0200000C0202000C0204000C0206000C0208000C020A000C020C000C020E000C0400000C0402000C0404000C0406000C0
310
408000C040A000C040C000C040E000C0600000C0602000C0604000C0606000C0608000C060A000C060C000C060E000C0800000C0802000C0804000C0806000C0808000C080A000C080C000C080E000C0A00000C0A02000C0A04000C0A06000C0A08000C0A0A000C0A0C000C0A0E000C0C00000C0C02000C0C04000C0C06000
310
C0C08000C0C0A000F0FBFF00A4A0A000808080000000FF0000FF000000FFFF00FF000000FF00FF00FFFF0000FFFFFF0000000000000000000000000000000000000000000000000000000000000000000000000000000000000000FBFBFEFEFBFBFEFEFBFB00000000000000000000000000000000000000000000FBFBFEFE
310
FBFBFEFEFBFB00000000000000000000000000000000000000000000FB00FEFE0000FEFE00FB00000000000000000000000000000000000000000000FB00FEFE0000FEFE00FB00000000000000000000000000000000000000000000FB00FEFEFEFEFEFE00FB00000000000000000000000000000000000000000000FB0000
310
FEFEFE000000FB00000000000000000000000000000000000000000000FBFBFEFBFBFBFBFEFBFB000000000000000000000000000000000000000000000000FBFBFBFBFBFE0000000000000000000000000000000000000000000000000000FE00000000FE0000000000000000000000000000000000000000000000000000
310
FE00000000FE0000000000000000000000000000000000000000000000000000FE00000000FE0000000000000000000000000000000000000000000000000000FE00000000FE0000000000000000000000000000000000000000000000000000FE00000000FE00000000000000000000000000000000000000000000000000
310
00FE00000000FE0000000000000000000000000000000000000000000000000000FE00000000FE0000000000000000000000000000000000000000000000000000FE00000000FE0000000000000000000000000000000000000000000000000000FE00000000FE000000000000000000000000000000000000000000000000
310
0000FE00000000FE0000000000000000000000000000000000000000000000000000FE00000000FE0000000000000000000000000000000000000000000000000000FE00000000FE0000000000000000000000000000000000000000000000000000FE00000000FE0000000000000000000000000000000000000000000000
310
000000FE00000000FE0000000000000000000000000000000000000000000000000000FE00000000FE0000000000000000000000000000000000000000000000000000FE00000000FE0000000000000000000000000000000000000000000000000000FE00000000FE00000000000000000000000000000000000000000000
310
00000000FE00000000FE0000000000000000000000000000000000000000000000000000FE00000000FE0000000000000000000000000000000000000000000000000000FEFBFBFBFBFE0000000000000000000000000000000000000000000000000000FEFB000000FE000000000000000000000000000000000000000000
310
000000000000FBFBFBFB00000000000000000000000000000000000000000000000000000000000000000000000000000000000000000000
102
{BLKREFS
331
9D9E
102
}
  0
BLOCK_RECORD
  5
A34E
330
1
100
AcDbSymbolTableRecord
100
AcDbBlockTableRecord
  2
*D5
340
0
  0
BLOCK_RECORD
  5
A35C
330
1
100
AcDbSymbolTableRecord
100
AcDbBlockTableRecord
  2
*D6
340
0
  0
BLOCK_RECORD
  5
A368
330
1
100
AcDbSymbolTableRecord
100
AcDbBlockTableRecord
  2
*D7
340
0
  0
BLOCK_RECORD
  5
A376
330
1
100
AcDbSymbolTableRecord
100
AcDbBlockTableRecord
  2
*D8
340
0
  0
BLOCK_RECORD
  5
A383
330
1
100
AcDbSymbolTableRecord
100
AcDbBlockTableRecord
  2
*D9
340
0
  0
BLOCK_RECORD
  5
A3AA
330
1
100
AcDbSymbolTableRecord
100
AcDbBlockTableRecord
  2
*D10
340
0
  0
BLOCK_RECORD
  5
A3C6
330
1
100
AcDbSymbolTableRecord
100
AcDbBlockTableRecord
  2
*D11
340
0
  0
BLOCK_RECORD
  5
A3D6
330
1
100
AcDbSymbolTableRecord
100
AcDbBlockTableRecord
  2
*D12
340
0
  0
ENDTAB
  0
ENDSEC
  0
SECTION
  2
BLOCKS
  0
BLOCK
  5
19
330
18
100
AcDbEntity
  8
0
100
AcDbBlockBegin
  2
*MODEL_SPACE
 70
     0
 10
0.0
 20
0.0
 30
0.0
  3
*MODEL_SPACE
  1

  0
ENDBLK
  5
1A
330
18
100
AcDbEntity
  8
0
100
AcDbBlockEnd
  0
BLOCK
  5
16
330
15
100
AcDbEntity
 67
     1
  8
0
100
AcDbBlockBegin
  2
*PAPER_SPACE
 70
     0
 10
0.0
 20
0.0
 30
0.0
  3
*PAPER_SPACE
  1

  0
ENDBLK
  5
17
330
15
100
AcDbEntity
 67
     1
  8
0
100
AcDbBlockEnd
  0
BLOCK
  5
63A1
330
639D
100
AcDbEntity
  8
0
100
AcDbBlockBegin
  2
A$C255C26A2
 70
     0
 10
0.0
 20
0.0
 30
0.0
  3
A$C255C26A2
  1

  0
LWPOLYLINE
  5
639E
330
639D
100
AcDbEntity
  8
0
100
AcDbPolyline
 90
        3
 70
     1
 43
0.0
 10
7.014806023851633
 20
0.0000006939811783
 10
5.611844869720698
 20
2.430000693981241
 10
8.417767177982568
 20
2.430000693981241
  0
LWPOLYLINE
  5
639F
330
639D
100
AcDbEntity
  8
0
100
AcDbPolyline
 90
        3
 70
     1
 43
0.0
 10
4.20888371558999
 20
0.0000006939811783
 10
2.805922561459283
 20
2.430000693981241
 10
5.611844869720698
 20
2.430000693981241
  0
LWPOLYLINE
  5
63A0
330
639D
100
AcDbEntity
  8
0
100
AcDbPolyline
 90
        3
 70
     1
 43
0.0
 10
1.402961407328348
 20
0.0000006939811783
 10
0.0000002531974133
 20
2.430000693981241
 10
2.805922561459283
 20
2.430000693981241
  0
ENDBLK
  5
63A2
330
639D
100
AcDbEntity
  8
0
100
AcDbBlockEnd
  0
BLOCK
  5
7C05
330
7C04
100
AcDbEntity
  8
0
100
AcDbBlockBegin
  2
_Open30
 70
     0
 10
0.0
 20
0.0
 30
0.0
  3
_Open30
  1

  0
LINE
  5
7C06
330
7C04
100
AcDbEntity
  8
0
  6
ByBlock
 62
     0
370
    -2
100
AcDbLine
 10
-1.0
 20
0.26794919
 30
0.0
 11
0.0
 21
0.0
 31
0.0
  0
LINE
  5
7C07
330
7C04
100
AcDbEntity
  8
0
  6
ByBlock
 62
     0
370
    -2
100
AcDbLine
 10
0.0
 20
0.0
 30
0.0
 11
-1.0
 21
-0.26794919
 31
0.0
  0
LINE
  5
7C08
330
7C04
100
AcDbEntity
  8
0
  6
ByBlock
 62
     0
370
    -2
100
AcDbLine
 10
0.0
 20
0.0
 30
0.0
 11
-1.0
 21
0.0
 31
0.0
  0
ENDBLK
  5
7C09
330
7C04
100
AcDbEntity
  8
0
100
AcDbBlockEnd
  0
BLOCK
  5
7C0E
330
7C0A
100
AcDbEntity
  8
0
100
AcDbBlockBegin
  2
A
 70
     0
 10
0.0
 20
0.0
 30
0.0
  3
A
  1

  0
MTEXT
  5
7C0F
330
7C0A
100
AcDbEntity
  8
mark
 62
     3
100
AcDbMText
 10
10.65641897020822
 20
-5.596245361730467
 30
0.0
 40
2.5
 41
0.0
 71
     5
 72
     1
  1
A
 73
     1
 44
1.0
1001
ACAD
1000
ACAD_MTEXT_DEFINED_HEIGHT_BEGIN
1070
    46
1040
0.0
1000
ACAD_MTEXT_DEFINED_HEIGHT_END
  0
LWPOLYLINE
  5
7C10
330
7C0A
100
AcDbEntity
  8
mark
100
AcDbPolyline
 90
        4
 70
     1
 43
0.0
 10
9.07926800414657
 20
-7.141145101782569
 10
12.07926800414657
 20
-7.141145101782569
 10
12.07926800414657
 20
-4.141145101782569
 10
9.07926800414657
 20
-4.141145101782569
  0
HATCH
  5
7C11
330
7C0A
100
AcDbEntity
  8
mark
100
AcDbHatch
 10
0.0
 20
0.0
 30
0.0
210
0.0
220
0.0
230
1.0
  2
SOLID
 70
     1
 71
     0
 91
        1
 92
        7
 72
     0
 73
     1
 93
        3
 10
5.32926800414657
 20
-5.641145101782569
 10
4.07926800414657
 20
-4.391145101782541
 10
4.07926800414657
 20
-6.891145101782541
 97
        0
 75
     0
 76
     1
 47
0.0398277943677868
 98
        1
 10
4.589689734415287
 20
-5.732163331855076
450
        0
451
        0
460
0.0
461
0.0
452
        1
462
1.0
453
        2
463
0.0
 63
     5
421
      255
463
1.0
 63
     7
421
 16777215
470
LINEAR
1001
ACAD
1010
0.0
1020
0.0
1030
0.0
  0
LINE
  5
7C12
330
7C0A
100
AcDbEntity
  8
mark
100
AcDbLine
 10
5.32926800414657
 20
-5.641145101782569
 30
0.0
 11
9.07926800414657
 21
-5.641145101782569
 31
0.0
  0
LINE
  5
7C13
330
7C0A
100
AcDbEntity
  8
mark
100
AcDbLine
 10
5.32926800414657
 20
-5.641145101782569
 30
0.0
 11
4.07926800414657
 21
-4.391145101782569
 31
0.0
  0
LINE
  5
7C14
330
7C0A
100
AcDbEntity
  8
mark
100
AcDbLine
 10
5.32926800414657
 20
-5.641145101782569
 30
0.0
 11
4.07926800414657
 21
-6.891145101782569
 31
0.0
  0
ENDBLK
  5
7C15
330
7C0A
100
AcDbEntity
  8
0
100
AcDbBlockEnd
  0
BLOCK
  5
8E76
330
8E72
100
AcDbEntity
  8
0
100
AcDbBlockBegin
  2
LS
 70
     0
 10
0.0
 20
0.0
 30
0.0
  3
LS
  1

  0
LINE
  5
8E78
330
8E72
100
AcDbEntity
  8
contour
100
AcDbLine
 10
310.7457309951603
 20
181.0160360664828
 30
0.0
 11
310.7457309951603
 21
184.7160360664827
 31
0.0
  0
LINE
  5
8E79
330
8E72
100
AcDbEntity
  8
contour
100
AcDbLine
 10
310.7457309951603
 20
184.7160360664827
 30
0.0
 11
303.7457309951603
 21
184.7160360664827
 31
0.0
  0
LINE
  5
8E7A
330
8E72
100
AcDbEntity
  8
contour
100
AcDbLine
 10
308.4457309951603
 20
196.7160360664827
 30
0.0
 11
306.0457309951603
 21
196.7160360664826
 31
0.0
  0
LINE
  5
8E7B
330
8E72
100
AcDbEntity
  8
contour
100
AcDbLine
 10
309.2457309951603
 20
195.9160360664826
 30
0.0
 11
308.4457309951603
 21
196.7160360664826
 31
0.0
  0
LINE
  5
8E7C
330
8E72
100
AcDbEntity
  8
contour
100
AcDbLine
 10
303.7457309951603
 20
184.7160360664827
 30
0.0
 11
303.7457309951603
 21
181.0160360664827
 31
0.0
  0
LINE
  5
8E7D
330
8E72
100
AcDbEntity
  8
contour
100
AcDbLine
 10
304.0457309951603
 20
180.7160360664827
 30
0.0
 11
310.4457309951603
 21
180.7160360664828
 31
0.0
  0
LINE
  5
8E7E
330
8E72
100
AcDbEntity
  8
contour
100
AcDbLine
 10
310.7457309951603
 20
181.0160360664828
 30
0.0
 11
310.4457309951603
 21
180.7160360664828
 31
0.0
  0
LINE
  5
8E7F
330
8E72
100
AcDbEntity
  8
contour
100
AcDbLine
 10
303.7457309951603
 20
181.0160360664827
 30
0.0
 11
304.0457309951603
 21
180.7160360664827
 31
0.0
  0
LINE
  5
8E80
330
8E72
100
AcDbEntity
  8
contour
100
AcDbLine
 10
309.2457309951603
 20
184.7160360664826
 30
0.0
 11
309.2457309951603
 21
195.9160360664827
 31
0.0
  0
LINE
  5
8E81
330
8E72
100
AcDbEntity
  8
contour
100
AcDbLine
 10
305.2457309951603
 20
184.7160360664826
 30
0.0
 11
305.2457309951603
 21
195.9160360664827
 31
0.0
  0
LINE
  5
8E82
330
8E72
100
AcDbEntity
  8
contour
100
AcDbLine
 10
306.0457309951603
 20
196.7160360664826
 30
0.0
 11
305.2457309951603
 21
195.9160360664826
 31
0.0
  0
LINE
  5
8E83
330
8E72
100
AcDbEntity
  8
contour
100
AcDbLine
 10
309.2457309951603
 20
195.9160360664827
 30
0.0
 11
305.2457309951603
 21
195.9160360664827
 31
0.0
  0
LINE
  5
8E84
330
8E72
100
AcDbEntity
  8
contour
 62
     4
100
AcDbLine
 10
308.8667309951603
 20
185.3724833225513
 30
0.0
 11
308.8667309951603
 21
196.2950360664826
 31
0.0
  0
LINE
  5
8E85
330
8E72
100
AcDbEntity
  8
contour
 62
     4
100
AcDbLine
 10
305.6247309951603
 20
185.3724833225513
 30
0.0
 11
305.6247309951603
 21
196.2950360664826
 31
0.0
  0
LINE
  5
8E86
330
8E72
100
AcDbEntity
  8
contour
100
AcDbLine
 10
310.7457309951603
 20
181.0160360664828
 30
0.0
 11
303.7457309951603
 21
181.0160360664828
 31
0.0
  0
LINE
  5
8E87
330
8E72
100
AcDbEntity
  8
bowle
 48
0.1
100
AcDbLine
 10
308.1117563989447
 20
180.7160360664827
 30
0.0
 11
308.1117563989447
 21
182.9160360664827
 31
0.0
  0
LINE
  5
8E88
330
8E72
100
AcDbEntity
  8
bowle
 48
0.1
100
AcDbLine
 10
308.9777818027293
 20
180.7160360664827
 30
0.0
 11
308.9777818027293
 21
182.9160360664827
 31
0.0
  0
LINE
  5
8E89
330
8E72
100
AcDbEntity
  8
bowle
 48
0.1
100
AcDbLine
 10
306.3797055913759
 20
180.7160360664827
 30
0.0
 11
306.3797055913759
 21
182.9160360664826
 31
0.0
  0
LINE
  5
8E8A
330
8E72
100
AcDbEntity
  8
bowle
 48
0.1
100
AcDbLine
 10
305.5136801875914
 20
180.7160360664827
 30
0.0
 11
305.5136801875914
 21
182.9160360664826
 31
0.0
  0
LINE
  5
8E8B
330
8E72
100
AcDbEntity
  8
bowle
 48
0.1
100
AcDbLine
 10
308.9777818027292
 20
182.9160360664827
 30
0.0
 11
305.5136801875914
 21
182.9160360664827
 31
0.0
  0
LINE
  5
8E8C
330
8E72
100
AcDbEntity
  8
bowle
 48
0.1
100
AcDbLine
 10
305.5136801875914
 20
182.9160360664826
 30
0.0
 11
307.2457309951603
 21
183.9160360664826
 31
0.0
  0
LINE
  5
8E8D
330
8E72
100
AcDbEntity
  8
bowle
 48
0.1
100
AcDbLine
 10
308.9777818027292
 20
182.9160360664826
 30
0.0
 11
307.2457309951603
 21
183.9160360664826
 31
0.0
  0
LINE
  5
8E8E
330
8E72
100
AcDbEntity
  8
contour
 62
     4
100
AcDbLine
 10
305.6247309951603
 20
185.3724833225513
 30
0.0
 11
305.2457309951603
 21
184.7160360664826
 31
0.0
  0
LINE
  5
8E8F
330
8E72
100
AcDbEntity
  8
contour
100
AcDbLine
 10
305.2457309951603
 20
185.3724833225513
 30
0.0
 11
309.2457309951603
 21
185.3724833225513
 31
0.0
  0
LINE
  5
8E90
330
8E72
100
AcDbEntity
  8
contour
 62
     4
100
AcDbLine
 10
309.2457309951603
 20
184.7160360664827
 30
0.0
 11
308.8667309951603
 21
185.3724833225513
 31
0.0
  0
ENDBLK
  5
8E77
330
8E72
100
AcDbEntity
  8
0
100
AcDbBlockEnd
  0
BLOCK
  5
9D19
330
9D15
100
AcDbEntity
  8
0
100
AcDbBlockBegin
  2
LS2
 70
     0
 10
0.0
 20
0.0
 30
0.0
  3
LS2
  1

  0
LINE
  5
9D1B
330
9D15
100
AcDbEntity
  8
contour
100
AcDbLine
 10
143.2797554375081
 20
0.0655328110734672
 30
0.0
 11
143.2797554375081
 21
3.765532811073398
 31
0.0
  0
LINE
  5
9D1C
330
9D15
100
AcDbEntity
  8
contour
100
AcDbLine
 10
143.2797554375081
 20
3.765532811073398
 30
0.0
 11
136.2797554375081
 21
3.765532811073398
 31
0.0
  0
LINE
  5
9D1D
330
9D15
100
AcDbEntity
  8
contour
100
AcDbLine
 10
140.979755437508
 20
19.7655328110734
 30
0.0
 11
138.5797554375081
 21
19.76553281107334
 31
0.0
  0
LINE
  5
9D1E
330
9D15
100
AcDbEntity
  8
contour
100
AcDbLine
 10
141.7797554375081
 20
18.96553281107333
 30
0.0
 11
140.9797554375081
 21
19.76553281107334
 31
0.0
  0
LINE
  5
9D1F
330
9D15
100
AcDbEntity
  8
contour
100
AcDbLine
 10
136.2797554375081
 20
3.765532811073398
 30
0.0
 11
136.2797554375081
 21
0.0655328110733535
 31
0.0
  0
LINE
  5
9D20
330
9D15
100
AcDbEntity
  8
contour
100
AcDbLine
 10
136.5797554375081
 20
-0.2344671889266578
 30
0.0
 11
142.9797554375081
 21
-0.2344671889265442
 31
0.0
  0
LINE
  5
9D21
330
9D15
100
AcDbEntity
  8
contour
100
AcDbLine
 10
143.2797554375081
 20
0.0655328110734672
 30
0.0
 11
142.9797554375081
 21
-0.2344671889265442
 31
0.0
  0
LINE
  5
9D22
330
9D15
100
AcDbEntity
  8
contour
100
AcDbLine
 10
136.2797554375081
 20
0.0655328110733535
 30
0.0
 11
136.5797554375081
 21
-0.2344671889266578
 31
0.0
  0
LINE
  5
9D23
330
9D15
100
AcDbEntity
  8
contour
100
AcDbLine
 10
141.7797554375081
 20
3.765532811073342
 30
0.0
 11
141.7797554375081
 21
18.96553281107339
 31
0.0
  0
LINE
  5
9D24
330
9D15
100
AcDbEntity
  8
contour
100
AcDbLine
 10
137.7797554375081
 20
3.765532811073342
 30
0.0
 11
137.7797554375081
 21
18.96553281107339
 31
0.0
  0
LINE
  5
9D25
330
9D15
100
AcDbEntity
  8
contour
100
AcDbLine
 10
138.5797554375081
 20
19.76553281107334
 30
0.0
 11
137.7797554375081
 21
18.96553281107333
 31
0.0
  0
LINE
  5
9D26
330
9D15
100
AcDbEntity
  8
contour
100
AcDbLine
 10
141.7797554375081
 20
18.96553281107339
 30
0.0
 11
137.7797554375081
 21
18.96553281107339
 31
0.0
  0
LINE
  5
9D27
330
9D15
100
AcDbEntity
  8
contour
 62
     4
100
AcDbLine
 10
141.400755437508
 20
4.42198006714193
 30
0.0
 11
141.4007554375081
 21
19.34453281107327
 31
0.0
  0
LINE
  5
9D28
330
9D15
100
AcDbEntity
  8
contour
 62
     4
100
AcDbLine
 10
138.1587554375081
 20
4.42198006714193
 30
0.0
 11
138.1587554375081
 21
19.34453281107336
 31
0.0
  0
LINE
  5
9D29
330
9D15
100
AcDbEntity
  8
contour
100
AcDbLine
 10
143.2797554375081
 20
0.0655328110734672
 30
0.0
 11
136.2797554375081
 21
0.0655328110735241
 31
0.0
  0
LINE
  5
9D2A
330
9D15
100
AcDbEntity
  8
bowle
 48
0.1
100
AcDbLine
 10
140.6457808412925
 20
-0.234467188926601
 30
0.0
 11
140.6457808412925
 21
1.965532811073387
 31
0.0
  0
LINE
  5
9D2B
330
9D15
100
AcDbEntity
  8
bowle
 48
0.1
100
AcDbLine
 10
141.511806245077
 20
-0.2344671889266578
 30
0.0
 11
141.511806245077
 21
1.965532811073387
 31
0.0
  0
LINE
  5
9D2C
330
9D15
100
AcDbEntity
  8
bowle
 48
0.1
100
AcDbLine
 10
138.9137300337237
 20
-0.234467188926601
 30
0.0
 11
138.9137300337237
 21
1.96553281107333
 31
0.0
  0
LINE
  5
9D2D
330
9D15
100
AcDbEntity
  8
bowle
 48
0.1
100
AcDbLine
 10
138.0477046299392
 20
-0.2344671889266578
 30
0.0
 11
138.0477046299391
 21
1.96553281107333
 31
0.0
  0
LINE
  5
9D2E
330
9D15
100
AcDbEntity
  8
bowle
 48
0.1
100
AcDbLine
 10
141.511806245077
 20
1.965532811073387
 30
0.0
 11
138.0477046299391
 21
1.965532811073387
 31
0.0
  0
LINE
  5
9D2F
330
9D15
100
AcDbEntity
  8
bowle
 48
0.1
100
AcDbLine
 10
138.0477046299391
 20
1.96553281107333
 30
0.0
 11
139.779755437508
 21
2.96553281107333
 31
0.0
  0
LINE
  5
9D30
330
9D15
100
AcDbEntity
  8
bowle
 48
0.1
100
AcDbLine
 10
141.511806245077
 20
1.96553281107333
 30
0.0
 11
139.779755437508
 21
2.96553281107333
 31
0.0
  0
LINE
  5
9D31
330
9D15
100
AcDbEntity
  8
contour
 62
     4
100
AcDbLine
 10
138.1587554375081
 20
4.421980067141987
 30
0.0
 11
137.7797554375081
 21
3.765532811073342
 31
0.0
  0
LINE
  5
9D32
330
9D15
100
AcDbEntity
  8
contour
100
AcDbLine
 10
137.7797554375081
 20
4.42198006714193
 30
0.0
 11
141.7797554375081
 21
4.42198006714193
 31
0.0
  0
LINE
  5
9D33
330
9D15
100
AcDbEntity
  8
contour
 62
     4
100
AcDbLine
 10
141.7797554375081
 20
3.765532811073398
 30
0.0
 11
141.400755437508
 21
4.42198006714193
 31
0.0
  0
ENDBLK
  5
9D1A
330
9D15
100
AcDbEntity
  8
0
100
AcDbBlockEnd
  0
BLOCK
  5
A357
330
A34E
100
AcDbEntity
  8
0
100
AcDbBlockBegin
  2
*D5
 70
     1
 10
0.0
 20
0.0
 30
0.0
  3
*D5
  1

  0
LINE
  5
A4BC
330
A34E
100
AcDbEntity
  8
mark
370
    -2
100
AcDbLine
 10
142.7727676477969
 20
211.9386374561186
 30
0.0
 11
122.5938563626106
 21
205.1938788184938
 31
0.0
  0
LINE
  5
A4BD
330
A34E
100
AcDbEntity
  8
mark
370
    -2
100
AcDbLine
 10
69.48218184254773
 20
187.4414133650732
 30
0.0
 11
67.11112494433061
 21
186.6488925859026
 31
0.0
  0
MTEXT
  5
A4BE
330
A34E
100
AcDbEntity
  8
mark
 62
     3
100
AcDbMText
 10
134.1877201532485
 20
211.2833058481912
 30
0.0
 40
2.5
 41
0.0
 71
     5
 72
     1
  1
\A1;P.C.D 51
 11
0.9484227592868393
 21
0.3170083116682247
 31
0.0
 73
     1
 44
1.0
  0
LINE
  5
A4BF
330
A34E
100
AcDbEntity
  8
mark
370
    -2
100
AcDbLine
 10
71.85323874076482
 20
188.2339341442438
 30
0.0
 11
120.2227994643935
 21
204.4013580393232
 31
0.0
  0
INSERT
  5
A4C0
330
A34E
100
AcDbEntity
  8
mark
370
    -2
100
AcDbBlockReference
  2
_Open30
 10
71.85323874076482
 20
188.2339341442438
 30
0.0
 41
2.5
 42
2.5
 43
2.5
 50
18.48209639155184
  0
INSERT
  5
A4C1
330
A34E
100
AcDbEntity
  8
mark
370
    -2
100
AcDbBlockReference
  2
_Open30
 10
120.2227994643935
 20
204.4013580393232
 30
0.0
 41
2.5
 42
2.5
 43
2.5
 50
198.4820963915518
  0
POINT
  5
A4C2
330
A34E
100
AcDbEntity
  8
DEFPOINTS
 62
     0
100
AcDbPoint
 10
120.2227994643935
 20
204.4013580393232
 30
0.0
  0
POINT
  5
A4C3
330
A34E
100
AcDbEntity
  8
DEFPOINTS
 62
     0
100
AcDbPoint
 10
71.85323874076482
 20
188.2339341442438
 30
0.0
  0
ENDBLK
  5
A358
330
A34E
100
AcDbEntity
  8
0
100
AcDbBlockEnd
  0
BLOCK
  5
A365
330
A35C
100
AcDbEntity
  8
0
100
AcDbBlockBegin
  2
*D6
 70
     1
 10
0.0
 20
0.0
 30
0.0
  3
*D6
  1

  0
LINE
  5
A4C4
330
A35C
100
AcDbEntity
  8
mark
370
    -2
100
AcDbLine
 10
46.22315808629464
 20
211.6351709039944
 30
0.0
 11
68.55780315979354
 21
204.7675118740234
 31
0.0
  0
LINE
  5
A4C5
330
A35C
100
AcDbEntity
  8
mark
370
    -2
100
AcDbLine
 10
123.518235045365
 20
187.867780309544
 30
0.0
 11
125.9078190403899
 21
187.133009371958
 31
0.0
  0
MTEXT
  5
A4C6
330
A35C
100
AcDbEntity
  8
mark
 62
     3
100
AcDbMText
 10
56.81289621310394
 20
210.5759774136227
 30
0.0
 40
2.5
 41
0.0
 71
     5
 72
     1
  1
\A1;P.C.D 52.5
 11
0.9558335980099386
 21
-0.2939083750344232
 31
0.0
 73
     1
 44
1.0
  0
LINE
  5
A4C7
330
A35C
100
AcDbEntity
  8
mark
370
    -2
100
AcDbLine
 10
121.1286510503402
 20
188.6025512471301
 30
0.0
 11
70.94738715481838
 21
204.0327409364373
 31
0.0
  0
INSERT
  5
A4C8
330
A35C
100
AcDbEntity
  8
mark
370
    -2
100
AcDbBlockReference
  2
_Open30
 10
121.1286510503402
 20
188.6025512471301
 30
0.0
 41
2.5
 42
2.5
 43
2.5
 50
162.9079096925956
  0
INSERT
  5
A4C9
330
A35C
100
AcDbEntity
  8
mark
370
    -2
100
AcDbBlockReference
  2
_Open30
 10
70.94738715481838
 20
204.0327409364373
 30
0.0
 41
2.5
 42
2.5
 43
2.5
 50
342.9079096925956
  0
POINT
  5
A4CA
330
A35C
100
AcDbEntity
  8
DEFPOINTS
 62
     0
100
AcDbPoint
 10
70.94738715481838
 20
204.0327409364373
 30
0.0
  0
POINT
  5
A4CB
330
A35C
100
AcDbEntity
  8
DEFPOINTS
 62
     0
100
AcDbPoint
 10
121.1286510503402
 20
188.6025512471301
 30
0.0
  0
ENDBLK
  5
A366
330
A35C
100
AcDbEntity
  8
0
100
AcDbBlockEnd
  0
BLOCK
  5
A372
330
A368
100
AcDbEntity
  8
0
100
AcDbBlockBegin
  2
*D7
 70
     1
 10
0.0
 20
0.0
 30
0.0
  3
*D7
  1

  0
LINE
  5
A4FF
330
A368
100
AcDbEntity
  8
mark
370
    -2
100
AcDbLine
 10
66.03801910257925
 20
118.184199544705
 30
0.0
 11
66.03801910257925
 21
126.3585232864621
 31
0.0
  0
LINE
  5
A500
330
A368
100
AcDbEntity
  8
mark
370
    -2
100
AcDbLine
 10
126.0380191025792
 20
118.184199544705
 30
0.0
 11
126.0380191025792
 21
126.3585232864621
 31
0.0
  0
LINE
  5
A501
330
A368
100
AcDbEntity
  8
mark
370
    -2
100
AcDbLine
 10
68.53801910257925
 20
125.5085232864621
 30
0.0
 11
123.5380191025792
 21
125.5085232864621
 31
0.0
  0
INSERT
  5
A502
330
A368
100
AcDbEntity
  8
mark
370
    -2
100
AcDbBlockReference
  2
_Open30
 10
66.03801910257925
 20
125.5085232864621
 30
0.0
 41
2.5
 42
2.5
 43
2.5
 50
180.0
  0
INSERT
  5
A503
330
A368
100
AcDbEntity
  8
mark
370
    -2
100
AcDbBlockReference
  2
_Open30
 10
126.0380191025792
 20
125.5085232864621
 30
0.0
 41
2.5
 42
2.5
 43
2.5
  0
MTEXT
  5
A504
330
A368
100
AcDbEntity
  8
mark
 62
     3
100
AcDbMText
 10
96.03801910257926
 20
127.6085232864621
 30
0.0
 40
2.5
 41
0.0
 71
     5
 72
     1
  1
\A1;%%c60
 73
     1
 44
1.0
  0
POINT
  5
A505
330
A368
100
AcDbEntity
  8
DEFPOINTS
 62
     0
100
AcDbPoint
 10
66.03801910257925
 20
117.334199544705
 30
0.0
  0
POINT
  5
A506
330
A368
100
AcDbEntity
  8
DEFPOINTS
 62
     0
100
AcDbPoint
 10
126.0380191025792
 20
117.334199544705
 30
0.0
  0
POINT
  5
A507
330
A368
100
AcDbEntity
  8
DEFPOINTS
 62
     0
100
AcDbPoint
 10
126.0380191025792
 20
125.5085232864621
 30
0.0
  0
ENDBLK
  5
A373
330
A368
100
AcDbEntity
  8
0
100
AcDbBlockEnd
  0
BLOCK
  5
A380
330
A376
100
AcDbEntity
  8
0
100
AcDbBlockBegin
  2
*D8
 70
     1
 10
0.0
 20
0.0
 30
0.0
  3
*D8
  1

  0
LINE
  5
A508
330
A376
100
AcDbEntity
  8
mark
370
    -2
100
AcDbLine
 10
63.68801910257925
 20
111.334199544705
 30
0.0
 11
59.06231627277567
 21
111.334199544705
 31
0.0
  0
LINE
  5
A509
330
A376
100
AcDbEntity
  8
mark
370
    -2
100
AcDbLine
 10
66.18801910257926
 20
118.334199544705
 30
0.0
 11
59.06231627277568
 21
118.334199544705
 31
0.0
  0
LINE
  5
A50A
330
A376
100
AcDbEntity
  8
mark
370
    -2
100
AcDbLine
 10
59.91231627277568
 20
113.834199544705
 30
0.0
 11
59.91231627277568
 21
115.834199544705
 31
0.0
  0
INSERT
  5
A50B
330
A376
100
AcDbEntity
  8
mark
370
    -2
100
AcDbBlockReference
  2
_Open30
 10
59.91231627277567
 20
111.334199544705
 30
0.0
 41
2.5
 42
2.5
 43
2.5
 50
270.0
  0
INSERT
  5
A50C
330
A376
100
AcDbEntity
  8
mark
370
    -2
100
AcDbBlockReference
  2
_Open30
 10
59.91231627277568
 20
118.334199544705
 30
0.0
 41
2.5
 42
2.5
 43
2.5
 50
90.0
  0
MTEXT
  5
A50D
330
A376
100
AcDbEntity
  8
mark
 62
     3
100
AcDbMText
 10
57.81231627277566
 20
114.834199544705
 30
0.0
 40
2.5
 41
0.0
 71
     5
 72
     1
  1
\A1;7
 11
0.0000000000000001
 21
1.0
 31
0.0
 73
     1
 44
1.0
  0
POINT
  5
A50E
330
A376
100
AcDbEntity
  8
DEFPOINTS
 62
     0
100
AcDbPoint
 10
64.53801910257926
 20
111.334199544705
 30
0.0
  0
POINT
  5
A50F
330
A376
100
AcDbEntity
  8
DEFPOINTS
 62
     0
100
AcDbPoint
 10
67.03801910257926
 20
118.334199544705
 30
0.0
  0
POINT
  5
A510
330
A376
100
AcDbEntity
  8
DEFPOINTS
 62
     0
100
AcDbPoint
 10
59.91231627277568
 20
118.334199544705
 30
0.0
  0
ENDBLK
  5
A381
330
A376
100
AcDbEntity
  8
0
100
AcDbBlockEnd
  0
BLOCK
  5
A38D
330
A383
100
AcDbEntity
  8
0
100
AcDbBlockBegin
  2
*D9
 70
     1
 10
0.0
 20
0.0
 30
0.0
  3
*D9
  1

  0
LINE
  5
A511
330
A383
100
AcDbEntity
  8
mark
370
    -2
100
AcDbLine
 10
125.8880191025792
 20
118.334199544705
 30
0.0
 11
137.4583692776591
 21
118.334199544705
 31
0.0
  0
LINE
  5
A512
330
A383
100
AcDbEntity
  8
mark
370
    -2
100
AcDbLine
 10
125.8880191025792
 20
103.434199544705
 30
0.0
 11
137.4583692776591
 21
103.434199544705
 31
0.0
  0
LINE
  5
A513
330
A383
100
AcDbEntity
  8
mark
370
    -2
100
AcDbLine
 10
136.6083692776591
 20
115.834199544705
 30
0.0
 11
136.6083692776591
 21
105.934199544705
 31
0.0
  0
INSERT
  5
A514
330
A383
100
AcDbEntity
  8
mark
370
    -2
100
AcDbBlockReference
  2
_Open30
 10
136.6083692776591
 20
118.334199544705
 30
0.0
 41
2.5
 42
2.5
 43
2.5
 50
90.0
  0
INSERT
  5
A515
330
A383
100
AcDbEntity
  8
mark
370
    -2
100
AcDbBlockReference
  2
_Open30
 10
136.6083692776591
 20
103.434199544705
 30
0.0
 41
2.5
 42
2.5
 43
2.5
 50
270.0
  0
MTEXT
  5
A516
330
A383
100
AcDbEntity
  8
mark
 62
     3
100
AcDbMText
 10
134.5083692776591
 20
110.884199544705
 30
0.0
 40
2.5
 41
0.0
 71
     5
 72
     1
  1
\A1;14.9
 11
0.0000000000000001
 21
1.0
 31
0.0
 73
     1
 44
1.0
  0
POINT
  5
A517
330
A383
100
AcDbEntity
  8
DEFPOINTS
 62
     0
100
AcDbPoint
 10
125.0380191025792
 20
118.334199544705
 30
0.0
  0
POINT
  5
A518
330
A383
100
AcDbEntity
  8
DEFPOINTS
 62
     0
100
AcDbPoint
 10
125.0380191025792
 20
103.434199544705
 30
0.0
  0
POINT
  5
A519
330
A383
100
AcDbEntity
  8
DEFPOINTS
 62
     0
100
AcDbPoint
 10
136.6083692776591
 20
103.434199544705
 30
0.0
  0
ENDBLK
  5
A38E
330
A383
100
AcDbEntity
  8
0
100
AcDbBlockEnd
  0
BLOCK
  5
A3B4
330
A3AA
100
AcDbEntity
  8
0
100
AcDbBlockBegin
  2
*D10
 70
     1
 10
0.0
 20
0.0
 30
0.0
  3
*D10
  1

  0
LINE
  5
A51A
330
A3AA
100
AcDbEntity
  8
mark
370
    -2
100
AcDbLine
 10
125.8880191025792
 20
96.33419954470504
 30
0.0
 11
144.3061379129417
 21
96.33419954470504
 31
0.0
  0
LINE
  5
A51B
330
A3AA
100
AcDbEntity
  8
mark
370
    -2
100
AcDbLine
 10
125.8880191025792
 20
118.334199544705
 30
0.0
 11
144.3061379129417
 21
118.334199544705
 31
0.0
  0
LINE
  5
A51C
330
A3AA
100
AcDbEntity
  8
mark
370
    -2
100
AcDbLine
 10
143.4561379129417
 20
98.83419954470504
 30
0.0
 11
143.4561379129417
 21
115.834199544705
 31
0.0
  0
INSERT
  5
A51D
330
A3AA
100
AcDbEntity
  8
mark
370
    -2
100
AcDbBlockReference
  2
_Open30
 10
143.4561379129417
 20
96.33419954470504
 30
0.0
 41
2.5
 42
2.5
 43
2.5
 50
270.0
  0
INSERT
  5
A51E
330
A3AA
100
AcDbEntity
  8
mark
370
    -2
100
AcDbBlockReference
  2
_Open30
 10
143.4561379129417
 20
118.334199544705
 30
0.0
 41
2.5
 42
2.5
 43
2.5
 50
90.0
  0
MTEXT
  5
A51F
330
A3AA
100
AcDbEntity
  8
mark
 62
     3
100
AcDbMText
 10
141.3561379129417
 20
107.334199544705
 30
0.0
 40
2.5
 41
0.0
 71
     5
 72
     1
  1
\A1;22%%P0.2
 11
0.0000000000000001
 21
1.0
 31
0.0
 73
     1
 44
1.0
  0
POINT
  5
A520
330
A3AA
100
AcDbEntity
  8
DEFPOINTS
 62
     0
100
AcDbPoint
 10
125.0380191025792
 20
96.33419954470504
 30
0.0
  0
POINT
  5
A521
330
A3AA
100
AcDbEntity
  8
DEFPOINTS
 62
     0
100
AcDbPoint
 10
125.0380191025792
 20
118.334199544705
 30
0.0
  0
POINT
  5
A522
330
A3AA
100
AcDbEntity
  8
DEFPOINTS
 62
     0
100
AcDbPoint
 10
143.4561379129417
 20
118.334199544705
 30
0.0
  0
ENDBLK
  5
A3B5
330
A3AA
100
AcDbEntity
  8
0
100
AcDbBlockEnd
  0
BLOCK
  5
A3CD
330
A3C6
100
AcDbEntity
  8
0
100
AcDbBlockBegin
  2
*D11
 70
     1
 10
0.0
 20
0.0
 30
0.0
  3
*D11
  1

  0
LINE
  5
A523
330
A3C6
100
AcDbEntity
  8
mark
370
    -2
100
AcDbLine
 10
59.23627428348725
 20
89.53245472561386
 30
0.0
 11
64.56314536842622
 21
94.85932581055221
 31
0.0
  0
MTEXT
  5
A524
330
A3C6
100
AcDbEntity
  8
mark
 62
     3
100
AcDbMText
 10
59.53090210898184
 20
92.79693103209174
 30
0.0
 40
2.5
 41
0.0
 71
     5
 72
     1
  1
\A1;R1
 11
0.70710678118659
 21
0.7071067811865052
 31
0.0
 73
     1
 44
1.0
  0
LINE
  5
A525
330
A3C6
100
AcDbEntity
  8
mark
370
    -2
100
AcDbLine
 10
67.03801910257929
 20
97.33419954470498
 30
0.0
 11
66.33091232139268
 21
96.62709276351847
 31
0.0
  0
INSERT
  5
A526
330
A3C6
100
AcDbEntity
  8
mark
370
    -2
100
AcDbBlockReference
  2
_Open30
 10
66.33091232139268
 20
96.62709276351847
 30
0.0
 41
2.5
 42
2.5
 43
2.5
 50
44.99999999999657
  0
POINT
  5
A527
330
A3C6
100
AcDbEntity
  8
DEFPOINTS
 62
     0
100
AcDbPoint
 10
66.33091232139268
 20
96.62709276351847
 30
0.0
  0
POINT
  5
A528
330
A3C6
100
AcDbEntity
  8
DEFPOINTS
 62
     0
100
AcDbPoint
 10
67.03801910257929
 20
97.33419954470498
 30
0.0
  0
ENDBLK
  5
A3CE
330
A3C6
100
AcDbEntity
  8
0
100
AcDbBlockEnd
  0
BLOCK
  5
A3E0
330
A3D6
100
AcDbEntity
  8
0
100
AcDbBlockBegin
  2
*D12
 70
     1
 10
0.0
 20
0.0
 30
0.0
  3
*D12
  1

  0
LINE
  5
A529
330
A3D6
100
AcDbEntity
  8
mark
370
    -2
100
AcDbLine
 10
117.0380191025792
 20
96.17219954470503
 30
0.0
 11
117.0380191025792
 21
82.64259836316666
 31
0.0
  0
LINE
  5
A52A
330
A3D6
100
AcDbEntity
  8
mark
370
    -2
100
AcDbLine
 10
75.03801910257926
 20
96.17219954470503
 30
0.0
 11
75.03801910257926
 21
82.64259836316666
 31
0.0
  0
LINE
  5
A52B
330
A3D6
100
AcDbEntity
  8
mark
370
    -2
100
AcDbLine
 10
114.5380191025792
 20
83.49259836316665
 30
0.0
 11
77.53801910257926
 21
83.49259836316665
 31
0.0
  0
INSERT
  5
A52C
330
A3D6
100
AcDbEntity
  8
mark
370
    -2
100
AcDbBlockReference
  2
_Open30
 10
117.0380191025792
 20
83.49259836316665
 30
0.0
 41
2.5
 42
2.5
 43
2.5
  0
INSERT
  5
A52D
330
A3D6
100
AcDbEntity
  8
mark
370
    -2
100
AcDbBlockReference
  2
_Open30
 10
75.03801910257926
 20
83.49259836316665
 30
0.0
 41
2.5
 42
2.5
 43
2.5
 50
180.0
  0
MTEXT
  5
A52E
330
A3D6
100
AcDbEntity
  8
mark
 62
     3
100
AcDbMText
 10
96.03801910257926
 20
85.59259836316664
 30
0.0
 40
2.5
 41
0.0
 71
     5
 72
     1
  1
\A1;M42X15P
 73
     1
 44
1.0
  0
POINT
  5
A52F
330
A3D6
100
AcDbEntity
  8
DEFPOINTS
 62
     0
100
AcDbPoint
 10
117.0380191025792
 20
97.02219954470502
 30
0.0
  0
POINT
  5
A530
330
A3D6
100
AcDbEntity
  8
DEFPOINTS
 62
     0
100
AcDbPoint
 10
75.03801910257926
 20
97.02219954470502
 30
0.0
  0
POINT
  5
A531
330
A3D6
100
AcDbEntity
  8
DEFPOINTS
 62
     0
100
AcDbPoint
 10
75.03801910257926
 20
83.49259836316665
 30
0.0
  0
ENDBLK
  5
A3E1
330
A3D6
100
AcDbEntity
  8
0
100
AcDbBlockEnd
  0
ENDSEC
  0
SECTION
  2
ENTITIES
  0
MTEXT
  5
C0
330
18
100
AcDbEntity
  8
0
100
AcDbMText
 10
41.26970765600413
 20
233.6950877649332
 30
0.0
 40
2.5
 41
0.0
 71
     1
 72
     5
  1

  7
ISOCP3
 73
     1
 44
1.0
  0
LWPOLYLINE
  5
7D6C
330
18
100
AcDbEntity
  8
frame
100
AcDbPolyline
 90
        4
 70
     1
 43
0.0
 10
190.0
 20
280.0
 10
0.0
 20
280.0
 10
0.0
 20
0.0
 10
190.0
 20
0.0
  0
MTEXT
  5
7D6D
330
18
100
AcDbEntity
  8
0
100
AcDbMText
 10
17.09950368689175
 20
19.07605901616614
 30
0.0
 40
4.5
 41
0.0
 71
     1
 72
     5
  1
{\Ftxt,bigfont|c128;林彦旭}
  7
JL
 73
     1
 44
1.0
1001
ACAD
1000
ACAD_MTEXT_DEFINED_HEIGHT_BEGIN
1070
    46
1040
0.0
1000
ACAD_MTEXT_DEFINED_HEIGHT_END
  0
MTEXT
  5
7D6E
330
18
100
AcDbEntity
  8
0
100
AcDbMText
 10
77.95294729228851
 20
28.93578979870677
 30
0.0
 40
4.5
 41
0.0
 71
     1
 72
     5
  1
{\Ftxt,bigfont|c128;1 : 1}
  7
JL
 73
     1
 44
1.0
1001
ACAD
1000
ACAD_MTEXT_DEFINED_HEIGHT_BEGIN
1070
    46
1040
0.0
1000
ACAD_MTEXT_DEFINED_HEIGHT_END
  0
MTEXT
  5
7D6F
330
18
100
AcDbEntity
  8
0
 48
2.0
370
    25
100
AcDbMText
 10
140.2194500465656
 20
3.490021654633892
 30
0.0
 40
4.5
 41
0.0
 71
     5
 72
     1
  1
{\Ftxt,bigfont|c128;N L 4 0 2 7 5}
 73
     1
 44
1.0
1001
ACAD
1000
ACAD_MTEXT_DEFINED_HEIGHT_BEGIN
1070
    46
1040
0.0
1000
ACAD_MTEXT_DEFINED_HEIGHT_END
  0
MTEXT
  5
7D70
330
18
100
AcDbEntity
  8
0
 48
2.0
100
AcDbMText
 10
169.9685712810246
 20
21.76437127823692
 30
0.0
 40
4.318181818181822
 41
0.0
 71
     5
 72
     1
  1
\P{\Ftxt,bigfont|c128;MKR42X1.5P}
 73
     1
 44
1.0
1001
ACAD
1000
ACAD_MTEXT_DEFINED_HEIGHT_BEGIN
1070
    46
1040
0.0
1000
ACAD_MTEXT_DEFINED_HEIGHT_END
  0
MTEXT
  5
7D71
330
18
100
AcDbEntity
  8
0
100
AcDbMText
 10
15.3760677136774
 20
28.37740359834709
 30
0.0
 40
4.5
 41
0.0
 71
     1
 72
     5
  1
{\Ftxt,bigfont|c128;06.10.17}
  7
JL
 73
     1
 44
1.0
1001
ACAD
1000
ACAD_MTEXT_DEFINED_HEIGHT_BEGIN
1070
    46
1040
0.0
1000
ACAD_MTEXT_DEFINED_HEIGHT_END
  0
LINE
  5
7D72
330
18
100
AcDbEntity
  8
0
 62
     7
 48
5.0
100
AcDbLine
 39
3.838383838383842
 10
47.92942413992534
 20
27.65712907016086
 30
0.0
 11
53.04580144287854
 21
28.93622339589922
 31
0.0
  0
MTEXT
  5
7D73
330
18
100
AcDbEntity
  8
0
100
AcDbMText
 10
14.91235548326415
 20
9.242195050049303
 30
0.0
 40
6.0
 41
0.0
 71
     1
 72
     5
  1
\Ftxt.shx,bigfont.shx|c128;日機株式会社
  7
LKK
 73
     1
 44
1.0
  0
LINE
  5
7D74
330
18
100
AcDbEntity
  8
frame
100
AcDbLine
 10
0.0
 20
12.0
 30
0.0
 11
190.0
 21
12.00000000000005
 31
0.0
  0
LINE
  5
7D75
330
18
100
AcDbEntity
  8
frame
100
AcDbLine
 10
0.0
 20
22.0
 30
0.0
 11
92.12121212121223
 21
22.0
 31
0.0
  0
LINE
  5
7D76
330
18
100
AcDbEntity
  8
frame
100
AcDbLine
 10
0.0
 20
32.0
 30
0.0
 11
190.0
 21
32.0
 31
0.0
  0
LINE
  5
7D77
330
18
100
AcDbEntity
  8
frame
100
AcDbLine
 10
12.19077332493799
 20
32.0
 30
0.0
 11
12.19077332493799
 21
12.0
 31
0.0
  0
LINE
  5
7D78
330
18
100
AcDbEntity
  8
frame
100
AcDbLine
 10
30.70707070707067
 20
32.0
 30
0.0
 11
30.70707070707078
 21
12.0
 31
0.0
  0
MTEXT
  5
7D79
330
18
100
AcDbEntity
  8
0
100
AcDbMText
 10
2.830274784221955
 20
29.08190089582831
 30
0.0
 40
4.5
 41
0.0
 71
     1
 72
     5
  1
\Ftxt.shx,bigfont.shx|c128;日 付
  7
JL
 73
     1
 44
1.0
  0
MTEXT
  5
7D7A
330
18
100
AcDbEntity
  8
0
100
AcDbMText
 10
2.97063307743889
 20
19.52163842926637
 30
0.0
 40
4.5
 41
0.0
 71
     1
 72
     5
  1
\Ftxt.shx,bigfont.shx|c128;製 図
  7
JL
 73
     1
 44
1.0
  0
LINE
  5
7D7B
330
18
100
AcDbEntity
  8
0
 62
     7
370
    25
100
AcDbLine
 10
53.04580144287854
 20
23.81984609294597
 30
0.0
 11
53.04580144287854
 21
28.93622339589922
 31
0.0
  0
MTEXT
  5
7D7C
330
18
100
AcDbEntity
  8
0
100
AcDbMText
 10
64.00748852490835
 20
29.12242703792379
 30
0.0
 40
4.5
 41
0.0
 71
     1
 72
     5
  1
\Ftxt.shx,bigfont.shx|c128;尺 度
  7
JL
 73
     1
 44
1.0
  0
LINE
  5
7D7D
330
18
100
AcDbEntity
  8
frame
100
AcDbLine
 10
61.41414141414145
 20
32.0
 30
0.0
 11
61.41414141414145
 21
12.0
 31
0.0
  0
LINE
  5
7D7E
330
18
100
AcDbEntity
  8
0
 62
     7
370
    25
100
AcDbLine
 10
39.6153110226262
 20
23.18889018332635
 30
0.0
 11
39.6153110226262
 21
29.36457992429672
 31
0.0
  0
CIRCLE
  5
7D7F
330
18
100
AcDbEntity
  8
0
 62
     7
100
AcDbCircle
 10
39.6153110226262
 20
26.37803474442251
 30
0.0
 40
2.558188651476678
  0
LINE
  5
7D80
330
18
100
AcDbEntity
  8
0
 62
     7
370
    25
100
AcDbLine
 10
47.19321986919976
 20
26.37803474442262
 30
0.0
 11
53.50512581624241
 21
26.37803474442262
 31
0.0
  0
LINE
  5
7D81
330
18
100
AcDbEntity
  8
0
 62
     7
100
AcDbLine
 10
47.92942413992534
 20
25.09894041868427
 30
0.0
 11
53.04580144287854
 21
23.81984609294597
 31
0.0
  0
LINE
  5
7D82
330
18
100
AcDbEntity
  8
frame
100
AcDbLine
 10
42.742241959951
 20
22.0
 30
0.0
 11
42.742241959951
 21
12.0
 31
0.0
  0
LINE
  5
7D83
330
18
100
AcDbEntity
  8
0
 62
     7
370
    25
100
AcDbLine
 10
36.41832228486612
 20
26.37803474442251
 30
0.0
 11
43.00325267619268
 21
26.37803474442262
 31
0.0
  0
CIRCLE
  5
7D84
330
18
100
AcDbEntity
  8
0
 62
     7
100
AcDbCircle
 10
39.6153110226262
 20
26.37803474442251
 30
0.0
 40
1.279094325738339
  0
MTEXT
  5
7D85
330
18
100
AcDbEntity
  8
0
100
AcDbMText
 10
33.70184032462407
 20
19.41013815785266
 30
0.0
 40
4.5
 41
0.0
 71
     1
 72
     5
  1
\Ftxt.shx,bigfont.shx|c128;検 図
  7
JL
 73
     1
 44
1.0
  0
LINE
  5
7D86
330
18
100
AcDbEntity
  8
0
 62
     7
370
    25
100
AcDbLine
 10
47.92942413992534
 20
25.09894041868427
 30
0.0
 11
47.92942413992534
 21
27.65712907016086
 31
0.0
  0
MTEXT
  5
7D87
330
18
100
AcDbEntity
  8
0
100
AcDbMText
 10
64.28820249919829
 20
19.32058534748881
 30
0.0
 40
4.5
 41
0.0
 71
     1
 72
     5
  1
\Ftxt.shx,bigfont.shx|c128;承 認
  7
JL
 73
     1
 44
1.0
  0
MTEXT
  5
7D88
330
18
100
AcDbEntity
  8
0
100
AcDbMText
 10
93.71128715606699
 20
10.7026821961914
 30
0.0
 40
4.5
 41
0.0
 71
     1
 72
     5
  1
\Ftxt.shx,bigfont.shx|c128;図  面  番  号
  7
JL
 73
     1
 44
1.0
  0
MTEXT
  5
7D89
330
18
100
AcDbEntity
  8
0
 48
2.0
100
AcDbMText
 10
116.9038190021384
 20
21.8757473149584
 30
0.0
 40
4.5
 41
0.0
 71
     5
 72
     1
  1
\P\Ftxt.shx,bigfont.shx|c128;    精密ロックナット
 73
     1
 44
1.0
  0
MTEXT
  5
7D8A
330
18
100
AcDbEntity
  8
0
100
AcDbMText
 10
94.8083613031232
 20
29.03862457973275
 30
0.0
 40
4.5
 41
0.0
 71
     1
 72
     5
  1
\Ftxt.shx,bigfont.shx|c128;品  名
  7
JL
 73
     1
 44
1.0
  0
LINE
  5
7D8B
330
18
100
AcDbEntity
  8
frame
100
AcDbLine
 10
92.12121212121223
 20
32.0
 30
0.0
 11
92.12121212121223
 21
0.1833227579584786
 31
0.0
  0
LINE
  5
7D8C
330
18
100
AcDbEntity
  8
frame
100
AcDbLine
 10
73.41414141414145
 20
32.0
 30
0.0
 11
73.41414141414145
 21
12.0
 31
0.0
  0
LINE
  5
7D8D
330
18
100
AcDbEntity
  8
frame
100
AcDbLine
 10
147.0327092740656
 20
32.0
 30
0.0
 11
147.0327092740657
 21
12.0
 31
0.0
  0
MTEXT
  5
7D8E
330
18
100
AcDbEntity
  8
0
100
AcDbMText
 10
150.895959446773
 20
29.04517782830391
 30
0.0
 40
4.5
 41
0.0
 71
     1
 72
     5
  1
\Ftxt.shx,bigfont.shx|c128;型  番
  7
JL
 73
     1
 44
1.0
  0
MTEXT
  5
7D8F
330
18
100
AcDbEntity
  8
0
100
AcDbMText
 10
165.8059614810325
 20
10.78298174971564
 30
0.0
 40
4.5
 41
0.0
 71
     1
 72
     5
  1
\Ftxt.shx,bigfont.shx|c128;変更
  7
JL
 73
     1
 44
1.0
  0
LINE
  5
7D90
330
18
100
AcDbEntity
  8
frame
100
AcDbLine
 10
164.0909090909092
 20
12.00000000000005
 30
0.0
 11
164.0909090909093
 21
0.0
 31
0.0
  0
LINE
  5
7D91
330
18
100
AcDbEntity
  8
frame
100
AcDbLine
 10
124.6157900786393
 20
43.13491348924492
 30
0.0
 11
184.6157900786393
 21
43.13491348924481
 31
0.0
  0
LINE
  5
7D92
330
18
100
AcDbEntity
  8
frame
100
AcDbLine
 10
124.6157900786393
 20
50.33491348924497
 30
0.0
 11
184.6157900786393
 21
50.33491348924497
 31
0.0
  0
LINE
  5
7D93
330
18
100
AcDbEntity
  8
frame
100
AcDbLine
 10
124.6157900786393
 20
57.5349134892449
 30
0.0
 11
184.6157900786393
 21
57.53491348924478
 31
0.0
  0
LINE
  5
7D94
330
18
100
AcDbEntity
  8
frame
100
AcDbLine
 10
124.6157900786393
 20
64.73491348924494
 30
0.0
 11
184.6157900786393
 21
64.73491348924483
 31
0.0
  0
LINE
  5
7D95
330
18
100
AcDbEntity
  8
frame
100
AcDbLine
 10
124.6157900786393
 20
35.93491348924488
 30
0.0
 11
184.6157900786393
 21
35.93491348924488
 31
0.0
  0
MTEXT
  5
7D96
330
18
100
AcDbEntity
  8
0
 62
     7
 48
2.0
100
AcDbMText
 10
154.5011900445106
 20
65.52808189982909
 30
0.0
 40
4.8
 41
0.0
 71
     5
 72
     1
  1
\P\Ftxt.shx,bigfont.shx|c128;諸　　　　元
 73
     1
 44
1.0
  0
LINE
  5
7D97
330
18
100
AcDbEntity
  8
frame
100
AcDbLine
 10
124.6157900786393
 20
64.73491348924483
 30
0.0
 11
124.6157900786393
 21
35.93491348924488
 31
0.0
  0
MTEXT
  5
7D98
330
18
100
AcDbEntity
  8
0
100
AcDbMText
 10
128.1382258923195
 20
56.00840432212407
 30
0.0
 40
4.4
 41
163.916286842249
 71
     1
 72
     5
  1
\Ftxt.shx,bigfont.shx|c128;熱　処　理
  7
JL
 73
     1
 44
1.0
  0
LINE
  5
7D99
330
18
100
AcDbEntity
  8
frame
100
AcDbLine
 10
148.6157900786393
 20
57.53491348924478
 30
0.0
 11
148.6157900786393
 21
35.93491348924488
 31
0.0
  0
MTEXT
  5
7D9A
330
18
100
AcDbEntity
  8
0
100
AcDbMText
 10
127.8579515249403
 20
49.00617587486397
 30
0.0
 40
4.4
 41
163.6058628849672
 71
     1
 72
     5
  1
\Ftxt.shx,bigfont.shx|c128;表 面 処 理
  7
JL
 73
     1
 44
1.0
  0
MTEXT
  5
7D9B
330
18
100
AcDbEntity
  8
0
100
AcDbMText
 10
128.1480173733753
 20
41.71770302125605
 30
0.0
 40
4.4
 41
166.1718
 71
     1
 72
     5
  1
\Ftxt.shx,bigfont.shx|c128;等     　級
  7
JL
 73
     1
 44
1.0
  0
LINE
  5
7D9C
330
18
100
AcDbEntity
  8
frame
100
AcDbLine
 10
184.6157900786393
 20
64.73491348924483
 30
0.0
 11
184.6157900786393
 21
35.93491348924499
 31
0.0
  0
MTEXT
  5
7D9D
330
18
100
AcDbEntity
  8
0
100
AcDbMText
 10
153.3627933880818
 20
55.83344641471445
 30
0.0
 40
4.4
 41
291.8960056857887
 71
     1
 72
     5
  1
\Ftxt.shx,bigfont.shx|c128;調質　HRC30%%d%%p２%%d
  7
JL
 73
     1
 44
1.0
  0
MTEXT
  5
7D9E
330
18
100
AcDbEntity
  8
0
100
AcDbMText
 10
153.6234323895182
 20
41.7183135927072
 30
0.0
 40
4.4
 41
290.783364796891
 71
     1
 72
     5
  1
\Ftxt.shx,bigfont.shx|c128;ＩＳＯ - ４Ｈ
  7
JL
 73
     1
 44
1.0
  0
MTEXT
  5
7D9F
330
18
100
AcDbEntity
  8
0
100
AcDbMText
 10
153.7978935876485
 20
48.65328293790913
 30
0.0
 40
4.4
 41
291.4548
 71
     1
 72
     5
  1
\Ftxt.shx,bigfont.shx|c128;黒  　    染
  7
JL
 73
     1
 44
1.0
  0
MTEXT
  5
7DA0
330
18
100
AcDbEntity
  8
0
100
AcDbMText
 10
57.63639061334425
 20
260.9000583279474
 30
0.0
 40
5.0
 41
0.0
 71
     1
 72
     5
  1
{\Ftxt,bigfont|c128;M4X0.7P-16L}
  7
JL
 73
     1
 44
1.0
1001
ACAD
1000
ACAD_MTEXT_DEFINED_HEIGHT_BEGIN
1070
    46
1040
0.0
1000
ACAD_MTEXT_DEFINED_HEIGHT_END
  0
LINE
  5
7DA2
330
18
100
AcDbEntity
  8
frame
100
AcDbLine
 10
0.0
 20
254.0
 30
0.0
 11
190.0
 21
254.0
 31
0.0
  0
LINE
  5
7DA3
330
18
100
AcDbEntity
  8
frame
100
AcDbLine
 10
0.0
 20
262.0
 30
0.0
 11
190.0
 21
262.0
 31
0.0
  0
LINE
  5
7DA4
330
18
100
AcDbEntity
  8
frame
 62
     9
100
AcDbLine
 10
0.0
 20
270.0
 30
0.0
 11
190.0
 21
270.0
 31
0.0
  0
MTEXT
  5
7DA5
330
18
100
AcDbEntity
  8
0
100
AcDbMText
 10
57.0156439060371
 20
277.4240560049041
 30
0.0
 40
5.0
 41
0.0
 71
     1
 72
     5
  1
\Ftxt.shx,bigfont.shx|c128;図    番 / 規　　格
  7
JL
 73
     1
 44
1.0
  0
LINE
  5
7DA6
330
18
100
AcDbEntity
  8
frame
100
AcDbLine
 10
0.0
 20
254.0
 30
0.0
 11
190.0
 21
254.0
 31
0.0
  0
MTEXT
  5
7DA8
330
18
100
AcDbEntity
  8
0
100
AcDbMText
 10
21.12488048923433
 20
277.4637981386743
 30
0.0
 40
5.0
 41
0.0
 71
     1
 72
     5
  1
\Ftxt.shx,bigfont.shx|c128;品　          名
  7
JL
 73
     1
 44
1.0
  0
MTEXT
  5
7DA9
330
18
100
AcDbEntity
  8
0
100
AcDbMText
 10
18.10281387110132
 20
260.7907237289111
 30
0.0
 40
5.0
 41
0.0
 71
     1
 72
     5
  1
\Ftxt.shx,bigfont.shx|c128;セットスクリュ-
  7
JL
 73
     1
 44
1.0
  0
MTEXT
  5
7DAA
330
18
100
AcDbEntity
  8
0
100
AcDbMText
 10
17.91509480863158
 20
268.8361230282964
 30
0.0
 40
5.0
 41
0.0
 71
     1
 72
     5
  1
\Ftxt.shx,bigfont.shx|c128;ロックナット　  
  7
JL
 73
     1
 44
1.0
  0
LINE
  5
7DAC
330
18
100
AcDbEntity
  8
frame
 62
     9
100
AcDbLine
 10
14.39393939393937
 20
279.9999999999999
 30
0.0
 11
14.39393939393964
 21
254.0
 31
0.0
  0
LINE
  5
7DAD
330
18
100
AcDbEntity
  8
frame
 62
     9
100
AcDbLine
 10
14.39393939393937
 20
279.9999999999999
 30
0.0
 11
14.39393939393937
 21
255.0505050505051
 31
0.0
  0
MTEXT
  5
7DAE
330
18
100
AcDbEntity
  8
0
100
AcDbMText
 10
6.815009268013795
 20
268.7281674434121
 30
0.0
 40
5.0
 41
0.0
 71
     1
 72
     5
  1
\Ftxt.shx,bigfont.shx|c128;1
  7
JL
 73
     1
 44
1.0
  0
MTEXT
  5
7DAF
330
18
100
AcDbEntity
  8
0
100
AcDbMText
 10
2.119828072980226
 20
277.4734782639491
 30
0.0
 40
5.0
 41
0.0
 71
     1
 72
     5
  1
\Ftxt.shx,bigfont.shx|c128;照   号
  7
JL
 73
     1
 44
1.0
  0
LINE
  5
7DB0
330
18
100
AcDbEntity
  8
frame
 62
     9
100
AcDbLine
 10
52.77777777777783
 20
279.9999999999999
 30
0.0
 11
52.77777777777784
 21
254.0
 31
0.0
  0
MTEXT
  5
7DB1
330
18
100
AcDbEntity
  8
0
100
AcDbMText
 10
145.5736374372851
 20
277.6781663894194
 30
0.0
 40
5.0
 41
0.0
 71
     1
 72
     5
  1
\Ftxt.shx,bigfont.shx|c128;備           考
  7
JL
 73
     1
 44
1.0
  0
LINE
  5
7DB2
330
18
100
AcDbEntity
  8
frame
 62
     9
100
AcDbLine
 10
91.16161616161617
 20
280.0
 30
0.0
 11
91.16161616161617
 21
254.0
 31
0.0
  0
MTEXT
  5
7DB4
330
18
100
AcDbEntity
  8
0
100
AcDbMText
 10
92.87341089179369
 20
268.8361230282964
 30
0.0
 40
5.0
 41
0.0
 71
     1
 72
     5
  1
\Ftxt.shx,bigfont.shx|c128;SCM-440
  7
JL
 73
     1
 44
1.0
  0
MTEXT
  5
7DB5
330
18
100
AcDbEntity
  8
0
100
AcDbMText
 10
92.87341089179369
 20
260.765002012584
 30
0.0
 40
5.0
 41
0.0
 71
     1
 72
     5
  1
\Ftxt.shx,bigfont.shx|c128;SCM435
  7
JL
 73
     1
 44
1.0
  0
MTEXT
  5
7DB6
330
18
100
AcDbEntity
  8
0
100
AcDbMText
 10
95.76798863104192
 20
277.5645499482919
 30
0.0
 40
5.0
 41
0.0
 71
     1
 72
     5
  1
\Ftxt.shx,bigfont.shx|c128;材　質
  7
JL
 73
     1
 44
1.0
  0
LINE
  5
7DB7
330
18
100
AcDbEntity
  8
frame
 62
     9
100
AcDbLine
 10
110.3535353535354
 20
280.0
 30
0.0
 11
110.3535353535354
 21
254.0
 31
0.0
  0
LINE
  5
7DB8
330
18
100
AcDbEntity
  8
frame
100
AcDbLine
 10
124.7474747474747
 20
280.0
 30
0.0
 11
124.7474747474748
 21
254.0
 31
0.0
  0
MTEXT
  5
7DBA
330
18
100
AcDbEntity
  8
0
100
AcDbMText
 10
117.1685446215491
 20
269.0412711679932
 30
0.0
 40
5.0
 41
0.0
 71
     1
 72
     5
  1
\Ftxt.shx,bigfont.shx|c128;1
  7
JL
 73
     1
 44
1.0
  0
MTEXT
  5
7DBB
330
18
100
AcDbEntity
  8
0
100
AcDbMText
 10
116.5939070266884
 20
260.5092290150679
 30
0.0
 40
5.0
 41
0.0
 71
     1
 72
     5
  1
{\Ftxt,bigfont|c128;4}
  7
JL
 73
     1
 44
1.0
1001
ACAD
1000
ACAD_MTEXT_DEFINED_HEIGHT_BEGIN
1070
    46
1040
0.0
1000
ACAD_MTEXT_DEFINED_HEIGHT_END
  0
MTEXT
  5
7DBC
330
18
100
AcDbEntity
  8
0
100
AcDbMText
 10
112.4223895919262
 20
277.5645499482919
 30
0.0
 40
5.0
 41
0.0
 71
     1
 72
     5
  1
\Ftxt.shx,bigfont.shx|c128;数   量
  7
JL
 73
     1
 44
1.0
  0
MTEXT
  5
7DBD
330
18
100
AcDbEntity
  8
0
100
AcDbMText
 10
6.404019699055993
 20
260.7281674434121
 30
0.0
 40
5.0
 41
0.0
 71
     1
 72
     5
  1
{\Ftxt,bigfont|c128;2}
  7
JL
 73
     1
 44
1.0
1001
ACAD
1000
ACAD_MTEXT_DEFINED_HEIGHT_BEGIN
1070
    46
1040
0.0
1000
ACAD_MTEXT_DEFINED_HEIGHT_END
  0
LINE
  5
9D54
102
{ACAD_REACTORS
330
A5BF
102
}
330
18
100
AcDbEntity
  8
contour
100
AcDbLine
 10
125.0380191025792
 20
118.334199544705
 30
0.0
 11
67.03801910257926
 21
118.334199544705
 31
0.0
  0
ARC
  5
9D55
102
{ACAD_REACTORS
330
A5BF
102
}
330
18
100
AcDbEntity
  8
contour
100
AcDbCircle
 10
125.0380191025792
 20
117.334199544705
 30
0.0
 40
0.9999999999999998
100
AcDbArc
 50
0.0
 51
90.0
  0
LINE
  5
9D56
330
18
100
AcDbEntity
  8
center
 48
0.1
100
AcDbLine
 10
73.53801910257925
 20
111.334199544705
 30
0.0
 11
64.53801910257926
 21
111.334199544705
 31
0.0
  0
LINE
  5
9D57
102
{ACAD_REACTORS
330
A5BF
102
}
330
18
100
AcDbEntity
  8
contour
100
AcDbLine
 10
66.03801910257925
 20
117.334199544705
 30
0.0
 11
66.03801910257925
 21
104.434199544705
 31
0.0
  0
ARC
  5
9D58
102
{ACAD_REACTORS
330
A5BF
102
}
330
18
100
AcDbEntity
  8
contour
100
AcDbCircle
 10
67.03801910257926
 20
117.334199544705
 30
0.0
 40
0.9999999999999998
100
AcDbArc
 50
90.0
 51
180.0
  0
LINE
  5
9D59
102
{ACAD_REACTORS
330
A5BF
102
}
330
18
100
AcDbEntity
  8
contour
100
AcDbLine
 10
66.03801910257925
 20
100.434199544705
 30
0.0
 11
66.03801910257925
 21
97.33419954470504
 31
0.0
  0
ARC
  5
9D5A
102
{ACAD_REACTORS
330
A5BF
102
}
330
18
100
AcDbEntity
  8
contour
100
AcDbCircle
 10
67.03801910257926
 20
100.434199544705
 30
0.0
 40
0.9999999999999998
100
AcDbArc
 50
90.0
 51
180.0
  0
LINE
  5
9D5B
102
{ACAD_REACTORS
330
A5BF
102
}
330
18
100
AcDbEntity
  8
contour
100
AcDbLine
 10
67.03801910257926
 20
96.33419954470504
 30
0.0
 11
125.0380191025792
 21
96.33419954470504
 31
0.0
  0
ARC
  5
9D5C
102
{ACAD_REACTORS
330
A5BF
102
}
330
18
100
AcDbEntity
  8
contour
100
AcDbCircle
 10
67.03801910257926
 20
97.33419954470504
 30
0.0
 40
0.9999999999999998
100
AcDbArc
 50
179.9999999999992
 51
270.0
  0
LINE
  5
9D5D
102
{ACAD_REACTORS
330
A5BF
102
}
330
18
100
AcDbEntity
  8
contour
100
AcDbLine
 10
69.78801910257925
 20
100.334199544705
 30
0.0
 11
71.93801910257923
 21
99.09289646594734
 31
0.0
  0
LINE
  5
9D5E
102
{ACAD_REACTORS
330
A5BF
102
}
330
18
100
AcDbEntity
  8
contour
100
AcDbLine
 10
67.03801910257926
 20
101.434199544705
 30
0.0
 11
73.28801910257926
 21
101.434199544705
 31
0.0
  0
LINE
  5
9D5F
102
{ACAD_REACTORS
330
A5BF
102
}
330
18
100
AcDbEntity
  8
contour
100
AcDbLine
 10
123.5380191025792
 20
101.434199544705
 30
0.0
 11
125.0380191025792
 21
101.434199544705
 31
0.0
  0
ARC
  5
9D60
102
{ACAD_REACTORS
330
A5BF
102
}
330
18
100
AcDbEntity
  8
contour
100
AcDbCircle
 10
125.0380191025792
 20
100.434199544705
 30
0.0
 40
0.9999999999999998
100
AcDbArc
 50
0.0
 51
90.0
  0
LINE
  5
9D61
102
{ACAD_REACTORS
330
A5BF
102
}
330
18
100
AcDbEntity
  8
contour
100
AcDbLine
 10
67.03801910257926
 20
103.434199544705
 30
0.0
 11
73.28801910257926
 21
103.434199544705
 31
0.0
  0
ARC
  5
9D62
102
{ACAD_REACTORS
330
A5BF
102
}
330
18
100
AcDbEntity
  8
contour
100
AcDbCircle
 10
67.03801910257926
 20
104.434199544705
 30
0.0
 40
0.9999999999999998
100
AcDbArc
 50
180.0
 51
270.0
  0
LINE
  5
9D63
102
{ACAD_REACTORS
330
A5BF
102
}
330
18
100
AcDbEntity
  8
contour
100
AcDbLine
 10
123.5380191025792
 20
103.434199544705
 30
0.0
 11
125.0380191025792
 21
103.434199544705
 31
0.0
  0
LINE
  5
9D64
102
{ACAD_REACTORS
330
A5BF
102
}
330
18
100
AcDbEntity
  8
contour
100
AcDbLine
 10
126.0380191025792
 20
97.33419954470504
 30
0.0
 11
126.0380191025792
 21
100.434199544705
 31
0.0
  0
ARC
  5
9D65
102
{ACAD_REACTORS
330
A5BF
102
}
330
18
100
AcDbEntity
  8
contour
100
AcDbCircle
 10
125.0380191025792
 20
97.33419954470504
 30
0.0
 40
0.9999999999999998
100
AcDbArc
 50
270.0
 51
0.0
  0
LINE
  5
9D66
102
{ACAD_REACTORS
330
A5BF
102
}
330
18
100
AcDbEntity
  8
contour
100
AcDbLine
 10
126.0380191025792
 20
104.434199544705
 30
0.0
 11
126.0380191025792
 21
117.334199544705
 31
0.0
  0
ARC
  5
9D67
102
{ACAD_REACTORS
330
A5BF
102
}
330
18
100
AcDbEntity
  8
contour
100
AcDbCircle
 10
125.0380191025792
 20
104.434199544705
 30
0.0
 40
0.9999999999999998
100
AcDbArc
 50
270.0
 51
0.0
  0
LINE
  5
9D68
330
18
100
AcDbEntity
  8
center
 48
0.2
100
AcDbLine
 10
96.03801910257926
 20
119.834199544705
 30
0.0
 11
96.03801910257926
 21
94.83419954470504
 31
0.0
  0
LINE
  5
9D69
102
{ACAD_REACTORS
330
A5BF
102
}
330
18
100
AcDbEntity
  8
contour
100
AcDbLine
 10
124.2880191025792
 20
106.234199544705
 30
0.0
 11
124.2880191025792
 21
104.234199544705
 31
0.0
  0
LINE
  5
9D6A
102
{ACAD_REACTORS
330
A5BF
102
}
330
18
100
AcDbEntity
  8
contour
100
AcDbLine
 10
118.7880191025792
 20
101.434199544705
 30
0.0
 11
118.7880191025792
 21
103.434199544705
 31
0.0
  0
LINE
  5
9D6B
102
{ACAD_REACTORS
330
A5BF
102
}
330
18
100
AcDbEntity
  8
contour
100
AcDbLine
 10
73.28801910257926
 20
101.434199544705
 30
0.0
 11
73.28801910257926
 21
103.434199544705
 31
0.0
  0
LINE
  5
9D6C
102
{ACAD_REACTORS
330
A5BF
102
}
330
18
100
AcDbEntity
  8
contour
100
AcDbLine
 10
67.63801910257928
 20
99.09289646594732
 30
0.0
 11
67.63801910257928
 21
96.83419954470503
 31
0.0
  0
LINE
  5
9D6D
102
{ACAD_REACTORS
330
A5BF
102
}
330
18
100
AcDbEntity
  8
contour
100
AcDbLine
 10
67.13801910257927
 20
96.33419954470504
 30
0.0
 11
67.63801910257928
 21
96.83419954470503
 31
0.0
  0
LINE
  5
9D6E
102
{ACAD_REACTORS
330
A5BF
102
}
330
18
100
AcDbEntity
  8
contour
100
AcDbLine
 10
71.93801910257923
 20
99.09289646594734
 30
0.0
 11
71.93801910257923
 21
96.83419954470503
 31
0.0
  0
LINE
  5
9D6F
102
{ACAD_REACTORS
330
A5BF
102
}
330
18
100
AcDbEntity
  8
contour
100
AcDbLine
 10
72.43801910257923
 20
96.33419954470504
 30
0.0
 11
71.93801910257923
 21
96.83419954470503
 31
0.0
  0
LINE
  5
9D70
330
18
100
AcDbEntity
  8
contour
100
AcDbLine
 10
71.93801910257923
 20
96.83419954470503
 30
0.0
 11
67.63801910257928
 21
96.83419954470503
 31
0.0
  0
LINE
  5
9D71
102
{ACAD_REACTORS
330
A5BF
102
}
330
18
100
AcDbEntity
  8
center
 48
0.1
100
AcDbLine
 10
69.78801910257925
 20
94.83419954470504
 30
0.0
 11
69.78801910257925
 21
101.834199544705
 31
0.0
  0
LINE
  5
9D72
102
{ACAD_REACTORS
330
A5BF
102
}
330
18
100
AcDbEntity
  8
contour
100
AcDbLine
 10
69.78801910257925
 20
100.334199544705
 30
0.0
 11
67.63801910257928
 21
99.09289646594732
 31
0.0
  0
LINE
  5
9D73
330
18
100
AcDbEntity
  8
contour
100
AcDbLine
 10
71.93801910257923
 20
99.09289646594734
 30
0.0
 11
67.63801910257928
 21
99.09289646594732
 31
0.0
  0
LINE
  5
9D74
102
{ACAD_REACTORS
330
A5BF
102
}
330
18
100
AcDbEntity
  8
contour
100
AcDbLine
 10
72.03801910257926
 20
111.334199544705
 30
0.0
 11
70.59464342960518
 21
113.834199544705
 31
0.0
  0
LINE
  5
9D75
102
{ACAD_REACTORS
330
A5BF
102
}
330
18
100
AcDbEntity
  8
contour
100
AcDbLine
 10
72.03801910257926
 20
111.334199544705
 30
0.0
 11
70.59464342960518
 21
108.834199544705
 31
0.0
  0
LINE
  5
9D76
102
{ACAD_REACTORS
330
A5BF
102
}
330
18
100
AcDbEntity
  8
contour
100
AcDbLine
 10
66.53801910257925
 20
113.834199544705
 30
0.0
 11
70.59464342960524
 21
113.834199544705
 31
0.0
  0
LINE
  5
9D77
102
{ACAD_REACTORS
330
A5BF
102
}
330
18
100
AcDbEntity
  8
contour
100
AcDbLine
 10
66.53801910257925
 20
108.834199544705
 30
0.0
 11
70.59464342960513
 21
108.834199544705
 31
0.0
  0
LINE
  5
9D78
330
18
100
AcDbEntity
  8
contour
100
AcDbLine
 10
70.59464342960518
 20
113.834199544705
 30
0.0
 11
70.59464342960518
 21
108.834199544705
 31
0.0
  0
LINE
  5
9D79
330
18
100
AcDbEntity
  8
contour
100
AcDbLine
 10
66.53801910257925
 20
113.834199544705
 30
0.0
 11
66.53801910257925
 21
108.834199544705
 31
0.0
  0
LINE
  5
9D7A
102
{ACAD_REACTORS
330
A5BF
102
}
330
18
100
AcDbEntity
  8
contour
100
AcDbLine
 10
66.53801910257925
 20
108.834199544705
 30
0.0
 11
66.03801910257925
 21
108.334199544705
 31
0.0
  0
LINE
  5
9D7B
102
{ACAD_REACTORS
330
A5BF
102
}
330
18
100
AcDbEntity
  8
contour
100
AcDbLine
 10
66.53801910257925
 20
113.834199544705
 30
0.0
 11
66.03801910257925
 21
114.334199544705
 31
0.0
  0
LINE
  5
9D83
102
{ACAD_REACTORS
330
A5BF
102
}
330
18
100
AcDbEntity
  8
contour
100
AcDbLine
 10
67.78801910257925
 20
104.2341995447051
 30
0.0
 11
119.5380191025792
 21
104.234199544705
 31
0.0
  0
LINE
  5
9D84
102
{ACAD_REACTORS
330
A5BF
102
}
330
18
100
AcDbEntity
  8
contour
100
AcDbLine
 10
67.78801910257925
 20
106.2341995447051
 30
0.0
 11
119.5380191025792
 21
106.234199544705
 31
0.0
  0
LINE
  5
9D86
102
{ACAD_REACTORS
330
A5BF
102
}
330
18
100
AcDbEntity
  8
contour
100
AcDbLine
 10
67.78801910257925
 20
106.234199544705
 30
0.0
 11
67.78801910257925
 21
104.234199544705
 31
0.0
  0
LINE
  5
9D89
102
{ACAD_REACTORS
330
A5BF
102
}
330
18
100
AcDbEntity
  8
contour
100
AcDbLine
 10
116.2260191025792
 20
116.834199544705
 30
0.0
 11
116.2260191025792
 21
107.734199544705
 31
0.0
  0
LINE
  5
9D8A
102
{ACAD_REACTORS
330
A5BF
102
}
330
18
100
AcDbEntity
  8
contour
100
AcDbLine
 10
117.7260191025792
 20
118.334199544705
 30
0.0
 11
116.2260191025792
 21
116.834199544705
 31
0.0
  0
LINE
  5
9D8B
102
{ACAD_REACTORS
330
A5BF
102
}
330
18
100
AcDbEntity
  8
contour
 62
     4
100
AcDbLine
 10
117.0380191025792
 20
117.646199544705
 30
0.0
 11
117.0380191025792
 21
106.922199544705
 31
0.0
  0
LINE
  5
9D8C
102
{ACAD_REACTORS
330
A5BF
102
}
330
18
100
AcDbEntity
  8
contour
100
AcDbLine
 10
117.7260191025792
 20
106.234199544705
 30
0.0
 11
116.2260191025792
 21
107.734199544705
 31
0.0
  0
LINE
  5
9D8D
102
{ACAD_REACTORS
330
A5BF
102
}
330
18
100
AcDbEntity
  8
contour
100
AcDbLine
 10
116.2260191025792
 20
102.734199544705
 30
0.0
 11
116.2260191025792
 21
97.83419954470501
 31
0.0
  0
LINE
  5
9D8E
102
{ACAD_REACTORS
330
A5BF
102
}
330
18
100
AcDbEntity
  8
contour
100
AcDbLine
 10
117.7260191025792
 20
104.234199544705
 30
0.0
 11
116.2260191025792
 21
102.734199544705
 31
0.0
  0
LINE
  5
9D8F
102
{ACAD_REACTORS
330
A5BF
102
}
330
18
100
AcDbEntity
  8
contour
 62
     4
100
AcDbLine
 10
117.0380191025792
 20
103.546199544705
 30
0.0
 11
117.0380191025792
 21
97.02219954470502
 31
0.0
  0
LINE
  5
9D90
102
{ACAD_REACTORS
330
A5BF
102
}
330
18
100
AcDbEntity
  8
contour
100
AcDbLine
 10
117.7260191025792
 20
96.33419954470504
 30
0.0
 11
116.2260191025792
 21
97.83419954470502
 31
0.0
  0
LINE
  5
9D91
102
{ACAD_REACTORS
330
A5BF
102
}
330
18
100
AcDbEntity
  8
contour
100
AcDbLine
 10
75.85001910257921
 20
116.834199544705
 30
0.0
 11
75.85001910257926
 21
107.734199544705
 31
0.0
  0
LINE
  5
9D92
102
{ACAD_REACTORS
330
A5BF
102
}
330
18
100
AcDbEntity
  8
contour
100
AcDbLine
 10
74.35001910257921
 20
118.334199544705
 30
0.0
 11
75.85001910257921
 21
116.834199544705
 31
0.0
  0
LINE
  5
9D93
102
{ACAD_REACTORS
330
A5BF
102
}
330
18
100
AcDbEntity
  8
contour
 62
     4
100
AcDbLine
 10
75.03801910257926
 20
117.646199544705
 30
0.0
 11
75.03801910257926
 21
106.922199544705
 31
0.0
  0
LINE
  5
9D94
102
{ACAD_REACTORS
330
A5BF
102
}
330
18
100
AcDbEntity
  8
contour
100
AcDbLine
 10
74.35001910257927
 20
106.234199544705
 30
0.0
 11
75.85001910257926
 21
107.734199544705
 31
0.0
  0
LINE
  5
9D95
102
{ACAD_REACTORS
330
A5BF
102
}
330
18
100
AcDbEntity
  8
contour
100
AcDbLine
 10
75.85001910257926
 20
102.734199544705
 30
0.0
 11
75.85001910257926
 21
97.83419954470501
 31
0.0
  0
LINE
  5
9D96
102
{ACAD_REACTORS
330
A5BF
102
}
330
18
100
AcDbEntity
  8
contour
100
AcDbLine
 10
74.35001910257927
 20
104.234199544705
 30
0.0
 11
75.85001910257926
 21
102.734199544705
 31
0.0
  0
LINE
  5
9D97
102
{ACAD_REACTORS
330
A5BF
102
}
330
18
100
AcDbEntity
  8
contour
 62
     4
100
AcDbLine
 10
75.03801910257926
 20
103.546199544705
 30
0.0
 11
75.03801910257926
 21
97.02219954470502
 31
0.0
  0
LINE
  5
9D98
102
{ACAD_REACTORS
330
A5BF
102
}
330
18
100
AcDbEntity
  8
contour
100
AcDbLine
 10
74.35001910257927
 20
96.33419954470504
 30
0.0
 11
75.85001910257926
 21
97.83419954470502
 31
0.0
  0
LINE
  5
9D99
330
18
100
AcDbEntity
  8
contour
100
AcDbLine
 10
116.2260191025792
 20
116.834199544705
 30
0.0
 11
75.85001910257921
 21
116.8341995447049
 31
0.0
  0
LINE
  5
9D9A
330
18
100
AcDbEntity
  8
contour
100
AcDbLine
 10
75.85001910257926
 20
107.734199544705
 30
0.0
 11
116.2260191025792
 21
107.734199544705
 31
0.0
  0
LINE
  5
9D9B
330
18
100
AcDbEntity
  8
contour
100
AcDbLine
 10
116.2260191025792
 20
102.734199544705
 30
0.0
 11
75.85001910257926
 21
102.7341995447048
 31
0.0
  0
LINE
  5
9D9C
330
18
100
AcDbEntity
  8
contour
100
AcDbLine
 10
75.85001910257926
 20
97.83419954470502
 30
0.0
 11
116.2260191025792
 21
97.83419954470502
 31
0.0
  0
INSERT
  5
9D9E
102
{ACAD_REACTORS
330
A5BF
102
}
330
18
100
AcDbEntity
  8
contour
100
AcDbBlockReference
  2
LS2
 10
261.3177745400874
 20
96.56866673363163
 30
0.0
 41
-1.0
  0
LINE
  5
9E25
330
18
100
AcDbEntity
  8
center
 48
0.2
100
AcDbLine
 10
121.5380191025792
 20
119.834199544705
 30
0.0
 11
121.5380191025792
 21
94.83419954470504
 31
0.0
  0
LINE
  5
9E26
102
{ACAD_REACTORS
330
A5BF
102
}
330
18
100
AcDbEntity
  8
contour
 62
     4
100
AcDbLine
 10
119.5380191025792
 20
115.534199544705
 30
0.0
 11
119.5380191025792
 21
118.334199544705
 31
0.0
  0
LINE
  5
9E27
102
{ACAD_REACTORS
330
A5BF
102
}
330
18
100
AcDbEntity
  8
contour
100
AcDbLine
 10
119.9170191025793
 20
115.9131995447049
 30
0.0
 11
119.9170191025793
 21
118.334199544705
 31
0.0
  0
LINE
  5
9E28
102
{ACAD_REACTORS
330
A5BF
102
}
330
18
100
AcDbEntity
  8
contour
100
AcDbLine
 10
123.1590191025792
 20
115.913199544705
 30
0.0
 11
123.1590191025792
 21
118.334199544705
 31
0.0
  0
LINE
  5
9E29
102
{ACAD_REACTORS
330
A5BF
102
}
330
18
100
AcDbEntity
  8
contour
 62
     4
100
AcDbLine
 10
123.5380191025792
 20
115.534199544705
 30
0.0
 11
123.5380191025792
 21
118.334199544705
 31
0.0
  0
LINE
  5
9E2A
102
{ACAD_REACTORS
330
A5BF
102
}
330
18
100
AcDbEntity
  8
contour
100
AcDbLine
 10
125.0380191025792
 20
96.63419954470498
 30
0.0
 11
125.0380191025792
 21
96.33419954470504
 31
0.0
  0
LINE
  5
9E2B
102
{ACAD_REACTORS
330
A5BF
102
}
330
18
100
AcDbEntity
  8
contour
100
AcDbLine
 10
118.0380191025792
 20
96.6341995447051
 30
0.0
 11
118.0380191025792
 21
96.33419954470504
 31
0.0
  0
LINE
  5
9E2C
102
{ACAD_REACTORS
330
A5BF
102
}
330
18
100
AcDbEntity
  8
contour
100
AcDbLine
 10
118.7880191025792
 20
103.434199544705
 30
0.0
 11
119.5380191025792
 21
103.434199544705
 31
0.0
  0
LINE
  5
9E2D
102
{ACAD_REACTORS
330
A5BF
102
}
330
18
100
AcDbEntity
  8
contour
100
AcDbLine
 10
118.7880191025792
 20
101.434199544705
 30
0.0
 11
119.5380191025792
 21
101.434199544705
 31
0.0
  0
LINE
  5
9E30
102
{ACAD_REACTORS
330
A5BF
102
}
330
18
100
AcDbEntity
  8
contour
100
AcDbLine
 10
124.2880191025792
 20
106.234199544705
 30
0.0
 11
123.5380191025792
 21
106.234199544705
 31
0.0
  0
LINE
  5
9E31
102
{ACAD_REACTORS
330
A5BF
102
}
330
18
100
AcDbEntity
  8
contour
100
AcDbLine
 10
124.2880191025792
 20
104.234199544705
 30
0.0
 11
123.5380191025792
 21
104.234199544705
 31
0.0
  0
LINE
  5
9F22
330
18
100
AcDbEntity
  8
center
 48
0.3
100
AcDbLine
 10
96.03801910257926
 20
164.8176460917836
 30
0.0
 11
96.03801910257926
 21
227.8176460917836
 31
0.0
  0
LINE
  5
9F23
330
18
100
AcDbEntity
  8
center
 48
0.3
100
AcDbLine
 10
127.5380191025792
 20
196.3176460917836
 30
0.0
 11
64.53801910257926
 21
196.3176460917837
 31
0.0
  0
CIRCLE
  5
9F28
330
18
100
AcDbEntity
  8
contour
100
AcDbCircle
 10
96.03801910257926
 20
196.3176460917836
 30
0.0
 40
20.18800000000005
  0
CIRCLE
  5
9F29
330
18
100
AcDbEntity
  8
contour
100
AcDbCircle
 10
96.03801910257926
 20
196.3176460917836
 30
0.0
 40
21.68800000000008
  0
CIRCLE
  5
9F2A
330
18
100
AcDbEntity
  8
contour
100
AcDbCircle
 10
96.03801910257926
 20
196.3176460917836
 30
0.0
 40
30.0
  0
ARC
  5
9F2C
330
18
100
AcDbEntity
  8
contour
 62
     4
100
AcDbCircle
 10
96.03801910257926
 20
196.3176460917836
 30
0.0
 40
21.00000000000003
100
AcDbArc
 50
168.4630409671849
 51
101.5369590328148
  0
CIRCLE
  5
9F39
330
18
100
AcDbEntity
  8
contour
100
AcDbCircle
 10
121.5380191025792
 20
196.3176460917836
 30
0.0
 40
1.62099999999998
  0
ARC
  5
9F3A
330
18
100
AcDbEntity
  8
contour
 62
     4
100
AcDbCircle
 10
121.5380191025792
 20
196.3176460917836
 30
0.0
 40
1.999999999999943
100
AcDbArc
 50
168.4630409671835
 51
101.5369590328148
  0
CIRCLE
  5
9F3B
330
18
100
AcDbEntity
  8
bowle
 48
0.2
100
AcDbCircle
 10
121.5380191025792
 20
196.3176460917836
 30
0.0
 40
3.499999999999943
  0
CIRCLE
  5
9F3E
330
18
100
AcDbEntity
  8
contour
100
AcDbCircle
 10
96.03801910257926
 20
221.8176460917836
 30
0.0
 40
1.62099999999998
  0
CIRCLE
  5
9F3F
330
18
100
AcDbEntity
  8
bowle
 48
0.2
100
AcDbCircle
 10
96.03801910257926
 20
221.8176460917836
 30
0.0
 40
3.499999999999943
  0
CIRCLE
  5
9F40
330
18
100
AcDbEntity
  8
contour
100
AcDbCircle
 10
70.53801910257925
 20
196.3176460917837
 30
0.0
 40
1.62099999999998
  0
CIRCLE
  5
9F41
330
18
100
AcDbEntity
  8
bowle
 48
0.2
100
AcDbCircle
 10
70.53801910257925
 20
196.3176460917837
 30
0.0
 40
3.499999999999943
  0
CIRCLE
  5
9F42
330
18
100
AcDbEntity
  8
contour
100
AcDbCircle
 10
96.03801910257926
 20
170.8176460917836
 30
0.0
 40
1.62099999999998
  0
CIRCLE
  5
9F43
330
18
100
AcDbEntity
  8
bowle
 48
0.2
100
AcDbCircle
 10
96.03801910257926
 20
170.8176460917836
 30
0.0
 40
3.499999999999943
  0
ARC
  5
9F44
330
18
100
AcDbEntity
  8
contour
 62
     4
100
AcDbCircle
 10
96.03801910257926
 20
221.8176460917836
 30
0.0
 40
1.999999999999943
100
AcDbArc
 50
168.4630409671835
 51
101.5369590328148
  0
ARC
  5
9F45
330
18
100
AcDbEntity
  8
contour
 62
     4
100
AcDbCircle
 10
70.53801910257925
 20
196.3176460917837
 30
0.0
 40
1.999999999999943
100
AcDbArc
 50
168.4630409671835
 51
101.5369590328148
  0
ARC
  5
9F46
330
18
100
AcDbEntity
  8
contour
 62
     4
100
AcDbCircle
 10
96.03801910257926
 20
170.8176460917836
 30
0.0
 40
1.999999999999943
100
AcDbArc
 50
168.4630409671835
 51
101.5369590328148
  0
CIRCLE
  5
9F48
330
18
100
AcDbEntity
  8
bowle
 48
0.2
100
AcDbCircle
 10
77.47646609643232
 20
214.8791990979305
 30
0.0
 40
2.150000000000005
  0
CIRCLE
  5
9F49
330
18
100
AcDbEntity
  8
bowle
 48
0.2
100
AcDbCircle
 10
77.47646609643232
 20
214.8791990979305
 30
0.0
 40
2.650000000000005
  0
LINE
  5
9F4A
330
18
100
AcDbEntity
  8
center
 48
0.2
100
AcDbLine
 10
82.82360757576498
 20
209.5320576185979
 30
0.0
 11
73.764155495203
 21
218.5915096991599
 31
0.0
  0
LINE
  5
9F4B
330
18
100
AcDbEntity
  8
bowle
 48
0.2
100
AcDbLine
 10
79.06745635410209
 20
213.2882088402608
 30
0.0
 11
79.8146025809088
 21
216.0765965193868
 31
0.0
  0
LINE
  5
9F4C
330
18
100
AcDbEntity
  8
bowle
 48
0.2
100
AcDbLine
 10
79.06745635410209
 20
213.2882088402608
 30
0.0
 11
76.27906867497603
 21
212.5410626134541
 31
0.0
  0
LINE
  5
9F4D
330
18
100
AcDbEntity
  8
bowle
 48
0.2
100
AcDbLine
 10
76.94613601054243
 20
218.9450630897532
 30
0.0
 11
79.81460258090885
 21
216.0765965193868
 31
0.0
  0
LINE
  5
9F4E
330
18
100
AcDbEntity
  8
bowle
 48
0.2
100
AcDbLine
 10
73.41060210460972
 20
215.4095291838205
 30
0.0
 11
76.27906867497597
 21
212.5410626134541
 31
0.0
  0
LINE
  5
9F4F
330
18
100
AcDbEntity
  8
bowle
 48
0.2
100
AcDbLine
 10
79.8146025809088
 20
216.0765965193868
 30
0.0
 11
76.27906867497603
 21
212.5410626134541
 31
0.0
  0
LINE
  5
9F50
330
18
100
AcDbEntity
  8
bowle
 48
0.2
100
AcDbLine
 10
76.94613601054243
 20
218.9450630897532
 30
0.0
 11
73.41060210460966
 21
215.4095291838205
 31
0.0
  0
LINE
  5
9F51
330
18
100
AcDbEntity
  8
bowle
 48
0.2
100
AcDbLine
 10
73.41060210460966
 20
215.4095291838205
 30
0.0
 11
72.89714617176696
 21
215.4095291838205
 31
0.0
  0
LINE
  5
9F52
330
18
100
AcDbEntity
  8
bowle
 48
0.2
100
AcDbLine
 10
76.94613601054243
 20
218.9450630897532
 30
0.0
 11
76.94613601054243
 21
219.4585190225959
 31
0.0
  0
CIRCLE
  5
9F53
330
18
100
AcDbEntity
  8
bowle
 48
0.2
100
AcDbCircle
 10
77.47646609643232
 20
177.7560930856367
 30
0.0
 40
2.150000000000005
  0
CIRCLE
  5
9F54
330
18
100
AcDbEntity
  8
bowle
 48
0.2
100
AcDbCircle
 10
77.47646609643232
 20
177.7560930856367
 30
0.0
 40
2.650000000000005
  0
LINE
  5
9F55
330
18
100
AcDbEntity
  8
center
 48
0.2
100
AcDbLine
 10
82.82360757576498
 20
183.1032345649694
 30
0.0
 11
73.764155495203
 21
174.0437824844073
 31
0.0
  0
LINE
  5
9F56
330
18
100
AcDbEntity
  8
bowle
 48
0.2
100
AcDbLine
 10
79.06745635410209
 20
179.3470833433065
 30
0.0
 11
76.27906867497609
 21
180.0942295701132
 31
0.0
  0
LINE
  5
9F57
330
18
100
AcDbEntity
  8
bowle
 48
0.2
100
AcDbLine
 10
79.06745635410209
 20
179.3470833433065
 30
0.0
 11
79.81460258090874
 21
176.5586956641804
 31
0.0
  0
LINE
  5
9F58
330
18
100
AcDbEntity
  8
bowle
 48
0.2
100
AcDbLine
 10
73.41060210460966
 20
177.2257629997468
 30
0.0
 11
76.27906867497609
 21
180.0942295701132
 31
0.0
  0
LINE
  5
9F59
330
18
100
AcDbEntity
  8
bowle
 48
0.2
100
AcDbLine
 10
76.94613601054243
 20
173.6902290938141
 30
0.0
 11
79.81460258090874
 21
176.5586956641804
 31
0.0
  0
LINE
  5
9F5A
330
18
100
AcDbEntity
  8
bowle
 48
0.2
100
AcDbLine
 10
76.27906867497609
 20
180.0942295701132
 30
0.0
 11
79.81460258090874
 21
176.5586956641804
 31
0.0
  0
LINE
  5
9F5B
330
18
100
AcDbEntity
  8
bowle
 48
0.2
100
AcDbLine
 10
73.41060210460966
 20
177.2257629997468
 30
0.0
 11
76.94613601054243
 21
173.6902290938141
 31
0.0
  0
LINE
  5
9F5C
330
18
100
AcDbEntity
  8
bowle
 48
0.2
100
AcDbLine
 10
76.94613601054243
 20
173.6902290938141
 30
0.0
 11
76.94613601054243
 21
173.1767731609713
 31
0.0
  0
LINE
  5
9F5D
330
18
100
AcDbEntity
  8
bowle
 48
0.2
100
AcDbLine
 10
73.41060210460966
 20
177.2257629997468
 30
0.0
 11
72.89714617176696
 21
177.2257629997468
 31
0.0
  0
CIRCLE
  5
9F5E
330
18
100
AcDbEntity
  8
bowle
 48
0.2
100
AcDbCircle
 10
114.5995721087261
 20
177.7560930856367
 30
0.0
 40
2.150000000000005
  0
CIRCLE
  5
9F5F
330
18
100
AcDbEntity
  8
bowle
 48
0.2
100
AcDbCircle
 10
114.5995721087261
 20
177.7560930856367
 30
0.0
 40
2.650000000000005
  0
LINE
  5
9F60
330
18
100
AcDbEntity
  8
center
 48
0.2
100
AcDbLine
 10
109.2524306293934
 20
183.1032345649694
 30
0.0
 11
118.3118827099555
 21
174.0437824844073
 31
0.0
  0
LINE
  5
9F61
330
18
100
AcDbEntity
  8
bowle
 48
0.2
100
AcDbLine
 10
113.0085818510564
 20
179.3470833433065
 30
0.0
 11
112.2614356242496
 21
176.5586956641804
 31
0.0
  0
LINE
  5
9F62
330
18
100
AcDbEntity
  8
bowle
 48
0.2
100
AcDbLine
 10
113.0085818510564
 20
179.3470833433065
 30
0.0
 11
115.7969695301824
 21
180.0942295701131
 31
0.0
  0
LINE
  5
9F63
330
18
100
AcDbEntity
  8
bowle
 48
0.2
100
AcDbLine
 10
115.129902194616
 20
173.6902290938141
 30
0.0
 11
112.2614356242496
 21
176.5586956641805
 31
0.0
  0
LINE
  5
9F64
330
18
100
AcDbEntity
  8
bowle
 48
0.2
100
AcDbLine
 10
118.6654361005487
 20
177.2257629997468
 30
0.0
 11
115.7969695301825
 21
180.0942295701131
 31
0.0
  0
LINE
  5
9F65
330
18
100
AcDbEntity
  8
bowle
 48
0.2
100
AcDbLine
 10
112.2614356242496
 20
176.5586956641804
 30
0.0
 11
115.7969695301824
 21
180.0942295701131
 31
0.0
  0
LINE
  5
9F66
330
18
100
AcDbEntity
  8
bowle
 48
0.2
100
AcDbLine
 10
115.129902194616
 20
173.6902290938141
 30
0.0
 11
118.6654361005488
 21
177.2257629997468
 31
0.0
  0
LINE
  5
9F67
330
18
100
AcDbEntity
  8
bowle
 48
0.2
100
AcDbLine
 10
118.6654361005488
 20
177.2257629997468
 30
0.0
 11
119.1788920333915
 21
177.2257629997468
 31
0.0
  0
LINE
  5
9F68
330
18
100
AcDbEntity
  8
bowle
 48
0.2
100
AcDbLine
 10
115.129902194616
 20
173.6902290938141
 30
0.0
 11
115.129902194616
 21
173.1767731609713
 31
0.0
  0
CIRCLE
  5
9F69
330
18
100
AcDbEntity
  8
bowle
 48
0.2
100
AcDbCircle
 10
114.5995721087262
 20
214.8791990979305
 30
0.0
 40
2.150000000000005
  0
CIRCLE
  5
9F6A
330
18
100
AcDbEntity
  8
bowle
 48
0.2
100
AcDbCircle
 10
114.5995721087262
 20
214.8791990979305
 30
0.0
 40
2.650000000000005
  0
LINE
  5
9F6B
330
18
100
AcDbEntity
  8
center
 48
0.2
100
AcDbLine
 10
109.2524306293934
 20
209.5320576185979
 30
0.0
 11
118.3118827099555
 21
218.5915096991599
 31
0.0
  0
LINE
  5
9F6C
330
18
100
AcDbEntity
  8
bowle
 48
0.2
100
AcDbLine
 10
113.0085818510564
 20
213.2882088402608
 30
0.0
 11
115.7969695301824
 21
212.5410626134541
 31
0.0
  0
LINE
  5
9F6D
330
18
100
AcDbEntity
  8
bowle
 48
0.2
100
AcDbLine
 10
113.0085818510564
 20
213.2882088402608
 30
0.0
 11
112.2614356242497
 21
216.0765965193868
 31
0.0
  0
LINE
  5
9F6E
330
18
100
AcDbEntity
  8
bowle
 48
0.2
100
AcDbLine
 10
118.6654361005488
 20
215.4095291838205
 30
0.0
 11
115.7969695301824
 21
212.5410626134541
 31
0.0
  0
LINE
  5
9F6F
330
18
100
AcDbEntity
  8
bowle
 48
0.2
100
AcDbLine
 10
115.129902194616
 20
218.9450630897532
 30
0.0
 11
112.2614356242497
 21
216.0765965193869
 31
0.0
  0
LINE
  5
9F70
330
18
100
AcDbEntity
  8
bowle
 48
0.2
100
AcDbLine
 10
115.7969695301824
 20
212.5410626134541
 30
0.0
 11
112.2614356242497
 21
216.0765965193868
 31
0.0
  0
LINE
  5
9F71
330
18
100
AcDbEntity
  8
bowle
 48
0.2
100
AcDbLine
 10
118.6654361005488
 20
215.4095291838205
 30
0.0
 11
115.129902194616
 21
218.9450630897532
 31
0.0
  0
LINE
  5
9F72
330
18
100
AcDbEntity
  8
bowle
 48
0.2
100
AcDbLine
 10
115.129902194616
 20
218.9450630897532
 30
0.0
 11
115.129902194616
 21
219.4585190225959
 31
0.0
  0
LINE
  5
9F73
330
18
100
AcDbEntity
  8
bowle
 48
0.2
100
AcDbLine
 10
118.6654361005488
 20
215.4095291838205
 30
0.0
 11
119.1788920333915
 21
215.4095291838204
 31
0.0
  0
CIRCLE
  5
9F76
330
18
100
AcDbEntity
  8
center
 48
0.3
100
AcDbCircle
 10
96.03801910257926
 20
196.3176460917836
 30
0.0
 40
25.49999999999997
  0
ARC
  5
9F77
330
18
100
AcDbEntity
  8
center
 48
0.2
100
AcDbCircle
 10
96.03801910257926
 20
196.3176460917836
 30
0.0
 40
26.25000000000002
100
AcDbArc
 50
120.8859494699257
 51
167.0712818702158
  0
ARC
  5
9F7B
330
18
100
AcDbEntity
  8
center
 48
0.2
100
AcDbCircle
 10
96.03801910257926
 20
196.3176460917836
 30
0.0
 40
26.25000000000002
100
AcDbArc
 50
210.8859494699266
 51
239.1140505300742
  0
ARC
  5
9F7C
330
18
100
AcDbEntity
  8
center
 48
0.2
100
AcDbCircle
 10
96.03801910257926
 20
196.3176460917836
 30
0.0
 40
26.25000000000002
100
AcDbArc
 50
300.8859494699259
 51
347.0712818702158
  0
ARC
  5
9F7D
330
18
100
AcDbEntity
  8
center
 48
0.2
100
AcDbCircle
 10
96.03801910257926
 20
196.3176460917837
 30
0.0
 40
26.25000000000002
100
AcDbArc
 50
30.88594946992657
 51
59.11405053007418
  0
LEADER
  5
A33E
330
18
100
AcDbEntity
  8
mark
100
AcDbLeader
  3
STANDARD
 76
     2
 10
116.9760191025792
 20
97.08419954470503
 30
0.0
 10
108.1444838492672
 20
88.25266429139302
 30
0.0
1001
ACAD
1000
DSTYLE
1002
{
1070
   147
1040
0.85
1070
    77
1070
     0
1002
}
  0
MTEXT
  5
A33F
330
18
100
AcDbEntity
  8
mark
 62
     3
100
AcDbMText
 10
109.4494750638185
 20
92.34169733278845
 30
0.0
 40
2.5
 41
0.0
 71
     5
 72
     1
  1
C1.5
 11
0.7071067811865476
 21
0.7071067811865475
 31
0.0
 73
     1
 44
1.0
1001
ACAD
1000
ACAD_MTEXT_DEFINED_HEIGHT_BEGIN
1070
    46
1040
0.0
1000
ACAD_MTEXT_DEFINED_HEIGHT_END
  0
LEADER
  5
A340
330
18
100
AcDbEntity
  8
mark
100
AcDbLeader
  3
STANDARD
 76
     3
 10
66.03801910257925
 20
111.334199544705
 30
0.0
 10
58.96695129071384
 20
104.2631317328395
 30
0.0
 10
40.24150484419396
 20
104.2631317328395
 30
0.0
1001
ACAD
1000
DSTYLE
1002
{
1070
   147
1040
0.85
1070
    77
1070
     0
1002
}
  0
MTEXT
  5
A341
330
18
100
AcDbEntity
  8
mark
 62
     3
100
AcDbMText
 10
49.26951391167609
 20
106.417127651951
 30
0.0
 40
2.5
 41
0.0
 71
     5
 72
     1
  1
{\Ftxt,bigfont|c136;4-%%C5\Ftxt,bigfont|c128;深さ6}
 73
     1
 44
1.0
1001
ACAD
1000
ACAD_MTEXT_DEFINED_HEIGHT_BEGIN
1070
    46
1040
0.0
1000
ACAD_MTEXT_DEFINED_HEIGHT_END
  0
LEADER
  5
A342
330
18
100
AcDbEntity
  8
mark
100
AcDbLeader
  3
STANDARD
 76
     3
 10
69.78801910257925
 20
96.33419954470504
 30
0.0
 10
58.96695129071384
 20
85.5131317328396
 30
0.0
 10
37.22120920094096
 20
85.5131317328396
 30
0.0
1001
ACAD
1000
DSTYLE
1002
{
1070
   147
1040
0.85
1070
    77
1070
     0
1002
}
  0
MTEXT
  5
A343
330
18
100
AcDbEntity
  8
mark
 62
     3
100
AcDbMText
 10
47.75759896970567
 20
87.6671276519511
 30
0.0
 40
2.5
 41
0.0
 71
     5
 72
     1
  1
{\Ftxt,bigfont|c136;4-%%C4.3\Ftxt,bigfont|c128;深さ4}
 73
     1
 44
1.0
1001
ACAD
1000
ACAD_MTEXT_DEFINED_HEIGHT_BEGIN
1070
    46
1040
0.0
1000
ACAD_MTEXT_DEFINED_HEIGHT_END
  0
LINE
  5
A344
330
18
100
AcDbEntity
  8
mark
100
AcDbLine
 10
143.4561379129417
 20
123.334199544705
 30
0.0
 11
148.4561379129417
 21
123.334199544705
 31
0.0
  0
TOLERANCE
  5
A345
330
18
100
AcDbEntity
  8
mark
100
AcDbFcf
  3
STANDARD
 10
148.4561379129417
 20
123.334199544705
 30
0.0
  1
{\Fgdt;h}%%v0.005%%v%%vA%%v%%v
  0
TOLERANCE
  5
A346
330
18
100
AcDbEntity
  8
mark
100
AcDbFcf
  3
STANDARD
 10
85.03801910257925
 20
72.64259836316664
 30
0.0
  1
%%v%%v%%vA%%v%%v
  0
HATCH
  5
A347
330
18
100
AcDbEntity
  8
mark
100
AcDbHatch
 10
0.0
 20
0.0
 30
0.0
210
0.0
220
0.0
230
1.0
  2
SOLID
 70
     1
 71
     0
 91
        2
 92
        7
 72
     0
 73
     1
 93
        3
 10
75.03801910257926
 20
75.1425983631666
 10
75.03801910257926
 20
72.64259836316664
 10
77.53801910257926
 20
72.64259836316664
 97
        0
 92
        7
 72
     0
 73
     1
 93
        3
 10
77.53801910257926
 20
72.64259836316664
 10
75.03801910257926
 20
72.64259836316664
 10
75.03801910257926
 20
70.14259836316665
 97
        0
 75
     0
 76
     1
 47
0.1023763232943895
 98
        2
 10
75.93834082967305
 20
73.58125368079107
 10
75.63109695212403
 20
72.14798545011276
450
        0
451
        0
460
0.0
461
0.0
452
        1
462
1.0
453
        2
463
0.0
 63
     5
421
      255
463
1.0
 63
     7
421
 16777215
470
LINEAR
1001
ACAD
1010
0.0
1020
0.0
1030
0.0
  0
LINE
  5
A348
330
18
100
AcDbEntity
  8
mark
100
AcDbLine
 10
75.03801910257926
 20
72.64259836316664
 30
0.0
 11
85.03801910257925
 21
72.64259836316664
 31
0.0
  0
LINE
  5
A349
330
18
100
AcDbEntity
  8
mark
100
AcDbLine
 10
75.03801910257926
 20
75.14259836316664
 30
0.0
 11
77.53801910257926
 21
72.64259836316664
 31
0.0
  0
LINE
  5
A34A
330
18
100
AcDbEntity
  8
mark
100
AcDbLine
 10
77.53801910257926
 20
72.64259836316664
 30
0.0
 11
75.03801910257926
 21
70.14259836316664
 31
0.0
  0
LINE
  5
A34B
330
18
100
AcDbEntity
  8
mark
100
AcDbLine
 10
75.03801910257926
 20
70.14259836316664
 30
0.0
 11
75.03801910257926
 21
72.64259836316664
 31
0.0
  0
LINE
  5
A34C
330
18
100
AcDbEntity
  8
mark
100
AcDbLine
 10
75.03801910257926
 20
82.64259836316664
 30
0.0
 11
75.03801910257926
 21
72.64259836316664
 31
0.0
  0
DIMENSION
  5
A34D
330
18
100
AcDbEntity
  8
mark
100
AcDbDimension
  2
*D5
 10
71.85323874076482
 20
188.2339341442438
 30
0.0
 11
134.8534376077518
 21
209.2916180536889
 31
0.0
 70
   163
  1
P.C.D 51
 71
     5
 42
50.99999999999988
  3
STANDARD
100
AcDbDiametricDimension
 15
120.2227994643935
 25
204.4013580393232
 35
0.0
 40
0.0
1001
ACAD
1000
DSTYLE
1002
{
1070
   288
1070
     1
1002
}
  0
DIMENSION
  5
A35B
330
18
100
AcDbEntity
  8
mark
100
AcDbDimension
  2
*D6
 10
121.1286510503402
 20
188.6025512471301
 30
0.0
 11
56.81289621310394
 21
210.5759774136227
 31
0.0
 70
    35
  1
P.C.D 52.5
 71
     5
 42
52.50000000000002
  3
STANDARD
100
AcDbDiametricDimension
 15
70.94738715481838
 25
204.0327409364373
 35
0.0
 40
0.0
1001
ACAD
1000
DSTYLE
1002
{
1070
   288
1070
     1
1002
}
  0
DIMENSION
  5
A367
330
18
100
AcDbEntity
  8
mark
100
AcDbDimension
  2
*D7
 10
126.0380191025792
 20
125.5085232864621
 30
0.0
 11
96.03801910257926
 21
127.6085232864621
 31
0.0
 70
    32
  1
%%c60
 71
     5
 42
60.0
  3
STANDARD
100
AcDbAlignedDimension
 13
66.03801910257925
 23
117.334199544705
 33
0.0
 14
126.0380191025792
 24
117.334199544705
 34
0.0
100
AcDbRotatedDimension
  0
MTEXT
  5
A374
330
18
100
AcDbEntity
  8
mark
 62
     3
100
AcDbMText
 10
99.70640001424953
 20
127.8778436302332
 30
0.0
 40
1.25
 41
0.0
 71
     4
 72
     1
  1
{\Ftxt,bigfont|c136;+0\P-0.2}
 73
     1
 44
1.0
1001
ACAD
1000
ACAD_MTEXT_DEFINED_HEIGHT_BEGIN
1070
    46
1040
0.0
1000
ACAD_MTEXT_DEFINED_HEIGHT_END
  0
DIMENSION
  5
A375
330
18
100
AcDbEntity
  8
mark
100
AcDbDimension
  2
*D8
 10
59.91231627277568
 20
118.334199544705
 30
0.0
 11
57.81231627277566
 21
114.834199544705
 31
0.0
 70
    32
 71
     5
 42
7.0
  3
STANDARD
100
AcDbAlignedDimension
 13
64.53801910257926
 23
111.334199544705
 33
0.0
 14
67.03801910257926
 24
118.334199544705
 34
0.0
 50
90.0
100
AcDbRotatedDimension
  0
DIMENSION
  5
A382
330
18
100
AcDbEntity
  8
mark
100
AcDbDimension
  2
*D9
 10
136.6083692776591
 20
103.434199544705
 30
0.0
 11
134.5083692776591
 21
110.884199544705
 31
0.0
 70
    32
 71
     5
 42
14.9
  3
STANDARD
100
AcDbAlignedDimension
 13
125.0380191025792
 23
118.334199544705
 33
0.0
 14
125.0380191025792
 24
103.434199544705
 34
0.0
 50
90.0
100
AcDbRotatedDimension
  0
DIMENSION
  5
A3A9
330
18
100
AcDbEntity
  8
mark
100
AcDbDimension
  2
*D10
 10
143.4561379129417
 20
118.334199544705
 30
0.0
 11
141.3561379129417
 21
107.334199544705
 31
0.0
 70
    32
  1
22%%P0.2
 71
     5
 42
22.0
  3
STANDARD
100
AcDbAlignedDimension
 13
125.0380191025792
 23
96.33419954470504
 33
0.0
 14
125.0380191025792
 24
118.334199544705
 34
0.0
 50
90.0
100
AcDbRotatedDimension
  0
LINE
  5
A3B6
330
18
100
AcDbEntity
  8
mark
100
AcDbLine
 10
125.8880191025792
 20
103.434199544705
 30
0.0
 11
137.4583692776591
 21
103.434199544705
 31
0.0
  0
LINE
  5
A3B7
330
18
100
AcDbEntity
  8
mark
100
AcDbLine
 10
125.8880191025792
 20
101.434199544705
 30
0.0
 11
137.4583692776591
 21
101.434199544705
 31
0.0
  0
LINE
  5
A3B8
330
18
100
AcDbEntity
  8
mark
100
AcDbLine
 10
136.6083692776591
 20
105.934199544705
 30
0.0
 11
136.6083692776591
 21
108.434199544705
 31
0.0
  0
LINE
  5
A3B9
330
18
100
AcDbEntity
  8
mark
100
AcDbLine
 10
136.6083692776591
 20
98.93419954470502
 30
0.0
 11
136.6083692776591
 21
97.68419954470502
 31
0.0
  0
LINE
  5
A3BA
330
18
100
AcDbEntity
  8
mark
100
AcDbLine
 10
136.6083692776591
 20
103.434199544705
 30
0.0
 11
136.6083692776591
 21
101.434199544705
 31
0.0
  0
INSERT
  5
A3BB
330
18
100
AcDbEntity
  8
mark
100
AcDbBlockReference
  2
_Open30
 10
136.6083692776591
 20
103.434199544705
 30
0.0
 41
2.5
 42
2.5
 43
2.5
 50
270.0
  0
INSERT
  5
A3BC
330
18
100
AcDbEntity
  8
mark
100
AcDbBlockReference
  2
_Open30
 10
136.6083692776591
 20
101.434199544705
 30
0.0
 41
2.5
 42
2.5
 43
2.5
 50
90.0
  0
MTEXT
  5
A3BD
330
18
100
AcDbEntity
  8
mark
 62
     3
100
AcDbMText
 10
134.5083692776591
 20
102.434199544705
 30
0.0
 40
2.5
 41
0.0
 71
     5
 72
     1
  1
\A1;2
 11
0.0000000000000001
 21
1.0
 31
0.0
 73
     1
 44
1.0
  0
DIMENSION
  5
A3C5
330
18
100
AcDbEntity
  8
mark
100
AcDbDimension
  2
*D11
 10
67.03801910257929
 20
97.33419954470498
 30
0.0
 11
59.53090210898184
 21
92.79693103209174
 31
0.0
 70
    36
 71
     5
 42
1.000000000000028
  3
STANDARD
100
AcDbRadialDimension
 15
66.33091232139268
 25
96.62709276351847
 35
0.0
 40
0.0
1001
ACAD
1000
DSTYLE
1002
{
1070
   288
1070
     1
1002
}
  0
DIMENSION
  5
A3D5
330
18
100
AcDbEntity
  8
mark
100
AcDbDimension
  2
*D12
 10
75.03801910257926
 20
83.49259836316665
 30
0.0
 11
96.03801910257926
 21
85.59259836316664
 31
0.0
 70
    32
  1
M42X15P
 71
     5
 42
42.0
  3
STANDARD
100
AcDbAlignedDimension
 13
117.0380191025792
 23
97.02219954470502
 33
0.0
 14
75.03801910257926
 24
97.02219954470502
 34
0.0
100
AcDbRotatedDimension
  0
LINE
  5
A3EB
330
18
100
AcDbEntity
  8
mark
100
AcDbLine
 10
143.4561379129417
 20
118.334199544705
 30
0.0
 11
143.4561379129417
 21
123.334199544705
 31
0.0
  0
LEADER
  5
A3EC
330
18
100
AcDbEntity
  8
mark
100
AcDbLeader
  3
STANDARD
 76
     2
 10
122.0187812161124
 20
181.3176460917836
 30
0.0
 10
133.4588096324447
 20
174.7127426060772
 30
0.0
211
0.8660254037844383
221
-0.5000000000000005
231
0.0
1001
ACAD
1000
DSTYLE
1002
{
1070
   147
1040
0.85
1070
    77
1070
     0
1002
}
  0
MTEXT
  5
A3ED
330
18
100
AcDbEntity
  8
mark
 62
     3
100
AcDbMText
 10
136.2344360904197
 20
174.7742915600529
 30
0.0
 40
5.0
 41
0.0
 71
     5
 72
     1
  1
{\Ftxt,bigfont|c136;1}
 73
     1
 44
1.0
1001
ACAD
1000
ACAD_MTEXT_DEFINED_HEIGHT_BEGIN
1070
    46
1040
0.0
1000
ACAD_MTEXT_DEFINED_HEIGHT_END
  0
LEADER
  5
A3EE
330
18
100
AcDbEntity
  8
mark
100
AcDbLeader
  3
STANDARD
 76
     2
 10
121.5380191025792
 20
96.33419954470504
 30
0.0
 10
133.4588096324447
 20
89.45172792333407
 30
0.0
211
0.8660254037844383
221
-0.5000000000000005
231
0.0
1001
ACAD
1000
DSTYLE
1002
{
1070
   147
1040
0.85
1070
    77
1070
     0
1002
}
  0
MTEXT
  5
A3F2
330
18
100
AcDbEntity
  8
mark
 62
     3
100
AcDbMText
 10
136.2344360904197
 20
89.51327687730977
 30
0.0
 40
5.0
 41
0.0
 71
     5
 72
     1
  1
{\Ftxt,bigfont|c136;2}
 73
     1
 44
1.0
1001
ACAD
1000
ACAD_MTEXT_DEFINED_HEIGHT_BEGIN
1070
    46
1040
0.0
1000
ACAD_MTEXT_DEFINED_HEIGHT_END
  0
HATCH
  5
A5BF
330
18
100
AcDbEntity
  8
section
100
AcDbHatch
 10
0.0
 20
0.0
 30
0.0
210
0.0
220
0.0
230
1.0
  2
ANSI31
 70
     0
 71
     1
 91
       12
 92
        7
 72
     1
 73
     1
 93
       28
 10
75.03801910257926
 20
117.6461995447049
 42
0.0
 10
74.35001910257921
 20
118.334199544705
 42
0.0
 10
67.03801910257926
 20
118.334199544705
 42
0.4142135623730951
 10
66.03801910257925
 20
117.334199544705
 42
0.0
 10
66.03801910257927
 20
114.334199544705
 42
0.0
 10
66.53801910257925
 20
113.834199544705
 42
0.0
 10
70.5946434296052
 20
113.834199544705
 42
0.0
 10
72.03801910257926
 20
111.334199544705
 42
0.0
 10
70.59464342960518
 20
108.834199544705
 42
0.0
 10
66.53801910257927
 20
108.834199544705
 42
0.0
 10
66.03801910257925
 20
108.334199544705
 42
0.0
 10
66.03801910257925
 20
104.434199544705
 42
0.4142135623730951
 10
67.03801910257926
 20
103.434199544705
 42
0.0
 10
73.28801910257926
 20
103.434199544705
 42
0.0
 10
73.28801910257926
 20
101.434199544705
 42
0.0
 10
69.78801910257925
 20
101.434199544705
 42
0.0
 10
69.78801910257925
 20
100.334199544705
 42
0.0
 10
71.93801910257923
 20
99.09289646594734
 42
0.0
 10
71.93801910257923
 20
96.83419954470503
 42
0.0
 10
72.43801910257921
 20
96.33419954470504
 42
0.0
 10
74.35001910257925
 20
96.33419954470502
 42
0.0
 10
75.03801910257926
 20
97.02219954470502
 42
0.0
 10
75.03801910257926
 20
103.546199544705
 42
0.0
 10
74.35001910257921
 20
104.2341995447051
 42
0.0
 10
67.78801910257927
 20
104.2341995447051
 42
0.0
 10
67.78801910257925
 20
106.234199544705
 42
0.0
 10
74.35001910257931
 20
106.234199544705
 42
0.0
 10
75.03801910257926
 20
106.922199544705
 42
0.0
 97
       27
330
9D92
330
9D54
330
9D58
330
9D57
330
9D7B
330
9D76
330
9D74
330
9D75
330
9D77
330
9D7A
330
9D62
330
9D61
330
9D6B
330
9D5E
330
9D71
330
9D5D
330
9D6E
330
9D6F
330
9D5B
330
9D98
330
9D97
330
9D96
330
9D83
330
9D86
330
9D84
330
9D94
330
9D93
 92
        7
 72
     0
 73
     1
 93
        4
 10
75.85001910257921
 20
116.834199544705
 10
75.03801910257926
 20
117.6461995447049
 10
75.03801910257926
 20
106.922199544705
 10
75.85001910257926
 20
107.734199544705
 97
        4
330
9D92
330
9D93
330
9D94
330
9D91
 92
        7
 72
     1
 73
     1
 93
        9
 10
69.78801910257925
 20
100.334199544705
 42
0.0
 10
69.78801910257925
 20
101.434199544705
 42
0.0
 10
67.03801910257926
 20
101.434199544705
 42
0.4142135623730951
 10
66.03801910257925
 20
100.434199544705
 42
0.0
 10
66.03801910257925
 20
97.33419954470504
 42
0.4142135623730951
 10
67.03801910257926
 20
96.33419954470504
 42
0.0
 10
67.13801910257927
 20
96.33419954470504
 42
0.0
 10
67.63801910257928
 20
96.83419954470503
 42
0.0
 10
67.63801910257928
 20
99.09289646594732
 42
0.0
 97
        9
330
9D71
330
9D5E
330
9D5A
330
9D59
330
9D5C
330
9D5B
330
9D6D
330
9D6C
330
9D72
 92
        7
 72
     0
 73
     1
 93
        4
 10
75.85001910257926
 20
102.734199544705
 10
75.03801910257926
 20
103.546199544705
 10
75.03801910257926
 20
97.022199544705
 10
75.85001910257926
 20
97.83419954470504
 97
        4
330
9D96
330
9D97
330
9D98
330
9D95
 92
        7
 72
     0
 73
     1
 93
        4
 10
117.0380191025792
 20
117.646199544705
 10
116.2260191025792
 20
116.834199544705
 10
116.2260191025792
 20
107.734199544705
 10
117.0380191025792
 20
106.922199544705
 97
        4
330
9D8A
330
9D89
330
9D8C
330
9D8B
 92
        7
 72
     0
 73
     1
 93
        7
 10
119.5380191025793
 20
115.534199544705
 10
119.5380191025792
 20
118.334199544705
 10
117.7260191025792
 20
118.334199544705
 10
117.0380191025792
 20
117.646199544705
 10
117.0380191025792
 20
106.922199544705
 10
117.7260191025792
 20
106.234199544705
 10
119.5380191025793
 20
106.234199544705
 97
        7
330
9E26
330
9D54
330
9D8A
330
9D8B
330
9D8C
330
9D84
330
9D9E
 92
        7
 72
     0
 73
     1
 93
        4
 10
117.0380191025793
 20
103.546199544705
 10
116.2260191025792
 20
102.734199544705
 10
116.2260191025792
 20
97.83419954470502
 10
117.0380191025792
 20
97.022199544705
 97
        4
330
9D8E
330
9D8D
330
9D90
330
9D8F
 92
        7
 72
     0
 73
     1
 93
       13
 10
119.5380191025793
 20
101.434199544705
 10
118.7880191025792
 20
101.434199544705
 10
118.7880191025792
 20
103.434199544705
 10
119.5380191025792
 20
103.434199544705
 10
119.5380191025792
 20
104.234199544705
 10
117.7260191025792
 20
104.234199544705
 10
117.0380191025793
 20
103.546199544705
 10
117.0380191025792
 20
97.022199544705
 10
117.7260191025792
 20
96.33419954470504
 10
118.0380191025792
 20
96.33419954470504
 10
118.0380191025792
 20
96.6341995447051
 10
118.0380191025793
 20
100.334199544705
 10
119.5380191025793
 20
100.334199544705
 97
       10
330
9E2D
330
9D6A
330
9E2C
330
9D9E
330
9D83
330
9D8E
330
9D8F
330
9D90
330
9D5B
330
9E2B
 92
        7
 72
     1
 73
     1
 93
        8
 10
126.0380191025792
 20
100.434199544705
 42
0.4142135623730951
 10
125.0380191025792
 20
101.434199544705
 42
0.0
 10
123.5380191025792
 20
101.434199544705
 42
0.0
 10
123.5380191025793
 20
100.334199544705
 42
0.0
 10
125.0380191025793
 20
100.334199544705
 42
0.0
 10
125.0380191025793
 20
96.63419954470498
 42
0.0
 10
125.0380191025792
 20
96.33419954470504
 42
0.4142135623730951
 10
126.0380191025792
 20
97.33419954470504
 42
0.0
 97
        6
330
9D60
330
9D5F
330
9D9E
330
9E2A
330
9D65
330
9D64
 92
        7
 72
     1
 73
     1
 93
       11
 10
126.0380191025792
 20
117.334199544705
 42
0.4142135623730951
 10
125.0380191025792
 20
118.334199544705
 42
0.0
 10
123.5380191025792
 20
118.334199544705
 42
0.0
 10
123.5380191025792
 20
115.534199544705
 42
0.0
 10
123.5380191025792
 20
106.234199544705
 42
0.0
 10
124.2880191025792
 20
106.234199544705
 42
0.0
 10
124.2880191025792
 20
104.234199544705
 42
0.0
 10
123.5380191025792
 20
104.234199544705
 42
0.0
 10
123.5380191025793
 20
103.434199544705
 42
0.0
 10
125.0380191025792
 20
103.434199544705
 42
0.4142135623730951
 10
126.0380191025792
 20
104.434199544705
 42
0.0
 97
       10
330
9D55
330
9D54
330
9E29
330
9D9E
330
9E30
330
9D69
330
9E31
330
9D63
330
9D67
330
9D66
 92
        7
 72
     0
 73
     1
 93
        4
 10
123.5380191025792
 20
118.334199544705
 10
123.1590191025792
 20
118.334199544705
 10
123.1590191025792
 20
115.913199544705
 10
123.5380191025792
 20
115.534199544705
 97
        4
330
9D54
330
9E28
330
9D9E
330
9E29
 92
        7
 72
     0
 73
     1
 93
        4
 10
119.9170191025793
 20
118.334199544705
 10
119.5380191025792
 20
118.334199544705
 10
119.5380191025792
 20
115.5341995447049
 10
119.9170191025793
 20
115.913199544705
 97
        4
330
9D54
330
9E26
330
9D9E
330
9E27
 75
     0
 76
     1
 52
0.0
 41
0.5
 77
     0
 78
     1
 53
45.0
 43
0.0
 44
0.0
 45
-1.122532015133643
 46
1.122532015133644
 79
     0
 47
0.0688231421758131
 98
       12
 10
70.7008516088539
 20
114.5478749320026
 10
75.34624193862055
 20
110.8052336303718
 10
67.51147900745957
 20
99.92385088617982
 10
75.69291291322497
 20
99.7159266410061
 10
116.6534587367822
 20
109.9531470754938
 10
118.4435323858966
 20
109.8843240837825
 10
116.860005836667
 20
101.4879006690967
 10
118.0992872194221
 20
101.3502543096352
 10
125.6726747990959
 20
99.76732173988626
 10
125.3284296326213
 20
105.410819845536
 10
123.4006585251937
 20
117.179576998815
 10
119.6139647353568
 20
116.9042846559308
1001
ACAD
1010
0.0
1020
0.0
1030
0.0
  0
MTEXT
  5
A5D8
330
18
100
AcDbEntity
  8
0
100
AcDbMText
 10
47.65097232190476
 20
19.07605901616614
 30
0.0
 40
4.5
 41
0.0
 71
     1
 72
     5
  1
{\Ftxt,bigfont|c128;小\~柳}
  7
JL
 73
     1
 44
1.0
1001
ACAD
1000
ACAD_MTEXT_DEFINED_HEIGHT_BEGIN
1070
    46
1040
0.0
1000
ACAD_MTEXT_DEFINED_HEIGHT_END
  0
MTEXT
  5
A5EF
330
18
100
AcDbEntity
  8
dim
100
AcDbMText
 10
9.878487274079247
 20
40.50392222760069
 30
0.0
 40
4.5
 41
0.0
 71
     1
 72
     5
  1
{\Ftxt,bigfont|c128;07.10.03\~寸法一部変更  林}
  7
JL
 73
     1
 44
1.0
1001
ACAD
1000
ACAD_MTEXT_DEFINED_HEIGHT_BEGIN
1070
    46
1040
0.0
1000
ACAD_MTEXT_DEFINED_HEIGHT_END
  0
CIRCLE
  5
A5F2
330
18
100
AcDbEntity
  8
dim
100
AcDbCircle
 10
44.45615680304263
 20
38.18132878320341
 30
0.0
 40
2.750054604459023
  0
LWPOLYLINE
  5
A5F5
330
18
100
AcDbEntity
  8
mark
100
AcDbPolyline
 90
        3
 70
     1
 43
0.0
 10
131.2602389322451
 20
122.243859723754
 10
135.7602389322451
 20
119.6457835124006
 10
135.7602389322451
 20
124.8419359351073
  0
TEXT
  5
A5F6
330
18
100
AcDbEntity
  8
dim
100
AcDbText
 10
135.2010239963016
 20
121.8630961194428
 30
0.0
 40
2.5
  1
1
 50
90.0
  7
TXT
100
AcDbText
  0
MTEXT
  5
A612
330
18
100
AcDbEntity
  8
mark
 62
     3
100
AcDbMText
 10
134.5083692776591
 20
130.6369873009858
 30
0.0
 40
2.5
 41
0.0
 71
     5
 72
     1
  1
14.25
 11
0.0000000000000001
 21
1.0
 31
0.0
 73
     1
 44
1.0
1001
ACAD
1000
ACAD_MTEXT_DEFINED_HEIGHT_BEGIN
1070
    46
1040
0.0
1000
ACAD_MTEXT_DEFINED_HEIGHT_END
  0
LINE
  5
A613
330
18
100
AcDbEntity
  8
mark
 62
     1
100
AcDbLine
 10
134.0682095775557
 20
114.6354020363768
 30
0.0
 11
134.0682095775557
 21
106.9888969046429
 31
0.0
  0
LINE
  5
A614
330
18
100
AcDbEntity
  8
mark
 62
     1
100
AcDbLine
 10
134.9148949495147
 20
114.6354020363768
 30
0.0
 11
134.9148949495147
 21
106.9888969046429
 31
0.0
  0
LWPOLYLINE
  5
A654
330
18
100
AcDbEntity
  8
mark
100
AcDbPolyline
 90
        3
 70
     1
 43
0.0
 10
8.059984353113414
 20
43.19064466332733
 10
5.173233007165299
 20
48.19064466332733
 10
2.286481661217159
 20
43.19064466332733
  0
MTEXT
  5
A655
330
18
100
AcDbEntity
  8
dim
100
AcDbMText
 10
4.381534347446438
 20
46.22840918421454
 30
0.0
 40
2.5
 41
9.163114146879252
 71
     1
 72
     5
  1
2
 73
     1
 44
1.0
1001
ACAD
1000
ACAD_MTEXT_DEFINED_HEIGHT_BEGIN
1070
    46
1040
0.0
1000
ACAD_MTEXT_DEFINED_HEIGHT_END
  0
MTEXT
  5
A656
330
18
100
AcDbEntity
  8
dim
100
AcDbMText
 10
9.823182864585078
 20
47.65120264577762
 30
0.0
 40
4.5
 41
0.0
 71
     1
 72
     5
  1
{\Ftxt,bigfont|c128;08.08.08 振れ精度の変更  林}
  7
JL
 73
     1
 44
1.0
1001
ACAD
1000
ACAD_MTEXT_DEFINED_HEIGHT_BEGIN
1070
    46
1040
0.0
1000
ACAD_MTEXT_DEFINED_HEIGHT_END
  0
CIRCLE
  5
A657
330
18
100
AcDbEntity
  8
dim
100
AcDbCircle
 10
47.59748615861082
 20
45.34138402581084
 30
0.0
 40
2.762409708108862
  0
LWPOLYLINE
  5
A658
330
18
100
AcDbEntity
  8
mark
100
AcDbPolyline
 90
        3
 70
     1
 43
0.0
 10
8.115288762607583
 20
36.0433642451504
 10
5.228537416659468
 20
41.04336424515039
 10
2.341786070711329
 20
36.0433642451504
  0
MTEXT
  5
A659
330
18
100
AcDbEntity
  8
dim
100
AcDbMText
 10
4.92358670630748
 20
39.29733487269297
 30
0.0
 40
2.5
 41
9.163114146879252
 71
     1
 72
     5
  1
1
 73
     1
 44
1.0
1001
ACAD
1000
ACAD_MTEXT_DEFINED_HEIGHT_BEGIN
1070
    46
1040
0.0
1000
ACAD_MTEXT_DEFINED_HEIGHT_END
  0
LWPOLYLINE
  5
A65A
330
18
100
AcDbEntity
  8
mark
100
AcDbPolyline
 90
        3
 70
     1
 43
0.0
 10
154.6185060155864
 20
127.4896026532193
 10
151.7317546696383
 20
132.4896026532193
 10
148.8450033236902
 20
127.4896026532193
  0
MTEXT
  5
A65B
330
18
100
AcDbEntity
  8
dim
100
AcDbMText
 10
150.9400560099195
 20
130.5273671741065
 30
0.0
 40
2.5
 41
9.163114146879252
 71
     1
 72
     5
  1
2
 73
     1
 44
1.0
1001
ACAD
1000
ACAD_MTEXT_DEFINED_HEIGHT_BEGIN
1070
    46
1040
0.0
1000
ACAD_MTEXT_DEFINED_HEIGHT_END
  0
MTEXT
  5
A65C
330
18
100
AcDbEntity
  8
dim
100
AcDbMText
 10
155.8625832778038
 20
130.5273671741065
 30
0.0
 40
2.5
 41
9.163114146879252
 71
     1
 72
     5
  1
0.007
 73
     1
 44
1.0
1001
ACAD
1000
ACAD_MTEXT_DEFINED_HEIGHT_BEGIN
1070
    46
1040
0.0
1000
ACAD_MTEXT_DEFINED_HEIGHT_END
  0
LINE
  5
A65D
330
18
100
AcDbEntity
  8
mark
 62
     1
100
AcDbLine
 10
155.3634382857994
 20
123.6799658537244
 30
0.0
 11
165.3213462178869
 21
123.6799658537244
 31
0.0
  0
LINE
  5
A665
330
18
100
AcDbEntity
  8
mark
 62
     1
100
AcDbLine
 10
155.3634382857994
 20
122.935251815549
 30
0.0
 11
165.3213462178869
 21
122.935251815549
 31
0.0
  0
LWPOLYLINE
  5
A666
330
18
100
AcDbEntity
  8
mark
100
AcDbPolyline
 90
        3
 70
     1
 43
0.0
 10
181.0085592624259
 20
3.089762582423986
 10
178.1218079164778
 20
8.089762582423986
 10
175.2350565705296
 20
3.089762582423986
  0
MTEXT
  5
A667
330
18
100
AcDbEntity
  8
dim
100
AcDbMText
 10
177.3301092567589
 20
6.127527103311194
 30
0.0
 40
2.5
 41
9.163114146879252
 71
     1
 72
     5
  1
2
 73
     1
 44
1.0
1001
ACAD
1000
ACAD_MTEXT_DEFINED_HEIGHT_BEGIN
1070
    46
1040
0.0
1000
ACAD_MTEXT_DEFINED_HEIGHT_END
  0
ENDSEC
  0
SECTION
  2
OBJECTS
  0
DICTIONARY
  5
C
330
0
100
AcDbDictionary
281
     1
  3
ACAD_COLOR
350
7873
  3
ACAD_GROUP
350
D
  3
ACAD_LAYOUT
350
5CF3
  3
ACAD_MATERIAL
350
7872
  3
ACAD_MLINESTYLE
350
1B
  3
ACAD_PLOTSETTINGS
350
5CF4
  3
ACAD_PLOTSTYLENAME
350
5CF1
  3
ACAD_TABLESTYLE
350
7874
  3
AcadDim
350
9A73
  3
ACDBVARIABLEDICTIONARY
350
45D
  0
DICTIONARY
  5
7BFE
330
2
100
AcDbDictionary
280
     1
281
     1
  3
ACAD_LAYERFILTERS
360
7C00
  3
ACLYDICTIONARY
360
7BFF
  0
DICTIONARY
  5
45F
330
18
100
AcDbDictionary
280
     1
281
     1
  3
ACAD_LAYOUTSELFREF
360
5D8B
  3
ACAD_SORTENTS
360
460
  0
DICTIONARY
  5
5D89
330
15
100
AcDbDictionary
280
     1
281
     1
  3
ACAD_LAYOUTSELFREF
360
5D8A
  0
DICTIONARY
  5
7C0B
330
7C0A
100
AcDbDictionary
280
     1
281
     1
  3
AcDbBlockTableRecordData
360
7C0C
  0
DICTIONARY
  5
8E73
330
8E72
100
AcDbDictionary
280
     1
281
     1
  3
AcDbBlockTableRecordData
360
8E74
  0
DICTIONARY
  5
9D16
330
9D15
100
AcDbDictionary
280
     1
281
     1
  3
AcDbBlockTableRecordData
360
9D17
  0
DICTIONARY
  5
7873
102
{ACAD_REACTORS
330
C
102
}
330
C
100
AcDbDictionary
281
     1
  0
DICTIONARY
  5
D
102
{ACAD_REACTORS
330
C
102
}
330
C
100
AcDbDictionary
281
     1
  0
DICTIONARY
  5
5CF3
102
{ACAD_REACTORS
330
C
102
}
330
C
100
AcDbDictionary
281
     1
  3
Model
350
5CF5
  3
配置1
350
5CF6
  0
DICTIONARY
  5
7872
102
{ACAD_REACTORS
330
C
102
}
330
C
100
AcDbDictionary
281
     1
  0
DICTIONARY
  5
1B
102
{ACAD_REACTORS
330
C
102
}
330
C
100
AcDbDictionary
281
     1
  3
STANDARD
350
1C
  0
DICTIONARY
  5
5CF4
102
{ACAD_REACTORS
330
C
102
}
330
C
100
AcDbDictionary
281
     1
  0
ACDBDICTIONARYWDFLT
  5
5CF1
102
{ACAD_REACTORS
330
C
102
}
330
C
100
AcDbDictionary
281
     1
  3
Normal
350
5CF2
100
AcDbDictionaryWithDefault
340
5CF2
  0
DICTIONARY
  5
7874
102
{ACAD_REACTORS
330
C
102
}
330
C
100
AcDbDictionary
281
     1
  3
Standard
350
7875
  0
XRECORD
  5
9A73
102
{ACAD_REACTORS
330
C
102
}
330
C
100
AcDbXrecord
280
     1
 90
   990106
  3

 60
     0
 61
     0
 62
     1
 63
     3
 64
     0
 65
     0
 66
     0
 67
     3
 68
     1
 69
     0
 70
     0
 71
     0
 72
     0
 40
0.0
170
     0
  0
DICTIONARY
  5
45D
102
{ACAD_REACTORS
330
C
102
}
330
C
100
AcDbDictionary
281
     1
  3
CTABLESTYLE
350
7880
  3
SORTENTS
350
45E
  0
DICTIONARY
  5
7C00
102
{ACAD_REACTORS
330
7BFE
102
}
330
7BFE
100
AcDbDictionary
281
     1
  0
DICTIONARY
  5
7BFF
102
{ACAD_REACTORS
330
7BFE
102
}
330
7BFE
100
AcDbDictionary
281
     1
1001
ACAD
1000
<All
  0
XRECORD
  5
5D8B
102
{ACAD_REACTORS
330
45F
102
}
330
45F
100
AcDbXrecord
280
     1
340
18
  0
SORTENTSTABLE
  5
460
102
{ACAD_REACTORS
330
45F
102
}
330
45F
100
AcDbSortentsTable
330
18
331
7D9C
  5
7D9C
331
9D71
  5
9D77
331
9E28
  5
9E2C
331
9F5F
  5
9F62
331
7DA4
  5
7DA4
331
C0
  5
CB
331
7D6D
  5
7D6D
331
9D79
  5
9D87
331
9E30
  5
9F22
331
A3EC
  5
A3ED
331
9F67
  5
9F6A
331
7D75
  5
7D75
331
7DAC
  5
7DAC
331
A5F2
  5
A5F2
331
9F6F
  5
9F72
331
9F28
  5
9F31
331
7DB4
  5
7DB4
331
A3BD
  5
A3BD
331
A612
  5
A612
331
7DBC
  5
7DBC
331
7D7D
  5
7D7D
331
9D89
  5
9D8F
331
9F40
  5
9F42
331
9D5A
  5
9D5D
331
7D85
  5
7D85
331
9D91
  5
9D97
331
9F77
  5
9F7B
331
A3C5
  5
A3D5
331
9F48
  5
9F4B
331
9D62
  5
9D66
331
7D8D
  5
7D8D
331
9D99
  5
9E25
331
9F50
  5
9F53
331
7D95
  5
7D95
331
9D6A
  5
9D70
331
A33F
  5
A340
331
A3D5
  5
A3EB
331
A347
  5
A348
331
9F58
  5
9F5B
331
7D9D
  5
7D9D
331
9D72
  5
9D78
331
9E29
  5
9E2D
331
9F60
  5
9F63
331
7DA5
  5
7DA5
331
7D6E
  5
7D6E
331
9D7A
  5
9D8A
331
9E31
  5
9F28
331
A3ED
  5
A3EE
331
9F68
  5
9F6B
331
7D76
  5
7D76
331
7DAD
  5
7DAD
331
A3B6
  5
A3B6
331
9F29
  5
9F35
331
7DB5
  5
7DB5
331
A367
  5
A374
331
9F39
  5
9F3D
331
7D7E
  5
7D7E
331
7DBD
  5
7DBD
331
9D8A
  5
9D90
331
9F70
  5
9F73
331
9F41
  5
9F43
331
9D5B
  5
9D5F
331
7D86
  5
7D86
331
9D92
  5
9D98
331
9D63
  5
9D67
331
7D8E
  5
7D8E
331
9D9A
  5
9E26
331
9F49
  5
9F4C
331
7D96
  5
7D96
331
9D6B
  5
9D71
331
9F51
  5
9F54
331
A340
  5
A341
331
9F59
  5
9F5C
331
7D9E
  5
7D9E
331
9D73
  5
9D79
331
9E2A
  5
9E30
331
A348
  5
A349
331
9F61
  5
9F64
331
7D6F
  5
7D6F
331
7DA6
  5
7DA6
331
9D7B
  5
9D8B
331
A3EE
  5
A3F2
331
9F69
  5
9F6C
331
9F22
  5
9F2A
331
7D77
  5
7D77
331
7DAE
  5
7DAE
331
9D83
  5
9D8C
331
A3B7
  5
A3B7
331
9F2A
  5
9F3B
331
7DB6
  5
7DB6
331
9F3A
  5
9F3E
331
7D7F
  5
7D7F
331
9D54
  5
9D57
331
9D8B
  5
9D91
331
9F71
  5
9F74
331
9F42
  5
9F44
331
7D87
  5
7D87
331
9D5C
  5
9D60
331
9D93
  5
9D99
331
9F4A
  5
9F4D
331
7D8F
  5
7D8F
331
9D64
  5
9D68
331
9D9B
  5
9E27
331
9F52
  5
9F55
331
7D97
  5
7D97
331
9D6C
  5
9D72
331
A341
  5
A342
331
9F5A
  5
9F5D
331
7D9F
  5
7D9F
331
9D74
  5
9D7A
331
9E2B
  5
9E31
331
A349
  5
A34A
331
9F62
  5
9F65
331
7D70
  5
7D70
331
A5F5
  5
A5F5
331
9F6A
  5
9F6D
331
9F23
  5
9F2F
331
7DAF
  5
7DAF
331
9D84
  5
9D8D
331
A3B8
  5
A3B8
331
7DB7
  5
7DB7
331
7D78
  5
7D78
331
9F3B
  5
9F3F
331
7D80
  5
7D80
331
9D55
  5
9D58
331
9D8C
  5
9D92
331
9F72
  5
9F76
331
9F43
  5
9F45
331
7D88
  5
7D88
331
9D5D
  5
9D61
331
9D94
  5
9D9A
331
9F4B
  5
9F4E
331
7D90
  5
7D90
331
9D65
  5
9D69
331
9D9C
  5
9E28
331
9F53
  5
9F56
331
9D6D
  5
9D73
331
A342
  5
A343
331
7D98
  5
7D98
331
9F5B
  5
9F5E
331
7DA0
  5
7DA0
331
9D75
  5
9D7B
331
9E2C
  5
9E33
331
A34A
  5
A34B
331
A3A9
  5
A3C5
331
9F63
  5
9F66
331
7D71
  5
7D71
331
7DA8
  5
7DA8
331
A5F6
  5
A5F6
331
9F6B
  5
9F6E
331
7DB0
  5
7DB0
331
A3B9
  5
A3B9
331
9F2C
  5
9F3C
331
7DB8
  5
7DB8
331
7D79
  5
7D79
331
7D81
  5
7D81
331
9D56
  5
9D59
331
9D8D
  5
9D93
331
9F73
  5
9F77
331
9F44
  5
9F46
331
7D89
  5
7D89
331
9D5E
  5
9D62
331
9D95
  5
9D9B
331
9F7B
  5
9F7C
331
9F4C
  5
9F4F
331
7D91
  5
7D91
331
9D66
  5
9D6B
331
A382
  5
A3A9
331
9F54
  5
9F57
331
9E25
  5
9D6E
331
9D6E
  5
9D74
331
A343
  5
A344
331
A5BF
  5
9D55
331
7D99
  5
7D99
331
9F5C
  5
9F5F
331
9D76
  5
9D7C
331
9E2D
  5
9EE0
331
A34B
  5
A34C
331
9F64
  5
9F67
331
7D72
  5
7D72
331
7DA9
  5
7DA9
331
A5EF
  5
A5EF
331
9F6C
  5
9F6F
331
7DB1
  5
7DB1
331
9D86
  5
9D8E
331
A35B
  5
A367
331
A3BA
  5
A3BA
331
7D7A
  5
7D7A
331
7D82
  5
7D82
331
9D57
  5
9D5A
331
9D8E
  5
9D94
331
9F45
  5
9F48
331
7D8A
  5
7D8A
331
9D5F
  5
9D63
331
9D96
  5
9D9C
331
9F7C
  5
9F7D
331
9F4D
  5
9F50
331
7D92
  5
7D92
331
9D67
  5
9D6C
331
9D9E
  5
9E29
331
9F55
  5
9F58
331
9D6F
  5
9D75
331
9E26
  5
9E2A
331
A344
  5
A345
331
A5D8
  5
A5D8
331
7D9A
  5
7D9A
331
A34C
  5
A34D
331
9F5D
  5
9F60
331
7DA2
  5
7DA2
331
9D77
  5
9D84
331
A3F2
  5
A536
331
9F65
  5
9F68
331
7DAA
  5
7DAA
331
7D73
  5
7D73
331
A3BB
  5
A3BB
331
9F6D
  5
9F70
331
7DB2
  5
7DB2
331
7DBA
  5
7DBA
331
7D7B
  5
7D7B
331
9F3E
  5
9F40
331
7D83
  5
7D83
331
9D58
  5
9D5B
331
9D8F
  5
9D95
331
9F7D
  5
A33E
331
A374
  5
A375
331
9F46
  5
9F49
331
7D8B
  5
7D8B
331
9D60
  5
9D64
331
9D97
  5
9D9D
331
9F4E
  5
9F51
331
7D93
  5
7D93
331
9D68
  5
9D6D
331
A345
  5
A346
331
9F56
  5
9F59
331
9E27
  5
9E2B
331
7D9B
  5
7D9B
331
9D70
  5
9D76
331
A34D
  5
A35B
331
A3EB
  5
A3EC
331
9F5E
  5
9F61
331
7DA3
  5
7DA3
331
7D6C
  5
7D6C
331
9D78
  5
9D85
331
9F66
  5
9F69
331
7D74
  5
7D74
331
A3BC
  5
A3BC
331
9F6E
  5
9F71
331
7D7C
  5
7D7C
331
7DBB
  5
7DBB
331
9F76
  5
9F7A
331
9F3F
  5
9F41
331
7D84
  5
7D84
331
9D59
  5
9D5C
331
9D90
  5
9D96
331
A375
  5
A382
331
7D8C
  5
7D8C
331
9D61
  5
9D65
331
9D98
  5
9DAC
331
A33E
  5
A33F
331
9F4F
  5
9F52
331
7D94
  5
7D94
331
9D69
  5
9D6F
331
A346
  5
A347
331
9F57
  5
9F5A
  0
XRECORD
  5
5D8A
102
{ACAD_REACTORS
330
5D89
102
}
330
5D89
100
AcDbXrecord
280
     1
340
15
  0
DICTIONARY
  5
7C0C
102
{ACAD_REACTORS
330
7C0B
102
}
330
7C0B
100
AcDbDictionary
280
     1
281
     1
  3
Edit
360
7C0D
  0
DICTIONARY
  5
8E74
102
{ACAD_REACTORS
330
8E73
102
}
330
8E73
100
AcDbDictionary
280
     1
281
     1
  3
Edit
360
8E75
  0
DICTIONARY
  5
9D17
102
{ACAD_REACTORS
330
9D16
102
}
330
9D16
100
AcDbDictionary
280
     1
281
     1
  3
Edit
360
9D18
  0
LAYOUT
  5
5CF5
102
{ACAD_REACTORS
330
5CF3
102
}
330
5CF3
100
AcDbPlotSettings
  1

  2
hp LaserJet 1300 PCL 6
  4
A4
  6

 40
5.027083396911621
 41
5.069413185119628
 42
5.027084350585937
 43
5.027069091796875
 44
209.9733276367187
 45
296.9683227539062
 46
4.959579944610595
 47
3.435920238494873
 48
0.0
 49
0.0
140
190.0
141
280.0
142
1.0
143
1.0
 70
 11956
 72
     1
 73
     0
 74
     4
  7
LIN.ctb
 75
    16
147
1.0
 76
     0
 77
     2
 78
   300
148
0.0
149
0.0
100
AcDbLayout
  1
Model
 70
     1
 71
     0
 10
0.0
 20
0.0
 11
12.0
 21
9.0
 12
0.0
 22
0.0
 32
0.0
 14
0.0
 24
0.0
 34
0.0
 15
0.0
 25
0.0
 35
0.0
146
0.0
 13
0.0
 23
0.0
 33
0.0
 16
1.0
 26
0.0
 36
0.0
 17
0.0
 27
1.0
 37
0.0
 76
     0
330
18
1001
ACAD_PSEXT
1000
hp LaserJet 1300 PCL 6
1000
hp LaserJet 1300 PCL 6
1000
HP 1300
1000

1070
     0
  0
LAYOUT
  5
5CF6
102
{ACAD_REACTORS
330
5CF3
102
}
330
5CF3
100
AcDbPlotSettings
  1

  2
EPSON STYLUS COLOR 440
  4

  6

 40
0.0
 41
0.0
 42
0.0
 43
0.0
 44
0.0
 45
0.0
 46
0.0
 47
0.0
 48
0.0
 49
0.0
140
0.0
141
0.0
142
1.0
143
1.0
 70
   688
 72
     0
 73
     0
 74
     5
  7
LIN.ctb
 75
    16
147
1.0
 76
     0
 77
     2
 78
   300
148
0.0
149
0.0
100
AcDbLayout
  1
ｰtｸm1
 70
     1
 71
     1
 10
0.0
 20
0.0
 11
420.0
 21
297.0
 12
0.0
 22
0.0
 32
0.0
 14
1.000000000000000E+20
 24
1.000000000000000E+20
 34
1.000000000000000E+20
 15
-1.000000000000000E+20
 25
-1.000000000000000E+20
 35
-1.000000000000000E+20
146
0.0
 13
0.0
 23
0.0
 33
0.0
 16
1.0
 26
0.0
 36
0.0
 17
0.0
 27
1.0
 37
0.0
 76
     0
330
15
  0
MLINESTYLE
  5
1C
102
{ACAD_REACTORS
330
1B
102
}
330
1B
100
AcDbMlineStyle
  2
STANDARD
 70
     0
  3

 62
   256
 51
90.0
 52
90.0
 71
     2
 49
0.5
 62
   256
  6
BYLAYER
 49
-0.5
 62
   256
  6
BYLAYER
  0
ACDBPLACEHOLDER
  5
5CF2
102
{ACAD_REACTORS
330
5CF1
102
}
330
5CF1
  0
TABLESTYLE
  5
7875
102
{ACAD_REACTORS
330
7874
102
}
330
7874
100
AcDbTableStyle
  3
Standard
 70
     0
 71
     8
 40
1.5
 41
1.5
280
     0
281
     0
  7
STANDARD
140
4.5
170
     2
 62
     0
 63
     7
283
     0
274
    -2
284
     1
 64
     0
275
    -2
285
     1
 65
     0
276
    -2
286
     1
 66
     0
277
    -2
287
     1
 67
     0
278
    -2
288
     1
 68
     0
279
    -2
289
     1
 69
     0
  7
STANDARD
140
6.0
170
     5
 62
     0
 63
     7
283
     0
274
    -2
284
     1
 64
     0
275
    -2
285
     1
 65
     0
276
    -2
286
     1
 66
     0
277
    -2
287
     1
 67
     0
278
    -2
288
     1
 68
     0
279
    -2
289
     1
 69
     0
  7
STANDARD
140
4.5
170
     5
 62
     0
 63
     7
283
     0
274
    -2
284
     1
 64
     0
275
    -2
285
     1
 65
     0
276
    -2
286
     1
 66
     0
277
    -2
287
     1
 67
     0
278
    -2
288
     1
 68
     0
279
    -2
289
     1
 69
     0
  0
DICTIONARYVAR
  5
7880
102
{ACAD_REACTORS
330
45D
102
}
330
45D
100
DictionaryVariables
280
     0
  1
STANDARD
  0
DICTIONARYVAR
  5
45E
102
{ACAD_REACTORS
330
45D
102
}
330
45D
100
DictionaryVariables
280
     0
  1
127
  0
XRECORD
  5
7C0D
102
{ACAD_REACTORS
330
7C0C
102
}
330
7C0C
100
AcDbXrecord
280
     1
1070
     0
1070
     1
1070
     1
  0
XRECORD
  5
8E75
102
{ACAD_REACTORS
330
8E74
102
}
330
8E74
100
AcDbXrecord
280
     1
1070
     0
1070
     1
1070
     1
  0
XRECORD
  5
9D18
102
{ACAD_REACTORS
330
9D17
102
}
330
9D17
100
AcDbXrecord
280
     1
1070
     0
1070
     1
1070
     1
  0
ENDSEC
  0
EOF
