  0
SECTION
  2
HEADER
  9
$ACADVER
  1
AC1018
  9
$ACADMAINTVER
 70
    76
  9
$DWGCODEPAGE
  3
ANSI_932
  9
$INSBASE
 10
0.0
 20
0.0
 30
0.0
  9
$EXTMIN
 10
0.0
 20
0.0
 30
0.0
  9
$EXTMAX
 10
190.0
 20
280.0
 30
3.838383838383842
  9
$LIMMIN
 10
0.0
 20
0.0
  9
$LIMMAX
 10
420.0
 20
297.0
  9
$ORTHOMODE
 70
     0
  9
$REGENMODE
 70
     1
  9
$FILLMODE
 70
     1
  9
$QTEXTMODE
 70
     0
  9
$MIRRTEXT
 70
     1
  9
$LTSCALE
 40
1.0
  9
$ATTMODE
 70
     1
  9
$TEXTSIZE
 40
1.25
  9
$TRACEWID
 40
1.0
  9
$TEXTSTYLE
  7
TXT
  9
$CLAYER
  8
mark
  9
$CELTYPE
  6
BYLAYER
  9
$CECOLOR
 62
   256
  9
$CELTSCALE
 40
1.0
  9
$DISPSILH
 70
     0
  9
$DIMSCALE
 40
1.0
  9
$DIMASZ
 40
2.5
  9
$DIMEXO
 40
0.8
  9
$DIMDLI
 40
0.38
  9
$DIMRND
 40
0.0
  9
$DIMDLE
 40
0.0
  9
$DIMEXE
 40
0.8
  9
$DIMTP
 40
0.0
  9
$DIMTM
 40
0.0
  9
$DIMTXT
 40
2.5
  9
$DIMCEN
 40
0.09
  9
$DIMTSZ
 40
0.0
  9
$DIMTOL
 70
     0
  9
$DIMLIM
 70
     0
  9
$DIMTIH
 70
     0
  9
$DIMTOH
 70
     0
  9
$DIMSE1
 70
     0
  9
$DIMSE2
 70
     0
  9
$DIMTAD
 70
     3
  9
$DIMZIN
 70
     8
  9
$DIMBLK
  1
Open30
  9
$DIMASO
 70
     1
  9
$DIMSHO
 70
     1
  9
$DIMPOST
  1

  9
$DIMAPOST
  1

  9
$DIMALT
 70
     0
  9
$DIMALTD
 70
     2
  9
$DIMALTF
 40
25.4
  9
$DIMLFAC
 40
1.0
  9
$DIMTOFL
 70
     1
  9
$DIMTVP
 40
0.0
  9
$DIMTIX
 70
     0
  9
$DIMSOXD
 70
     0
  9
$DIMSAH
 70
     0
  9
$DIMBLK1
  1

  9
$DIMBLK2
  1

  9
$DIMSTYLE
  2
STANDARD
  9
$DIMCLRD
 70
   256
  9
$DIMCLRE
 70
   256
  9
$DIMCLRT
 70
     3
  9
$DIMTFAC
 40
1.0
  9
$DIMGAP
 40
0.8
  9
$DIMJUST
 70
     0
  9
$DIMSD1
 70
     0
  9
$DIMSD2
 70
     0
  9
$DIMTOLJ
 70
     1
  9
$DIMTZIN
 70
     0
  9
$DIMALTZ
 70
     0
  9
$DIMALTTZ
 70
     0
  9
$DIMUPT
 70
     0
  9
$DIMDEC
 70
     2
  9
$DIMTDEC
 70
     2
  9
$DIMALTU
 70
     2
  9
$DIMALTTD
 70
     2
  9
$DIMTXSTY
  7
STANDARD
  9
$DIMAUNIT
 70
     0
  9
$DIMADEC
 70
     2
  9
$DIMALTRND
 40
0.0
  9
$DIMAZIN
 70
     2
  9
$DIMDSEP
 70
    46
  9
$DIMATFIT
 70
     3
  9
$DIMFRAC
 70
     0
  9
$DIMLDRBLK
  1
Open30
  9
$DIMLUNIT
 70
     2
  9
$DIMLWD
 70
    -2
  9
$DIMLWE
 70
    -2
  9
$DIMTMOVE
 70
     0
  9
$LUNITS
 70
     2
  9
$LUPREC
 70
     2
  9
$SKETCHINC
 40
1.0
  9
$FILLETRAD
 40
1.0
  9
$AUNITS
 70
     0
  9
$AUPREC
 70
     2
  9
$MENU
  1
.
  9
$ELEVATION
 40
0.0
  9
$PELEVATION
 40
0.0
  9
$THICKNESS
 40
0.0
  9
$LIMCHECK
 70
     0
  9
$CHAMFERA
 40
1.5
  9
$CHAMFERB
 40
1.5
  9
$CHAMFERC
 40
1.75
  9
$CHAMFERD
 40
0.0174532925199433
  9
$SKPOLY
 70
     0
  9
$TDCREATE
 40
2451555.620234838
  9
$TDUCREATE
 40
2451555.245234838
  9
$TDUPDATE
 40
2455846.620012569
  9
$TDUUPDATE
 40
2455846.245012569
  9
$TDINDWG
 40
2.6051375000
  9
$TDUSRTIMER
 40
2.6051375000
  9
$USRTIMER
 70
     1
  9
$ANGBASE
 50
0.0
  9
$ANGDIR
 70
     0
  9
$PDMODE
 70
     0
  9
$PDSIZE
 40
0.0
  9
$PLINEWID
 40
0.0
  9
$SPLFRAME
 70
     0
  9
$SPLINETYPE
 70
     6
  9
$SPLINESEGS
 70
     8
  9
$HANDSEED
  5
AD04
  9
$SURFTAB1
 70
     6
  9
$SURFTAB2
 70
     6
  9
$SURFTYPE
 70
     6
  9
$SURFU
 70
     6
  9
$SURFV
 70
     6
  9
$UCSBASE
  2

  9
$UCSNAME
  2

  9
$UCSORG
 10
0.0
 20
0.0
 30
0.0
  9
$UCSXDIR
 10
1.0
 20
0.0
 30
0.0
  9
$UCSYDIR
 10
0.0
 20
1.0
 30
0.0
  9
$UCSORTHOREF
  2

  9
$UCSORTHOVIEW
 70
     1
  9
$UCSORGTOP
 10
0.0
 20
0.0
 30
0.0
  9
$UCSORGBOTTOM
 10
0.0
 20
0.0
 30
0.0
  9
$UCSORGLEFT
 10
0.0
 20
0.0
 30
0.0
  9
$UCSORGRIGHT
 10
0.0
 20
0.0
 30
0.0
  9
$UCSORGFRONT
 10
0.0
 20
0.0
 30
0.0
  9
$UCSORGBACK
 10
0.0
 20
0.0
 30
0.0
  9
$PUCSBASE
  2

  9
$PUCSNAME
  2

  9
$PUCSORG
 10
0.0
 20
0.0
 30
0.0
  9
$PUCSXDIR
 10
1.0
 20
0.0
 30
0.0
  9
$PUCSYDIR
 10
0.0
 20
1.0
 30
0.0
  9
$PUCSORTHOREF
  2

  9
$PUCSORTHOVIEW
 70
     0
  9
$PUCSORGTOP
 10
0.0
 20
0.0
 30
0.0
  9
$PUCSORGBOTTOM
 10
0.0
 20
0.0
 30
0.0
  9
$PUCSORGLEFT
 10
0.0
 20
0.0
 30
0.0
  9
$PUCSORGRIGHT
 10
0.0
 20
0.0
 30
0.0
  9
$PUCSORGFRONT
 10
0.0
 20
0.0
 30
0.0
  9
$PUCSORGBACK
 10
0.0
 20
0.0
 30
0.0
  9
$USERI1
 70
     0
  9
$USERI2
 70
     0
  9
$USERI3
 70
     0
  9
$USERI4
 70
     0
  9
$USERI5
 70
     0
  9
$USERR1
 40
0.0
  9
$USERR2
 40
0.0
  9
$USERR3
 40
0.0
  9
$USERR4
 40
0.0
  9
$USERR5
 40
0.0
  9
$WORLDVIEW
 70
     1
  9
$SHADEDGE
 70
     3
  9
$SHADEDIF
 70
    70
  9
$TILEMODE
 70
     1
  9
$MAXACTVP
 70
    48
  9
$PINSBASE
 10
0.0
 20
0.0
 30
0.0
  9
$PLIMCHECK
 70
     0
  9
$PEXTMIN
 10
1.000000000000000E+20
 20
1.000000000000000E+20
 30
1.000000000000000E+20
  9
$PEXTMAX
 10
-1.000000000000000E+20
 20
-1.000000000000000E+20
 30
-1.000000000000000E+20
  9
$PLIMMIN
 10
0.0
 20
0.0
  9
$PLIMMAX
 10
420.0
 20
297.0
  9
$UNITMODE
 70
     0
  9
$VISRETAIN
 70
     1
  9
$PLINEGEN
 70
     0
  9
$PSLTSCALE
 70
     1
  9
$TREEDEPTH
 70
  3020
  9
$CMLSTYLE
  2
STANDARD
  9
$CMLJUST
 70
     0
  9
$CMLSCALE
 40
20.0
  9
$PROXYGRAPHICS
 70
     1
  9
$MEASUREMENT
 70
     1
  9
$CELWEIGHT
370
    -1
  9
$ENDCAPS
280
     0
  9
$JOINSTYLE
280
     0
  9
$LWDISPLAY
290
     0
  9
$INSUNITS
 70
     0
  9
$HYPERLINKBASE
  1

  9
$STYLESHEET
  1
monochrome.ctb
  9
$XEDIT
290
     1
  9
$CEPSNTYPE
380
     0
  9
$PSTYLEMODE
290
     1
  9
$FINGERPRINTGUID
  2
{1CF51E8A-A506-11D4-A7D9-AF69F5C20846}
  9
$VERSIONGUID
  2
{05F6EE49-59F8-4769-9AE8-796C013E14EC}
  9
$EXTNAMES
290
     1
  9
$PSVPSCALE
 40
0.0
  9
$OLESTARTUP
290
     0
  9
$SORTENTS
280
   127
  9
$INDEXCTL
280
     0
  9
$HIDETEXT
280
     0
  9
$XCLIPFRAME
290
     0
  9
$HALOGAP
280
     0
  9
$OBSCOLOR
 70
   257
  9
$OBSLTYPE
280
     0
  9
$INTERSECTIONDISPLAY
280
     0
  9
$INTERSECTIONCOLOR
 70
   257
  9
$DIMASSOC
280
     1
  9
$PROJECTNAME
  1

  0
ENDSEC
  0
SECTION
  2
CLASSES
  0
CLASS
  1
DICTIONARYVAR
  2
AcDbDictionaryVar
  3
ObjectDBX Classes
 90
        0
 91
        2
280
     0
281
     0
  0
CLASS
  1
SORTENTSTABLE
  2
AcDbSortentsTable
  3
ObjectDBX Classes
 90
        0
 91
        2
280
     0
281
     0
  0
CLASS
  1
ACDBDICTIONARYWDFLT
  2
AcDbDictionaryWithDefault
  3
ObjectDBX Classes
 90
        0
 91
        1
280
     0
281
     0
  0
CLASS
  1
TABLESTYLE
  2
AcDbTableStyle
  3
ObjectDBX Classes
 90
     2047
 91
        1
280
     0
281
     0
  0
ENDSEC
  0
SECTION
  2
TABLES
  0
TABLE
  2
VPORT
  5
8
330
0
100
AcDbSymbolTable
 70
     2
  0
VPORT
  5
AD03
330
8
100
AcDbSymbolTableRecord
100
AcDbViewportTableRecord
  2
*Active
 70
     0
 10
0.0
 20
0.0
 11
1.0
 21
1.0
 12
245.9792054483759
 22
139.9955774407757
 13
0.0
 23
0.0
 14
10.0
 24
10.0
 15
10.0
 25
10.0
 16
0.0
 26
0.0
 36
1.0
 17
0.0
 27
0.0
 37
0.0
 40
283.4377191999428
 41
2.47104247104247
 42
50.0
 43
0.0
 44
0.0
 50
0.0
 51
0.0
 71
     0
 72
 20000
 73
     1
 74
     1
 75
     0
 76
     0
 77
     0
 78
     0
281
     0
 65
     1
110
0.0
120
0.0
130
0.0
111
1.0
121
0.0
131
0.0
112
0.0
122
1.0
132
0.0
 79
     1
146
0.0
  0
ENDTAB
  0
TABLE
  2
LTYPE
  5
5
330
0
100
AcDbSymbolTable
 70
     7
  0
LTYPE
  5
12
330
5
100
AcDbSymbolTableRecord
100
AcDbLinetypeTableRecord
  2
BYBLOCK
 70
     0
  3

 72
    65
 73
     0
 40
0.0
  0
LTYPE
  5
13
330
5
100
AcDbSymbolTableRecord
100
AcDbLinetypeTableRecord
  2
BYLAYER
 70
     0
  3

 72
    65
 73
     0
 40
0.0
  0
LTYPE
  5
14
330
5
100
AcDbSymbolTableRecord
100
AcDbLinetypeTableRecord
  2
CONTINUOUS
 70
     0
  3
Solid line
 72
    65
 73
     0
 40
0.0
  0
LTYPE
  5
9D
330
5
100
AcDbSymbolTableRecord
100
AcDbLinetypeTableRecord
  2
CENTERX2
 70
     0
  3
Center (2x) ________  __  ________  __  _____
 72
    65
 73
     4
 40
101.6
 49
63.5
 74
     0
 49
-12.7
 74
     0
 49
12.7
 74
     0
 49
-12.7
 74
     0
  0
LTYPE
  5
A1
330
5
100
AcDbSymbolTableRecord
100
AcDbLinetypeTableRecord
  2
DASHED
 70
     0
  3
Dashed __ __ __ __ __ __ __ __ __ __ __ __ __ _
 72
    65
 73
     2
 40
19.05
 49
12.7
 74
     0
 49
-6.349999999999999
 74
     0
  0
LTYPE
  5
A2
330
5
100
AcDbSymbolTableRecord
100
AcDbLinetypeTableRecord
  2
DASHED2
 70
     0
  3
Dashed (.5x) _ _ _ _ _ _ _ _ _ _ _ _ _ _ _ _ _
 72
    65
 73
     2
 40
9.524999999999998
 49
6.349999999999999
 74
     0
 49
-3.174999999999999
 74
     0
  0
LTYPE
  5
A5
330
5
100
AcDbSymbolTableRecord
100
AcDbLinetypeTableRecord
  2
DIVIDE2
 70
     0
  3
Divide (.5x) __..__..__..__..__..__..__..__.._
 72
    65
 73
     6
 40
15.875
 49
6.349999999999999
 74
     0
 49
-3.174999999999999
 74
     0
 49
0.0
 74
     0
 49
-3.174999999999999
 74
     0
 49
0.0
 74
     0
 49
-3.174999999999999
 74
     0
  0
LTYPE
  5
650B
330
5
100
AcDbSymbolTableRecord
100
AcDbLinetypeTableRecord
  2
CENTER
 70
     0
  3
Center ____ _ ____ _ ____ _ ____ _ ____ _ ____
 72
    65
 73
     4
 40
50.8
 49
31.75
 74
     0
 49
-6.349999999999999
 74
     0
 49
6.349999999999999
 74
     0
 49
-6.349999999999999
 74
     0
  0
LTYPE
  5
650C
330
5
100
AcDbSymbolTableRecord
100
AcDbLinetypeTableRecord
  2
HIDDEN
 70
     0
  3
Hidden __ __ __ __ __ __ __ __ __ __ __ __ __ _
 72
    65
 73
     2
 40
9.524999999999998
 49
6.349999999999999
 74
     0
 49
-3.174999999999999
 74
     0
  0
ENDTAB
  0
TABLE
  2
LAYER
  5
2
102
{ACAD_XDICTIONARY
360
7BFE
102
}
330
0
100
AcDbSymbolTable
 70
     9
  0
LAYER
  5
E
330
2
100
AcDbSymbolTableRecord
100
AcDbLayerTableRecord
  2
0
 70
     0
 62
     7
  6
CONTINUOUS
370
    -3
390
5CF2
  0
LAYER
  5
B9
330
2
100
AcDbSymbolTableRecord
100
AcDbLayerTableRecord
  2
dim
 70
     0
 62
     3
  6
CONTINUOUS
370
    -3
390
5CF2
  0
LAYER
  5
F2
330
2
100
AcDbSymbolTableRecord
100
AcDbLayerTableRecord
  2
DEFPOINTS
 70
     0
 62
     4
  6
CONTINUOUS
290
     0
370
    -3
390
5CF2
  0
LAYER
  5
5F8B
330
2
100
AcDbSymbolTableRecord
100
AcDbLayerTableRecord
  2
mark
 70
     0
 62
     6
  6
CONTINUOUS
370
    -3
390
5CF2
  0
LAYER
  5
644E
330
2
100
AcDbSymbolTableRecord
100
AcDbLayerTableRecord
  2
frame
 70
     0
 62
     9
  6
CONTINUOUS
370
    -3
390
5CF2
  0
LAYER
  5
650D
330
2
100
AcDbSymbolTableRecord
100
AcDbLayerTableRecord
  2
center
 70
     0
 62
     1
  6
CENTER
370
    -3
390
5CF2
  0
LAYER
  5
650E
330
2
100
AcDbSymbolTableRecord
100
AcDbLayerTableRecord
  2
bowle
 70
     0
 62
     4
  6
HIDDEN
370
    -3
390
5CF2
  0
LAYER
  5
650F
330
2
100
AcDbSymbolTableRecord
100
AcDbLayerTableRecord
  2
contour
 70
     0
 62
     2
  6
CONTINUOUS
370
    -3
390
5CF2
  0
LAYER
  5
6510
330
2
100
AcDbSymbolTableRecord
100
AcDbLayerTableRecord
  2
section
 70
     0
 62
     5
  6
CONTINUOUS
370
    -3
390
5CF2
  0
ENDTAB
  0
TABLE
  2
STYLE
  5
3
330
0
100
AcDbSymbolTable
 70
     5
  0
STYLE
  5
F
330
3
100
AcDbSymbolTableRecord
100
AcDbTextStyleTableRecord
  2
STANDARD
 70
     0
 40
0.0
 41
1.0
 50
0.0
 71
     0
 42
2.5
  3
txt
  4

  0
STYLE
  5
BE
330
3
100
AcDbSymbolTableRecord
100
AcDbTextStyleTableRecord
  2
ISOCP3
 70
     0
 40
0.0
 41
1.0
 50
0.0
 71
     0
 42
2.5
  3
isocp3.shx
  4

  0
STYLE
  5
2A37
330
3
100
AcDbSymbolTableRecord
100
AcDbTextStyleTableRecord
  2
TXT
 70
     0
 40
0.0
 41
1.0
 50
0.0
 71
     0
 42
1.25
  3
txt.shx
  4
bigfont.shx
  0
STYLE
  5
5DCB
330
3
100
AcDbSymbolTableRecord
100
AcDbTextStyleTableRecord
  2
LKK
 70
     0
 40
50.0
 41
1.5
 50
0.0
 71
     0
 42
50.0
  3
MS PGothic.ttf
  4

1001
ACAD
1000
MS PGothic
1071
    32818
  0
STYLE
  5
5DCC
330
3
100
AcDbSymbolTableRecord
100
AcDbTextStyleTableRecord
  2
JL
 70
     0
 40
10.0
 41
0.5
 50
0.0
 71
     0
 42
5.0
  3
MS Mincho.ttf
  4

1001
ACAD
1000
MS Mincho
1071
    32785
  0
ENDTAB
  0
TABLE
  2
VIEW
  5
6
330
0
100
AcDbSymbolTable
 70
     0
  0
ENDTAB
  0
TABLE
  2
UCS
  5
7
330
0
100
AcDbSymbolTable
 70
     0
  0
ENDTAB
  0
TABLE
  2
APPID
  5
9
330
0
100
AcDbSymbolTable
 70
    11
  0
APPID
  5
10
330
9
100
AcDbSymbolTableRecord
100
AcDbRegAppTableRecord
  2
ACAD
 70
     0
  0
APPID
  5
7C91
330
9
100
AcDbSymbolTableRecord
100
AcDbRegAppTableRecord
  2
ACAD_DSTYLE_DIMEXT_LENGTH
 70
     0
  0
APPID
  5
7C92
330
9
100
AcDbSymbolTableRecord
100
AcDbRegAppTableRecord
  2
ACAD_DSTYLE_DIMEXT_ENABLED
 70
     0
  0
APPID
  5
7C93
330
9
100
AcDbSymbolTableRecord
100
AcDbRegAppTableRecord
  2
ACAD_DSTYLE_DIMJOGGED_JOGANGLE_SYMBOL
 70
     0
  0
APPID
  5
7C94
330
9
100
AcDbSymbolTableRecord
100
AcDbRegAppTableRecord
  2
ACAD_DSTYLE_DIMARC_LENGTH_SYMBOL
 70
     0
  0
APPID
  5
7F1C
330
9
100
AcDbSymbolTableRecord
100
AcDbRegAppTableRecord
  2
ACAD_EXEMPT_FROM_CAD_STANDARDS
 70
     0
  0
APPID
  5
7F49
330
9
100
AcDbSymbolTableRecord
100
AcDbRegAppTableRecord
  2
ACAD_DSTYLE_DIMTEXT_FILL
 70
     0
  0
APPID
  5
7F4C
330
9
100
AcDbSymbolTableRecord
100
AcDbRegAppTableRecord
  2
ACAD_DSTYLE_DIM_LINETYPE
 70
     0
  0
APPID
  5
7F4D
330
9
100
AcDbSymbolTableRecord
100
AcDbRegAppTableRecord
  2
ACAD_DSTYLE_DIM_EXT1_LINETYPE
 70
     0
  0
APPID
  5
7F4E
330
9
100
AcDbSymbolTableRecord
100
AcDbRegAppTableRecord
  2
ACAD_DSTYLE_DIM_EXT2_LINETYPE
 70
     0
  0
APPID
  5
8C73
330
9
100
AcDbSymbolTableRecord
100
AcDbRegAppTableRecord
  2
ACAD_PSEXT
 70
     0
  0
ENDTAB
  0
TABLE
  2
DIMSTYLE
  5
A
330
0
100
AcDbSymbolTable
 70
     1
100
AcDbDimStyleTable
 71
     1
340
1D
  0
DIMSTYLE
105
1D
102
{ACAD_REACTORS
330
A608
330
A62F
330
A66F
330
A68B
330
AAF5
330
AB20
330
AB30
330
AB44
102
}
330
A
100
AcDbSymbolTableRecord
100
AcDbDimStyleTableRecord
  2
STANDARD
 70
     0
 41
2.5
 42
0.8
 44
0.8
 73
     0
 74
     0
 77
     3
 78
     8
 79
     2
140
2.5
147
0.8
172
     1
176
   256
177
   256
178
     3
179
     2
271
     2
272
     2
340
F
341
7C04
342
7C04
1001
ACAD_DSTYLE_DIMEXT_LENGTH
1070
   378
1040
0.18
1001
ACAD_DSTYLE_DIMEXT_ENABLED
1070
   383
1070
     0
1001
ACAD_DSTYLE_DIMARC_LENGTH_SYMBOL
1070
   379
1070
     0
1001
ACAD_DSTYLE_DIMJOGGED_JOGANGLE_SYMBOL
1070
   384
1040
1.570796326794896
  0
ENDTAB
  0
TABLE
  2
BLOCK_RECORD
  5
1
330
0
100
AcDbSymbolTable
 70
    22
  0
BLOCK_RECORD
  5
18
102
{ACAD_XDICTIONARY
360
45F
102
}
330
1
100
AcDbSymbolTableRecord
100
AcDbBlockTableRecord
  2
*MODEL_SPACE
340
5CF5
  0
BLOCK_RECORD
  5
15
102
{ACAD_XDICTIONARY
360
5D89
102
}
330
1
100
AcDbSymbolTableRecord
100
AcDbBlockTableRecord
  2
*PAPER_SPACE
340
5CF6
  0
BLOCK_RECORD
  5
639D
330
1
100
AcDbSymbolTableRecord
100
AcDbBlockTableRecord
  2
A$C255C26A2
340
0
  0
BLOCK_RECORD
  5
7C04
330
1
100
AcDbSymbolTableRecord
100
AcDbBlockTableRecord
  2
_Open30
340
0
102
{BLKREFS
331
A60D
331
A60E
331
A634
331
A635
331
A641
331
A642
331
A674
331
A675
331
A69F
331
A6A0
331
A6AA
331
A6AB
331
A6B6
331
A6B7
331
A6C4
331
A6C5
331
A6D0
331
A6D1
331
A6DD
331
A6DE
331
A6E8
331
A6E9
331
A6F2
331
A6FB
331
A6FC
331
AAFA
331
AAFB
331
AB2D
331
AB40
331
AB41
331
AB54
331
AB55
102
}
  0
BLOCK_RECORD
  5
7C0A
102
{ACAD_XDICTIONARY
360
7C0B
102
}
330
1
100
AcDbSymbolTableRecord
100
AcDbBlockTableRecord
  2
A
340
0
310
2800000020000000200000000100080000000000000400000000000000000000000000000000000000000000000080000080000000808000800000008000800080800000C0C0C000C0DCC000F0CAA6000020400000206000002080000020A0000020C0000020E00000400000004020000040400000406000004080000040A0
310
000040C0000040E00000600000006020000060400000606000006080000060A0000060C0000060E00000800000008020000080400000806000008080000080A0000080C0000080E00000A0000000A0200000A0400000A0600000A0800000A0A00000A0C00000A0E00000C0000000C0200000C0400000C0600000C0800000C0
310
A00000C0C00000C0E00000E0000000E0200000E0400000E0600000E0800000E0A00000E0C00000E0E00040000000400020004000400040006000400080004000A0004000C0004000E00040200000402020004020400040206000402080004020A0004020C0004020E000404000004040200040404000404060004040800040
310
40A0004040C0004040E00040600000406020004060400040606000406080004060A0004060C0004060E00040800000408020004080400040806000408080004080A0004080C0004080E00040A0000040A0200040A0400040A0600040A0800040A0A00040A0C00040A0E00040C0000040C0200040C0400040C0600040C08000
310
40C0A00040C0C00040C0E00040E0000040E0200040E0400040E0600040E0800040E0A00040E0C00040E0E00080000000800020008000400080006000800080008000A0008000C0008000E00080200000802020008020400080206000802080008020A0008020C0008020E00080400000804020008040400080406000804080
310
008040A0008040C0008040E00080600000806020008060400080606000806080008060A0008060C0008060E00080800000808020008080400080806000808080008080A0008080C0008080E00080A0000080A0200080A0400080A0600080A0800080A0A00080A0C00080A0E00080C0000080C0200080C0400080C0600080C0
310
800080C0A00080C0C00080C0E00080E0000080E0200080E0400080E0600080E0800080E0A00080E0C00080E0E000C0000000C0002000C0004000C0006000C0008000C000A000C000C000C000E000C0200000C0202000C0204000C0206000C0208000C020A000C020C000C020E000C0400000C0402000C0404000C0406000C0
310
408000C040A000C040C000C040E000C0600000C0602000C0604000C0606000C0608000C060A000C060C000C060E000C0800000C0802000C0804000C0806000C0808000C080A000C080C000C080E000C0A00000C0A02000C0A04000C0A06000C0A08000C0A0A000C0A0C000C0A0E000C0C00000C0C02000C0C04000C0C06000
310
C0C08000C0C0A000F0FBFF00A4A0A000808080000000FF0000FF000000FFFF00FF000000FF00FF00FFFF0000FFFFFF0000000000000000000000000000000000000000000000000000000000000000000000000000000000000000000000000000000000000000000000000000000000000000000000000000000000000000
310
00000000000000000000000000000000000000000000000000000000000000000000000000000000000000000000000000000000000000000000000000000000000000000000000000000000000000000000000000000000000000000000000000000000000000000000000000000000000000000000000000000000000000
310
00000000000000000000000000000000000000000000000000000000000000000000000000000000000000000000000000000000000000000000000000000000000000000000000000000000000000000000000000000000000000000000000000000000000000000000000000000000000000000000000000000000000000
310
000000000000FDFDFDFDFDFDFDFDFDFDFDFD0000FD0000000000000000000000000000000000FD0000FA0000000000FA00FD0000FDFD00000000000000000000000000000000FD0000FA0000000000FA00FD0000FDFDFD000000000000000000000000000000FD0000FA0000000000FA00FD0000FDFDFDFD00000000000000
310
00000000000000FD0000FAFAFAFAFAFAFA00FD0000FDFDFDFDFD00000000000000000000000000FD000000FA00000000FA00FD0000FDFDFDFDFDFDFDFDFDFDFDFDFDFDFDFDFDFDFD000000FA000000FA0000FD0000FDFDFDFDFD00000000000000000000000000FD00000000FA0000FA0000FD0000FDFDFDFD000000000000
310
0000000000000000FD00000000FA00FA000000FD0000FDFD00000000000000000000000000000000FD0000000000FAFA000000FD0000FD0000000000000000000000000000000000FD0000000000FA00000000FD0000000000000000000000000000000000000000FDFDFDFDFDFDFDFDFDFDFDFD0000000000000000000000
310
00000000000000000000000000000000000000000000000000000000000000000000000000000000000000000000000000000000000000000000000000000000000000000000000000000000000000000000000000000000000000000000000000000000000000000000000000000000000000000000000000000000000000
310
00000000000000000000000000000000000000000000000000000000000000000000000000000000000000000000000000000000000000000000000000000000000000000000000000000000000000000000000000000000000000000000000000000000000000000000000000000000000000000000000000000000000000
310
0000000000000000000000000000000000000000000000000000000000000000000000000000000000000000000000000000000000000000
  0
BLOCK_RECORD
  5
8E72
102
{ACAD_XDICTIONARY
360
8E73
102
}
330
1
100
AcDbSymbolTableRecord
100
AcDbBlockTableRecord
  2
LS
340
0
310
2800000020000000200000000100080000000000000400000000000000000000000000000000000000000000000080000080000000808000800000008000800080800000C0C0C000C0DCC000F0CAA6000020400000206000002080000020A0000020C0000020E00000400000004020000040400000406000004080000040A0
310
000040C0000040E00000600000006020000060400000606000006080000060A0000060C0000060E00000800000008020000080400000806000008080000080A0000080C0000080E00000A0000000A0200000A0400000A0600000A0800000A0A00000A0C00000A0E00000C0000000C0200000C0400000C0600000C0800000C0
310
A00000C0C00000C0E00000E0000000E0200000E0400000E0600000E0800000E0A00000E0C00000E0E00040000000400020004000400040006000400080004000A0004000C0004000E00040200000402020004020400040206000402080004020A0004020C0004020E000404000004040200040404000404060004040800040
310
40A0004040C0004040E00040600000406020004060400040606000406080004060A0004060C0004060E00040800000408020004080400040806000408080004080A0004080C0004080E00040A0000040A0200040A0400040A0600040A0800040A0A00040A0C00040A0E00040C0000040C0200040C0400040C0600040C08000
310
40C0A00040C0C00040C0E00040E0000040E0200040E0400040E0600040E0800040E0A00040E0C00040E0E00080000000800020008000400080006000800080008000A0008000C0008000E00080200000802020008020400080206000802080008020A0008020C0008020E00080400000804020008040400080406000804080
310
008040A0008040C0008040E00080600000806020008060400080606000806080008060A0008060C0008060E00080800000808020008080400080806000808080008080A0008080C0008080E00080A0000080A0200080A0400080A0600080A0800080A0A00080A0C00080A0E00080C0000080C0200080C0400080C0600080C0
310
800080C0A00080C0C00080C0E00080E0000080E0200080E0400080E0600080E0800080E0A00080E0C00080E0E000C0000000C0002000C0004000C0006000C0008000C000A000C000C000C000E000C0200000C0202000C0204000C0206000C0208000C020A000C020C000C020E000C0400000C0402000C0404000C0406000C0
310
408000C040A000C040C000C040E000C0600000C0602000C0604000C0606000C0608000C060A000C060C000C060E000C0800000C0802000C0804000C0806000C0808000C080A000C080C000C080E000C0A00000C0A02000C0A04000C0A06000C0A08000C0A0A000C0A0C000C0A0E000C0C00000C0C02000C0C04000C0C06000
310
C0C08000C0C0A000F0FBFF00A4A0A000808080000000FF0000FF000000FFFF00FF000000FF00FF00FFFF0000FFFFFF00000000000000000000000000000000000000000000000000000000000000000000000000000000000000FBFBFEFBFEFBFBFEFBFEFBFB00000000000000000000000000000000000000FBFBFBFEFBFE
310
FBFBFEFBFEFBFBFB000000000000000000000000000000000000FB0000FE00FE0000FE00FE0000FB000000000000000000000000000000000000FB0000FE00FE0000FE00FE0000FB000000000000000000000000000000000000FB0000FEFEFEFEFEFEFEFE0000FB000000000000000000000000000000000000FB000000FE
310
FE0000FEFE000000FB000000000000000000000000000000000000FB0000000000FEFE0000000000FB000000000000000000000000000000000000FBFBFBFEFBFBFBFBFBFBFEFBFBFB000000000000000000000000000000000000000000FBFE0000000000FE000000000000000000000000000000000000000000000000FB
310
FBFBFBFBFBFEFB000000000000000000000000000000000000000000000000FBFE00000000FEFB000000000000000000000000000000000000000000000000FBFE00000000FEFB000000000000000000000000000000000000000000000000FBFE00000000FEFB000000000000000000000000000000000000000000000000
310
FBFE00000000FEFB000000000000000000000000000000000000000000000000FBFE00000000FEFB000000000000000000000000000000000000000000000000FBFE00000000FEFB000000000000000000000000000000000000000000000000FBFE00000000FEFB0000000000000000000000000000000000000000000000
310
00FBFE00000000FEFB000000000000000000000000000000000000000000000000FBFE00000000FEFB000000000000000000000000000000000000000000000000FBFE00000000FEFB000000000000000000000000000000000000000000000000FBFE00000000FEFB00000000000000000000000000000000000000000000
310
0000FBFE00000000FEFB000000000000000000000000000000000000000000000000FBFE00000000FEFB000000000000000000000000000000000000000000000000FBFE00000000FEFB000000000000000000000000000000000000000000000000FBFE00000000FEFB000000000000000000000000000000000000000000
310
000000FBFE00000000FEFB000000000000000000000000000000000000000000000000FBFE00000000FEFB000000000000000000000000000000000000000000000000FBFEFBFBFBFBFEFB00000000000000000000000000000000000000000000000000FE00000000FEFB0000000000000000000000000000000000000000
310
0000000000FBFBFBFBFBFB000000000000000000000000000000000000000000000000000000000000000000000000000000000000000000
  0
BLOCK_RECORD
  5
9D15
102
{ACAD_XDICTIONARY
360
9D16
102
}
330
1
100
AcDbSymbolTableRecord
100
AcDbBlockTableRecord
  2
LS2
340
0
310
2800000020000000200000000100080000000000000400000000000000000000000000000000000000000000000080000080000000808000800000008000800080800000C0C0C000C0DCC000F0CAA6000020400000206000002080000020A0000020C0000020E00000400000004020000040400000406000004080000040A0
310
000040C0000040E00000600000006020000060400000606000006080000060A0000060C0000060E00000800000008020000080400000806000008080000080A0000080C0000080E00000A0000000A0200000A0400000A0600000A0800000A0A00000A0C00000A0E00000C0000000C0200000C0400000C0600000C0800000C0
310
A00000C0C00000C0E00000E0000000E0200000E0400000E0600000E0800000E0A00000E0C00000E0E00040000000400020004000400040006000400080004000A0004000C0004000E00040200000402020004020400040206000402080004020A0004020C0004020E000404000004040200040404000404060004040800040
310
40A0004040C0004040E00040600000406020004060400040606000406080004060A0004060C0004060E00040800000408020004080400040806000408080004080A0004080C0004080E00040A0000040A0200040A0400040A0600040A0800040A0A00040A0C00040A0E00040C0000040C0200040C0400040C0600040C08000
310
40C0A00040C0C00040C0E00040E0000040E0200040E0400040E0600040E0800040E0A00040E0C00040E0E00080000000800020008000400080006000800080008000A0008000C0008000E00080200000802020008020400080206000802080008020A0008020C0008020E00080400000804020008040400080406000804080
310
008040A0008040C0008040E00080600000806020008060400080606000806080008060A0008060C0008060E00080800000808020008080400080806000808080008080A0008080C0008080E00080A0000080A0200080A0400080A0600080A0800080A0A00080A0C00080A0E00080C0000080C0200080C0400080C0600080C0
310
800080C0A00080C0C00080C0E00080E0000080E0200080E0400080E0600080E0800080E0A00080E0C00080E0E000C0000000C0002000C0004000C0006000C0008000C000A000C000C000C000E000C0200000C0202000C0204000C0206000C0208000C020A000C020C000C020E000C0400000C0402000C0404000C0406000C0
310
408000C040A000C040C000C040E000C0600000C0602000C0604000C0606000C0608000C060A000C060C000C060E000C0800000C0802000C0804000C0806000C0808000C080A000C080C000C080E000C0A00000C0A02000C0A04000C0A06000C0A08000C0A0A000C0A0C000C0A0E000C0C00000C0C02000C0C04000C0C06000
310
C0C08000C0C0A000F0FBFF00A4A0A000808080000000FF0000FF000000FFFF00FF000000FF00FF00FFFF0000FFFFFF0000000000000000000000000000000000000000000000000000000000000000000000000000000000000000FBFBFEFEFBFBFEFEFBFB00000000000000000000000000000000000000000000FBFBFEFE
310
FBFBFEFEFBFB00000000000000000000000000000000000000000000FB00FEFE0000FEFE00FB00000000000000000000000000000000000000000000FB00FEFE0000FEFE00FB00000000000000000000000000000000000000000000FB00FEFEFEFEFEFE00FB00000000000000000000000000000000000000000000FB0000
310
FEFEFE000000FB00000000000000000000000000000000000000000000FBFBFEFBFBFBFBFEFBFB000000000000000000000000000000000000000000000000FBFBFBFBFBFE0000000000000000000000000000000000000000000000000000FE00000000FE0000000000000000000000000000000000000000000000000000
310
FE00000000FE0000000000000000000000000000000000000000000000000000FE00000000FE0000000000000000000000000000000000000000000000000000FE00000000FE0000000000000000000000000000000000000000000000000000FE00000000FE00000000000000000000000000000000000000000000000000
310
00FE00000000FE0000000000000000000000000000000000000000000000000000FE00000000FE0000000000000000000000000000000000000000000000000000FE00000000FE0000000000000000000000000000000000000000000000000000FE00000000FE000000000000000000000000000000000000000000000000
310
0000FE00000000FE0000000000000000000000000000000000000000000000000000FE00000000FE0000000000000000000000000000000000000000000000000000FE00000000FE0000000000000000000000000000000000000000000000000000FE00000000FE0000000000000000000000000000000000000000000000
310
000000FE00000000FE0000000000000000000000000000000000000000000000000000FE00000000FE0000000000000000000000000000000000000000000000000000FE00000000FE0000000000000000000000000000000000000000000000000000FE00000000FE00000000000000000000000000000000000000000000
310
00000000FE00000000FE0000000000000000000000000000000000000000000000000000FE00000000FE0000000000000000000000000000000000000000000000000000FEFBFBFBFBFE0000000000000000000000000000000000000000000000000000FEFB000000FE000000000000000000000000000000000000000000
310
000000000000FBFBFBFB00000000000000000000000000000000000000000000000000000000000000000000000000000000000000000000
102
{BLKREFS
331
9D9E
331
A7DE
102
}
  0
BLOCK_RECORD
  5
A609
330
1
100
AcDbSymbolTableRecord
100
AcDbBlockTableRecord
  2
*D5
340
0
  0
BLOCK_RECORD
  5
A630
330
1
100
AcDbSymbolTableRecord
100
AcDbBlockTableRecord
  2
*D6
340
0
  0
BLOCK_RECORD
  5
A670
330
1
100
AcDbSymbolTableRecord
100
AcDbBlockTableRecord
  2
*D7
340
0
  0
BLOCK_RECORD
  5
A68C
330
1
100
AcDbSymbolTableRecord
100
AcDbBlockTableRecord
  2
*D8
340
0
  0
BLOCK_RECORD
  5
A6A5
330
1
100
AcDbSymbolTableRecord
100
AcDbBlockTableRecord
  2
*D9
340
0
  0
BLOCK_RECORD
  5
A6B1
330
1
100
AcDbSymbolTableRecord
100
AcDbBlockTableRecord
  2
*D10
340
0
  0
BLOCK_RECORD
  5
A6BD
330
1
100
AcDbSymbolTableRecord
100
AcDbBlockTableRecord
  2
*D11
340
0
  0
BLOCK_RECORD
  5
A6CB
330
1
100
AcDbSymbolTableRecord
100
AcDbBlockTableRecord
  2
*D12
340
0
  0
BLOCK_RECORD
  5
A6D7
330
1
100
AcDbSymbolTableRecord
100
AcDbBlockTableRecord
  2
*D13
340
0
  0
BLOCK_RECORD
  5
A6E2
330
1
100
AcDbSymbolTableRecord
100
AcDbBlockTableRecord
  2
*D14
340
0
  0
BLOCK_RECORD
  5
A6ED
330
1
100
AcDbSymbolTableRecord
100
AcDbBlockTableRecord
  2
*D15
340
0
  0
BLOCK_RECORD
  5
A6F6
330
1
100
AcDbSymbolTableRecord
100
AcDbBlockTableRecord
  2
*D16
340
0
  0
BLOCK_RECORD
  5
A702
102
{ACAD_XDICTIONARY
360
A7FB
102
}
330
1
100
AcDbSymbolTableRecord
100
AcDbBlockTableRecord
  2
A$C7CF5499B
340
0
1001
ACAD
1000
DesignCenter Data
1002
{
1070
     1
1070
     0
1002
}
  0
BLOCK_RECORD
  5
AAF6
330
1
100
AcDbSymbolTableRecord
100
AcDbBlockTableRecord
  2
*D18
340
0
  0
BLOCK_RECORD
  5
AB21
330
1
100
AcDbSymbolTableRecord
100
AcDbBlockTableRecord
  2
*D19
340
0
  0
BLOCK_RECORD
  5
AB31
330
1
100
AcDbSymbolTableRecord
100
AcDbBlockTableRecord
  2
*D20
340
0
  0
BLOCK_RECORD
  5
AB45
330
1
100
AcDbSymbolTableRecord
100
AcDbBlockTableRecord
  2
*D21
340
0
  0
ENDTAB
  0
ENDSEC
  0
SECTION
  2
BLOCKS
  0
BLOCK
  5
19
330
18
100
AcDbEntity
  8
0
100
AcDbBlockBegin
  2
*MODEL_SPACE
 70
     0
 10
0.0
 20
0.0
 30
0.0
  3
*MODEL_SPACE
  1

  0
ENDBLK
  5
1A
330
18
100
AcDbEntity
  8
0
100
AcDbBlockEnd
  0
BLOCK
  5
16
330
15
100
AcDbEntity
 67
     1
  8
0
100
AcDbBlockBegin
  2
*PAPER_SPACE
 70
     0
 10
0.0
 20
0.0
 30
0.0
  3
*PAPER_SPACE
  1

  0
ENDBLK
  5
17
330
15
100
AcDbEntity
 67
     1
  8
0
100
AcDbBlockEnd
  0
BLOCK
  5
63A1
330
639D
100
AcDbEntity
  8
0
100
AcDbBlockBegin
  2
A$C255C26A2
 70
     0
 10
0.0
 20
0.0
 30
0.0
  3
A$C255C26A2
  1

  0
LWPOLYLINE
  5
639E
330
639D
100
AcDbEntity
  8
0
100
AcDbPolyline
 90
        3
 70
     1
 43
0.0
 10
7.014806023851633
 20
0.0000006939811783
 10
5.611844869720698
 20
2.430000693981241
 10
8.417767177982568
 20
2.430000693981241
  0
LWPOLYLINE
  5
639F
330
639D
100
AcDbEntity
  8
0
100
AcDbPolyline
 90
        3
 70
     1
 43
0.0
 10
4.20888371558999
 20
0.0000006939811783
 10
2.805922561459283
 20
2.430000693981241
 10
5.611844869720698
 20
2.430000693981241
  0
LWPOLYLINE
  5
63A0
330
639D
100
AcDbEntity
  8
0
100
AcDbPolyline
 90
        3
 70
     1
 43
0.0
 10
1.402961407328348
 20
0.0000006939811783
 10
0.0000002531974133
 20
2.430000693981241
 10
2.805922561459283
 20
2.430000693981241
  0
ENDBLK
  5
63A2
330
639D
100
AcDbEntity
  8
0
100
AcDbBlockEnd
  0
BLOCK
  5
7C05
330
7C04
100
AcDbEntity
  8
0
100
AcDbBlockBegin
  2
_Open30
 70
     0
 10
0.0
 20
0.0
 30
0.0
  3
_Open30
  1

  0
LINE
  5
7C06
330
7C04
100
AcDbEntity
  8
0
  6
ByBlock
 62
     0
370
    -2
100
AcDbLine
 10
-1.0
 20
0.26794919
 30
0.0
 11
0.0
 21
0.0
 31
0.0
  0
LINE
  5
7C07
330
7C04
100
AcDbEntity
  8
0
  6
ByBlock
 62
     0
370
    -2
100
AcDbLine
 10
0.0
 20
0.0
 30
0.0
 11
-1.0
 21
-0.26794919
 31
0.0
  0
LINE
  5
7C08
330
7C04
100
AcDbEntity
  8
0
  6
ByBlock
 62
     0
370
    -2
100
AcDbLine
 10
0.0
 20
0.0
 30
0.0
 11
-1.0
 21
0.0
 31
0.0
  0
ENDBLK
  5
7C09
330
7C04
100
AcDbEntity
  8
0
100
AcDbBlockEnd
  0
BLOCK
  5
7C0E
330
7C0A
100
AcDbEntity
  8
0
100
AcDbBlockBegin
  2
A
 70
     0
 10
0.0
 20
0.0
 30
0.0
  3
A
  1

  0
MTEXT
  5
7C0F
330
7C0A
100
AcDbEntity
  8
mark
 62
     3
100
AcDbMText
 10
10.65641897020822
 20
-5.596245361730467
 30
0.0
 40
2.5
 41
0.0
 71
     5
 72
     1
  1
A
 73
     1
 44
1.0
1001
ACAD
1000
ACAD_MTEXT_DEFINED_HEIGHT_BEGIN
1070
    46
1040
0.0
1000
ACAD_MTEXT_DEFINED_HEIGHT_END
  0
LWPOLYLINE
  5
7C10
330
7C0A
100
AcDbEntity
  8
mark
100
AcDbPolyline
 90
        4
 70
     1
 43
0.0
 10
9.07926800414657
 20
-7.141145101782569
 10
12.07926800414657
 20
-7.141145101782569
 10
12.07926800414657
 20
-4.141145101782569
 10
9.07926800414657
 20
-4.141145101782569
  0
HATCH
  5
7C11
330
7C0A
100
AcDbEntity
  8
mark
100
AcDbHatch
 10
0.0
 20
0.0
 30
0.0
210
0.0
220
0.0
230
1.0
  2
SOLID
 70
     1
 71
     0
 91
        1
 92
        7
 72
     0
 73
     1
 93
        3
 10
5.32926800414657
 20
-5.641145101782569
 10
4.07926800414657
 20
-4.391145101782541
 10
4.07926800414657
 20
-6.891145101782541
 97
        0
 75
     0
 76
     1
 47
0.0398277943677868
 98
        1
 10
4.589689734415287
 20
-5.732163331855076
450
        0
451
        0
460
0.0
461
0.0
452
        1
462
1.0
453
        2
463
0.0
 63
     5
421
      255
463
1.0
 63
     7
421
 16777215
470
LINEAR
1001
ACAD
1010
0.0
1020
0.0
1030
0.0
  0
LINE
  5
7C12
330
7C0A
100
AcDbEntity
  8
mark
100
AcDbLine
 10
5.32926800414657
 20
-5.641145101782569
 30
0.0
 11
9.07926800414657
 21
-5.641145101782569
 31
0.0
  0
LINE
  5
7C13
330
7C0A
100
AcDbEntity
  8
mark
100
AcDbLine
 10
5.32926800414657
 20
-5.641145101782569
 30
0.0
 11
4.07926800414657
 21
-4.391145101782569
 31
0.0
  0
LINE
  5
7C14
330
7C0A
100
AcDbEntity
  8
mark
100
AcDbLine
 10
5.32926800414657
 20
-5.641145101782569
 30
0.0
 11
4.07926800414657
 21
-6.891145101782569
 31
0.0
  0
ENDBLK
  5
7C15
330
7C0A
100
AcDbEntity
  8
0
100
AcDbBlockEnd
  0
BLOCK
  5
8E76
330
8E72
100
AcDbEntity
  8
0
100
AcDbBlockBegin
  2
LS
 70
     0
 10
0.0
 20
0.0
 30
0.0
  3
LS
  1

  0
LINE
  5
8E78
330
8E72
100
AcDbEntity
  8
contour
100
AcDbLine
 10
310.7457309951603
 20
181.0160360664828
 30
0.0
 11
310.7457309951603
 21
184.7160360664827
 31
0.0
  0
LINE
  5
8E79
330
8E72
100
AcDbEntity
  8
contour
100
AcDbLine
 10
310.7457309951603
 20
184.7160360664827
 30
0.0
 11
303.7457309951603
 21
184.7160360664827
 31
0.0
  0
LINE
  5
8E7A
330
8E72
100
AcDbEntity
  8
contour
100
AcDbLine
 10
308.4457309951603
 20
196.7160360664827
 30
0.0
 11
306.0457309951603
 21
196.7160360664826
 31
0.0
  0
LINE
  5
8E7B
330
8E72
100
AcDbEntity
  8
contour
100
AcDbLine
 10
309.2457309951603
 20
195.9160360664826
 30
0.0
 11
308.4457309951603
 21
196.7160360664826
 31
0.0
  0
LINE
  5
8E7C
330
8E72
100
AcDbEntity
  8
contour
100
AcDbLine
 10
303.7457309951603
 20
184.7160360664827
 30
0.0
 11
303.7457309951603
 21
181.0160360664827
 31
0.0
  0
LINE
  5
8E7D
330
8E72
100
AcDbEntity
  8
contour
100
AcDbLine
 10
304.0457309951603
 20
180.7160360664827
 30
0.0
 11
310.4457309951603
 21
180.7160360664828
 31
0.0
  0
LINE
  5
8E7E
330
8E72
100
AcDbEntity
  8
contour
100
AcDbLine
 10
310.7457309951603
 20
181.0160360664828
 30
0.0
 11
310.4457309951603
 21
180.7160360664828
 31
0.0
  0
LINE
  5
8E7F
330
8E72
100
AcDbEntity
  8
contour
100
AcDbLine
 10
303.7457309951603
 20
181.0160360664827
 30
0.0
 11
304.0457309951603
 21
180.7160360664827
 31
0.0
  0
LINE
  5
8E80
330
8E72
100
AcDbEntity
  8
contour
100
AcDbLine
 10
309.2457309951603
 20
184.7160360664826
 30
0.0
 11
309.2457309951603
 21
195.9160360664827
 31
0.0
  0
LINE
  5
8E81
330
8E72
100
AcDbEntity
  8
contour
100
AcDbLine
 10
305.2457309951603
 20
184.7160360664826
 30
0.0
 11
305.2457309951603
 21
195.9160360664827
 31
0.0
  0
LINE
  5
8E82
330
8E72
100
AcDbEntity
  8
contour
100
AcDbLine
 10
306.0457309951603
 20
196.7160360664826
 30
0.0
 11
305.2457309951603
 21
195.9160360664826
 31
0.0
  0
LINE
  5
8E83
330
8E72
100
AcDbEntity
  8
contour
100
AcDbLine
 10
309.2457309951603
 20
195.9160360664827
 30
0.0
 11
305.2457309951603
 21
195.9160360664827
 31
0.0
  0
LINE
  5
8E84
330
8E72
100
AcDbEntity
  8
contour
 62
     4
100
AcDbLine
 10
308.8667309951603
 20
185.3724833225513
 30
0.0
 11
308.8667309951603
 21
196.2950360664826
 31
0.0
  0
LINE
  5
8E85
330
8E72
100
AcDbEntity
  8
contour
 62
     4
100
AcDbLine
 10
305.6247309951603
 20
185.3724833225513
 30
0.0
 11
305.6247309951603
 21
196.2950360664826
 31
0.0
  0
LINE
  5
8E86
330
8E72
100
AcDbEntity
  8
contour
100
AcDbLine
 10
310.7457309951603
 20
181.0160360664828
 30
0.0
 11
303.7457309951603
 21
181.0160360664828
 31
0.0
  0
LINE
  5
8E87
330
8E72
100
AcDbEntity
  8
bowle
 48
0.1
100
AcDbLine
 10
308.1117563989447
 20
180.7160360664827
 30
0.0
 11
308.1117563989447
 21
182.9160360664827
 31
0.0
  0
LINE
  5
8E88
330
8E72
100
AcDbEntity
  8
bowle
 48
0.1
100
AcDbLine
 10
308.9777818027293
 20
180.7160360664827
 30
0.0
 11
308.9777818027293
 21
182.9160360664827
 31
0.0
  0
LINE
  5
8E89
330
8E72
100
AcDbEntity
  8
bowle
 48
0.1
100
AcDbLine
 10
306.3797055913759
 20
180.7160360664827
 30
0.0
 11
306.3797055913759
 21
182.9160360664826
 31
0.0
  0
LINE
  5
8E8A
330
8E72
100
AcDbEntity
  8
bowle
 48
0.1
100
AcDbLine
 10
305.5136801875914
 20
180.7160360664827
 30
0.0
 11
305.5136801875914
 21
182.9160360664826
 31
0.0
  0
LINE
  5
8E8B
330
8E72
100
AcDbEntity
  8
bowle
 48
0.1
100
AcDbLine
 10
308.9777818027292
 20
182.9160360664827
 30
0.0
 11
305.5136801875914
 21
182.9160360664827
 31
0.0
  0
LINE
  5
8E8C
330
8E72
100
AcDbEntity
  8
bowle
 48
0.1
100
AcDbLine
 10
305.5136801875914
 20
182.9160360664826
 30
0.0
 11
307.2457309951603
 21
183.9160360664826
 31
0.0
  0
LINE
  5
8E8D
330
8E72
100
AcDbEntity
  8
bowle
 48
0.1
100
AcDbLine
 10
308.9777818027292
 20
182.9160360664826
 30
0.0
 11
307.2457309951603
 21
183.9160360664826
 31
0.0
  0
LINE
  5
8E8E
330
8E72
100
AcDbEntity
  8
contour
 62
     4
100
AcDbLine
 10
305.6247309951603
 20
185.3724833225513
 30
0.0
 11
305.2457309951603
 21
184.7160360664826
 31
0.0
  0
LINE
  5
8E8F
330
8E72
100
AcDbEntity
  8
contour
100
AcDbLine
 10
305.2457309951603
 20
185.3724833225513
 30
0.0
 11
309.2457309951603
 21
185.3724833225513
 31
0.0
  0
LINE
  5
8E90
330
8E72
100
AcDbEntity
  8
contour
 62
     4
100
AcDbLine
 10
309.2457309951603
 20
184.7160360664827
 30
0.0
 11
308.8667309951603
 21
185.3724833225513
 31
0.0
  0
ENDBLK
  5
8E77
330
8E72
100
AcDbEntity
  8
0
100
AcDbBlockEnd
  0
BLOCK
  5
9D19
330
9D15
100
AcDbEntity
  8
0
100
AcDbBlockBegin
  2
LS2
 70
     0
 10
0.0
 20
0.0
 30
0.0
  3
LS2
  1

  0
LINE
  5
9D1B
330
9D15
100
AcDbEntity
  8
contour
100
AcDbLine
 10
143.2797554375081
 20
0.0655328110734672
 30
0.0
 11
143.2797554375081
 21
3.765532811073398
 31
0.0
  0
LINE
  5
9D1C
330
9D15
100
AcDbEntity
  8
contour
100
AcDbLine
 10
143.2797554375081
 20
3.765532811073398
 30
0.0
 11
136.2797554375081
 21
3.765532811073398
 31
0.0
  0
LINE
  5
9D1D
330
9D15
100
AcDbEntity
  8
contour
100
AcDbLine
 10
140.979755437508
 20
19.7655328110734
 30
0.0
 11
138.5797554375081
 21
19.76553281107334
 31
0.0
  0
LINE
  5
9D1E
330
9D15
100
AcDbEntity
  8
contour
100
AcDbLine
 10
141.7797554375081
 20
18.96553281107333
 30
0.0
 11
140.9797554375081
 21
19.76553281107334
 31
0.0
  0
LINE
  5
9D1F
330
9D15
100
AcDbEntity
  8
contour
100
AcDbLine
 10
136.2797554375081
 20
3.765532811073398
 30
0.0
 11
136.2797554375081
 21
0.0655328110733535
 31
0.0
  0
LINE
  5
9D20
330
9D15
100
AcDbEntity
  8
contour
100
AcDbLine
 10
136.5797554375081
 20
-0.2344671889266578
 30
0.0
 11
142.9797554375081
 21
-0.2344671889265442
 31
0.0
  0
LINE
  5
9D21
330
9D15
100
AcDbEntity
  8
contour
100
AcDbLine
 10
143.2797554375081
 20
0.0655328110734672
 30
0.0
 11
142.9797554375081
 21
-0.2344671889265442
 31
0.0
  0
LINE
  5
9D22
330
9D15
100
AcDbEntity
  8
contour
100
AcDbLine
 10
136.2797554375081
 20
0.0655328110733535
 30
0.0
 11
136.5797554375081
 21
-0.2344671889266578
 31
0.0
  0
LINE
  5
9D23
330
9D15
100
AcDbEntity
  8
contour
100
AcDbLine
 10
141.7797554375081
 20
3.765532811073342
 30
0.0
 11
141.7797554375081
 21
18.96553281107339
 31
0.0
  0
LINE
  5
9D24
330
9D15
100
AcDbEntity
  8
contour
100
AcDbLine
 10
137.7797554375081
 20
3.765532811073342
 30
0.0
 11
137.7797554375081
 21
18.96553281107339
 31
0.0
  0
LINE
  5
9D25
330
9D15
100
AcDbEntity
  8
contour
100
AcDbLine
 10
138.5797554375081
 20
19.76553281107334
 30
0.0
 11
137.7797554375081
 21
18.96553281107333
 31
0.0
  0
LINE
  5
9D26
330
9D15
100
AcDbEntity
  8
contour
100
AcDbLine
 10
141.7797554375081
 20
18.96553281107339
 30
0.0
 11
137.7797554375081
 21
18.96553281107339
 31
0.0
  0
LINE
  5
9D27
330
9D15
100
AcDbEntity
  8
contour
 62
     4
100
AcDbLine
 10
141.400755437508
 20
4.42198006714193
 30
0.0
 11
141.4007554375081
 21
19.34453281107327
 31
0.0
  0
LINE
  5
9D28
330
9D15
100
AcDbEntity
  8
contour
 62
     4
100
AcDbLine
 10
138.1587554375081
 20
4.42198006714193
 30
0.0
 11
138.1587554375081
 21
19.34453281107336
 31
0.0
  0
LINE
  5
9D29
330
9D15
100
AcDbEntity
  8
contour
100
AcDbLine
 10
143.2797554375081
 20
0.0655328110734672
 30
0.0
 11
136.2797554375081
 21
0.0655328110735241
 31
0.0
  0
LINE
  5
9D2A
330
9D15
100
AcDbEntity
  8
bowle
 48
0.1
100
AcDbLine
 10
140.6457808412925
 20
-0.234467188926601
 30
0.0
 11
140.6457808412925
 21
1.965532811073387
 31
0.0
  0
LINE
  5
9D2B
330
9D15
100
AcDbEntity
  8
bowle
 48
0.1
100
AcDbLine
 10
141.511806245077
 20
-0.2344671889266578
 30
0.0
 11
141.511806245077
 21
1.965532811073387
 31
0.0
  0
LINE
  5
9D2C
330
9D15
100
AcDbEntity
  8
bowle
 48
0.1
100
AcDbLine
 10
138.9137300337237
 20
-0.234467188926601
 30
0.0
 11
138.9137300337237
 21
1.96553281107333
 31
0.0
  0
LINE
  5
9D2D
330
9D15
100
AcDbEntity
  8
bowle
 48
0.1
100
AcDbLine
 10
138.0477046299392
 20
-0.2344671889266578
 30
0.0
 11
138.0477046299391
 21
1.96553281107333
 31
0.0
  0
LINE
  5
9D2E
330
9D15
100
AcDbEntity
  8
bowle
 48
0.1
100
AcDbLine
 10
141.511806245077
 20
1.965532811073387
 30
0.0
 11
138.0477046299391
 21
1.965532811073387
 31
0.0
  0
LINE
  5
9D2F
330
9D15
100
AcDbEntity
  8
bowle
 48
0.1
100
AcDbLine
 10
138.0477046299391
 20
1.96553281107333
 30
0.0
 11
139.779755437508
 21
2.96553281107333
 31
0.0
  0
LINE
  5
9D30
330
9D15
100
AcDbEntity
  8
bowle
 48
0.1
100
AcDbLine
 10
141.511806245077
 20
1.96553281107333
 30
0.0
 11
139.779755437508
 21
2.96553281107333
 31
0.0
  0
LINE
  5
9D31
330
9D15
100
AcDbEntity
  8
contour
 62
     4
100
AcDbLine
 10
138.1587554375081
 20
4.421980067141987
 30
0.0
 11
137.7797554375081
 21
3.765532811073342
 31
0.0
  0
LINE
  5
9D32
330
9D15
100
AcDbEntity
  8
contour
100
AcDbLine
 10
137.7797554375081
 20
4.42198006714193
 30
0.0
 11
141.7797554375081
 21
4.42198006714193
 31
0.0
  0
LINE
  5
9D33
330
9D15
100
AcDbEntity
  8
contour
 62
     4
100
AcDbLine
 10
141.7797554375081
 20
3.765532811073398
 30
0.0
 11
141.400755437508
 21
4.42198006714193
 31
0.0
  0
ENDBLK
  5
9D1A
330
9D15
100
AcDbEntity
  8
0
100
AcDbBlockEnd
  0
BLOCK
  5
A613
330
A609
100
AcDbEntity
  8
0
100
AcDbBlockBegin
  2
*D5
 70
     1
 10
0.0
 20
0.0
 30
0.0
  3
*D5
  1

  0
LINE
  5
A60A
330
A609
100
AcDbEntity
  8
mark
370
    -2
100
AcDbLine
 10
129.3406849548574
 20
117.0552648763453
 30
0.0
 11
137.9717387633591
 21
117.0552648763453
 31
0.0
  0
LINE
  5
A60B
330
A609
100
AcDbEntity
  8
mark
370
    -2
100
AcDbLine
 10
129.3406849548573
 20
102.1552648763453
 30
0.0
 11
137.9717387633591
 21
102.1552648763453
 31
0.0
  0
LINE
  5
A60C
330
A609
100
AcDbEntity
  8
mark
370
    -2
100
AcDbLine
 10
137.1717387633591
 20
114.5552648763453
 30
0.0
 11
137.1717387633591
 21
104.6552648763453
 31
0.0
  0
INSERT
  5
A60D
330
A609
100
AcDbEntity
  8
mark
370
    -2
100
AcDbBlockReference
  2
_Open30
 10
137.1717387633591
 20
117.0552648763453
 30
0.0
 41
2.5
 42
2.5
 43
2.5
 50
90.0
  0
INSERT
  5
A60E
330
A609
100
AcDbEntity
  8
mark
370
    -2
100
AcDbBlockReference
  2
_Open30
 10
137.1717387633591
 20
102.1552648763453
 30
0.0
 41
2.5
 42
2.5
 43
2.5
 50
270.0
  0
MTEXT
  5
A60F
330
A609
100
AcDbEntity
  8
mark
 62
     3
100
AcDbMText
 10
135.1217387633591
 20
109.6052648763453
 30
0.0
 40
2.5
 41
0.0
 71
     5
 72
     1
  1
\A1;14.9
 11
0.0000000000000001
 21
1.0
 31
0.0
 73
     1
 44
1.0
  0
POINT
  5
A610
330
A609
100
AcDbEntity
  8
DEFPOINTS
 62
     0
100
AcDbPoint
 10
128.5406849548574
 20
117.0552648763453
 30
0.0
  0
POINT
  5
A611
330
A609
100
AcDbEntity
  8
DEFPOINTS
 62
     0
100
AcDbPoint
 10
128.5406849548573
 20
102.1552648763453
 30
0.0
  0
POINT
  5
A612
330
A609
100
AcDbEntity
  8
DEFPOINTS
 62
     0
100
AcDbPoint
 10
137.1717387633591
 20
102.1552648763453
 30
0.0
  0
ENDBLK
  5
A614
330
A609
100
AcDbEntity
  8
0
100
AcDbBlockEnd
  0
BLOCK
  5
A63A
330
A630
100
AcDbEntity
  8
0
100
AcDbBlockBegin
  2
*D6
 70
     1
 10
0.0
 20
0.0
 30
0.0
  3
*D6
  1

  0
LINE
  5
A631
330
A630
100
AcDbEntity
  8
mark
370
    -2
100
AcDbLine
 10
129.3406849548574
 20
117.0552648763453
 30
0.0
 11
145.3994345173715
 21
117.0552648763453
 31
0.0
  0
LINE
  5
A632
330
A630
100
AcDbEntity
  8
mark
370
    -2
100
AcDbLine
 10
129.3406849548574
 20
95.05526487634529
 30
0.0
 11
145.3994345173715
 21
95.05526487634529
 31
0.0
  0
LINE
  5
A633
330
A630
100
AcDbEntity
  8
mark
370
    -2
100
AcDbLine
 10
144.5994345173715
 20
114.5552648763453
 30
0.0
 11
144.5994345173715
 21
97.55526487634529
 31
0.0
  0
INSERT
  5
A634
330
A630
100
AcDbEntity
  8
mark
370
    -2
100
AcDbBlockReference
  2
_Open30
 10
144.5994345173715
 20
117.0552648763453
 30
0.0
 41
2.5
 42
2.5
 43
2.5
 50
90.0
  0
INSERT
  5
A635
330
A630
100
AcDbEntity
  8
mark
370
    -2
100
AcDbBlockReference
  2
_Open30
 10
144.5994345173715
 20
95.05526487634529
 30
0.0
 41
2.5
 42
2.5
 43
2.5
 50
270.0
  0
MTEXT
  5
A636
330
A630
100
AcDbEntity
  8
mark
 62
     3
100
AcDbMText
 10
142.5494345173714
 20
106.0552648763453
 30
0.0
 40
2.5
 41
0.0
 71
     5
 72
     1
  1
\A1;22%%P0.2
 11
0.0000000000000001
 21
1.0
 31
0.0
 73
     1
 44
1.0
  0
POINT
  5
A637
330
A630
100
AcDbEntity
  8
DEFPOINTS
 62
     0
100
AcDbPoint
 10
128.5406849548574
 20
117.0552648763453
 30
0.0
  0
POINT
  5
A638
330
A630
100
AcDbEntity
  8
DEFPOINTS
 62
     0
100
AcDbPoint
 10
128.5406849548574
 20
95.05526487634529
 30
0.0
  0
POINT
  5
A639
330
A630
100
AcDbEntity
  8
DEFPOINTS
 62
     0
100
AcDbPoint
 10
144.5994345173715
 20
95.05526487634529
 30
0.0
  0
ENDBLK
  5
A63B
330
A630
100
AcDbEntity
  8
0
100
AcDbBlockEnd
  0
BLOCK
  5
A67A
330
A670
100
AcDbEntity
  8
0
100
AcDbBlockBegin
  2
*D7
 70
     1
 10
0.0
 20
0.0
 30
0.0
  3
*D7
  1

  0
LINE
  5
A671
330
A670
100
AcDbEntity
  8
mark
370
    -2
100
AcDbLine
 10
73.0406849548574
 20
94.94326487634527
 30
0.0
 11
73.0406849548574
 21
80.73289000642906
 31
0.0
  0
LINE
  5
A672
330
A670
100
AcDbEntity
  8
mark
370
    -2
100
AcDbLine
 10
118.0406849548574
 20
94.94326487634527
 30
0.0
 11
118.0406849548574
 21
80.73289000642906
 31
0.0
  0
LINE
  5
A673
330
A670
100
AcDbEntity
  8
mark
370
    -2
100
AcDbLine
 10
75.5406849548574
 20
81.53289000642905
 30
0.0
 11
115.5406849548574
 21
81.53289000642905
 31
0.0
  0
INSERT
  5
A674
330
A670
100
AcDbEntity
  8
mark
370
    -2
100
AcDbBlockReference
  2
_Open30
 10
73.0406849548574
 20
81.53289000642905
 30
0.0
 41
2.5
 42
2.5
 43
2.5
 50
180.0
  0
INSERT
  5
A675
330
A670
100
AcDbEntity
  8
mark
370
    -2
100
AcDbBlockReference
  2
_Open30
 10
118.0406849548574
 20
81.53289000642905
 30
0.0
 41
2.5
 42
2.5
 43
2.5
  0
MTEXT
  5
A676
330
A670
100
AcDbEntity
  8
mark
 62
     3
100
AcDbMText
 10
95.5406849548574
 20
83.58289000642905
 30
0.0
 40
2.5
 41
0.0
 71
     5
 72
     1
  1
\A1;M45X1.5P
 73
     1
 44
1.0
  0
POINT
  5
A677
330
A670
100
AcDbEntity
  8
DEFPOINTS
 62
     0
100
AcDbPoint
 10
73.0406849548574
 20
95.74326487634527
 30
0.0
  0
POINT
  5
A678
330
A670
100
AcDbEntity
  8
DEFPOINTS
 62
     0
100
AcDbPoint
 10
118.0406849548574
 20
95.74326487634527
 30
0.0
  0
POINT
  5
A679
330
A670
100
AcDbEntity
  8
DEFPOINTS
 62
     0
100
AcDbPoint
 10
118.0406849548574
 20
81.53289000642905
 30
0.0
  0
ENDBLK
  5
A67B
330
A670
100
AcDbEntity
  8
0
100
AcDbBlockEnd
  0
BLOCK
  5
A698
330
A68C
100
AcDbEntity
  8
0
100
AcDbBlockBegin
  2
*D8
 70
     1
 10
0.0
 20
0.0
 30
0.0
  3
*D8
  1

  0
LINE
  5
A69A
330
A68C
100
AcDbEntity
  8
mark
370
    -2
100
AcDbLine
 10
61.74068495485743
 20
117.0552648763453
 30
0.0
 11
52.98397539527147
 21
117.0552648763453
 31
0.0
  0
LINE
  5
A69B
330
A68C
100
AcDbEntity
  8
mark
370
    -2
100
AcDbLine
 10
58.74068495485743
 20
110.5552648763453
 30
0.0
 11
52.98397539527147
 21
110.5552648763453
 31
0.0
  0
LINE
  5
A69C
330
A68C
100
AcDbEntity
  8
mark
370
    -2
100
AcDbLine
 10
53.78397539527147
 20
119.5552648763453
 30
0.0
 11
53.78397539527147
 21
122.0552648763453
 31
0.0
  0
LINE
  5
A69D
330
A68C
100
AcDbEntity
  8
mark
370
    -2
100
AcDbLine
 10
53.78397539527147
 20
108.0552648763453
 30
0.0
 11
53.78397539527147
 21
105.5552648763453
 31
0.0
  0
LINE
  5
A69E
330
A68C
100
AcDbEntity
  8
mark
370
    -2
100
AcDbLine
 10
53.78397539527147
 20
117.0552648763453
 30
0.0
 11
53.78397539527147
 21
110.5552648763453
 31
0.0
  0
INSERT
  5
A69F
330
A68C
100
AcDbEntity
  8
mark
370
    -2
100
AcDbBlockReference
  2
_Open30
 10
53.78397539527147
 20
117.0552648763453
 30
0.0
 41
2.5
 42
2.5
 43
2.5
 50
270.0
  0
INSERT
  5
A6A0
330
A68C
100
AcDbEntity
  8
mark
370
    -2
100
AcDbBlockReference
  2
_Open30
 10
53.78397539527147
 20
110.5552648763453
 30
0.0
 41
2.5
 42
2.5
 43
2.5
 50
90.0
  0
MTEXT
  5
A6A1
330
A68C
100
AcDbEntity
  8
mark
 62
     3
100
AcDbMText
 10
51.73397539527146
 20
113.8052648763453
 30
0.0
 40
2.5
 41
0.0
 71
     5
 72
     1
  1
\A1;6.5
 11
0.0000000000000001
 21
1.0
 31
0.0
 73
     1
 44
1.0
  0
POINT
  5
A6A2
330
A68C
100
AcDbEntity
  8
DEFPOINTS
 62
     0
100
AcDbPoint
 10
62.54068495485743
 20
117.0552648763453
 30
0.0
  0
POINT
  5
A6A3
330
A68C
100
AcDbEntity
  8
DEFPOINTS
 62
     0
100
AcDbPoint
 10
59.54068495485742
 20
110.5552648763453
 30
0.0
  0
POINT
  5
A6A4
330
A68C
100
AcDbEntity
  8
DEFPOINTS
 62
     0
100
AcDbPoint
 10
53.78397539527147
 20
110.5552648763453
 30
0.0
  0
ENDBLK
  5
A699
330
A68C
100
AcDbEntity
  8
0
100
AcDbBlockEnd
  0
BLOCK
  5
A6A6
330
A6A5
100
AcDbEntity
  8
0
100
AcDbBlockBegin
  2
*D9
 70
     1
 10
0.0
 20
0.0
 30
0.0
  3
*D9
  1

  0
LINE
  5
A6A7
330
A6A5
100
AcDbEntity
  8
mark
370
    -2
100
AcDbLine
 10
61.95287826839083
 20
41.54127681071903
 30
0.0
 11
61.95287826839083
 21
33.89930542821171
 31
0.0
  0
LINE
  5
A6A8
330
A6A5
100
AcDbEntity
  8
mark
370
    -2
100
AcDbLine
 10
29.95287826839086
 20
41.54127681071903
 30
0.0
 11
29.95287826839086
 21
33.89930542821171
 31
0.0
  0
LINE
  5
A6A9
330
A6A5
100
AcDbEntity
  8
mark
370
    -2
100
AcDbLine
 10
60.70287826839083
 20
34.29930542821171
 30
0.0
 11
31.20287826839086
 21
34.29930542821171
 31
0.0
  0
INSERT
  5
A6AA
330
A6A5
100
AcDbEntity
  8
mark
370
    -2
100
AcDbBlockReference
  2
_Open30
 10
61.95287826839083
 20
34.29930542821171
 30
0.0
 41
1.25
 42
1.25
 43
1.25
  0
INSERT
  5
A6AB
330
A6A5
100
AcDbEntity
  8
mark
370
    -2
100
AcDbBlockReference
  2
_Open30
 10
29.95287826839086
 20
34.29930542821171
 30
0.0
 41
1.25
 42
1.25
 43
1.25
 50
180.0
  0
MTEXT
  5
A6AC
330
A6A5
100
AcDbEntity
  8
mark
 62
     3
100
AcDbMText
 10
45.95287826839085
 20
35.32430542821171
 30
0.0
 40
1.25
 41
0.0
 71
     5
 72
     1
  1
\A1;M32X1.5P
 73
     1
 44
1.0
  0
POINT
  5
A6AD
330
A6A5
100
AcDbEntity
  8
DEFPOINTS
 62
     0
100
AcDbPoint
 10
61.95287826839083
 20
41.94127681071903
 30
0.0
  0
POINT
  5
A6AE
330
A6A5
100
AcDbEntity
  8
DEFPOINTS
 62
     0
100
AcDbPoint
 10
29.95287826839086
 20
41.94127681071903
 30
0.0
  0
POINT
  5
A6AF
330
A6A5
100
AcDbEntity
  8
DEFPOINTS
 62
     0
100
AcDbPoint
 10
29.95287826839086
 20
34.29930542821171
 30
0.0
  0
ENDBLK
  5
A6B0
330
A6A5
100
AcDbEntity
  8
0
100
AcDbBlockEnd
  0
BLOCK
  5
A6B2
330
A6B1
100
AcDbEntity
  8
0
100
AcDbBlockBegin
  2
*D10
 70
     1
 10
0.0
 20
0.0
 30
0.0
  3
*D10
  1

  0
LINE
  5
A6B3
330
A6B1
100
AcDbEntity
  8
mark
370
    -2
100
AcDbLine
 10
70.35287826839087
 20
63.25327681071904
 30
0.0
 11
75.01886981645018
 21
63.25327681071904
 31
0.0
  0
LINE
  5
A6B4
330
A6B1
100
AcDbEntity
  8
mark
370
    -2
100
AcDbLine
 10
70.35287826839087
 20
48.35327681071905
 30
0.0
 11
75.01886981645018
 21
48.35327681071905
 31
0.0
  0
LINE
  5
A6B5
330
A6B1
100
AcDbEntity
  8
mark
370
    -2
100
AcDbLine
 10
74.61886981645017
 20
62.00327681071904
 30
0.0
 11
74.61886981645017
 21
49.60327681071905
 31
0.0
  0
INSERT
  5
A6B6
330
A6B1
100
AcDbEntity
  8
mark
370
    -2
100
AcDbBlockReference
  2
_Open30
 10
74.61886981645017
 20
63.25327681071904
 30
0.0
 41
1.25
 42
1.25
 43
1.25
 50
90.0
  0
INSERT
  5
A6B7
330
A6B1
100
AcDbEntity
  8
mark
370
    -2
100
AcDbBlockReference
  2
_Open30
 10
74.61886981645017
 20
48.35327681071905
 30
0.0
 41
1.25
 42
1.25
 43
1.25
 50
270.0
  0
MTEXT
  5
A6B8
330
A6B1
100
AcDbEntity
  8
mark
 62
     3
100
AcDbMText
 10
73.59386981645015
 20
55.80327681071905
 30
0.0
 40
1.25
 41
0.0
 71
     5
 72
     1
  1
\A1;14.9
 11
0.0000000000000001
 21
1.0
 31
0.0
 73
     1
 44
1.0
  0
POINT
  5
A6B9
330
A6B1
100
AcDbEntity
  8
DEFPOINTS
 62
     0
100
AcDbPoint
 10
69.95287826839086
 20
63.25327681071904
 30
0.0
  0
POINT
  5
A6BA
330
A6B1
100
AcDbEntity
  8
DEFPOINTS
 62
     0
100
AcDbPoint
 10
69.95287826839086
 20
48.35327681071905
 30
0.0
  0
POINT
  5
A6BB
330
A6B1
100
AcDbEntity
  8
DEFPOINTS
 62
     0
100
AcDbPoint
 10
74.61886981645017
 20
48.35327681071905
 30
0.0
  0
ENDBLK
  5
A6BC
330
A6B1
100
AcDbEntity
  8
0
100
AcDbBlockEnd
  0
BLOCK
  5
A6BE
330
A6BD
100
AcDbEntity
  8
0
100
AcDbBlockBegin
  2
*D11
 70
     1
 10
0.0
 20
0.0
 30
0.0
  3
*D11
  1

  0
LINE
  5
A6BF
330
A6BD
100
AcDbEntity
  8
mark
370
    -2
100
AcDbLine
 10
70.35287826839087
 20
48.35327681071905
 30
0.0
 11
75.01886981645018
 21
48.35327681071905
 31
0.0
  0
LINE
  5
A6C0
330
A6BD
100
AcDbEntity
  8
mark
370
    -2
100
AcDbLine
 10
70.35287826839087
 20
46.35327681071904
 30
0.0
 11
75.01886981645018
 21
46.35327681071904
 31
0.0
  0
LINE
  5
A6C1
330
A6BD
100
AcDbEntity
  8
mark
370
    -2
100
AcDbLine
 10
74.61886981645017
 20
49.60327681071905
 30
0.0
 11
74.61886981645017
 21
50.85327681071905
 31
0.0
  0
LINE
  5
A6C2
330
A6BD
100
AcDbEntity
  8
mark
370
    -2
100
AcDbLine
 10
74.61886981645017
 20
45.10327681071904
 30
0.0
 11
74.61886981645017
 21
43.85327681071904
 31
0.0
  0
LINE
  5
A6C3
330
A6BD
100
AcDbEntity
  8
mark
370
    -2
100
AcDbLine
 10
74.61886981645017
 20
48.35327681071905
 30
0.0
 11
74.61886981645017
 21
46.35327681071904
 31
0.0
  0
INSERT
  5
A6C4
330
A6BD
100
AcDbEntity
  8
mark
370
    -2
100
AcDbBlockReference
  2
_Open30
 10
74.61886981645017
 20
48.35327681071905
 30
0.0
 41
1.25
 42
1.25
 43
1.25
 50
270.0
  0
INSERT
  5
A6C5
330
A6BD
100
AcDbEntity
  8
mark
370
    -2
100
AcDbBlockReference
  2
_Open30
 10
74.61886981645017
 20
46.35327681071904
 30
0.0
 41
1.25
 42
1.25
 43
1.25
 50
90.0
  0
MTEXT
  5
A6C6
330
A6BD
100
AcDbEntity
  8
mark
 62
     3
100
AcDbMText
 10
73.59386981645015
 20
47.35327681071905
 30
0.0
 40
1.25
 41
0.0
 71
     5
 72
     1
  1
\A1;2
 11
0.0000000000000001
 21
1.0
 31
0.0
 73
     1
 44
1.0
  0
POINT
  5
A6C7
330
A6BD
100
AcDbEntity
  8
DEFPOINTS
 62
     0
100
AcDbPoint
 10
69.95287826839086
 20
48.35327681071905
 30
0.0
  0
POINT
  5
A6C8
330
A6BD
100
AcDbEntity
  8
DEFPOINTS
 62
     0
100
AcDbPoint
 10
69.95287826839086
 20
46.35327681071904
 30
0.0
  0
POINT
  5
A6C9
330
A6BD
100
AcDbEntity
  8
DEFPOINTS
 62
     0
100
AcDbPoint
 10
74.61886981645017
 20
46.35327681071904
 30
0.0
  0
ENDBLK
  5
A6CA
330
A6BD
100
AcDbEntity
  8
0
100
AcDbBlockEnd
  0
BLOCK
  5
A6CC
330
A6CB
100
AcDbEntity
  8
0
100
AcDbBlockBegin
  2
*D12
 70
     1
 10
0.0
 20
0.0
 30
0.0
  3
*D12
  1

  0
LINE
  5
A6CD
330
A6CB
100
AcDbEntity
  8
mark
370
    -2
100
AcDbLine
 10
70.35287826839087
 20
63.25327681071904
 30
0.0
 11
79.31281118343267
 21
63.25327681071904
 31
0.0
  0
LINE
  5
A6CE
330
A6CB
100
AcDbEntity
  8
mark
370
    -2
100
AcDbLine
 10
70.35287826839115
 20
41.25327681071904
 30
0.0
 11
79.31281118343267
 21
41.25327681071904
 31
0.0
  0
LINE
  5
A6CF
330
A6CB
100
AcDbEntity
  8
mark
370
    -2
100
AcDbLine
 10
78.91281118343266
 20
62.00327681071904
 30
0.0
 11
78.91281118343266
 21
42.50327681071904
 31
0.0
  0
INSERT
  5
A6D0
330
A6CB
100
AcDbEntity
  8
mark
370
    -2
100
AcDbBlockReference
  2
_Open30
 10
78.91281118343266
 20
63.25327681071904
 30
0.0
 41
1.25
 42
1.25
 43
1.25
 50
90.0
  0
INSERT
  5
A6D1
330
A6CB
100
AcDbEntity
  8
mark
370
    -2
100
AcDbBlockReference
  2
_Open30
 10
78.91281118343266
 20
41.25327681071904
 30
0.0
 41
1.25
 42
1.25
 43
1.25
 50
270.0
  0
MTEXT
  5
A6D2
330
A6CB
100
AcDbEntity
  8
mark
 62
     3
100
AcDbMText
 10
77.88781118343265
 20
52.25327681071905
 30
0.0
 40
1.25
 41
0.0
 71
     5
 72
     1
  1
\A1;22%%P0.2
 11
0.0000000000000001
 21
1.0
 31
0.0
 73
     1
 44
1.0
  0
POINT
  5
A6D3
330
A6CB
100
AcDbEntity
  8
DEFPOINTS
 62
     0
100
AcDbPoint
 10
69.95287826839086
 20
63.25327681071904
 30
0.0
  0
POINT
  5
A6D4
330
A6CB
100
AcDbEntity
  8
DEFPOINTS
 62
     0
100
AcDbPoint
 10
69.95287826839114
 20
41.25327681071904
 30
0.0
  0
POINT
  5
A6D5
330
A6CB
100
AcDbEntity
  8
DEFPOINTS
 62
     0
100
AcDbPoint
 10
78.91281118343266
 20
41.25327681071904
 30
0.0
  0
ENDBLK
  5
A6D6
330
A6CB
100
AcDbEntity
  8
0
100
AcDbBlockEnd
  0
BLOCK
  5
A6D8
330
A6D7
100
AcDbEntity
  8
0
100
AcDbBlockBegin
  2
*D13
 70
     1
 10
0.0
 20
0.0
 30
0.0
  3
*D13
  1

  0
LINE
  5
A6D9
330
A6D7
100
AcDbEntity
  8
mark
370
    -2
100
AcDbLine
 10
13.9119783997188
 20
113.1901576104656
 30
0.0
 11
26.15880868171319
 21
107.612911297608
 31
0.0
  0
LINE
  5
A6DA
330
A6D7
100
AcDbEntity
  8
mark
370
    -2
100
AcDbLine
 10
65.74694785506853
 20
89.58434405583735
 30
0.0
 11
66.88453806119944
 21
89.06628177877498
 31
0.0
  0
MTEXT
  5
A6DB
330
A6D7
100
AcDbEntity
  8
mark
 62
     3
100
AcDbMText
 10
18.20838813510879
 20
112.359842963224
 30
0.0
 40
1.25
 41
0.0
 71
     5
 72
     1
  1
\A1;P.C.D 50
 11
0.9100721649047207
 21
-0.4144498216499015
 31
0.0
 73
     1
 44
1.0
  0
LINE
  5
A6DC
330
A6D7
100
AcDbEntity
  8
mark
370
    -2
100
AcDbLine
 10
64.60935764893763
 20
90.10240633289972
 30
0.0
 11
27.29639888784409
 21
107.0948490205457
 31
0.0
  0
INSERT
  5
A6DD
330
A6D7
100
AcDbEntity
  8
mark
370
    -2
100
AcDbBlockReference
  2
_Open30
 10
64.60935764893763
 20
90.10240633289972
 30
0.0
 41
1.25
 42
1.25
 43
1.25
 50
155.5153260879175
  0
INSERT
  5
A6DE
330
A6D7
100
AcDbEntity
  8
mark
370
    -2
100
AcDbBlockReference
  2
_Open30
 10
27.29639888784409
 20
107.0948490205457
 30
0.0
 41
1.25
 42
1.25
 43
1.25
 50
335.5153260879175
  0
POINT
  5
A6DF
330
A6D7
100
AcDbEntity
  8
DEFPOINTS
 62
     0
100
AcDbPoint
 10
27.29639888784409
 20
107.0948490205457
 30
0.0
  0
POINT
  5
A6E0
330
A6D7
100
AcDbEntity
  8
DEFPOINTS
 62
     0
100
AcDbPoint
 10
64.60935764893763
 20
90.10240633289972
 30
0.0
  0
ENDBLK
  5
A6E1
330
A6D7
100
AcDbEntity
  8
0
100
AcDbBlockEnd
  0
BLOCK
  5
A6E3
330
A6E2
100
AcDbEntity
  8
0
100
AcDbBlockBegin
  2
*D14
 70
     1
 10
0.0
 20
0.0
 30
0.0
  3
*D14
  1

  0
LINE
  5
A6E4
330
A6E2
100
AcDbEntity
  8
mark
370
    -2
100
AcDbLine
 10
80.16681721691826
 20
114.4563862112673
 30
0.0
 11
66.36679361642499
 21
108.0602374849583
 31
0.0
  0
LINE
  5
A6E5
330
A6E2
100
AcDbEntity
  8
mark
370
    -2
100
AcDbLine
 10
25.53896292035688
 20
89.13701786848717
 30
0.0
 11
24.40485651213275
 21
88.61137287914075
 31
0.0
  0
MTEXT
  5
A6E6
330
A6E2
100
AcDbEntity
  8
mark
 62
     3
100
AcDbMText
 10
75.02546637683003
 20
113.203174610259
 30
0.0
 40
1.25
 41
0.0
 71
     5
 72
     1
  1
\A1;P.C.D 42.5
 11
0.907285126579292
 21
0.4205159914771359
 31
0.0
 73
     1
 44
1.0
  0
LINE
  5
A6E7
330
A6E2
100
AcDbEntity
  8
mark
370
    -2
100
AcDbLine
 10
26.67306932858099
 20
89.6626628578336
 30
0.0
 11
65.23268720820087
 21
107.5345924956119
 31
0.0
  0
INSERT
  5
A6E8
330
A6E2
100
AcDbEntity
  8
mark
370
    -2
100
AcDbBlockReference
  2
_Open30
 10
26.67306932858099
 20
89.6626628578336
 30
0.0
 41
1.25
 42
1.25
 43
1.25
 50
24.86716847133192
  0
INSERT
  5
A6E9
330
A6E2
100
AcDbEntity
  8
mark
370
    -2
100
AcDbBlockReference
  2
_Open30
 10
65.23268720820087
 20
107.5345924956119
 30
0.0
 41
1.25
 42
1.25
 43
1.25
 50
204.8671684713319
  0
POINT
  5
A6EA
330
A6E2
100
AcDbEntity
  8
DEFPOINTS
 62
     0
100
AcDbPoint
 10
65.23268720820087
 20
107.5345924956119
 30
0.0
  0
POINT
  5
A6EB
330
A6E2
100
AcDbEntity
  8
DEFPOINTS
 62
     0
100
AcDbPoint
 10
26.67306932858099
 20
89.6626628578336
 30
0.0
  0
ENDBLK
  5
A6EC
330
A6E2
100
AcDbEntity
  8
0
100
AcDbBlockEnd
  0
BLOCK
  5
A6EE
330
A6ED
100
AcDbEntity
  8
0
100
AcDbBlockBegin
  2
*D15
 70
     1
 10
0.0
 20
0.0
 30
0.0
  3
*D15
  1

  0
LINE
  5
A6EF
330
A6ED
100
AcDbEntity
  8
mark
370
    -2
100
AcDbLine
 10
17.73380780731118
 20
38.03420634963926
 30
0.0
 11
20.36188801072114
 21
40.66228655304931
 31
0.0
  0
MTEXT
  5
A6F0
330
A6ED
100
AcDbEntity
  8
mark
 62
     3
100
AcDbMText
 10
17.88112172005835
 20
39.63108916381889
 30
0.0
 40
1.25
 41
0.0
 71
     5
 72
     1
  1
\A1;R1
 11
0.7071067811865368
 21
0.7071067811865584
 31
0.0
 73
     1
 44
1.0
  0
LINE
  5
A6F1
330
A6ED
100
AcDbEntity
  8
mark
370
    -2
100
AcDbLine
 10
21.95287826839084
 20
42.25327681071905
 30
0.0
 11
21.24577148720431
 21
41.5461700295325
 31
0.0
  0
INSERT
  5
A6F2
330
A6ED
100
AcDbEntity
  8
mark
370
    -2
100
AcDbBlockReference
  2
_Open30
 10
21.24577148720431
 20
41.5461700295325
 30
0.0
 41
1.25
 42
1.25
 43
1.25
 50
45.00000000000087
  0
POINT
  5
A6F3
330
A6ED
100
AcDbEntity
  8
DEFPOINTS
 62
     0
100
AcDbPoint
 10
21.24577148720431
 20
41.5461700295325
 30
0.0
  0
POINT
  5
A6F4
330
A6ED
100
AcDbEntity
  8
DEFPOINTS
 62
     0
100
AcDbPoint
 10
21.95287826839084
 20
42.25327681071905
 30
0.0
  0
ENDBLK
  5
A6F5
330
A6ED
100
AcDbEntity
  8
0
100
AcDbBlockEnd
  0
BLOCK
  5
A6F7
330
A6F6
100
AcDbEntity
  8
0
100
AcDbBlockBegin
  2
*D16
 70
     1
 10
0.0
 20
0.0
 30
0.0
  3
*D16
  1

  0
LINE
  5
A6F8
330
A6F6
100
AcDbEntity
  8
mark
370
    -2
100
AcDbLine
 10
20.95287826839089
 20
62.65327681071904
 30
0.0
 11
20.95287826839089
 21
68.61719862751764
 31
0.0
  0
LINE
  5
A6F9
330
A6F6
100
AcDbEntity
  8
mark
370
    -2
100
AcDbLine
 10
70.95287826839086
 20
62.65327681071904
 30
0.0
 11
70.95287826839086
 21
68.61719862751764
 31
0.0
  0
LINE
  5
A6FA
330
A6F6
100
AcDbEntity
  8
mark
370
    -2
100
AcDbLine
 10
22.20287826839089
 20
68.21719862751763
 30
0.0
 11
69.70287826839086
 21
68.21719862751763
 31
0.0
  0
INSERT
  5
A6FB
330
A6F6
100
AcDbEntity
  8
mark
370
    -2
100
AcDbBlockReference
  2
_Open30
 10
20.95287826839089
 20
68.21719862751763
 30
0.0
 41
1.25
 42
1.25
 43
1.25
 50
180.0
  0
INSERT
  5
A6FC
330
A6F6
100
AcDbEntity
  8
mark
370
    -2
100
AcDbBlockReference
  2
_Open30
 10
70.95287826839086
 20
68.21719862751763
 30
0.0
 41
1.25
 42
1.25
 43
1.25
  0
MTEXT
  5
A6FD
330
A6F6
100
AcDbEntity
  8
mark
 62
     3
100
AcDbMText
 10
45.95287826839087
 20
69.24219862751764
 30
0.0
 40
1.25
 41
0.0
 71
     5
 72
     1
  1
\A1;%%C50
 73
     1
 44
1.0
  0
POINT
  5
A6FE
330
A6F6
100
AcDbEntity
  8
DEFPOINTS
 62
     0
100
AcDbPoint
 10
20.95287826839089
 20
62.25327681071904
 30
0.0
  0
POINT
  5
A6FF
330
A6F6
100
AcDbEntity
  8
DEFPOINTS
 62
     0
100
AcDbPoint
 10
70.95287826839086
 20
62.25327681071904
 30
0.0
  0
POINT
  5
A700
330
A6F6
100
AcDbEntity
  8
DEFPOINTS
 62
     0
100
AcDbPoint
 10
70.95287826839086
 20
68.21719862751763
 30
0.0
  0
ENDBLK
  5
A701
330
A6F6
100
AcDbEntity
  8
0
100
AcDbBlockEnd
  0
BLOCK
  5
A7FD
330
A702
100
AcDbEntity
  8
0
100
AcDbBlockBegin
  2
A$C7CF5499B
 70
     0
 10
0.0
 20
0.0
 30
0.0
  3
A$C7CF5499B
  1

  0
LWPOLYLINE
  5
A703
330
A702
100
AcDbEntity
  8
frame
100
AcDbPolyline
 90
        4
 70
     1
 43
0.0
 10
95.00000013596906
 20
140.0000001640692
 10
0.00000013596906
 20
140.0000001640692
 10
0.00000013596906
 20
0.0000001640692631
 10
95.00000013596906
 20
0.0000001640692631
  0
MTEXT
  5
A704
330
A702
100
AcDbEntity
  8
0
100
AcDbMText
 10
8.549751979414935
 20
9.538029672152333
 30
0.0
 40
2.25
 41
0.0
 71
     1
 72
     5
  1
{\Ftxt,bigfont|c128;林彦旭}
  7
JL
 73
     1
 44
1.0
1001
ACAD
1000
ACAD_MTEXT_DEFINED_HEIGHT_BEGIN
1070
    46
1040
0.0
1000
ACAD_MTEXT_DEFINED_HEIGHT_END
  0
MTEXT
  5
A705
330
A702
100
AcDbEntity
  8
0
100
AcDbMText
 10
38.97647378211332
 20
14.46789506342264
 30
0.0
 40
2.25
 41
0.0
 71
     1
 72
     5
  1
{\Ftxt,bigfont|c128;2 : 1}
  7
JL
 73
     1
 44
1.0
1001
ACAD
1000
ACAD_MTEXT_DEFINED_HEIGHT_BEGIN
1070
    46
1040
0.0
1000
ACAD_MTEXT_DEFINED_HEIGHT_END
  0
MTEXT
  5
A706
330
A702
100
AcDbEntity
  8
0
 48
2.0
370
    25
100
AcDbMText
 10
70.10972515925186
 20
1.745010991386209
 30
0.0
 40
2.25
 41
0.0
 71
     5
 72
     1
  1
{\Ftxt,bigfont|c128;N L 4 0 2 7 1}
 73
     1
 44
1.0
1001
ACAD
1000
ACAD_MTEXT_DEFINED_HEIGHT_BEGIN
1070
    46
1040
0.0
1000
ACAD_MTEXT_DEFINED_HEIGHT_END
  0
MTEXT
  5
A707
330
A702
100
AcDbEntity
  8
0
 48
2.0
100
AcDbMText
 10
85.4664501181856
 20
10.88218580318772
 30
0.0
 40
2.159090909090911
 41
0.0
 71
     5
 72
     1
  1
\P{\Ftxt,bigfont|c128;MKR32X1.5P}
 73
     1
 44
1.0
1001
ACAD
1000
ACAD_MTEXT_DEFINED_HEIGHT_BEGIN
1070
    46
1040
0.0
1000
ACAD_MTEXT_DEFINED_HEIGHT_END
  0
MTEXT
  5
A708
330
A702
100
AcDbEntity
  8
0
100
AcDbMText
 10
7.68803399280776
 20
14.1887019632428
 30
0.0
 40
2.25
 41
0.0
 71
     1
 72
     5
  1
{\Ftxt,bigfont|c128;06.07.10}
  7
JL
 73
     1
 44
1.0
1001
ACAD
1000
ACAD_MTEXT_DEFINED_HEIGHT_BEGIN
1070
    46
1040
0.0
1000
ACAD_MTEXT_DEFINED_HEIGHT_END
  0
LINE
  5
A709
330
A702
100
AcDbEntity
  8
0
 62
     7
 48
5.0
100
AcDbLine
 39
1.919191919191921
 10
23.96471220593173
 20
13.82856469914969
 30
0.0
 11
26.52290085740833
 21
14.46811186201887
 31
0.0
  0
MTEXT
  5
A70A
330
A702
100
AcDbEntity
  8
0
100
AcDbMText
 10
7.456177877601135
 20
4.621097689093915
 30
0.0
 40
3.0
 41
0.0
 71
     1
 72
     5
  1
\Ftxt.shx,bigfont.shx|c128;日機株式会社
  7
LKK
 73
     1
 44
1.0
  0
LINE
  5
A70B
330
A702
100
AcDbEntity
  8
frame
100
AcDbLine
 10
0.00000013596906
 20
6.000000164069263
 30
0.0
 11
95.00000013596906
 21
6.000000164069291
 31
0.0
  0
LINE
  5
A70C
330
A702
100
AcDbEntity
  8
frame
100
AcDbLine
 10
0.00000013596906
 20
11.00000016406926
 30
0.0
 11
46.06060619657518
 21
11.00000016406926
 31
0.0
  0
LINE
  5
A70D
330
A702
100
AcDbEntity
  8
frame
100
AcDbLine
 10
0.00000013596906
 20
16.00000016406926
 30
0.0
 11
95.00000013596906
 21
16.00000016406926
 31
0.0
  0
LINE
  5
A70E
330
A702
100
AcDbEntity
  8
frame
100
AcDbLine
 10
6.095386798438056
 20
16.00000016406926
 30
0.0
 11
6.095386798438056
 21
6.000000164069263
 31
0.0
  0
LINE
  5
A70F
330
A702
100
AcDbEntity
  8
frame
100
AcDbLine
 10
15.35353548950439
 20
16.00000016406926
 30
0.0
 11
15.35353548950445
 21
6.000000164069263
 31
0.0
  0
MTEXT
  5
A710
330
A702
100
AcDbEntity
  8
0
100
AcDbMText
 10
1.415137528080038
 20
14.54095061198342
 30
0.0
 40
2.25
 41
0.0
 71
     1
 72
     5
  1
\Ftxt.shx,bigfont.shx|c128;日 付
  7
JL
 73
     1
 44
1.0
  0
MTEXT
  5
A711
330
A702
100
AcDbEntity
  8
0
100
AcDbMText
 10
1.485316674688505
 20
9.76081937870245
 30
0.0
 40
2.25
 41
0.0
 71
     1
 72
     5
  1
\Ftxt.shx,bigfont.shx|c128;製 図
  7
JL
 73
     1
 44
1.0
  0
LINE
  5
A712
330
A702
100
AcDbEntity
  8
0
 62
     7
370
    25
100
AcDbLine
 10
26.52290085740833
 20
11.90992321054224
 30
0.0
 11
26.52290085740833
 21
14.46811186201887
 31
0.0
  0
MTEXT
  5
A713
330
A702
100
AcDbEntity
  8
0
100
AcDbMText
 10
32.00374439842324
 20
14.56121368303115
 30
0.0
 40
2.25
 41
0.0
 71
     1
 72
     5
  1
\Ftxt.shx,bigfont.shx|c128;尺 度
  7
JL
 73
     1
 44
1.0
  0
LINE
  5
A714
330
A702
100
AcDbEntity
  8
frame
100
AcDbLine
 10
30.70707084303979
 20
16.00000016406926
 30
0.0
 11
30.70707084303979
 21
6.000000164069263
 31
0.0
  0
LINE
  5
A715
330
A702
100
AcDbEntity
  8
0
 62
     7
370
    25
100
AcDbLine
 10
19.80765564728216
 20
11.59444525573244
 30
0.0
 11
19.80765564728216
 21
14.68229012621762
 31
0.0
  0
CIRCLE
  5
A716
330
A702
100
AcDbEntity
  8
0
 62
     7
100
AcDbCircle
 10
19.80765564728216
 20
13.18901753628052
 30
0.0
 40
1.279094325738339
  0
LINE
  5
A717
330
A702
100
AcDbEntity
  8
0
 62
     7
370
    25
100
AcDbLine
 10
23.59661007056894
 20
13.18901753628057
 30
0.0
 11
26.75256304409027
 21
13.18901753628057
 31
0.0
  0
LINE
  5
A718
330
A702
100
AcDbEntity
  8
0
 62
     7
100
AcDbLine
 10
23.96471220593173
 20
12.54947037341139
 30
0.0
 11
26.52290085740833
 21
11.90992321054224
 31
0.0
  0
LINE
  5
A719
330
A702
100
AcDbEntity
  8
frame
100
AcDbLine
 10
21.37112111594456
 20
11.00000016406926
 30
0.0
 11
21.37112111594456
 21
6.000000164069263
 31
0.0
  0
LINE
  5
A71A
330
A702
100
AcDbEntity
  8
0
 62
     7
370
    25
100
AcDbLine
 10
18.20916127840212
 20
13.18901753628052
 30
0.0
 11
21.5016264740654
 21
13.18901753628057
 31
0.0
  0
CIRCLE
  5
A71B
330
A702
100
AcDbEntity
  8
0
 62
     7
100
AcDbCircle
 10
19.80765564728216
 20
13.18901753628052
 30
0.0
 40
0.6395471628691697
  0
MTEXT
  5
A71C
330
A702
100
AcDbEntity
  8
0
100
AcDbMText
 10
16.85092029828109
 20
9.705069242995591
 30
0.0
 40
2.25
 41
0.0
 71
     1
 72
     5
  1
\Ftxt.shx,bigfont.shx|c128;検 図
  7
JL
 73
     1
 44
1.0
  0
LINE
  5
A71D
330
A702
100
AcDbEntity
  8
0
 62
     7
370
    25
100
AcDbLine
 10
23.96471220593173
 20
12.54947037341139
 30
0.0
 11
23.96471220593173
 21
13.82856469914969
 31
0.0
  0
MTEXT
  5
A71E
330
A702
100
AcDbEntity
  8
0
100
AcDbMText
 10
32.14410138556821
 20
9.66029283781367
 30
0.0
 40
2.25
 41
0.0
 71
     1
 72
     5
  1
\Ftxt.shx,bigfont.shx|c128;承 認
  7
JL
 73
     1
 44
1.0
  0
MTEXT
  5
A71F
330
A702
100
AcDbEntity
  8
0
100
AcDbMText
 10
46.85564371400255
 20
5.351341262164964
 30
0.0
 40
2.25
 41
0.0
 71
     1
 72
     5
  1
\Ftxt.shx,bigfont.shx|c128;図  面  番  号
  7
JL
 73
     1
 44
1.0
  0
MTEXT
  5
A720
330
A702
100
AcDbEntity
  8
0
 48
2.0
100
AcDbMText
 10
58.45190963703828
 20
10.93787382154846
 30
0.0
 40
2.25
 41
0.0
 71
     5
 72
     1
  1
\P\Ftxt.shx,bigfont.shx|c128;    精密ロックナット
 73
     1
 44
1.0
  0
MTEXT
  5
A721
330
A702
100
AcDbEntity
  8
0
100
AcDbMText
 10
47.40418078753066
 20
14.51931245393564
 30
0.0
 40
2.25
 41
0.0
 71
     1
 72
     5
  1
\Ftxt.shx,bigfont.shx|c128;品  名
  7
JL
 73
     1
 44
1.0
  0
LINE
  5
A722
330
A702
100
AcDbEntity
  8
frame
100
AcDbLine
 10
46.06060619657518
 20
16.00000016406926
 30
0.0
 11
46.06060619657518
 21
0.0916615430485024
 31
0.0
  0
LINE
  5
A723
330
A702
100
AcDbEntity
  8
frame
100
AcDbLine
 10
36.70707084303979
 20
16.00000016406926
 30
0.0
 11
36.70707084303979
 21
6.000000164069263
 31
0.0
  0
LINE
  5
A724
330
A702
100
AcDbEntity
  8
frame
100
AcDbLine
 10
73.51635477300186
 20
16.00000016406926
 30
0.0
 11
73.51635477300192
 21
6.000000164069263
 31
0.0
  0
MTEXT
  5
A725
330
A702
100
AcDbEntity
  8
0
100
AcDbMText
 10
75.44797985935559
 20
14.52258907822121
 30
0.0
 40
2.25
 41
0.0
 71
     1
 72
     5
  1
\Ftxt.shx,bigfont.shx|c128;型  番
  7
JL
 73
     1
 44
1.0
  0
MTEXT
  5
A726
330
A702
100
AcDbEntity
  8
0
100
AcDbMText
 10
82.90298087648535
 20
5.391491038927085
 30
0.0
 40
2.25
 41
0.0
 71
     1
 72
     5
  1
\Ftxt.shx,bigfont.shx|c128;変更
  7
JL
 73
     1
 44
1.0
  0
LINE
  5
A727
330
A702
100
AcDbEntity
  8
frame
100
AcDbLine
 10
82.04545468142368
 20
6.000000164069291
 30
0.0
 11
82.04545468142374
 21
0.0000001640692631
 31
0.0
  0
LINE
  5
A728
330
A702
100
AcDbEntity
  8
frame
100
AcDbLine
 10
62.30789517528871
 20
21.56745690869172
 30
0.0
 11
92.30789517528871
 21
21.56745690869167
 31
0.0
  0
LINE
  5
A729
330
A702
100
AcDbEntity
  8
frame
100
AcDbLine
 10
62.30789517528871
 20
25.16745690869175
 30
0.0
 11
92.30789517528871
 21
25.16745690869175
 31
0.0
  0
LINE
  5
A72A
330
A702
100
AcDbEntity
  8
frame
100
AcDbLine
 10
62.30789517528871
 20
28.76745690869171
 30
0.0
 11
92.30789517528871
 21
28.76745690869166
 31
0.0
  0
LINE
  5
A72B
330
A702
100
AcDbEntity
  8
frame
100
AcDbLine
 10
62.30789517528871
 20
32.36745690869174
 30
0.0
 11
92.30789517528871
 21
32.36745690869168
 31
0.0
  0
LINE
  5
A72C
330
A702
100
AcDbEntity
  8
frame
100
AcDbLine
 10
62.30789517528871
 20
17.9674569086917
 30
0.0
 11
92.30789517528871
 21
17.9674569086917
 31
0.0
  0
MTEXT
  5
A72D
330
A702
100
AcDbEntity
  8
0
 62
     7
 48
2.0
100
AcDbMText
 10
77.25059515822437
 20
32.76404111398381
 30
0.0
 40
2.4
 41
0.0
 71
     5
 72
     1
  1
\P\Ftxt.shx,bigfont.shx|c128;諸　　　　元
 73
     1
 44
1.0
  0
LINE
  5
A72E
330
A702
100
AcDbEntity
  8
frame
100
AcDbLine
 10
62.30789517528871
 20
32.36745690869168
 30
0.0
 11
62.30789517528871
 21
17.9674569086917
 31
0.0
  0
MTEXT
  5
A72F
330
A702
100
AcDbEntity
  8
0
100
AcDbMText
 10
64.06911308212881
 20
28.0042023251313
 30
0.0
 40
2.2
 41
81.95814342112454
 71
     1
 72
     5
  1
\Ftxt.shx,bigfont.shx|c128;熱　処　理
  7
JL
 73
     1
 44
1.0
  0
LINE
  5
A730
330
A702
100
AcDbEntity
  8
frame
100
AcDbLine
 10
74.30789517528871
 20
28.76745690869166
 30
0.0
 11
74.30789517528871
 21
17.9674569086917
 31
0.0
  0
MTEXT
  5
A731
330
A702
100
AcDbEntity
  8
0
100
AcDbMText
 10
63.9289758984392
 20
24.50308810150125
 30
0.0
 40
2.2
 41
81.80293144248363
 71
     1
 72
     5
  1
\Ftxt.shx,bigfont.shx|c128;表 面 処 理
  7
JL
 73
     1
 44
1.0
  0
MTEXT
  5
A732
330
A702
100
AcDbEntity
  8
0
100
AcDbMText
 10
64.07400882265671
 20
20.85885167469729
 30
0.0
 40
2.2
 41
83.0859
 71
     1
 72
     5
  1
\Ftxt.shx,bigfont.shx|c128;等     　級
  7
JL
 73
     1
 44
1.0
  0
LINE
  5
A733
330
A702
100
AcDbEntity
  8
frame
100
AcDbLine
 10
92.30789517528871
 20
32.36745690869168
 30
0.0
 11
92.30789517528871
 21
17.96745690869176
 31
0.0
  0
MTEXT
  5
A734
330
A702
100
AcDbEntity
  8
0
100
AcDbMText
 10
76.68139683000998
 20
27.91672337142649
 30
0.0
 40
2.2
 41
145.9480028428943
 71
     1
 72
     5
  1
\Ftxt.shx,bigfont.shx|c128;調質　HRC30%%d%%p２%%d
  7
JL
 73
     1
 44
1.0
  0
MTEXT
  5
A735
330
A702
100
AcDbEntity
  8
0
100
AcDbMText
 10
76.81171633072819
 20
20.85915696042286
 30
0.0
 40
2.2
 41
145.3916823984455
 71
     1
 72
     5
  1
\Ftxt.shx,bigfont.shx|c128;ＩＳＯ - ４Ｈ
  7
JL
 73
     1
 44
1.0
  0
MTEXT
  5
A736
330
A702
100
AcDbEntity
  8
0
100
AcDbMText
 10
76.89894692979334
 20
24.32664163302383
 30
0.0
 40
2.2
 41
145.7274
 71
     1
 72
     5
  1
\Ftxt.shx,bigfont.shx|c128;黒  　    染
  7
JL
 73
     1
 44
1.0
  0
MTEXT
  5
A737
330
A702
100
AcDbEntity
  8
0
100
AcDbMText
 10
28.81819544264118
 20
130.4500293280429
 30
0.0
 40
2.5
 41
0.0
 71
     1
 72
     5
  1
{\Ftxt,bigfont|c128;M4X0.7P-16L}
  7
JL
 73
     1
 44
1.0
1001
ACAD
1000
ACAD_MTEXT_DEFINED_HEIGHT_BEGIN
1070
    46
1040
0.0
1000
ACAD_MTEXT_DEFINED_HEIGHT_END
  0
LINE
  5
A738
330
A702
100
AcDbEntity
  8
frame
100
AcDbLine
 10
0.00000013596906
 20
127.0000001640692
 30
0.0
 11
95.00000013596906
 21
127.0000001640692
 31
0.0
  0
LINE
  5
A739
330
A702
100
AcDbEntity
  8
frame
100
AcDbLine
 10
0.00000013596906
 20
131.0000001640692
 30
0.0
 11
95.00000013596906
 21
131.0000001640692
 31
0.0
  0
LINE
  5
A73A
330
A702
100
AcDbEntity
  8
frame
 62
     9
100
AcDbLine
 10
0.00000013596906
 20
135.0000001640692
 30
0.0
 11
95.00000013596906
 21
135.0000001640692
 31
0.0
  0
MTEXT
  5
A73B
330
A702
100
AcDbEntity
  8
0
100
AcDbMText
 10
28.50782208898761
 20
138.7120281665213
 30
0.0
 40
2.5
 41
0.0
 71
     1
 72
     5
  1
\Ftxt.shx,bigfont.shx|c128;図    番 / 規　　格
  7
JL
 73
     1
 44
1.0
  0
LINE
  5
A73C
330
A702
100
AcDbEntity
  8
frame
100
AcDbLine
 10
0.00000013596906
 20
127.0000001640692
 30
0.0
 11
95.00000013596906
 21
127.0000001640692
 31
0.0
  0
MTEXT
  5
A73D
330
A702
100
AcDbEntity
  8
0
100
AcDbMText
 10
10.56244038058622
 20
138.7318992334064
 30
0.0
 40
2.5
 41
0.0
 71
     1
 72
     5
  1
\Ftxt.shx,bigfont.shx|c128;品　          名
  7
JL
 73
     1
 44
1.0
  0
MTEXT
  5
A73E
330
A702
100
AcDbEntity
  8
0
100
AcDbMText
 10
9.051407071519719
 20
130.3953620285248
 30
0.0
 40
2.5
 41
0.0
 71
     1
 72
     5
  1
\Ftxt.shx,bigfont.shx|c128;セットスクリュ-
  7
JL
 73
     1
 44
1.0
  0
MTEXT
  5
A73F
330
A702
100
AcDbEntity
  8
0
100
AcDbMText
 10
8.957547540284849
 20
134.4180616782174
 30
0.0
 40
2.5
 41
0.0
 71
     1
 72
     5
  1
\Ftxt.shx,bigfont.shx|c128;ロックナット　  
  7
JL
 73
     1
 44
1.0
  0
LINE
  5
A740
330
A702
100
AcDbEntity
  8
frame
 62
     9
100
AcDbLine
 10
7.196969832938748
 20
140.0000001640692
 30
0.0
 11
7.196969832938878
 21
127.0000001640692
 31
0.0
  0
LINE
  5
A741
330
A702
100
AcDbEntity
  8
frame
 62
     9
100
AcDbLine
 10
7.196969832938748
 20
140.0000001640692
 30
0.0
 11
7.196969832938748
 21
127.5252526893218
 31
0.0
  0
MTEXT
  5
A742
330
A702
100
AcDbEntity
  8
0
100
AcDbMText
 10
3.407504769975957
 20
134.3640838857753
 30
0.0
 40
2.5
 41
0.0
 71
     1
 72
     5
  1
\Ftxt.shx,bigfont.shx|c128;1
  7
JL
 73
     1
 44
1.0
  0
MTEXT
  5
A743
330
A702
100
AcDbEntity
  8
0
100
AcDbMText
 10
1.059914172459173
 20
138.7367392960438
 30
0.0
 40
2.5
 41
0.0
 71
     1
 72
     5
  1
\Ftxt.shx,bigfont.shx|c128;照   号
  7
JL
 73
     1
 44
1.0
  0
LINE
  5
A744
330
A702
100
AcDbEntity
  8
frame
 62
     9
100
AcDbLine
 10
26.38888902485798
 20
140.0000001640692
 30
0.0
 11
26.38888902485798
 21
127.0000001640692
 31
0.0
  0
MTEXT
  5
A745
330
A702
100
AcDbEntity
  8
0
100
AcDbMText
 10
72.78681885461162
 20
138.8390833587789
 30
0.0
 40
2.5
 41
0.0
 71
     1
 72
     5
  1
\Ftxt.shx,bigfont.shx|c128;備           考
  7
JL
 73
     1
 44
1.0
  0
LINE
  5
A746
330
A702
100
AcDbEntity
  8
frame
 62
     9
100
AcDbLine
 10
45.58080821677714
 20
140.0000001640692
 30
0.0
 11
45.58080821677715
 21
127.0000001640692
 31
0.0
  0
MTEXT
  5
A747
330
A702
100
AcDbEntity
  8
0
100
AcDbMText
 10
46.43670558186591
 20
134.4180616782174
 30
0.0
 40
2.5
 41
0.0
 71
     1
 72
     5
  1
\Ftxt.shx,bigfont.shx|c128;SCM-440
  7
JL
 73
     1
 44
1.0
  0
MTEXT
  5
A748
330
A702
100
AcDbEntity
  8
0
100
AcDbMText
 10
46.43670558186591
 20
130.3825011703612
 30
0.0
 40
2.5
 41
0.0
 71
     1
 72
     5
  1
\Ftxt.shx,bigfont.shx|c128;SCM435
  7
JL
 73
     1
 44
1.0
  0
MTEXT
  5
A749
330
A702
100
AcDbEntity
  8
0
100
AcDbMText
 10
47.88399445149003
 20
138.7822751382152
 30
0.0
 40
2.5
 41
0.0
 71
     1
 72
     5
  1
\Ftxt.shx,bigfont.shx|c128;材　質
  7
JL
 73
     1
 44
1.0
  0
LINE
  5
A74A
330
A702
100
AcDbEntity
  8
frame
 62
     9
100
AcDbLine
 10
55.17676781273678
 20
140.0000001640692
 30
0.0
 11
55.17676781273679
 21
127.0000001640692
 31
0.0
  0
LINE
  5
A74B
330
A702
100
AcDbEntity
  8
frame
100
AcDbLine
 10
62.37373750970641
 20
140.0000001640692
 30
0.0
 11
62.37373750970647
 21
127.0000001640692
 31
0.0
  0
MTEXT
  5
A74C
330
A702
100
AcDbEntity
  8
0
100
AcDbMText
 10
58.58427244674363
 20
134.5206357480658
 30
0.0
 40
2.5
 41
0.0
 71
     1
 72
     5
  1
\Ftxt.shx,bigfont.shx|c128;1
  7
JL
 73
     1
 44
1.0
  0
MTEXT
  5
A74D
330
A702
100
AcDbEntity
  8
0
100
AcDbMText
 10
58.29695364931325
 20
130.2546146716032
 30
0.0
 40
2.5
 41
0.0
 71
     1
 72
     5
  1
{\Ftxt,bigfont|c128;4}
  7
JL
 73
     1
 44
1.0
1001
ACAD
1000
ACAD_MTEXT_DEFINED_HEIGHT_BEGIN
1070
    46
1040
0.0
1000
ACAD_MTEXT_DEFINED_HEIGHT_END
  0
MTEXT
  5
A74E
330
A702
100
AcDbEntity
  8
0
100
AcDbMText
 10
56.21119493193219
 20
138.7822751382152
 30
0.0
 40
2.5
 41
0.0
 71
     1
 72
     5
  1
\Ftxt.shx,bigfont.shx|c128;数   量
  7
JL
 73
     1
 44
1.0
  0
MTEXT
  5
A74F
330
A702
100
AcDbEntity
  8
0
100
AcDbMText
 10
3.202009985497056
 20
130.3640838857753
 30
0.0
 40
2.5
 41
0.0
 71
     1
 72
     5
  1
{\Ftxt,bigfont|c128;2}
  7
JL
 73
     1
 44
1.0
1001
ACAD
1000
ACAD_MTEXT_DEFINED_HEIGHT_BEGIN
1070
    46
1040
0.0
1000
ACAD_MTEXT_DEFINED_HEIGHT_END
  0
CIRCLE
  5
A750
330
A702
100
AcDbEntity
  8
contour
100
AcDbCircle
 10
45.95287840435992
 20
98.59862784079199
 30
0.0
 40
25.0
  0
CIRCLE
  5
A751
330
A702
100
AcDbEntity
  8
center
 48
0.25
100
AcDbCircle
 10
45.95287840435992
 20
98.59862784079199
 30
0.0
 40
20.5
  0
ARC
  5
A752
330
A702
100
AcDbEntity
  8
contour
 62
     4
100
AcDbCircle
 10
66.45287840435992
 20
98.59862784079199
 30
0.0
 40
2.000000000000028
100
AcDbArc
 50
165.5224878140701
 51
104.477512185929
  0
CIRCLE
  5
A753
330
A702
100
AcDbEntity
  8
contour
100
AcDbCircle
 10
66.45287840435992
 20
98.59862784079199
 30
0.0
 40
1.620999999999952
  0
CIRCLE
  5
A754
330
A702
100
AcDbEntity
  8
bowle
 48
0.2
100
AcDbCircle
 10
66.45287840435992
 20
98.59862784079199
 30
0.0
 40
3.5
  0
LINE
  5
A755
330
A702
100
AcDbEntity
  8
center
 48
0.25
100
AcDbLine
 10
45.95287840435998
 20
124.598627840792
 30
0.0
 11
45.95287840435992
 21
72.59862784079199
 31
0.0
  0
LINE
  5
A756
330
A702
100
AcDbEntity
  8
center
 48
0.25
100
AcDbLine
 10
19.95287840435992
 20
98.59862784079203
 30
0.0
 11
71.95287840435992
 21
98.59862784079199
 31
0.0
  0
CIRCLE
  5
A757
330
A702
100
AcDbEntity
  8
bowle
 48
0.2
100
AcDbCircle
 10
60.97889750457404
 20
83.57260874057786
 30
0.0
 40
2.149999999999999
  0
LINE
  5
A758
330
A702
100
AcDbEntity
  8
center
 48
0.1
100
AcDbLine
 10
64.33765471521013
 20
80.21385152994179
 30
0.0
 11
55.98530941583465
 21
88.56619682931725
 31
0.0
  0
LINE
  5
A759
330
A702
100
AcDbEntity
  8
bowle
 48
0.2
100
AcDbLine
 10
59.38790724690432
 20
85.16359899824761
 30
0.0
 11
62.17629492603032
 21
85.91074522505431
 31
0.0
  0
LINE
  5
A75A
330
A702
100
AcDbEntity
  8
bowle
 48
0.2
100
AcDbLine
 10
59.38790724690432
 20
85.16359899824761
 30
0.0
 11
58.64076102009761
 21
82.37521131912155
 31
0.0
  0
LINE
  5
A75B
330
A702
100
AcDbEntity
  8
bowle
 48
0.2
100
AcDbLine
 10
65.04476149639669
 20
83.04227865468794
 30
0.0
 11
62.17629492603029
 21
85.91074522505435
 31
0.0
  0
LINE
  5
A75C
330
A702
100
AcDbEntity
  8
bowle
 48
0.2
100
AcDbLine
 10
61.50922759046398
 20
79.50674474875523
 30
0.0
 11
58.64076102009764
 21
82.37521131912155
 31
0.0
  0
LINE
  5
A75D
330
A702
100
AcDbEntity
  8
bowle
 48
0.2
100
AcDbLine
 10
62.17629492603032
 20
85.91074522505431
 30
0.0
 11
58.64076102009761
 21
82.37521131912155
 31
0.0
  0
LINE
  5
A75E
330
A702
100
AcDbEntity
  8
bowle
 48
0.2
100
AcDbLine
 10
65.04476149639669
 20
83.04227865468794
 30
0.0
 11
61.50922759046395
 21
79.50674474875521
 31
0.0
  0
LINE
  5
A75F
330
A702
100
AcDbEntity
  8
bowle
 48
0.2
100
AcDbLine
 10
61.50922759046395
 20
79.50674474875521
 30
0.0
 11
61.50922759046392
 21
79.03681342464065
 31
0.0
  0
LINE
  5
A760
330
A702
100
AcDbEntity
  8
bowle
 48
0.2
100
AcDbLine
 10
65.04476149639669
 20
83.04227865468794
 30
0.0
 11
65.51469282051122
 21
83.04227865468796
 31
0.0
  0
CIRCLE
  5
A761
330
A702
100
AcDbEntity
  8
bowle
 48
0.2
100
AcDbCircle
 10
60.97889750457404
 20
83.57260874057786
 30
0.0
 40
2.650000000000034
  0
CIRCLE
  5
A762
330
A702
100
AcDbEntity
  8
bowle
 48
0.2
100
AcDbCircle
 10
60.97889750457409
 20
113.6246469410061
 30
0.0
 40
2.149999999999999
  0
LINE
  5
A763
330
A702
100
AcDbEntity
  8
center
 48
0.1
100
AcDbLine
 10
64.33765471521019
 20
116.9834041516422
 30
0.0
 11
55.98530941583468
 21
108.6310588522667
 31
0.0
  0
LINE
  5
A764
330
A702
100
AcDbEntity
  8
bowle
 48
0.2
100
AcDbLine
 10
59.38790724690434
 20
112.0336566833364
 30
0.0
 11
58.64076102009764
 21
114.8220443624624
 31
0.0
  0
LINE
  5
A765
330
A702
100
AcDbEntity
  8
bowle
 48
0.2
100
AcDbLine
 10
59.38790724690434
 20
112.0336566833364
 30
0.0
 11
62.17629492603041
 21
111.2865104565297
 31
0.0
  0
LINE
  5
A766
330
A702
100
AcDbEntity
  8
bowle
 48
0.2
100
AcDbLine
 10
61.50922759046401
 20
117.6905109328288
 30
0.0
 11
58.64076102009761
 21
114.8220443624624
 31
0.0
  0
LINE
  5
A767
330
A702
100
AcDbEntity
  8
bowle
 48
0.2
100
AcDbLine
 10
65.04476149639671
 20
114.154977026896
 30
0.0
 11
62.17629492603044
 21
111.2865104565297
 31
0.0
  0
LINE
  5
A768
330
A702
100
AcDbEntity
  8
bowle
 48
0.2
100
AcDbLine
 10
58.64076102009764
 20
114.8220443624624
 30
0.0
 11
62.17629492603041
 21
111.2865104565297
 31
0.0
  0
LINE
  5
A769
330
A702
100
AcDbEntity
  8
bowle
 48
0.2
100
AcDbLine
 10
61.50922759046401
 20
117.6905109328288
 30
0.0
 11
65.04476149639675
 21
114.154977026896
 31
0.0
  0
LINE
  5
A76A
330
A702
100
AcDbEntity
  8
bowle
 48
0.2
100
AcDbLine
 10
65.04476149639675
 20
114.154977026896
 30
0.0
 11
65.51469282051133
 21
114.154977026896
 31
0.0
  0
LINE
  5
A76B
330
A702
100
AcDbEntity
  8
bowle
 48
0.2
100
AcDbLine
 10
61.50922759046401
 20
117.6905109328288
 30
0.0
 11
61.50922759046401
 21
118.1604422569433
 31
0.0
  0
CIRCLE
  5
A76C
330
A702
100
AcDbEntity
  8
bowle
 48
0.2
100
AcDbCircle
 10
60.97889750457409
 20
113.6246469410061
 30
0.0
 40
2.650000000000034
  0
CIRCLE
  5
A76D
330
A702
100
AcDbEntity
  8
bowle
 48
0.2
100
AcDbCircle
 10
30.92685930414581
 20
113.6246469410061
 30
0.0
 40
2.149999999999999
  0
LINE
  5
A76E
330
A702
100
AcDbEntity
  8
center
 48
0.1
100
AcDbLine
 10
27.56810209350971
 20
116.9834041516422
 30
0.0
 11
35.92044739288525
 21
108.6310588522667
 31
0.0
  0
LINE
  5
A76F
330
A702
100
AcDbEntity
  8
bowle
 48
0.2
100
AcDbLine
 10
32.51784956181555
 20
112.0336566833364
 30
0.0
 11
29.72946188268952
 21
111.2865104565297
 31
0.0
  0
LINE
  5
A770
330
A702
100
AcDbEntity
  8
bowle
 48
0.2
100
AcDbLine
 10
32.51784956181555
 20
112.0336566833364
 30
0.0
 11
33.26499578862223
 21
114.8220443624625
 31
0.0
  0
LINE
  5
A771
330
A702
100
AcDbEntity
  8
bowle
 48
0.2
100
AcDbLine
 10
26.86099531232319
 20
114.154977026896
 30
0.0
 11
29.72946188268955
 21
111.2865104565296
 31
0.0
  0
LINE
  5
A772
330
A702
100
AcDbEntity
  8
bowle
 48
0.2
100
AcDbLine
 10
30.39652921825589
 20
117.6905109328288
 30
0.0
 11
33.26499578862223
 21
114.8220443624625
 31
0.0
  0
LINE
  5
A773
330
A702
100
AcDbEntity
  8
bowle
 48
0.2
100
AcDbLine
 10
29.72946188268952
 20
111.2865104565297
 30
0.0
 11
33.26499578862223
 21
114.8220443624625
 31
0.0
  0
LINE
  5
A774
330
A702
100
AcDbEntity
  8
bowle
 48
0.2
100
AcDbLine
 10
26.86099531232319
 20
114.154977026896
 30
0.0
 11
30.39652921825592
 21
117.6905109328288
 31
0.0
  0
LINE
  5
A775
330
A702
100
AcDbEntity
  8
bowle
 48
0.2
100
AcDbLine
 10
30.39652921825592
 20
117.6905109328288
 30
0.0
 11
30.39652921825592
 21
118.1604422569433
 31
0.0
  0
LINE
  5
A776
330
A702
100
AcDbEntity
  8
bowle
 48
0.2
100
AcDbLine
 10
26.86099531232319
 20
114.154977026896
 30
0.0
 11
26.39106398820863
 21
114.154977026896
 31
0.0
  0
CIRCLE
  5
A777
330
A702
100
AcDbEntity
  8
bowle
 48
0.2
100
AcDbCircle
 10
30.92685930414581
 20
113.6246469410061
 30
0.0
 40
2.650000000000034
  0
CIRCLE
  5
A778
330
A702
100
AcDbEntity
  8
bowle
 48
0.2
100
AcDbCircle
 10
30.92685930414578
 20
83.57260874057796
 30
0.0
 40
2.149999999999999
  0
LINE
  5
A779
330
A702
100
AcDbEntity
  8
center
 48
0.1
100
AcDbLine
 10
27.56810209350968
 20
80.21385152994186
 30
0.0
 11
35.92044739288517
 21
88.5661968293173
 31
0.0
  0
LINE
  5
A77A
330
A702
100
AcDbEntity
  8
bowle
 48
0.2
100
AcDbLine
 10
32.51784956181555
 20
85.16359899824768
 30
0.0
 11
33.26499578862226
 21
82.37521131912165
 31
0.0
  0
LINE
  5
A77B
330
A702
100
AcDbEntity
  8
bowle
 48
0.2
100
AcDbLine
 10
32.51784956181555
 20
85.16359899824768
 30
0.0
 11
29.72946188268947
 21
85.91074522505438
 31
0.0
  0
LINE
  5
A77C
330
A702
100
AcDbEntity
  8
bowle
 48
0.2
100
AcDbLine
 10
30.39652921825587
 20
79.50674474875532
 30
0.0
 11
33.26499578862226
 21
82.37521131912171
 31
0.0
  0
LINE
  5
A77D
330
A702
100
AcDbEntity
  8
bowle
 48
0.2
100
AcDbLine
 10
26.86099531232315
 20
83.04227865468803
 30
0.0
 11
29.72946188268947
 21
85.91074522505437
 31
0.0
  0
LINE
  5
A77E
330
A702
100
AcDbEntity
  8
bowle
 48
0.2
100
AcDbLine
 10
33.26499578862226
 20
82.37521131912165
 30
0.0
 11
29.72946188268947
 21
85.91074522505438
 31
0.0
  0
LINE
  5
A77F
330
A702
100
AcDbEntity
  8
bowle
 48
0.2
100
AcDbLine
 10
30.39652921825587
 20
79.50674474875532
 30
0.0
 11
26.86099531232315
 21
83.04227865468806
 31
0.0
  0
LINE
  5
A780
330
A702
100
AcDbEntity
  8
bowle
 48
0.2
100
AcDbLine
 10
26.86099531232315
 20
83.04227865468806
 30
0.0
 11
26.3910639882086
 21
83.04227865468806
 31
0.0
  0
LINE
  5
A781
330
A702
100
AcDbEntity
  8
bowle
 48
0.2
100
AcDbLine
 10
30.39652921825587
 20
79.50674474875532
 30
0.0
 11
30.39652921825589
 21
79.03681342464075
 31
0.0
  0
CIRCLE
  5
A782
330
A702
100
AcDbEntity
  8
bowle
 48
0.2
100
AcDbCircle
 10
30.92685930414578
 20
83.57260874057796
 30
0.0
 40
2.650000000000034
  0
CIRCLE
  5
A783
330
A702
100
AcDbEntity
  8
contour
100
AcDbCircle
 10
45.95287840435995
 20
119.098627840792
 30
0.0
 40
1.620999999999952
  0
CIRCLE
  5
A784
330
A702
100
AcDbEntity
  8
bowle
 48
0.2
100
AcDbCircle
 10
45.95287840435995
 20
119.098627840792
 30
0.0
 40
3.5
  0
CIRCLE
  5
A785
330
A702
100
AcDbEntity
  8
contour
100
AcDbCircle
 10
25.45287840435992
 20
98.59862784079204
 30
0.0
 40
1.620999999999952
  0
CIRCLE
  5
A786
330
A702
100
AcDbEntity
  8
bowle
 48
0.2
100
AcDbCircle
 10
25.45287840435992
 20
98.59862784079204
 30
0.0
 40
3.5
  0
CIRCLE
  5
A787
330
A702
100
AcDbEntity
  8
contour
100
AcDbCircle
 10
45.95287840435986
 20
78.09862784079202
 30
0.0
 40
1.620999999999952
  0
CIRCLE
  5
A788
330
A702
100
AcDbEntity
  8
bowle
 48
0.2
100
AcDbCircle
 10
45.95287840435986
 20
78.09862784079202
 30
0.0
 40
3.5
  0
ARC
  5
A789
330
A702
100
AcDbEntity
  8
contour
 62
     4
100
AcDbCircle
 10
45.95287840435995
 20
119.098627840792
 30
0.0
 40
2.000000000000028
100
AcDbArc
 50
165.5224878140701
 51
104.477512185929
  0
ARC
  5
A78A
330
A702
100
AcDbEntity
  8
contour
 62
     4
100
AcDbCircle
 10
25.45287840435992
 20
98.59862784079199
 30
0.0
 40
2.000000000000028
100
AcDbArc
 50
165.5224878140701
 51
104.477512185929
  0
ARC
  5
A78B
330
A702
100
AcDbEntity
  8
contour
 62
     4
100
AcDbCircle
 10
45.95287840435992
 20
78.09862784079199
 30
0.0
 40
2.000000000000028
100
AcDbArc
 50
165.5224878140701
 51
104.477512185929
  0
CIRCLE
  5
A78C
330
A702
100
AcDbEntity
  8
contour
100
AcDbCircle
 10
45.95287840435992
 20
98.59862784079199
 30
0.0
 40
15.18799999999998
  0
ARC
  5
A78D
330
A702
100
AcDbEntity
  8
contour
 62
     4
100
AcDbCircle
 10
45.95287840435992
 20
98.59862784079199
 30
0.0
 40
15.99999999999997
100
AcDbArc
 50
169.1930771251396
 51
100.8069228748603
  0
CIRCLE
  5
A78E
330
A702
100
AcDbEntity
  8
contour
100
AcDbCircle
 10
45.95287840435992
 20
98.59862784079199
 30
0.0
 40
16.68799999999999
  0
ARC
  5
A78F
330
A702
100
AcDbEntity
  8
center
 48
0.1
100
AcDbCircle
 10
45.95287840435992
 20
98.59862784079201
 30
0.0
 40
21.24999999999999
100
AcDbArc
 50
122.4371849935582
 51
147.5628150064417
  0
ARC
  5
A790
330
A702
100
AcDbEntity
  8
center
 48
0.2
100
AcDbCircle
 10
45.95287840435995
 20
98.59862784079195
 30
0.0
 40
21.24999999999999
100
AcDbArc
 50
195.2913822179439
 51
237.5628150064418
  0
ARC
  5
A791
330
A702
100
AcDbEntity
  8
center
 48
0.1
100
AcDbCircle
 10
45.95287840435998
 20
98.59862784079195
 30
0.0
 40
21.24999999999999
100
AcDbArc
 50
302.4371849935582
 51
327.5628150064409
  0
ARC
  5
A792
330
A702
100
AcDbEntity
  8
center
 48
0.2
100
AcDbCircle
 10
45.95287840435998
 20
98.59862784079199
 30
0.0
 40
21.24999999999999
100
AcDbArc
 50
15.29138221794402
 51
57.56281500644078
  0
HATCH
  5
A793
330
A702
100
AcDbEntity
  8
section
100
AcDbHatch
 10
0.0
 20
0.0
 30
0.0
210
0.0
220
0.0
230
1.0
  2
ANSI31
 70
     0
 71
     0
 91
       11
 92
        7
 72
     1
 73
     1
 93
       11
 10
70.95287840435992
 20
62.25327697478831
 42
0.4142135623730951
 10
69.95287840435992
 20
63.2532769747883
 42
0.0
 10
68.45287840435988
 20
63.25327697478831
 42
0.0
 10
68.45287840435995
 20
56.4532769747883
 42
0.0
 10
68.45287840435995
 20
51.15327697478829
 42
0.0
 10
69.20287840435992
 20
51.1532769747883
 42
0.0
 10
69.20287840435992
 20
49.15327697478829
 42
0.0
 10
68.45287840435993
 20
49.15327697478829
 42
0.0
 10
68.45287840435993
 20
48.35327697478831
 42
0.0
 10
69.95287840435992
 20
48.35327697478831
 42
0.4142135623730951
 10
70.95287840435992
 20
49.35327697478831
 42
0.0
 97
        0
 92
        7
 72
     0
 73
     1
 93
        7
 10
64.45287840435995
 20
60.45327697478829
 10
64.45287840435995
 20
63.25327697478829
 10
62.64087840435993
 20
63.25327697478829
 10
61.95287840435993
 20
62.56527697478828
 10
61.95287840435992
 20
51.84127697478828
 10
62.64087840435993
 20
51.1532769747883
 10
64.45287840435996
 20
51.15327697478831
 97
        0
 92
        7
 72
     0
 73
     1
 93
        4
 10
61.95287840435991
 20
62.56527697478827
 10
61.14087840435995
 20
61.75327697478831
 10
61.1408784043599
 20
52.6532769747883
 10
61.95287840435992
 20
51.8412769747883
 97
        0
 92
        7
 72
     0
 73
     1
 93
        4
 10
61.9528784043599
 20
48.4652769747883
 10
61.14087840435989
 20
47.6532769747883
 10
61.14087840435986
 20
42.75327697478829
 10
61.95287840435989
 20
41.94127697478831
 97
        0
 92
        7
 72
     0
 73
     1
 93
       13
 10
63.70287840435992
 20
48.35327697478831
 10
64.45287840435994
 20
48.35327697478831
 10
64.45287840435994
 20
49.15327697478831
 10
62.64087840435991
 20
49.15327697478831
 10
61.9528784043599
 20
48.4652769747883
 10
61.95287840435988
 20
41.94127697478831
 10
62.6408784043599
 20
41.25327697478831
 10
62.95287840435992
 20
41.25327697478831
 10
62.95287840435995
 20
41.55327697478838
 10
62.95287840435996
 20
45.2532769747883
 10
64.45287840435994
 20
45.2532769747883
 10
64.45287840435995
 20
46.35327697478831
 10
63.70287840435992
 20
46.35327697478831
 97
        0
 92
        7
 72
     1
 73
     1
 93
        8
 10
70.95287840435992
 20
45.3532769747883
 42
0.4142135623730951
 10
69.95287840435992
 20
46.35327697478831
 42
0.0
 10
68.45287840435995
 20
46.35327697478832
 42
0.0
 10
68.45287840435995
 20
45.25327697478831
 42
0.0
 10
69.95287840435995
 20
45.25327697478831
 42
0.0
 10
69.95287840435995
 20
41.55327697478826
 42
0.0
 10
69.9528784043602
 20
41.2532769747883
 42
0.4142135623730118
 10
70.95287840435992
 20
42.25327697478831
 42
0.0
 97
        0
 92
        7
 72
     0
 73
     1
 93
        4
 10
68.4528784043599
 20
63.25327697478831
 10
68.05287840435994
 20
63.25327697478832
 10
68.05287840435994
 20
60.85327697478825
 10
68.4528784043599
 20
60.45327697478829
 97
        0
 92
        7
 72
     0
 73
     1
 93
        4
 10
64.83187840435992
 20
63.2532769747883
 10
64.45287840435995
 20
63.2532769747883
 10
64.45287840435995
 20
60.45327697478823
 10
64.83979632991668
 20
60.84019490034497
 97
        0
 92
        7
 72
     0
 73
     1
 93
        4
 10
30.76487840435988
 20
61.75327697478831
 10
29.95287840435989
 20
62.5652769747883
 10
29.9528784043599
 20
51.84127697478828
 10
30.76487840435994
 20
52.65327697478834
 97
        0
 92
        7
 72
     1
 73
     1
 93
       34
 10
29.95287840435988
 20
62.5652769747883
 42
0.0
 10
29.26487840435986
 20
63.25327697478831
 42
0.0
 10
21.95287840435995
 20
63.2532769747883
 42
0.4142135623730951
 10
20.95287840435995
 20
62.25327697478831
 42
0.0
 10
20.95287840435995
 20
59.2532769747883
 42
0.0
 10
21.45287840435991
 20
58.75327697478831
 42
0.0
 10
25.50950273138587
 20
58.75327697478831
 42
0.0
 10
26.95287840435991
 20
56.25327697478829
 42
0.0
 10
25.5095027313858
 20
53.7532769747883
 42
0.0
 10
21.45287840435993
 20
53.75327697478832
 42
0.0
 10
20.95287840435995
 20
53.25327697478832
 42
0.0
 10
20.95287840435995
 20
49.35327697478831
 42
0.4142135623730951
 10
21.95287840435995
 20
48.35327697478831
 42
0.0
 10
28.20287840435992
 20
48.35327697478831
 42
0.0
 10
28.20287840435992
 20
46.35327697478831
 42
0.0
 10
21.95287840435995
 20
46.3532769747883
 42
0.414213562373093
 10
20.95287840435995
 20
45.3532769747883
 42
0.0
 10
20.95287840435992
 20
42.25327697478831
 42
0.414213562373097
 10
21.95287840435992
 20
41.2532769747883
 42
0.0
 10
22.05287840435992
 20
41.2532769747883
 42
0.0
 10
22.55287840435991
 20
41.7532769747883
 42
0.0
 10
22.55287840435995
 20
44.01197389603063
 42
0.0
 10
24.70287840435995
 20
45.25327697478831
 42
0.0
 10
26.8528784043599
 20
44.01197389603062
 42
0.0
 10
26.8528784043599
 20
41.75327697478834
 42
0.0
 10
27.35287840435995
 20
41.2532769747883
 42
0.0
 10
29.26487840435993
 20
41.2532769747883
 42
0.0
 10
29.95287840435993
 20
41.9412769747883
 42
0.0
 10
29.95287840435992
 20
48.46527697478827
 42
0.0
 10
29.26487840435983
 20
49.15327697478837
 42
0.0
 10
22.70287840435992
 20
49.15327697478837
 42
0.0
 10
22.70287840435992
 20
51.15327697478835
 42
0.0
 10
29.26487840435994
 20
51.15327697478833
 42
0.0
 10
29.95287840435989
 20
51.84127697478827
 42
0.0
 97
        0
 92
        7
 72
     0
 73
     1
 93
        4
 10
30.76487840435991
 20
47.6532769747883
 10
29.95287840435993
 20
48.46527697478826
 10
29.95287840435992
 20
41.94127697478829
 10
30.76487840435994
 20
42.75327697478831
 97
        0
 75
     0
 76
     1
 52
0.0
 41
0.5
 77
     0
 78
     1
 53
45.0
 43
0.00000013596906
 44
0.0000001640692631
 45
-1.122532015133643
 46
1.122532015133644
 79
     0
 47
0.0920053285866075
 98
       24
 10
25.97041584470958
 20
60.11241794391509
 10
30.58450103902294
 20
55.3949610426211
 10
30.68936619531951
 20
45.64555042985927
 10
61.77205487056415
 20
45.96465748508473
 10
62.5061139190376
 20
45.96465748508473
 10
61.66718971426758
 20
55.71406809784656
 10
62.61097966621367
 20
55.71406809784656
 10
69.53210716224396
 20
55.81890048966574
 10
70.37103195789348
 20
45.75499270144644
 10
68.37889297328217
 20
53.34502823745049
 10
64.66102365939946
 20
54.06771857729314
 10
68.84362678523746
 20
58.50710146726868
 10
65.02248296265384
 20
58.40385988578157
 10
69.61818294153636
 20
59.28141259785485
 10
64.04137837983274
 20
58.30061866957805
 10
61.66607295202538
 20
57.68116991122258
 10
61.82098441963694
 20
46.63433274645996
 10
62.69881449375725
 20
46.63433274645996
 10
70.3411021389245
 20
44.67274488990637
 10
68.22398209655012
 20
61.96569042896744
 10
64.55774915069856
 20
61.86244921276397
 10
30.6585057411487
 20
56.0151440211298
 10
28.26560983082891
 20
56.0151440211298
 10
30.6585057411487
 20
45.25052062738547
1001
ACAD
1010
0.0
1020
0.0
1030
0.0
  0
LINE
  5
A794
330
A702
100
AcDbEntity
  8
contour
100
AcDbLine
 10
69.95287840435992
 20
63.2532769747883
 30
0.0
 11
21.95287840435995
 21
63.2532769747883
 31
0.0
  0
ARC
  5
A795
330
A702
100
AcDbEntity
  8
contour
100
AcDbCircle
 10
69.95287840435992
 20
62.25327697478831
 30
0.0
 40
0.9999999999999998
100
AcDbArc
 50
0.0
 51
90.0
  0
LINE
  5
A796
330
A702
100
AcDbEntity
  8
center
 48
0.1
100
AcDbLine
 10
27.95287840435992
 20
56.2532769747883
 30
0.0
 11
19.95287840435992
 21
56.2532769747883
 31
0.0
  0
LINE
  5
A797
330
A702
100
AcDbEntity
  8
contour
100
AcDbLine
 10
20.95287840435995
 20
62.25327697478831
 30
0.0
 11
20.95287840435995
 21
49.35327697478831
 31
0.0
  0
ARC
  5
A798
330
A702
100
AcDbEntity
  8
contour
100
AcDbCircle
 10
21.95287840435995
 20
62.25327697478831
 30
0.0
 40
0.9999999999999998
100
AcDbArc
 50
90.0
 51
180.0
  0
LINE
  5
A799
330
A702
100
AcDbEntity
  8
contour
100
AcDbLine
 10
20.95287840435995
 20
45.35327697478829
 30
0.0
 11
20.95287840435992
 21
42.25327697478831
 31
0.0
  0
ARC
  5
A79A
330
A702
100
AcDbEntity
  8
contour
100
AcDbCircle
 10
21.95287840435995
 20
45.35327697478829
 30
0.0
 40
0.9999999999999998
100
AcDbArc
 50
90.0
 51
180.0
  0
LINE
  5
A79B
330
A702
100
AcDbEntity
  8
contour
100
AcDbLine
 10
21.95287840435992
 20
41.2532769747883
 30
0.0
 11
69.95287840435992
 21
41.2532769747883
 31
0.0
  0
ARC
  5
A79C
330
A702
100
AcDbEntity
  8
contour
100
AcDbCircle
 10
21.95287840435992
 20
42.25327697478831
 30
0.0
 40
0.9999999999999998
100
AcDbArc
 50
179.9999999999996
 51
270.0
  0
LINE
  5
A79D
330
A702
100
AcDbEntity
  8
contour
100
AcDbLine
 10
24.70287840435995
 20
45.25327697478831
 30
0.0
 11
26.85287840435993
 21
44.01197389603061
 31
0.0
  0
LINE
  5
A79E
330
A702
100
AcDbEntity
  8
contour
100
AcDbLine
 10
21.95287840435995
 20
46.3532769747883
 30
0.0
 11
28.20287840435992
 21
46.35327697478831
 31
0.0
  0
LINE
  5
A79F
330
A702
100
AcDbEntity
  8
contour
100
AcDbLine
 10
68.45287840435995
 20
46.35327697478831
 30
0.0
 11
69.95287840435992
 21
46.35327697478831
 31
0.0
  0
ARC
  5
A7A0
330
A702
100
AcDbEntity
  8
contour
100
AcDbCircle
 10
69.95287840435992
 20
45.3532769747883
 30
0.0
 40
0.9999999999999998
100
AcDbArc
 50
0.0
 51
90.0
  0
LINE
  5
A7A1
330
A702
100
AcDbEntity
  8
contour
100
AcDbLine
 10
21.95287840435995
 20
48.35327697478831
 30
0.0
 11
28.20287840435992
 21
48.35327697478831
 31
0.0
  0
ARC
  5
A7A2
330
A702
100
AcDbEntity
  8
contour
100
AcDbCircle
 10
21.95287840435995
 20
49.35327697478831
 30
0.0
 40
0.9999999999999998
100
AcDbArc
 50
179.9999999999998
 51
270.0
  0
LINE
  5
A7A3
330
A702
100
AcDbEntity
  8
contour
100
AcDbLine
 10
68.45287840435995
 20
48.35327697478831
 30
0.0
 11
69.95287840435992
 21
48.35327697478831
 31
0.0
  0
LINE
  5
A7A4
330
A702
100
AcDbEntity
  8
contour
100
AcDbLine
 10
70.95287840435992
 20
42.25327697478831
 30
0.0
 11
70.95287840435992
 21
45.3532769747883
 31
0.0
  0
ARC
  5
A7A5
330
A702
100
AcDbEntity
  8
contour
100
AcDbCircle
 10
69.95287840435992
 20
42.25327697478831
 30
0.0
 40
0.9999999999999998
100
AcDbArc
 50
270.0
 51
0.0
  0
LINE
  5
A7A6
330
A702
100
AcDbEntity
  8
contour
100
AcDbLine
 10
70.95287840435992
 20
49.35327697478831
 30
0.0
 11
70.95287840435992
 21
62.25327697478831
 31
0.0
  0
ARC
  5
A7A7
330
A702
100
AcDbEntity
  8
contour
100
AcDbCircle
 10
69.95287840435992
 20
49.35327697478831
 30
0.0
 40
0.9999999999999998
100
AcDbArc
 50
270.0
 51
0.0
  0
LINE
  5
A7A8
330
A702
100
AcDbEntity
  8
center
 48
0.2
100
AcDbLine
 10
45.95287840435992
 20
64.25327697478831
 30
0.0
 11
45.95287840435992
 21
40.25327697478831
 31
0.0
  0
LINE
  5
A7A9
330
A702
100
AcDbEntity
  8
contour
100
AcDbLine
 10
69.20287840435992
 20
51.1532769747883
 30
0.0
 11
69.20287840435992
 21
49.15327697478829
 31
0.0
  0
LINE
  5
A7AA
330
A702
100
AcDbEntity
  8
contour
100
AcDbLine
 10
63.70287840435992
 20
46.35327697478831
 30
0.0
 11
63.70287840435992
 21
48.35327697478831
 31
0.0
  0
LINE
  5
A7AB
330
A702
100
AcDbEntity
  8
contour
100
AcDbLine
 10
28.20287840435992
 20
46.35327697478831
 30
0.0
 11
28.20287840435992
 21
48.35327697478831
 31
0.0
  0
LINE
  5
A7AC
330
A702
100
AcDbEntity
  8
contour
100
AcDbLine
 10
22.55287840435995
 20
44.01197389603059
 30
0.0
 11
22.55287840435991
 21
41.7532769747883
 31
0.0
  0
LINE
  5
A7AD
330
A702
100
AcDbEntity
  8
contour
100
AcDbLine
 10
22.05287840435992
 20
41.2532769747883
 30
0.0
 11
22.55287840435991
 21
41.7532769747883
 31
0.0
  0
LINE
  5
A7AE
330
A702
100
AcDbEntity
  8
contour
100
AcDbLine
 10
26.8528784043599
 20
44.01197389603061
 30
0.0
 11
26.8528784043599
 21
41.7532769747883
 31
0.0
  0
LINE
  5
A7AF
330
A702
100
AcDbEntity
  8
contour
100
AcDbLine
 10
27.35287840435993
 20
41.2532769747883
 30
0.0
 11
26.85287840435993
 21
41.7532769747883
 31
0.0
  0
LINE
  5
A7B0
330
A702
100
AcDbEntity
  8
contour
100
AcDbLine
 10
26.85287840435993
 20
41.7532769747883
 30
0.0
 11
22.55287840435991
 21
41.7532769747883
 31
0.0
  0
LINE
  5
A7B1
330
A702
100
AcDbEntity
  8
center
 48
0.1
100
AcDbLine
 10
24.70287840435992
 20
40.25327697478831
 30
0.0
 11
24.70287840435992
 21
46.2532769747883
 31
0.0
  0
LINE
  5
A7B2
330
A702
100
AcDbEntity
  8
contour
100
AcDbLine
 10
24.70287840435995
 20
45.25327697478831
 30
0.0
 11
22.55287840435991
 21
44.0119738960306
 31
0.0
  0
LINE
  5
A7B3
330
A702
100
AcDbEntity
  8
contour
100
AcDbLine
 10
26.8528784043599
 20
44.01197389603061
 30
0.0
 11
22.55287840435991
 21
44.01197389603059
 31
0.0
  0
LINE
  5
A7B4
330
A702
100
AcDbEntity
  8
contour
100
AcDbLine
 10
26.95287840435992
 20
56.2532769747883
 30
0.0
 11
25.50950273138585
 21
58.75327697478832
 31
0.0
  0
LINE
  5
A7B5
330
A702
100
AcDbEntity
  8
contour
100
AcDbLine
 10
26.95287840435992
 20
56.2532769747883
 30
0.0
 11
25.50950273138582
 21
53.7532769747883
 31
0.0
  0
LINE
  5
A7B6
330
A702
100
AcDbEntity
  8
contour
100
AcDbLine
 10
21.45287840435992
 20
58.7532769747883
 30
0.0
 11
25.50950273138591
 21
58.7532769747883
 31
0.0
  0
LINE
  5
A7B7
330
A702
100
AcDbEntity
  8
contour
100
AcDbLine
 10
21.45287840435992
 20
53.75327697478832
 30
0.0
 11
25.5095027313858
 21
53.7532769747883
 31
0.0
  0
LINE
  5
A7B8
330
A702
100
AcDbEntity
  8
contour
100
AcDbLine
 10
25.50950273138585
 20
58.75327697478832
 30
0.0
 11
25.50950273138582
 21
53.7532769747883
 31
0.0
  0
LINE
  5
A7B9
330
A702
100
AcDbEntity
  8
contour
100
AcDbLine
 10
21.45287840435992
 20
58.7532769747883
 30
0.0
 11
21.45287840435992
 21
53.7532769747883
 31
0.0
  0
LINE
  5
A7BA
330
A702
100
AcDbEntity
  8
contour
100
AcDbLine
 10
21.45287840435992
 20
53.7532769747883
 30
0.0
 11
20.95287840435992
 21
53.2532769747883
 31
0.0
  0
LINE
  5
A7BB
330
A702
100
AcDbEntity
  8
contour
100
AcDbLine
 10
21.45287840435992
 20
58.7532769747883
 30
0.0
 11
20.95287840435992
 21
59.25327697478832
 31
0.0
  0
LINE
  5
A7BC
330
A702
100
AcDbEntity
  8
contour
100
AcDbLine
 10
69.95287840436012
 20
41.55327697478843
 30
0.0
 11
69.9528784043602
 21
41.2532769747883
 31
0.0
  0
LINE
  5
A7BD
330
A702
100
AcDbEntity
  8
contour
100
AcDbLine
 10
62.95287840435995
 20
41.55327697478838
 30
0.0
 11
62.95287840435995
 21
41.2532769747883
 31
0.0
  0
LINE
  5
A7BE
330
A702
100
AcDbEntity
  8
contour
 62
     4
100
AcDbLine
 10
68.45287840435995
 20
56.4532769747883
 30
0.0
 11
68.4528784043599
 21
63.2532769747883
 31
0.0
  0
LINE
  5
A7BF
330
A702
100
AcDbEntity
  8
contour
 62
     4
100
AcDbLine
 10
64.45287840436001
 20
56.4532769747883
 30
0.0
 11
64.45287840435995
 21
63.2532769747883
 31
0.0
  0
LINE
  5
A7C0
330
A702
100
AcDbEntity
  8
contour
100
AcDbLine
 10
64.85287840435995
 20
56.85327697478824
 30
0.0
 11
64.83187840435991
 21
63.2532769747883
 31
0.0
  0
LINE
  5
A7C1
330
A702
100
AcDbEntity
  8
contour
100
AcDbLine
 10
68.05287840435994
 20
56.85327697478824
 30
0.0
 11
68.05287840435994
 21
63.2532769747883
 31
0.0
  0
LINE
  5
A7C2
330
A702
100
AcDbEntity
  8
contour
100
AcDbLine
 10
63.70287840435992
 20
48.35327697478831
 30
0.0
 11
64.45287840435995
 21
48.35327697478831
 31
0.0
  0
LINE
  5
A7C3
330
A702
100
AcDbEntity
  8
contour
100
AcDbLine
 10
22.70287840435992
 20
49.15327697478836
 30
0.0
 11
64.45287840435995
 21
49.15327697478829
 31
0.0
  0
LINE
  5
A7C4
330
A702
100
AcDbEntity
  8
contour
100
AcDbLine
 10
22.70287840435992
 20
51.15327697478836
 30
0.0
 11
64.45287840435995
 21
51.15327697478829
 31
0.0
  0
LINE
  5
A7C5
330
A702
100
AcDbEntity
  8
contour
100
AcDbLine
 10
63.70287840435992
 20
46.35327697478831
 30
0.0
 11
64.45287840435995
 21
46.35327697478831
 31
0.0
  0
LINE
  5
A7C6
330
A702
100
AcDbEntity
  8
contour
100
AcDbLine
 10
22.70287840435992
 20
51.1532769747883
 30
0.0
 11
22.70287840435992
 21
49.15327697478829
 31
0.0
  0
LINE
  5
A7C7
330
A702
100
AcDbEntity
  8
contour
100
AcDbLine
 10
69.20287840435992
 20
51.1532769747883
 30
0.0
 11
68.45287840435998
 21
51.1532769747883
 31
0.0
  0
LINE
  5
A7C8
330
A702
100
AcDbEntity
  8
contour
100
AcDbLine
 10
69.20287840435992
 20
49.15327697478829
 30
0.0
 11
68.45287840435998
 21
49.15327697478829
 31
0.0
  0
LINE
  5
A7C9
330
A702
100
AcDbEntity
  8
contour
100
AcDbLine
 10
61.14087840435994
 20
61.75327697478831
 30
0.0
 11
61.14087840435991
 21
52.65327697478831
 31
0.0
  0
LINE
  5
A7CA
330
A702
100
AcDbEntity
  8
contour
100
AcDbLine
 10
62.64087840435994
 20
63.2532769747883
 30
0.0
 11
61.14087840435994
 21
61.75327697478831
 31
0.0
  0
LINE
  5
A7CB
330
A702
100
AcDbEntity
  8
contour
 62
     4
100
AcDbLine
 10
61.95287840435992
 20
62.56527697478829
 30
0.0
 11
61.95287840435992
 21
51.84127697478828
 31
0.0
  0
LINE
  5
A7CC
330
A702
100
AcDbEntity
  8
contour
100
AcDbLine
 10
62.6408784043599
 20
51.15327697478829
 30
0.0
 11
61.14087840435991
 21
52.6532769747883
 31
0.0
  0
LINE
  5
A7CD
330
A702
100
AcDbEntity
  8
contour
100
AcDbLine
 10
61.14087840435991
 20
47.6532769747883
 30
0.0
 11
61.14087840435988
 21
42.75327697478828
 31
0.0
  0
LINE
  5
A7CE
330
A702
100
AcDbEntity
  8
contour
100
AcDbLine
 10
62.6408784043599
 20
49.15327697478829
 30
0.0
 11
61.14087840435991
 21
47.6532769747883
 31
0.0
  0
LINE
  5
A7CF
330
A702
100
AcDbEntity
  8
contour
 62
     4
100
AcDbLine
 10
61.95287840435989
 20
48.46527697478829
 30
0.0
 11
61.95287840435989
 21
41.94127697478829
 31
0.0
  0
LINE
  5
A7D0
330
A702
100
AcDbEntity
  8
contour
100
AcDbLine
 10
62.64087840435988
 20
41.2532769747883
 30
0.0
 11
61.14087840435988
 21
42.75327697478831
 31
0.0
  0
LINE
  5
A7D1
330
A702
100
AcDbEntity
  8
contour
100
AcDbLine
 10
30.76487840435988
 20
61.75327697478831
 30
0.0
 11
30.76487840435993
 21
52.65327697478828
 31
0.0
  0
LINE
  5
A7D2
330
A702
100
AcDbEntity
  8
contour
100
AcDbLine
 10
29.26487840435988
 20
63.2532769747883
 30
0.0
 11
30.76487840435988
 21
61.75327697478831
 31
0.0
  0
LINE
  5
A7D3
330
A702
100
AcDbEntity
  8
contour
 62
     4
100
AcDbLine
 10
29.9528784043599
 20
62.56527697478829
 30
0.0
 11
29.9528784043599
 21
51.84127697478827
 31
0.0
  0
LINE
  5
A7D4
330
A702
100
AcDbEntity
  8
contour
100
AcDbLine
 10
29.26487840435991
 20
51.15327697478829
 30
0.0
 11
30.76487840435991
 21
52.6532769747883
 31
0.0
  0
LINE
  5
A7D5
330
A702
100
AcDbEntity
  8
contour
100
AcDbLine
 10
30.76487840435991
 20
47.6532769747883
 30
0.0
 11
30.76487840435993
 21
42.75327697478828
 31
0.0
  0
LINE
  5
A7D6
330
A702
100
AcDbEntity
  8
contour
100
AcDbLine
 10
29.26487840435991
 20
49.15327697478829
 30
0.0
 11
30.76487840435991
 21
47.6532769747883
 31
0.0
  0
LINE
  5
A7D7
330
A702
100
AcDbEntity
  8
contour
 62
     4
100
AcDbLine
 10
29.95287840435992
 20
48.46527697478829
 30
0.0
 11
29.95287840435992
 21
41.94127697478829
 31
0.0
  0
LINE
  5
A7D8
330
A702
100
AcDbEntity
  8
contour
100
AcDbLine
 10
29.26487840435994
 20
41.2532769747883
 30
0.0
 11
30.76487840435993
 21
42.75327697478831
 31
0.0
  0
LINE
  5
A7D9
330
A702
100
AcDbEntity
  8
contour
100
AcDbLine
 10
61.14087840435994
 20
61.75327697478831
 30
0.0
 11
30.76487840435988
 21
61.75327697478817
 31
0.0
  0
LINE
  5
A7DA
330
A702
100
AcDbEntity
  8
contour
100
AcDbLine
 10
30.76487840435993
 20
52.65327697478828
 30
0.0
 11
61.14087840435991
 21
52.6532769747883
 31
0.0
  0
LINE
  5
A7DB
330
A702
100
AcDbEntity
  8
contour
100
AcDbLine
 10
61.14087840435994
 20
47.6532769747883
 30
0.0
 11
30.76487840435991
 21
47.65327697478812
 31
0.0
  0
LINE
  5
A7DC
330
A702
100
AcDbEntity
  8
contour
100
AcDbLine
 10
30.76487840435999
 20
42.75327697478831
 30
0.0
 11
61.14087840435991
 21
42.75327697478831
 31
0.0
  0
LINE
  5
A7DD
330
A702
100
AcDbEntity
  8
center
 48
0.2
100
AcDbLine
 10
66.45287840435995
 20
62.25327697478831
 30
0.0
 11
66.45287840435995
 21
40.25327697478831
 31
0.0
  0
INSERT
  5
A7DE
330
A702
100
AcDbEntity
  8
contour
100
AcDbBlockReference
  2
LS2
 10
206.2326338418681
 20
41.4877441637149
 30
0.0
 41
-1.0
  0
DIMENSION
  5
A7DF
330
A702
100
AcDbEntity
  8
mark
100
AcDbDimension
  2
*D9
 10
29.95287840435992
 20
34.29930559228097
 30
0.0
 11
45.9528784043599
 21
35.32430559228097
 31
0.0
 12
0.00000013596906
 22
0.0000001640692631
 32
0.0
  1
M32X1.5P
 71
     5
 42
31.99999999999997
  3
STANDARD
100
AcDbAlignedDimension
 13
61.95287840435989
 23
41.94127697478829
 33
0.0
 14
29.95287840435992
 24
41.94127697478829
 34
0.0
100
AcDbRotatedDimension
  0
DIMENSION
  5
A7E0
330
A702
100
AcDbEntity
  8
mark
100
AcDbDimension
  2
*D10
 10
74.61886995241923
 20
48.35327697478831
 30
0.0
 11
73.59386995241921
 21
55.80327697478831
 31
0.0
 12
0.00000013596906
 22
0.0000001640692631
 32
0.0
 71
     5
 42
14.9
  3
STANDARD
100
AcDbAlignedDimension
 13
69.95287840435992
 23
63.2532769747883
 33
0.0
 14
69.95287840435992
 24
48.35327697478831
 34
0.0
 50
90.0
100
AcDbRotatedDimension
  0
DIMENSION
  5
A7E1
330
A702
100
AcDbEntity
  8
mark
100
AcDbDimension
  2
*D11
 10
74.61886995241923
 20
46.35327697478831
 30
0.0
 11
73.59386995241921
 21
47.35327697478831
 31
0.0
 12
0.00000013596906
 22
0.0000001640692631
 32
0.0
 71
     5
 42
2.0
  3
STANDARD
100
AcDbAlignedDimension
 13
69.95287840435992
 23
48.35327697478831
 33
0.0
 14
69.95287840435992
 24
46.35327697478831
 34
0.0
 50
90.0
100
AcDbRotatedDimension
  0
DIMENSION
  5
A7E2
330
A702
100
AcDbEntity
  8
mark
100
AcDbDimension
  2
*D12
 10
78.91281131940172
 20
41.2532769747883
 30
0.0
 11
77.8878113194017
 21
52.25327697478832
 31
0.0
 12
0.00000013596906
 22
0.0000001640692631
 32
0.0
  1
22%%P0.2
 71
     5
 42
22.0
  3
STANDARD
100
AcDbAlignedDimension
 13
69.95287840435992
 23
63.2532769747883
 33
0.0
 14
69.9528784043602
 24
41.2532769747883
 34
0.0
 50
90.0
100
AcDbRotatedDimension
  0
HATCH
  5
A7E3
330
A702
100
AcDbEntity
  8
mark
100
AcDbHatch
 10
0.0
 20
0.0
 30
0.0
210
0.0
220
0.0
230
1.0
  2
SOLID
 70
     1
 71
     0
 91
        1
 92
        7
 72
     0
 73
     1
 93
        3
 10
29.95287840435992
 20
27.85763892561431
 10
29.95287840435992
 20
29.94097225894766
 10
30.99454507102658
 20
28.89930559228097
 97
        0
 75
     0
 76
     1
 47
0.0340840503434746
 98
        1
 10
30.44709032277038
 20
28.80300650661144
450
        0
451
        0
460
0.0
461
0.0
452
        1
462
1.0
453
        2
463
0.0
 63
     5
421
      255
463
1.0
 63
     7
421
 16777215
470
LINEAR
1001
ACAD
1010
0.0
1020
0.0
1030
0.0
  0
TOLERANCE
  5
A7E4
330
A702
100
AcDbEntity
  8
mark
100
AcDbFcf
  3
STANDARD
 10
36.20287840435995
 20
29.94097225894762
 30
0.0
  1
%%v%%v%%vA%%v%%v
 11
-0.0000000000000002
 21
-1.0
 31
0.0
1001
ACAD
1000
DSTYLE
1002
{
1070
    41
1040
1.25
1070
    42
1040
0.4
1070
    44
1040
0.4
1070
   140
1040
1.25
1070
   147
1040
0.4
1002
}
  0
LINE
  5
A7E5
330
A702
100
AcDbEntity
  8
mark
100
AcDbLine
 10
34.95287840435995
 20
28.89930559228097
 30
0.0
 11
30.99454507102658
 21
28.89930559228097
 31
0.0
  0
LINE
  5
A7E6
330
A702
100
AcDbEntity
  8
mark
100
AcDbLine
 10
29.95287840435992
 20
27.85763892561431
 30
0.0
 11
30.99454507102658
 21
28.89930559228097
 31
0.0
  0
LINE
  5
A7E7
330
A702
100
AcDbEntity
  8
mark
100
AcDbLine
 10
30.99454507102658
 20
28.89930559228097
 30
0.0
 11
29.95287840435992
 21
29.94097225894766
 31
0.0
  0
TOLERANCE
  5
A7E8
330
A702
100
AcDbEntity
  8
mark
100
AcDbFcf
  3
STANDARD
 10
83.91281131940173
 20
68.2532769747883
 30
0.0
  1
{\Fgdt;h}%%v0.005%%v%%vA%%v%%v
1001
ACAD
1000
DSTYLE
1002
{
1070
    41
1040
1.25
1070
    42
1040
0.4
1070
    44
1040
0.4
1070
   140
1040
1.25
1070
   147
1040
0.4
1002
}
  0
LINE
  5
A7E9
330
A702
100
AcDbEntity
  8
mark
100
AcDbLine
 10
29.95287840435992
 20
33.89930559228097
 30
0.0
 11
29.95287840435992
 21
29.94097225894766
 31
0.0
  0
LINE
  5
A7EA
330
A702
100
AcDbEntity
  8
mark
100
AcDbLine
 10
78.91281131940172
 20
68.2532769747883
 30
0.0
 11
83.91281131940173
 21
68.2532769747883
 31
0.0
  0
TEXT
  5
A7EB
330
A702
100
AcDbEntity
  8
dim
100
AcDbText
 10
78.39054520350777
 20
34.10601866202792
 30
0.0
 40
2.5
  1
2
  7
TXT
100
AcDbText
  0
LINE
  5
A7EC
330
A702
100
AcDbEntity
  8
mark
100
AcDbLine
 10
78.91281131940172
 20
63.2532769747883
 30
0.0
 11
78.91281131940172
 21
68.2532769747883
 31
0.0
  0
LEADER
  5
A7ED
330
A702
100
AcDbEntity
  8
mark
100
AcDbLeader
  3
STANDARD
 76
     2
 10
67.60351349897089
 20
86.09862784079199
 30
0.0
 10
77.80654589324289
 20
80.20790434140856
 30
0.0
211
0.8660254037844383
221
-0.5000000000000005
231
0.0
1001
ACAD
1000
DSTYLE
1002
{
1070
   147
1040
0.4
1070
    77
1070
     0
1002
}
  0
TEXT
  5
A7EE
330
A702
100
AcDbEntity
  8
dim
100
AcDbText
 10
78.75015891241474
 20
78.95281306974045
 30
0.0
 40
2.5
  1
1
  7
TXT
100
AcDbText
  0
LEADER
  5
A7EF
330
A702
100
AcDbEntity
  8
mark
100
AcDbLeader
  3
STANDARD
 76
     2
 10
66.45287840435995
 20
41.17419233771628
 30
0.0
 10
77.80654589324289
 20
34.80605000195392
 30
0.0
211
0.8660254037844383
221
-0.5000000000000005
231
0.0
1001
ACAD
1000
DSTYLE
1002
{
1070
   147
1040
0.4
1070
    77
1070
     0
1002
}
  0
LEADER
  5
A7F0
330
A702
100
AcDbEntity
  8
mark
100
AcDbLeader
  3
STANDARD
 76
     3
 10
20.95287840435995
 20
56.2532769747883
 30
0.0
 10
15.05287840435994
 20
50.35327697478833
 30
0.0
 10
5.875558521120979
 20
50.35327697478833
 30
0.0
1001
ACAD
1000
DSTYLE
1002
{
1070
   147
1040
0.4
1070
    77
1070
     0
1002
}
  0
TEXT
  5
A7F1
330
A702
100
AcDbEntity
  8
dim
100
AcDbText
 10
5.95232723675366
 20
50.78849650682791
 30
0.0
 40
1.25
  1
4-%%C5深さ6
  7
TXT
100
AcDbText
  0
LEADER
  5
A7F2
330
A702
100
AcDbEntity
  8
mark
100
AcDbLeader
  3
STANDARD
 76
     3
 10
24.70287840435992
 20
41.2532769747883
 30
0.0
 10
17.74165027113722
 20
34.29204884156563
 30
0.0
 10
6.863044394501116
 20
34.29204884156563
 30
0.0
1001
ACAD
1000
DSTYLE
1002
{
1070
   147
1040
0.4
1070
    77
1070
     0
1002
}
  0
TEXT
  5
A7F3
330
A702
100
AcDbEntity
  8
dim
100
AcDbText
 10
7.057319486129614
 20
34.61240195491444
 30
0.0
 40
1.25
  1
4-%%C4.3深さ4
  7
TXT
100
AcDbText
  0
LEADER
  5
A7F4
330
A702
100
AcDbEntity
  8
mark
100
AcDbLeader
  3
STANDARD
 76
     2
 10
61.89087840435988
 20
42.0032769747883
 30
0.0
 10
56.26748092645889
 20
36.37987949688734
 30
0.0
1001
ACAD
1000
DSTYLE
1002
{
1070
   147
1040
0.4
1070
    77
1070
     0
1002
}
  0
TEXT
  5
A7F5
330
A702
100
AcDbEntity
  8
dim
100
AcDbText
 10
56.38914652920218
 20
37.34892361142421
 30
0.0
 40
1.25
  1
C1.5
 50
45.00000000000007
  7
TXT
100
AcDbText
  0
DIMENSION
  5
A7F6
330
A702
100
AcDbEntity
  8
mark
100
AcDbDimension
  2
*D13
 10
64.60935778490669
 20
90.102406496969
 30
0.0
 11
17.7835772038867
 21
111.427019158266
 31
0.0
 12
0.00000013596906
 22
0.0000001640692631
 32
0.0
 70
   131
  1
P.C.D 50
 71
     5
 42
41.0
  3
STANDARD
100
AcDbDiametricDimension
 15
27.29639902381315
 25
107.0948491846149
 35
0.0
 40
0.0
1001
ACAD
1000
DSTYLE
1002
{
1070
   288
1070
     1
1002
}
  0
DIMENSION
  5
A7F7
330
A702
100
AcDbEntity
  8
mark
100
AcDbDimension
  2
*D14
 10
26.67306946455005
 20
89.66266302190286
 30
0.0
 11
75.45649540406316
 21
112.2732075195845
 31
0.0
 12
0.00000013596906
 22
0.0000001640692631
 32
0.0
 70
   131
  1
P.C.D 42.5
 71
     5
 42
42.49999999999999
  3
STANDARD
100
AcDbDiametricDimension
 15
65.23268734416993
 25
107.5345926596811
 35
0.0
 40
0.0
1001
ACAD
1000
DSTYLE
1002
{
1070
   288
1070
     1
1002
}
  0
DIMENSION
  5
A7F8
330
A702
100
AcDbEntity
  8
mark
100
AcDbDimension
  2
*D15
 10
21.9528784043599
 20
42.25327697478831
 30
0.0
 11
17.88112185602741
 21
39.63108932788815
 31
0.0
 12
0.00000013596906
 22
0.0000001640692631
 32
0.0
 70
     4
 71
     5
 42
0.9999999999999857
  3
STANDARD
100
AcDbRadialDimension
 15
21.24577162317338
 25
41.54617019360176
 35
0.0
 40
0.0
1001
ACAD
1000
DSTYLE
1002
{
1070
   288
1070
     1
1002
}
  0
DIMENSION
  5
A7F9
330
A702
100
AcDbEntity
  8
mark
100
AcDbDimension
  2
*D16
 10
70.95287840435992
 20
68.21719879158689
 30
0.0
 11
45.95287840435993
 21
69.2421987915869
 31
0.0
 12
0.00000013596906
 22
0.0000001640692631
 32
0.0
  1
%%C50
 71
     5
 42
49.99999999999997
  3
STANDARD
100
AcDbAlignedDimension
 13
20.95287840435995
 23
62.25327697478831
 33
0.0
 14
70.95287840435992
 24
62.25327697478831
 34
0.0
100
AcDbRotatedDimension
  0
MTEXT
  5
A7FA
330
A702
100
AcDbEntity
  8
mark
 62
     3
100
AcDbMText
 10
48.09155934930993
 20
70.18428116803253
 30
0.0
 40
0.6200000000000001
 41
0.0
 71
     1
 72
     1
  1
+0\P-0.2
 73
     1
 44
1.0
1001
ACAD
1000
ACAD_MTEXT_DEFINED_HEIGHT_BEGIN
1070
    46
1040
0.0
1000
ACAD_MTEXT_DEFINED_HEIGHT_END
  0
ENDBLK
  5
A7FE
330
A702
100
AcDbEntity
  8
0
100
AcDbBlockEnd
  0
BLOCK
  5
AB00
330
AAF6
100
AcDbEntity
  8
0
100
AcDbBlockBegin
  2
*D18
 70
     1
 10
0.0
 20
0.0
 30
0.0
  3
*D18
  1

  0
LINE
  5
AAF7
330
AAF6
100
AcDbEntity
  8
mark
370
    -2
100
AcDbLine
 10
129.5406849548574
 20
116.855264876345
 30
0.0
 11
129.5406849548574
 21
124.7619354840709
 31
0.0
  0
LINE
  5
AAF8
330
AAF6
100
AcDbEntity
  8
mark
370
    -2
100
AcDbLine
 10
61.54068495485742
 20
116.855264876345
 30
0.0
 11
61.54068495485742
 21
124.7619354840709
 31
0.0
  0
LINE
  5
AAF9
330
AAF6
100
AcDbEntity
  8
mark
370
    -2
100
AcDbLine
 10
127.0406849548574
 20
123.9619354840709
 30
0.0
 11
64.04068495485742
 21
123.9619354840709
 31
0.0
  0
INSERT
  5
AAFA
330
AAF6
100
AcDbEntity
  8
mark
370
    -2
100
AcDbBlockReference
  2
_Open30
 10
129.5406849548574
 20
123.9619354840709
 30
0.0
 41
2.5
 42
2.5
 43
2.5
  0
INSERT
  5
AAFB
330
AAF6
100
AcDbEntity
  8
mark
370
    -2
100
AcDbBlockReference
  2
_Open30
 10
61.54068495485742
 20
123.9619354840709
 30
0.0
 41
2.5
 42
2.5
 43
2.5
 50
180.0
  0
MTEXT
  5
AAFC
330
AAF6
100
AcDbEntity
  8
mark
 62
     3
100
AcDbMText
 10
95.54068495485742
 20
126.0119354840709
 30
0.0
 40
2.5
 41
0.0
 71
     5
 72
     1
  1
\A1;%%C68
 73
     1
 44
1.0
  0
POINT
  5
AAFD
330
AAF6
100
AcDbEntity
  8
DEFPOINTS
 62
     0
100
AcDbPoint
 10
129.5406849548574
 20
116.055264876345
 30
0.0
  0
POINT
  5
AAFE
330
AAF6
100
AcDbEntity
  8
DEFPOINTS
 62
     0
100
AcDbPoint
 10
61.54068495485742
 20
116.055264876345
 30
0.0
  0
POINT
  5
AAFF
330
AAF6
100
AcDbEntity
  8
DEFPOINTS
 62
     0
100
AcDbPoint
 10
61.54068495485742
 20
123.9619354840709
 30
0.0
  0
ENDBLK
  5
AB01
330
AAF6
100
AcDbEntity
  8
0
100
AcDbBlockEnd
  0
BLOCK
  5
AB28
330
AB21
100
AcDbEntity
  8
0
100
AcDbBlockBegin
  2
*D19
 70
     1
 10
0.0
 20
0.0
 30
0.0
  3
*D19
  1

  0
LINE
  5
AB2A
330
AB21
100
AcDbEntity
  8
mark
370
    -2
100
AcDbLine
 10
54.80965081388429
 20
88.32423073537251
 30
0.0
 11
60.06581122070443
 21
93.58039114219238
 31
0.0
  0
MTEXT
  5
AB2B
330
AB21
100
AcDbEntity
  8
mark
 62
     3
100
AcDbMText
 10
55.10427863937877
 20
91.51799636373175
 30
0.0
 40
2.5
 41
0.0
 71
     5
 72
     1
  1
\A1;R1
 11
0.7071067811865654
 21
0.7071067811865298
 31
0.0
 73
     1
 44
1.0
  0
LINE
  5
AB2C
330
AB21
100
AcDbEntity
  8
mark
370
    -2
100
AcDbLine
 10
62.54068495485741
 20
96.05526487634522
 30
0.0
 11
61.83357817367085
 21
95.34815809515871
 31
0.0
  0
INSERT
  5
AB2D
330
AB21
100
AcDbEntity
  8
mark
370
    -2
100
AcDbBlockReference
  2
_Open30
 10
61.83357817367085
 20
95.34815809515871
 30
0.0
 41
2.5
 42
2.5
 43
2.5
 50
44.99999999999857
  0
POINT
  5
AB2E
330
AB21
100
AcDbEntity
  8
DEFPOINTS
 62
     0
100
AcDbPoint
 10
61.83357817367085
 20
95.34815809515871
 30
0.0
  0
POINT
  5
AB2F
330
AB21
100
AcDbEntity
  8
DEFPOINTS
 62
     0
100
AcDbPoint
 10
62.54068495485741
 20
96.05526487634522
 30
0.0
  0
ENDBLK
  5
AB29
330
AB21
100
AcDbEntity
  8
0
100
AcDbBlockEnd
  0
BLOCK
  5
AB3A
330
AB31
100
AcDbEntity
  8
0
100
AcDbBlockBegin
  2
*D20
 70
     1
 10
0.0
 20
0.0
 30
0.0
  3
*D20
  1

  0
LINE
  5
AB3C
330
AB31
100
AcDbEntity
  8
mark
370
    -2
100
AcDbLine
 10
148.6283704054037
 20
199.2399547420852
 30
0.0
 11
125.0920519265633
 21
193.2286114990919
 31
0.0
  0
LINE
  5
AB3D
330
AB31
100
AcDbEntity
  8
mark
370
    -2
100
AcDbLine
 10
65.98931798315149
 20
178.1333526270396
 30
0.0
 11
63.56707478874936
 21
177.5146944765456
 31
0.0
  0
MTEXT
  5
AB3E
330
AB31
100
AcDbEntity
  8
mark
 62
     3
100
AcDbMText
 10
139.6755161175165
 20
199.069139410106
 30
0.0
 40
2.5
 41
0.0
 71
     5
 72
     1
  1
\A1;P.C.D 56
 11
0.9688972777608498
 21
0.2474632601975788
 31
0.0
 73
     1
 44
1.0
  0
LINE
  5
AB3F
330
AB31
100
AcDbEntity
  8
mark
370
    -2
100
AcDbLine
 10
68.4115611775536
 20
178.7520107775335
 30
0.0
 11
122.6698087321612
 21
192.6099533485979
 31
0.0
  0
INSERT
  5
AB40
330
AB31
100
AcDbEntity
  8
mark
370
    -2
100
AcDbBlockReference
  2
_Open30
 10
68.4115611775536
 20
178.7520107775335
 30
0.0
 41
2.5
 42
2.5
 43
2.5
 50
14.32745161451835
  0
INSERT
  5
AB41
330
AB31
100
AcDbEntity
  8
mark
370
    -2
100
AcDbBlockReference
  2
_Open30
 10
122.6698087321612
 20
192.6099533485979
 30
0.0
 41
2.5
 42
2.5
 43
2.5
 50
194.3274516145183
  0
POINT
  5
AB42
330
AB31
100
AcDbEntity
  8
DEFPOINTS
 62
     0
100
AcDbPoint
 10
122.6698087321612
 20
192.6099533485979
 30
0.0
  0
POINT
  5
AB43
330
AB31
100
AcDbEntity
  8
DEFPOINTS
 62
     0
100
AcDbPoint
 10
68.4115611775536
 20
178.7520107775335
 30
0.0
  0
ENDBLK
  5
AB3B
330
AB31
100
AcDbEntity
  8
0
100
AcDbBlockEnd
  0
BLOCK
  5
AB4E
330
AB45
100
AcDbEntity
  8
0
100
AcDbBlockBegin
  2
*D21
 70
     1
 10
0.0
 20
0.0
 30
0.0
  3
*D21
  1

  0
LINE
  5
AB50
330
AB45
100
AcDbEntity
  8
mark
370
    -2
100
AcDbLine
 10
42.6743112500185
 20
201.3661251992405
 30
0.0
 11
65.34181893184585
 21
194.6408085638523
 31
0.0
  0
LINE
  5
AB51
330
AB45
100
AcDbEntity
  8
mark
370
    -2
100
AcDbLine
 10
125.7395509778689
 20
176.7211555622791
 30
0.0
 11
128.1362863765207
 21
176.0100582209469
 31
0.0
  0
MTEXT
  5
AB52
330
AB45
100
AcDbEntity
  8
mark
 62
     3
100
AcDbMText
 10
51.61402849320995
 20
200.8520888293565
 30
0.0
 40
2.5
 41
0.0
 71
     5
 72
     1
  1
\A1;P.C.D 58
 11
0.9586941594606848
 21
-0.284438936532907
 31
0.0
 73
     1
 44
1.0
  0
LINE
  5
AB53
330
AB45
100
AcDbEntity
  8
mark
370
    -2
100
AcDbLine
 10
123.3428155792172
 20
177.4322529036114
 30
0.0
 11
67.73855433049755
 21
193.92971122252
 31
0.0
  0
INSERT
  5
AB54
330
AB45
100
AcDbEntity
  8
mark
370
    -2
100
AcDbBlockReference
  2
_Open30
 10
123.3428155792172
 20
177.4322529036114
 30
0.0
 41
2.5
 42
2.5
 43
2.5
 50
163.4746859475553
  0
INSERT
  5
AB55
330
AB45
100
AcDbEntity
  8
mark
370
    -2
100
AcDbBlockReference
  2
_Open30
 10
67.73855433049755
 20
193.92971122252
 30
0.0
 41
2.5
 42
2.5
 43
2.5
 50
343.4746859475553
  0
POINT
  5
AB56
330
AB45
100
AcDbEntity
  8
DEFPOINTS
 62
     0
100
AcDbPoint
 10
67.73855433049755
 20
193.92971122252
 30
0.0
  0
POINT
  5
AB57
330
AB45
100
AcDbEntity
  8
DEFPOINTS
 62
     0
100
AcDbPoint
 10
123.3428155792172
 20
177.4322529036114
 30
0.0
  0
ENDBLK
  5
AB4F
330
AB45
100
AcDbEntity
  8
0
100
AcDbBlockEnd
  0
ENDSEC
  0
SECTION
  2
ENTITIES
  0
MTEXT
  5
C0
330
18
100
AcDbEntity
  8
0
100
AcDbMText
 10
41.26970765600413
 20
233.6950877649332
 30
0.0
 40
2.5
 41
0.0
 71
     1
 72
     5
  1

  7
ISOCP3
 73
     1
 44
1.0
  0
LWPOLYLINE
  5
7D6C
330
18
100
AcDbEntity
  8
frame
100
AcDbPolyline
 90
        4
 70
     1
 43
0.0
 10
190.0
 20
280.0
 10
0.0
 20
280.0
 10
0.0
 20
0.0
 10
190.0
 20
0.0
  0
MTEXT
  5
7D6D
330
18
100
AcDbEntity
  8
0
100
AcDbMText
 10
17.09950368689175
 20
19.07605901616614
 30
0.0
 40
4.5
 41
0.0
 71
     1
 72
     5
  1
{\Ftxt,bigfont|c128;林彦旭}
  7
JL
 73
     1
 44
1.0
1001
ACAD
1000
ACAD_MTEXT_DEFINED_HEIGHT_BEGIN
1070
    46
1040
0.0
1000
ACAD_MTEXT_DEFINED_HEIGHT_END
  0
MTEXT
  5
7D6E
330
18
100
AcDbEntity
  8
0
100
AcDbMText
 10
77.95294729228851
 20
28.93578979870677
 30
0.0
 40
4.5
 41
0.0
 71
     1
 72
     5
  1
{\Ftxt,bigfont|c128;1 : 1}
  7
JL
 73
     1
 44
1.0
1001
ACAD
1000
ACAD_MTEXT_DEFINED_HEIGHT_BEGIN
1070
    46
1040
0.0
1000
ACAD_MTEXT_DEFINED_HEIGHT_END
  0
MTEXT
  5
7D6F
330
18
100
AcDbEntity
  8
0
 48
2.0
370
    25
100
AcDbMText
 10
140.2194500465656
 20
3.490021654633892
 30
0.0
 40
4.5
 41
0.0
 71
     5
 72
     1
  1
{\Ftxt,bigfont|c128;N L 4 0 2 7 6}
 73
     1
 44
1.0
1001
ACAD
1000
ACAD_MTEXT_DEFINED_HEIGHT_BEGIN
1070
    46
1040
0.0
1000
ACAD_MTEXT_DEFINED_HEIGHT_END
  0
MTEXT
  5
7D70
330
18
100
AcDbEntity
  8
0
 48
2.0
100
AcDbMText
 10
170.9328999644331
 20
21.76437127823692
 30
0.0
 40
4.318181818181822
 41
0.0
 71
     5
 72
     1
  1
\P{\Ftxt,bigfont|c128;MKR45X1.5P}
 73
     1
 44
1.0
1001
ACAD
1000
ACAD_MTEXT_DEFINED_HEIGHT_BEGIN
1070
    46
1040
0.0
1000
ACAD_MTEXT_DEFINED_HEIGHT_END
  0
MTEXT
  5
7D71
330
18
100
AcDbEntity
  8
0
100
AcDbMText
 10
15.3760677136774
 20
28.37740359834709
 30
0.0
 40
4.5
 41
0.0
 71
     1
 72
     5
  1
{\Ftxt,bigfont|c128;06.07.05}
  7
JL
 73
     1
 44
1.0
1001
ACAD
1000
ACAD_MTEXT_DEFINED_HEIGHT_BEGIN
1070
    46
1040
0.0
1000
ACAD_MTEXT_DEFINED_HEIGHT_END
  0
LINE
  5
7D72
330
18
100
AcDbEntity
  8
0
 62
     7
 48
5.0
100
AcDbLine
 39
3.838383838383842
 10
47.92942413992534
 20
27.65712907016086
 30
0.0
 11
53.04580144287854
 21
28.93622339589922
 31
0.0
  0
MTEXT
  5
7D73
330
18
100
AcDbEntity
  8
0
100
AcDbMText
 10
14.91235548326415
 20
9.242195050049303
 30
0.0
 40
6.0
 41
0.0
 71
     1
 72
     5
  1
\Ftxt.shx,bigfont.shx|c128;日機株式会社
  7
LKK
 73
     1
 44
1.0
  0
LINE
  5
7D74
330
18
100
AcDbEntity
  8
frame
100
AcDbLine
 10
0.0
 20
12.0
 30
0.0
 11
190.0
 21
12.00000000000005
 31
0.0
  0
LINE
  5
7D75
330
18
100
AcDbEntity
  8
frame
100
AcDbLine
 10
0.0
 20
22.0
 30
0.0
 11
92.12121212121223
 21
22.0
 31
0.0
  0
LINE
  5
7D76
330
18
100
AcDbEntity
  8
frame
100
AcDbLine
 10
0.0
 20
32.0
 30
0.0
 11
190.0
 21
32.0
 31
0.0
  0
LINE
  5
7D77
330
18
100
AcDbEntity
  8
frame
100
AcDbLine
 10
12.19077332493799
 20
32.0
 30
0.0
 11
12.19077332493799
 21
12.0
 31
0.0
  0
LINE
  5
7D78
330
18
100
AcDbEntity
  8
frame
100
AcDbLine
 10
30.70707070707067
 20
32.0
 30
0.0
 11
30.70707070707078
 21
12.0
 31
0.0
  0
MTEXT
  5
7D79
330
18
100
AcDbEntity
  8
0
100
AcDbMText
 10
2.830274784221955
 20
29.08190089582831
 30
0.0
 40
4.5
 41
0.0
 71
     1
 72
     5
  1
\Ftxt.shx,bigfont.shx|c128;日 付
  7
JL
 73
     1
 44
1.0
  0
MTEXT
  5
7D7A
330
18
100
AcDbEntity
  8
0
100
AcDbMText
 10
2.97063307743889
 20
19.52163842926637
 30
0.0
 40
4.5
 41
0.0
 71
     1
 72
     5
  1
\Ftxt.shx,bigfont.shx|c128;製 図
  7
JL
 73
     1
 44
1.0
  0
LINE
  5
7D7B
330
18
100
AcDbEntity
  8
0
 62
     7
370
    25
100
AcDbLine
 10
53.04580144287854
 20
23.81984609294597
 30
0.0
 11
53.04580144287854
 21
28.93622339589922
 31
0.0
  0
MTEXT
  5
7D7C
330
18
100
AcDbEntity
  8
0
100
AcDbMText
 10
64.00748852490835
 20
29.12242703792379
 30
0.0
 40
4.5
 41
0.0
 71
     1
 72
     5
  1
\Ftxt.shx,bigfont.shx|c128;尺 度
  7
JL
 73
     1
 44
1.0
  0
LINE
  5
7D7D
330
18
100
AcDbEntity
  8
frame
100
AcDbLine
 10
61.41414141414145
 20
32.0
 30
0.0
 11
61.41414141414145
 21
12.0
 31
0.0
  0
LINE
  5
7D7E
330
18
100
AcDbEntity
  8
0
 62
     7
370
    25
100
AcDbLine
 10
39.6153110226262
 20
23.18889018332635
 30
0.0
 11
39.6153110226262
 21
29.36457992429672
 31
0.0
  0
CIRCLE
  5
7D7F
330
18
100
AcDbEntity
  8
0
 62
     7
100
AcDbCircle
 10
39.6153110226262
 20
26.37803474442251
 30
0.0
 40
2.558188651476678
  0
LINE
  5
7D80
330
18
100
AcDbEntity
  8
0
 62
     7
370
    25
100
AcDbLine
 10
47.19321986919976
 20
26.37803474442262
 30
0.0
 11
53.50512581624241
 21
26.37803474442262
 31
0.0
  0
LINE
  5
7D81
330
18
100
AcDbEntity
  8
0
 62
     7
100
AcDbLine
 10
47.92942413992534
 20
25.09894041868427
 30
0.0
 11
53.04580144287854
 21
23.81984609294597
 31
0.0
  0
LINE
  5
7D82
330
18
100
AcDbEntity
  8
frame
100
AcDbLine
 10
42.742241959951
 20
22.0
 30
0.0
 11
42.742241959951
 21
12.0
 31
0.0
  0
LINE
  5
7D83
330
18
100
AcDbEntity
  8
0
 62
     7
370
    25
100
AcDbLine
 10
36.41832228486612
 20
26.37803474442251
 30
0.0
 11
43.00325267619268
 21
26.37803474442262
 31
0.0
  0
CIRCLE
  5
7D84
330
18
100
AcDbEntity
  8
0
 62
     7
100
AcDbCircle
 10
39.6153110226262
 20
26.37803474442251
 30
0.0
 40
1.279094325738339
  0
MTEXT
  5
7D85
330
18
100
AcDbEntity
  8
0
100
AcDbMText
 10
33.70184032462407
 20
19.41013815785266
 30
0.0
 40
4.5
 41
0.0
 71
     1
 72
     5
  1
\Ftxt.shx,bigfont.shx|c128;検 図
  7
JL
 73
     1
 44
1.0
  0
LINE
  5
7D86
330
18
100
AcDbEntity
  8
0
 62
     7
370
    25
100
AcDbLine
 10
47.92942413992534
 20
25.09894041868427
 30
0.0
 11
47.92942413992534
 21
27.65712907016086
 31
0.0
  0
MTEXT
  5
7D87
330
18
100
AcDbEntity
  8
0
100
AcDbMText
 10
64.28820249919829
 20
19.32058534748881
 30
0.0
 40
4.5
 41
0.0
 71
     1
 72
     5
  1
\Ftxt.shx,bigfont.shx|c128;承 認
  7
JL
 73
     1
 44
1.0
  0
MTEXT
  5
7D88
330
18
100
AcDbEntity
  8
0
100
AcDbMText
 10
93.71128715606699
 20
10.7026821961914
 30
0.0
 40
4.5
 41
0.0
 71
     1
 72
     5
  1
\Ftxt.shx,bigfont.shx|c128;図  面  番  号
  7
JL
 73
     1
 44
1.0
  0
MTEXT
  5
7D89
330
18
100
AcDbEntity
  8
0
 48
2.0
100
AcDbMText
 10
116.9038190021384
 20
21.8757473149584
 30
0.0
 40
4.5
 41
0.0
 71
     5
 72
     1
  1
\P\Ftxt.shx,bigfont.shx|c128;    精密ロックナット
 73
     1
 44
1.0
  0
MTEXT
  5
7D8A
330
18
100
AcDbEntity
  8
0
100
AcDbMText
 10
94.8083613031232
 20
29.03862457973275
 30
0.0
 40
4.5
 41
0.0
 71
     1
 72
     5
  1
\Ftxt.shx,bigfont.shx|c128;品  名
  7
JL
 73
     1
 44
1.0
  0
LINE
  5
7D8B
330
18
100
AcDbEntity
  8
frame
100
AcDbLine
 10
92.12121212121223
 20
32.0
 30
0.0
 11
92.12121212121223
 21
0.1833227579584786
 31
0.0
  0
LINE
  5
7D8C
330
18
100
AcDbEntity
  8
frame
100
AcDbLine
 10
73.41414141414145
 20
32.0
 30
0.0
 11
73.41414141414145
 21
12.0
 31
0.0
  0
LINE
  5
7D8D
330
18
100
AcDbEntity
  8
frame
100
AcDbLine
 10
147.0327092740656
 20
32.0
 30
0.0
 11
147.0327092740657
 21
12.0
 31
0.0
  0
MTEXT
  5
7D8E
330
18
100
AcDbEntity
  8
0
100
AcDbMText
 10
150.895959446773
 20
29.04517782830391
 30
0.0
 40
4.5
 41
0.0
 71
     1
 72
     5
  1
\Ftxt.shx,bigfont.shx|c128;型  番
  7
JL
 73
     1
 44
1.0
  0
MTEXT
  5
7D8F
330
18
100
AcDbEntity
  8
0
100
AcDbMText
 10
165.8059614810325
 20
10.78298174971564
 30
0.0
 40
4.5
 41
0.0
 71
     1
 72
     5
  1
\Ftxt.shx,bigfont.shx|c128;変更
  7
JL
 73
     1
 44
1.0
  0
LINE
  5
7D90
330
18
100
AcDbEntity
  8
frame
100
AcDbLine
 10
164.0909090909092
 20
12.00000000000005
 30
0.0
 11
164.0909090909093
 21
0.0
 31
0.0
  0
LINE
  5
7D91
330
18
100
AcDbEntity
  8
frame
100
AcDbLine
 10
124.6157900786393
 20
43.13491348924492
 30
0.0
 11
184.6157900786393
 21
43.13491348924481
 31
0.0
  0
LINE
  5
7D92
330
18
100
AcDbEntity
  8
frame
100
AcDbLine
 10
124.6157900786393
 20
50.33491348924497
 30
0.0
 11
184.6157900786393
 21
50.33491348924497
 31
0.0
  0
LINE
  5
7D93
330
18
100
AcDbEntity
  8
frame
100
AcDbLine
 10
124.6157900786393
 20
57.5349134892449
 30
0.0
 11
184.6157900786393
 21
57.53491348924478
 31
0.0
  0
LINE
  5
7D94
330
18
100
AcDbEntity
  8
frame
100
AcDbLine
 10
124.6157900786393
 20
64.73491348924494
 30
0.0
 11
184.6157900786393
 21
64.73491348924483
 31
0.0
  0
LINE
  5
7D95
330
18
100
AcDbEntity
  8
frame
100
AcDbLine
 10
124.6157900786393
 20
35.93491348924488
 30
0.0
 11
184.6157900786393
 21
35.93491348924488
 31
0.0
  0
MTEXT
  5
7D96
330
18
100
AcDbEntity
  8
0
 62
     7
 48
2.0
100
AcDbMText
 10
154.5011900445106
 20
65.52808189982909
 30
0.0
 40
4.8
 41
0.0
 71
     5
 72
     1
  1
\P\Ftxt.shx,bigfont.shx|c128;諸　　　　元
 73
     1
 44
1.0
  0
LINE
  5
7D97
330
18
100
AcDbEntity
  8
frame
100
AcDbLine
 10
124.6157900786393
 20
64.73491348924483
 30
0.0
 11
124.6157900786393
 21
35.93491348924488
 31
0.0
  0
MTEXT
  5
7D98
330
18
100
AcDbEntity
  8
0
100
AcDbMText
 10
128.1382258923195
 20
56.00840432212407
 30
0.0
 40
4.4
 41
163.916286842249
 71
     1
 72
     5
  1
\Ftxt.shx,bigfont.shx|c128;熱　処　理
  7
JL
 73
     1
 44
1.0
  0
LINE
  5
7D99
330
18
100
AcDbEntity
  8
frame
100
AcDbLine
 10
148.6157900786393
 20
57.53491348924478
 30
0.0
 11
148.6157900786393
 21
35.93491348924488
 31
0.0
  0
MTEXT
  5
7D9A
330
18
100
AcDbEntity
  8
0
100
AcDbMText
 10
127.8579515249403
 20
49.00617587486397
 30
0.0
 40
4.4
 41
163.6058628849672
 71
     1
 72
     5
  1
\Ftxt.shx,bigfont.shx|c128;表 面 処 理
  7
JL
 73
     1
 44
1.0
  0
MTEXT
  5
7D9B
330
18
100
AcDbEntity
  8
0
100
AcDbMText
 10
128.1480173733753
 20
41.71770302125605
 30
0.0
 40
4.4
 41
166.1718
 71
     1
 72
     5
  1
\Ftxt.shx,bigfont.shx|c128;等     　級
  7
JL
 73
     1
 44
1.0
  0
LINE
  5
7D9C
330
18
100
AcDbEntity
  8
frame
100
AcDbLine
 10
184.6157900786393
 20
64.73491348924483
 30
0.0
 11
184.6157900786393
 21
35.93491348924499
 31
0.0
  0
MTEXT
  5
7D9D
330
18
100
AcDbEntity
  8
0
100
AcDbMText
 10
153.3627933880818
 20
55.83344641471445
 30
0.0
 40
4.4
 41
291.8960056857887
 71
     1
 72
     5
  1
\Ftxt.shx,bigfont.shx|c128;調質　HRC30%%d%%p２%%d
  7
JL
 73
     1
 44
1.0
  0
MTEXT
  5
7D9E
330
18
100
AcDbEntity
  8
0
100
AcDbMText
 10
153.6234323895182
 20
41.7183135927072
 30
0.0
 40
4.4
 41
290.783364796891
 71
     1
 72
     5
  1
\Ftxt.shx,bigfont.shx|c128;ＩＳＯ - ４Ｈ
  7
JL
 73
     1
 44
1.0
  0
MTEXT
  5
7D9F
330
18
100
AcDbEntity
  8
0
100
AcDbMText
 10
153.7978935876485
 20
48.65328293790913
 30
0.0
 40
4.4
 41
291.4548
 71
     1
 72
     5
  1
\Ftxt.shx,bigfont.shx|c128;黒  　    染
  7
JL
 73
     1
 44
1.0
  0
MTEXT
  5
7DA0
330
18
100
AcDbEntity
  8
0
100
AcDbMText
 10
57.63639061334425
 20
260.9000583279474
 30
0.0
 40
5.0
 41
0.0
 71
     1
 72
     5
  1
{\Ftxt,bigfont|c128;M4X0.7P-16L}
  7
JL
 73
     1
 44
1.0
1001
ACAD
1000
ACAD_MTEXT_DEFINED_HEIGHT_BEGIN
1070
    46
1040
0.0
1000
ACAD_MTEXT_DEFINED_HEIGHT_END
  0
LINE
  5
7DA2
330
18
100
AcDbEntity
  8
frame
100
AcDbLine
 10
0.0
 20
254.0
 30
0.0
 11
190.0
 21
254.0
 31
0.0
  0
LINE
  5
7DA3
330
18
100
AcDbEntity
  8
frame
100
AcDbLine
 10
0.0
 20
262.0
 30
0.0
 11
190.0
 21
262.0
 31
0.0
  0
LINE
  5
7DA4
330
18
100
AcDbEntity
  8
frame
 62
     9
100
AcDbLine
 10
0.0
 20
270.0
 30
0.0
 11
190.0
 21
270.0
 31
0.0
  0
MTEXT
  5
7DA5
330
18
100
AcDbEntity
  8
0
100
AcDbMText
 10
57.0156439060371
 20
277.4240560049041
 30
0.0
 40
5.0
 41
0.0
 71
     1
 72
     5
  1
\Ftxt.shx,bigfont.shx|c128;図    番 / 規　　格
  7
JL
 73
     1
 44
1.0
  0
LINE
  5
7DA6
330
18
100
AcDbEntity
  8
frame
100
AcDbLine
 10
0.0
 20
254.0
 30
0.0
 11
190.0
 21
254.0
 31
0.0
  0
MTEXT
  5
7DA8
330
18
100
AcDbEntity
  8
0
100
AcDbMText
 10
21.12488048923433
 20
277.4637981386743
 30
0.0
 40
5.0
 41
0.0
 71
     1
 72
     5
  1
\Ftxt.shx,bigfont.shx|c128;品　          名
  7
JL
 73
     1
 44
1.0
  0
MTEXT
  5
7DA9
330
18
100
AcDbEntity
  8
0
100
AcDbMText
 10
18.10281387110132
 20
260.7907237289111
 30
0.0
 40
5.0
 41
0.0
 71
     1
 72
     5
  1
\Ftxt.shx,bigfont.shx|c128;セットスクリュ-
  7
JL
 73
     1
 44
1.0
  0
MTEXT
  5
7DAA
330
18
100
AcDbEntity
  8
0
100
AcDbMText
 10
17.91509480863158
 20
268.8361230282964
 30
0.0
 40
5.0
 41
0.0
 71
     1
 72
     5
  1
\Ftxt.shx,bigfont.shx|c128;ロックナット　  
  7
JL
 73
     1
 44
1.0
  0
LINE
  5
7DAC
330
18
100
AcDbEntity
  8
frame
 62
     9
100
AcDbLine
 10
14.39393939393937
 20
279.9999999999999
 30
0.0
 11
14.39393939393964
 21
254.0
 31
0.0
  0
LINE
  5
7DAD
330
18
100
AcDbEntity
  8
frame
 62
     9
100
AcDbLine
 10
14.39393939393937
 20
279.9999999999999
 30
0.0
 11
14.39393939393937
 21
255.0505050505051
 31
0.0
  0
MTEXT
  5
7DAE
330
18
100
AcDbEntity
  8
0
100
AcDbMText
 10
6.815009268013795
 20
268.7281674434121
 30
0.0
 40
5.0
 41
0.0
 71
     1
 72
     5
  1
\Ftxt.shx,bigfont.shx|c128;1
  7
JL
 73
     1
 44
1.0
  0
MTEXT
  5
7DAF
330
18
100
AcDbEntity
  8
0
100
AcDbMText
 10
2.119828072980226
 20
277.4734782639491
 30
0.0
 40
5.0
 41
0.0
 71
     1
 72
     5
  1
\Ftxt.shx,bigfont.shx|c128;照   号
  7
JL
 73
     1
 44
1.0
  0
LINE
  5
7DB0
330
18
100
AcDbEntity
  8
frame
 62
     9
100
AcDbLine
 10
52.77777777777783
 20
279.9999999999999
 30
0.0
 11
52.77777777777784
 21
254.0
 31
0.0
  0
MTEXT
  5
7DB1
330
18
100
AcDbEntity
  8
0
100
AcDbMText
 10
145.5736374372851
 20
277.6781663894194
 30
0.0
 40
5.0
 41
0.0
 71
     1
 72
     5
  1
\Ftxt.shx,bigfont.shx|c128;備           考
  7
JL
 73
     1
 44
1.0
  0
LINE
  5
7DB2
330
18
100
AcDbEntity
  8
frame
 62
     9
100
AcDbLine
 10
91.16161616161617
 20
280.0
 30
0.0
 11
91.16161616161617
 21
254.0
 31
0.0
  0
MTEXT
  5
7DB4
330
18
100
AcDbEntity
  8
0
100
AcDbMText
 10
92.87341089179369
 20
268.8361230282964
 30
0.0
 40
5.0
 41
0.0
 71
     1
 72
     5
  1
\Ftxt.shx,bigfont.shx|c128;SCM-440
  7
JL
 73
     1
 44
1.0
  0
MTEXT
  5
7DB5
330
18
100
AcDbEntity
  8
0
100
AcDbMText
 10
92.87341089179369
 20
260.765002012584
 30
0.0
 40
5.0
 41
0.0
 71
     1
 72
     5
  1
\Ftxt.shx,bigfont.shx|c128;SCM435
  7
JL
 73
     1
 44
1.0
  0
MTEXT
  5
7DB6
330
18
100
AcDbEntity
  8
0
100
AcDbMText
 10
95.76798863104192
 20
277.5645499482919
 30
0.0
 40
5.0
 41
0.0
 71
     1
 72
     5
  1
\Ftxt.shx,bigfont.shx|c128;材　質
  7
JL
 73
     1
 44
1.0
  0
LINE
  5
7DB7
330
18
100
AcDbEntity
  8
frame
 62
     9
100
AcDbLine
 10
110.3535353535354
 20
280.0
 30
0.0
 11
110.3535353535354
 21
254.0
 31
0.0
  0
LINE
  5
7DB8
330
18
100
AcDbEntity
  8
frame
100
AcDbLine
 10
124.7474747474747
 20
280.0
 30
0.0
 11
124.7474747474748
 21
254.0
 31
0.0
  0
MTEXT
  5
7DBA
330
18
100
AcDbEntity
  8
0
100
AcDbMText
 10
117.1685446215491
 20
269.0412711679932
 30
0.0
 40
5.0
 41
0.0
 71
     1
 72
     5
  1
\Ftxt.shx,bigfont.shx|c128;1
  7
JL
 73
     1
 44
1.0
  0
MTEXT
  5
7DBB
330
18
100
AcDbEntity
  8
0
100
AcDbMText
 10
116.5939070266884
 20
260.5092290150679
 30
0.0
 40
5.0
 41
0.0
 71
     1
 72
     5
  1
{\Ftxt,bigfont|c128;6}
  7
JL
 73
     1
 44
1.0
1001
ACAD
1000
ACAD_MTEXT_DEFINED_HEIGHT_BEGIN
1070
    46
1040
0.0
1000
ACAD_MTEXT_DEFINED_HEIGHT_END
  0
MTEXT
  5
7DBC
330
18
100
AcDbEntity
  8
0
100
AcDbMText
 10
112.4223895919262
 20
277.5645499482919
 30
0.0
 40
5.0
 41
0.0
 71
     1
 72
     5
  1
\Ftxt.shx,bigfont.shx|c128;数   量
  7
JL
 73
     1
 44
1.0
  0
MTEXT
  5
7DBD
330
18
100
AcDbEntity
  8
0
100
AcDbMText
 10
6.404019699055993
 20
260.7281674434121
 30
0.0
 40
5.0
 41
0.0
 71
     1
 72
     5
  1
{\Ftxt,bigfont|c128;2}
  7
JL
 73
     1
 44
1.0
1001
ACAD
1000
ACAD_MTEXT_DEFINED_HEIGHT_BEGIN
1070
    46
1040
0.0
1000
ACAD_MTEXT_DEFINED_HEIGHT_END
  0
INSERT
  5
9D9E
102
{ACAD_REACTORS
330
ABF8
102
}
330
18
100
AcDbEntity
  8
contour
100
AcDbBlockReference
  2
LS2
 10
263.3204403923655
 20
95.28973206527188
 30
0.0
 41
-1.0
  0
CIRCLE
  5
9DAF
330
18
100
AcDbEntity
  8
contour
100
AcDbCircle
 10
95.5406849548574
 20
185.6809820630657
 30
0.0
 40
34.0
  0
CIRCLE
  5
9DB0
330
18
100
AcDbEntity
  8
center
 48
0.3
100
AcDbCircle
 10
95.5406849548574
 20
185.6809820630657
 30
0.0
 40
28.0
  0
ARC
  5
9DB1
330
18
100
AcDbEntity
  8
contour
 62
     4
100
AcDbCircle
 10
95.5406849548574
 20
185.6809820630657
 30
0.0
 40
22.5
100
AcDbArc
 50
169.7596516788128
 51
100.2403483211862
  0
CIRCLE
  5
9DB2
330
18
100
AcDbEntity
  8
contour
100
AcDbCircle
 10
95.5406849548574
 20
185.6809820630657
 30
0.0
 40
21.688
  0
LINE
  5
9DB3
330
18
100
AcDbEntity
  8
center
 48
0.3
100
AcDbLine
 10
95.5406849548574
 20
221.6809820630657
 30
0.0
 11
95.54068495485735
 21
149.6809820630657
 31
0.0
  0
LINE
  5
9DB4
330
18
100
AcDbEntity
  8
center
 48
0.3
100
AcDbLine
 10
59.54068495485739
 20
185.6809820630657
 30
0.0
 11
131.5406849548574
 21
185.6809820630657
 31
0.0
  0
CIRCLE
  5
9DB8
330
18
100
AcDbEntity
  8
bowle
 48
0.2
100
AcDbCircle
 10
123.5406849548574
 20
185.6809820630657
 30
0.0
 40
3.5
  0
ARC
  5
9DB9
330
18
100
AcDbEntity
  8
contour
 62
     4
100
AcDbCircle
 10
123.5406849548574
 20
185.6809820630657
 30
0.0
 40
2.0
100
AcDbArc
 50
165.5224878140701
 51
104.47751218593
  0
CIRCLE
  5
9DBA
330
18
100
AcDbEntity
  8
contour
100
AcDbCircle
 10
123.5406849548574
 20
185.6809820630657
 30
0.0
 40
1.62099999999998
  0
CIRCLE
  5
9DC0
330
18
100
AcDbEntity
  8
bowle
 48
0.2
100
AcDbCircle
 10
109.5406849548574
 20
209.92969336903
 30
0.0
 40
3.5
  0
CIRCLE
  5
9DC1
330
18
100
AcDbEntity
  8
contour
100
AcDbCircle
 10
109.5406849548574
 20
209.92969336903
 30
0.0
 40
1.62099999999998
  0
CIRCLE
  5
9DC2
330
18
100
AcDbEntity
  8
bowle
 48
0.2
100
AcDbCircle
 10
81.5406849548574
 20
209.9296933690301
 30
0.0
 40
3.499999999999999
  0
CIRCLE
  5
9DC3
330
18
100
AcDbEntity
  8
contour
100
AcDbCircle
 10
81.5406849548574
 20
209.9296933690301
 30
0.0
 40
1.62099999999998
  0
CIRCLE
  5
9DC4
330
18
100
AcDbEntity
  8
bowle
 48
0.2
100
AcDbCircle
 10
67.54068495485737
 20
185.6809820630658
 30
0.0
 40
3.5
  0
CIRCLE
  5
9DC5
330
18
100
AcDbEntity
  8
contour
100
AcDbCircle
 10
67.54068495485737
 20
185.6809820630658
 30
0.0
 40
1.62099999999998
  0
CIRCLE
  5
9DC6
330
18
100
AcDbEntity
  8
bowle
 48
0.2
100
AcDbCircle
 10
81.54068495485729
 20
161.4322707571015
 30
0.0
 40
3.5
  0
CIRCLE
  5
9DC7
330
18
100
AcDbEntity
  8
contour
100
AcDbCircle
 10
81.54068495485729
 20
161.4322707571015
 30
0.0
 40
1.62099999999998
  0
CIRCLE
  5
9DC8
330
18
100
AcDbEntity
  8
bowle
 48
0.2
100
AcDbCircle
 10
109.5406849548573
 20
161.4322707571014
 30
0.0
 40
3.5
  0
CIRCLE
  5
9DC9
330
18
100
AcDbEntity
  8
contour
100
AcDbCircle
 10
109.5406849548573
 20
161.4322707571014
 30
0.0
 40
1.62099999999998
  0
ARC
  5
9DCA
330
18
100
AcDbEntity
  8
contour
 62
     4
100
AcDbCircle
 10
109.5406849548574
 20
209.92969336903
 30
0.0
 40
2.0
100
AcDbArc
 50
165.5224878140701
 51
104.47751218593
  0
ARC
  5
9DCB
330
18
100
AcDbEntity
  8
contour
 62
     4
100
AcDbCircle
 10
81.5406849548574
 20
209.9296933690301
 30
0.0
 40
2.0
100
AcDbArc
 50
165.5224878140694
 51
104.47751218593
  0
ARC
  5
9DCC
330
18
100
AcDbEntity
  8
contour
 62
     4
100
AcDbCircle
 10
67.54068495485737
 20
185.6809820630658
 30
0.0
 40
2.0
100
AcDbArc
 50
165.5224878140701
 51
104.47751218593
  0
ARC
  5
9DCD
330
18
100
AcDbEntity
  8
contour
 62
     4
100
AcDbCircle
 10
81.54068495485729
 20
161.4322707571015
 30
0.0
 40
2.0
100
AcDbArc
 50
165.5224878140694
 51
104.47751218593
  0
ARC
  5
9DCE
330
18
100
AcDbEntity
  8
contour
 62
     4
100
AcDbCircle
 10
109.5406849548573
 20
161.4322707571014
 30
0.0
 40
2.0
100
AcDbArc
 50
165.5224878140701
 51
104.47751218593
  0
ARC
  5
9DD3
330
18
100
AcDbEntity
  8
center
 48
0.2
100
AcDbCircle
 10
95.5406849548574
 20
185.6809820630657
 30
0.0
 40
29.0
100
AcDbArc
 50
138.8606586065801
 51
168.7026312825347
  0
LINE
  5
9DD5
330
18
100
AcDbEntity
  8
center
 48
0.2
100
AcDbLine
 10
126.7175994910971
 20
167.6809820630657
 30
0.0
 11
112.5909931045653
 21
175.8369820630656
 31
0.0
  0
LINE
  5
9DD6
330
18
100
AcDbEntity
  8
bowle
 48
0.2
100
AcDbLine
 10
126.0525359816361
 20
171.5290582744189
 30
0.0
 11
121.9233708570372
 21
173.9130328706345
 31
0.0
  0
LINE
  5
9DD7
330
18
100
AcDbEntity
  8
bowle
 48
0.2
100
AcDbLine
 10
123.0525359816361
 20
166.3329058517123
 30
0.0
 11
118.9233708570372
 21
168.7168804479279
 31
0.0
  0
LINE
  5
9DD8
330
18
100
AcDbEntity
  8
bowle
 48
0.2
100
AcDbLine
 10
118.9233708570372
 20
172.1809820630656
 30
0.0
 11
121.9233708570372
 21
173.9130328706345
 31
0.0
  0
LINE
  5
9DD9
330
18
100
AcDbEntity
  8
bowle
 48
0.2
100
AcDbLine
 10
118.9233708570372
 20
172.1809820630656
 30
0.0
 11
118.9233708570372
 21
168.7168804479279
 31
0.0
  0
LINE
  5
9DDC
330
18
100
AcDbEntity
  8
bowle
 48
0.2
100
AcDbLine
 10
123.1755018477413
 20
165.8739909918107
 30
0.0
 11
123.0525359816361
 21
166.3329058517123
 31
0.0
  0
LINE
  5
9DDD
330
18
100
AcDbEntity
  8
bowle
 48
0.2
100
AcDbLine
 10
126.5114508415376
 20
171.6520241405242
 30
0.0
 11
126.0525359816361
 21
171.5290582744189
 31
0.0
  0
LINE
  5
9DDE
330
18
100
AcDbEntity
  8
bowle
 48
0.2
100
AcDbLine
 10
126.0525359816361
 20
171.5290582744189
 30
0.0
 11
123.0525359816361
 21
166.3329058517123
 31
0.0
  0
CIRCLE
  5
9DDF
330
18
100
AcDbEntity
  8
bowle
 48
0.2
100
AcDbCircle
 10
120.6554216646061
 20
171.1809820630657
 30
0.0
 40
2.149999999999999
  0
LINE
  5
9DEA
330
18
100
AcDbEntity
  8
bowle
 48
0.2
100
AcDbLine
 10
121.9233708570372
 20
173.9130328706345
 30
0.0
 11
118.9233708570373
 21
168.7168804479278
 31
0.0
  0
LINE
  5
9DEC
102
{ACAD_REACTORS
330
ABF8
102
}
330
18
100
AcDbEntity
  8
contour
100
AcDbLine
 10
62.54068495485743
 20
117.0552648763453
 30
0.0
 11
128.5406849548574
 21
117.0552648763453
 31
0.0
  0
LINE
  5
9DED
102
{ACAD_REACTORS
330
ABF8
102
}
330
18
100
AcDbEntity
  8
contour
100
AcDbLine
 10
129.5406849548574
 20
116.0552648763453
 30
0.0
 11
129.5406849548573
 21
103.1552648763452
 31
0.0
  0
LINE
  5
9DEE
102
{ACAD_REACTORS
330
ABF8
102
}
330
18
100
AcDbEntity
  8
contour
100
AcDbLine
 10
128.5406849548574
 20
95.05526487634529
 30
0.0
 11
62.54068495485743
 21
95.05526487634529
 31
0.0
  0
LINE
  5
9DEF
102
{ACAD_REACTORS
330
ABF8
102
}
330
18
100
AcDbEntity
  8
contour
100
AcDbLine
 10
61.54068495485742
 20
96.05526487634529
 30
0.0
 11
61.5406849548574
 21
99.15526487634529
 31
0.0
  0
LINE
  5
9DF0
102
{ACAD_REACTORS
330
ABF8
102
}
330
18
100
AcDbEntity
  8
contour
100
AcDbLine
 10
128.5406849548574
 20
100.1552648763453
 30
0.0
 11
125.5406849548574
 21
100.1552648763453
 31
0.0
  0
LINE
  5
9DF1
102
{ACAD_REACTORS
330
ABF8
102
}
330
18
100
AcDbEntity
  8
contour
100
AcDbLine
 10
128.5406849548573
 20
102.1552648763453
 30
0.0
 11
125.5406849548574
 21
102.1552648763453
 31
0.0
  0
LINE
  5
9DF3
102
{ACAD_REACTORS
330
ABF8
102
}
330
18
100
AcDbEntity
  8
contour
100
AcDbLine
 10
71.0406849548574
 20
100.1552648763453
 30
0.0
 11
71.0406849548574
 21
102.1552648763453
 31
0.0
  0
LINE
  5
9DF4
102
{ACAD_REACTORS
330
ABF8
102
}
330
18
100
AcDbEntity
  8
contour
100
AcDbLine
 10
120.0406849548574
 20
100.1552648763453
 30
0.0
 11
120.0406849548574
 21
102.1552648763453
 31
0.0
  0
LINE
  5
9DF5
102
{ACAD_REACTORS
330
ABF8
102
}
330
18
100
AcDbEntity
  8
contour
100
AcDbLine
 10
61.54068495485742
 20
103.1552648763452
 30
0.0
 11
61.54068495485742
 21
116.0552648763453
 31
0.0
  0
LINE
  5
9DF6
102
{ACAD_REACTORS
330
ABF8
102
}
330
18
100
AcDbEntity
  8
contour
100
AcDbLine
 10
71.04068495485737
 20
102.1552648763453
 30
0.0
 11
62.54068495485743
 21
102.1552648763453
 31
0.0
  0
LINE
  5
9DF7
102
{ACAD_REACTORS
330
ABF8
102
}
330
18
100
AcDbEntity
  8
contour
100
AcDbLine
 10
71.04068495485737
 20
100.1552648763453
 30
0.0
 11
62.54068495485739
 21
100.1552648763453
 31
0.0
  0
LINE
  5
9DF8
102
{ACAD_REACTORS
330
ABF8
102
}
330
18
100
AcDbEntity
  8
contour
100
AcDbLine
 10
129.5406849548574
 20
99.15526487634529
 30
0.0
 11
129.5406849548574
 21
96.05526487634529
 31
0.0
  0
LINE
  5
9DF9
102
{ACAD_REACTORS
330
ABF8
102
}
330
18
100
AcDbEntity
  8
contour
100
AcDbLine
 10
121.5406849548574
 20
102.9552648763452
 30
0.0
 11
64.54068495485739
 21
102.9552648763453
 31
0.0
  0
LINE
  5
9DFA
102
{ACAD_REACTORS
330
ABF8
102
}
330
18
100
AcDbEntity
  8
contour
100
AcDbLine
 10
121.5406849548574
 20
104.9552648763452
 30
0.0
 11
64.54068495485739
 21
104.9552648763453
 31
0.0
  0
LINE
  5
9DFC
102
{ACAD_REACTORS
330
ABF8
102
}
330
18
100
AcDbEntity
  8
contour
100
AcDbLine
 10
64.54068495485739
 20
104.9552648763453
 30
0.0
 11
64.54068495485739
 21
102.9552648763453
 31
0.0
  0
LINE
  5
9DFD
102
{ACAD_REACTORS
330
ABF8
102
}
330
18
100
AcDbEntity
  8
contour
100
AcDbLine
 10
126.5406849548574
 20
104.9552648763452
 30
0.0
 11
126.5406849548574
 21
102.9552648763452
 31
0.0
  0
LINE
  5
9E13
102
{ACAD_REACTORS
330
ABF8
102
}
330
18
100
AcDbEntity
  8
contour
100
AcDbLine
 10
66.5406849548574
 20
99.0552648763453
 30
0.0
 11
68.69068495485743
 21
97.81396179758756
 31
0.0
  0
LINE
  5
9E14
330
18
100
AcDbEntity
  8
center
 48
0.2
100
AcDbLine
 10
59.54068495485742
 20
110.5552648763453
 30
0.0
 11
70.54068495485745
 21
110.5552648763452
 31
0.0
  0
LINE
  5
9E15
102
{ACAD_REACTORS
330
ABF8
102
}
330
18
100
AcDbEntity
  8
contour
100
AcDbLine
 10
62.04068495485739
 20
107.5552648763453
 30
0.0
 11
66.80863414728853
 21
107.5552648763452
 31
0.0
  0
LINE
  5
9E16
102
{ACAD_REACTORS
330
ABF8
102
}
330
18
100
AcDbEntity
  8
contour
100
AcDbLine
 10
61.54068495485742
 20
107.0552648763454
 30
0.0
 11
62.04068495485739
 21
107.5552648763453
 31
0.0
  0
LINE
  5
9E17
102
{ACAD_REACTORS
330
ABF8
102
}
330
18
100
AcDbEntity
  8
contour
100
AcDbLine
 10
62.04068495485734
 20
113.5552648763453
 30
0.0
 11
66.8086341472885
 21
113.5552648763453
 31
0.0
  0
LINE
  5
9E18
102
{ACAD_REACTORS
330
ABF8
102
}
330
18
100
AcDbEntity
  8
contour
100
AcDbLine
 10
68.54068495485745
 20
110.5552648763452
 30
0.0
 11
66.80863414728853
 21
113.5552648763453
 31
0.0
  0
LINE
  5
9E19
102
{ACAD_REACTORS
330
ABF8
102
}
330
18
100
AcDbEntity
  8
contour
100
AcDbLine
 10
68.54068495485745
 20
110.5552648763452
 30
0.0
 11
66.80863414728856
 21
107.5552648763453
 31
0.0
  0
LINE
  5
9E1A
102
{ACAD_REACTORS
330
ABF8
102
}
330
18
100
AcDbEntity
  8
contour
100
AcDbLine
 10
61.54068495485742
 20
114.0552648763452
 30
0.0
 11
62.04068495485739
 21
113.5552648763453
 31
0.0
  0
LINE
  5
9E1B
330
18
100
AcDbEntity
  8
contour
100
AcDbLine
 10
62.04068495485739
 20
113.5552648763453
 30
0.0
 11
62.04068495485739
 21
107.5552648763453
 31
0.0
  0
LINE
  5
9E1D
330
18
100
AcDbEntity
  8
contour
100
AcDbLine
 10
66.8086341472885
 20
113.5552648763453
 30
0.0
 11
66.80863414728847
 21
107.5552648763452
 31
0.0
  0
LINE
  5
9E1E
102
{ACAD_REACTORS
330
ABF8
102
}
330
18
100
AcDbEntity
  8
contour
100
AcDbLine
 10
64.39068495485742
 20
97.81396179758756
 30
0.0
 11
64.39068495485736
 21
95.55526487634528
 31
0.0
  0
LINE
  5
9E1F
102
{ACAD_REACTORS
330
ABF8
102
}
330
18
100
AcDbEntity
  8
contour
100
AcDbLine
 10
63.89068495485736
 20
95.05526487634529
 30
0.0
 11
64.39068495485736
 21
95.55526487634528
 31
0.0
  0
LINE
  5
9E20
102
{ACAD_REACTORS
330
ABF8
102
}
330
18
100
AcDbEntity
  8
contour
100
AcDbLine
 10
68.69068495485748
 20
97.81396179758756
 30
0.0
 11
68.69068495485746
 21
95.55526487634528
 31
0.0
  0
LINE
  5
9E21
102
{ACAD_REACTORS
330
ABF8
102
}
330
18
100
AcDbEntity
  8
contour
100
AcDbLine
 10
69.19068495485745
 20
95.05526487634529
 30
0.0
 11
68.69068495485746
 21
95.55526487634528
 31
0.0
  0
LINE
  5
9E22
102
{ACAD_REACTORS
330
ABF8
102
}
330
18
100
AcDbEntity
  8
contour
100
AcDbLine
 10
66.5406849548574
 20
99.0552648763453
 30
0.0
 11
64.39068495485739
 21
97.81396179758756
 31
0.0
  0
LINE
  5
9E23
330
18
100
AcDbEntity
  8
contour
100
AcDbLine
 10
68.69068495485743
 20
97.81396179758756
 30
0.0
 11
64.39068495485739
 21
97.81396179758756
 31
0.0
  0
LINE
  5
9E24
330
18
100
AcDbEntity
  8
contour
100
AcDbLine
 10
68.69068495485746
 20
95.55526487634528
 30
0.0
 11
64.39068495485734
 21
95.55526487634541
 31
0.0
  0
LINE
  5
9E25
330
18
100
AcDbEntity
  8
center
 48
0.3
100
AcDbLine
 10
123.5406849548576
 20
119.0552648763453
 30
0.0
 11
123.5406849548576
 21
93.05526487634528
 31
0.0
  0
LINE
  5
9E26
102
{ACAD_REACTORS
330
ABF8
102
}
330
18
100
AcDbEntity
  8
contour
100
AcDbLine
 10
120.0406849548574
 20
95.35526487634536
 30
0.0
 11
120.0406849548574
 21
95.05526487634529
 31
0.0
  0
LINE
  5
9E29
102
{ACAD_REACTORS
330
ABF8
102
}
330
18
100
AcDbEntity
  8
contour
100
AcDbLine
 10
127.0406849548576
 20
95.35526487634541
 30
0.0
 11
127.0406849548576
 21
95.05526487634529
 31
0.0
  0
LINE
  5
9E2A
102
{ACAD_REACTORS
330
ABF8
102
}
330
18
100
AcDbEntity
  8
contour
 62
     4
100
AcDbLine
 10
121.5406849548575
 20
114.2552648763452
 30
0.0
 11
121.5406849548575
 21
117.0552648763453
 31
0.0
  0
LINE
  5
9E2B
102
{ACAD_REACTORS
330
ABF8
102
}
330
18
100
AcDbEntity
  8
contour
 62
     4
100
AcDbLine
 10
125.5406849548574
 20
114.2552648763452
 30
0.0
 11
125.5406849548574
 21
117.0552648763453
 31
0.0
  0
LINE
  5
9E2C
102
{ACAD_REACTORS
330
ABF8
102
}
330
18
100
AcDbEntity
  8
contour
100
AcDbLine
 10
125.1406849548574
 20
114.6552648763452
 30
0.0
 11
125.1406849548574
 21
117.0552648763453
 31
0.0
  0
LINE
  5
9E2D
102
{ACAD_REACTORS
330
ABF8
102
}
330
18
100
AcDbEntity
  8
contour
100
AcDbLine
 10
121.9406849548574
 20
114.6552648763452
 30
0.0
 11
121.9406849548575
 21
117.0552648763453
 31
0.0
  0
LINE
  5
9E2E
102
{ACAD_REACTORS
330
ABF8
102
}
330
18
100
AcDbEntity
  8
contour
100
AcDbLine
 10
73.85268495485741
 20
101.4552648763452
 30
0.0
 11
73.85268495485738
 21
96.55526487634528
 31
0.0
  0
LINE
  5
9E2F
102
{ACAD_REACTORS
330
ABF8
102
}
330
18
100
AcDbEntity
  8
contour
 62
     4
100
AcDbLine
 10
73.04068495485736
 20
102.2672648763452
 30
0.0
 11
73.0406849548574
 21
95.74326487634527
 31
0.0
  0
LINE
  5
9E30
102
{ACAD_REACTORS
330
ABF8
102
}
330
18
100
AcDbEntity
  8
contour
100
AcDbLine
 10
72.3526849548574
 20
95.05526487634529
 30
0.0
 11
73.85268495485741
 21
96.5552648763453
 31
0.0
  0
LINE
  5
9E31
102
{ACAD_REACTORS
330
ABF8
102
}
330
18
100
AcDbEntity
  8
contour
100
AcDbLine
 10
73.85268495485738
 20
101.4552648763453
 30
0.0
 11
72.35268495485738
 21
102.9552648763453
 31
0.0
  0
LINE
  5
9E32
102
{ACAD_REACTORS
330
ABF8
102
}
330
18
100
AcDbEntity
  8
contour
100
AcDbLine
 10
72.35268495485738
 20
104.9552648763453
 30
0.0
 11
73.85268495485738
 21
106.4552648763453
 31
0.0
  0
LINE
  5
9E33
102
{ACAD_REACTORS
330
ABF8
102
}
330
18
100
AcDbEntity
  8
contour
100
AcDbLine
 10
73.85268495485741
 20
115.5552648763453
 30
0.0
 11
72.3526849548574
 21
117.0552648763453
 31
0.0
  0
LINE
  5
9E34
102
{ACAD_REACTORS
330
ABF8
102
}
330
18
100
AcDbEntity
  8
contour
100
AcDbLine
 10
73.85268495485738
 20
106.4552648763453
 30
0.0
 11
73.85268495485741
 21
115.5552648763453
 31
0.0
  0
LINE
  5
9E35
102
{ACAD_REACTORS
330
ABF8
102
}
330
18
100
AcDbEntity
  8
contour
 62
     4
100
AcDbLine
 10
73.04068495485736
 20
105.6432648763452
 30
0.0
 11
73.04068495485734
 21
116.3672648763453
 31
0.0
  0
LINE
  5
9E36
102
{ACAD_REACTORS
330
ABF8
102
}
330
18
100
AcDbEntity
  8
contour
100
AcDbLine
 10
117.2286849548574
 20
115.5552648763453
 30
0.0
 11
118.7286849548573
 21
117.0552648763453
 31
0.0
  0
LINE
  5
9E37
102
{ACAD_REACTORS
330
ABF8
102
}
330
18
100
AcDbEntity
  8
contour
100
AcDbLine
 10
117.2286849548574
 20
101.4552648763453
 30
0.0
 11
118.7286849548573
 21
102.9552648763453
 31
0.0
  0
LINE
  5
9E38
102
{ACAD_REACTORS
330
ABF8
102
}
330
18
100
AcDbEntity
  8
contour
100
AcDbLine
 10
117.2286849548574
 20
101.4552648763452
 30
0.0
 11
117.2286849548574
 21
96.55526487634528
 31
0.0
  0
LINE
  5
9E39
102
{ACAD_REACTORS
330
ABF8
102
}
330
18
100
AcDbEntity
  8
contour
100
AcDbLine
 10
118.7286849548573
 20
104.9552648763453
 30
0.0
 11
117.2286849548574
 21
106.4552648763453
 31
0.0
  0
LINE
  5
9E3A
102
{ACAD_REACTORS
330
ABF8
102
}
330
18
100
AcDbEntity
  8
contour
100
AcDbLine
 10
118.7286849548573
 20
95.05526487634529
 30
0.0
 11
117.2286849548574
 21
96.5552648763453
 31
0.0
  0
LINE
  5
9E3B
102
{ACAD_REACTORS
330
ABF8
102
}
330
18
100
AcDbEntity
  8
contour
 62
     4
100
AcDbLine
 10
118.0406849548574
 20
102.2672648763452
 30
0.0
 11
118.0406849548574
 21
95.74326487634527
 31
0.0
  0
LINE
  5
9E3C
102
{ACAD_REACTORS
330
ABF8
102
}
330
18
100
AcDbEntity
  8
contour
100
AcDbLine
 10
117.2286849548574
 20
106.4552648763453
 30
0.0
 11
117.2286849548574
 21
115.5552648763453
 31
0.0
  0
LINE
  5
9E3D
102
{ACAD_REACTORS
330
ABF8
102
}
330
18
100
AcDbEntity
  8
contour
 62
     4
100
AcDbLine
 10
118.0406849548574
 20
105.6432648763452
 30
0.0
 11
118.0406849548574
 21
116.3672648763453
 31
0.0
  0
LINE
  5
9E3E
330
18
100
AcDbEntity
  8
contour
100
AcDbLine
 10
73.85268495485741
 20
115.5552648763453
 30
0.0
 11
117.2286849548574
 21
115.5552648763453
 31
0.0
  0
LINE
  5
9E3F
330
18
100
AcDbEntity
  8
contour
100
AcDbLine
 10
117.2286849548574
 20
106.4552648763453
 30
0.0
 11
73.85268495485738
 21
106.4552648763454
 31
0.0
  0
LINE
  5
9E40
330
18
100
AcDbEntity
  8
contour
100
AcDbLine
 10
73.85268495485741
 20
101.4552648763452
 30
0.0
 11
117.2286849548574
 21
101.4552648763452
 31
0.0
  0
LINE
  5
9E41
330
18
100
AcDbEntity
  8
contour
100
AcDbLine
 10
117.2286849548574
 20
96.5552648763453
 30
0.0
 11
73.85268495485738
 21
96.55526487634526
 31
0.0
  0
ARC
  5
9E43
102
{ACAD_REACTORS
330
ABF8
102
}
330
18
100
AcDbEntity
  8
contour
100
AcDbCircle
 10
62.54068495485743
 20
116.0552648763453
 30
0.0
 40
1.0
100
AcDbArc
 50
90.0
 51
180.0
  0
ARC
  5
9E44
102
{ACAD_REACTORS
330
ABF8
102
}
330
18
100
AcDbEntity
  8
contour
100
AcDbCircle
 10
62.54068495485743
 20
103.1552648763452
 30
0.0
 40
1.0
100
AcDbArc
 50
180.0
 51
270.0
  0
ARC
  5
9E45
102
{ACAD_REACTORS
330
ABF8
102
}
330
18
100
AcDbEntity
  8
contour
100
AcDbCircle
 10
62.54068495485739
 20
99.15526487634529
 30
0.0
 40
1.0
100
AcDbArc
 50
90.0
 51
180.0
  0
ARC
  5
9E46
102
{ACAD_REACTORS
330
ABF8
102
}
330
18
100
AcDbEntity
  8
contour
100
AcDbCircle
 10
62.54068495485743
 20
96.05526487634529
 30
0.0
 40
1.0
100
AcDbArc
 50
180.0
 51
270.0
  0
ARC
  5
9E47
102
{ACAD_REACTORS
330
ABF8
102
}
330
18
100
AcDbEntity
  8
contour
100
AcDbCircle
 10
128.5406849548574
 20
96.05526487634529
 30
0.0
 40
1.0
100
AcDbArc
 50
270.0
 51
0.0
  0
ARC
  5
9E48
102
{ACAD_REACTORS
330
ABF8
102
}
330
18
100
AcDbEntity
  8
contour
100
AcDbCircle
 10
128.5406849548574
 20
99.15526487634529
 30
0.0
 40
1.0
100
AcDbArc
 50
0.0
 51
90.0
  0
ARC
  5
9E49
102
{ACAD_REACTORS
330
ABF8
102
}
330
18
100
AcDbEntity
  8
contour
100
AcDbCircle
 10
128.5406849548573
 20
103.1552648763452
 30
0.0
 40
1.0
100
AcDbArc
 50
270.0
 51
0.0
  0
ARC
  5
9E4A
102
{ACAD_REACTORS
330
ABF8
102
}
330
18
100
AcDbEntity
  8
contour
100
AcDbCircle
 10
128.5406849548574
 20
116.0552648763453
 30
0.0
 40
1.0
100
AcDbArc
 50
0.0
 51
90.0
  0
LINE
  5
9E4B
102
{ACAD_REACTORS
330
ABF8
102
}
330
18
100
AcDbEntity
  8
contour
100
AcDbLine
 10
126.5406849548574
 20
104.9552648763452
 30
0.0
 11
125.5406849548574
 21
104.9552648763452
 31
0.0
  0
LINE
  5
9E4C
102
{ACAD_REACTORS
330
ABF8
102
}
330
18
100
AcDbEntity
  8
contour
100
AcDbLine
 10
126.5406849548574
 20
102.9552648763452
 30
0.0
 11
125.5406849548574
 21
102.9552648763452
 31
0.0
  0
LINE
  5
9E4D
102
{ACAD_REACTORS
330
ABF8
102
}
330
18
100
AcDbEntity
  8
contour
100
AcDbLine
 10
120.0406849548574
 20
102.1552648763453
 30
0.0
 11
121.5406849548574
 21
102.1552648763453
 31
0.0
  0
LINE
  5
9E4E
102
{ACAD_REACTORS
330
ABF8
102
}
330
18
100
AcDbEntity
  8
contour
100
AcDbLine
 10
120.0406849548574
 20
100.1552648763453
 30
0.0
 11
121.5406849548574
 21
100.1552648763453
 31
0.0
  0
LINE
  5
9E4F
330
18
100
AcDbEntity
  8
center
 48
0.3
100
AcDbLine
 10
95.5406849548574
 20
119.0552648763453
 30
0.0
 11
95.5406849548574
 21
93.05526487634528
 31
0.0
  0
LINE
  5
9E50
102
{ACAD_REACTORS
330
ABF8
102
}
330
18
100
AcDbEntity
  8
center
 48
0.1
100
AcDbLine
 10
66.5406849548574
 20
101.0552648763453
 30
0.0
 11
66.5406849548574
 21
93.05526487634528
 31
0.0
  0
CIRCLE
  5
9E53
330
18
100
AcDbEntity
  8
bowle
 48
0.2
100
AcDbCircle
 10
120.6554216646061
 20
171.1809820630657
 30
0.0
 40
2.649999999999999
  0
LINE
  5
9E54
330
18
100
AcDbEntity
  8
center
 48
0.2
100
AcDbLine
 10
126.7175994910972
 20
203.6809820630657
 30
0.0
 11
112.5909931045654
 21
195.5249820630656
 31
0.0
  0
LINE
  5
9E55
330
18
100
AcDbEntity
  8
bowle
 48
0.2
100
AcDbLine
 10
126.0525359816361
 20
199.8329058517123
 30
0.0
 11
121.9233708570373
 21
197.4489312554968
 31
0.0
  0
LINE
  5
9E56
330
18
100
AcDbEntity
  8
bowle
 48
0.2
100
AcDbLine
 10
126.5114508415377
 20
199.7099399856071
 30
0.0
 11
126.0525359816361
 21
199.8329058517123
 31
0.0
  0
LINE
  5
9E57
330
18
100
AcDbEntity
  8
bowle
 48
0.2
100
AcDbLine
 10
123.0525359816362
 20
205.0290582744191
 30
0.0
 11
118.9233708570373
 21
202.6450836782034
 31
0.0
  0
LINE
  5
9E58
330
18
100
AcDbEntity
  8
bowle
 48
0.2
100
AcDbLine
 10
118.9233708570372
 20
199.1809820630656
 30
0.0
 11
118.9233708570373
 21
202.6450836782034
 31
0.0
  0
LINE
  5
9E59
330
18
100
AcDbEntity
  8
bowle
 48
0.2
100
AcDbLine
 10
118.9233708570372
 20
199.1809820630656
 30
0.0
 11
121.9233708570372
 21
197.4489312554968
 31
0.0
  0
LINE
  5
9E5A
330
18
100
AcDbEntity
  8
bowle
 48
0.2
100
AcDbLine
 10
123.1755018477414
 20
205.4879731343206
 30
0.0
 11
123.0525359816361
 21
205.029058274419
 31
0.0
  0
LINE
  5
9E5B
330
18
100
AcDbEntity
  8
bowle
 48
0.2
100
AcDbLine
 10
123.0525359816361
 20
205.029058274419
 30
0.0
 11
126.0525359816361
 21
199.8329058517123
 31
0.0
  0
CIRCLE
  5
9E5C
330
18
100
AcDbEntity
  8
bowle
 48
0.2
100
AcDbCircle
 10
120.6554216646061
 20
200.1809820630657
 30
0.0
 40
2.149999999999999
  0
LINE
  5
9E5D
330
18
100
AcDbEntity
  8
bowle
 48
0.2
100
AcDbLine
 10
118.9233708570373
 20
202.6450836782034
 30
0.0
 11
121.9233708570373
 21
197.4489312554968
 31
0.0
  0
CIRCLE
  5
9E5E
330
18
100
AcDbEntity
  8
bowle
 48
0.2
100
AcDbCircle
 10
120.6554216646061
 20
200.1809820630657
 30
0.0
 40
2.649999999999999
  0
LINE
  5
9E5F
330
18
100
AcDbEntity
  8
center
 48
0.2
100
AcDbLine
 10
95.54068495485745
 20
221.6809820630657
 30
0.0
 11
95.54068495485751
 21
210.6809820630657
 31
0.0
  0
LINE
  5
9E60
330
18
100
AcDbEntity
  8
bowle
 48
0.2
100
AcDbLine
 10
98.54068495485746
 20
219.1809820630657
 30
0.0
 11
98.54068495485751
 21
214.4130328706346
 31
0.0
  0
LINE
  5
9E61
330
18
100
AcDbEntity
  8
bowle
 48
0.2
100
AcDbLine
 10
98.87663394865377
 20
219.516931056862
 30
0.0
 11
98.54068495485746
 21
219.1809820630657
 31
0.0
  0
LINE
  5
9E62
330
18
100
AcDbEntity
  8
bowle
 48
0.2
100
AcDbLine
 10
92.54068495485739
 20
219.1809820630658
 30
0.0
 11
92.54068495485745
 21
214.4130328706347
 31
0.0
  0
LINE
  5
9E63
330
18
100
AcDbEntity
  8
bowle
 48
0.2
100
AcDbLine
 10
95.54068495485751
 20
212.6809820630657
 30
0.0
 11
92.54068495485745
 21
214.4130328706346
 31
0.0
  0
LINE
  5
9E64
330
18
100
AcDbEntity
  8
bowle
 48
0.2
100
AcDbLine
 10
95.54068495485751
 20
212.6809820630657
 30
0.0
 11
98.54068495485746
 21
214.4130328706346
 31
0.0
  0
LINE
  5
9E65
330
18
100
AcDbEntity
  8
bowle
 48
0.2
100
AcDbLine
 10
92.20473596106115
 20
219.5169310568621
 30
0.0
 11
92.54068495485745
 21
219.1809820630657
 31
0.0
  0
LINE
  5
9E66
330
18
100
AcDbEntity
  8
bowle
 48
0.2
100
AcDbLine
 10
92.54068495485745
 20
219.1809820630657
 30
0.0
 11
98.54068495485746
 21
219.1809820630657
 31
0.0
  0
CIRCLE
  5
9E67
330
18
100
AcDbEntity
  8
bowle
 48
0.2
100
AcDbCircle
 10
95.5406849548574
 20
214.6809820630657
 30
0.0
 40
2.149999999999999
  0
LINE
  5
9E68
330
18
100
AcDbEntity
  8
bowle
 48
0.2
100
AcDbLine
 10
92.54068495485745
 20
214.4130328706347
 30
0.0
 11
98.54068495485746
 21
214.4130328706347
 31
0.0
  0
CIRCLE
  5
9E69
330
18
100
AcDbEntity
  8
bowle
 48
0.2
100
AcDbCircle
 10
95.5406849548574
 20
214.6809820630657
 30
0.0
 40
2.649999999999999
  0
LINE
  5
9E6A
330
18
100
AcDbEntity
  8
center
 48
0.2
100
AcDbLine
 10
64.36377041861766
 20
203.6809820630658
 30
0.0
 11
78.49037680514943
 21
195.5249820630658
 31
0.0
  0
LINE
  5
9E6B
330
18
100
AcDbEntity
  8
bowle
 48
0.2
100
AcDbLine
 10
68.02883392807871
 20
205.0290582744191
 30
0.0
 11
72.15799905267758
 21
202.6450836782036
 31
0.0
  0
LINE
  5
9E6C
330
18
100
AcDbEntity
  8
bowle
 48
0.2
100
AcDbLine
 10
67.90586806197342
 20
205.4879731343207
 30
0.0
 11
68.02883392807871
 21
205.0290582744191
 31
0.0
  0
LINE
  5
9E6D
330
18
100
AcDbEntity
  8
bowle
 48
0.2
100
AcDbLine
 10
65.02883392807865
 20
199.8329058517125
 30
0.0
 11
69.15799905267755
 21
197.448931255497
 31
0.0
  0
LINE
  5
9E6E
330
18
100
AcDbEntity
  8
bowle
 48
0.2
100
AcDbLine
 10
72.15799905267764
 20
199.1809820630658
 30
0.0
 11
69.15799905267758
 21
197.4489312554969
 31
0.0
  0
LINE
  5
9E6F
330
18
100
AcDbEntity
  8
bowle
 48
0.2
100
AcDbLine
 10
72.15799905267764
 20
199.1809820630658
 30
0.0
 11
72.15799905267761
 21
202.6450836782035
 31
0.0
  0
LINE
  5
9E70
330
18
100
AcDbEntity
  8
bowle
 48
0.2
100
AcDbLine
 10
64.56991906817711
 20
199.7099399856072
 30
0.0
 11
65.02883392807873
 21
199.8329058517125
 31
0.0
  0
LINE
  5
9E71
330
18
100
AcDbEntity
  8
bowle
 48
0.2
100
AcDbLine
 10
65.02883392807873
 20
199.8329058517125
 30
0.0
 11
68.02883392807871
 21
205.0290582744191
 31
0.0
  0
CIRCLE
  5
9E72
330
18
100
AcDbEntity
  8
bowle
 48
0.2
100
AcDbCircle
 10
70.42594824510868
 20
200.1809820630658
 30
0.0
 40
2.149999999999999
  0
LINE
  5
9E73
330
18
100
AcDbEntity
  8
bowle
 48
0.2
100
AcDbLine
 10
69.15799905267755
 20
197.448931255497
 30
0.0
 11
72.15799905267752
 21
202.6450836782036
 31
0.0
  0
CIRCLE
  5
9E74
330
18
100
AcDbEntity
  8
bowle
 48
0.2
100
AcDbCircle
 10
70.42594824510868
 20
200.1809820630658
 30
0.0
 40
2.649999999999999
  0
LINE
  5
9E75
330
18
100
AcDbEntity
  8
center
 48
0.2
100
AcDbLine
 10
64.3637704186176
 20
167.6809820630658
 30
0.0
 11
78.49037680514925
 21
175.8369820630659
 31
0.0
  0
LINE
  5
9E76
330
18
100
AcDbEntity
  8
bowle
 48
0.2
100
AcDbLine
 10
65.02883392807865
 20
171.5290582744191
 30
0.0
 11
69.1579990526775
 21
173.9130328706347
 31
0.0
  0
LINE
  5
9E77
330
18
100
AcDbEntity
  8
bowle
 48
0.2
100
AcDbLine
 10
64.56991906817705
 20
171.6520241405244
 30
0.0
 11
65.02883392807865
 21
171.5290582744191
 31
0.0
  0
LINE
  5
9E78
330
18
100
AcDbEntity
  8
bowle
 48
0.2
100
AcDbLine
 10
68.0288339280786
 20
166.3329058517124
 30
0.0
 11
72.15799905267747
 21
168.7168804479281
 31
0.0
  0
LINE
  5
9E79
330
18
100
AcDbEntity
  8
bowle
 48
0.2
100
AcDbLine
 10
72.15799905267755
 20
172.1809820630658
 30
0.0
 11
72.1579990526775
 21
168.7168804479281
 31
0.0
  0
LINE
  5
9E7A
330
18
100
AcDbEntity
  8
bowle
 48
0.2
100
AcDbLine
 10
72.15799905267755
 20
172.1809820630658
 30
0.0
 11
69.15799905267753
 21
173.9130328706347
 31
0.0
  0
LINE
  5
9E7B
330
18
100
AcDbEntity
  8
bowle
 48
0.2
100
AcDbLine
 10
67.90586806197336
 20
165.8739909918109
 30
0.0
 11
68.02883392807865
 21
166.3329058517125
 31
0.0
  0
LINE
  5
9E7C
330
18
100
AcDbEntity
  8
bowle
 48
0.2
100
AcDbLine
 10
68.02883392807865
 20
166.3329058517125
 30
0.0
 11
65.02883392807865
 21
171.5290582744191
 31
0.0
  0
CIRCLE
  5
9E7D
330
18
100
AcDbEntity
  8
bowle
 48
0.2
100
AcDbCircle
 10
70.42594824510866
 20
171.1809820630658
 30
0.0
 40
2.149999999999999
  0
LINE
  5
9E7E
330
18
100
AcDbEntity
  8
bowle
 48
0.2
100
AcDbLine
 10
72.15799905267747
 20
168.7168804479281
 30
0.0
 11
69.15799905267744
 21
173.9130328706347
 31
0.0
  0
CIRCLE
  5
9E7F
330
18
100
AcDbEntity
  8
bowle
 48
0.2
100
AcDbCircle
 10
70.42594824510866
 20
171.1809820630658
 30
0.0
 40
2.649999999999999
  0
LINE
  5
9E80
330
18
100
AcDbEntity
  8
center
 48
0.2
100
AcDbLine
 10
95.54068495485728
 20
149.6809820630657
 30
0.0
 11
95.54068495485728
 21
160.6809820630657
 31
0.0
  0
LINE
  5
9E81
330
18
100
AcDbEntity
  8
bowle
 48
0.2
100
AcDbLine
 10
92.54068495485729
 20
152.1809820630657
 30
0.0
 11
92.54068495485729
 21
156.9489312554968
 31
0.0
  0
LINE
  5
9E82
330
18
100
AcDbEntity
  8
bowle
 48
0.2
100
AcDbLine
 10
92.20473596106103
 20
151.8450330692694
 30
0.0
 11
92.54068495485729
 21
152.1809820630657
 31
0.0
  0
LINE
  5
9E83
330
18
100
AcDbEntity
  8
bowle
 48
0.2
100
AcDbLine
 10
98.54068495485734
 20
152.1809820630656
 30
0.0
 11
98.54068495485728
 21
156.9489312554968
 31
0.0
  0
LINE
  5
9E84
330
18
100
AcDbEntity
  8
bowle
 48
0.2
100
AcDbLine
 10
95.54068495485728
 20
158.6809820630657
 30
0.0
 11
98.54068495485728
 21
156.9489312554968
 31
0.0
  0
LINE
  5
9E85
330
18
100
AcDbEntity
  8
bowle
 48
0.2
100
AcDbLine
 10
95.54068495485728
 20
158.6809820630657
 30
0.0
 11
92.54068495485729
 21
156.9489312554968
 31
0.0
  0
LINE
  5
9E86
330
18
100
AcDbEntity
  8
bowle
 48
0.2
100
AcDbLine
 10
98.87663394865365
 20
151.8450330692694
 30
0.0
 11
98.54068495485728
 21
152.1809820630657
 31
0.0
  0
LINE
  5
9E87
330
18
100
AcDbEntity
  8
bowle
 48
0.2
100
AcDbLine
 10
98.54068495485728
 20
152.1809820630657
 30
0.0
 11
92.54068495485729
 21
152.1809820630657
 31
0.0
  0
CIRCLE
  5
9E88
330
18
100
AcDbEntity
  8
bowle
 48
0.2
100
AcDbCircle
 10
95.54068495485735
 20
156.6809820630657
 30
0.0
 40
2.149999999999999
  0
LINE
  5
9E89
330
18
100
AcDbEntity
  8
bowle
 48
0.2
100
AcDbLine
 10
98.54068495485728
 20
156.9489312554968
 30
0.0
 11
92.54068495485729
 21
156.9489312554967
 31
0.0
  0
CIRCLE
  5
9E8A
330
18
100
AcDbEntity
  8
bowle
 48
0.2
100
AcDbCircle
 10
95.54068495485735
 20
156.6809820630657
 30
0.0
 40
2.649999999999999
  0
CIRCLE
  5
9E8C
330
18
100
AcDbEntity
  8
contour
100
AcDbCircle
 10
95.5406849548574
 20
185.6809820630657
 30
0.0
 40
23.18799999999999
  0
LINE
  5
A478
330
18
100
AcDbEntity
  8
center
 48
0.2
100
AcDbLine
 10
113.5406849548574
 20
216.8578965993055
 30
0.0
 11
105.3846849548574
 21
202.7312902127737
 31
0.0
  0
LINE
  5
A47B
330
18
100
AcDbEntity
  8
center
 48
0.2
100
AcDbLine
 10
77.54068495485739
 20
216.8578965993055
 30
0.0
 11
85.69668495485741
 21
202.7312902127737
 31
0.0
  0
LINE
  5
A47C
330
18
100
AcDbEntity
  8
center
 48
0.2
100
AcDbLine
 10
113.5406849548574
 20
154.5040675268259
 30
0.0
 11
105.3846849548574
 21
168.6306739133577
 31
0.0
  0
LINE
  5
A47D
330
18
100
AcDbEntity
  8
center
 48
0.2
100
AcDbLine
 10
77.54068495485739
 20
154.5040675268259
 30
0.0
 11
85.69668495485741
 21
168.6306739133577
 31
0.0
  0
ARC
  5
A5E1
330
18
100
AcDbEntity
  8
center
 48
0.2
100
AcDbCircle
 10
95.54068495485745
 20
185.6809820630657
 30
0.0
 40
29.0
100
AcDbArc
 50
258.8606586065811
 51
281.1393413934189
  0
ARC
  5
A5E2
330
18
100
AcDbEntity
  8
center
 48
0.2
100
AcDbCircle
 10
95.54068495485742
 20
185.6809820630657
 30
0.0
 40
29.0
100
AcDbArc
 50
318.8606586065795
 51
348.7026312825346
  0
ARC
  5
A5E4
330
18
100
AcDbEntity
  8
center
 48
0.2
100
AcDbCircle
 10
95.54068495485738
 20
185.6809820630657
 30
0.0
 40
29.0
100
AcDbArc
 50
78.86065860658034
 51
101.1393413934196
  0
DIMENSION
  5
A608
330
18
100
AcDbEntity
  8
mark
100
AcDbDimension
  2
*D5
 10
137.1717387633591
 20
102.1552648763453
 30
0.0
 11
135.1217387633591
 21
109.6052648763453
 31
0.0
 70
    32
 71
     5
 42
14.9
  3
STANDARD
100
AcDbAlignedDimension
 13
128.5406849548574
 23
117.0552648763453
 33
0.0
 14
128.5406849548573
 24
102.1552648763453
 34
0.0
 50
90.0
100
AcDbRotatedDimension
  0
DIMENSION
  5
A62F
330
18
100
AcDbEntity
  8
mark
100
AcDbDimension
  2
*D6
 10
144.5994345173715
 20
95.05526487634529
 30
0.0
 11
142.5494345173714
 21
106.0552648763453
 31
0.0
 70
    32
  1
22%%P0.2
 71
     5
 42
22.0
  3
STANDARD
100
AcDbAlignedDimension
 13
128.5406849548574
 23
117.0552648763453
 33
0.0
 14
128.5406849548574
 24
95.05526487634529
 34
0.0
 50
90.0
100
AcDbRotatedDimension
  0
LINE
  5
A63C
330
18
100
AcDbEntity
  8
mark
100
AcDbLine
 10
129.3406849548573
 20
102.1552648763453
 30
0.0
 11
137.9717387633592
 21
102.1552648763453
 31
0.0
  0
LINE
  5
A63D
330
18
100
AcDbEntity
  8
mark
100
AcDbLine
 10
129.3406849548573
 20
100.1552648763453
 30
0.0
 11
137.9717387633592
 21
100.1552648763453
 31
0.0
  0
LINE
  5
A63E
330
18
100
AcDbEntity
  8
mark
100
AcDbLine
 10
137.1717387633591
 20
104.6552648763453
 30
0.0
 11
137.1717387633591
 21
107.1552648763453
 31
0.0
  0
LINE
  5
A63F
330
18
100
AcDbEntity
  8
mark
100
AcDbLine
 10
137.1717387633591
 20
97.65526487634529
 30
0.0
 11
137.1717387633591
 21
96.40526487634529
 31
0.0
  0
LINE
  5
A640
330
18
100
AcDbEntity
  8
mark
100
AcDbLine
 10
137.1717387633591
 20
102.1552648763453
 30
0.0
 11
137.1717387633591
 21
100.1552648763453
 31
0.0
  0
INSERT
  5
A641
330
18
100
AcDbEntity
  8
mark
100
AcDbBlockReference
  2
_Open30
 10
137.1717387633591
 20
102.1552648763453
 30
0.0
 41
2.5
 42
2.5
 43
2.5
 50
270.0
  0
INSERT
  5
A642
330
18
100
AcDbEntity
  8
mark
100
AcDbBlockReference
  2
_Open30
 10
137.1717387633591
 20
100.1552648763453
 30
0.0
 41
2.5
 42
2.5
 43
2.5
 50
90.0
  0
MTEXT
  5
A643
330
18
100
AcDbEntity
  8
mark
 62
     3
100
AcDbMText
 10
135.1217387633591
 20
101.1552648763453
 30
0.0
 40
2.5
 41
0.0
 71
     5
 72
     1
  1
\A1;2
 11
0.0000000000000001
 21
1.0
 31
0.0
 73
     1
 44
1.0
  0
MTEXT
  5
A669
330
18
100
AcDbEntity
  8
mark
 62
     3
100
AcDbMText
 10
110.0953452979842
 20
90.4732343834066
 30
0.0
 40
2.5
 41
0.0
 71
     5
 72
     1
  1
C1.5
 11
0.7071067811865478
 21
0.7071067811865474
 31
0.0
 73
     1
 44
1.0
1001
ACAD
1000
ACAD_MTEXT_DEFINED_HEIGHT_BEGIN
1070
    46
1040
0.0
1000
ACAD_MTEXT_DEFINED_HEIGHT_END
  0
LEADER
  5
A66D
330
18
100
AcDbEntity
  8
mark
100
AcDbLeader
  3
STANDARD
 76
     2
 10
117.9786849548573
 20
95.80526487634527
 30
0.0
 10
108.9083451876626
 20
86.73492510915037
 30
0.0
211
0.0000000000000095
221
-1.0
231
0.0
1001
ACAD
1000
DSTYLE
1002
{
1070
   147
1040
0.8
1070
    77
1070
     0
1002
}
  0
DIMENSION
  5
A66F
330
18
100
AcDbEntity
  8
mark
100
AcDbDimension
  2
*D7
 10
118.0406849548574
 20
81.53289000642905
 30
0.0
 11
95.5406849548574
 21
83.58289000642905
 31
0.0
 70
    32
  1
M45X1.5P
 71
     5
 42
45.0
  3
STANDARD
100
AcDbAlignedDimension
 13
73.0406849548574
 23
95.74326487634527
 33
0.0
 14
118.0406849548574
 24
95.74326487634527
 34
0.0
100
AcDbRotatedDimension
  0
DIMENSION
  5
A68B
330
18
100
AcDbEntity
  8
mark
100
AcDbDimension
  2
*D8
 10
53.78397539527147
 20
110.5552648763453
 30
0.0
 11
53.78397539527146
 21
113.8052648763453
 31
0.0
 70
   160
 71
     5
 42
6.5
  3
STANDARD
100
AcDbAlignedDimension
 13
62.54068495485743
 23
117.0552648763453
 33
0.0
 14
59.54068495485742
 24
110.5552648763453
 34
0.0
 50
90.0
100
AcDbRotatedDimension
  0
LEADER
  5
AA48
330
18
100
AcDbEntity
  8
mark
100
AcDbLeader
  3
STANDARD
 76
     3
 10
61.54068495485742
 20
110.5552648763453
 30
0.0
 10
51.64068495485745
 20
100.6552648763453
 30
0.0
 10
32.96076727864602
 20
100.6552648763453
 30
0.0
1001
ACAD
1000
DSTYLE
1002
{
1070
   147
1040
0.4
1070
    77
1070
     0
1002
}
  0
TEXT
  5
AA49
330
18
100
AcDbEntity
  8
dim
100
AcDbText
 10
33.08942158364582
 20
101.1686018673895
 30
0.0
 40
2.5
  1
6-%%C6深さ7
  7
TXT
100
AcDbText
  0
DIMENSION
  5
AAF5
330
18
100
AcDbEntity
  8
mark
100
AcDbDimension
  2
*D18
 10
61.54068495485742
 20
123.9619354840709
 30
0.0
 11
95.54068495485742
 21
126.0119354840709
 31
0.0
 70
    32
  1
%%C68
 71
     5
 42
67.99999999999997
  3
STANDARD
100
AcDbAlignedDimension
 13
129.5406849548574
 23
116.055264876345
 33
0.0
 14
61.54068495485742
 24
116.055264876345
 34
0.0
100
AcDbRotatedDimension
  0
MTEXT
  5
AB1D
330
18
100
AcDbEntity
  8
mark
 62
     3
100
AcDbMText
 10
99.66189093391063
 20
126.2641715117044
 30
0.0
 40
1.25
 41
0.0
 71
     4
 72
     1
  1
+0\P-0.2
 73
     1
 44
1.0
1001
ACAD
1000
ACAD_MTEXT_DEFINED_HEIGHT_BEGIN
1070
    46
1040
0.0
1000
ACAD_MTEXT_DEFINED_HEIGHT_END
  0
LEADER
  5
AB1E
330
18
100
AcDbEntity
  8
mark
100
AcDbLeader
  3
STANDARD
 76
     3
 10
66.5406849548574
 20
95.05526487634529
 30
0.0
 10
54.64068495485743
 20
83.15526487634532
 30
0.0
 10
32.82660074881358
 20
83.15526487634532
 30
0.0
1001
ACAD
1000
DSTYLE
1002
{
1070
   147
1040
0.4
1070
    77
1070
     0
1002
}
  0
TEXT
  5
AB1F
330
18
100
AcDbEntity
  8
dim
100
AcDbText
 10
33.1049754354703
 20
84.31134483496533
 30
0.0
 40
2.5
  1
6-%%C4.3深さ4
  7
TXT
100
AcDbText
  0
DIMENSION
  5
AB20
330
18
100
AcDbEntity
  8
mark
100
AcDbDimension
  2
*D19
 10
62.54068495485741
 20
96.05526487634522
 30
0.0
 11
55.10427863937877
 21
91.51799636373175
 31
0.0
 70
    36
 71
     5
  3
STANDARD
100
AcDbRadialDimension
 15
61.83357817367085
 25
95.34815809515871
 35
0.0
 40
0.0
1001
ACAD
1000
DSTYLE
1002
{
1070
   279
1070
     1
1070
   288
1070
     1
1002
}
  0
DIMENSION
  5
AB30
330
18
100
AcDbEntity
  8
mark
100
AcDbDimension
  2
*D20
 10
68.4115611775536
 20
178.7520107775335
 30
0.0
 11
140.1828158009216
 21
197.0828999906963
 31
0.0
 70
   163
  1
P.C.D 56
 71
     5
 42
55.99999999999998
  3
STANDARD
100
AcDbDiametricDimension
 15
122.6698087321612
 25
192.6099533485979
 35
0.0
 40
0.0
1001
ACAD
1000
DSTYLE
1002
{
1070
   288
1070
     1
1002
}
  0
DIMENSION
  5
AB44
330
18
100
AcDbEntity
  8
mark
100
AcDbDimension
  2
*D21
 10
123.3428155792172
 20
177.4322529036114
 30
0.0
 11
51.03092867331749
 21
198.886765802462
 31
0.0
 70
   163
  1
P.C.D 58
 71
     5
 42
57.99999999999998
  3
STANDARD
100
AcDbDiametricDimension
 15
67.73855433049755
 25
193.92971122252
 35
0.0
 40
0.0
1001
ACAD
1000
DSTYLE
1002
{
1070
   288
1070
     1
1002
}
  0
ARC
  5
AB66
330
18
100
AcDbEntity
  8
center
 48
0.2
100
AcDbCircle
 10
95.5406849548574
 20
185.6809820630658
 30
0.0
 40
29.0
100
AcDbArc
 50
198.8606586065799
 51
221.1393413934203
  0
ARC
  5
AB67
330
18
100
AcDbEntity
  8
center
 48
0.2
100
AcDbCircle
 10
95.54068495485735
 20
185.6809820630657
 30
0.0
 40
29.0
100
AcDbArc
 50
18.86065860658025
 51
41.13934139341995
  0
HATCH
  5
ABF8
330
18
100
AcDbEntity
  8
section
100
AcDbHatch
 10
0.0
 20
0.0
 30
0.0
210
0.0
220
0.0
230
1.0
  2
ANSI31
 70
     0
 71
     1
 91
       12
 92
        7
 72
     1
 73
     1
 93
       28
 10
73.04068495485734
 20
116.3672648763453
 42
0.0
 10
72.35268495485742
 20
117.0552648763453
 42
0.0
 10
62.54068495485743
 20
117.0552648763453
 42
0.4142135623730951
 10
61.54068495485742
 20
116.0552648763453
 42
0.0
 10
61.54068495485742
 20
114.0552648763452
 42
0.0
 10
62.04068495485738
 20
113.5552648763453
 42
0.0
 10
66.80863414728853
 20
113.5552648763453
 42
0.0
 10
68.54068495485744
 20
110.5552648763452
 42
0.0
 10
66.80863414728854
 20
107.5552648763452
 42
0.0
 10
62.04068495485739
 20
107.5552648763453
 42
0.0
 10
61.54068495485742
 20
107.0552648763454
 42
0.0
 10
61.54068495485742
 20
103.1552648763452
 42
0.4142135623730951
 10
62.54068495485743
 20
102.1552648763453
 42
0.0
 10
71.04068495485738
 20
102.1552648763453
 42
0.0
 10
71.0406849548574
 20
100.1552648763453
 42
0.0
 10
66.5406849548574
 20
100.1552648763453
 42
0.0
 10
66.5406849548574
 20
99.0552648763453
 42
0.0
 10
68.69068495485748
 20
97.81396179758754
 42
0.0
 10
68.69068495485746
 20
95.55526487634528
 42
0.0
 10
69.19068495485745
 20
95.05526487634531
 42
0.0
 10
72.35268495485742
 20
95.05526487634529
 42
0.0
 10
73.0406849548574
 20
95.74326487634525
 42
0.0
 10
73.04068495485736
 20
102.2672648763453
 42
0.0
 10
72.35268495485738
 20
102.9552648763453
 42
0.0
 10
64.54068495485739
 20
102.9552648763453
 42
0.0
 10
64.54068495485739
 20
104.9552648763453
 42
0.0
 10
72.35268495485737
 20
104.9552648763453
 42
0.0
 10
73.04068495485736
 20
105.6432648763452
 42
0.0
 97
       27
330
9E33
330
9DEC
330
9E43
330
9DF5
330
9E1A
330
9E17
330
9E18
330
9E19
330
9E15
330
9E16
330
9E44
330
9DF6
330
9DF3
330
9DF7
330
9E50
330
9E13
330
9E20
330
9E21
330
9DEE
330
9E30
330
9E2F
330
9E31
330
9DF9
330
9DFC
330
9DFA
330
9E32
330
9E35
 92
        7
 72
     1
 73
     1
 93
        9
 10
66.5406849548574
 20
99.0552648763453
 42
0.0
 10
66.54068495485738
 20
100.1552648763452
 42
0.0
 10
62.54068495485739
 20
100.1552648763453
 42
0.4142135623730951
 10
61.5406849548574
 20
99.15526487634529
 42
0.0
 10
61.54068495485742
 20
96.05526487634529
 42
0.4142135623730951
 10
62.54068495485743
 20
95.05526487634529
 42
0.0
 10
63.89068495485737
 20
95.05526487634531
 42
0.0
 10
64.39068495485734
 20
95.55526487634528
 42
0.0
 10
64.39068495485742
 20
97.81396179758758
 42
0.0
 97
        9
330
9E50
330
9DF7
330
9E45
330
9DEF
330
9E46
330
9DEE
330
9E1F
330
9E1E
330
9E22
 92
        7
 72
     0
 73
     1
 93
        4
 10
73.85268495485739
 20
101.4552648763452
 10
73.04068495485736
 20
102.2672648763453
 10
73.04068495485738
 20
95.74326487634527
 10
73.85268495485736
 20
96.55526487634524
 97
        4
330
9E31
330
9E2F
330
9E30
330
9E2E
 92
        7
 72
     0
 73
     1
 93
        4
 10
73.85268495485741
 20
115.5552648763453
 10
73.04068495485733
 20
116.3672648763453
 10
73.04068495485736
 20
105.6432648763452
 10
73.85268495485738
 20
106.4552648763453
 97
        4
330
9E33
330
9E35
330
9E32
330
9E34
 92
        7
 72
     0
 73
     1
 93
        7
 10
121.5406849548574
 20
114.2552648763452
 10
121.5406849548575
 20
117.0552648763453
 10
118.7286849548574
 20
117.0552648763453
 10
118.0406849548574
 20
116.3672648763453
 10
118.0406849548574
 20
105.6432648763453
 10
118.7286849548574
 20
104.9552648763452
 10
121.5406849548574
 20
104.9552648763452
 97
        7
330
9E2A
330
9DEC
330
9E36
330
9E3D
330
9E39
330
9DFA
330
9D9E
 92
        7
 72
     1
 73
     1
 93
       11
 10
129.5406849548574
 20
116.0552648763453
 42
0.4142135623730951
 10
128.5406849548574
 20
117.0552648763453
 42
0.0
 10
125.5406849548574
 20
117.0552648763453
 42
0.0
 10
125.5406849548574
 20
114.2552648763452
 42
0.0
 10
125.5406849548574
 20
104.9552648763452
 42
0.0
 10
126.5406849548574
 20
104.9552648763452
 42
0.0
 10
126.5406849548574
 20
102.9552648763452
 42
0.0
 10
125.5406849548574
 20
102.9552648763452
 42
0.0
 10
125.5406849548574
 20
102.1552648763453
 42
0.0
 10
128.5406849548573
 20
102.1552648763453
 42
0.4142135623730951
 10
129.5406849548573
 20
103.1552648763452
 42
0.0
 97
       10
330
9E4A
330
9DEC
330
9E2B
330
9D9E
330
9E4B
330
9DFD
330
9E4C
330
9DF1
330
9E49
330
9DED
 92
        7
 72
     1
 73
     1
 93
        9
 10
129.5406849548574
 20
99.15526487634529
 42
0.4142135623730909
 10
128.5406849548574
 20
100.1552648763453
 42
0.0
 10
125.5406849548574
 20
100.1552648763452
 42
0.0
 10
125.5406849548574
 20
99.0552648763453
 42
0.0
 10
127.0406849548574
 20
99.0552648763453
 42
0.0
 10
127.0406849548574
 20
95.35526487634525
 42
0.0
 10
127.0406849548576
 20
95.05526487634529
 42
0.0
 10
128.5406849548574
 20
95.05526487634529
 42
0.4142135623730951
 10
129.5406849548574
 20
96.05526487634529
 42
0.0
 97
        7
330
9E48
330
9DF0
330
9D9E
330
9E29
330
9DEE
330
9E47
330
9DF8
 92
        7
 72
     0
 73
     1
 93
       13
 10
121.5406849548574
 20
100.1552648763453
 10
120.0406849548574
 20
100.1552648763453
 10
120.0406849548574
 20
102.1552648763452
 10
121.5406849548574
 20
102.1552648763453
 10
121.5406849548574
 20
102.9552648763452
 10
118.7286849548573
 20
102.9552648763453
 10
118.0406849548574
 20
102.2672648763453
 10
118.0406849548574
 20
95.74326487634529
 10
118.7286849548573
 20
95.05526487634531
 10
120.0406849548574
 20
95.05526487634531
 10
120.0406849548574
 20
95.35526487634536
 10
120.0406849548574
 20
99.0552648763453
 10
121.5406849548574
 20
99.0552648763453
 97
       10
330
9E4E
330
9DF4
330
9E4D
330
9D9E
330
9DF9
330
9E37
330
9E3B
330
9E3A
330
9DEE
330
9E26
 92
        7
 72
     0
 73
     1
 93
        4
 10
118.0406849548574
 20
102.2672648763453
 10
117.2286849548573
 20
101.4552648763453
 10
117.2286849548574
 20
96.5552648763453
 10
118.0406849548574
 20
95.74326487634529
 97
        4
330
9E37
330
9E38
330
9E3A
330
9E3B
 92
        7
 72
     0
 73
     1
 93
        4
 10
118.0406849548574
 20
116.3672648763453
 10
117.2286849548574
 20
115.5552648763453
 10
117.2286849548574
 20
106.4552648763453
 10
118.0406849548574
 20
105.6432648763452
 97
        4
330
9E36
330
9E3C
330
9E39
330
9E3D
 92
        7
 72
     0
 73
     1
 93
        4
 10
121.9406849548575
 20
117.0552648763453
 10
121.5406849548575
 20
117.0552648763453
 10
121.5406849548575
 20
114.2552648763453
 10
121.9406849548574
 20
114.6552648763452
 97
        4
330
9DEC
330
9E2A
330
9D9E
330
9E2D
 92
        7
 72
     0
 73
     1
 93
        4
 10
125.5406849548574
 20
117.0552648763452
 10
125.1406849548574
 20
117.0552648763452
 10
125.1406849548574
 20
114.6552648763452
 10
125.5406849548574
 20
114.2552648763452
 97
        4
330
9DEC
330
9E2C
330
9D9E
330
9E2B
 75
     0
 76
     1
 52
0.0
 41
0.5
 77
     0
 78
     1
 53
45.0
 43
0.0
 44
0.0
 45
-1.122532015133643
 46
1.122532015133644
 79
     0
 47
0.1272550979106113
 98
       12
 10
66.6906615021411
 20
115.0191346536154
 10
63.00085733209164
 20
98.73515614364396
 10
73.17031713732887
 20
99.18499018304874
 10
73.44030358883071
 20
108.5415301574242
 10
119.1206978443227
 20
110.7115681173815
 10
126.050329831966
 20
110.8015350571518
 10
128.7501868799846
 20
97.756359124999
 10
118.9407079433691
 20
99.10585992432084
 10
117.8607653375044
 20
99.01589298455064
 10
117.5007844688829
 20
108.1025327990617
 10
121.7065732711613
 20
115.1449062302258
 10
125.4692585611034
 20
115.3935999159856
1001
ACAD
1010
0.0
1020
0.0
1030
0.0
  0
TOLERANCE
  5
AC08
330
18
100
AcDbEntity
  8
mark
100
AcDbFcf
  3
STANDARD
 10
149.5994345173715
 20
122.0552648763453
 30
0.0
  1
{\Fgdt;h}%%v0.005%%v%%vA%%v%%v
  0
LINE
  5
AC09
330
18
100
AcDbEntity
  8
mark
100
AcDbLine
 10
144.5994345173715
 20
117.0552648763453
 30
0.0
 11
144.5994345173715
 21
122.0552648763453
 31
0.0
  0
LINE
  5
AC0A
330
18
100
AcDbEntity
  8
mark
100
AcDbLine
 10
144.5994345173715
 20
122.0552648763453
 30
0.0
 11
149.5994345173715
 21
122.0552648763453
 31
0.0
  0
TOLERANCE
  5
AC0C
330
18
100
AcDbEntity
  8
mark
100
AcDbFcf
  3
STANDARD
 10
83.0406849548574
 20
70.73289000642906
 30
0.0
  1
%%v%%v%%vA%%v%%v
  0
LINE
  5
AC0E
102
{ACAD_REACTORS
330
AC23
102
}
330
18
100
AcDbEntity
  8
mark
100
AcDbLine
 10
73.0406849548574
 20
80.73289000642906
 30
0.0
 11
73.0406849548574
 21
70.73289000642906
 31
0.0
  0
LINE
  5
AC16
330
18
100
AcDbEntity
  8
mark
100
AcDbLine
 10
75.5406849548574
 20
70.73289000642906
 30
0.0
 11
83.0406849548574
 21
70.73289000642906
 31
0.0
  0
LINE
  5
AC1B
102
{ACAD_REACTORS
330
AC23
102
}
330
18
100
AcDbEntity
  8
mark
100
AcDbLine
 10
73.0406849548574
 20
73.23289000642906
 30
0.0
 11
75.5406849548574
 21
70.73289000642906
 31
0.0
  0
LINE
  5
AC1C
102
{ACAD_REACTORS
330
AC23
102
}
330
18
100
AcDbEntity
  8
mark
100
AcDbLine
 10
75.5406849548574
 20
70.73289000642906
 30
0.0
 11
73.0406849548574
 21
68.23289000642906
 31
0.0
  0
LINE
  5
AC1D
102
{ACAD_REACTORS
330
AC23
102
}
330
18
100
AcDbEntity
  8
mark
100
AcDbLine
 10
73.0406849548574
 20
68.23289000642906
 30
0.0
 11
73.0406849548574
 21
70.73289000642906
 31
0.0
  0
HATCH
  5
AC23
330
18
100
AcDbEntity
  8
mark
100
AcDbHatch
 10
0.0
 20
0.0
 30
0.0
210
0.0
220
0.0
230
1.0
  2
SOLID
 70
     1
 71
     1
 91
        1
 92
        7
 72
     0
 73
     1
 93
        4
 10
73.0406849548574
 20
73.23289000642906
 10
73.0406849548574
 20
70.73289000642906
 10
73.0406849548574
 20
68.23289000642906
 10
75.5406849548574
 20
70.73289000642906
 97
        4
330
AC0E
330
AC1D
330
AC1C
330
AC1B
 75
     0
 76
     1
 47
0.0383085416812868
 98
        1
 10
74.62801239945759
 20
70.9367496396369
450
        0
451
        0
460
0.0
461
0.0
452
        1
462
1.0
453
        2
463
0.0
 63
     5
421
      255
463
1.0
 63
     7
421
 16777215
470
LINEAR
1001
ACAD
1010
0.0
1020
0.0
1030
0.0
  0
LEADER
  5
AC27
330
18
100
AcDbEntity
  8
mark
100
AcDbLeader
  3
STANDARD
 76
     2
 10
119.5823155152001
 20
161.6393515027231
 30
0.0
 10
134.3645774395156
 20
146.8570895784076
 30
0.0
211
0.7071067811865474
221
-0.7071067811865478
231
0.0
1001
ACAD
1000
DSTYLE
1002
{
1070
   147
1040
0.8
1070
    77
1070
     0
1002
}
  0
LEADER
  5
AC36
330
18
100
AcDbEntity
  8
mark
100
AcDbLeader
  3
STANDARD
 76
     2
 10
123.5406849548576
 20
95.05526487634529
 30
0.0
 10
134.3645774395156
 20
84.23137239168728
 30
0.0
211
0.7071067811865474
221
-0.7071067811865478
231
0.0
1001
ACAD
1000
DSTYLE
1002
{
1070
   147
1040
0.8
1070
    77
1070
     0
1002
}
  0
MTEXT
  5
AC3F
330
18
100
AcDbEntity
  8
mark
 62
     3
100
AcDbMText
 10
136.835487038054
 20
147.5941899454731
 30
0.0
 40
5.0
 41
0.0
 71
     4
 72
     1
  1
1
 73
     1
 44
1.0
1001
ACAD
1000
ACAD_MTEXT_DEFINED_HEIGHT_BEGIN
1070
    46
1040
0.0
1000
ACAD_MTEXT_DEFINED_HEIGHT_END
  0
MTEXT
  5
AC41
330
18
100
AcDbEntity
  8
mark
 62
     3
100
AcDbMText
 10
135.9950494734315
 20
83.77999690103132
 30
0.0
 40
5.0
 41
0.0
 71
     4
 72
     1
  1
2
 73
     1
 44
1.0
1001
ACAD
1000
ACAD_MTEXT_DEFINED_HEIGHT_BEGIN
1070
    46
1040
0.0
1000
ACAD_MTEXT_DEFINED_HEIGHT_END
  0
MTEXT
  5
AC5B
330
18
100
AcDbEntity
  8
0
100
AcDbMText
 10
47.65097232190476
 20
19.07605901616614
 30
0.0
 40
4.5
 41
0.0
 71
     1
 72
     5
  1
{\Ftxt,bigfont|c128;小\~柳}
  7
JL
 73
     1
 44
1.0
1001
ACAD
1000
ACAD_MTEXT_DEFINED_HEIGHT_BEGIN
1070
    46
1040
0.0
1000
ACAD_MTEXT_DEFINED_HEIGHT_END
  0
MTEXT
  5
AC84
330
18
100
AcDbEntity
  8
dim
100
AcDbMText
 10
9.866746835297476
 20
41.07981983695583
 30
0.0
 40
4.5
 41
0.0
 71
     1
 72
     5
  1
{\Ftxt,bigfont|c128;07.10.03\~寸法一部変更  林}
  7
JL
 73
     1
 44
1.0
1001
ACAD
1000
ACAD_MTEXT_DEFINED_HEIGHT_BEGIN
1070
    46
1040
0.0
1000
ACAD_MTEXT_DEFINED_HEIGHT_END
  0
CIRCLE
  5
AC87
330
18
100
AcDbEntity
  8
dim
100
AcDbCircle
 10
44.24419237292591
 20
38.75722639255855
 30
0.0
 40
2.750054604459023
  0
LWPOLYLINE
  5
AC88
330
18
100
AcDbEntity
  8
mark
100
AcDbPolyline
 90
        3
 70
     1
 43
0.0
 10
131.8809945479749
 20
121.6024306898254
 10
136.380994547975
 20
119.0043544784721
 10
136.380994547975
 20
124.2005069011787
  0
TEXT
  5
AC89
330
18
100
AcDbEntity
  8
dim
100
AcDbText
 10
135.8217796120315
 20
121.2216670855143
 30
0.0
 40
2.5
  1
1
 50
90.0
  7
TXT
100
AcDbText
  0
MTEXT
  5
ACA7
330
18
100
AcDbEntity
  8
mark
 62
     3
100
AcDbMText
 10
135.1217387633591
 20
130.050814022911
 30
0.0
 40
2.5
 41
0.0
 71
     5
 72
     1
  1
14.25
 11
0.0000000000000001
 21
1.0
 31
0.0
 73
     1
 44
1.0
1001
ACAD
1000
ACAD_MTEXT_DEFINED_HEIGHT_BEGIN
1070
    46
1040
0.0
1000
ACAD_MTEXT_DEFINED_HEIGHT_END
  0
LINE
  5
ACA8
330
18
100
AcDbEntity
  8
mark
 62
     1
100
AcDbLine
 10
134.4543828859571
 20
113.3687621285203
 30
0.0
 11
134.4543828859571
 21
105.7661455518603
 31
0.0
  0
LINE
  5
ACA9
330
18
100
AcDbEntity
  8
mark
 62
     1
100
AcDbLine
 10
135.536808109405
 20
113.3687621285203
 30
0.0
 11
135.536808109405
 21
105.7661455518603
 31
0.0
  0
LWPOLYLINE
  5
ACE9
330
18
100
AcDbEntity
  8
mark
100
AcDbPolyline
 90
        3
 70
     1
 43
0.0
 10
7.945080395954228
 20
43.93575122351066
 10
5.058329050006113
 20
48.93575122351066
 10
2.171577704057973
 20
43.93575122351066
  0
MTEXT
  5
ACEA
330
18
100
AcDbEntity
  8
dim
100
AcDbMText
 10
4.266630390287252
 20
46.97351574439787
 30
0.0
 40
2.5
 41
9.163114146879252
 71
     1
 72
     5
  1
2
 73
     1
 44
1.0
1001
ACAD
1000
ACAD_MTEXT_DEFINED_HEIGHT_BEGIN
1070
    46
1040
0.0
1000
ACAD_MTEXT_DEFINED_HEIGHT_END
  0
MTEXT
  5
ACEB
330
18
100
AcDbEntity
  8
dim
100
AcDbMText
 10
9.708278907425892
 20
48.39630920596096
 30
0.0
 40
4.5
 41
0.0
 71
     1
 72
     5
  1
{\Ftxt,bigfont|c128;08.08.08 振れ精度の変更  林}
  7
JL
 73
     1
 44
1.0
1001
ACAD
1000
ACAD_MTEXT_DEFINED_HEIGHT_BEGIN
1070
    46
1040
0.0
1000
ACAD_MTEXT_DEFINED_HEIGHT_END
  0
CIRCLE
  5
ACEC
330
18
100
AcDbEntity
  8
dim
100
AcDbCircle
 10
47.48258220145163
 20
46.08649058599417
 30
0.0
 40
2.762409708108862
  0
LWPOLYLINE
  5
ACED
330
18
100
AcDbEntity
  8
mark
100
AcDbPolyline
 90
        3
 70
     1
 43
0.0
 10
8.103548323825812
 20
36.61926185450554
 10
5.216796977877697
 20
41.61926185450553
 10
2.330045631929557
 20
36.61926185450554
  0
MTEXT
  5
ACEE
330
18
100
AcDbEntity
  8
dim
100
AcDbMText
 10
4.802625011647398
 20
39.99240893327155
 30
0.0
 40
2.5
 41
9.163114146879252
 71
     1
 72
     5
  1
1
 73
     1
 44
1.0
1001
ACAD
1000
ACAD_MTEXT_DEFINED_HEIGHT_BEGIN
1070
    46
1040
0.0
1000
ACAD_MTEXT_DEFINED_HEIGHT_END
  0
LWPOLYLINE
  5
ACEF
330
18
100
AcDbEntity
  8
mark
100
AcDbPolyline
 90
        3
 70
     1
 43
0.0
 10
155.897852348532
 20
125.8968375617638
 10
153.0111010025839
 20
130.8968375617638
 10
150.1243496566358
 20
125.8968375617638
  0
MTEXT
  5
ACF0
330
18
100
AcDbEntity
  8
dim
100
AcDbMText
 10
152.219402342865
 20
128.934602082651
 30
0.0
 40
2.5
 41
9.163114146879252
 71
     1
 72
     5
  1
2
 73
     1
 44
1.0
1001
ACAD
1000
ACAD_MTEXT_DEFINED_HEIGHT_BEGIN
1070
    46
1040
0.0
1000
ACAD_MTEXT_DEFINED_HEIGHT_END
  0
MTEXT
  5
ACF1
330
18
100
AcDbEntity
  8
dim
100
AcDbMText
 10
156.8716577455281
 20
128.934602082651
 30
0.0
 40
2.5
 41
9.163114146879252
 71
     1
 72
     5
  1
0.007
 73
     1
 44
1.0
1001
ACAD
1000
ACAD_MTEXT_DEFINED_HEIGHT_BEGIN
1070
    46
1040
0.0
1000
ACAD_MTEXT_DEFINED_HEIGHT_END
  0
LINE
  5
ACF2
330
18
100
AcDbEntity
  8
mark
 62
     1
100
AcDbLine
 10
156.23275761694
 20
122.5786361864869
 30
0.0
 11
166.5279143418163
 21
122.5786361864869
 31
0.0
  0
LINE
  5
ACF3
330
18
100
AcDbEntity
  8
mark
 62
     1
100
AcDbLine
 10
156.23275761694
 20
121.6327061888736
 30
0.0
 11
166.5279143418163
 21
121.6327061888736
 31
0.0
  0
LWPOLYLINE
  5
ACF4
330
18
100
AcDbEntity
  8
mark
100
AcDbPolyline
 90
        3
 70
     1
 43
0.0
 10
181.396355700665
 20
2.909498630346888
 10
178.5096043547169
 20
7.909498630346888
 10
175.6228530087688
 20
2.909498630346888
  0
MTEXT
  5
ACF5
330
18
100
AcDbEntity
  8
dim
100
AcDbMText
 10
177.7179056949981
 20
5.947263151234096
 30
0.0
 40
2.5
 41
9.163114146879252
 71
     1
 72
     5
  1
2
 73
     1
 44
1.0
1001
ACAD
1000
ACAD_MTEXT_DEFINED_HEIGHT_BEGIN
1070
    46
1040
0.0
1000
ACAD_MTEXT_DEFINED_HEIGHT_END
  0
ENDSEC
  0
SECTION
  2
OBJECTS
  0
DICTIONARY
  5
C
330
0
100
AcDbDictionary
281
     1
  3
ACAD_COLOR
350
7873
  3
ACAD_GROUP
350
D
  3
ACAD_LAYOUT
350
5CF3
  3
ACAD_MATERIAL
350
7872
  3
ACAD_MLINESTYLE
350
1B
  3
ACAD_PLOTSETTINGS
350
5CF4
  3
ACAD_PLOTSTYLENAME
350
5CF1
  3
ACAD_TABLESTYLE
350
7874
  3
AcadDim
350
9A73
  3
ACDBVARIABLEDICTIONARY
350
45D
  0
DICTIONARY
  5
7BFE
330
2
100
AcDbDictionary
280
     1
281
     1
  3
ACAD_LAYERFILTERS
360
7C00
  3
ACLYDICTIONARY
360
7BFF
  0
DICTIONARY
  5
45F
330
18
100
AcDbDictionary
280
     1
281
     1
  3
ACAD_LAYOUTSELFREF
360
5D8B
  3
ACAD_SORTENTS
360
460
  0
DICTIONARY
  5
5D89
330
15
100
AcDbDictionary
280
     1
281
     1
  3
ACAD_LAYOUTSELFREF
360
5D8A
  0
DICTIONARY
  5
7C0B
330
7C0A
100
AcDbDictionary
280
     1
281
     1
  3
AcDbBlockTableRecordData
360
7C0C
  0
DICTIONARY
  5
8E73
330
8E72
100
AcDbDictionary
280
     1
281
     1
  3
AcDbBlockTableRecordData
360
8E74
  0
DICTIONARY
  5
9D16
330
9D15
100
AcDbDictionary
280
     1
281
     1
  3
AcDbBlockTableRecordData
360
9D17
  0
DICTIONARY
  5
A7FB
330
A702
100
AcDbDictionary
280
     1
281
     1
  3
ACAD_SORTENTS
360
A7FC
  0
DICTIONARY
  5
7873
102
{ACAD_REACTORS
330
C
102
}
330
C
100
AcDbDictionary
281
     1
  0
DICTIONARY
  5
D
102
{ACAD_REACTORS
330
C
102
}
330
C
100
AcDbDictionary
281
     1
  0
DICTIONARY
  5
5CF3
102
{ACAD_REACTORS
330
C
102
}
330
C
100
AcDbDictionary
281
     1
  3
Model
350
5CF5
  3
配置1
350
5CF6
  0
DICTIONARY
  5
7872
102
{ACAD_REACTORS
330
C
102
}
330
C
100
AcDbDictionary
281
     1
  0
DICTIONARY
  5
1B
102
{ACAD_REACTORS
330
C
102
}
330
C
100
AcDbDictionary
281
     1
  3
STANDARD
350
1C
  0
DICTIONARY
  5
5CF4
102
{ACAD_REACTORS
330
C
102
}
330
C
100
AcDbDictionary
281
     1
  0
ACDBDICTIONARYWDFLT
  5
5CF1
102
{ACAD_REACTORS
330
C
102
}
330
C
100
AcDbDictionary
281
     1
  3
Normal
350
5CF2
100
AcDbDictionaryWithDefault
340
5CF2
  0
DICTIONARY
  5
7874
102
{ACAD_REACTORS
330
C
102
}
330
C
100
AcDbDictionary
281
     1
  3
Standard
350
7875
  0
XRECORD
  5
9A73
102
{ACAD_REACTORS
330
C
102
}
330
C
100
AcDbXrecord
280
     1
 90
   990106
  3

 60
     0
 61
     0
 62
     1
 63
     3
 64
     0
 65
     0
 66
     0
 67
     3
 68
     1
 69
     0
 70
     0
 71
     0
 72
     0
 40
0.0
170
     0
  0
DICTIONARY
  5
45D
102
{ACAD_REACTORS
330
C
102
}
330
C
100
AcDbDictionary
281
     1
  3
CTABLESTYLE
350
7880
  3
SORTENTS
350
45E
  0
DICTIONARY
  5
7C00
102
{ACAD_REACTORS
330
7BFE
102
}
330
7BFE
100
AcDbDictionary
281
     1
  0
DICTIONARY
  5
7BFF
102
{ACAD_REACTORS
330
7BFE
102
}
330
7BFE
100
AcDbDictionary
281
     1
1001
ACAD
1000
<All
  0
XRECORD
  5
5D8B
102
{ACAD_REACTORS
330
45F
102
}
330
45F
100
AcDbXrecord
280
     1
340
18
  0
SORTENTSTABLE
  5
460
102
{ACAD_REACTORS
330
45F
102
}
330
45F
100
AcDbSortentsTable
330
18
331
9DC1
  5
9DC9
331
7D9C
  5
7D9C
331
9E57
  5
9E5B
331
9E18
  5
9E2A
331
9DC9
  5
9DD1
331
7DA4
  5
7DA4
331
7D6D
  5
7D6D
331
C0
  5
CB
331
9E5F
  5
9E63
331
9E20
  5
9E31
331
7DAC
  5
7DAC
331
7D75
  5
7D75
331
A66D
  5
A66F
331
9E67
  5
9E6B
331
7DB4
  5
7DB4
331
AB1E
  5
AB1F
331
9E30
  5
9E3F
331
9DD9
  5
9DEA
331
7DBC
  5
7DBC
331
7D7D
  5
7D7D
331
9E38
  5
9E46
331
7D85
  5
7D85
331
9E6F
  5
9E73
331
9E40
  5
9E4E
331
9DF1
  5
9E13
331
9DB2
  5
9DC1
331
7D8D
  5
7D8D
331
9E77
  5
9E7C
331
9DF9
  5
9E15
331
9DBA
  5
9DC7
331
7D95
  5
7D95
331
9E48
  5
9DFE
331
9E7F
  5
9E84
331
AC84
  5
AC84
331
9E87
  5
A476
331
A63E
  5
A63E
331
AC1D
  5
AC1E
331
9E50
  5
9E56
331
9DC2
  5
9DCA
331
7D9D
  5
7D9D
331
9E58
  5
9E5C
331
9E19
  5
9E2B
331
9DCA
  5
9DD2
331
7D6E
  5
7D6E
331
7DA5
  5
7DA5
331
9E60
  5
9E64
331
9E21
  5
9E32
331
7D76
  5
7D76
331
7DAD
  5
7DAD
331
9E29
  5
9E38
331
7DB5
  5
7DB5
331
AB1F
  5
AB20
331
AB66
  5
AB67
331
9E31
  5
9E16
331
7DBD
  5
7DBD
331
7D7E
  5
7D7E
331
9E68
  5
9E6C
331
9E39
  5
9E47
331
9DEA
  5
9DF0
331
7D86
  5
7D86
331
9E70
  5
9E74
331
A62F
  5
A669
331
9E41
  5
9E4F
331
9DB3
  5
9DC2
331
7D8E
  5
7D8E
331
9E78
  5
9E7D
331
AC0E
  5
AC16
331
9DFA
  5
9E17
331
7D96
  5
7D96
331
9E49
  5
9DF8
331
9E80
  5
9E85
331
AA48
  5
AA49
331
A63F
  5
A63F
331
AC16
  5
AC1B
331
9E88
  5
A478
331
9DC3
  5
9DCB
331
7D9E
  5
7D9E
331
A478
  5
A47C
331
9E59
  5
9E5D
331
9E1A
  5
9E2C
331
9DCB
  5
9DD3
331
7D6F
  5
7D6F
331
7DA6
  5
7DA6
331
9E61
  5
9E65
331
9E22
  5
9E33
331
9DD3
  5
9DD8
331
7DAE
  5
7DAE
331
7D77
  5
7D77
331
A66F
  5
A68B
331
AC36
  5
AC36
331
9E2A
  5
9E39
331
7DB6
  5
7DB6
331
A608
  5
A62F
331
AB20
  5
AB30
331
AB67
  5
AB6D
331
9E32
  5
9E3E
331
7D7F
  5
7D7F
331
9E69
  5
9E6D
331
9E3A
  5
9E48
331
7D87
  5
7D87
331
9E71
  5
9E75
331
AB30
  5
AB44
331
9DF3
  5
9E1F
331
9DB4
  5
9DC4
331
7D8F
  5
7D8F
331
9E79
  5
9E7E
331
AA49
  5
AAF5
331
9E4A
  5
9DF4
331
7D97
  5
7D97
331
9E81
  5
9E86
331
9E13
  5
9E23
331
9DC4
  5
9DCC
331
7D9F
  5
7D9F
331
9E89
  5
A479
331
A640
  5
A640
331
9E5A
  5
9E5E
331
9E1B
  5
9E2D
331
9DCC
  5
9DD5
331
7D70
  5
7D70
331
AC27
  5
AC27
331
9E62
  5
9E66
331
9E23
  5
9E34
331
7DAF
  5
7DAF
331
A5E1
  5
A5E2
331
9E2B
  5
9E3A
331
7DB7
  5
7DB7
331
AC3F
  5
AC3F
331
7D78
  5
7D78
331
9E33
  5
9DF5
331
9DDC
  5
9DDD
331
7D80
  5
7D80
331
9E6A
  5
9E6E
331
ABF8
  5
9D9E
331
9E3B
  5
9E49
331
9DEC
  5
9DF3
331
7D88
  5
7D88
331
9E72
  5
9E77
331
AC08
  5
AC08
331
9DF4
  5
9E20
331
7D90
  5
7D90
331
9E43
  5
9E1E
331
9E7A
  5
9E7F
331
AC87
  5
AC87
331
9E4B
  5
9E50
331
9DFC
  5
9E22
331
9E82
  5
9E87
331
ACA7
  5
ACA7
331
7D98
  5
7D98
331
9E53
  5
9E57
331
9E14
  5
9E24
331
9DC5
  5
9DCD
331
7DA0
  5
7DA0
331
9E8A
  5
A47A
331
A641
  5
A641
331
9E5B
  5
9E5F
331
9DCD
  5
9DD6
331
7D71
  5
7D71
331
7DA8
  5
7DA8
331
A669
  5
A66D
331
9E63
  5
9E67
331
9E24
  5
9E35
331
9DD5
  5
9DD9
331
7DB0
  5
7DB0
331
A5E2
  5
A5E4
331
9E2C
  5
9E3B
331
7DB8
  5
7DB8
331
7D79
  5
7D79
331
9E34
  5
9E41
331
9DDD
  5
9DEC
331
9D9E
  5
9DAF
331
7D81
  5
7D81
331
9E6B
  5
9E6F
331
9E3C
  5
9E4A
331
9DED
  5
9DF6
331
7D89
  5
7D89
331
9E73
  5
9E78
331
AC09
  5
AC09
331
9E44
  5
9E1D
331
9DF5
  5
9E1B
331
7D91
  5
7D91
331
9E7B
  5
9E80
331
AC88
  5
AC88
331
9E4C
  5
9E51
331
9DFD
  5
9E21
331
9E83
  5
9E88
331
7D99
  5
7D99
331
9E54
  5
9E58
331
9E15
  5
9E25
331
9DC6
  5
9DCE
331
A642
  5
A642
331
9E5C
  5
9E60
331
9E1D
  5
9E2E
331
9DCE
  5
9DD7
331
7D72
  5
7D72
331
7DA9
  5
7DA9
331
A47B
  5
A47D
331
9E64
  5
9E68
331
9E25
  5
9E36
331
9DD6
  5
9DDE
331
7DB1
  5
7DB1
331
9E2D
  5
9E3C
331
AC41
  5
AC41
331
7D7A
  5
7D7A
331
9E35
  5
9E43
331
9DDE
  5
9DEE
331
7D82
  5
7D82
331
9E6C
  5
9E70
331
9E3D
  5
9E4B
331
9DEE
  5
9DFC
331
9DAF
  5
9DB3
331
7D8A
  5
7D8A
331
9E74
  5
9E79
331
AC0A
  5
AC0A
331
9E45
  5
9E1A
331
9DF6
  5
9E14
331
7D92
  5
7D92
331
9E7C
  5
9E81
331
AC89
  5
AC89
331
9E4D
  5
9E53
331
9E84
  5
9E89
331
7D9A
  5
7D9A
331
9E55
  5
9E59
331
9E16
  5
9E26
331
9DC7
  5
9DCF
331
7DA2
  5
7DA2
331
9E8C
  5
A47B
331
A643
  5
A643
331
9E5D
  5
9E61
331
9E1E
  5
9E2F
331
7DAA
  5
7DAA
331
7D73
  5
7D73
331
A47C
  5
A5DF
331
9E65
  5
9E69
331
9E26
  5
9E37
331
9DD7
  5
9DDA
331
7DB2
  5
7DB2
331
A5E4
  5
A608
331
9E2E
  5
9E3D
331
7DBA
  5
7DBA
331
7D7B
  5
7D7B
331
9E36
  5
9E44
331
9DDF
  5
9DEF
331
7D83
  5
7D83
331
9E6D
  5
9E71
331
9E3E
  5
9E4C
331
9DEF
  5
9E18
331
9DB0
  5
9DB4
331
7D8B
  5
7D8B
331
9E75
  5
9E7A
331
A68B
  5
AA48
331
9E46
  5
9E19
331
9DF7
  5
9DFF
331
9DB8
  5
9DC5
331
7D93
  5
7D93
331
9E7D
  5
9E82
331
9E4E
  5
9E54
331
9E85
  5
9E8A
331
A63C
  5
A63C
331
AC1B
  5
AC1C
331
AAF5
  5
AB1D
331
AB44
  5
AB66
331
9DC0
  5
9DC8
331
7D9B
  5
7D9B
331
9E56
  5
9E5A
331
9E17
  5
9E29
331
9DC8
  5
9DD0
331
7DA3
  5
7DA3
331
7D6C
  5
7D6C
331
AC23
  5
AC0E
331
9E5E
  5
9E62
331
9E1F
  5
9E30
331
7D74
  5
7D74
331
A47D
  5
A5E1
331
9E66
  5
9E6A
331
AB1D
  5
AB1E
331
9E2F
  5
9E40
331
9DD8
  5
9DDF
331
7D7C
  5
7D7C
331
7DBB
  5
7DBB
331
9E37
  5
9E45
331
7D84
  5
7D84
331
9E6E
  5
9E72
331
AC5B
  5
AC5B
331
9E3F
  5
9E4D
331
9DF0
  5
9DFD
331
9DB1
  5
9DB9
331
7D8C
  5
7D8C
331
9E76
  5
9E7B
331
AC0C
  5
AC0C
331
9E47
  5
9DFA
331
9DF8
  5
9DF9
331
7D94
  5
7D94
331
9DB9
  5
9DC6
331
9E7E
  5
9E83
331
9E4F
  5
9E55
331
9E86
  5
9E8C
331
A63D
  5
A63D
331
AC1C
  5
AC1D
  0
XRECORD
  5
5D8A
102
{ACAD_REACTORS
330
5D89
102
}
330
5D89
100
AcDbXrecord
280
     1
340
15
  0
DICTIONARY
  5
7C0C
102
{ACAD_REACTORS
330
7C0B
102
}
330
7C0B
100
AcDbDictionary
280
     1
281
     1
  3
Edit
360
7C0D
  0
DICTIONARY
  5
8E74
102
{ACAD_REACTORS
330
8E73
102
}
330
8E73
100
AcDbDictionary
280
     1
281
     1
  3
Edit
360
8E75
  0
DICTIONARY
  5
9D17
102
{ACAD_REACTORS
330
9D16
102
}
330
9D16
100
AcDbDictionary
280
     1
281
     1
  3
Edit
360
9D18
  0
SORTENTSTABLE
  5
A7FC
102
{ACAD_REACTORS
330
A7FB
102
}
330
A7FB
100
AcDbSortentsTable
330
A702
  0
LAYOUT
  5
5CF5
102
{ACAD_REACTORS
330
5CF3
102
}
330
5CF3
100
AcDbPlotSettings
  1

  2
hp LaserJet 1300 PCL 6
  4
A4
  6

 40
5.027083396911621
 41
5.069413185119628
 42
5.027084350585937
 43
5.027069091796875
 44
209.9733276367187
 45
296.9683227539062
 46
2.628062639917644
 47
0.0
 48
0.0
 49
0.0
140
190.0
141
280.0
142
1.0
143
0.9760456081518363
 70
 11956
 72
     1
 73
     0
 74
     4
  7
LIN.ctb
 75
     0
147
1.02454228741782
 76
     0
 77
     2
 78
   300
148
0.0
149
0.0
100
AcDbLayout
  1
Model
 70
     1
 71
     0
 10
0.0
 20
0.0
 11
12.0
 21
9.0
 12
0.0
 22
0.0
 32
0.0
 14
0.0
 24
0.0
 34
0.0
 15
0.0
 25
0.0
 35
0.0
146
0.0
 13
0.0
 23
0.0
 33
0.0
 16
1.0
 26
0.0
 36
0.0
 17
0.0
 27
1.0
 37
0.0
 76
     0
330
18
1001
ACAD_PSEXT
1000
hp LaserJet 1300 PCL 6
1000
hp LaserJet 1300 PCL 6
1000
HP 1300
1000

1070
     0
  0
LAYOUT
  5
5CF6
102
{ACAD_REACTORS
330
5CF3
102
}
330
5CF3
100
AcDbPlotSettings
  1

  2
EPSON STYLUS COLOR 440
  4

  6

 40
0.0
 41
0.0
 42
0.0
 43
0.0
 44
0.0
 45
0.0
 46
0.0
 47
0.0
 48
0.0
 49
0.0
140
0.0
141
0.0
142
1.0
143
1.0
 70
   688
 72
     0
 73
     0
 74
     5
  7
LIN.ctb
 75
    16
147
1.0
 76
     0
 77
     2
 78
   300
148
0.0
149
0.0
100
AcDbLayout
  1
ｰtｸm1
 70
     1
 71
     1
 10
0.0
 20
0.0
 11
420.0
 21
297.0
 12
0.0
 22
0.0
 32
0.0
 14
1.000000000000000E+20
 24
1.000000000000000E+20
 34
1.000000000000000E+20
 15
-1.000000000000000E+20
 25
-1.000000000000000E+20
 35
-1.000000000000000E+20
146
0.0
 13
0.0
 23
0.0
 33
0.0
 16
1.0
 26
0.0
 36
0.0
 17
0.0
 27
1.0
 37
0.0
 76
     0
330
15
  0
MLINESTYLE
  5
1C
102
{ACAD_REACTORS
330
1B
102
}
330
1B
100
AcDbMlineStyle
  2
STANDARD
 70
     0
  3

 62
   256
 51
90.0
 52
90.0
 71
     2
 49
0.5
 62
   256
  6
BYLAYER
 49
-0.5
 62
   256
  6
BYLAYER
  0
ACDBPLACEHOLDER
  5
5CF2
102
{ACAD_REACTORS
330
5CF1
102
}
330
5CF1
  0
TABLESTYLE
  5
7875
102
{ACAD_REACTORS
330
7874
102
}
330
7874
100
AcDbTableStyle
  3
Standard
 70
     0
 71
     8
 40
1.5
 41
1.5
280
     0
281
     0
  7
STANDARD
140
4.5
170
     2
 62
     0
 63
     7
283
     0
274
    -2
284
     1
 64
     0
275
    -2
285
     1
 65
     0
276
    -2
286
     1
 66
     0
277
    -2
287
     1
 67
     0
278
    -2
288
     1
 68
     0
279
    -2
289
     1
 69
     0
  7
STANDARD
140
6.0
170
     5
 62
     0
 63
     7
283
     0
274
    -2
284
     1
 64
     0
275
    -2
285
     1
 65
     0
276
    -2
286
     1
 66
     0
277
    -2
287
     1
 67
     0
278
    -2
288
     1
 68
     0
279
    -2
289
     1
 69
     0
  7
STANDARD
140
4.5
170
     5
 62
     0
 63
     7
283
     0
274
    -2
284
     1
 64
     0
275
    -2
285
     1
 65
     0
276
    -2
286
     1
 66
     0
277
    -2
287
     1
 67
     0
278
    -2
288
     1
 68
     0
279
    -2
289
     1
 69
     0
  0
DICTIONARYVAR
  5
7880
102
{ACAD_REACTORS
330
45D
102
}
330
45D
100
DictionaryVariables
280
     0
  1
STANDARD
  0
DICTIONARYVAR
  5
45E
102
{ACAD_REACTORS
330
45D
102
}
330
45D
100
DictionaryVariables
280
     0
  1
127
  0
XRECORD
  5
7C0D
102
{ACAD_REACTORS
330
7C0C
102
}
330
7C0C
100
AcDbXrecord
280
     1
1070
     0
1070
     1
1070
     1
  0
XRECORD
  5
8E75
102
{ACAD_REACTORS
330
8E74
102
}
330
8E74
100
AcDbXrecord
280
     1
1070
     0
1070
     1
1070
     1
  0
XRECORD
  5
9D18
102
{ACAD_REACTORS
330
9D17
102
}
330
9D17
100
AcDbXrecord
280
     1
1070
     0
1070
     1
1070
     1
  0
ENDSEC
  0
EOF
