  0
SECTION
  2
HEADER
  9
$ACADVER
  1
AC1018
  9
$ACADMAINTVER
 70
    76
  9
$DWGCODEPAGE
  3
ANSI_932
  9
$INSBASE
 10
0.0
 20
0.0
 30
0.0
  9
$EXTMIN
 10
0.0
 20
0.0
 30
0.0
  9
$EXTMAX
 10
190.0
 20
280.0
 30
3.838383838383842
  9
$LIMMIN
 10
0.0
 20
0.0
  9
$LIMMAX
 10
420.0
 20
297.0
  9
$ORTHOMODE
 70
     1
  9
$REGENMODE
 70
     1
  9
$FILLMODE
 70
     1
  9
$QTEXTMODE
 70
     0
  9
$MIRRTEXT
 70
     1
  9
$LTSCALE
 40
1.0
  9
$ATTMODE
 70
     1
  9
$TEXTSIZE
 40
1.25
  9
$TRACEWID
 40
1.0
  9
$TEXTSTYLE
  7
TXT
  9
$CLAYER
  8
mark
  9
$CELTYPE
  6
BYLAYER
  9
$CECOLOR
 62
   256
  9
$CELTSCALE
 40
1.0
  9
$DISPSILH
 70
     0
  9
$DIMSCALE
 40
1.0
  9
$DIMASZ
 40
2.5
  9
$DIMEXO
 40
0.85
  9
$DIMDLI
 40
0.38
  9
$DIMRND
 40
0.0
  9
$DIMDLE
 40
0.0
  9
$DIMEXE
 40
0.85
  9
$DIMTP
 40
0.0
  9
$DIMTM
 40
0.0
  9
$DIMTXT
 40
2.5
  9
$DIMCEN
 40
0.09
  9
$DIMTSZ
 40
0.0
  9
$DIMTOL
 70
     0
  9
$DIMLIM
 70
     0
  9
$DIMTIH
 70
     0
  9
$DIMTOH
 70
     0
  9
$DIMSE1
 70
     0
  9
$DIMSE2
 70
     0
  9
$DIMTAD
 70
     3
  9
$DIMZIN
 70
     8
  9
$DIMBLK
  1
Open30
  9
$DIMASO
 70
     1
  9
$DIMSHO
 70
     1
  9
$DIMPOST
  1

  9
$DIMAPOST
  1

  9
$DIMALT
 70
     0
  9
$DIMALTD
 70
     2
  9
$DIMALTF
 40
25.4
  9
$DIMLFAC
 40
1.0
  9
$DIMTOFL
 70
     1
  9
$DIMTVP
 40
0.0
  9
$DIMTIX
 70
     0
  9
$DIMSOXD
 70
     0
  9
$DIMSAH
 70
     0
  9
$DIMBLK1
  1

  9
$DIMBLK2
  1

  9
$DIMSTYLE
  2
STANDARD
  9
$DIMCLRD
 70
   256
  9
$DIMCLRE
 70
   256
  9
$DIMCLRT
 70
     3
  9
$DIMTFAC
 40
1.0
  9
$DIMGAP
 40
0.85
  9
$DIMJUST
 70
     0
  9
$DIMSD1
 70
     0
  9
$DIMSD2
 70
     0
  9
$DIMTOLJ
 70
     1
  9
$DIMTZIN
 70
     0
  9
$DIMALTZ
 70
     0
  9
$DIMALTTZ
 70
     0
  9
$DIMUPT
 70
     0
  9
$DIMDEC
 70
     2
  9
$DIMTDEC
 70
     2
  9
$DIMALTU
 70
     2
  9
$DIMALTTD
 70
     2
  9
$DIMTXSTY
  7
STANDARD
  9
$DIMAUNIT
 70
     0
  9
$DIMADEC
 70
     2
  9
$DIMALTRND
 40
0.0
  9
$DIMAZIN
 70
     2
  9
$DIMDSEP
 70
    46
  9
$DIMATFIT
 70
     3
  9
$DIMFRAC
 70
     0
  9
$DIMLDRBLK
  1
Open30
  9
$DIMLUNIT
 70
     2
  9
$DIMLWD
 70
    -2
  9
$DIMLWE
 70
    -2
  9
$DIMTMOVE
 70
     0
  9
$LUNITS
 70
     2
  9
$LUPREC
 70
     2
  9
$SKETCHINC
 40
1.0
  9
$FILLETRAD
 40
1.0
  9
$AUNITS
 70
     0
  9
$AUPREC
 70
     2
  9
$MENU
  1
.
  9
$ELEVATION
 40
0.0
  9
$PELEVATION
 40
0.0
  9
$THICKNESS
 40
0.0
  9
$LIMCHECK
 70
     0
  9
$CHAMFERA
 40
1.5
  9
$CHAMFERB
 40
1.5
  9
$CHAMFERC
 40
1.75
  9
$CHAMFERD
 40
0.0174532925199433
  9
$SKPOLY
 70
     0
  9
$TDCREATE
 40
2451555.620234838
  9
$TDUCREATE
 40
2451555.245234838
  9
$TDUPDATE
 40
2455846.620190880
  9
$TDUUPDATE
 40
2455846.245190880
  9
$TDINDWG
 40
2.6198649769
  9
$TDUSRTIMER
 40
2.6198649769
  9
$USRTIMER
 70
     1
  9
$ANGBASE
 50
0.0
  9
$ANGDIR
 70
     0
  9
$PDMODE
 70
     0
  9
$PDSIZE
 40
0.0
  9
$PLINEWID
 40
0.0
  9
$SPLFRAME
 70
     0
  9
$SPLINETYPE
 70
     6
  9
$SPLINESEGS
 70
     8
  9
$HANDSEED
  5
AAF2
  9
$SURFTAB1
 70
     6
  9
$SURFTAB2
 70
     6
  9
$SURFTYPE
 70
     6
  9
$SURFU
 70
     6
  9
$SURFV
 70
     6
  9
$UCSBASE
  2

  9
$UCSNAME
  2

  9
$UCSORG
 10
0.0
 20
0.0
 30
0.0
  9
$UCSXDIR
 10
1.0
 20
0.0
 30
0.0
  9
$UCSYDIR
 10
0.0
 20
1.0
 30
0.0
  9
$UCSORTHOREF
  2

  9
$UCSORTHOVIEW
 70
     0
  9
$UCSORGTOP
 10
0.0
 20
0.0
 30
0.0
  9
$UCSORGBOTTOM
 10
0.0
 20
0.0
 30
0.0
  9
$UCSORGLEFT
 10
0.0
 20
0.0
 30
0.0
  9
$UCSORGRIGHT
 10
0.0
 20
0.0
 30
0.0
  9
$UCSORGFRONT
 10
0.0
 20
0.0
 30
0.0
  9
$UCSORGBACK
 10
0.0
 20
0.0
 30
0.0
  9
$PUCSBASE
  2

  9
$PUCSNAME
  2

  9
$PUCSORG
 10
0.0
 20
0.0
 30
0.0
  9
$PUCSXDIR
 10
1.0
 20
0.0
 30
0.0
  9
$PUCSYDIR
 10
0.0
 20
1.0
 30
0.0
  9
$PUCSORTHOREF
  2

  9
$PUCSORTHOVIEW
 70
     0
  9
$PUCSORGTOP
 10
0.0
 20
0.0
 30
0.0
  9
$PUCSORGBOTTOM
 10
0.0
 20
0.0
 30
0.0
  9
$PUCSORGLEFT
 10
0.0
 20
0.0
 30
0.0
  9
$PUCSORGRIGHT
 10
0.0
 20
0.0
 30
0.0
  9
$PUCSORGFRONT
 10
0.0
 20
0.0
 30
0.0
  9
$PUCSORGBACK
 10
0.0
 20
0.0
 30
0.0
  9
$USERI1
 70
     0
  9
$USERI2
 70
     0
  9
$USERI3
 70
     0
  9
$USERI4
 70
     0
  9
$USERI5
 70
     0
  9
$USERR1
 40
0.0
  9
$USERR2
 40
0.0
  9
$USERR3
 40
0.0
  9
$USERR4
 40
0.0
  9
$USERR5
 40
0.0
  9
$WORLDVIEW
 70
     1
  9
$SHADEDGE
 70
     3
  9
$SHADEDIF
 70
    70
  9
$TILEMODE
 70
     1
  9
$MAXACTVP
 70
    48
  9
$PINSBASE
 10
0.0
 20
0.0
 30
0.0
  9
$PLIMCHECK
 70
     0
  9
$PEXTMIN
 10
1.000000000000000E+20
 20
1.000000000000000E+20
 30
1.000000000000000E+20
  9
$PEXTMAX
 10
-1.000000000000000E+20
 20
-1.000000000000000E+20
 30
-1.000000000000000E+20
  9
$PLIMMIN
 10
0.0
 20
0.0
  9
$PLIMMAX
 10
420.0
 20
297.0
  9
$UNITMODE
 70
     0
  9
$VISRETAIN
 70
     1
  9
$PLINEGEN
 70
     0
  9
$PSLTSCALE
 70
     1
  9
$TREEDEPTH
 70
  3020
  9
$CMLSTYLE
  2
STANDARD
  9
$CMLJUST
 70
     0
  9
$CMLSCALE
 40
20.0
  9
$PROXYGRAPHICS
 70
     1
  9
$MEASUREMENT
 70
     1
  9
$CELWEIGHT
370
    -1
  9
$ENDCAPS
280
     0
  9
$JOINSTYLE
280
     0
  9
$LWDISPLAY
290
     0
  9
$INSUNITS
 70
     0
  9
$HYPERLINKBASE
  1

  9
$STYLESHEET
  1
monochrome.ctb
  9
$XEDIT
290
     1
  9
$CEPSNTYPE
380
     0
  9
$PSTYLEMODE
290
     1
  9
$FINGERPRINTGUID
  2
{1CF51E8A-A506-11D4-A7D9-AF69F5C20846}
  9
$VERSIONGUID
  2
{A9872DE6-4560-40E0-B259-ADFC3D8320BE}
  9
$EXTNAMES
290
     1
  9
$PSVPSCALE
 40
0.0
  9
$OLESTARTUP
290
     0
  9
$SORTENTS
280
   127
  9
$INDEXCTL
280
     0
  9
$HIDETEXT
280
     0
  9
$XCLIPFRAME
290
     0
  9
$HALOGAP
280
     0
  9
$OBSCOLOR
 70
   257
  9
$OBSLTYPE
280
     0
  9
$INTERSECTIONDISPLAY
280
     0
  9
$INTERSECTIONCOLOR
 70
   257
  9
$DIMASSOC
280
     1
  9
$PROJECTNAME
  1

  0
ENDSEC
  0
SECTION
  2
CLASSES
  0
CLASS
  1
DICTIONARYVAR
  2
AcDbDictionaryVar
  3
ObjectDBX Classes
 90
        0
 91
        2
280
     0
281
     0
  0
CLASS
  1
SORTENTSTABLE
  2
AcDbSortentsTable
  3
ObjectDBX Classes
 90
        0
 91
        1
280
     0
281
     0
  0
CLASS
  1
ACDBDICTIONARYWDFLT
  2
AcDbDictionaryWithDefault
  3
ObjectDBX Classes
 90
        0
 91
        1
280
     0
281
     0
  0
CLASS
  1
TABLESTYLE
  2
AcDbTableStyle
  3
ObjectDBX Classes
 90
     2047
 91
        1
280
     0
281
     0
  0
ENDSEC
  0
SECTION
  2
TABLES
  0
TABLE
  2
VPORT
  5
8
330
0
100
AcDbSymbolTable
 70
     2
  0
VPORT
  5
AAF1
330
8
100
AcDbSymbolTableRecord
100
AcDbViewportTableRecord
  2
*Active
 70
     0
 10
0.0
 20
0.0
 11
1.0
 21
1.0
 12
245.9814747743734
 22
139.9983766023096
 13
0.0
 23
0.0
 14
10.0
 24
10.0
 15
10.0
 25
10.0
 16
0.0
 26
0.0
 36
1.0
 17
0.0
 27
0.0
 37
0.0
 40
283.4326659157874
 41
2.47104247104247
 42
50.0
 43
0.0
 44
0.0
 50
0.0
 51
0.0
 71
     0
 72
 20000
 73
     1
 74
     1
 75
     0
 76
     0
 77
     0
 78
     0
281
     0
 65
     1
110
0.0
120
0.0
130
0.0
111
1.0
121
0.0
131
0.0
112
0.0
122
1.0
132
0.0
 79
     0
146
0.0
  0
ENDTAB
  0
TABLE
  2
LTYPE
  5
5
330
0
100
AcDbSymbolTable
 70
     7
  0
LTYPE
  5
12
330
5
100
AcDbSymbolTableRecord
100
AcDbLinetypeTableRecord
  2
BYBLOCK
 70
     0
  3

 72
    65
 73
     0
 40
0.0
  0
LTYPE
  5
13
330
5
100
AcDbSymbolTableRecord
100
AcDbLinetypeTableRecord
  2
BYLAYER
 70
     0
  3

 72
    65
 73
     0
 40
0.0
  0
LTYPE
  5
14
330
5
100
AcDbSymbolTableRecord
100
AcDbLinetypeTableRecord
  2
CONTINUOUS
 70
     0
  3
Solid line
 72
    65
 73
     0
 40
0.0
  0
LTYPE
  5
9D
330
5
100
AcDbSymbolTableRecord
100
AcDbLinetypeTableRecord
  2
CENTERX2
 70
     0
  3
Center (2x) ________  __  ________  __  _____
 72
    65
 73
     4
 40
101.6
 49
63.5
 74
     0
 49
-12.7
 74
     0
 49
12.7
 74
     0
 49
-12.7
 74
     0
  0
LTYPE
  5
A1
330
5
100
AcDbSymbolTableRecord
100
AcDbLinetypeTableRecord
  2
DASHED
 70
     0
  3
Dashed __ __ __ __ __ __ __ __ __ __ __ __ __ _
 72
    65
 73
     2
 40
19.05
 49
12.7
 74
     0
 49
-6.349999999999999
 74
     0
  0
LTYPE
  5
A2
330
5
100
AcDbSymbolTableRecord
100
AcDbLinetypeTableRecord
  2
DASHED2
 70
     0
  3
Dashed (.5x) _ _ _ _ _ _ _ _ _ _ _ _ _ _ _ _ _
 72
    65
 73
     2
 40
9.524999999999998
 49
6.349999999999999
 74
     0
 49
-3.174999999999999
 74
     0
  0
LTYPE
  5
A5
330
5
100
AcDbSymbolTableRecord
100
AcDbLinetypeTableRecord
  2
DIVIDE2
 70
     0
  3
Divide (.5x) __..__..__..__..__..__..__..__.._
 72
    65
 73
     6
 40
15.875
 49
6.349999999999999
 74
     0
 49
-3.174999999999999
 74
     0
 49
0.0
 74
     0
 49
-3.174999999999999
 74
     0
 49
0.0
 74
     0
 49
-3.174999999999999
 74
     0
  0
LTYPE
  5
650B
330
5
100
AcDbSymbolTableRecord
100
AcDbLinetypeTableRecord
  2
CENTER
 70
     0
  3
Center ____ _ ____ _ ____ _ ____ _ ____ _ ____
 72
    65
 73
     4
 40
50.8
 49
31.75
 74
     0
 49
-6.349999999999999
 74
     0
 49
6.349999999999999
 74
     0
 49
-6.349999999999999
 74
     0
  0
LTYPE
  5
650C
330
5
100
AcDbSymbolTableRecord
100
AcDbLinetypeTableRecord
  2
HIDDEN
 70
     0
  3
Hidden __ __ __ __ __ __ __ __ __ __ __ __ __ _
 72
    65
 73
     2
 40
9.524999999999998
 49
6.349999999999999
 74
     0
 49
-3.174999999999999
 74
     0
  0
ENDTAB
  0
TABLE
  2
LAYER
  5
2
102
{ACAD_XDICTIONARY
360
7BFE
102
}
330
0
100
AcDbSymbolTable
 70
     9
  0
LAYER
  5
E
330
2
100
AcDbSymbolTableRecord
100
AcDbLayerTableRecord
  2
0
 70
     0
 62
     7
  6
CONTINUOUS
370
    -3
390
5CF2
  0
LAYER
  5
B9
330
2
100
AcDbSymbolTableRecord
100
AcDbLayerTableRecord
  2
dim
 70
     0
 62
     3
  6
CONTINUOUS
370
    -3
390
5CF2
  0
LAYER
  5
F2
330
2
100
AcDbSymbolTableRecord
100
AcDbLayerTableRecord
  2
DEFPOINTS
 70
     0
 62
     4
  6
CONTINUOUS
290
     0
370
    -3
390
5CF2
  0
LAYER
  5
5F8B
330
2
100
AcDbSymbolTableRecord
100
AcDbLayerTableRecord
  2
mark
 70
     0
 62
     6
  6
CONTINUOUS
370
    -3
390
5CF2
  0
LAYER
  5
644E
330
2
100
AcDbSymbolTableRecord
100
AcDbLayerTableRecord
  2
frame
 70
     0
 62
     9
  6
CONTINUOUS
370
    -3
390
5CF2
  0
LAYER
  5
650D
330
2
100
AcDbSymbolTableRecord
100
AcDbLayerTableRecord
  2
center
 70
     0
 62
     1
  6
CENTER
370
    -3
390
5CF2
  0
LAYER
  5
650E
330
2
100
AcDbSymbolTableRecord
100
AcDbLayerTableRecord
  2
bowle
 70
     0
 62
     4
  6
HIDDEN
370
    -3
390
5CF2
  0
LAYER
  5
650F
330
2
100
AcDbSymbolTableRecord
100
AcDbLayerTableRecord
  2
contour
 70
     0
 62
     2
  6
CONTINUOUS
370
    -3
390
5CF2
  0
LAYER
  5
6510
330
2
100
AcDbSymbolTableRecord
100
AcDbLayerTableRecord
  2
section
 70
     0
 62
     5
  6
CONTINUOUS
370
    -3
390
5CF2
  0
ENDTAB
  0
TABLE
  2
STYLE
  5
3
330
0
100
AcDbSymbolTable
 70
     5
  0
STYLE
  5
F
330
3
100
AcDbSymbolTableRecord
100
AcDbTextStyleTableRecord
  2
STANDARD
 70
     0
 40
0.0
 41
1.0
 50
0.0
 71
     0
 42
2.5
  3
txt
  4

  0
STYLE
  5
BE
330
3
100
AcDbSymbolTableRecord
100
AcDbTextStyleTableRecord
  2
ISOCP3
 70
     0
 40
0.0
 41
1.0
 50
0.0
 71
     0
 42
2.5
  3
isocp3.shx
  4

  0
STYLE
  5
2A37
330
3
100
AcDbSymbolTableRecord
100
AcDbTextStyleTableRecord
  2
TXT
 70
     0
 40
0.0
 41
1.0
 50
0.0
 71
     0
 42
1.25
  3
txt.shx
  4
bigfont.shx
  0
STYLE
  5
5DCB
330
3
100
AcDbSymbolTableRecord
100
AcDbTextStyleTableRecord
  2
LKK
 70
     0
 40
50.0
 41
1.5
 50
0.0
 71
     0
 42
50.0
  3
MS PGothic.ttf
  4

1001
ACAD
1000
MS PGothic
1071
    32818
  0
STYLE
  5
5DCC
330
3
100
AcDbSymbolTableRecord
100
AcDbTextStyleTableRecord
  2
JL
 70
     0
 40
10.0
 41
0.5
 50
0.0
 71
     0
 42
5.0
  3
MS Mincho.ttf
  4

1001
ACAD
1000
MS Mincho
1071
    32785
  0
ENDTAB
  0
TABLE
  2
VIEW
  5
6
330
0
100
AcDbSymbolTable
 70
     0
  0
ENDTAB
  0
TABLE
  2
UCS
  5
7
330
0
100
AcDbSymbolTable
 70
     0
  0
ENDTAB
  0
TABLE
  2
APPID
  5
9
330
0
100
AcDbSymbolTable
 70
    11
  0
APPID
  5
10
330
9
100
AcDbSymbolTableRecord
100
AcDbRegAppTableRecord
  2
ACAD
 70
     0
  0
APPID
  5
7C91
330
9
100
AcDbSymbolTableRecord
100
AcDbRegAppTableRecord
  2
ACAD_DSTYLE_DIMEXT_LENGTH
 70
     0
  0
APPID
  5
7C92
330
9
100
AcDbSymbolTableRecord
100
AcDbRegAppTableRecord
  2
ACAD_DSTYLE_DIMEXT_ENABLED
 70
     0
  0
APPID
  5
7C93
330
9
100
AcDbSymbolTableRecord
100
AcDbRegAppTableRecord
  2
ACAD_DSTYLE_DIMJOGGED_JOGANGLE_SYMBOL
 70
     0
  0
APPID
  5
7C94
330
9
100
AcDbSymbolTableRecord
100
AcDbRegAppTableRecord
  2
ACAD_DSTYLE_DIMARC_LENGTH_SYMBOL
 70
     0
  0
APPID
  5
7F1C
330
9
100
AcDbSymbolTableRecord
100
AcDbRegAppTableRecord
  2
ACAD_EXEMPT_FROM_CAD_STANDARDS
 70
     0
  0
APPID
  5
7F49
330
9
100
AcDbSymbolTableRecord
100
AcDbRegAppTableRecord
  2
ACAD_DSTYLE_DIMTEXT_FILL
 70
     0
  0
APPID
  5
7F4C
330
9
100
AcDbSymbolTableRecord
100
AcDbRegAppTableRecord
  2
ACAD_DSTYLE_DIM_LINETYPE
 70
     0
  0
APPID
  5
7F4D
330
9
100
AcDbSymbolTableRecord
100
AcDbRegAppTableRecord
  2
ACAD_DSTYLE_DIM_EXT1_LINETYPE
 70
     0
  0
APPID
  5
7F4E
330
9
100
AcDbSymbolTableRecord
100
AcDbRegAppTableRecord
  2
ACAD_DSTYLE_DIM_EXT2_LINETYPE
 70
     0
  0
APPID
  5
8C73
330
9
100
AcDbSymbolTableRecord
100
AcDbRegAppTableRecord
  2
ACAD_PSEXT
 70
     0
  0
ENDTAB
  0
TABLE
  2
DIMSTYLE
  5
A
330
0
100
AcDbSymbolTable
 70
     1
100
AcDbDimStyleTable
 71
     1
340
1D
  0
DIMSTYLE
105
1D
102
{ACAD_REACTORS
330
A8AF
330
A8BD
330
A8C9
330
A8F2
330
A8FF
330
A926
330
A942
330
A975
102
}
330
A
100
AcDbSymbolTableRecord
100
AcDbDimStyleTableRecord
  2
STANDARD
 70
     0
 41
2.5
 42
0.85
 44
0.85
 73
     0
 74
     0
 77
     3
 78
     8
 79
     2
140
2.5
147
0.85
172
     1
176
   256
177
   256
178
     3
179
     2
271
     2
272
     2
340
F
341
7C04
342
7C04
1001
ACAD_DSTYLE_DIMEXT_LENGTH
1070
   378
1040
0.18
1001
ACAD_DSTYLE_DIMEXT_ENABLED
1070
   383
1070
     0
1001
ACAD_DSTYLE_DIMARC_LENGTH_SYMBOL
1070
   379
1070
     0
1001
ACAD_DSTYLE_DIMJOGGED_JOGANGLE_SYMBOL
1070
   384
1040
1.570796326794896
  0
ENDTAB
  0
TABLE
  2
BLOCK_RECORD
  5
1
330
0
100
AcDbSymbolTable
 70
    14
  0
BLOCK_RECORD
  5
18
102
{ACAD_XDICTIONARY
360
45F
102
}
330
1
100
AcDbSymbolTableRecord
100
AcDbBlockTableRecord
  2
*MODEL_SPACE
340
5CF5
  0
BLOCK_RECORD
  5
15
102
{ACAD_XDICTIONARY
360
5D89
102
}
330
1
100
AcDbSymbolTableRecord
100
AcDbBlockTableRecord
  2
*PAPER_SPACE
340
5CF6
  0
BLOCK_RECORD
  5
639D
330
1
100
AcDbSymbolTableRecord
100
AcDbBlockTableRecord
  2
A$C255C26A2
340
0
  0
BLOCK_RECORD
  5
7C04
330
1
100
AcDbSymbolTableRecord
100
AcDbBlockTableRecord
  2
_Open30
340
0
102
{BLKREFS
331
A8B5
331
A8B6
331
A8C3
331
A8C4
331
A8CE
331
A8CF
331
A8F7
331
A8F8
331
A904
331
A905
331
A938
331
A939
331
A947
331
A948
331
A982
331
AA3B
331
AA3C
102
}
  0
BLOCK_RECORD
  5
7C0A
102
{ACAD_XDICTIONARY
360
7C0B
102
}
330
1
100
AcDbSymbolTableRecord
100
AcDbBlockTableRecord
  2
A
340
0
310
2800000020000000200000000100080000000000000400000000000000000000000000000000000000000000000080000080000000808000800000008000800080800000C0C0C000C0DCC000F0CAA6000020400000206000002080000020A0000020C0000020E00000400000004020000040400000406000004080000040A0
310
000040C0000040E00000600000006020000060400000606000006080000060A0000060C0000060E00000800000008020000080400000806000008080000080A0000080C0000080E00000A0000000A0200000A0400000A0600000A0800000A0A00000A0C00000A0E00000C0000000C0200000C0400000C0600000C0800000C0
310
A00000C0C00000C0E00000E0000000E0200000E0400000E0600000E0800000E0A00000E0C00000E0E00040000000400020004000400040006000400080004000A0004000C0004000E00040200000402020004020400040206000402080004020A0004020C0004020E000404000004040200040404000404060004040800040
310
40A0004040C0004040E00040600000406020004060400040606000406080004060A0004060C0004060E00040800000408020004080400040806000408080004080A0004080C0004080E00040A0000040A0200040A0400040A0600040A0800040A0A00040A0C00040A0E00040C0000040C0200040C0400040C0600040C08000
310
40C0A00040C0C00040C0E00040E0000040E0200040E0400040E0600040E0800040E0A00040E0C00040E0E00080000000800020008000400080006000800080008000A0008000C0008000E00080200000802020008020400080206000802080008020A0008020C0008020E00080400000804020008040400080406000804080
310
008040A0008040C0008040E00080600000806020008060400080606000806080008060A0008060C0008060E00080800000808020008080400080806000808080008080A0008080C0008080E00080A0000080A0200080A0400080A0600080A0800080A0A00080A0C00080A0E00080C0000080C0200080C0400080C0600080C0
310
800080C0A00080C0C00080C0E00080E0000080E0200080E0400080E0600080E0800080E0A00080E0C00080E0E000C0000000C0002000C0004000C0006000C0008000C000A000C000C000C000E000C0200000C0202000C0204000C0206000C0208000C020A000C020C000C020E000C0400000C0402000C0404000C0406000C0
310
408000C040A000C040C000C040E000C0600000C0602000C0604000C0606000C0608000C060A000C060C000C060E000C0800000C0802000C0804000C0806000C0808000C080A000C080C000C080E000C0A00000C0A02000C0A04000C0A06000C0A08000C0A0A000C0A0C000C0A0E000C0C00000C0C02000C0C04000C0C06000
310
C0C08000C0C0A000F0FBFF00A4A0A000808080000000FF0000FF000000FFFF00FF000000FF00FF00FFFF0000FFFFFF0000000000000000000000000000000000000000000000000000000000000000000000000000000000000000000000000000000000000000000000000000000000000000000000000000000000000000
310
00000000000000000000000000000000000000000000000000000000000000000000000000000000000000000000000000000000000000000000000000000000000000000000000000000000000000000000000000000000000000000000000000000000000000000000000000000000000000000000000000000000000000
310
00000000000000000000000000000000000000000000000000000000000000000000000000000000000000000000000000000000000000000000000000000000000000000000000000000000000000000000000000000000000000000000000000000000000000000000000000000000000000000000000000000000000000
310
000000000000FDFDFDFDFDFDFDFDFDFDFDFD0000FD0000000000000000000000000000000000FD0000FA0000000000FA00FD0000FDFD00000000000000000000000000000000FD0000FA0000000000FA00FD0000FDFDFD000000000000000000000000000000FD0000FA0000000000FA00FD0000FDFDFDFD00000000000000
310
00000000000000FD0000FAFAFAFAFAFAFA00FD0000FDFDFDFDFD00000000000000000000000000FD000000FA00000000FA00FD0000FDFDFDFDFDFDFDFDFDFDFDFDFDFDFDFDFDFDFD000000FA000000FA0000FD0000FDFDFDFDFD00000000000000000000000000FD00000000FA0000FA0000FD0000FDFDFDFD000000000000
310
0000000000000000FD00000000FA00FA000000FD0000FDFD00000000000000000000000000000000FD0000000000FAFA000000FD0000FD0000000000000000000000000000000000FD0000000000FA00000000FD0000000000000000000000000000000000000000FDFDFDFDFDFDFDFDFDFDFDFD0000000000000000000000
310
00000000000000000000000000000000000000000000000000000000000000000000000000000000000000000000000000000000000000000000000000000000000000000000000000000000000000000000000000000000000000000000000000000000000000000000000000000000000000000000000000000000000000
310
00000000000000000000000000000000000000000000000000000000000000000000000000000000000000000000000000000000000000000000000000000000000000000000000000000000000000000000000000000000000000000000000000000000000000000000000000000000000000000000000000000000000000
310
0000000000000000000000000000000000000000000000000000000000000000000000000000000000000000000000000000000000000000
  0
BLOCK_RECORD
  5
8E72
102
{ACAD_XDICTIONARY
360
8E73
102
}
330
1
100
AcDbSymbolTableRecord
100
AcDbBlockTableRecord
  2
LS
340
0
310
2800000020000000200000000100080000000000000400000000000000000000000000000000000000000000000080000080000000808000800000008000800080800000C0C0C000C0DCC000F0CAA6000020400000206000002080000020A0000020C0000020E00000400000004020000040400000406000004080000040A0
310
000040C0000040E00000600000006020000060400000606000006080000060A0000060C0000060E00000800000008020000080400000806000008080000080A0000080C0000080E00000A0000000A0200000A0400000A0600000A0800000A0A00000A0C00000A0E00000C0000000C0200000C0400000C0600000C0800000C0
310
A00000C0C00000C0E00000E0000000E0200000E0400000E0600000E0800000E0A00000E0C00000E0E00040000000400020004000400040006000400080004000A0004000C0004000E00040200000402020004020400040206000402080004020A0004020C0004020E000404000004040200040404000404060004040800040
310
40A0004040C0004040E00040600000406020004060400040606000406080004060A0004060C0004060E00040800000408020004080400040806000408080004080A0004080C0004080E00040A0000040A0200040A0400040A0600040A0800040A0A00040A0C00040A0E00040C0000040C0200040C0400040C0600040C08000
310
40C0A00040C0C00040C0E00040E0000040E0200040E0400040E0600040E0800040E0A00040E0C00040E0E00080000000800020008000400080006000800080008000A0008000C0008000E00080200000802020008020400080206000802080008020A0008020C0008020E00080400000804020008040400080406000804080
310
008040A0008040C0008040E00080600000806020008060400080606000806080008060A0008060C0008060E00080800000808020008080400080806000808080008080A0008080C0008080E00080A0000080A0200080A0400080A0600080A0800080A0A00080A0C00080A0E00080C0000080C0200080C0400080C0600080C0
310
800080C0A00080C0C00080C0E00080E0000080E0200080E0400080E0600080E0800080E0A00080E0C00080E0E000C0000000C0002000C0004000C0006000C0008000C000A000C000C000C000E000C0200000C0202000C0204000C0206000C0208000C020A000C020C000C020E000C0400000C0402000C0404000C0406000C0
310
408000C040A000C040C000C040E000C0600000C0602000C0604000C0606000C0608000C060A000C060C000C060E000C0800000C0802000C0804000C0806000C0808000C080A000C080C000C080E000C0A00000C0A02000C0A04000C0A06000C0A08000C0A0A000C0A0C000C0A0E000C0C00000C0C02000C0C04000C0C06000
310
C0C08000C0C0A000F0FBFF00A4A0A000808080000000FF0000FF000000FFFF00FF000000FF00FF00FFFF0000FFFFFF00000000000000000000000000000000000000000000000000000000000000000000000000000000000000FBFBFEFBFEFBFBFEFBFEFBFB00000000000000000000000000000000000000FBFBFBFEFBFE
310
FBFBFEFBFEFBFBFB000000000000000000000000000000000000FB0000FE00FE0000FE00FE0000FB000000000000000000000000000000000000FB0000FE00FE0000FE00FE0000FB000000000000000000000000000000000000FB0000FEFEFEFEFEFEFEFE0000FB000000000000000000000000000000000000FB000000FE
310
FE0000FEFE000000FB000000000000000000000000000000000000FB0000000000FEFE0000000000FB000000000000000000000000000000000000FBFBFBFEFBFBFBFBFBFBFEFBFBFB000000000000000000000000000000000000000000FBFE0000000000FE000000000000000000000000000000000000000000000000FB
310
FBFBFBFBFBFEFB000000000000000000000000000000000000000000000000FBFE00000000FEFB000000000000000000000000000000000000000000000000FBFE00000000FEFB000000000000000000000000000000000000000000000000FBFE00000000FEFB000000000000000000000000000000000000000000000000
310
FBFE00000000FEFB000000000000000000000000000000000000000000000000FBFE00000000FEFB000000000000000000000000000000000000000000000000FBFE00000000FEFB000000000000000000000000000000000000000000000000FBFE00000000FEFB0000000000000000000000000000000000000000000000
310
00FBFE00000000FEFB000000000000000000000000000000000000000000000000FBFE00000000FEFB000000000000000000000000000000000000000000000000FBFE00000000FEFB000000000000000000000000000000000000000000000000FBFE00000000FEFB00000000000000000000000000000000000000000000
310
0000FBFE00000000FEFB000000000000000000000000000000000000000000000000FBFE00000000FEFB000000000000000000000000000000000000000000000000FBFE00000000FEFB000000000000000000000000000000000000000000000000FBFE00000000FEFB000000000000000000000000000000000000000000
310
000000FBFE00000000FEFB000000000000000000000000000000000000000000000000FBFE00000000FEFB000000000000000000000000000000000000000000000000FBFEFBFBFBFBFEFB00000000000000000000000000000000000000000000000000FE00000000FEFB0000000000000000000000000000000000000000
310
0000000000FBFBFBFBFBFB000000000000000000000000000000000000000000000000000000000000000000000000000000000000000000
  0
BLOCK_RECORD
  5
9D15
102
{ACAD_XDICTIONARY
360
9D16
102
}
330
1
100
AcDbSymbolTableRecord
100
AcDbBlockTableRecord
  2
LS2
340
0
310
2800000020000000200000000100080000000000000400000000000000000000000000000000000000000000000080000080000000808000800000008000800080800000C0C0C000C0DCC000F0CAA6000020400000206000002080000020A0000020C0000020E00000400000004020000040400000406000004080000040A0
310
000040C0000040E00000600000006020000060400000606000006080000060A0000060C0000060E00000800000008020000080400000806000008080000080A0000080C0000080E00000A0000000A0200000A0400000A0600000A0800000A0A00000A0C00000A0E00000C0000000C0200000C0400000C0600000C0800000C0
310
A00000C0C00000C0E00000E0000000E0200000E0400000E0600000E0800000E0A00000E0C00000E0E00040000000400020004000400040006000400080004000A0004000C0004000E00040200000402020004020400040206000402080004020A0004020C0004020E000404000004040200040404000404060004040800040
310
40A0004040C0004040E00040600000406020004060400040606000406080004060A0004060C0004060E00040800000408020004080400040806000408080004080A0004080C0004080E00040A0000040A0200040A0400040A0600040A0800040A0A00040A0C00040A0E00040C0000040C0200040C0400040C0600040C08000
310
40C0A00040C0C00040C0E00040E0000040E0200040E0400040E0600040E0800040E0A00040E0C00040E0E00080000000800020008000400080006000800080008000A0008000C0008000E00080200000802020008020400080206000802080008020A0008020C0008020E00080400000804020008040400080406000804080
310
008040A0008040C0008040E00080600000806020008060400080606000806080008060A0008060C0008060E00080800000808020008080400080806000808080008080A0008080C0008080E00080A0000080A0200080A0400080A0600080A0800080A0A00080A0C00080A0E00080C0000080C0200080C0400080C0600080C0
310
800080C0A00080C0C00080C0E00080E0000080E0200080E0400080E0600080E0800080E0A00080E0C00080E0E000C0000000C0002000C0004000C0006000C0008000C000A000C000C000C000E000C0200000C0202000C0204000C0206000C0208000C020A000C020C000C020E000C0400000C0402000C0404000C0406000C0
310
408000C040A000C040C000C040E000C0600000C0602000C0604000C0606000C0608000C060A000C060C000C060E000C0800000C0802000C0804000C0806000C0808000C080A000C080C000C080E000C0A00000C0A02000C0A04000C0A06000C0A08000C0A0A000C0A0C000C0A0E000C0C00000C0C02000C0C04000C0C06000
310
C0C08000C0C0A000F0FBFF00A4A0A000808080000000FF0000FF000000FFFF00FF000000FF00FF00FFFF0000FFFFFF0000000000000000000000000000000000000000000000000000000000000000000000000000000000000000FBFBFEFEFBFBFEFEFBFB00000000000000000000000000000000000000000000FBFBFEFE
310
FBFBFEFEFBFB00000000000000000000000000000000000000000000FB00FEFE0000FEFE00FB00000000000000000000000000000000000000000000FB00FEFE0000FEFE00FB00000000000000000000000000000000000000000000FB00FEFEFEFEFEFE00FB00000000000000000000000000000000000000000000FB0000
310
FEFEFE000000FB00000000000000000000000000000000000000000000FBFBFEFBFBFBFBFEFBFB000000000000000000000000000000000000000000000000FBFBFBFBFBFE0000000000000000000000000000000000000000000000000000FE00000000FE0000000000000000000000000000000000000000000000000000
310
FE00000000FE0000000000000000000000000000000000000000000000000000FE00000000FE0000000000000000000000000000000000000000000000000000FE00000000FE0000000000000000000000000000000000000000000000000000FE00000000FE00000000000000000000000000000000000000000000000000
310
00FE00000000FE0000000000000000000000000000000000000000000000000000FE00000000FE0000000000000000000000000000000000000000000000000000FE00000000FE0000000000000000000000000000000000000000000000000000FE00000000FE000000000000000000000000000000000000000000000000
310
0000FE00000000FE0000000000000000000000000000000000000000000000000000FE00000000FE0000000000000000000000000000000000000000000000000000FE00000000FE0000000000000000000000000000000000000000000000000000FE00000000FE0000000000000000000000000000000000000000000000
310
000000FE00000000FE0000000000000000000000000000000000000000000000000000FE00000000FE0000000000000000000000000000000000000000000000000000FE00000000FE0000000000000000000000000000000000000000000000000000FE00000000FE00000000000000000000000000000000000000000000
310
00000000FE00000000FE0000000000000000000000000000000000000000000000000000FE00000000FE0000000000000000000000000000000000000000000000000000FEFBFBFBFBFE0000000000000000000000000000000000000000000000000000FEFB000000FE000000000000000000000000000000000000000000
310
000000000000FBFBFBFB00000000000000000000000000000000000000000000000000000000000000000000000000000000000000000000
  0
BLOCK_RECORD
  5
A4B0
102
{ACAD_XDICTIONARY
360
A4B1
102
}
330
1
100
AcDbSymbolTableRecord
100
AcDbBlockTableRecord
  2
ls1
340
0
310
2800000020000000200000000100080000000000000400000000000000000000000000000000000000000000000080000080000000808000800000008000800080800000C0C0C000C0DCC000F0CAA6000020400000206000002080000020A0000020C0000020E00000400000004020000040400000406000004080000040A0
310
000040C0000040E00000600000006020000060400000606000006080000060A0000060C0000060E00000800000008020000080400000806000008080000080A0000080C0000080E00000A0000000A0200000A0400000A0600000A0800000A0A00000A0C00000A0E00000C0000000C0200000C0400000C0600000C0800000C0
310
A00000C0C00000C0E00000E0000000E0200000E0400000E0600000E0800000E0A00000E0C00000E0E00040000000400020004000400040006000400080004000A0004000C0004000E00040200000402020004020400040206000402080004020A0004020C0004020E000404000004040200040404000404060004040800040
310
40A0004040C0004040E00040600000406020004060400040606000406080004060A0004060C0004060E00040800000408020004080400040806000408080004080A0004080C0004080E00040A0000040A0200040A0400040A0600040A0800040A0A00040A0C00040A0E00040C0000040C0200040C0400040C0600040C08000
310
40C0A00040C0C00040C0E00040E0000040E0200040E0400040E0600040E0800040E0A00040E0C00040E0E00080000000800020008000400080006000800080008000A0008000C0008000E00080200000802020008020400080206000802080008020A0008020C0008020E00080400000804020008040400080406000804080
310
008040A0008040C0008040E00080600000806020008060400080606000806080008060A0008060C0008060E00080800000808020008080400080806000808080008080A0008080C0008080E00080A0000080A0200080A0400080A0600080A0800080A0A00080A0C00080A0E00080C0000080C0200080C0400080C0600080C0
310
800080C0A00080C0C00080C0E00080E0000080E0200080E0400080E0600080E0800080E0A00080E0C00080E0E000C0000000C0002000C0004000C0006000C0008000C000A000C000C000C000E000C0200000C0202000C0204000C0206000C0208000C020A000C020C000C020E000C0400000C0402000C0404000C0406000C0
310
408000C040A000C040C000C040E000C0600000C0602000C0604000C0606000C0608000C060A000C060C000C060E000C0800000C0802000C0804000C0806000C0808000C080A000C080C000C080E000C0A00000C0A02000C0A04000C0A06000C0A08000C0A0A000C0A0C000C0A0E000C0C00000C0C02000C0C04000C0C06000
310
C0C08000C0C0A000F0FBFF00A4A0A000808080000000FF0000FF000000FFFF00FF000000FF00FF00FFFF0000FFFFFF0000000000000000000000000000000000000000000000000000000000000000000000000000000000000000FBFBFEFEFBFBFEFEFBFB00000000000000000000000000000000000000000000FBFBFEFE
310
FBFBFEFEFBFB00000000000000000000000000000000000000000000FB00FEFE0000FEFE00FB00000000000000000000000000000000000000000000FB00FEFEFEFEFEFE00FB00000000000000000000000000000000000000000000FB0000FEFE00FE0000FB00000000000000000000000000000000000000000000FB0000
310
0000FE000000FB00000000000000000000000000000000000000000000FBFBFEFBFBFBFBFBFBFB000000000000000000000000000000000000000000000000FE00000000FE0000000000000000000000000000000000000000000000000000FE00000000FE0000000000000000000000000000000000000000000000000000
310
FE00000000FE0000000000000000000000000000000000000000000000000000FE00000000FE0000000000000000000000000000000000000000000000000000FE00000000FE0000000000000000000000000000000000000000000000000000FE00000000FE00000000000000000000000000000000000000000000000000
310
00FE00000000FE0000000000000000000000000000000000000000000000000000FE00000000FE0000000000000000000000000000000000000000000000000000FE00000000FE0000000000000000000000000000000000000000000000000000FE00000000FE000000000000000000000000000000000000000000000000
310
0000FE00000000FE0000000000000000000000000000000000000000000000000000FE00000000FE0000000000000000000000000000000000000000000000000000FE00000000FE0000000000000000000000000000000000000000000000000000FE00000000FE0000000000000000000000000000000000000000000000
310
000000FE00000000FE0000000000000000000000000000000000000000000000000000FE00000000FE0000000000000000000000000000000000000000000000000000FE00000000FE0000000000000000000000000000000000000000000000000000FE00000000FE00000000000000000000000000000000000000000000
310
00000000FE00000000FE0000000000000000000000000000000000000000000000000000FE00000000FE0000000000000000000000000000000000000000000000000000FE00000000FE0000000000000000000000000000000000000000000000000000FEFBFBFBFBFE000000000000000000000000000000000000000000
310
000000000000FBFBFBFB00000000000000000000000000000000000000000000000000000000000000000000000000000000000000000000
102
{BLKREFS
331
A4CF
102
}
  0
BLOCK_RECORD
  5
A8B0
330
1
100
AcDbSymbolTableRecord
100
AcDbBlockTableRecord
  2
*D6
340
0
  0
BLOCK_RECORD
  5
A8BE
330
1
100
AcDbSymbolTableRecord
100
AcDbBlockTableRecord
  2
*D7
340
0
  0
BLOCK_RECORD
  5
A8CA
330
1
100
AcDbSymbolTableRecord
100
AcDbBlockTableRecord
  2
*D8
340
0
  0
BLOCK_RECORD
  5
A8F3
330
1
100
AcDbSymbolTableRecord
100
AcDbBlockTableRecord
  2
*D9
340
0
  0
BLOCK_RECORD
  5
A900
330
1
100
AcDbSymbolTableRecord
100
AcDbBlockTableRecord
  2
*D10
340
0
  0
BLOCK_RECORD
  5
A927
330
1
100
AcDbSymbolTableRecord
100
AcDbBlockTableRecord
  2
*D11
340
0
  0
BLOCK_RECORD
  5
A943
330
1
100
AcDbSymbolTableRecord
100
AcDbBlockTableRecord
  2
*D12
340
0
  0
BLOCK_RECORD
  5
A976
330
1
100
AcDbSymbolTableRecord
100
AcDbBlockTableRecord
  2
*D13
340
0
  0
ENDTAB
  0
ENDSEC
  0
SECTION
  2
BLOCKS
  0
BLOCK
  5
19
330
18
100
AcDbEntity
  8
0
100
AcDbBlockBegin
  2
*MODEL_SPACE
 70
     0
 10
0.0
 20
0.0
 30
0.0
  3
*MODEL_SPACE
  1

  0
ENDBLK
  5
1A
330
18
100
AcDbEntity
  8
0
100
AcDbBlockEnd
  0
BLOCK
  5
16
330
15
100
AcDbEntity
 67
     1
  8
0
100
AcDbBlockBegin
  2
*PAPER_SPACE
 70
     0
 10
0.0
 20
0.0
 30
0.0
  3
*PAPER_SPACE
  1

  0
ENDBLK
  5
17
330
15
100
AcDbEntity
 67
     1
  8
0
100
AcDbBlockEnd
  0
BLOCK
  5
63A1
330
639D
100
AcDbEntity
  8
0
100
AcDbBlockBegin
  2
A$C255C26A2
 70
     0
 10
0.0
 20
0.0
 30
0.0
  3
A$C255C26A2
  1

  0
LWPOLYLINE
  5
639E
330
639D
100
AcDbEntity
  8
0
100
AcDbPolyline
 90
        3
 70
     1
 43
0.0
 10
7.014806023851633
 20
0.0000006939811783
 10
5.611844869720698
 20
2.430000693981241
 10
8.417767177982568
 20
2.430000693981241
  0
LWPOLYLINE
  5
639F
330
639D
100
AcDbEntity
  8
0
100
AcDbPolyline
 90
        3
 70
     1
 43
0.0
 10
4.20888371558999
 20
0.0000006939811783
 10
2.805922561459283
 20
2.430000693981241
 10
5.611844869720698
 20
2.430000693981241
  0
LWPOLYLINE
  5
63A0
330
639D
100
AcDbEntity
  8
0
100
AcDbPolyline
 90
        3
 70
     1
 43
0.0
 10
1.402961407328348
 20
0.0000006939811783
 10
0.0000002531974133
 20
2.430000693981241
 10
2.805922561459283
 20
2.430000693981241
  0
ENDBLK
  5
63A2
330
639D
100
AcDbEntity
  8
0
100
AcDbBlockEnd
  0
BLOCK
  5
7C05
330
7C04
100
AcDbEntity
  8
0
100
AcDbBlockBegin
  2
_Open30
 70
     0
 10
0.0
 20
0.0
 30
0.0
  3
_Open30
  1

  0
LINE
  5
7C06
330
7C04
100
AcDbEntity
  8
0
  6
ByBlock
 62
     0
370
    -2
100
AcDbLine
 10
-1.0
 20
0.26794919
 30
0.0
 11
0.0
 21
0.0
 31
0.0
  0
LINE
  5
7C07
330
7C04
100
AcDbEntity
  8
0
  6
ByBlock
 62
     0
370
    -2
100
AcDbLine
 10
0.0
 20
0.0
 30
0.0
 11
-1.0
 21
-0.26794919
 31
0.0
  0
LINE
  5
7C08
330
7C04
100
AcDbEntity
  8
0
  6
ByBlock
 62
     0
370
    -2
100
AcDbLine
 10
0.0
 20
0.0
 30
0.0
 11
-1.0
 21
0.0
 31
0.0
  0
ENDBLK
  5
7C09
330
7C04
100
AcDbEntity
  8
0
100
AcDbBlockEnd
  0
BLOCK
  5
7C0E
330
7C0A
100
AcDbEntity
  8
0
100
AcDbBlockBegin
  2
A
 70
     0
 10
0.0
 20
0.0
 30
0.0
  3
A
  1

  0
MTEXT
  5
7C0F
330
7C0A
100
AcDbEntity
  8
mark
 62
     3
100
AcDbMText
 10
10.65641897020822
 20
-5.596245361730467
 30
0.0
 40
2.5
 41
0.0
 71
     5
 72
     1
  1
A
 73
     1
 44
1.0
1001
ACAD
1000
ACAD_MTEXT_DEFINED_HEIGHT_BEGIN
1070
    46
1040
0.0
1000
ACAD_MTEXT_DEFINED_HEIGHT_END
  0
LWPOLYLINE
  5
7C10
330
7C0A
100
AcDbEntity
  8
mark
100
AcDbPolyline
 90
        4
 70
     1
 43
0.0
 10
9.07926800414657
 20
-7.141145101782569
 10
12.07926800414657
 20
-7.141145101782569
 10
12.07926800414657
 20
-4.141145101782569
 10
9.07926800414657
 20
-4.141145101782569
  0
HATCH
  5
7C11
330
7C0A
100
AcDbEntity
  8
mark
100
AcDbHatch
 10
0.0
 20
0.0
 30
0.0
210
0.0
220
0.0
230
1.0
  2
SOLID
 70
     1
 71
     0
 91
        1
 92
        7
 72
     0
 73
     1
 93
        3
 10
5.32926800414657
 20
-5.641145101782569
 10
4.07926800414657
 20
-4.391145101782541
 10
4.07926800414657
 20
-6.891145101782541
 97
        0
 75
     0
 76
     1
 47
0.0398277943677868
 98
        1
 10
4.589689734415287
 20
-5.732163331855076
450
        0
451
        0
460
0.0
461
0.0
452
        1
462
1.0
453
        2
463
0.0
 63
     5
421
      255
463
1.0
 63
     7
421
 16777215
470
LINEAR
1001
ACAD
1010
0.0
1020
0.0
1030
0.0
  0
LINE
  5
7C12
330
7C0A
100
AcDbEntity
  8
mark
100
AcDbLine
 10
5.32926800414657
 20
-5.641145101782569
 30
0.0
 11
9.07926800414657
 21
-5.641145101782569
 31
0.0
  0
LINE
  5
7C13
330
7C0A
100
AcDbEntity
  8
mark
100
AcDbLine
 10
5.32926800414657
 20
-5.641145101782569
 30
0.0
 11
4.07926800414657
 21
-4.391145101782569
 31
0.0
  0
LINE
  5
7C14
330
7C0A
100
AcDbEntity
  8
mark
100
AcDbLine
 10
5.32926800414657
 20
-5.641145101782569
 30
0.0
 11
4.07926800414657
 21
-6.891145101782569
 31
0.0
  0
ENDBLK
  5
7C15
330
7C0A
100
AcDbEntity
  8
0
100
AcDbBlockEnd
  0
BLOCK
  5
8E76
330
8E72
100
AcDbEntity
  8
0
100
AcDbBlockBegin
  2
LS
 70
     0
 10
0.0
 20
0.0
 30
0.0
  3
LS
  1

  0
LINE
  5
8E78
330
8E72
100
AcDbEntity
  8
contour
100
AcDbLine
 10
310.7457309951603
 20
181.0160360664828
 30
0.0
 11
310.7457309951603
 21
184.7160360664827
 31
0.0
  0
LINE
  5
8E79
330
8E72
100
AcDbEntity
  8
contour
100
AcDbLine
 10
310.7457309951603
 20
184.7160360664827
 30
0.0
 11
303.7457309951603
 21
184.7160360664827
 31
0.0
  0
LINE
  5
8E7A
330
8E72
100
AcDbEntity
  8
contour
100
AcDbLine
 10
308.4457309951603
 20
196.7160360664827
 30
0.0
 11
306.0457309951603
 21
196.7160360664826
 31
0.0
  0
LINE
  5
8E7B
330
8E72
100
AcDbEntity
  8
contour
100
AcDbLine
 10
309.2457309951603
 20
195.9160360664826
 30
0.0
 11
308.4457309951603
 21
196.7160360664826
 31
0.0
  0
LINE
  5
8E7C
330
8E72
100
AcDbEntity
  8
contour
100
AcDbLine
 10
303.7457309951603
 20
184.7160360664827
 30
0.0
 11
303.7457309951603
 21
181.0160360664827
 31
0.0
  0
LINE
  5
8E7D
330
8E72
100
AcDbEntity
  8
contour
100
AcDbLine
 10
304.0457309951603
 20
180.7160360664827
 30
0.0
 11
310.4457309951603
 21
180.7160360664828
 31
0.0
  0
LINE
  5
8E7E
330
8E72
100
AcDbEntity
  8
contour
100
AcDbLine
 10
310.7457309951603
 20
181.0160360664828
 30
0.0
 11
310.4457309951603
 21
180.7160360664828
 31
0.0
  0
LINE
  5
8E7F
330
8E72
100
AcDbEntity
  8
contour
100
AcDbLine
 10
303.7457309951603
 20
181.0160360664827
 30
0.0
 11
304.0457309951603
 21
180.7160360664827
 31
0.0
  0
LINE
  5
8E80
330
8E72
100
AcDbEntity
  8
contour
100
AcDbLine
 10
309.2457309951603
 20
184.7160360664826
 30
0.0
 11
309.2457309951603
 21
195.9160360664827
 31
0.0
  0
LINE
  5
8E81
330
8E72
100
AcDbEntity
  8
contour
100
AcDbLine
 10
305.2457309951603
 20
184.7160360664826
 30
0.0
 11
305.2457309951603
 21
195.9160360664827
 31
0.0
  0
LINE
  5
8E82
330
8E72
100
AcDbEntity
  8
contour
100
AcDbLine
 10
306.0457309951603
 20
196.7160360664826
 30
0.0
 11
305.2457309951603
 21
195.9160360664826
 31
0.0
  0
LINE
  5
8E83
330
8E72
100
AcDbEntity
  8
contour
100
AcDbLine
 10
309.2457309951603
 20
195.9160360664827
 30
0.0
 11
305.2457309951603
 21
195.9160360664827
 31
0.0
  0
LINE
  5
8E84
330
8E72
100
AcDbEntity
  8
contour
 62
     4
100
AcDbLine
 10
308.8667309951603
 20
185.3724833225513
 30
0.0
 11
308.8667309951603
 21
196.2950360664826
 31
0.0
  0
LINE
  5
8E85
330
8E72
100
AcDbEntity
  8
contour
 62
     4
100
AcDbLine
 10
305.6247309951603
 20
185.3724833225513
 30
0.0
 11
305.6247309951603
 21
196.2950360664826
 31
0.0
  0
LINE
  5
8E86
330
8E72
100
AcDbEntity
  8
contour
100
AcDbLine
 10
310.7457309951603
 20
181.0160360664828
 30
0.0
 11
303.7457309951603
 21
181.0160360664828
 31
0.0
  0
LINE
  5
8E87
330
8E72
100
AcDbEntity
  8
bowle
 48
0.1
100
AcDbLine
 10
308.1117563989447
 20
180.7160360664827
 30
0.0
 11
308.1117563989447
 21
182.9160360664827
 31
0.0
  0
LINE
  5
8E88
330
8E72
100
AcDbEntity
  8
bowle
 48
0.1
100
AcDbLine
 10
308.9777818027293
 20
180.7160360664827
 30
0.0
 11
308.9777818027293
 21
182.9160360664827
 31
0.0
  0
LINE
  5
8E89
330
8E72
100
AcDbEntity
  8
bowle
 48
0.1
100
AcDbLine
 10
306.3797055913759
 20
180.7160360664827
 30
0.0
 11
306.3797055913759
 21
182.9160360664826
 31
0.0
  0
LINE
  5
8E8A
330
8E72
100
AcDbEntity
  8
bowle
 48
0.1
100
AcDbLine
 10
305.5136801875914
 20
180.7160360664827
 30
0.0
 11
305.5136801875914
 21
182.9160360664826
 31
0.0
  0
LINE
  5
8E8B
330
8E72
100
AcDbEntity
  8
bowle
 48
0.1
100
AcDbLine
 10
308.9777818027292
 20
182.9160360664827
 30
0.0
 11
305.5136801875914
 21
182.9160360664827
 31
0.0
  0
LINE
  5
8E8C
330
8E72
100
AcDbEntity
  8
bowle
 48
0.1
100
AcDbLine
 10
305.5136801875914
 20
182.9160360664826
 30
0.0
 11
307.2457309951603
 21
183.9160360664826
 31
0.0
  0
LINE
  5
8E8D
330
8E72
100
AcDbEntity
  8
bowle
 48
0.1
100
AcDbLine
 10
308.9777818027292
 20
182.9160360664826
 30
0.0
 11
307.2457309951603
 21
183.9160360664826
 31
0.0
  0
LINE
  5
8E8E
330
8E72
100
AcDbEntity
  8
contour
 62
     4
100
AcDbLine
 10
305.6247309951603
 20
185.3724833225513
 30
0.0
 11
305.2457309951603
 21
184.7160360664826
 31
0.0
  0
LINE
  5
8E8F
330
8E72
100
AcDbEntity
  8
contour
100
AcDbLine
 10
305.2457309951603
 20
185.3724833225513
 30
0.0
 11
309.2457309951603
 21
185.3724833225513
 31
0.0
  0
LINE
  5
8E90
330
8E72
100
AcDbEntity
  8
contour
 62
     4
100
AcDbLine
 10
309.2457309951603
 20
184.7160360664827
 30
0.0
 11
308.8667309951603
 21
185.3724833225513
 31
0.0
  0
ENDBLK
  5
8E77
330
8E72
100
AcDbEntity
  8
0
100
AcDbBlockEnd
  0
BLOCK
  5
9D19
330
9D15
100
AcDbEntity
  8
0
100
AcDbBlockBegin
  2
LS2
 70
     0
 10
0.0
 20
0.0
 30
0.0
  3
LS2
  1

  0
LINE
  5
9D1B
330
9D15
100
AcDbEntity
  8
contour
100
AcDbLine
 10
143.2797554375081
 20
0.0655328110734672
 30
0.0
 11
143.2797554375081
 21
3.765532811073398
 31
0.0
  0
LINE
  5
9D1C
330
9D15
100
AcDbEntity
  8
contour
100
AcDbLine
 10
143.2797554375081
 20
3.765532811073398
 30
0.0
 11
136.2797554375081
 21
3.765532811073398
 31
0.0
  0
LINE
  5
9D1D
330
9D15
100
AcDbEntity
  8
contour
100
AcDbLine
 10
140.979755437508
 20
19.7655328110734
 30
0.0
 11
138.5797554375081
 21
19.76553281107334
 31
0.0
  0
LINE
  5
9D1E
330
9D15
100
AcDbEntity
  8
contour
100
AcDbLine
 10
141.7797554375081
 20
18.96553281107333
 30
0.0
 11
140.9797554375081
 21
19.76553281107334
 31
0.0
  0
LINE
  5
9D1F
330
9D15
100
AcDbEntity
  8
contour
100
AcDbLine
 10
136.2797554375081
 20
3.765532811073398
 30
0.0
 11
136.2797554375081
 21
0.0655328110733535
 31
0.0
  0
LINE
  5
9D20
330
9D15
100
AcDbEntity
  8
contour
100
AcDbLine
 10
136.5797554375081
 20
-0.2344671889266578
 30
0.0
 11
142.9797554375081
 21
-0.2344671889265442
 31
0.0
  0
LINE
  5
9D21
330
9D15
100
AcDbEntity
  8
contour
100
AcDbLine
 10
143.2797554375081
 20
0.0655328110734672
 30
0.0
 11
142.9797554375081
 21
-0.2344671889265442
 31
0.0
  0
LINE
  5
9D22
330
9D15
100
AcDbEntity
  8
contour
100
AcDbLine
 10
136.2797554375081
 20
0.0655328110733535
 30
0.0
 11
136.5797554375081
 21
-0.2344671889266578
 31
0.0
  0
LINE
  5
9D23
330
9D15
100
AcDbEntity
  8
contour
100
AcDbLine
 10
141.7797554375081
 20
3.765532811073342
 30
0.0
 11
141.7797554375081
 21
18.96553281107339
 31
0.0
  0
LINE
  5
9D24
330
9D15
100
AcDbEntity
  8
contour
100
AcDbLine
 10
137.7797554375081
 20
3.765532811073342
 30
0.0
 11
137.7797554375081
 21
18.96553281107339
 31
0.0
  0
LINE
  5
9D25
330
9D15
100
AcDbEntity
  8
contour
100
AcDbLine
 10
138.5797554375081
 20
19.76553281107334
 30
0.0
 11
137.7797554375081
 21
18.96553281107333
 31
0.0
  0
LINE
  5
9D26
330
9D15
100
AcDbEntity
  8
contour
100
AcDbLine
 10
141.7797554375081
 20
18.96553281107339
 30
0.0
 11
137.7797554375081
 21
18.96553281107339
 31
0.0
  0
LINE
  5
9D27
330
9D15
100
AcDbEntity
  8
contour
 62
     4
100
AcDbLine
 10
141.400755437508
 20
4.42198006714193
 30
0.0
 11
141.4007554375081
 21
19.34453281107327
 31
0.0
  0
LINE
  5
9D28
330
9D15
100
AcDbEntity
  8
contour
 62
     4
100
AcDbLine
 10
138.1587554375081
 20
4.42198006714193
 30
0.0
 11
138.1587554375081
 21
19.34453281107336
 31
0.0
  0
LINE
  5
9D29
330
9D15
100
AcDbEntity
  8
contour
100
AcDbLine
 10
143.2797554375081
 20
0.0655328110734672
 30
0.0
 11
136.2797554375081
 21
0.0655328110735241
 31
0.0
  0
LINE
  5
9D2A
330
9D15
100
AcDbEntity
  8
bowle
 48
0.1
100
AcDbLine
 10
140.6457808412925
 20
-0.234467188926601
 30
0.0
 11
140.6457808412925
 21
1.965532811073387
 31
0.0
  0
LINE
  5
9D2B
330
9D15
100
AcDbEntity
  8
bowle
 48
0.1
100
AcDbLine
 10
141.511806245077
 20
-0.2344671889266578
 30
0.0
 11
141.511806245077
 21
1.965532811073387
 31
0.0
  0
LINE
  5
9D2C
330
9D15
100
AcDbEntity
  8
bowle
 48
0.1
100
AcDbLine
 10
138.9137300337237
 20
-0.234467188926601
 30
0.0
 11
138.9137300337237
 21
1.96553281107333
 31
0.0
  0
LINE
  5
9D2D
330
9D15
100
AcDbEntity
  8
bowle
 48
0.1
100
AcDbLine
 10
138.0477046299392
 20
-0.2344671889266578
 30
0.0
 11
138.0477046299391
 21
1.96553281107333
 31
0.0
  0
LINE
  5
9D2E
330
9D15
100
AcDbEntity
  8
bowle
 48
0.1
100
AcDbLine
 10
141.511806245077
 20
1.965532811073387
 30
0.0
 11
138.0477046299391
 21
1.965532811073387
 31
0.0
  0
LINE
  5
9D2F
330
9D15
100
AcDbEntity
  8
bowle
 48
0.1
100
AcDbLine
 10
138.0477046299391
 20
1.96553281107333
 30
0.0
 11
139.779755437508
 21
2.96553281107333
 31
0.0
  0
LINE
  5
9D30
330
9D15
100
AcDbEntity
  8
bowle
 48
0.1
100
AcDbLine
 10
141.511806245077
 20
1.96553281107333
 30
0.0
 11
139.779755437508
 21
2.96553281107333
 31
0.0
  0
LINE
  5
9D31
330
9D15
100
AcDbEntity
  8
contour
 62
     4
100
AcDbLine
 10
138.1587554375081
 20
4.421980067141987
 30
0.0
 11
137.7797554375081
 21
3.765532811073342
 31
0.0
  0
LINE
  5
9D32
330
9D15
100
AcDbEntity
  8
contour
100
AcDbLine
 10
137.7797554375081
 20
4.42198006714193
 30
0.0
 11
141.7797554375081
 21
4.42198006714193
 31
0.0
  0
LINE
  5
9D33
330
9D15
100
AcDbEntity
  8
contour
 62
     4
100
AcDbLine
 10
141.7797554375081
 20
3.765532811073398
 30
0.0
 11
141.400755437508
 21
4.42198006714193
 31
0.0
  0
ENDBLK
  5
9D1A
330
9D15
100
AcDbEntity
  8
0
100
AcDbBlockEnd
  0
BLOCK
  5
A4B4
330
A4B0
100
AcDbEntity
  8
0
100
AcDbBlockBegin
  2
ls1
 70
     0
 10
0.0
 20
0.0
 30
0.0
  3
ls1
  1

  0
LINE
  5
A4B6
330
A4B0
100
AcDbEntity
  8
contour
100
AcDbLine
 10
312.2788343297738
 20
4.477662871771769
 30
0.0
 11
312.2788343297738
 21
8.177662871771701
 31
0.0
  0
LINE
  5
A4B7
330
A4B0
100
AcDbEntity
  8
contour
100
AcDbLine
 10
312.2788343297738
 20
8.177662871771701
 30
0.0
 11
319.2788343297737
 21
8.177662871771701
 31
0.0
  0
LINE
  5
A4B8
330
A4B0
100
AcDbEntity
  8
contour
100
AcDbLine
 10
314.5788343297738
 20
26.1776628717717
 30
0.0
 11
316.9788343297738
 21
26.17766287177165
 31
0.0
  0
LINE
  5
A4B9
330
A4B0
100
AcDbEntity
  8
contour
100
AcDbLine
 10
313.7788343297738
 20
25.37766287177163
 30
0.0
 11
314.5788343297738
 21
26.17766287177165
 31
0.0
  0
LINE
  5
A4BA
330
A4B0
100
AcDbEntity
  8
contour
100
AcDbLine
 10
319.2788343297737
 20
8.177662871771701
 30
0.0
 11
319.2788343297737
 21
4.477662871771656
 31
0.0
  0
LINE
  5
A4BB
330
A4B0
100
AcDbEntity
  8
contour
100
AcDbLine
 10
318.9788343297738
 20
4.177662871771644
 30
0.0
 11
312.5788343297738
 21
4.177662871771758
 31
0.0
  0
LINE
  5
A4BC
330
A4B0
100
AcDbEntity
  8
contour
100
AcDbLine
 10
312.2788343297738
 20
4.477662871771769
 30
0.0
 11
312.5788343297738
 21
4.177662871771758
 31
0.0
  0
LINE
  5
A4BD
330
A4B0
100
AcDbEntity
  8
contour
100
AcDbLine
 10
319.2788343297737
 20
4.477662871771656
 30
0.0
 11
318.9788343297738
 21
4.177662871771644
 31
0.0
  0
LINE
  5
A4BE
330
A4B0
100
AcDbEntity
  8
contour
100
AcDbLine
 10
313.7788343297738
 20
8.177662871771644
 30
0.0
 11
313.7788343297738
 21
25.3776628717716
 31
0.0
  0
LINE
  5
A4BF
330
A4B0
100
AcDbEntity
  8
contour
100
AcDbLine
 10
317.7788343297738
 20
8.177662871771644
 30
0.0
 11
317.7788343297738
 21
25.37766287177162
 31
0.0
  0
LINE
  5
A4C0
330
A4B0
100
AcDbEntity
  8
contour
100
AcDbLine
 10
316.9788343297738
 20
26.17766287177165
 30
0.0
 11
317.7788343297738
 21
25.37766287177163
 31
0.0
  0
LINE
  5
A4C1
330
A4B0
100
AcDbEntity
  8
contour
100
AcDbLine
 10
313.7788343297738
 20
25.37766287177169
 30
0.0
 11
317.7788343297738
 21
25.37766287177169
 31
0.0
  0
LINE
  5
A4C2
330
A4B0
100
AcDbEntity
  8
contour
 62
     4
100
AcDbLine
 10
314.1578343297738
 20
8.834110127840233
 30
0.0
 11
314.1578343297738
 21
25.75666287177164
 31
0.0
  0
LINE
  5
A4C3
330
A4B0
100
AcDbEntity
  8
contour
 62
     4
100
AcDbLine
 10
317.3998343297737
 20
8.834110127840233
 30
0.0
 11
317.3998343297737
 21
25.75666287177173
 31
0.0
  0
LINE
  5
A4C4
330
A4B0
100
AcDbEntity
  8
contour
100
AcDbLine
 10
312.2788343297738
 20
4.477662871771769
 30
0.0
 11
319.2788343297737
 21
4.477662871771826
 31
0.0
  0
LINE
  5
A4C5
330
A4B0
100
AcDbEntity
  8
bowle
 48
0.1
100
AcDbLine
 10
314.9128089259893
 20
4.177662871771701
 30
0.0
 11
314.9128089259893
 21
6.37766287177169
 31
0.0
  0
LINE
  5
A4C6
330
A4B0
100
AcDbEntity
  8
bowle
 48
0.1
100
AcDbLine
 10
314.0467835222048
 20
4.177662871771644
 30
0.0
 11
314.0467835222048
 21
6.37766287177169
 31
0.0
  0
LINE
  5
A4C7
330
A4B0
100
AcDbEntity
  8
bowle
 48
0.1
100
AcDbLine
 10
316.6448597335582
 20
4.177662871771701
 30
0.0
 11
316.6448597335582
 21
6.377662871771633
 31
0.0
  0
LINE
  5
A4C8
330
A4B0
100
AcDbEntity
  8
bowle
 48
0.1
100
AcDbLine
 10
317.5108851373427
 20
4.177662871771644
 30
0.0
 11
317.5108851373427
 21
6.377662871771633
 31
0.0
  0
LINE
  5
A4C9
330
A4B0
100
AcDbEntity
  8
bowle
 48
0.1
100
AcDbLine
 10
314.0467835222049
 20
6.37766287177169
 30
0.0
 11
317.5108851373427
 21
6.37766287177169
 31
0.0
  0
LINE
  5
A4CA
330
A4B0
100
AcDbEntity
  8
bowle
 48
0.1
100
AcDbLine
 10
317.5108851373427
 20
6.377662871771633
 30
0.0
 11
315.7788343297739
 21
7.377662871771633
 31
0.0
  0
LINE
  5
A4CB
330
A4B0
100
AcDbEntity
  8
bowle
 48
0.1
100
AcDbLine
 10
314.0467835222049
 20
6.377662871771633
 30
0.0
 11
315.7788343297739
 21
7.377662871771633
 31
0.0
  0
LINE
  5
A4CC
330
A4B0
100
AcDbEntity
  8
contour
 62
     4
100
AcDbLine
 10
317.3998343297737
 20
8.83411012784029
 30
0.0
 11
317.7788343297738
 21
8.177662871771644
 31
0.0
  0
LINE
  5
A4CD
330
A4B0
100
AcDbEntity
  8
contour
100
AcDbLine
 10
317.7788343297738
 20
8.834110127840233
 30
0.0
 11
313.7788343297738
 21
8.834110127840233
 31
0.0
  0
LINE
  5
A4CE
330
A4B0
100
AcDbEntity
  8
contour
 62
     4
100
AcDbLine
 10
313.7788343297738
 20
8.177662871771701
 30
0.0
 11
314.1578343297738
 21
8.834110127840233
 31
0.0
  0
ENDBLK
  5
A4B5
330
A4B0
100
AcDbEntity
  8
0
100
AcDbBlockEnd
  0
BLOCK
  5
A8B9
330
A8B0
100
AcDbEntity
  8
0
100
AcDbBlockBegin
  2
*D6
 70
     1
 10
0.0
 20
0.0
 30
0.0
  3
*D6
  1

  0
LINE
  5
A8B1
330
A8B0
100
AcDbEntity
  8
mark
370
    -2
100
AcDbLine
 10
147.8396787719288
 20
204.4969095477799
 30
0.0
 11
125.9535018851883
 21
200.3661221152455
 31
0.0
  0
LINE
  5
A8B2
330
A8B0
100
AcDbEntity
  8
mark
370
    -2
100
AcDbLine
 10
64.04649811481172
 20
188.6818213584763
 30
0.0
 11
61.58987098106663
 21
188.2181586300331
 31
0.0
  0
MTEXT
  5
A8B3
330
A8B0
100
AcDbEntity
  8
mark
 62
     3
100
AcDbMText
 10
138.8356295977037
 20
204.9345657057182
 30
0.0
 40
2.5
 41
0.0
 71
     5
 72
     1
  1
\A1;P.C.D 58
 11
0.9826508534980337
 21
0.1854650913772879
 31
0.0
 73
     1
 44
1.0
  0
LINE
  5
A8B4
330
A8B0
100
AcDbEntity
  8
mark
370
    -2
100
AcDbLine
 10
66.50312524855682
 20
189.1454840869195
 30
0.0
 11
123.4968747514432
 21
199.9024593868023
 31
0.0
  0
INSERT
  5
A8B5
330
A8B0
100
AcDbEntity
  8
mark
370
    -2
100
AcDbBlockReference
  2
_Open30
 10
66.50312524855682
 20
189.1454840869195
 30
0.0
 41
2.5
 42
2.5
 43
2.5
 50
10.68824943909705
  0
INSERT
  5
A8B6
330
A8B0
100
AcDbEntity
  8
mark
370
    -2
100
AcDbBlockReference
  2
_Open30
 10
123.4968747514432
 20
199.9024593868023
 30
0.0
 41
2.5
 42
2.5
 43
2.5
 50
190.688249439097
  0
POINT
  5
A8B7
330
A8B0
100
AcDbEntity
  8
DEFPOINTS
 62
     0
100
AcDbPoint
 10
123.4968747514432
 20
199.9024593868023
 30
0.0
  0
POINT
  5
A8B8
330
A8B0
100
AcDbEntity
  8
DEFPOINTS
 62
     0
100
AcDbPoint
 10
66.50312524855682
 20
189.1454840869195
 30
0.0
  0
ENDBLK
  5
A8BA
330
A8B0
100
AcDbEntity
  8
0
100
AcDbBlockEnd
  0
BLOCK
  5
A8C7
330
A8BE
100
AcDbEntity
  8
0
100
AcDbBlockBegin
  2
*D7
 70
     1
 10
0.0
 20
0.0
 30
0.0
  3
*D7
  1

  0
LINE
  5
A8BF
330
A8BE
100
AcDbEntity
  8
mark
370
    -2
100
AcDbLine
 10
40.06280896200023
 20
207.6226272435571
 30
0.0
 11
63.62936497017219
 21
202.0036614246315
 31
0.0
  0
LINE
  5
A8C0
330
A8BE
100
AcDbEntity
  8
mark
370
    -2
100
AcDbLine
 10
126.3706350298278
 20
187.0442820490903
 30
0.0
 11
128.8024672026827
 21
186.4644611430616
 31
0.0
  0
MTEXT
  5
A8C1
330
A8BE
100
AcDbEntity
  8
mark
 62
     3
100
AcDbMText
 10
50.69870479111202
 20
207.245580354262
 30
0.0
 40
2.5
 41
0.0
 71
     5
 72
     1
  1
\A1;P.C.D 59.5
 11
0.9727328691419469
 21
-0.2319283624114908
 31
0.0
 73
     1
 44
1.0
  0
LINE
  5
A8C2
330
A8BE
100
AcDbEntity
  8
mark
370
    -2
100
AcDbLine
 10
123.9388028569729
 20
187.624102955119
 30
0.0
 11
66.06119714302706
 21
201.4238405186028
 31
0.0
  0
INSERT
  5
A8C3
330
A8BE
100
AcDbEntity
  8
mark
370
    -2
100
AcDbBlockReference
  2
_Open30
 10
123.9388028569729
 20
187.624102955119
 30
0.0
 41
2.5
 42
2.5
 43
2.5
 50
166.5893708683416
  0
INSERT
  5
A8C4
330
A8BE
100
AcDbEntity
  8
mark
370
    -2
100
AcDbBlockReference
  2
_Open30
 10
66.06119714302706
 20
201.4238405186028
 30
0.0
 41
2.5
 42
2.5
 43
2.5
 50
346.5893708683416
  0
POINT
  5
A8C5
330
A8BE
100
AcDbEntity
  8
DEFPOINTS
 62
     0
100
AcDbPoint
 10
66.06119714302706
 20
201.4238405186028
 30
0.0
  0
POINT
  5
A8C6
330
A8BE
100
AcDbEntity
  8
DEFPOINTS
 62
     0
100
AcDbPoint
 10
123.9388028569729
 20
187.624102955119
 30
0.0
  0
ENDBLK
  5
A8C8
330
A8BE
100
AcDbEntity
  8
0
100
AcDbBlockEnd
  0
BLOCK
  5
A8D4
330
A8CA
100
AcDbEntity
  8
0
100
AcDbBlockBegin
  2
*D8
 70
     1
 10
0.0
 20
0.0
 30
0.0
  3
*D8
  1

  0
LINE
  5
A8CB
330
A8CA
100
AcDbEntity
  8
mark
370
    -2
100
AcDbLine
 10
129.0
 20
113.260403161786
 30
0.0
 11
129.0
 21
123.3279115961709
 31
0.0
  0
LINE
  5
A8CC
330
A8CA
100
AcDbEntity
  8
mark
370
    -2
100
AcDbLine
 10
61.00000000000004
 20
113.260403161786
 30
0.0
 11
61.00000000000004
 21
123.3279115961709
 31
0.0
  0
LINE
  5
A8CD
330
A8CA
100
AcDbEntity
  8
mark
370
    -2
100
AcDbLine
 10
126.5
 20
122.4779115961709
 30
0.0
 11
63.50000000000004
 21
122.4779115961709
 31
0.0
  0
INSERT
  5
A8CE
330
A8CA
100
AcDbEntity
  8
mark
370
    -2
100
AcDbBlockReference
  2
_Open30
 10
129.0
 20
122.4779115961709
 30
0.0
 41
2.5
 42
2.5
 43
2.5
  0
INSERT
  5
A8CF
330
A8CA
100
AcDbEntity
  8
mark
370
    -2
100
AcDbBlockReference
  2
_Open30
 10
61.00000000000004
 20
122.4779115961709
 30
0.0
 41
2.5
 42
2.5
 43
2.5
 50
180.0
  0
MTEXT
  5
A8D0
330
A8CA
100
AcDbEntity
  8
mark
 62
     3
100
AcDbMText
 10
95.00000000000003
 20
124.5779115961709
 30
0.0
 40
2.5
 41
0.0
 71
     5
 72
     1
  1
\A1;%%C68
 73
     1
 44
1.0
  0
POINT
  5
A8D1
330
A8CA
100
AcDbEntity
  8
DEFPOINTS
 62
     0
100
AcDbPoint
 10
129.0
 20
112.410403161786
 30
0.0
  0
POINT
  5
A8D2
330
A8CA
100
AcDbEntity
  8
DEFPOINTS
 62
     0
100
AcDbPoint
 10
61.00000000000004
 20
112.410403161786
 30
0.0
  0
POINT
  5
A8D3
330
A8CA
100
AcDbEntity
  8
DEFPOINTS
 62
     0
100
AcDbPoint
 10
61.00000000000004
 20
122.4779115961709
 30
0.0
  0
ENDBLK
  5
A8D5
330
A8CA
100
AcDbEntity
  8
0
100
AcDbBlockEnd
  0
BLOCK
  5
A8FD
330
A8F3
100
AcDbEntity
  8
0
100
AcDbBlockBegin
  2
*D9
 70
     1
 10
0.0
 20
0.0
 30
0.0
  3
*D9
  1

  0
LINE
  5
A8F4
330
A8F3
100
AcDbEntity
  8
mark
370
    -2
100
AcDbLine
 10
58.15000000000003
 20
104.4104031617862
 30
0.0
 11
52.95360769329309
 21
104.4104031617862
 31
0.0
  0
LINE
  5
A8F5
330
A8F3
100
AcDbEntity
  8
mark
370
    -2
100
AcDbLine
 10
61.15000000000002
 20
113.4104031617862
 30
0.0
 11
52.9536076932931
 21
113.4104031617862
 31
0.0
  0
LINE
  5
A8F6
330
A8F3
100
AcDbEntity
  8
mark
370
    -2
100
AcDbLine
 10
53.80360769329309
 20
106.9104031617862
 30
0.0
 11
53.80360769329309
 21
110.9104031617862
 31
0.0
  0
INSERT
  5
A8F7
330
A8F3
100
AcDbEntity
  8
mark
370
    -2
100
AcDbBlockReference
  2
_Open30
 10
53.80360769329309
 20
104.4104031617862
 30
0.0
 41
2.5
 42
2.5
 43
2.5
 50
270.0
  0
INSERT
  5
A8F8
330
A8F3
100
AcDbEntity
  8
mark
370
    -2
100
AcDbBlockReference
  2
_Open30
 10
53.8036076932931
 20
113.4104031617862
 30
0.0
 41
2.5
 42
2.5
 43
2.5
 50
90.0
  0
MTEXT
  5
A8F9
330
A8F3
100
AcDbEntity
  8
mark
 62
     3
100
AcDbMText
 10
51.70360769329307
 20
108.9104031617862
 30
0.0
 40
2.5
 41
0.0
 71
     5
 72
     1
  1
\A1;9
 11
0.0000000000000001
 21
1.0
 31
0.0
 73
     1
 44
1.0
  0
POINT
  5
A8FA
330
A8F3
100
AcDbEntity
  8
DEFPOINTS
 62
     0
100
AcDbPoint
 10
59.00000000000003
 20
104.4104031617862
 30
0.0
  0
POINT
  5
A8FB
330
A8F3
100
AcDbEntity
  8
DEFPOINTS
 62
     0
100
AcDbPoint
 10
62.00000000000002
 20
113.4104031617862
 30
0.0
  0
POINT
  5
A8FC
330
A8F3
100
AcDbEntity
  8
DEFPOINTS
 62
     0
100
AcDbPoint
 10
53.8036076932931
 20
113.4104031617862
 30
0.0
  0
ENDBLK
  5
A8FE
330
A8F3
100
AcDbEntity
  8
0
100
AcDbBlockEnd
  0
BLOCK
  5
A90A
330
A900
100
AcDbEntity
  8
0
100
AcDbBlockBegin
  2
*D10
 70
     1
 10
0.0
 20
0.0
 30
0.0
  3
*D10
  1

  0
LINE
  5
A901
330
A900
100
AcDbEntity
  8
mark
370
    -2
100
AcDbLine
 10
128.85
 20
113.4104031617862
 30
0.0
 11
138.796612127143
 21
113.4104031617862
 31
0.0
  0
LINE
  5
A902
330
A900
100
AcDbEntity
  8
mark
370
    -2
100
AcDbLine
 10
128.85
 20
95.51040316178623
 30
0.0
 11
138.796612127143
 21
95.51040316178623
 31
0.0
  0
LINE
  5
A903
330
A900
100
AcDbEntity
  8
mark
370
    -2
100
AcDbLine
 10
137.946612127143
 20
110.9104031617862
 30
0.0
 11
137.946612127143
 21
98.01040316178623
 31
0.0
  0
INSERT
  5
A904
330
A900
100
AcDbEntity
  8
mark
370
    -2
100
AcDbBlockReference
  2
_Open30
 10
137.946612127143
 20
113.4104031617862
 30
0.0
 41
2.5
 42
2.5
 43
2.5
 50
90.0
  0
INSERT
  5
A905
330
A900
100
AcDbEntity
  8
mark
370
    -2
100
AcDbBlockReference
  2
_Open30
 10
137.946612127143
 20
95.51040316178623
 30
0.0
 41
2.5
 42
2.5
 43
2.5
 50
270.0
  0
MTEXT
  5
A906
330
A900
100
AcDbEntity
  8
mark
 62
     3
100
AcDbMText
 10
135.8466121271429
 20
104.4604031617862
 30
0.0
 40
2.5
 41
0.0
 71
     5
 72
     1
  1
\A1;17.9
 11
0.0000000000000001
 21
1.0
 31
0.0
 73
     1
 44
1.0
  0
POINT
  5
A907
330
A900
100
AcDbEntity
  8
DEFPOINTS
 62
     0
100
AcDbPoint
 10
128.0
 20
113.4104031617862
 30
0.0
  0
POINT
  5
A908
330
A900
100
AcDbEntity
  8
DEFPOINTS
 62
     0
100
AcDbPoint
 10
128.0
 20
95.51040316178623
 30
0.0
  0
POINT
  5
A909
330
A900
100
AcDbEntity
  8
DEFPOINTS
 62
     0
100
AcDbPoint
 10
137.946612127143
 20
95.51040316178623
 30
0.0
  0
ENDBLK
  5
A90B
330
A900
100
AcDbEntity
  8
0
100
AcDbBlockEnd
  0
BLOCK
  5
A931
330
A927
100
AcDbEntity
  8
0
100
AcDbBlockBegin
  2
*D11
 70
     1
 10
0.0
 20
0.0
 30
0.0
  3
*D11
  1

  0
LINE
  5
AA38
330
A927
100
AcDbEntity
  8
mark
370
    -2
100
AcDbLine
 10
128.85
 20
113.4104031617862
 30
0.0
 11
145.7308360927536
 21
113.4104031617862
 31
0.0
  0
LINE
  5
AA39
330
A927
100
AcDbEntity
  8
mark
370
    -2
100
AcDbLine
 10
128.85
 20
88.41040316178624
 30
0.0
 11
145.7308360927536
 21
88.41040316178624
 31
0.0
  0
LINE
  5
AA3A
330
A927
100
AcDbEntity
  8
mark
370
    -2
100
AcDbLine
 10
144.8808360927536
 20
110.9104031617862
 30
0.0
 11
144.8808360927536
 21
90.91040316178624
 31
0.0
  0
INSERT
  5
AA3B
330
A927
100
AcDbEntity
  8
mark
370
    -2
100
AcDbBlockReference
  2
_Open30
 10
144.8808360927536
 20
113.4104031617862
 30
0.0
 41
2.5
 42
2.5
 43
2.5
 50
90.0
  0
INSERT
  5
AA3C
330
A927
100
AcDbEntity
  8
mark
370
    -2
100
AcDbBlockReference
  2
_Open30
 10
144.8808360927536
 20
88.41040316178624
 30
0.0
 41
2.5
 42
2.5
 43
2.5
 50
270.0
  0
MTEXT
  5
AA3D
330
A927
100
AcDbEntity
  8
mark
 62
     3
100
AcDbMText
 10
142.7808360927536
 20
100.9104031617862
 30
0.0
 40
2.5
 41
0.0
 71
     5
 72
     1
  1
\A1;25%%P0.2
 11
0.0000000000000001
 21
1.0
 31
0.0
 73
     1
 44
1.0
  0
POINT
  5
AA3E
330
A927
100
AcDbEntity
  8
DEFPOINTS
 62
     0
100
AcDbPoint
 10
128.0
 20
113.4104031617862
 30
0.0
  0
POINT
  5
AA3F
330
A927
100
AcDbEntity
  8
DEFPOINTS
 62
     0
100
AcDbPoint
 10
128.0
 20
88.41040316178624
 30
0.0
  0
POINT
  5
AA40
330
A927
100
AcDbEntity
  8
DEFPOINTS
 62
     0
100
AcDbPoint
 10
144.8808360927536
 20
88.41040316178624
 30
0.0
  0
ENDBLK
  5
A932
330
A927
100
AcDbEntity
  8
0
100
AcDbBlockEnd
  0
BLOCK
  5
A94D
330
A943
100
AcDbEntity
  8
0
100
AcDbBlockBegin
  2
*D12
 70
     1
 10
0.0
 20
0.0
 30
0.0
  3
*D12
  1

  0
LINE
  5
A944
330
A943
100
AcDbEntity
  8
mark
370
    -2
100
AcDbLine
 10
71.0
 20
88.24840316178621
 30
0.0
 11
71.0
 21
75.2684400624278
 31
0.0
  0
LINE
  5
A945
330
A943
100
AcDbEntity
  8
mark
370
    -2
100
AcDbLine
 10
119.0
 20
88.24840316178621
 30
0.0
 11
119.0
 21
75.2684400624278
 31
0.0
  0
LINE
  5
A946
330
A943
100
AcDbEntity
  8
mark
370
    -2
100
AcDbLine
 10
73.5
 20
76.1184400624278
 30
0.0
 11
116.5
 21
76.1184400624278
 31
0.0
  0
INSERT
  5
A947
330
A943
100
AcDbEntity
  8
mark
370
    -2
100
AcDbBlockReference
  2
_Open30
 10
71.0
 20
76.1184400624278
 30
0.0
 41
2.5
 42
2.5
 43
2.5
 50
180.0
  0
INSERT
  5
A948
330
A943
100
AcDbEntity
  8
mark
370
    -2
100
AcDbBlockReference
  2
_Open30
 10
119.0
 20
76.1184400624278
 30
0.0
 41
2.5
 42
2.5
 43
2.5
  0
MTEXT
  5
A949
330
A943
100
AcDbEntity
  8
mark
 62
     3
100
AcDbMText
 10
95.0
 20
78.21844006242779
 30
0.0
 40
2.5
 41
0.0
 71
     5
 72
     1
  1
\A1;M48X1.5P
 73
     1
 44
1.0
  0
POINT
  5
A94A
330
A943
100
AcDbEntity
  8
DEFPOINTS
 62
     0
100
AcDbPoint
 10
71.0
 20
89.09840316178621
 30
0.0
  0
POINT
  5
A94B
330
A943
100
AcDbEntity
  8
DEFPOINTS
 62
     0
100
AcDbPoint
 10
119.0
 20
89.09840316178621
 30
0.0
  0
POINT
  5
A94C
330
A943
100
AcDbEntity
  8
DEFPOINTS
 62
     0
100
AcDbPoint
 10
119.0
 20
76.1184400624278
 30
0.0
  0
ENDBLK
  5
A94E
330
A943
100
AcDbEntity
  8
0
100
AcDbBlockEnd
  0
BLOCK
  5
A97D
330
A976
100
AcDbEntity
  8
0
100
AcDbBlockBegin
  2
*D13
 70
     1
 10
0.0
 20
0.0
 30
0.0
  3
*D13
  1

  0
LINE
  5
A97F
330
A976
100
AcDbEntity
  8
mark
370
    -2
100
AcDbLine
 10
54.19825518090839
 20
81.60865834269472
 30
0.0
 11
59.52512626584709
 21
86.93552942763332
 31
0.0
  0
MTEXT
  5
A980
330
A976
100
AcDbEntity
  8
mark
 62
     3
100
AcDbMText
 10
54.49288300640282
 20
84.87313464917262
 30
0.0
 40
2.5
 41
0.0
 71
     5
 72
     1
  1
\A1;R1
 11
0.7071067811865545
 21
0.7071067811865407
 31
0.0
 73
     1
 44
1.0
  0
LINE
  5
A981
330
A976
100
AcDbEntity
  8
mark
370
    -2
100
AcDbLine
 10
62.00000000000001
 20
89.4104031617862
 30
0.0
 11
61.29289321881349
 21
88.70329638059969
 31
0.0
  0
INSERT
  5
A982
330
A976
100
AcDbEntity
  8
mark
370
    -2
100
AcDbBlockReference
  2
_Open30
 10
61.29289321881349
 20
88.70329638059969
 30
0.0
 41
2.5
 42
2.5
 43
2.5
 50
44.99999999999944
  0
POINT
  5
A983
330
A976
100
AcDbEntity
  8
DEFPOINTS
 62
     0
100
AcDbPoint
 10
61.29289321881349
 20
88.70329638059969
 30
0.0
  0
POINT
  5
A984
330
A976
100
AcDbEntity
  8
DEFPOINTS
 62
     0
100
AcDbPoint
 10
62.00000000000001
 20
89.4104031617862
 30
0.0
  0
ENDBLK
  5
A97E
330
A976
100
AcDbEntity
  8
0
100
AcDbBlockEnd
  0
ENDSEC
  0
SECTION
  2
ENTITIES
  0
MTEXT
  5
C0
330
18
100
AcDbEntity
  8
0
100
AcDbMText
 10
41.26970765600413
 20
233.6950877649332
 30
0.0
 40
2.5
 41
0.0
 71
     1
 72
     5
  1

  7
ISOCP3
 73
     1
 44
1.0
  0
LWPOLYLINE
  5
7D6C
330
18
100
AcDbEntity
  8
frame
100
AcDbPolyline
 90
        4
 70
     1
 43
0.0
 10
190.0
 20
280.0
 10
0.0
 20
280.0
 10
0.0
 20
0.0
 10
190.0
 20
0.0
  0
MTEXT
  5
7D6D
330
18
100
AcDbEntity
  8
0
100
AcDbMText
 10
17.09950368689175
 20
19.07605901616614
 30
0.0
 40
4.5
 41
0.0
 71
     1
 72
     5
  1
{\Ftxt,bigfont|c128;林彦旭}
  7
JL
 73
     1
 44
1.0
1001
ACAD
1000
ACAD_MTEXT_DEFINED_HEIGHT_BEGIN
1070
    46
1040
0.0
1000
ACAD_MTEXT_DEFINED_HEIGHT_END
  0
MTEXT
  5
7D6E
330
18
100
AcDbEntity
  8
0
100
AcDbMText
 10
77.95294729228851
 20
28.93578979870677
 30
0.0
 40
4.5
 41
0.0
 71
     1
 72
     5
  1
{\Ftxt,bigfont|c128;1 : 1}
  7
JL
 73
     1
 44
1.0
1001
ACAD
1000
ACAD_MTEXT_DEFINED_HEIGHT_BEGIN
1070
    46
1040
0.0
1000
ACAD_MTEXT_DEFINED_HEIGHT_END
  0
MTEXT
  5
7D6F
330
18
100
AcDbEntity
  8
0
 48
2.0
370
    25
100
AcDbMText
 10
140.2194500465656
 20
3.490021654633892
 30
0.0
 40
4.5
 41
0.0
 71
     5
 72
     1
  1
{\Ftxt,bigfont|c128;N L 4 0 2 7 7}
 73
     1
 44
1.0
1001
ACAD
1000
ACAD_MTEXT_DEFINED_HEIGHT_BEGIN
1070
    46
1040
0.0
1000
ACAD_MTEXT_DEFINED_HEIGHT_END
  0
MTEXT
  5
7D70
330
18
100
AcDbEntity
  8
0
 48
2.0
100
AcDbMText
 10
169.6700717289474
 20
21.76437127823692
 30
0.0
 40
4.318181818181822
 41
0.0
 71
     5
 72
     1
  1
\P{\Ftxt,bigfont|c128;MKR48X1.5P}
 73
     1
 44
1.0
1001
ACAD
1000
ACAD_MTEXT_DEFINED_HEIGHT_BEGIN
1070
    46
1040
0.0
1000
ACAD_MTEXT_DEFINED_HEIGHT_END
  0
MTEXT
  5
7D71
330
18
100
AcDbEntity
  8
0
100
AcDbMText
 10
15.3760677136774
 20
28.37740359834709
 30
0.0
 40
4.5
 41
0.0
 71
     1
 72
     5
  1
{\Ftxt,bigfont|c128;06.10.18}
  7
JL
 73
     1
 44
1.0
1001
ACAD
1000
ACAD_MTEXT_DEFINED_HEIGHT_BEGIN
1070
    46
1040
0.0
1000
ACAD_MTEXT_DEFINED_HEIGHT_END
  0
LINE
  5
7D72
330
18
100
AcDbEntity
  8
0
 62
     7
 48
5.0
100
AcDbLine
 39
3.838383838383842
 10
47.92942413992534
 20
27.65712907016086
 30
0.0
 11
53.04580144287854
 21
28.93622339589922
 31
0.0
  0
MTEXT
  5
7D73
330
18
100
AcDbEntity
  8
0
100
AcDbMText
 10
14.91235548326415
 20
9.242195050049303
 30
0.0
 40
6.0
 41
0.0
 71
     1
 72
     5
  1
\Ftxt.shx,bigfont.shx|c128;日機株式会社
  7
LKK
 73
     1
 44
1.0
  0
LINE
  5
7D74
330
18
100
AcDbEntity
  8
frame
100
AcDbLine
 10
0.0
 20
12.0
 30
0.0
 11
190.0
 21
12.00000000000005
 31
0.0
  0
LINE
  5
7D75
330
18
100
AcDbEntity
  8
frame
100
AcDbLine
 10
0.0
 20
22.0
 30
0.0
 11
92.12121212121223
 21
22.0
 31
0.0
  0
LINE
  5
7D76
330
18
100
AcDbEntity
  8
frame
100
AcDbLine
 10
0.0
 20
32.0
 30
0.0
 11
190.0
 21
32.0
 31
0.0
  0
LINE
  5
7D77
330
18
100
AcDbEntity
  8
frame
100
AcDbLine
 10
12.19077332493799
 20
32.0
 30
0.0
 11
12.19077332493799
 21
12.0
 31
0.0
  0
LINE
  5
7D78
330
18
100
AcDbEntity
  8
frame
100
AcDbLine
 10
30.70707070707067
 20
32.0
 30
0.0
 11
30.70707070707078
 21
12.0
 31
0.0
  0
MTEXT
  5
7D79
330
18
100
AcDbEntity
  8
0
100
AcDbMText
 10
2.830274784221955
 20
29.08190089582831
 30
0.0
 40
4.5
 41
0.0
 71
     1
 72
     5
  1
\Ftxt.shx,bigfont.shx|c128;日 付
  7
JL
 73
     1
 44
1.0
  0
MTEXT
  5
7D7A
330
18
100
AcDbEntity
  8
0
100
AcDbMText
 10
2.97063307743889
 20
19.52163842926637
 30
0.0
 40
4.5
 41
0.0
 71
     1
 72
     5
  1
\Ftxt.shx,bigfont.shx|c128;製 図
  7
JL
 73
     1
 44
1.0
  0
LINE
  5
7D7B
330
18
100
AcDbEntity
  8
0
 62
     7
370
    25
100
AcDbLine
 10
53.04580144287854
 20
23.81984609294597
 30
0.0
 11
53.04580144287854
 21
28.93622339589922
 31
0.0
  0
MTEXT
  5
7D7C
330
18
100
AcDbEntity
  8
0
100
AcDbMText
 10
64.00748852490835
 20
29.12242703792379
 30
0.0
 40
4.5
 41
0.0
 71
     1
 72
     5
  1
\Ftxt.shx,bigfont.shx|c128;尺 度
  7
JL
 73
     1
 44
1.0
  0
LINE
  5
7D7D
330
18
100
AcDbEntity
  8
frame
100
AcDbLine
 10
61.41414141414145
 20
32.0
 30
0.0
 11
61.41414141414145
 21
12.0
 31
0.0
  0
LINE
  5
7D7E
330
18
100
AcDbEntity
  8
0
 62
     7
370
    25
100
AcDbLine
 10
39.6153110226262
 20
23.18889018332635
 30
0.0
 11
39.6153110226262
 21
29.36457992429672
 31
0.0
  0
CIRCLE
  5
7D7F
330
18
100
AcDbEntity
  8
0
 62
     7
100
AcDbCircle
 10
39.6153110226262
 20
26.37803474442251
 30
0.0
 40
2.558188651476678
  0
LINE
  5
7D80
330
18
100
AcDbEntity
  8
0
 62
     7
370
    25
100
AcDbLine
 10
47.19321986919976
 20
26.37803474442262
 30
0.0
 11
53.50512581624241
 21
26.37803474442262
 31
0.0
  0
LINE
  5
7D81
330
18
100
AcDbEntity
  8
0
 62
     7
100
AcDbLine
 10
47.92942413992534
 20
25.09894041868427
 30
0.0
 11
53.04580144287854
 21
23.81984609294597
 31
0.0
  0
LINE
  5
7D82
330
18
100
AcDbEntity
  8
frame
100
AcDbLine
 10
42.742241959951
 20
22.0
 30
0.0
 11
42.742241959951
 21
12.0
 31
0.0
  0
LINE
  5
7D83
330
18
100
AcDbEntity
  8
0
 62
     7
370
    25
100
AcDbLine
 10
36.41832228486612
 20
26.37803474442251
 30
0.0
 11
43.00325267619268
 21
26.37803474442262
 31
0.0
  0
CIRCLE
  5
7D84
330
18
100
AcDbEntity
  8
0
 62
     7
100
AcDbCircle
 10
39.6153110226262
 20
26.37803474442251
 30
0.0
 40
1.279094325738339
  0
MTEXT
  5
7D85
330
18
100
AcDbEntity
  8
0
100
AcDbMText
 10
33.70184032462407
 20
19.41013815785266
 30
0.0
 40
4.5
 41
0.0
 71
     1
 72
     5
  1
\Ftxt.shx,bigfont.shx|c128;検 図
  7
JL
 73
     1
 44
1.0
  0
LINE
  5
7D86
330
18
100
AcDbEntity
  8
0
 62
     7
370
    25
100
AcDbLine
 10
47.92942413992534
 20
25.09894041868427
 30
0.0
 11
47.92942413992534
 21
27.65712907016086
 31
0.0
  0
MTEXT
  5
7D87
330
18
100
AcDbEntity
  8
0
100
AcDbMText
 10
64.28820249919829
 20
19.32058534748881
 30
0.0
 40
4.5
 41
0.0
 71
     1
 72
     5
  1
\Ftxt.shx,bigfont.shx|c128;承 認
  7
JL
 73
     1
 44
1.0
  0
MTEXT
  5
7D88
330
18
100
AcDbEntity
  8
0
100
AcDbMText
 10
93.71128715606699
 20
10.7026821961914
 30
0.0
 40
4.5
 41
0.0
 71
     1
 72
     5
  1
\Ftxt.shx,bigfont.shx|c128;図  面  番  号
  7
JL
 73
     1
 44
1.0
  0
MTEXT
  5
7D89
330
18
100
AcDbEntity
  8
0
 48
2.0
100
AcDbMText
 10
116.9038190021384
 20
21.8757473149584
 30
0.0
 40
4.5
 41
0.0
 71
     5
 72
     1
  1
\P\Ftxt.shx,bigfont.shx|c128;    精密ロックナット
 73
     1
 44
1.0
  0
MTEXT
  5
7D8A
330
18
100
AcDbEntity
  8
0
100
AcDbMText
 10
94.8083613031232
 20
29.03862457973275
 30
0.0
 40
4.5
 41
0.0
 71
     1
 72
     5
  1
\Ftxt.shx,bigfont.shx|c128;品  名
  7
JL
 73
     1
 44
1.0
  0
LINE
  5
7D8B
330
18
100
AcDbEntity
  8
frame
100
AcDbLine
 10
92.12121212121223
 20
32.0
 30
0.0
 11
92.12121212121223
 21
0.1833227579584786
 31
0.0
  0
LINE
  5
7D8C
330
18
100
AcDbEntity
  8
frame
100
AcDbLine
 10
73.41414141414145
 20
32.0
 30
0.0
 11
73.41414141414145
 21
12.0
 31
0.0
  0
LINE
  5
7D8D
330
18
100
AcDbEntity
  8
frame
100
AcDbLine
 10
147.0327092740656
 20
32.0
 30
0.0
 11
147.0327092740657
 21
12.0
 31
0.0
  0
MTEXT
  5
7D8E
330
18
100
AcDbEntity
  8
0
100
AcDbMText
 10
150.895959446773
 20
29.04517782830391
 30
0.0
 40
4.5
 41
0.0
 71
     1
 72
     5
  1
\Ftxt.shx,bigfont.shx|c128;型  番
  7
JL
 73
     1
 44
1.0
  0
MTEXT
  5
7D8F
330
18
100
AcDbEntity
  8
0
100
AcDbMText
 10
165.8059614810325
 20
10.78298174971564
 30
0.0
 40
4.5
 41
0.0
 71
     1
 72
     5
  1
\Ftxt.shx,bigfont.shx|c128;変更
  7
JL
 73
     1
 44
1.0
  0
LINE
  5
7D90
330
18
100
AcDbEntity
  8
frame
100
AcDbLine
 10
164.0909090909092
 20
12.00000000000005
 30
0.0
 11
164.0909090909093
 21
0.0
 31
0.0
  0
LINE
  5
7D91
330
18
100
AcDbEntity
  8
frame
100
AcDbLine
 10
124.6157900786393
 20
43.13491348924492
 30
0.0
 11
184.6157900786393
 21
43.13491348924481
 31
0.0
  0
LINE
  5
7D92
330
18
100
AcDbEntity
  8
frame
100
AcDbLine
 10
124.6157900786393
 20
50.33491348924497
 30
0.0
 11
184.6157900786393
 21
50.33491348924497
 31
0.0
  0
LINE
  5
7D93
330
18
100
AcDbEntity
  8
frame
100
AcDbLine
 10
124.6157900786393
 20
57.5349134892449
 30
0.0
 11
184.6157900786393
 21
57.53491348924478
 31
0.0
  0
LINE
  5
7D94
330
18
100
AcDbEntity
  8
frame
100
AcDbLine
 10
124.6157900786393
 20
64.73491348924494
 30
0.0
 11
184.6157900786393
 21
64.73491348924483
 31
0.0
  0
LINE
  5
7D95
330
18
100
AcDbEntity
  8
frame
100
AcDbLine
 10
124.6157900786393
 20
35.93491348924488
 30
0.0
 11
184.6157900786393
 21
35.93491348924488
 31
0.0
  0
MTEXT
  5
7D96
330
18
100
AcDbEntity
  8
0
 62
     7
 48
2.0
100
AcDbMText
 10
154.5011900445106
 20
65.52808189982909
 30
0.0
 40
4.8
 41
0.0
 71
     5
 72
     1
  1
\P\Ftxt.shx,bigfont.shx|c128;諸　　　　元
 73
     1
 44
1.0
  0
LINE
  5
7D97
330
18
100
AcDbEntity
  8
frame
100
AcDbLine
 10
124.6157900786393
 20
64.73491348924483
 30
0.0
 11
124.6157900786393
 21
35.93491348924488
 31
0.0
  0
MTEXT
  5
7D98
330
18
100
AcDbEntity
  8
0
100
AcDbMText
 10
128.1382258923195
 20
56.00840432212407
 30
0.0
 40
4.4
 41
163.916286842249
 71
     1
 72
     5
  1
\Ftxt.shx,bigfont.shx|c128;熱　処　理
  7
JL
 73
     1
 44
1.0
  0
LINE
  5
7D99
330
18
100
AcDbEntity
  8
frame
100
AcDbLine
 10
148.6157900786393
 20
57.53491348924478
 30
0.0
 11
148.6157900786393
 21
35.93491348924488
 31
0.0
  0
MTEXT
  5
7D9A
330
18
100
AcDbEntity
  8
0
100
AcDbMText
 10
127.8579515249403
 20
49.00617587486397
 30
0.0
 40
4.4
 41
163.6058628849672
 71
     1
 72
     5
  1
\Ftxt.shx,bigfont.shx|c128;表 面 処 理
  7
JL
 73
     1
 44
1.0
  0
MTEXT
  5
7D9B
330
18
100
AcDbEntity
  8
0
100
AcDbMText
 10
128.1480173733753
 20
41.71770302125605
 30
0.0
 40
4.4
 41
166.1718
 71
     1
 72
     5
  1
\Ftxt.shx,bigfont.shx|c128;等     　級
  7
JL
 73
     1
 44
1.0
  0
LINE
  5
7D9C
330
18
100
AcDbEntity
  8
frame
100
AcDbLine
 10
184.6157900786393
 20
64.73491348924483
 30
0.0
 11
184.6157900786393
 21
35.93491348924499
 31
0.0
  0
MTEXT
  5
7D9D
330
18
100
AcDbEntity
  8
0
100
AcDbMText
 10
153.3627933880818
 20
55.83344641471445
 30
0.0
 40
4.4
 41
291.8960056857887
 71
     1
 72
     5
  1
\Ftxt.shx,bigfont.shx|c128;調質　HRC30%%d%%p２%%d
  7
JL
 73
     1
 44
1.0
  0
MTEXT
  5
7D9E
330
18
100
AcDbEntity
  8
0
100
AcDbMText
 10
153.6234323895182
 20
41.7183135927072
 30
0.0
 40
4.4
 41
290.783364796891
 71
     1
 72
     5
  1
\Ftxt.shx,bigfont.shx|c128;ＩＳＯ - ４Ｈ
  7
JL
 73
     1
 44
1.0
  0
MTEXT
  5
7D9F
330
18
100
AcDbEntity
  8
0
100
AcDbMText
 10
153.7978935876485
 20
48.65328293790913
 30
0.0
 40
4.4
 41
291.4548
 71
     1
 72
     5
  1
\Ftxt.shx,bigfont.shx|c128;黒  　    染
  7
JL
 73
     1
 44
1.0
  0
MTEXT
  5
7DA0
330
18
100
AcDbEntity
  8
0
100
AcDbMText
 10
57.63639061334425
 20
260.9000583279474
 30
0.0
 40
5.0
 41
0.0
 71
     1
 72
     5
  1
{\Ftxt,bigfont|c128;M4X0.7P-18L}
  7
JL
 73
     1
 44
1.0
1001
ACAD
1000
ACAD_MTEXT_DEFINED_HEIGHT_BEGIN
1070
    46
1040
0.0
1000
ACAD_MTEXT_DEFINED_HEIGHT_END
  0
LINE
  5
7DA2
330
18
100
AcDbEntity
  8
frame
100
AcDbLine
 10
0.0
 20
254.0
 30
0.0
 11
190.0
 21
254.0
 31
0.0
  0
LINE
  5
7DA3
330
18
100
AcDbEntity
  8
frame
100
AcDbLine
 10
0.0
 20
262.0
 30
0.0
 11
190.0
 21
262.0
 31
0.0
  0
LINE
  5
7DA4
330
18
100
AcDbEntity
  8
frame
 62
     9
100
AcDbLine
 10
0.0
 20
270.0
 30
0.0
 11
190.0
 21
270.0
 31
0.0
  0
MTEXT
  5
7DA5
330
18
100
AcDbEntity
  8
0
100
AcDbMText
 10
57.0156439060371
 20
277.4240560049041
 30
0.0
 40
5.0
 41
0.0
 71
     1
 72
     5
  1
\Ftxt.shx,bigfont.shx|c128;図    番 / 規　　格
  7
JL
 73
     1
 44
1.0
  0
LINE
  5
7DA6
330
18
100
AcDbEntity
  8
frame
100
AcDbLine
 10
0.0
 20
254.0
 30
0.0
 11
190.0
 21
254.0
 31
0.0
  0
MTEXT
  5
7DA8
330
18
100
AcDbEntity
  8
0
100
AcDbMText
 10
21.12488048923433
 20
277.4637981386743
 30
0.0
 40
5.0
 41
0.0
 71
     1
 72
     5
  1
\Ftxt.shx,bigfont.shx|c128;品　          名
  7
JL
 73
     1
 44
1.0
  0
MTEXT
  5
7DA9
330
18
100
AcDbEntity
  8
0
100
AcDbMText
 10
18.10281387110132
 20
260.7907237289111
 30
0.0
 40
5.0
 41
0.0
 71
     1
 72
     5
  1
\Ftxt.shx,bigfont.shx|c128;セットスクリュ-
  7
JL
 73
     1
 44
1.0
  0
MTEXT
  5
7DAA
330
18
100
AcDbEntity
  8
0
100
AcDbMText
 10
17.91509480863158
 20
268.8361230282964
 30
0.0
 40
5.0
 41
0.0
 71
     1
 72
     5
  1
\Ftxt.shx,bigfont.shx|c128;ロックナット　  
  7
JL
 73
     1
 44
1.0
  0
LINE
  5
7DAC
330
18
100
AcDbEntity
  8
frame
 62
     9
100
AcDbLine
 10
14.39393939393937
 20
279.9999999999999
 30
0.0
 11
14.39393939393964
 21
254.0
 31
0.0
  0
LINE
  5
7DAD
330
18
100
AcDbEntity
  8
frame
 62
     9
100
AcDbLine
 10
14.39393939393937
 20
279.9999999999999
 30
0.0
 11
14.39393939393937
 21
255.0505050505051
 31
0.0
  0
MTEXT
  5
7DAE
330
18
100
AcDbEntity
  8
0
100
AcDbMText
 10
6.815009268013795
 20
268.7281674434121
 30
0.0
 40
5.0
 41
0.0
 71
     1
 72
     5
  1
\Ftxt.shx,bigfont.shx|c128;1
  7
JL
 73
     1
 44
1.0
  0
MTEXT
  5
7DAF
330
18
100
AcDbEntity
  8
0
100
AcDbMText
 10
2.119828072980226
 20
277.4734782639491
 30
0.0
 40
5.0
 41
0.0
 71
     1
 72
     5
  1
\Ftxt.shx,bigfont.shx|c128;照   号
  7
JL
 73
     1
 44
1.0
  0
LINE
  5
7DB0
330
18
100
AcDbEntity
  8
frame
 62
     9
100
AcDbLine
 10
52.77777777777783
 20
279.9999999999999
 30
0.0
 11
52.77777777777784
 21
254.0
 31
0.0
  0
MTEXT
  5
7DB1
330
18
100
AcDbEntity
  8
0
100
AcDbMText
 10
145.5736374372851
 20
277.6781663894194
 30
0.0
 40
5.0
 41
0.0
 71
     1
 72
     5
  1
\Ftxt.shx,bigfont.shx|c128;備           考
  7
JL
 73
     1
 44
1.0
  0
LINE
  5
7DB2
330
18
100
AcDbEntity
  8
frame
 62
     9
100
AcDbLine
 10
91.16161616161617
 20
280.0
 30
0.0
 11
91.16161616161617
 21
254.0
 31
0.0
  0
MTEXT
  5
7DB4
330
18
100
AcDbEntity
  8
0
100
AcDbMText
 10
92.87341089179369
 20
268.8361230282964
 30
0.0
 40
5.0
 41
0.0
 71
     1
 72
     5
  1
\Ftxt.shx,bigfont.shx|c128;SCM-440
  7
JL
 73
     1
 44
1.0
  0
MTEXT
  5
7DB5
330
18
100
AcDbEntity
  8
0
100
AcDbMText
 10
92.87341089179369
 20
260.765002012584
 30
0.0
 40
5.0
 41
0.0
 71
     1
 72
     5
  1
\Ftxt.shx,bigfont.shx|c128;SCM435
  7
JL
 73
     1
 44
1.0
  0
MTEXT
  5
7DB6
330
18
100
AcDbEntity
  8
0
100
AcDbMText
 10
95.76798863104192
 20
277.5645499482919
 30
0.0
 40
5.0
 41
0.0
 71
     1
 72
     5
  1
\Ftxt.shx,bigfont.shx|c128;材　質
  7
JL
 73
     1
 44
1.0
  0
LINE
  5
7DB7
330
18
100
AcDbEntity
  8
frame
 62
     9
100
AcDbLine
 10
110.3535353535354
 20
280.0
 30
0.0
 11
110.3535353535354
 21
254.0
 31
0.0
  0
LINE
  5
7DB8
330
18
100
AcDbEntity
  8
frame
100
AcDbLine
 10
124.7474747474747
 20
280.0
 30
0.0
 11
124.7474747474748
 21
254.0
 31
0.0
  0
MTEXT
  5
7DBA
330
18
100
AcDbEntity
  8
0
100
AcDbMText
 10
117.1685446215491
 20
269.0412711679932
 30
0.0
 40
5.0
 41
0.0
 71
     1
 72
     5
  1
\Ftxt.shx,bigfont.shx|c128;1
  7
JL
 73
     1
 44
1.0
  0
MTEXT
  5
7DBB
330
18
100
AcDbEntity
  8
0
100
AcDbMText
 10
116.5939070266884
 20
260.5092290150679
 30
0.0
 40
5.0
 41
0.0
 71
     1
 72
     5
  1
{\Ftxt,bigfont|c128;6}
  7
JL
 73
     1
 44
1.0
1001
ACAD
1000
ACAD_MTEXT_DEFINED_HEIGHT_BEGIN
1070
    46
1040
0.0
1000
ACAD_MTEXT_DEFINED_HEIGHT_END
  0
MTEXT
  5
7DBC
330
18
100
AcDbEntity
  8
0
100
AcDbMText
 10
112.4223895919262
 20
277.5645499482919
 30
0.0
 40
5.0
 41
0.0
 71
     1
 72
     5
  1
\Ftxt.shx,bigfont.shx|c128;数   量
  7
JL
 73
     1
 44
1.0
  0
MTEXT
  5
7DBD
330
18
100
AcDbEntity
  8
0
100
AcDbMText
 10
6.404019699055993
 20
260.7281674434121
 30
0.0
 40
5.0
 41
0.0
 71
     1
 72
     5
  1
{\Ftxt,bigfont|c128;2}
  7
JL
 73
     1
 44
1.0
1001
ACAD
1000
ACAD_MTEXT_DEFINED_HEIGHT_BEGIN
1070
    46
1040
0.0
1000
ACAD_MTEXT_DEFINED_HEIGHT_END
  0
LINE
  5
9DEC
102
{ACAD_REACTORS
330
AA13
102
}
330
18
100
AcDbEntity
  8
contour
100
AcDbLine
 10
62.00000000000002
 20
113.4104031617862
 30
0.0
 11
128.0
 21
113.4104031617862
 31
0.0
  0
LINE
  5
9DED
102
{ACAD_REACTORS
330
AA13
102
}
330
18
100
AcDbEntity
  8
contour
100
AcDbLine
 10
129.0
 20
112.4104031617862
 30
0.0
 11
128.9999999999999
 21
96.51040316178622
 31
0.0
  0
LINE
  5
9DEE
102
{ACAD_REACTORS
330
AA13
102
}
330
18
100
AcDbEntity
  8
contour
100
AcDbLine
 10
128.0
 20
88.41040316178624
 30
0.0
 11
62.00000000000002
 21
88.41040316178624
 31
0.0
  0
LINE
  5
9DEF
102
{ACAD_REACTORS
330
AA13
102
}
330
18
100
AcDbEntity
  8
contour
100
AcDbLine
 10
61.00000000000003
 20
89.41040316178623
 30
0.0
 11
61.0
 21
92.51040316178622
 31
0.0
  0
LINE
  5
9DF0
102
{ACAD_REACTORS
330
AA13
102
}
330
18
100
AcDbEntity
  8
contour
100
AcDbLine
 10
128.0
 20
93.51040316178623
 30
0.0
 11
126.0000000000002
 21
93.51040316178623
 31
0.0
  0
LINE
  5
9DF1
102
{ACAD_REACTORS
330
AA13
102
}
330
18
100
AcDbEntity
  8
contour
100
AcDbLine
 10
127.9999999999999
 20
95.51040316178623
 30
0.0
 11
126.0000000000001
 21
95.51040316178623
 31
0.0
  0
LINE
  5
9DF3
102
{ACAD_REACTORS
330
AA13
102
}
330
18
100
AcDbEntity
  8
contour
100
AcDbLine
 10
69.0
 20
93.51040316178623
 30
0.0
 11
69.0
 21
95.51040316178623
 31
0.0
  0
LINE
  5
9DF4
102
{ACAD_REACTORS
330
AA13
102
}
330
18
100
AcDbEntity
  8
contour
100
AcDbLine
 10
121.0
 20
93.51040316178623
 30
0.0
 11
121.0
 21
95.51040316178623
 31
0.0
  0
LINE
  5
9DF5
102
{ACAD_REACTORS
330
AA13
102
}
330
18
100
AcDbEntity
  8
contour
100
AcDbLine
 10
61.00000000000003
 20
96.51040316178622
 30
0.0
 11
61.00000000000003
 21
112.4104031617862
 31
0.0
  0
LINE
  5
9DF6
102
{ACAD_REACTORS
330
AA13
102
}
330
18
100
AcDbEntity
  8
contour
100
AcDbLine
 10
69.0
 20
95.51040316178623
 30
0.0
 11
62.00000000000002
 21
95.51040316178623
 31
0.0
  0
LINE
  5
9DF7
102
{ACAD_REACTORS
330
AA13
102
}
330
18
100
AcDbEntity
  8
contour
100
AcDbLine
 10
69.0
 20
93.51040316178623
 30
0.0
 11
62.0
 21
93.51040316178623
 31
0.0
  0
LINE
  5
9DF8
102
{ACAD_REACTORS
330
AA13
102
}
330
18
100
AcDbEntity
  8
contour
100
AcDbLine
 10
129.0
 20
92.51040316178624
 30
0.0
 11
129.0
 21
89.41040316178623
 31
0.0
  0
LINE
  5
9DF9
102
{ACAD_REACTORS
330
AA13
102
}
330
18
100
AcDbEntity
  8
contour
100
AcDbLine
 10
122.0000000000002
 20
96.31040316178623
 30
0.0
 11
63.0
 21
96.31040316178625
 31
0.0
  0
LINE
  5
9DFA
102
{ACAD_REACTORS
330
AA13
102
}
330
18
100
AcDbEntity
  8
contour
100
AcDbLine
 10
122.0000000000002
 20
98.31040316178622
 30
0.0
 11
63.0
 21
98.31040316178624
 31
0.0
  0
LINE
  5
9DFC
102
{ACAD_REACTORS
330
AA13
102
}
330
18
100
AcDbEntity
  8
contour
100
AcDbLine
 10
63.0
 20
98.31040316178624
 30
0.0
 11
63.0
 21
96.31040316178625
 31
0.0
  0
LINE
  5
9DFD
102
{ACAD_REACTORS
330
AA13
102
}
330
18
100
AcDbEntity
  8
contour
100
AcDbLine
 10
127.0
 20
98.31040316178622
 30
0.0
 11
127.0
 21
96.31040316178623
 31
0.0
  0
LINE
  5
9E13
102
{ACAD_REACTORS
330
AA13
102
}
330
18
100
AcDbEntity
  8
contour
100
AcDbLine
 10
65.25
 20
92.41040316178624
 30
0.0
 11
67.40000000000003
 21
91.1691000830285
 31
0.0
  0
LINE
  5
9E14
330
18
100
AcDbEntity
  8
center
 48
0.2
100
AcDbLine
 10
59.00000000000003
 20
104.4104031617862
 30
0.0
 11
70.00000000000006
 21
104.4104031617862
 31
0.0
  0
LINE
  5
9E15
102
{ACAD_REACTORS
330
AA13
102
}
330
18
100
AcDbEntity
  8
contour
100
AcDbLine
 10
61.5
 20
101.4104031617862
 30
0.0
 11
66.26794919243113
 21
101.4104031617862
 31
0.0
  0
LINE
  5
9E16
102
{ACAD_REACTORS
330
AA13
102
}
330
18
100
AcDbEntity
  8
contour
100
AcDbLine
 10
61.00000000000003
 20
100.9104031617863
 30
0.0
 11
61.5
 21
101.4104031617862
 31
0.0
  0
LINE
  5
9E17
102
{ACAD_REACTORS
330
AA13
102
}
330
18
100
AcDbEntity
  8
contour
100
AcDbLine
 10
61.49999999999995
 20
107.4104031617862
 30
0.0
 11
66.2679491924311
 21
107.4104031617862
 31
0.0
  0
LINE
  5
9E18
102
{ACAD_REACTORS
330
AA13
102
}
330
18
100
AcDbEntity
  8
contour
100
AcDbLine
 10
68.00000000000006
 20
104.4104031617862
 30
0.0
 11
66.26794919243113
 21
107.4104031617862
 31
0.0
  0
LINE
  5
9E19
102
{ACAD_REACTORS
330
AA13
102
}
330
18
100
AcDbEntity
  8
contour
100
AcDbLine
 10
68.00000000000006
 20
104.4104031617862
 30
0.0
 11
66.26794919243116
 21
101.4104031617862
 31
0.0
  0
LINE
  5
9E1A
102
{ACAD_REACTORS
330
AA13
102
}
330
18
100
AcDbEntity
  8
contour
100
AcDbLine
 10
61.00000000000003
 20
107.9104031617861
 30
0.0
 11
61.5
 21
107.4104031617862
 31
0.0
  0
LINE
  5
9E1B
330
18
100
AcDbEntity
  8
contour
100
AcDbLine
 10
61.5
 20
107.4104031617862
 30
0.0
 11
61.5
 21
101.4104031617862
 31
0.0
  0
LINE
  5
9E1D
330
18
100
AcDbEntity
  8
contour
100
AcDbLine
 10
66.2679491924311
 20
107.4104031617862
 30
0.0
 11
66.26794919243107
 21
101.4104031617862
 31
0.0
  0
LINE
  5
9E1E
102
{ACAD_REACTORS
330
AA13
102
}
330
18
100
AcDbEntity
  8
contour
100
AcDbLine
 10
63.10000000000002
 20
91.1691000830285
 30
0.0
 11
63.09999999999996
 21
88.91040316178623
 31
0.0
  0
LINE
  5
9E1F
102
{ACAD_REACTORS
330
AA13
102
}
330
18
100
AcDbEntity
  8
contour
100
AcDbLine
 10
62.59999999999997
 20
88.41040316178624
 30
0.0
 11
63.09999999999996
 21
88.91040316178623
 31
0.0
  0
LINE
  5
9E20
102
{ACAD_REACTORS
330
AA13
102
}
330
18
100
AcDbEntity
  8
contour
100
AcDbLine
 10
67.40000000000009
 20
91.1691000830285
 30
0.0
 11
67.40000000000006
 21
88.91040316178623
 31
0.0
  0
LINE
  5
9E21
102
{ACAD_REACTORS
330
AA13
102
}
330
18
100
AcDbEntity
  8
contour
100
AcDbLine
 10
67.90000000000006
 20
88.41040316178624
 30
0.0
 11
67.40000000000006
 21
88.91040316178623
 31
0.0
  0
LINE
  5
9E22
102
{ACAD_REACTORS
330
AA13
102
}
330
18
100
AcDbEntity
  8
contour
100
AcDbLine
 10
65.25
 20
92.41040316178624
 30
0.0
 11
63.09999999999999
 21
91.1691000830285
 31
0.0
  0
LINE
  5
9E23
330
18
100
AcDbEntity
  8
contour
100
AcDbLine
 10
67.40000000000003
 20
91.1691000830285
 30
0.0
 11
63.09999999999999
 21
91.1691000830285
 31
0.0
  0
LINE
  5
9E24
330
18
100
AcDbEntity
  8
contour
100
AcDbLine
 10
67.40000000000006
 20
88.91040316178623
 30
0.0
 11
63.09999999999994
 21
88.91040316178635
 31
0.0
  0
LINE
  5
9E25
330
18
100
AcDbEntity
  8
center
 48
0.2
100
AcDbLine
 10
124.0000000000002
 20
115.4104031617862
 30
0.0
 11
124.0000000000002
 21
86.41040316178624
 31
0.0
  0
LINE
  5
9E26
102
{ACAD_REACTORS
330
AA13
102
}
330
18
100
AcDbEntity
  8
contour
100
AcDbLine
 10
120.5
 20
88.7104031617863
 30
0.0
 11
120.5
 21
88.41040316178624
 31
0.0
  0
LINE
  5
9E29
102
{ACAD_REACTORS
330
AA13
102
}
330
18
100
AcDbEntity
  8
contour
100
AcDbLine
 10
127.5000000000002
 20
88.71040316178635
 30
0.0
 11
127.5000000000002
 21
88.41040316178624
 31
0.0
  0
LINE
  5
9E2E
102
{ACAD_REACTORS
330
AA13
102
}
330
18
100
AcDbEntity
  8
contour
100
AcDbLine
 10
71.81200000000001
 20
94.81040316178619
 30
0.0
 11
71.81199999999998
 21
89.91040316178622
 31
0.0
  0
LINE
  5
9E2F
102
{ACAD_REACTORS
330
AA13
102
}
330
18
100
AcDbEntity
  8
contour
 62
     4
100
AcDbLine
 10
70.99999999999997
 20
95.62240316178622
 30
0.0
 11
71.0
 21
89.09840316178621
 31
0.0
  0
LINE
  5
9E30
102
{ACAD_REACTORS
330
AA13
102
}
330
18
100
AcDbEntity
  8
contour
100
AcDbLine
 10
70.31200000000001
 20
88.41040316178624
 30
0.0
 11
71.81200000000001
 21
89.91040316178624
 31
0.0
  0
LINE
  5
9E31
102
{ACAD_REACTORS
330
AA13
102
}
330
18
100
AcDbEntity
  8
contour
100
AcDbLine
 10
71.81199999999998
 20
94.81040316178624
 30
0.0
 11
70.31199999999998
 21
96.31040316178625
 31
0.0
  0
LINE
  5
9E32
102
{ACAD_REACTORS
330
AA13
102
}
330
18
100
AcDbEntity
  8
contour
100
AcDbLine
 10
70.31199999999998
 20
98.31040316178622
 30
0.0
 11
71.81199999999998
 21
99.81040316178622
 31
0.0
  0
LINE
  5
9E33
102
{ACAD_REACTORS
330
AA13
102
}
330
18
100
AcDbEntity
  8
contour
100
AcDbLine
 10
71.81200000000001
 20
111.9104031617862
 30
0.0
 11
70.31200000000001
 21
113.4104031617862
 31
0.0
  0
LINE
  5
9E34
102
{ACAD_REACTORS
330
AA13
102
}
330
18
100
AcDbEntity
  8
contour
100
AcDbLine
 10
71.81199999999998
 20
99.81040316178622
 30
0.0
 11
71.8120000000001
 21
111.9104031617862
 31
0.0
  0
LINE
  5
9E35
102
{ACAD_REACTORS
330
AA13
102
}
330
18
100
AcDbEntity
  8
contour
 62
     4
100
AcDbLine
 10
70.99999999999997
 20
98.99840316178623
 30
0.0
 11
70.99999999999994
 21
112.7224031617863
 31
0.0
  0
LINE
  5
9E36
102
{ACAD_REACTORS
330
AA13
102
}
330
18
100
AcDbEntity
  8
contour
100
AcDbLine
 10
118.188
 20
111.9104031617862
 30
0.0
 11
119.688
 21
113.4104031617862
 31
0.0
  0
LINE
  5
9E37
102
{ACAD_REACTORS
330
AA13
102
}
330
18
100
AcDbEntity
  8
contour
100
AcDbLine
 10
118.188
 20
94.81040316178624
 30
0.0
 11
119.688
 21
96.31040316178625
 31
0.0
  0
LINE
  5
9E38
102
{ACAD_REACTORS
330
AA13
102
}
330
18
100
AcDbEntity
  8
contour
100
AcDbLine
 10
118.188
 20
94.81040316178619
 30
0.0
 11
118.188
 21
89.91040316178622
 31
0.0
  0
LINE
  5
9E39
102
{ACAD_REACTORS
330
AA13
102
}
330
18
100
AcDbEntity
  8
contour
100
AcDbLine
 10
119.688
 20
98.31040316178622
 30
0.0
 11
118.188
 21
99.81040316178622
 31
0.0
  0
LINE
  5
9E3A
102
{ACAD_REACTORS
330
AA13
102
}
330
18
100
AcDbEntity
  8
contour
100
AcDbLine
 10
119.688
 20
88.41040316178624
 30
0.0
 11
118.188
 21
89.91040316178624
 31
0.0
  0
LINE
  5
9E3B
102
{ACAD_REACTORS
330
AA13
102
}
330
18
100
AcDbEntity
  8
contour
 62
     4
100
AcDbLine
 10
119.0
 20
95.62240316178622
 30
0.0
 11
119.0
 21
89.09840316178621
 31
0.0
  0
LINE
  5
9E3C
102
{ACAD_REACTORS
330
AA13
102
}
330
18
100
AcDbEntity
  8
contour
100
AcDbLine
 10
118.188
 20
99.81040316178622
 30
0.0
 11
118.188
 21
111.9104031617862
 31
0.0
  0
LINE
  5
9E3D
102
{ACAD_REACTORS
330
AA13
102
}
330
18
100
AcDbEntity
  8
contour
 62
     4
100
AcDbLine
 10
119.0
 20
98.99840316178623
 30
0.0
 11
119.0
 21
112.7224031617863
 31
0.0
  0
LINE
  5
9E3E
330
18
100
AcDbEntity
  8
contour
100
AcDbLine
 10
71.81200000000004
 20
111.9104031617862
 30
0.0
 11
118.188
 21
111.9104031617862
 31
0.0
  0
LINE
  5
9E3F
330
18
100
AcDbEntity
  8
contour
100
AcDbLine
 10
118.1879999999999
 20
99.81040316178622
 30
0.0
 11
71.81199999999998
 21
99.81040316178637
 31
0.0
  0
LINE
  5
9E40
330
18
100
AcDbEntity
  8
contour
100
AcDbLine
 10
71.81200000000001
 20
94.81040316178619
 30
0.0
 11
118.1879999999999
 21
94.81040316178619
 31
0.0
  0
LINE
  5
9E41
330
18
100
AcDbEntity
  8
contour
100
AcDbLine
 10
118.188
 20
89.91040316178624
 30
0.0
 11
71.81199999999996
 21
89.9104031617862
 31
0.0
  0
ARC
  5
9E43
102
{ACAD_REACTORS
330
AA13
102
}
330
18
100
AcDbEntity
  8
contour
100
AcDbCircle
 10
62.00000000000002
 20
112.4104031617862
 30
0.0
 40
1.0
100
AcDbArc
 50
90.0
 51
180.0
  0
ARC
  5
9E44
102
{ACAD_REACTORS
330
AA13
102
}
330
18
100
AcDbEntity
  8
contour
100
AcDbCircle
 10
62.00000000000002
 20
96.51040316178622
 30
0.0
 40
1.0
100
AcDbArc
 50
180.0
 51
270.0
  0
ARC
  5
9E45
102
{ACAD_REACTORS
330
AA13
102
}
330
18
100
AcDbEntity
  8
contour
100
AcDbCircle
 10
62.0
 20
92.51040316178622
 30
0.0
 40
1.0
100
AcDbArc
 50
90.0
 51
180.0
  0
ARC
  5
9E46
102
{ACAD_REACTORS
330
AA13
102
}
330
18
100
AcDbEntity
  8
contour
100
AcDbCircle
 10
62.00000000000002
 20
89.41040316178623
 30
0.0
 40
1.0
100
AcDbArc
 50
180.0
 51
270.0
  0
ARC
  5
9E47
102
{ACAD_REACTORS
330
AA13
102
}
330
18
100
AcDbEntity
  8
contour
100
AcDbCircle
 10
128.0
 20
89.41040316178623
 30
0.0
 40
1.0
100
AcDbArc
 50
270.0
 51
0.0
  0
ARC
  5
9E48
102
{ACAD_REACTORS
330
AA13
102
}
330
18
100
AcDbEntity
  8
contour
100
AcDbCircle
 10
128.0
 20
92.51040316178622
 30
0.0
 40
1.0
100
AcDbArc
 50
0.0
 51
90.0
  0
ARC
  5
9E49
102
{ACAD_REACTORS
330
AA13
102
}
330
18
100
AcDbEntity
  8
contour
100
AcDbCircle
 10
127.9999999999999
 20
96.51040316178622
 30
0.0
 40
1.0
100
AcDbArc
 50
270.0
 51
0.0
  0
ARC
  5
9E4A
102
{ACAD_REACTORS
330
AA13
102
}
330
18
100
AcDbEntity
  8
contour
100
AcDbCircle
 10
128.0
 20
112.4104031617862
 30
0.0
 40
1.0
100
AcDbArc
 50
0.0
 51
90.0
  0
LINE
  5
9E4B
102
{ACAD_REACTORS
330
AA13
102
}
330
18
100
AcDbEntity
  8
contour
100
AcDbLine
 10
127.0
 20
98.31040316178622
 30
0.0
 11
126.0000000000002
 21
98.31040316178622
 31
0.0
  0
LINE
  5
9E4C
102
{ACAD_REACTORS
330
AA13
102
}
330
18
100
AcDbEntity
  8
contour
100
AcDbLine
 10
127.0
 20
96.31040316178623
 30
0.0
 11
126.0000000000002
 21
96.31040316178623
 31
0.0
  0
LINE
  5
9E4D
102
{ACAD_REACTORS
330
AA13
102
}
330
18
100
AcDbEntity
  8
contour
100
AcDbLine
 10
121.0
 20
95.51040316178623
 30
0.0
 11
122.0000000000002
 21
95.51040316178623
 31
0.0
  0
LINE
  5
9E4E
102
{ACAD_REACTORS
330
AA13
102
}
330
18
100
AcDbEntity
  8
contour
100
AcDbLine
 10
121.0
 20
93.51040316178623
 30
0.0
 11
122.0000000000002
 21
93.51040316178623
 31
0.0
  0
LINE
  5
9E4F
330
18
100
AcDbEntity
  8
center
 48
0.2
100
AcDbLine
 10
95.0
 20
115.4104031617862
 30
0.0
 11
95.0
 21
86.41040316178623
 31
0.0
  0
LINE
  5
9E50
102
{ACAD_REACTORS
330
AA13
102
}
330
18
100
AcDbEntity
  8
center
 48
0.1
100
AcDbLine
 10
65.25
 20
94.41040316178623
 30
0.0
 11
65.25
 21
86.41040316178623
 31
0.0
  0
INSERT
  5
A4CF
102
{ACAD_REACTORS
330
AA13
102
}
330
18
100
AcDbEntity
  8
contour
100
AcDbBlockReference
  2
ls1
 10
-191.7788343297736
 20
84.23274029001452
 30
0.0
  0
LINE
  5
A4D0
102
{ACAD_REACTORS
330
AA13
102
}
330
18
100
AcDbEntity
  8
contour
100
AcDbLine
 10
122.4000000000002
 20
110.0104031617862
 30
0.0
 11
122.4000000000002
 21
113.4104031617862
 31
0.0
  0
LINE
  5
A4D1
102
{ACAD_REACTORS
330
AA13
102
}
330
18
100
AcDbEntity
  8
contour
 62
     4
100
AcDbLine
 10
122.0000000000001
 20
109.6104031617861
 30
0.0
 11
122.0000000000001
 21
113.4104031617862
 31
0.0
  0
LINE
  5
A4D2
102
{ACAD_REACTORS
330
AA13
102
}
330
18
100
AcDbEntity
  8
contour
100
AcDbLine
 10
125.6210000000001
 20
109.9894031617862
 30
0.0
 11
125.6210000000001
 21
113.4104031617862
 31
0.0
  0
LINE
  5
A4D3
102
{ACAD_REACTORS
330
AA13
102
}
330
18
100
AcDbEntity
  8
contour
 62
     4
100
AcDbLine
 10
126.0000000000002
 20
109.6104031617861
 30
0.0
 11
126.0000000000002
 21
113.4104031617862
 31
0.0
  0
LINE
  5
A4DA
330
18
100
AcDbEntity
  8
center
 48
0.3
100
AcDbLine
 10
95.0
 20
158.5239717368609
 30
0.0
 11
95.0
 21
230.5239717368609
 31
0.0
  0
LINE
  5
A4DB
330
18
100
AcDbEntity
  8
center
 48
0.3
100
AcDbLine
 10
130.9999999999999
 20
194.5239717368609
 30
0.0
 11
59.00000000000005
 21
194.5239717368609
 31
0.0
  0
CIRCLE
  5
A4E1
330
18
100
AcDbEntity
  8
contour
100
AcDbCircle
 10
95.0
 20
194.5239717368609
 30
0.0
 40
23.18799999999993
  0
ARC
  5
A4E2
330
18
100
AcDbEntity
  8
contour
 62
     4
100
AcDbCircle
 10
95.0
 20
194.5239717368609
 30
0.0
 40
24.00000000000003
100
AcDbArc
 50
168.4630409671842
 51
101.5369590328148
  0
CIRCLE
  5
A4E3
330
18
100
AcDbEntity
  8
contour
100
AcDbCircle
 10
95.0
 20
194.5239717368609
 30
0.0
 40
24.68799999999999
  0
CIRCLE
  5
A4E4
330
18
100
AcDbEntity
  8
contour
100
AcDbCircle
 10
95.0
 20
194.5239717368609
 30
0.0
 40
33.99999999999995
  0
CIRCLE
  5
A4ED
330
18
100
AcDbEntity
  8
center
 48
0.3
100
AcDbCircle
 10
95.0
 20
194.5239717368609
 30
0.0
 40
29.00000000000023
  0
CIRCLE
  5
A4F1
330
18
100
AcDbEntity
  8
contour
100
AcDbCircle
 10
124.0000000000002
 20
194.5239717368609
 30
0.0
 40
1.600000000000022
  0
ARC
  5
A4F2
330
18
100
AcDbEntity
  8
contour
 62
     4
100
AcDbCircle
 10
124.0000000000002
 20
194.5239717368609
 30
0.0
 40
2.000000000000113
100
AcDbArc
 50
168.463040967185
 51
101.5369590328148
  0
CIRCLE
  5
A4F3
330
18
100
AcDbEntity
  8
bowle
 48
0.2
100
AcDbCircle
 10
124.0000000000002
 20
194.5239717368609
 30
0.0
 40
3.500000000000056
  0
CIRCLE
  5
A4F8
330
18
100
AcDbEntity
  8
bowle
 48
0.2
100
AcDbCircle
 10
69.23574423741297
 20
179.6489717368609
 30
0.0
 40
2.150000000000062
  0
CIRCLE
  5
A4F9
330
18
100
AcDbEntity
  8
bowle
 48
0.2
100
AcDbCircle
 10
69.23574423741297
 20
179.6489717368609
 30
0.0
 40
2.650000000000034
  0
LINE
  5
A4FA
330
18
100
AcDbEntity
  8
center
 48
0.2
100
AcDbLine
 10
63.82308546376027
 20
176.5239717368609
 30
0.0
 11
76.6506537446154
 21
183.9299717368609
 31
0.0
  0
LINE
  5
A4FB
330
18
100
AcDbEntity
  8
bowle
 48
0.2
100
AcDbLine
 10
67.48814897322134
 20
175.1758955255076
 30
0.0
 11
71.61731409782021
 21
177.5598701217231
 31
0.0
  0
LINE
  5
A4FC
330
18
100
AcDbEntity
  8
bowle
 48
0.2
100
AcDbLine
 10
67.36518310711606
 20
174.716980665606
 30
0.0
 11
67.48814897322134
 21
175.1758955255076
 31
0.0
  0
LINE
  5
A4FD
330
18
100
AcDbEntity
  8
bowle
 48
0.2
100
AcDbLine
 10
64.48814897322129
 20
180.3720479482142
 30
0.0
 11
68.61731409782018
 21
182.7560225444298
 31
0.0
  0
LINE
  5
A4FE
330
18
100
AcDbEntity
  8
bowle
 48
0.2
100
AcDbLine
 10
71.61731409782027
 20
181.0239717368609
 30
0.0
 11
68.61731409782018
 21
182.7560225444298
 31
0.0
  0
LINE
  5
A4FF
330
18
100
AcDbEntity
  8
bowle
 48
0.2
100
AcDbLine
 10
71.61731409782027
 20
181.0239717368609
 30
0.0
 11
71.61731409782024
 21
177.5598701217232
 31
0.0
  0
LINE
  5
A500
330
18
100
AcDbEntity
  8
bowle
 48
0.2
100
AcDbLine
 10
64.02923411331975
 20
180.4950138143195
 30
0.0
 11
64.48814897322134
 21
180.3720479482142
 31
0.0
  0
LINE
  5
A501
330
18
100
AcDbEntity
  8
bowle
 48
0.2
100
AcDbLine
 10
64.48814897322134
 20
180.3720479482142
 30
0.0
 11
67.48814897322134
 21
175.1758955255076
 31
0.0
  0
LINE
  5
A502
330
18
100
AcDbEntity
  8
bowle
 48
0.2
100
AcDbLine
 10
68.61731409782018
 20
182.7560225444298
 30
0.0
 11
71.61731409782018
 21
177.5598701217231
 31
0.0
  0
CIRCLE
  5
A504
330
18
100
AcDbEntity
  8
contour
100
AcDbCircle
 10
109.5000000000001
 20
219.6387084466098
 30
0.0
 40
1.600000000000022
  0
CIRCLE
  5
A505
330
18
100
AcDbEntity
  8
bowle
 48
0.2
100
AcDbCircle
 10
109.5000000000001
 20
219.6387084466098
 30
0.0
 40
3.500000000000056
  0
CIRCLE
  5
A506
330
18
100
AcDbEntity
  8
contour
100
AcDbCircle
 10
80.49999999999988
 20
219.6387084466099
 30
0.0
 40
1.600000000000022
  0
CIRCLE
  5
A507
330
18
100
AcDbEntity
  8
bowle
 48
0.2
100
AcDbCircle
 10
80.49999999999988
 20
219.6387084466098
 30
0.0
 40
3.500000000000056
  0
CIRCLE
  5
A508
330
18
100
AcDbEntity
  8
contour
100
AcDbCircle
 10
65.99999999999977
 20
194.5239717368609
 30
0.0
 40
1.600000000000022
  0
CIRCLE
  5
A509
330
18
100
AcDbEntity
  8
bowle
 48
0.2
100
AcDbCircle
 10
65.99999999999977
 20
194.5239717368609
 30
0.0
 40
3.500000000000056
  0
CIRCLE
  5
A50A
330
18
100
AcDbEntity
  8
contour
100
AcDbCircle
 10
80.49999999999982
 20
169.409235027112
 30
0.0
 40
1.600000000000022
  0
CIRCLE
  5
A50B
330
18
100
AcDbEntity
  8
bowle
 48
0.2
100
AcDbCircle
 10
80.49999999999982
 20
169.409235027112
 30
0.0
 40
3.500000000000056
  0
CIRCLE
  5
A50C
330
18
100
AcDbEntity
  8
contour
100
AcDbCircle
 10
109.5
 20
169.409235027112
 30
0.0
 40
1.600000000000022
  0
CIRCLE
  5
A50D
330
18
100
AcDbEntity
  8
bowle
 48
0.2
100
AcDbCircle
 10
109.5
 20
169.409235027112
 30
0.0
 40
3.500000000000056
  0
ARC
  5
A50E
330
18
100
AcDbEntity
  8
contour
 62
     4
100
AcDbCircle
 10
109.5000000000001
 20
219.6387084466098
 30
0.0
 40
2.000000000000113
100
AcDbArc
 50
168.463040967185
 51
101.5369590328148
  0
ARC
  5
A50F
330
18
100
AcDbEntity
  8
contour
 62
     4
100
AcDbCircle
 10
80.49999999999988
 20
219.6387084466098
 30
0.0
 40
2.000000000000113
100
AcDbArc
 50
168.463040967185
 51
101.5369590328131
  0
ARC
  5
A510
330
18
100
AcDbEntity
  8
contour
 62
     4
100
AcDbCircle
 10
65.99999999999977
 20
194.5239717368609
 30
0.0
 40
2.000000000000113
100
AcDbArc
 50
168.463040967185
 51
101.5369590328131
  0
ARC
  5
A511
330
18
100
AcDbEntity
  8
contour
 62
     4
100
AcDbCircle
 10
80.49999999999982
 20
169.409235027112
 30
0.0
 40
2.000000000000113
100
AcDbArc
 50
168.463040967185
 51
101.5369590328131
  0
ARC
  5
A512
330
18
100
AcDbEntity
  8
contour
 62
     4
100
AcDbCircle
 10
109.5
 20
169.409235027112
 30
0.0
 40
2.000000000000113
100
AcDbArc
 50
168.463040967185
 51
101.5369590328148
  0
CIRCLE
  5
A513
330
18
100
AcDbEntity
  8
bowle
 48
0.2
100
AcDbCircle
 10
95.0
 20
164.7739717368609
 30
0.0
 40
2.150000000000062
  0
CIRCLE
  5
A514
330
18
100
AcDbEntity
  8
bowle
 48
0.2
100
AcDbCircle
 10
95.0
 20
164.7739717368609
 30
0.0
 40
2.650000000000034
  0
LINE
  5
A516
330
18
100
AcDbEntity
  8
bowle
 48
0.2
100
AcDbLine
 10
98.0
 20
161.0239717368609
 30
0.0
 11
98.0
 21
165.7919209292921
 31
0.0
  0
LINE
  5
A517
330
18
100
AcDbEntity
  8
bowle
 48
0.2
100
AcDbLine
 10
98.33594899379626
 20
160.6880227430646
 30
0.0
 11
98.0
 21
161.0239717368609
 31
0.0
  0
LINE
  5
A518
330
18
100
AcDbEntity
  8
bowle
 48
0.2
100
AcDbLine
 10
92.0
 20
161.0239717368609
 30
0.0
 11
92.0
 21
165.791920929292
 31
0.0
  0
LINE
  5
A519
330
18
100
AcDbEntity
  8
bowle
 48
0.2
100
AcDbLine
 10
95.00000000000005
 20
167.523971736861
 30
0.0
 11
92.0
 21
165.791920929292
 31
0.0
  0
LINE
  5
A51A
330
18
100
AcDbEntity
  8
bowle
 48
0.2
100
AcDbLine
 10
95.00000000000005
 20
167.523971736861
 30
0.0
 11
98.0
 21
165.7919209292921
 31
0.0
  0
LINE
  5
A51B
330
18
100
AcDbEntity
  8
bowle
 48
0.2
100
AcDbLine
 10
91.66405100620369
 20
160.6880227430646
 30
0.0
 11
92.0
 21
161.0239717368609
 31
0.0
  0
LINE
  5
A51C
330
18
100
AcDbEntity
  8
bowle
 48
0.2
100
AcDbLine
 10
92.0
 20
161.0239717368609
 30
0.0
 11
98.0
 21
161.0239717368609
 31
0.0
  0
LINE
  5
A51D
330
18
100
AcDbEntity
  8
bowle
 48
0.2
100
AcDbLine
 10
92.0
 20
165.791920929292
 30
0.0
 11
98.00000000000006
 21
165.791920929292
 31
0.0
  0
CIRCLE
  5
A51E
330
18
100
AcDbEntity
  8
bowle
 48
0.2
100
AcDbCircle
 10
120.764255762587
 20
179.6489717368609
 30
0.0
 40
2.150000000000062
  0
CIRCLE
  5
A51F
330
18
100
AcDbEntity
  8
bowle
 48
0.2
100
AcDbCircle
 10
120.764255762587
 20
179.6489717368609
 30
0.0
 40
2.650000000000033
  0
LINE
  5
A520
330
18
100
AcDbEntity
  8
center
 48
0.2
100
AcDbLine
 10
126.1769145362397
 20
176.5239717368609
 30
0.0
 11
113.3493462553846
 21
183.929971736861
 31
0.0
  0
LINE
  5
A521
330
18
100
AcDbEntity
  8
bowle
 48
0.2
100
AcDbLine
 10
125.5118510267787
 20
180.3720479482142
 30
0.0
 11
121.3826859021798
 21
182.7560225444298
 31
0.0
  0
LINE
  5
A522
330
18
100
AcDbEntity
  8
bowle
 48
0.2
100
AcDbLine
 10
125.9707658866802
 20
180.4950138143194
 30
0.0
 11
125.5118510267787
 21
180.3720479482142
 31
0.0
  0
LINE
  5
A523
330
18
100
AcDbEntity
  8
bowle
 48
0.2
100
AcDbLine
 10
122.5118510267787
 20
175.1758955255076
 30
0.0
 11
118.3826859021798
 21
177.5598701217232
 31
0.0
  0
LINE
  5
A524
330
18
100
AcDbEntity
  8
bowle
 48
0.2
100
AcDbLine
 10
118.3826859021798
 20
181.023971736861
 30
0.0
 11
118.3826859021798
 21
177.5598701217232
 31
0.0
  0
LINE
  5
A525
330
18
100
AcDbEntity
  8
bowle
 48
0.2
100
AcDbLine
 10
118.3826859021798
 20
181.023971736861
 30
0.0
 11
121.3826859021798
 21
182.7560225444298
 31
0.0
  0
LINE
  5
A526
330
18
100
AcDbEntity
  8
bowle
 48
0.2
100
AcDbLine
 10
122.6348168928839
 20
174.716980665606
 30
0.0
 11
122.5118510267787
 21
175.1758955255076
 31
0.0
  0
LINE
  5
A527
330
18
100
AcDbEntity
  8
bowle
 48
0.2
100
AcDbLine
 10
122.5118510267787
 20
175.1758955255076
 30
0.0
 11
125.5118510267787
 21
180.3720479482142
 31
0.0
  0
LINE
  5
A528
330
18
100
AcDbEntity
  8
bowle
 48
0.2
100
AcDbLine
 10
118.3826859021798
 20
177.5598701217232
 30
0.0
 11
121.3826859021798
 21
182.7560225444298
 31
0.0
  0
CIRCLE
  5
A529
330
18
100
AcDbEntity
  8
bowle
 48
0.2
100
AcDbCircle
 10
120.764255762587
 20
209.3989717368609
 30
0.0
 40
2.150000000000062
  0
CIRCLE
  5
A52A
330
18
100
AcDbEntity
  8
bowle
 48
0.2
100
AcDbCircle
 10
120.764255762587
 20
209.3989717368609
 30
0.0
 40
2.650000000000034
  0
LINE
  5
A52B
330
18
100
AcDbEntity
  8
center
 48
0.2
100
AcDbLine
 10
126.1769145362397
 20
212.5239717368609
 30
0.0
 11
113.3493462553846
 21
205.1179717368609
 31
0.0
  0
LINE
  5
A52C
330
18
100
AcDbEntity
  8
bowle
 48
0.2
100
AcDbLine
 10
122.5118510267787
 20
213.8720479482142
 30
0.0
 11
118.3826859021798
 21
211.4880733519987
 31
0.0
  0
LINE
  5
A52D
330
18
100
AcDbEntity
  8
bowle
 48
0.2
100
AcDbLine
 10
122.6348168928839
 20
214.3309628081158
 30
0.0
 11
122.5118510267787
 21
213.8720479482142
 31
0.0
  0
LINE
  5
A52E
330
18
100
AcDbEntity
  8
bowle
 48
0.2
100
AcDbLine
 10
125.5118510267787
 20
208.6758955255076
 30
0.0
 11
121.3826859021798
 21
206.291920929292
 31
0.0
  0
LINE
  5
A52F
330
18
100
AcDbEntity
  8
bowle
 48
0.2
100
AcDbLine
 10
118.3826859021797
 20
208.0239717368609
 30
0.0
 11
121.3826859021798
 21
206.291920929292
 31
0.0
  0
LINE
  5
A530
330
18
100
AcDbEntity
  8
bowle
 48
0.2
100
AcDbLine
 10
118.3826859021797
 20
208.0239717368609
 30
0.0
 11
118.3826859021798
 21
211.4880733519986
 31
0.0
  0
LINE
  5
A531
330
18
100
AcDbEntity
  8
bowle
 48
0.2
100
AcDbLine
 10
125.9707658866803
 20
208.5529296594023
 30
0.0
 11
125.5118510267787
 21
208.6758955255076
 31
0.0
  0
LINE
  5
A532
330
18
100
AcDbEntity
  8
bowle
 48
0.2
100
AcDbLine
 10
125.5118510267787
 20
208.6758955255076
 30
0.0
 11
122.5118510267787
 21
213.8720479482142
 31
0.0
  0
LINE
  5
A533
330
18
100
AcDbEntity
  8
bowle
 48
0.2
100
AcDbLine
 10
121.3826859021798
 20
206.291920929292
 30
0.0
 11
118.3826859021798
 21
211.4880733519987
 31
0.0
  0
CIRCLE
  5
A534
330
18
100
AcDbEntity
  8
bowle
 48
0.2
100
AcDbCircle
 10
95.0
 20
224.2739717368609
 30
0.0
 40
2.150000000000062
  0
CIRCLE
  5
A535
330
18
100
AcDbEntity
  8
bowle
 48
0.2
100
AcDbCircle
 10
95.0
 20
224.2739717368609
 30
0.0
 40
2.650000000000034
  0
LINE
  5
A537
330
18
100
AcDbEntity
  8
bowle
 48
0.2
100
AcDbLine
 10
92.0
 20
228.0239717368609
 30
0.0
 11
91.99999999999993
 21
223.2560225444298
 31
0.0
  0
LINE
  5
A538
330
18
100
AcDbEntity
  8
bowle
 48
0.2
100
AcDbLine
 10
91.66405100620369
 20
228.3599207306572
 30
0.0
 11
92.0
 21
228.0239717368609
 31
0.0
  0
LINE
  5
A539
330
18
100
AcDbEntity
  8
bowle
 48
0.2
100
AcDbLine
 10
98.0
 20
228.0239717368609
 30
0.0
 11
98.0
 21
223.2560225444298
 31
0.0
  0
LINE
  5
A53A
330
18
100
AcDbEntity
  8
bowle
 48
0.2
100
AcDbLine
 10
94.99999999999994
 20
221.5239717368608
 30
0.0
 11
98.0
 21
223.2560225444298
 31
0.0
  0
LINE
  5
A53B
330
18
100
AcDbEntity
  8
bowle
 48
0.2
100
AcDbLine
 10
94.99999999999994
 20
221.5239717368608
 30
0.0
 11
92.0
 21
223.2560225444297
 31
0.0
  0
LINE
  5
A53C
330
18
100
AcDbEntity
  8
bowle
 48
0.2
100
AcDbLine
 10
98.33594899379631
 20
228.3599207306572
 30
0.0
 11
98.0
 21
228.0239717368609
 31
0.0
  0
LINE
  5
A53D
330
18
100
AcDbEntity
  8
bowle
 48
0.2
100
AcDbLine
 10
98.0
 20
228.0239717368609
 30
0.0
 11
92.0
 21
228.0239717368609
 31
0.0
  0
LINE
  5
A53E
330
18
100
AcDbEntity
  8
bowle
 48
0.2
100
AcDbLine
 10
98.0
 20
223.2560225444298
 30
0.0
 11
91.99999999999993
 21
223.2560225444298
 31
0.0
  0
CIRCLE
  5
A53F
330
18
100
AcDbEntity
  8
bowle
 48
0.2
100
AcDbCircle
 10
69.23574423741294
 20
209.398971736861
 30
0.0
 40
2.150000000000062
  0
CIRCLE
  5
A540
330
18
100
AcDbEntity
  8
bowle
 48
0.2
100
AcDbCircle
 10
69.23574423741294
 20
209.398971736861
 30
0.0
 40
2.650000000000034
  0
LINE
  5
A541
330
18
100
AcDbEntity
  8
center
 48
0.2
100
AcDbLine
 10
63.82308546376027
 20
212.5239717368609
 30
0.0
 11
76.65065374461531
 21
205.1179717368609
 31
0.0
  0
LINE
  5
A542
330
18
100
AcDbEntity
  8
bowle
 48
0.2
100
AcDbLine
 10
64.48814897322131
 20
208.6758955255076
 30
0.0
 11
68.61731409782016
 21
206.2919209292921
 31
0.0
  0
LINE
  5
A543
330
18
100
AcDbEntity
  8
bowle
 48
0.2
100
AcDbLine
 10
64.02923411331977
 20
208.5529296594024
 30
0.0
 11
64.48814897322131
 21
208.6758955255076
 31
0.0
  0
LINE
  5
A544
330
18
100
AcDbEntity
  8
bowle
 48
0.2
100
AcDbLine
 10
67.48814897322128
 20
213.8720479482143
 30
0.0
 11
71.61731409782018
 21
211.4880733519987
 31
0.0
  0
LINE
  5
A545
330
18
100
AcDbEntity
  8
bowle
 48
0.2
100
AcDbLine
 10
71.61731409782018
 20
208.0239717368609
 30
0.0
 11
71.61731409782018
 21
211.4880733519987
 31
0.0
  0
LINE
  5
A546
330
18
100
AcDbEntity
  8
bowle
 48
0.2
100
AcDbLine
 10
71.61731409782018
 20
208.0239717368609
 30
0.0
 11
68.61731409782018
 21
206.2919209292921
 31
0.0
  0
LINE
  5
A547
330
18
100
AcDbEntity
  8
bowle
 48
0.2
100
AcDbLine
 10
67.36518310711602
 20
214.3309628081158
 30
0.0
 11
67.48814897322131
 21
213.8720479482143
 31
0.0
  0
LINE
  5
A548
330
18
100
AcDbEntity
  8
bowle
 48
0.2
100
AcDbLine
 10
67.48814897322131
 20
213.8720479482143
 30
0.0
 11
64.48814897322131
 21
208.6758955255076
 31
0.0
  0
LINE
  5
A549
330
18
100
AcDbEntity
  8
bowle
 48
0.2
100
AcDbLine
 10
71.61731409782018
 20
211.4880733519987
 30
0.0
 11
68.61731409782009
 21
206.2919209292921
 31
0.0
  0
LINE
  5
A54A
330
18
100
AcDbEntity
  8
center
 48
0.2
100
AcDbLine
 10
113.0
 20
225.7008862731006
 30
0.0
 11
105.5939999999999
 21
212.8733179922456
 31
0.0
  0
LINE
  5
A54D
330
18
100
AcDbEntity
  8
center
 48
0.2
100
AcDbLine
 10
77.00000000000006
 20
225.7008862731006
 30
0.0
 11
84.40600000000012
 21
212.8733179922456
 31
0.0
  0
LINE
  5
A54E
330
18
100
AcDbEntity
  8
center
 48
0.2
100
AcDbLine
 10
113.0
 20
163.3470572006212
 30
0.0
 11
105.5939999999999
 21
176.1746254814763
 31
0.0
  0
LINE
  5
A54F
330
18
100
AcDbEntity
  8
center
 48
0.2
100
AcDbLine
 10
77.00000000000006
 20
163.3470572006212
 30
0.0
 11
84.40600000000012
 21
176.1746254814763
 31
0.0
  0
ARC
  5
A550
330
18
100
AcDbEntity
  8
center
 48
0.2
100
AcDbCircle
 10
95.0
 20
194.5239717368609
 30
0.0
 40
29.75000000000003
100
AcDbArc
 50
137.5534309567833
 51
170.0
  0
ARC
  5
A552
330
18
100
AcDbEntity
  8
center
 48
0.2
100
AcDbCircle
 10
95.0
 20
194.5239717368609
 30
0.0
 40
29.75000000000003
100
AcDbArc
 50
197.5534309567827
 51
222.446569043216
  0
ARC
  5
A553
330
18
100
AcDbEntity
  8
center
 48
0.2
100
AcDbCircle
 10
95.0
 20
194.5239717368609
 30
0.0
 40
29.75000000000003
100
AcDbArc
 50
257.5534309567815
 51
282.4465690432185
  0
ARC
  5
A554
330
18
100
AcDbEntity
  8
center
 48
0.2
100
AcDbCircle
 10
95.0
 20
194.5239717368609
 30
0.0
 40
29.75000000000003
100
AcDbArc
 50
317.5534309567823
 51
350.0
  0
ARC
  5
A555
330
18
100
AcDbEntity
  8
center
 48
0.2
100
AcDbCircle
 10
95.0
 20
194.5239717368609
 30
0.0
 40
29.75000000000003
100
AcDbArc
 50
17.55343095678198
 51
42.44656904321601
  0
ARC
  5
A556
330
18
100
AcDbEntity
  8
center
 48
0.2
100
AcDbCircle
 10
95.0
 20
194.5239717368609
 30
0.0
 40
29.75000000000003
100
AcDbArc
 50
77.55343095678307
 51
102.4465690432169
  0
DIMENSION
  5
A8AF
330
18
100
AcDbEntity
  8
mark
100
AcDbDimension
  2
*D6
 10
66.50312524855682
 20
189.1454840869195
 30
0.0
 11
139.225106289596
 21
202.8709989133723
 31
0.0
 70
   163
  1
P.C.D 58
 71
     5
 42
58.00000000000046
  3
STANDARD
100
AcDbDiametricDimension
 15
123.4968747514432
 25
199.9024593868023
 35
0.0
 40
0.0
1001
ACAD
1000
DSTYLE
1002
{
1070
   288
1070
     1
1002
}
  0
DIMENSION
  5
A8BD
330
18
100
AcDbEntity
  8
mark
100
AcDbDimension
  2
*D7
 10
123.9388028569729
 20
187.624102955119
 30
0.0
 11
50.21165523004789
 21
205.2028413290639
 31
0.0
 70
   163
  1
P.C.D 59.5
 71
     5
 42
59.50000000000006
  3
STANDARD
100
AcDbDiametricDimension
 15
66.06119714302706
 25
201.4238405186028
 35
0.0
 40
0.0
1001
ACAD
1000
DSTYLE
1002
{
1070
   288
1070
     1
1002
}
  0
DIMENSION
  5
A8C9
330
18
100
AcDbEntity
  8
mark
100
AcDbDimension
  2
*D8
 10
61.00000000000004
 20
122.4779115961709
 30
0.0
 11
95.00000000000003
 21
124.5779115961709
 31
0.0
 70
    32
  1
%%C68
 71
     5
 42
68.0
  3
STANDARD
100
AcDbAlignedDimension
 13
129.0
 23
112.410403161786
 33
0.0
 14
61.00000000000004
 24
112.410403161786
 34
0.0
100
AcDbRotatedDimension
  0
MTEXT
  5
A8F1
330
18
100
AcDbEntity
  8
mark
 62
     3
100
AcDbMText
 10
99.38898363053002
 20
124.9881887016342
 30
0.0
 40
1.25
 41
0.0
 71
     4
 72
     1
  1
+0\P-0.2
 73
     1
 44
1.0
1001
ACAD
1000
ACAD_MTEXT_DEFINED_HEIGHT_BEGIN
1070
    46
1040
0.0
1000
ACAD_MTEXT_DEFINED_HEIGHT_END
  0
DIMENSION
  5
A8F2
330
18
100
AcDbEntity
  8
mark
100
AcDbDimension
  2
*D9
 10
53.8036076932931
 20
113.4104031617862
 30
0.0
 11
51.70360769329307
 21
108.9104031617862
 31
0.0
 70
    32
 71
     5
 42
9.0
  3
STANDARD
100
AcDbAlignedDimension
 13
59.00000000000003
 23
104.4104031617862
 33
0.0
 14
62.00000000000002
 24
113.4104031617862
 34
0.0
 50
90.0
100
AcDbRotatedDimension
  0
DIMENSION
  5
A8FF
330
18
100
AcDbEntity
  8
mark
100
AcDbDimension
  2
*D10
 10
137.946612127143
 20
95.51040316178623
 30
0.0
 11
135.8466121271429
 21
104.4604031617862
 31
0.0
 70
    32
 71
     5
 42
17.9
  3
STANDARD
100
AcDbAlignedDimension
 13
128.0
 23
113.4104031617862
 33
0.0
 14
128.0
 24
95.51040316178623
 34
0.0
 50
90.0
100
AcDbRotatedDimension
  0
DIMENSION
  5
A926
330
18
100
AcDbEntity
  8
mark
100
AcDbDimension
  2
*D11
 10
144.8808360927536
 20
88.41040316178624
 30
0.0
 11
142.7808360927536
 21
100.9104031617862
 31
0.0
 70
    32
  1
25%%P0.2
 71
     5
 42
25.0
  3
STANDARD
100
AcDbAlignedDimension
 13
128.0
 23
113.4104031617862
 33
0.0
 14
128.0
 24
88.41040316178624
 34
0.0
 50
90.0
100
AcDbRotatedDimension
  0
LINE
  5
A933
330
18
100
AcDbEntity
  8
mark
100
AcDbLine
 10
128.8499999999999
 20
95.51040316178623
 30
0.0
 11
138.796612127143
 21
95.51040316178623
 31
0.0
  0
LINE
  5
A934
330
18
100
AcDbEntity
  8
mark
100
AcDbLine
 10
128.8499999999999
 20
93.51040316178623
 30
0.0
 11
138.796612127143
 21
93.51040316178623
 31
0.0
  0
LINE
  5
A935
330
18
100
AcDbEntity
  8
mark
100
AcDbLine
 10
137.946612127143
 20
98.01040316178623
 30
0.0
 11
137.946612127143
 21
100.5104031617862
 31
0.0
  0
LINE
  5
A936
330
18
100
AcDbEntity
  8
mark
100
AcDbLine
 10
137.946612127143
 20
91.01040316178623
 30
0.0
 11
137.946612127143
 21
89.76040316178623
 31
0.0
  0
LINE
  5
A937
330
18
100
AcDbEntity
  8
mark
100
AcDbLine
 10
137.946612127143
 20
95.51040316178623
 30
0.0
 11
137.946612127143
 21
93.51040316178623
 31
0.0
  0
INSERT
  5
A938
330
18
100
AcDbEntity
  8
mark
100
AcDbBlockReference
  2
_Open30
 10
137.946612127143
 20
95.51040316178623
 30
0.0
 41
2.5
 42
2.5
 43
2.5
 50
270.0
  0
INSERT
  5
A939
330
18
100
AcDbEntity
  8
mark
100
AcDbBlockReference
  2
_Open30
 10
137.946612127143
 20
93.51040316178623
 30
0.0
 41
2.5
 42
2.5
 43
2.5
 50
90.0
  0
MTEXT
  5
A93A
330
18
100
AcDbEntity
  8
mark
 62
     3
100
AcDbMText
 10
135.846612127143
 20
94.51040316178625
 30
0.0
 40
2.5
 41
0.0
 71
     5
 72
     1
  1
\A1;2
 11
0.0000000000000001
 21
1.0
 31
0.0
 73
     1
 44
1.0
  0
DIMENSION
  5
A942
330
18
100
AcDbEntity
  8
mark
100
AcDbDimension
  2
*D12
 10
119.0
 20
76.1184400624278
 30
0.0
 11
95.0
 21
78.21844006242779
 31
0.0
 70
    32
  1
M48X1.5P
 71
     5
 42
48.0
  3
STANDARD
100
AcDbAlignedDimension
 13
71.0
 23
89.09840316178621
 33
0.0
 14
119.0
 24
89.09840316178621
 34
0.0
100
AcDbRotatedDimension
  0
LEADER
  5
A964
330
18
100
AcDbEntity
  8
mark
100
AcDbLeader
  3
STANDARD
 76
     2
 10
118.938
 20
89.16040316178623
 30
0.0
 10
110.1064647466879
 20
80.32886790847422
 30
0.0
1001
ACAD
1000
DSTYLE
1002
{
1070
   147
1040
0.85
1070
    77
1070
     0
1002
}
  0
MTEXT
  5
A965
330
18
100
AcDbEntity
  8
mark
 62
     3
100
AcDbMText
 10
111.4114559612393
 20
84.41790094986965
 30
0.0
 40
2.5
 41
0.0
 71
     5
 72
     1
  1
C1.5
 11
0.7071067811865476
 21
0.7071067811865475
 31
0.0
 73
     1
 44
1.0
1001
ACAD
1000
ACAD_MTEXT_DEFINED_HEIGHT_BEGIN
1070
    46
1040
0.0
1000
ACAD_MTEXT_DEFINED_HEIGHT_END
  0
LEADER
  5
A966
330
18
100
AcDbEntity
  8
mark
100
AcDbLeader
  3
STANDARD
 76
     3
 10
61.00000000000003
 20
104.4104031617862
 30
0.0
 10
53.92893218813461
 20
97.33933534992075
 30
0.0
 10
35.20348574161474
 20
97.33933534992075
 30
0.0
1001
ACAD
1000
DSTYLE
1002
{
1070
   147
1040
0.85
1070
    77
1070
     0
1002
}
  0
MTEXT
  5
A967
330
18
100
AcDbEntity
  8
mark
 62
     3
100
AcDbMText
 10
44.23149480909685
 20
99.49333126903226
 30
0.0
 40
2.5
 41
0.0
 71
     5
 72
     1
  1
{\Ftxt,bigfont|c136;6-%%C6\Ftxt,bigfont|c128;深さ7}
 73
     1
 44
1.0
1001
ACAD
1000
ACAD_MTEXT_DEFINED_HEIGHT_BEGIN
1070
    46
1040
0.0
1000
ACAD_MTEXT_DEFINED_HEIGHT_END
  0
LEADER
  5
A968
330
18
100
AcDbEntity
  8
mark
100
AcDbLeader
  3
STANDARD
 76
     3
 10
65.25
 20
88.41040316178624
 30
0.0
 10
54.42893218813458
 20
77.58933534992081
 30
0.0
 10
32.68319009836171
 20
77.58933534992081
 30
0.0
1001
ACAD
1000
DSTYLE
1002
{
1070
   147
1040
0.85
1070
    77
1070
     0
1002
}
  0
MTEXT
  5
A969
330
18
100
AcDbEntity
  8
mark
 62
     3
100
AcDbMText
 10
43.21957986712641
 20
79.74333126903229
 30
0.0
 40
2.5
 41
0.0
 71
     5
 72
     1
  1
{\Ftxt,bigfont|c136;6-%%C4.3\Ftxt,bigfont|c128;深さ4}
 73
     1
 44
1.0
1001
ACAD
1000
ACAD_MTEXT_DEFINED_HEIGHT_BEGIN
1070
    46
1040
0.0
1000
ACAD_MTEXT_DEFINED_HEIGHT_END
  0
TOLERANCE
  5
A96A
330
18
100
AcDbEntity
  8
mark
100
AcDbFcf
  3
STANDARD
 10
149.8808360927536
 20
118.4104031617862
 30
0.0
  1
{\Fgdt;h}%%v0.005%%v%%vA%%v%%v
  0
TOLERANCE
  5
A96B
330
18
100
AcDbEntity
  8
mark
100
AcDbFcf
  3
STANDARD
 10
81.0
 20
65.26844006242779
 30
0.0
  1
%%v%%v%%vA%%v%%v
  0
HATCH
  5
A96C
330
18
100
AcDbEntity
  8
mark
100
AcDbHatch
 10
0.0
 20
0.0
 30
0.0
210
0.0
220
0.0
230
1.0
  2
SOLID
 70
     1
 71
     0
 91
        2
 92
        7
 72
     0
 73
     1
 93
        3
 10
71.0
 20
67.76844006242774
 10
71.0
 20
65.26844006242779
 10
73.5
 20
65.26844006242779
 97
        0
 92
        7
 72
     0
 73
     1
 93
        3
 10
73.5
 20
65.26844006242779
 10
71.0
 20
65.26844006242779
 10
71.0
 20
62.7684400624278
 97
        0
 75
     0
 76
     1
 47
0.1023763232943895
 98
        2
 10
71.90032172709379
 20
66.20709538005222
 10
71.59307784954478
 20
64.7738271493739
450
        0
451
        0
460
0.0
461
0.0
452
        1
462
1.0
453
        2
463
0.0
 63
     5
421
      255
463
1.0
 63
     7
421
 16777215
470
LINEAR
1001
ACAD
1010
0.0
1020
0.0
1030
0.0
  0
LINE
  5
A96D
330
18
100
AcDbEntity
  8
mark
100
AcDbLine
 10
71.0
 20
65.26844006242779
 30
0.0
 11
81.0
 21
65.26844006242779
 31
0.0
  0
LINE
  5
A96E
330
18
100
AcDbEntity
  8
mark
100
AcDbLine
 10
71.0
 20
67.7684400624278
 30
0.0
 11
73.5
 21
65.26844006242779
 31
0.0
  0
LINE
  5
A96F
330
18
100
AcDbEntity
  8
mark
100
AcDbLine
 10
73.5
 20
65.26844006242779
 30
0.0
 11
71.0
 21
62.76844006242779
 31
0.0
  0
LINE
  5
A970
330
18
100
AcDbEntity
  8
mark
100
AcDbLine
 10
71.0
 20
62.76844006242779
 30
0.0
 11
71.0
 21
65.26844006242779
 31
0.0
  0
LINE
  5
A971
330
18
100
AcDbEntity
  8
mark
100
AcDbLine
 10
71.0
 20
75.2684400624278
 30
0.0
 11
71.0
 21
65.26844006242779
 31
0.0
  0
LINE
  5
A972
330
18
100
AcDbEntity
  8
mark
100
AcDbLine
 10
144.8808360927536
 20
113.4104031617862
 30
0.0
 11
144.8808360927536
 21
118.4104031617862
 31
0.0
  0
LINE
  5
A973
330
18
100
AcDbEntity
  8
mark
100
AcDbLine
 10
144.8808360927536
 20
118.4104031617862
 30
0.0
 11
149.8808360927536
 21
118.4104031617862
 31
0.0
  0
DIMENSION
  5
A975
330
18
100
AcDbEntity
  8
mark
100
AcDbDimension
  2
*D13
 10
62.00000000000001
 20
89.4104031617862
 30
0.0
 11
54.49288300640282
 21
84.87313464917262
 31
0.0
 70
    36
 71
     5
 42
0.9999999999999715
  3
STANDARD
100
AcDbRadialDimension
 15
61.29289321881349
 25
88.70329638059969
 35
0.0
 40
0.0
1001
ACAD
1000
DSTYLE
1002
{
1070
   288
1070
     1
1002
}
  0
HATCH
  5
AA13
330
18
100
AcDbEntity
  8
section
100
AcDbHatch
 10
0.0
 20
0.0
 30
0.0
210
0.0
220
0.0
230
1.0
  2
ANSI31
 70
     0
 71
     1
 91
       12
 92
        7
 72
     1
 73
     1
 93
       28
 10
70.99999999999994
 20
112.7224031617863
 42
0.0
 10
70.31200000000002
 20
113.4104031617862
 42
0.0
 10
62.00000000000002
 20
113.4104031617862
 42
0.4142135623730951
 10
61.00000000000003
 20
112.4104031617862
 42
0.0
 10
61.00000000000003
 20
107.9104031617861
 42
0.0
 10
61.49999999999998
 20
107.4104031617862
 42
0.0
 10
66.26794919243113
 20
107.4104031617862
 42
0.0
 10
68.00000000000006
 20
104.4104031617862
 42
0.0
 10
66.26794919243113
 20
101.4104031617862
 42
0.0
 10
61.5
 20
101.4104031617862
 42
0.0
 10
61.00000000000003
 20
100.9104031617863
 42
0.0
 10
61.00000000000003
 20
96.51040316178622
 42
0.4142135623730951
 10
62.00000000000002
 20
95.51040316178623
 42
0.0
 10
69.00000000000002
 20
95.51040316178623
 42
0.0
 10
68.99999999999998
 20
93.51040316178623
 42
0.0
 10
65.25
 20
93.51040316178623
 42
0.0
 10
65.25
 20
92.41040316178624
 42
0.0
 10
67.4000000000001
 20
91.16910008302848
 42
0.0
 10
67.40000000000005
 20
88.91040316178623
 42
0.0
 10
67.90000000000009
 20
88.41040316178624
 42
0.0
 10
70.31200000000001
 20
88.41040316178624
 42
0.0
 10
71.0
 20
89.09840316178621
 42
0.0
 10
70.99999999999998
 20
95.62240316178623
 42
0.0
 10
70.312
 20
96.31040316178623
 42
0.0
 10
63.0
 20
96.31040316178625
 42
0.0
 10
63.0
 20
98.31040316178624
 42
0.0
 10
70.312
 20
98.31040316178624
 42
0.0
 10
70.99999999999998
 20
98.99840316178623
 42
0.0
 97
       27
330
9E33
330
9DEC
330
9E43
330
9DF5
330
9E1A
330
9E17
330
9E18
330
9E19
330
9E15
330
9E16
330
9E44
330
9DF6
330
9DF3
330
9DF7
330
9E50
330
9E13
330
9E20
330
9E21
330
9DEE
330
9E30
330
9E2F
330
9E31
330
9DF9
330
9DFC
330
9DFA
330
9E32
330
9E35
 92
        7
 72
     0
 73
     1
 93
        4
 10
71.81200000000011
 20
111.9104031617861
 10
70.99999999999994
 20
112.7224031617863
 10
70.99999999999997
 20
98.99840316178623
 10
71.812
 20
99.81040316178624
 97
        4
330
9E33
330
9E35
330
9E32
330
9E34
 92
        7
 72
     1
 73
     1
 93
        9
 10
65.25
 20
92.41040316178624
 42
0.0
 10
65.25
 20
93.51040316178622
 42
0.0
 10
62.0
 20
93.51040316178623
 42
0.4142135623730951
 10
61.0
 20
92.51040316178622
 42
0.0
 10
61.00000000000003
 20
89.41040316178623
 42
0.4142135623730951
 10
62.00000000000002
 20
88.41040316178624
 42
0.0
 10
62.59999999999997
 20
88.41040316178624
 42
0.0
 10
63.09999999999998
 20
88.91040316178623
 42
0.0
 10
63.10000000000003
 20
91.1691000830285
 42
0.0
 97
        9
330
9E50
330
9DF7
330
9E45
330
9DEF
330
9E46
330
9DEE
330
9E1F
330
9E1E
330
9E22
 92
        7
 72
     0
 73
     1
 93
        4
 10
71.81200000000001
 20
94.81040316178621
 10
70.99999999999998
 20
95.62240316178625
 10
71.00000000000001
 20
89.09840316178621
 10
71.812
 20
89.9104031617862
 97
        4
330
9E31
330
9E2F
330
9E30
330
9E2E
 92
        7
 72
     0
 73
     1
 93
        4
 10
119.0000000000001
 20
112.7224031617863
 10
118.188
 20
111.9104031617862
 10
118.188
 20
99.81040316178621
 10
119.0
 20
98.99840316178623
 97
        4
330
9E36
330
9E3C
330
9E39
330
9E3D
 92
        7
 72
     0
 73
     1
 93
        7
 10
122.0000000000001
 20
109.6104031617861
 10
122.0000000000002
 20
113.4104031617862
 10
119.688
 20
113.4104031617862
 10
119.0
 20
112.7224031617862
 10
119.0
 20
98.99840316178618
 10
119.688
 20
98.31040316178624
 10
122.0000000000002
 20
98.31040316178624
 97
        7
330
A4D1
330
9DEC
330
9E36
330
9E3D
330
9E39
330
9DFA
330
A4CF
 92
        7
 72
     1
 73
     1
 93
       11
 10
129.0
 20
112.4104031617862
 42
0.4142135623730951
 10
128.0
 20
113.4104031617862
 42
0.0
 10
126.0000000000002
 20
113.4104031617862
 42
0.0
 10
126.0000000000002
 20
109.6104031617861
 42
0.0
 10
126.0000000000002
 20
98.31040316178622
 42
0.0
 10
127.0
 20
98.31040316178622
 42
0.0
 10
127.0
 20
96.31040316178623
 42
0.0
 10
126.0000000000002
 20
96.31040316178623
 42
0.0
 10
126.0000000000002
 20
95.51040316178623
 42
0.0
 10
127.9999999999999
 20
95.51040316178623
 42
0.4142135623730951
 10
128.9999999999999
 20
96.51040316178622
 42
0.0
 97
       10
330
9E4A
330
9DEC
330
A4D3
330
A4CF
330
9E4B
330
9DFD
330
9E4C
330
9DF1
330
9E49
330
9DED
 92
        7
 72
     0
 73
     1
 93
        4
 10
119.0
 20
95.62240316178623
 10
118.188
 20
94.81040316178622
 10
118.188
 20
89.91040316178624
 10
119.0
 20
89.09840316178623
 97
        4
330
9E37
330
9E38
330
9E3A
330
9E3B
 92
        7
 72
     0
 73
     1
 93
       13
 10
122.0000000000002
 20
93.51040316178622
 10
121.0
 20
93.51040316178623
 10
121.0
 20
95.51040316178623
 10
122.0000000000001
 20
95.51040316178621
 10
122.0000000000001
 20
96.31040316178621
 10
119.6879999999999
 20
96.31040316178623
 10
119.0
 20
95.62240316178629
 10
119.0
 20
89.09840316178621
 10
119.688
 20
88.41040316178624
 10
120.5
 20
88.41040316178624
 10
120.5
 20
88.7104031617863
 10
120.5000000000002
 20
92.41040316178624
 10
122.0000000000001
 20
92.41040316178624
 97
       10
330
9E4E
330
9DF4
330
9E4D
330
A4CF
330
9DF9
330
9E37
330
9E3B
330
9E3A
330
9DEE
330
9E26
 92
        7
 72
     1
 73
     1
 93
        9
 10
129.0
 20
92.51040316178624
 42
0.4142135623730909
 10
128.0
 20
93.51040316178623
 42
0.0
 10
126.0000000000002
 20
93.51040316178623
 42
0.0
 10
126.0000000000001
 20
92.41040316178624
 42
0.0
 10
127.5000000000001
 20
92.41040316178624
 42
0.0
 10
127.5000000000001
 20
88.71040316178619
 42
0.0
 10
127.5000000000002
 20
88.41040316178622
 42
0.0
 10
128.0
 20
88.41040316178624
 42
0.4142135623730951
 10
129.0
 20
89.41040316178623
 42
0.0
 97
        7
330
9E48
330
9DF0
330
A4CF
330
9E29
330
9DEE
330
9E47
330
9DF8
 92
        7
 72
     0
 73
     1
 93
        4
 10
122.4000000000002
 20
113.4104031617862
 10
122.0000000000001
 20
113.4104031617862
 10
122.0000000000001
 20
109.6104031617861
 10
122.4000000000002
 20
110.0104031617861
 97
        4
330
9DEC
330
A4D1
330
A4CF
330
A4D0
 92
        7
 72
     0
 73
     1
 93
        4
 10
126.0000000000002
 20
113.4104031617862
 10
125.6210000000001
 20
113.4104031617862
 10
125.6210000000001
 20
109.9894031617862
 10
126.0000000000002
 20
109.6104031617861
 97
        4
330
9DEC
330
A4D2
330
A4CF
330
A4D3
 75
     0
 76
     1
 52
0.0
 41
0.5
 77
     0
 78
     1
 53
45.0
 43
0.0
 44
0.0
 45
-1.122532015133643
 46
1.122532015133644
 79
     0
 47
0.0822870698091319
 98
       12
 10
68.12783953984126
 20
108.8784210463229
 10
71.57095197455169
 20
106.1807780216074
 10
63.00969878235116
 20
91.94838535062729
 10
71.57095197455169
 20
92.6925628980299
 10
118.2647846193462
 20
106.1314147763555
 10
119.9111432229376
 20
106.2959887706159
 10
127.4020776969133
 20
105.8022661196985
 10
118.3471020505313
 20
92.63633455241587
 10
119.8288257917523
 20
92.88319621194274
 10
128.883800606477
 20
91.56660292158722
 10
122.2160462659543
 20
111.7269352581621
 10
125.9203547873495
 20
111.3155002725112
1001
ACAD
1010
0.0
1020
0.0
1030
0.0
  0
LEADER
  5
AA14
330
18
100
AcDbEntity
  8
mark
100
AcDbLeader
  3
STANDARD
 76
     2
 10
119.0416305603426
 20
170.4823411765183
 30
0.0
 10
135.965345681426
 20
153.5586260554348
 30
0.0
211
0.7071067811865474
221
-0.7071067811865478
231
0.0
1001
ACAD
1000
DSTYLE
1002
{
1070
   147
1040
0.85
1070
    77
1070
     0
1002
}
  0
LEADER
  5
AA17
330
18
100
AcDbEntity
  8
mark
100
AcDbLeader
  3
STANDARD
 76
     2
 10
124.0000000000002
 20
88.41040316178624
 30
0.0
 10
135.965345681426
 20
76.44505748036035
 30
0.0
211
0.7071067811865474
221
-0.7071067811865478
231
0.0
1001
ACAD
1000
DSTYLE
1002
{
1070
   147
1040
0.85
1070
    77
1070
     0
1002
}
  0
MTEXT
  5
AA18
330
18
100
AcDbEntity
  8
mark
 62
     3
100
AcDbMText
 10
137.7021715856314
 20
153.3431417917068
 30
0.0
 40
5.0
 41
0.0
 71
     4
 72
     1
  1
1
 73
     1
 44
1.0
1001
ACAD
1000
ACAD_MTEXT_DEFINED_HEIGHT_BEGIN
1070
    46
1040
0.0
1000
ACAD_MTEXT_DEFINED_HEIGHT_END
  0
MTEXT
  5
AA19
330
18
100
AcDbEntity
  8
mark
 62
     3
100
AcDbMText
 10
137.7021715856314
 20
76.22957321663243
 30
0.0
 40
5.0
 41
0.0
 71
     4
 72
     1
  1
2
 73
     1
 44
1.0
1001
ACAD
1000
ACAD_MTEXT_DEFINED_HEIGHT_BEGIN
1070
    46
1040
0.0
1000
ACAD_MTEXT_DEFINED_HEIGHT_END
  0
MTEXT
  5
AA54
330
18
100
AcDbEntity
  8
0
100
AcDbMText
 10
47.65097232190476
 20
19.07605901616614
 30
0.0
 40
4.5
 41
0.0
 71
     1
 72
     5
  1
{\Ftxt,bigfont|c128;小\~柳}
  7
JL
 73
     1
 44
1.0
1001
ACAD
1000
ACAD_MTEXT_DEFINED_HEIGHT_BEGIN
1070
    46
1040
0.0
1000
ACAD_MTEXT_DEFINED_HEIGHT_END
  0
MTEXT
  5
AA6B
330
18
100
AcDbEntity
  8
dim
100
AcDbMText
 10
10.13395566209863
 20
40.85666065641328
 30
0.0
 40
4.5
 41
0.0
 71
     1
 72
     5
  1
{\Ftxt,bigfont|c128;07.10.03\~寸法一部変更  林}
  7
JL
 73
     1
 44
1.0
1001
ACAD
1000
ACAD_MTEXT_DEFINED_HEIGHT_BEGIN
1070
    46
1040
0.0
1000
ACAD_MTEXT_DEFINED_HEIGHT_END
  0
CIRCLE
  5
AA6E
330
18
100
AcDbEntity
  8
dim
100
AcDbCircle
 10
44.69137549418564
 20
38.534067212016
 30
0.0
 40
2.750054604459023
  0
LWPOLYLINE
  5
AA71
330
18
100
AcDbEntity
  8
mark
100
AcDbPolyline
 90
        3
 70
     1
 43
0.0
 10
129.2674384217814
 20
98.39175944433463
 10
133.7674384217814
 20
95.79368323298131
 10
133.7674384217814
 20
100.9898356556879
  0
TEXT
  5
AA72
330
18
100
AcDbEntity
  8
dim
100
AcDbText
 10
133.2082234858379
 20
97.65704478439772
 30
0.0
 40
2.5
  1
1
 50
90.0
  7
TXT
100
AcDbText
  0
LINE
  5
AA8F
330
18
100
AcDbEntity
  8
mark
 62
     1
100
AcDbLine
 10
135.4556953788676
 20
108.231964771948
 30
0.0
 11
135.4556953788676
 21
100.8157250055855
 31
0.0
  0
LINE
  5
AA90
330
18
100
AcDbEntity
  8
mark
 62
     1
100
AcDbLine
 10
136.4405208341563
 20
108.231964771948
 30
0.0
 11
136.4405208341563
 21
100.8157250055855
 31
0.0
  0
MTEXT
  5
AA91
330
18
100
AcDbEntity
  8
mark
 62
     3
100
AcDbMText
 10
132.4516437656948
 20
106.0267801430605
 30
0.0
 40
2.5
 41
0.0
 71
     5
 72
     1
  1
17.25
 11
0.0000000000000001
 21
1.0
 31
0.0
 73
     1
 44
1.0
1001
ACAD
1000
ACAD_MTEXT_DEFINED_HEIGHT_BEGIN
1070
    46
1040
0.0
1000
ACAD_MTEXT_DEFINED_HEIGHT_END
  0
LWPOLYLINE
  5
AAD1
330
18
100
AcDbEntity
  8
mark
100
AcDbPolyline
 90
        3
 70
     1
 43
0.0
 10
8.233657112344936
 20
43.40621141009179
 10
5.346905766396821
 20
48.40621141009179
 10
2.460154420448681
 20
43.40621141009179
  0
MTEXT
  5
AAD2
330
18
100
AcDbEntity
  8
dim
100
AcDbMText
 10
4.55520710667796
 20
46.44397593097901
 30
0.0
 40
2.5
 41
9.163114146879252
 71
     1
 72
     5
  1
2
 73
     1
 44
1.0
1001
ACAD
1000
ACAD_MTEXT_DEFINED_HEIGHT_BEGIN
1070
    46
1040
0.0
1000
ACAD_MTEXT_DEFINED_HEIGHT_END
  0
MTEXT
  5
AAD3
330
18
100
AcDbEntity
  8
dim
100
AcDbMText
 10
9.9968556238166
 20
47.86676939254209
 30
0.0
 40
4.5
 41
0.0
 71
     1
 72
     5
  1
{\Ftxt,bigfont|c128;08.08.08 振れ精度の変更  林}
  7
JL
 73
     1
 44
1.0
1001
ACAD
1000
ACAD_MTEXT_DEFINED_HEIGHT_BEGIN
1070
    46
1040
0.0
1000
ACAD_MTEXT_DEFINED_HEIGHT_END
  0
CIRCLE
  5
AAD4
330
18
100
AcDbEntity
  8
dim
100
AcDbCircle
 10
47.77115891784234
 20
45.55695077257531
 30
0.0
 40
2.762409708108862
  0
LWPOLYLINE
  5
AAD5
330
18
100
AcDbEntity
  8
mark
100
AcDbPolyline
 90
        3
 70
     1
 43
0.0
 10
8.370757150626964
 20
36.39610267396299
 10
5.484005804678849
 20
41.39610267396299
 10
2.597254458730709
 20
36.39610267396299
  0
MTEXT
  5
AAD6
330
18
100
AcDbEntity
  8
dim
100
AcDbMText
 10
5.061507391877887
 20
39.53449941229698
 30
0.0
 40
2.5
 41
9.163114146879252
 71
     1
 72
     5
  1
1
 73
     1
 44
1.0
1001
ACAD
1000
ACAD_MTEXT_DEFINED_HEIGHT_BEGIN
1070
    46
1040
0.0
1000
ACAD_MTEXT_DEFINED_HEIGHT_END
  0
LWPOLYLINE
  5
AAD7
330
18
100
AcDbEntity
  8
mark
100
AcDbPolyline
 90
        3
 70
     1
 43
0.0
 10
156.0758849007834
 20
122.7460568827732
 10
153.1891335548352
 20
127.7460568827732
 10
150.3023822088871
 20
122.7460568827732
  0
MTEXT
  5
AAD8
330
18
100
AcDbEntity
  8
dim
100
AcDbMText
 10
152.3974348951164
 20
125.7838214036604
 30
0.0
 40
2.5
 41
9.163114146879252
 71
     1
 72
     5
  1
2
 73
     1
 44
1.0
1001
ACAD
1000
ACAD_MTEXT_DEFINED_HEIGHT_BEGIN
1070
    46
1040
0.0
1000
ACAD_MTEXT_DEFINED_HEIGHT_END
  0
MTEXT
  5
AAD9
330
18
100
AcDbEntity
  8
dim
100
AcDbMText
 10
157.3232772963933
 20
125.7838214036604
 30
0.0
 40
2.5
 41
9.163114146879252
 71
     1
 72
     5
  1
0.007
 73
     1
 44
1.0
1001
ACAD
1000
ACAD_MTEXT_DEFINED_HEIGHT_BEGIN
1070
    46
1040
0.0
1000
ACAD_MTEXT_DEFINED_HEIGHT_END
  0
LINE
  5
AADA
330
18
100
AcDbEntity
  8
mark
 62
     1
100
AcDbLine
 10
156.5000216161008
 20
118.8679211056344
 30
0.0
 11
167.0001219020769
 21
118.8679211056344
 31
0.0
  0
LINE
  5
AAE2
330
18
100
AcDbEntity
  8
mark
 62
     1
100
AcDbLine
 10
156.5000216161008
 20
117.9732241499448
 30
0.0
 11
167.0001219020769
 21
117.9732241499448
 31
0.0
  0
LWPOLYLINE
  5
AAE3
330
18
100
AcDbEntity
  8
mark
100
AcDbPolyline
 90
        3
 70
     1
 43
0.0
 10
182.7859114895836
 20
2.71837995145529
 10
179.8991601436355
 20
7.71837995145529
 10
177.0124087976873
 20
2.71837995145529
  0
MTEXT
  5
AAE4
330
18
100
AcDbEntity
  8
dim
100
AcDbMText
 10
179.1074614839167
 20
5.756144472342498
 30
0.0
 40
2.5
 41
9.163114146879252
 71
     1
 72
     5
  1
2
 73
     1
 44
1.0
1001
ACAD
1000
ACAD_MTEXT_DEFINED_HEIGHT_BEGIN
1070
    46
1040
0.0
1000
ACAD_MTEXT_DEFINED_HEIGHT_END
  0
ENDSEC
  0
SECTION
  2
OBJECTS
  0
DICTIONARY
  5
C
330
0
100
AcDbDictionary
281
     1
  3
ACAD_COLOR
350
7873
  3
ACAD_GROUP
350
D
  3
ACAD_LAYOUT
350
5CF3
  3
ACAD_MATERIAL
350
7872
  3
ACAD_MLINESTYLE
350
1B
  3
ACAD_PLOTSETTINGS
350
5CF4
  3
ACAD_PLOTSTYLENAME
350
5CF1
  3
ACAD_TABLESTYLE
350
7874
  3
AcadDim
350
9A73
  3
ACDBVARIABLEDICTIONARY
350
45D
  0
DICTIONARY
  5
7BFE
330
2
100
AcDbDictionary
280
     1
281
     1
  3
ACAD_LAYERFILTERS
360
7C00
  3
ACLYDICTIONARY
360
7BFF
  0
DICTIONARY
  5
45F
330
18
100
AcDbDictionary
280
     1
281
     1
  3
ACAD_LAYOUTSELFREF
360
5D8B
  3
ACAD_SORTENTS
360
460
  0
DICTIONARY
  5
5D89
330
15
100
AcDbDictionary
280
     1
281
     1
  3
ACAD_LAYOUTSELFREF
360
5D8A
  0
DICTIONARY
  5
7C0B
330
7C0A
100
AcDbDictionary
280
     1
281
     1
  3
AcDbBlockTableRecordData
360
7C0C
  0
DICTIONARY
  5
8E73
330
8E72
100
AcDbDictionary
280
     1
281
     1
  3
AcDbBlockTableRecordData
360
8E74
  0
DICTIONARY
  5
9D16
330
9D15
100
AcDbDictionary
280
     1
281
     1
  3
AcDbBlockTableRecordData
360
9D17
  0
DICTIONARY
  5
A4B1
330
A4B0
100
AcDbDictionary
280
     1
281
     1
  3
AcDbBlockTableRecordData
360
A4B2
  0
DICTIONARY
  5
7873
102
{ACAD_REACTORS
330
C
102
}
330
C
100
AcDbDictionary
281
     1
  0
DICTIONARY
  5
D
102
{ACAD_REACTORS
330
C
102
}
330
C
100
AcDbDictionary
281
     1
  0
DICTIONARY
  5
5CF3
102
{ACAD_REACTORS
330
C
102
}
330
C
100
AcDbDictionary
281
     1
  3
Model
350
5CF5
  3
配置1
350
5CF6
  0
DICTIONARY
  5
7872
102
{ACAD_REACTORS
330
C
102
}
330
C
100
AcDbDictionary
281
     1
  0
DICTIONARY
  5
1B
102
{ACAD_REACTORS
330
C
102
}
330
C
100
AcDbDictionary
281
     1
  3
STANDARD
350
1C
  0
DICTIONARY
  5
5CF4
102
{ACAD_REACTORS
330
C
102
}
330
C
100
AcDbDictionary
281
     1
  0
ACDBDICTIONARYWDFLT
  5
5CF1
102
{ACAD_REACTORS
330
C
102
}
330
C
100
AcDbDictionary
281
     1
  3
Normal
350
5CF2
100
AcDbDictionaryWithDefault
340
5CF2
  0
DICTIONARY
  5
7874
102
{ACAD_REACTORS
330
C
102
}
330
C
100
AcDbDictionary
281
     1
  3
Standard
350
7875
  0
XRECORD
  5
9A73
102
{ACAD_REACTORS
330
C
102
}
330
C
100
AcDbXrecord
280
     1
 90
   990106
  3

 60
     0
 61
     0
 62
     1
 63
     3
 64
     0
 65
     0
 66
     0
 67
     3
 68
     1
 69
     0
 70
     0
 71
     0
 72
     0
 40
0.0
170
     0
  0
DICTIONARY
  5
45D
102
{ACAD_REACTORS
330
C
102
}
330
C
100
AcDbDictionary
281
     1
  3
CTABLESTYLE
350
7880
  3
SORTENTS
350
45E
  0
DICTIONARY
  5
7C00
102
{ACAD_REACTORS
330
7BFE
102
}
330
7BFE
100
AcDbDictionary
281
     1
  0
DICTIONARY
  5
7BFF
102
{ACAD_REACTORS
330
7BFE
102
}
330
7BFE
100
AcDbDictionary
281
     1
1001
ACAD
1000
<All
  0
XRECORD
  5
5D8B
102
{ACAD_REACTORS
330
45F
102
}
330
45F
100
AcDbXrecord
280
     1
340
18
  0
SORTENTSTABLE
  5
460
102
{ACAD_REACTORS
330
45F
102
}
330
45F
100
AcDbSortentsTable
330
18
331
9E50
  5
A4D0
331
9E19
  5
9E45
331
7D9C
  5
7D9C
331
A96B
  5
A96C
331
9E21
  5
9E4C
331
7DA4
  5
7DA4
331
C0
  5
CB
331
7D6D
  5
7D6D
331
A526
  5
A529
331
A973
  5
A975
331
9E29
  5
A498
331
7DAC
  5
7DAC
331
7D75
  5
7D75
331
A52E
  5
A531
331
A8BD
  5
A8C9
331
A4FF
  5
A503
331
7DB4
  5
7DB4
331
AA72
  5
AA72
331
A53E
  5
A541
331
A934
  5
A934
331
9E31
  5
9E32
331
7DBC
  5
7DBC
331
7D7D
  5
7D7D
331
A546
  5
A54A
331
A4D0
  5
A4D2
331
9E39
  5
A4A2
331
7D85
  5
7D85
331
A507
  5
A50A
331
AA13
  5
9E21
331
A54E
  5
A550
331
9E41
  5
A4AA
331
9DFA
  5
9E33
331
7D8D
  5
7D8D
331
A50F
  5
A512
331
A556
  5
A8AF
331
9E49
  5
9E26
331
7D95
  5
7D95
331
A517
  5
A51A
331
A964
  5
A965
331
A51F
  5
A522
331
9E1A
  5
9E46
331
7D9D
  5
7D9D
331
A96C
  5
A96D
331
9E22
  5
9E4D
331
7D6E
  5
7D6E
331
7DA5
  5
7DA5
331
A527
  5
A52A
331
A4F8
  5
A4FC
331
7D76
  5
7D76
331
7DAD
  5
7DAD
331
A52F
  5
A532
331
AA6B
  5
AA6B
331
7DB5
  5
7DB5
331
A537
  5
A53A
331
A53F
  5
A543
331
A935
  5
A935
331
9E32
  5
A49A
331
7DBD
  5
7DBD
331
7D7E
  5
7D7E
331
A500
  5
A504
331
A547
  5
A54B
331
A4D1
  5
A4D3
331
9E3A
  5
A4A3
331
7D86
  5
7D86
331
9DF3
  5
9E3A
331
A508
  5
A50B
331
A54F
  5
A551
331
7D8E
  5
7D8E
331
A510
  5
A513
331
AA14
  5
AA14
331
A4E1
  5
A4ED
331
9E13
  5
9E3E
331
7D96
  5
7D96
331
9E4A
  5
9E23
331
A518
  5
A51B
331
A965
  5
A966
331
A8AF
  5
A8BD
331
9E1B
  5
9E47
331
7D9E
  5
7D9E
331
A520
  5
A523
331
A96D
  5
A96E
331
A4F1
  5
A4F9
331
9E23
  5
9E4E
331
7D6F
  5
7D6F
331
7DA6
  5
7DA6
331
A528
  5
A52B
331
A975
  5
A989
331
A4F9
  5
A4FD
331
7DAE
  5
7DAE
331
7D77
  5
7D77
331
A530
  5
A533
331
AA54
  5
AA54
331
A926
  5
A942
331
7DB6
  5
7DB6
331
A538
  5
A53B
331
A936
  5
A936
331
A540
  5
A544
331
9E33
  5
9E24
331
9DEC
  5
9E22
331
7D7F
  5
7D7F
331
A501
  5
A505
331
A548
  5
A54C
331
A4D2
  5
A4D6
331
9E3B
  5
A4A4
331
9DF4
  5
9E3B
331
7D87
  5
7D87
331
A509
  5
A50C
331
A550
  5
A552
331
A4DA
  5
A4DC
331
9DFC
  5
9E3D
331
7D8F
  5
7D8F
331
9E43
  5
9E39
331
A511
  5
A514
331
A4E2
  5
A4F1
331
9E4B
  5
A4AB
331
9E14
  5
9E3F
331
7D97
  5
7D97
331
A519
  5
A51C
331
A966
  5
A967
331
A8FF
  5
A926
331
7D9F
  5
7D9F
331
A521
  5
A524
331
A96E
  5
A96F
331
A4F2
  5
A4FA
331
9E24
  5
9E4F
331
7D70
  5
7D70
331
A529
  5
A52C
331
A4FA
  5
A4FE
331
7DAF
  5
7DAF
331
A531
  5
A534
331
7DB7
  5
7DB7
331
A539
  5
A53C
331
A937
  5
A937
331
7D78
  5
7D78
331
A541
  5
A545
331
9E34
  5
A49D
331
9DED
  5
9E25
331
7D80
  5
7D80
331
A502
  5
A506
331
A549
  5
A54D
331
A4D3
  5
A4DA
331
9E3C
  5
A4A5
331
9DF5
  5
9E37
331
7D88
  5
7D88
331
A50A
  5
A50D
331
A4DB
  5
A4E4
331
9DFD
  5
9E3C
331
7D90
  5
7D90
331
9E44
  5
9E38
331
A512
  5
A516
331
A4E3
  5
A4F2
331
9E4C
  5
A4AC
331
9E15
  5
9E40
331
A51A
  5
A51D
331
A967
  5
A968
331
7D98
  5
7D98
331
9E1D
  5
9E48
331
7DA0
  5
7DA0
331
A522
  5
A525
331
A96F
  5
A970
331
A4F3
  5
A4FB
331
9E25
  5
9E50
331
7D71
  5
7D71
331
7DA8
  5
7DA8
331
A52A
  5
A52D
331
A4FB
  5
A4FF
331
7DB0
  5
7DB0
331
A532
  5
A535
331
AA6E
  5
AA6E
331
A53A
  5
A53D
331
7DB8
  5
7DB8
331
7D79
  5
7D79
331
A8C9
  5
A8F1
331
9E35
  5
A49E
331
9DEE
  5
9E2B
331
7D81
  5
7D81
331
A542
  5
A546
331
A938
  5
A938
331
A54A
  5
A54E
331
9E3D
  5
A4A6
331
9DF6
  5
9E30
331
7D89
  5
7D89
331
A50B
  5
A50E
331
A8F1
  5
A8F2
331
A552
  5
A553
331
9E45
  5
9E36
331
7D91
  5
7D91
331
A513
  5
A517
331
AA17
  5
AA17
331
A4E4
  5
A4F4
331
9E4D
  5
A4AD
331
9E16
  5
9E41
331
A51B
  5
A51E
331
7D99
  5
7D99
331
A968
  5
A969
331
9E1E
  5
9E49
331
A523
  5
A526
331
A970
  5
A971
331
9E26
  5
9E51
331
7D72
  5
7D72
331
7DA9
  5
7DA9
331
A52B
  5
A52E
331
A4FC
  5
A500
331
9E2E
  5
A499
331
7DB1
  5
7DB1
331
A533
  5
A537
331
A53B
  5
A53E
331
7D7A
  5
7D7A
331
A543
  5
A547
331
9E36
  5
A49F
331
9DEF
  5
9E34
331
7D82
  5
7D82
331
A504
  5
A507
331
A939
  5
A939
331
9E3E
  5
A4A7
331
9DF7
  5
9E2E
331
7D8A
  5
7D8A
331
A50C
  5
A50F
331
A8F2
  5
A8FF
331
A553
  5
A554
331
9E46
  5
9E35
331
7D92
  5
7D92
331
A514
  5
A518
331
AA18
  5
AA18
331
9E4E
  5
A4AE
331
9E17
  5
9E43
331
A51C
  5
A51F
331
7D9A
  5
7D9A
331
A969
  5
A96A
331
A4ED
  5
A4F8
331
9E1F
  5
9E4A
331
7DA2
  5
7DA2
331
A524
  5
A527
331
A971
  5
A972
331
7DAA
  5
7DAA
331
7D73
  5
7D73
331
A52C
  5
A52F
331
A4FD
  5
A501
331
9E2F
  5
A49C
331
7DB2
  5
7DB2
331
A534
  5
A538
331
A53C
  5
A53F
331
7DBA
  5
7DBA
331
7D7B
  5
7D7B
331
A544
  5
A548
331
9E37
  5
A4A0
331
9DF0
  5
9E2C
331
7D83
  5
7D83
331
A505
  5
A508
331
A93A
  5
A93A
331
A942
  5
A964
331
9E3F
  5
A4A8
331
9DF8
  5
9E29
331
7D8B
  5
7D8B
331
A50D
  5
A510
331
9E47
  5
9E2A
331
7D93
  5
7D93
331
A554
  5
A555
331
AA19
  5
AA19
331
9E4F
  5
A4CF
331
A51D
  5
A520
331
9E18
  5
9E44
331
7D9B
  5
7D9B
331
A96A
  5
A96B
331
9E20
  5
9E4B
331
7DA3
  5
7DA3
331
7D6C
  5
7D6C
331
A525
  5
A528
331
A972
  5
A973
331
7D74
  5
7D74
331
A52D
  5
A530
331
A4FE
  5
A502
331
A535
  5
A539
331
AA71
  5
AA71
331
A53D
  5
A540
331
A933
  5
A933
331
9E30
  5
A49B
331
7D7C
  5
7D7C
331
7DBB
  5
7DBB
331
A545
  5
A549
331
A4CF
  5
A4D1
331
9E38
  5
A4A1
331
9DF1
  5
9E2F
331
7D84
  5
7D84
331
A506
  5
A509
331
A54D
  5
A54F
331
9E40
  5
A4A9
331
9DF9
  5
9E31
331
7D8C
  5
7D8C
331
A50E
  5
A511
331
A555
  5
A556
331
9E48
  5
9E2D
331
7D94
  5
7D94
331
A516
  5
A519
331
A51E
  5
A521
  0
XRECORD
  5
5D8A
102
{ACAD_REACTORS
330
5D89
102
}
330
5D89
100
AcDbXrecord
280
     1
340
15
  0
DICTIONARY
  5
7C0C
102
{ACAD_REACTORS
330
7C0B
102
}
330
7C0B
100
AcDbDictionary
280
     1
281
     1
  3
Edit
360
7C0D
  0
DICTIONARY
  5
8E74
102
{ACAD_REACTORS
330
8E73
102
}
330
8E73
100
AcDbDictionary
280
     1
281
     1
  3
Edit
360
8E75
  0
DICTIONARY
  5
9D17
102
{ACAD_REACTORS
330
9D16
102
}
330
9D16
100
AcDbDictionary
280
     1
281
     1
  3
Edit
360
9D18
  0
DICTIONARY
  5
A4B2
102
{ACAD_REACTORS
330
A4B1
102
}
330
A4B1
100
AcDbDictionary
280
     1
281
     1
  3
Edit
360
A4B3
  0
LAYOUT
  5
5CF5
102
{ACAD_REACTORS
330
5CF3
102
}
330
5CF3
100
AcDbPlotSettings
  1

  2
hp LaserJet 1300 PCL 6
  4
A4
  6

 40
5.027083396911621
 41
5.069413185119628
 42
5.027084350585937
 43
5.027069091796875
 44
209.9733276367187
 45
296.9683227539062
 46
4.959579944610595
 47
3.435920238494873
 48
0.0
 49
0.0
140
190.0
141
280.0
142
1.0
143
1.0
 70
 11956
 72
     1
 73
     0
 74
     4
  7
LIN.ctb
 75
    16
147
1.0
 76
     0
 77
     2
 78
   300
148
0.0
149
0.0
100
AcDbLayout
  1
Model
 70
     1
 71
     0
 10
0.0
 20
0.0
 11
12.0
 21
9.0
 12
0.0
 22
0.0
 32
0.0
 14
0.0
 24
0.0
 34
0.0
 15
0.0
 25
0.0
 35
0.0
146
0.0
 13
0.0
 23
0.0
 33
0.0
 16
1.0
 26
0.0
 36
0.0
 17
0.0
 27
1.0
 37
0.0
 76
     0
330
18
1001
ACAD_PSEXT
1000
hp LaserJet 1300 PCL 6
1000
hp LaserJet 1300 PCL 6
1000
HP 1300
1000

1070
     0
  0
LAYOUT
  5
5CF6
102
{ACAD_REACTORS
330
5CF3
102
}
330
5CF3
100
AcDbPlotSettings
  1

  2
EPSON STYLUS COLOR 440
  4

  6

 40
0.0
 41
0.0
 42
0.0
 43
0.0
 44
0.0
 45
0.0
 46
0.0
 47
0.0
 48
0.0
 49
0.0
140
0.0
141
0.0
142
1.0
143
1.0
 70
   688
 72
     0
 73
     0
 74
     5
  7
LIN.ctb
 75
    16
147
1.0
 76
     0
 77
     2
 78
   300
148
0.0
149
0.0
100
AcDbLayout
  1
ｰtｸm1
 70
     1
 71
     1
 10
0.0
 20
0.0
 11
420.0
 21
297.0
 12
0.0
 22
0.0
 32
0.0
 14
1.000000000000000E+20
 24
1.000000000000000E+20
 34
1.000000000000000E+20
 15
-1.000000000000000E+20
 25
-1.000000000000000E+20
 35
-1.000000000000000E+20
146
0.0
 13
0.0
 23
0.0
 33
0.0
 16
1.0
 26
0.0
 36
0.0
 17
0.0
 27
1.0
 37
0.0
 76
     0
330
15
  0
MLINESTYLE
  5
1C
102
{ACAD_REACTORS
330
1B
102
}
330
1B
100
AcDbMlineStyle
  2
STANDARD
 70
     0
  3

 62
   256
 51
90.0
 52
90.0
 71
     2
 49
0.5
 62
   256
  6
BYLAYER
 49
-0.5
 62
   256
  6
BYLAYER
  0
ACDBPLACEHOLDER
  5
5CF2
102
{ACAD_REACTORS
330
5CF1
102
}
330
5CF1
  0
TABLESTYLE
  5
7875
102
{ACAD_REACTORS
330
7874
102
}
330
7874
100
AcDbTableStyle
  3
Standard
 70
     0
 71
     8
 40
1.5
 41
1.5
280
     0
281
     0
  7
STANDARD
140
4.5
170
     2
 62
     0
 63
     7
283
     0
274
    -2
284
     1
 64
     0
275
    -2
285
     1
 65
     0
276
    -2
286
     1
 66
     0
277
    -2
287
     1
 67
     0
278
    -2
288
     1
 68
     0
279
    -2
289
     1
 69
     0
  7
STANDARD
140
6.0
170
     5
 62
     0
 63
     7
283
     0
274
    -2
284
     1
 64
     0
275
    -2
285
     1
 65
     0
276
    -2
286
     1
 66
     0
277
    -2
287
     1
 67
     0
278
    -2
288
     1
 68
     0
279
    -2
289
     1
 69
     0
  7
STANDARD
140
4.5
170
     5
 62
     0
 63
     7
283
     0
274
    -2
284
     1
 64
     0
275
    -2
285
     1
 65
     0
276
    -2
286
     1
 66
     0
277
    -2
287
     1
 67
     0
278
    -2
288
     1
 68
     0
279
    -2
289
     1
 69
     0
  0
DICTIONARYVAR
  5
7880
102
{ACAD_REACTORS
330
45D
102
}
330
45D
100
DictionaryVariables
280
     0
  1
STANDARD
  0
DICTIONARYVAR
  5
45E
102
{ACAD_REACTORS
330
45D
102
}
330
45D
100
DictionaryVariables
280
     0
  1
127
  0
XRECORD
  5
7C0D
102
{ACAD_REACTORS
330
7C0C
102
}
330
7C0C
100
AcDbXrecord
280
     1
1070
     0
1070
     1
1070
     1
  0
XRECORD
  5
8E75
102
{ACAD_REACTORS
330
8E74
102
}
330
8E74
100
AcDbXrecord
280
     1
1070
     0
1070
     1
1070
     1
  0
XRECORD
  5
9D18
102
{ACAD_REACTORS
330
9D17
102
}
330
9D17
100
AcDbXrecord
280
     1
1070
     0
1070
     1
1070
     1
  0
XRECORD
  5
A4B3
102
{ACAD_REACTORS
330
A4B2
102
}
330
A4B2
100
AcDbXrecord
280
     1
1070
     0
1070
     1
1070
     1
  0
ENDSEC
  0
EOF
