  0
SECTION
  2
HEADER
  9
$ACADVER
  1
AC1018
  9
$ACADMAINTVER
 70
    76
  9
$DWGCODEPAGE
  3
ANSI_932
  9
$INSBASE
 10
0.0
 20
0.0
 30
0.0
  9
$EXTMIN
 10
0.0
 20
0.0
 30
0.0
  9
$EXTMAX
 10
190.0
 20
280.0
 30
0.0
  9
$LIMMIN
 10
0.0
 20
0.0
  9
$LIMMAX
 10
420.0
 20
297.0
  9
$ORTHOMODE
 70
     0
  9
$REGENMODE
 70
     1
  9
$FILLMODE
 70
     1
  9
$QTEXTMODE
 70
     0
  9
$MIRRTEXT
 70
     1
  9
$LTSCALE
 40
1.0
  9
$ATTMODE
 70
     1
  9
$TEXTSIZE
 40
1.25
  9
$TRACEWID
 40
1.0
  9
$TEXTSTYLE
  7
TXT
  9
$CLAYER
  8
mark
  9
$CELTYPE
  6
BYLAYER
  9
$CECOLOR
 62
   256
  9
$CELTSCALE
 40
1.0
  9
$DISPSILH
 70
     0
  9
$DIMSCALE
 40
1.0
  9
$DIMASZ
 40
2.5
  9
$DIMEXO
 40
0.8
  9
$DIMDLI
 40
0.38
  9
$DIMRND
 40
0.0
  9
$DIMDLE
 40
0.0
  9
$DIMEXE
 40
0.8
  9
$DIMTP
 40
0.0
  9
$DIMTM
 40
0.0
  9
$DIMTXT
 40
2.5
  9
$DIMCEN
 40
0.09
  9
$DIMTSZ
 40
0.0
  9
$DIMTOL
 70
     0
  9
$DIMLIM
 70
     0
  9
$DIMTIH
 70
     0
  9
$DIMTOH
 70
     0
  9
$DIMSE1
 70
     0
  9
$DIMSE2
 70
     0
  9
$DIMTAD
 70
     3
  9
$DIMZIN
 70
     8
  9
$DIMBLK
  1
Open30
  9
$DIMASO
 70
     1
  9
$DIMSHO
 70
     1
  9
$DIMPOST
  1

  9
$DIMAPOST
  1

  9
$DIMALT
 70
     0
  9
$DIMALTD
 70
     2
  9
$DIMALTF
 40
25.4
  9
$DIMLFAC
 40
1.0
  9
$DIMTOFL
 70
     1
  9
$DIMTVP
 40
0.0
  9
$DIMTIX
 70
     0
  9
$DIMSOXD
 70
     0
  9
$DIMSAH
 70
     0
  9
$DIMBLK1
  1

  9
$DIMBLK2
  1

  9
$DIMSTYLE
  2
STANDARD
  9
$DIMCLRD
 70
   256
  9
$DIMCLRE
 70
   256
  9
$DIMCLRT
 70
     3
  9
$DIMTFAC
 40
1.0
  9
$DIMGAP
 40
0.8
  9
$DIMJUST
 70
     0
  9
$DIMSD1
 70
     0
  9
$DIMSD2
 70
     0
  9
$DIMTOLJ
 70
     1
  9
$DIMTZIN
 70
     0
  9
$DIMALTZ
 70
     0
  9
$DIMALTTZ
 70
     0
  9
$DIMUPT
 70
     0
  9
$DIMDEC
 70
     2
  9
$DIMTDEC
 70
     2
  9
$DIMALTU
 70
     2
  9
$DIMALTTD
 70
     2
  9
$DIMTXSTY
  7
STANDARD
  9
$DIMAUNIT
 70
     0
  9
$DIMADEC
 70
     2
  9
$DIMALTRND
 40
0.0
  9
$DIMAZIN
 70
     2
  9
$DIMDSEP
 70
    46
  9
$DIMATFIT
 70
     3
  9
$DIMFRAC
 70
     0
  9
$DIMLDRBLK
  1
Open30
  9
$DIMLUNIT
 70
     2
  9
$DIMLWD
 70
    -2
  9
$DIMLWE
 70
    -2
  9
$DIMTMOVE
 70
     0
  9
$LUNITS
 70
     2
  9
$LUPREC
 70
     2
  9
$SKETCHINC
 40
1.0
  9
$FILLETRAD
 40
1.0
  9
$AUNITS
 70
     0
  9
$AUPREC
 70
     2
  9
$MENU
  1
.
  9
$ELEVATION
 40
0.0
  9
$PELEVATION
 40
0.0
  9
$THICKNESS
 40
0.0
  9
$LIMCHECK
 70
     0
  9
$CHAMFERA
 40
1.5
  9
$CHAMFERB
 40
1.5
  9
$CHAMFERC
 40
1.75
  9
$CHAMFERD
 40
0.0174532925199433
  9
$SKPOLY
 70
     0
  9
$TDCREATE
 40
2451555.620234838
  9
$TDUCREATE
 40
2451555.245234838
  9
$TDUPDATE
 40
2455846.620949711
  9
$TDUUPDATE
 40
2455846.245949711
  9
$TDINDWG
 40
2.6389842014
  9
$TDUSRTIMER
 40
2.6389842014
  9
$USRTIMER
 70
     1
  9
$ANGBASE
 50
0.0
  9
$ANGDIR
 70
     0
  9
$PDMODE
 70
     0
  9
$PDSIZE
 40
0.0
  9
$PLINEWID
 40
0.0
  9
$SPLFRAME
 70
     0
  9
$SPLINETYPE
 70
     6
  9
$SPLINESEGS
 70
     8
  9
$HANDSEED
  5
AB9E
  9
$SURFTAB1
 70
     6
  9
$SURFTAB2
 70
     6
  9
$SURFTYPE
 70
     6
  9
$SURFU
 70
     6
  9
$SURFV
 70
     6
  9
$UCSBASE
  2

  9
$UCSNAME
  2

  9
$UCSORG
 10
0.0
 20
0.0
 30
0.0
  9
$UCSXDIR
 10
1.0
 20
0.0
 30
0.0
  9
$UCSYDIR
 10
0.0
 20
1.0
 30
0.0
  9
$UCSORTHOREF
  2

  9
$UCSORTHOVIEW
 70
     1
  9
$UCSORGTOP
 10
0.0
 20
0.0
 30
0.0
  9
$UCSORGBOTTOM
 10
0.0
 20
0.0
 30
0.0
  9
$UCSORGLEFT
 10
0.0
 20
0.0
 30
0.0
  9
$UCSORGRIGHT
 10
0.0
 20
0.0
 30
0.0
  9
$UCSORGFRONT
 10
0.0
 20
0.0
 30
0.0
  9
$UCSORGBACK
 10
0.0
 20
0.0
 30
0.0
  9
$PUCSBASE
  2

  9
$PUCSNAME
  2

  9
$PUCSORG
 10
0.0
 20
0.0
 30
0.0
  9
$PUCSXDIR
 10
1.0
 20
0.0
 30
0.0
  9
$PUCSYDIR
 10
0.0
 20
1.0
 30
0.0
  9
$PUCSORTHOREF
  2

  9
$PUCSORTHOVIEW
 70
     0
  9
$PUCSORGTOP
 10
0.0
 20
0.0
 30
0.0
  9
$PUCSORGBOTTOM
 10
0.0
 20
0.0
 30
0.0
  9
$PUCSORGLEFT
 10
0.0
 20
0.0
 30
0.0
  9
$PUCSORGRIGHT
 10
0.0
 20
0.0
 30
0.0
  9
$PUCSORGFRONT
 10
0.0
 20
0.0
 30
0.0
  9
$PUCSORGBACK
 10
0.0
 20
0.0
 30
0.0
  9
$USERI1
 70
     0
  9
$USERI2
 70
     0
  9
$USERI3
 70
     0
  9
$USERI4
 70
     0
  9
$USERI5
 70
     0
  9
$USERR1
 40
0.0
  9
$USERR2
 40
0.0
  9
$USERR3
 40
0.0
  9
$USERR4
 40
0.0
  9
$USERR5
 40
0.0
  9
$WORLDVIEW
 70
     1
  9
$SHADEDGE
 70
     3
  9
$SHADEDIF
 70
    70
  9
$TILEMODE
 70
     1
  9
$MAXACTVP
 70
    48
  9
$PINSBASE
 10
0.0
 20
0.0
 30
0.0
  9
$PLIMCHECK
 70
     0
  9
$PEXTMIN
 10
1.000000000000000E+20
 20
1.000000000000000E+20
 30
1.000000000000000E+20
  9
$PEXTMAX
 10
-1.000000000000000E+20
 20
-1.000000000000000E+20
 30
-1.000000000000000E+20
  9
$PLIMMIN
 10
0.0
 20
0.0
  9
$PLIMMAX
 10
420.0
 20
297.0
  9
$UNITMODE
 70
     0
  9
$VISRETAIN
 70
     1
  9
$PLINEGEN
 70
     0
  9
$PSLTSCALE
 70
     1
  9
$TREEDEPTH
 70
  3020
  9
$CMLSTYLE
  2
STANDARD
  9
$CMLJUST
 70
     0
  9
$CMLSCALE
 40
20.0
  9
$PROXYGRAPHICS
 70
     1
  9
$MEASUREMENT
 70
     1
  9
$CELWEIGHT
370
    -1
  9
$ENDCAPS
280
     0
  9
$JOINSTYLE
280
     0
  9
$LWDISPLAY
290
     0
  9
$INSUNITS
 70
     0
  9
$HYPERLINKBASE
  1

  9
$STYLESHEET
  1
monochrome.ctb
  9
$XEDIT
290
     1
  9
$CEPSNTYPE
380
     0
  9
$PSTYLEMODE
290
     1
  9
$FINGERPRINTGUID
  2
{1CF51E8A-A506-11D4-A7D9-AF69F5C20846}
  9
$VERSIONGUID
  2
{0EFA6EC8-C6EB-4A98-A200-45E6EF470265}
  9
$EXTNAMES
290
     1
  9
$PSVPSCALE
 40
0.0
  9
$OLESTARTUP
290
     0
  9
$SORTENTS
280
   127
  9
$INDEXCTL
280
     0
  9
$HIDETEXT
280
     0
  9
$XCLIPFRAME
290
     0
  9
$HALOGAP
280
     0
  9
$OBSCOLOR
 70
   257
  9
$OBSLTYPE
280
     0
  9
$INTERSECTIONDISPLAY
280
     0
  9
$INTERSECTIONCOLOR
 70
   257
  9
$DIMASSOC
280
     1
  9
$PROJECTNAME
  1

  0
ENDSEC
  0
SECTION
  2
CLASSES
  0
CLASS
  1
DICTIONARYVAR
  2
AcDbDictionaryVar
  3
ObjectDBX Classes
 90
        0
 91
        2
280
     0
281
     0
  0
CLASS
  1
SORTENTSTABLE
  2
AcDbSortentsTable
  3
ObjectDBX Classes
 90
        0
 91
        1
280
     0
281
     0
  0
CLASS
  1
ACDBDICTIONARYWDFLT
  2
AcDbDictionaryWithDefault
  3
ObjectDBX Classes
 90
        0
 91
        1
280
     0
281
     0
  0
CLASS
  1
TABLESTYLE
  2
AcDbTableStyle
  3
ObjectDBX Classes
 90
     2047
 91
        1
280
     0
281
     0
  0
ENDSEC
  0
SECTION
  2
TABLES
  0
TABLE
  2
VPORT
  5
8
330
0
100
AcDbSymbolTable
 70
     2
  0
VPORT
  5
AB9D
330
8
100
AcDbSymbolTableRecord
100
AcDbViewportTableRecord
  2
*Active
 70
     0
 10
0.0
 20
0.0
 11
1.0
 21
1.0
 12
185.7897286682817
 22
136.7125147851141
 13
0.0
 23
0.0
 14
10.0
 24
10.0
 15
10.0
 25
10.0
 16
0.0
 26
0.0
 36
1.0
 17
0.0
 27
0.0
 37
0.0
 40
283.4377190679578
 41
2.47104247104247
 42
50.0
 43
0.0
 44
0.0
 50
0.0
 51
0.0
 71
     0
 72
 20000
 73
     1
 74
     1
 75
     0
 76
     0
 77
     0
 78
     0
281
     0
 65
     1
110
0.0
120
0.0
130
0.0
111
1.0
121
0.0
131
0.0
112
0.0
122
1.0
132
0.0
 79
     1
146
0.0
  0
ENDTAB
  0
TABLE
  2
LTYPE
  5
5
330
0
100
AcDbSymbolTable
 70
     7
  0
LTYPE
  5
12
330
5
100
AcDbSymbolTableRecord
100
AcDbLinetypeTableRecord
  2
BYBLOCK
 70
     0
  3

 72
    65
 73
     0
 40
0.0
  0
LTYPE
  5
13
330
5
100
AcDbSymbolTableRecord
100
AcDbLinetypeTableRecord
  2
BYLAYER
 70
     0
  3

 72
    65
 73
     0
 40
0.0
  0
LTYPE
  5
14
330
5
100
AcDbSymbolTableRecord
100
AcDbLinetypeTableRecord
  2
CONTINUOUS
 70
     0
  3
Solid line
 72
    65
 73
     0
 40
0.0
  0
LTYPE
  5
9D
330
5
100
AcDbSymbolTableRecord
100
AcDbLinetypeTableRecord
  2
CENTERX2
 70
     0
  3
Center (2x) ________  __  ________  __  _____
 72
    65
 73
     4
 40
101.6
 49
63.5
 74
     0
 49
-12.7
 74
     0
 49
12.7
 74
     0
 49
-12.7
 74
     0
  0
LTYPE
  5
A1
330
5
100
AcDbSymbolTableRecord
100
AcDbLinetypeTableRecord
  2
DASHED
 70
     0
  3
Dashed __ __ __ __ __ __ __ __ __ __ __ __ __ _
 72
    65
 73
     2
 40
19.05
 49
12.7
 74
     0
 49
-6.349999999999999
 74
     0
  0
LTYPE
  5
A2
330
5
100
AcDbSymbolTableRecord
100
AcDbLinetypeTableRecord
  2
DASHED2
 70
     0
  3
Dashed (.5x) _ _ _ _ _ _ _ _ _ _ _ _ _ _ _ _ _
 72
    65
 73
     2
 40
9.524999999999998
 49
6.349999999999999
 74
     0
 49
-3.174999999999999
 74
     0
  0
LTYPE
  5
A5
330
5
100
AcDbSymbolTableRecord
100
AcDbLinetypeTableRecord
  2
DIVIDE2
 70
     0
  3
Divide (.5x) __..__..__..__..__..__..__..__.._
 72
    65
 73
     6
 40
15.875
 49
6.349999999999999
 74
     0
 49
-3.174999999999999
 74
     0
 49
0.0
 74
     0
 49
-3.174999999999999
 74
     0
 49
0.0
 74
     0
 49
-3.174999999999999
 74
     0
  0
LTYPE
  5
650B
330
5
100
AcDbSymbolTableRecord
100
AcDbLinetypeTableRecord
  2
CENTER
 70
     0
  3
Center ____ _ ____ _ ____ _ ____ _ ____ _ ____
 72
    65
 73
     4
 40
50.8
 49
31.75
 74
     0
 49
-6.349999999999999
 74
     0
 49
6.349999999999999
 74
     0
 49
-6.349999999999999
 74
     0
  0
LTYPE
  5
650C
330
5
100
AcDbSymbolTableRecord
100
AcDbLinetypeTableRecord
  2
HIDDEN
 70
     0
  3
Hidden __ __ __ __ __ __ __ __ __ __ __ __ __ _
 72
    65
 73
     2
 40
9.524999999999998
 49
6.349999999999999
 74
     0
 49
-3.174999999999999
 74
     0
  0
ENDTAB
  0
TABLE
  2
LAYER
  5
2
102
{ACAD_XDICTIONARY
360
7BFE
102
}
330
0
100
AcDbSymbolTable
 70
     9
  0
LAYER
  5
E
330
2
100
AcDbSymbolTableRecord
100
AcDbLayerTableRecord
  2
0
 70
     0
 62
     7
  6
CONTINUOUS
370
    -3
390
5CF2
  0
LAYER
  5
B9
330
2
100
AcDbSymbolTableRecord
100
AcDbLayerTableRecord
  2
dim
 70
     0
 62
     3
  6
CONTINUOUS
370
    -3
390
5CF2
  0
LAYER
  5
F2
330
2
100
AcDbSymbolTableRecord
100
AcDbLayerTableRecord
  2
DEFPOINTS
 70
     0
 62
     4
  6
CONTINUOUS
290
     0
370
    -3
390
5CF2
  0
LAYER
  5
5F8B
330
2
100
AcDbSymbolTableRecord
100
AcDbLayerTableRecord
  2
mark
 70
     0
 62
     6
  6
CONTINUOUS
370
    -3
390
5CF2
  0
LAYER
  5
644E
330
2
100
AcDbSymbolTableRecord
100
AcDbLayerTableRecord
  2
frame
 70
     0
 62
     9
  6
CONTINUOUS
370
    -3
390
5CF2
  0
LAYER
  5
650D
330
2
100
AcDbSymbolTableRecord
100
AcDbLayerTableRecord
  2
center
 70
     0
 62
     1
  6
CENTER
370
    -3
390
5CF2
  0
LAYER
  5
650E
330
2
100
AcDbSymbolTableRecord
100
AcDbLayerTableRecord
  2
bowle
 70
     0
 62
     4
  6
HIDDEN
370
    -3
390
5CF2
  0
LAYER
  5
650F
330
2
100
AcDbSymbolTableRecord
100
AcDbLayerTableRecord
  2
contour
 70
     0
 62
     2
  6
CONTINUOUS
370
    -3
390
5CF2
  0
LAYER
  5
6510
330
2
100
AcDbSymbolTableRecord
100
AcDbLayerTableRecord
  2
section
 70
     0
 62
     5
  6
CONTINUOUS
370
    -3
390
5CF2
  0
ENDTAB
  0
TABLE
  2
STYLE
  5
3
330
0
100
AcDbSymbolTable
 70
     5
  0
STYLE
  5
F
330
3
100
AcDbSymbolTableRecord
100
AcDbTextStyleTableRecord
  2
STANDARD
 70
     0
 40
0.0
 41
1.0
 50
0.0
 71
     0
 42
2.5
  3
txt
  4

  0
STYLE
  5
BE
330
3
100
AcDbSymbolTableRecord
100
AcDbTextStyleTableRecord
  2
ISOCP3
 70
     0
 40
0.0
 41
1.0
 50
0.0
 71
     0
 42
2.5
  3
isocp3.shx
  4

  0
STYLE
  5
2A37
330
3
100
AcDbSymbolTableRecord
100
AcDbTextStyleTableRecord
  2
TXT
 70
     0
 40
0.0
 41
1.0
 50
0.0
 71
     0
 42
1.25
  3
txt.shx
  4
bigfont.shx
  0
STYLE
  5
5DCB
330
3
100
AcDbSymbolTableRecord
100
AcDbTextStyleTableRecord
  2
LKK
 70
     0
 40
50.0
 41
1.5
 50
0.0
 71
     0
 42
50.0
  3
MS PGothic.ttf
  4

1001
ACAD
1000
MS PGothic
1071
    32818
  0
STYLE
  5
5DCC
330
3
100
AcDbSymbolTableRecord
100
AcDbTextStyleTableRecord
  2
JL
 70
     0
 40
10.0
 41
0.5
 50
0.0
 71
     0
 42
5.0
  3
MS Mincho.ttf
  4

1001
ACAD
1000
MS Mincho
1071
    32785
  0
ENDTAB
  0
TABLE
  2
VIEW
  5
6
330
0
100
AcDbSymbolTable
 70
     0
  0
ENDTAB
  0
TABLE
  2
UCS
  5
7
330
0
100
AcDbSymbolTable
 70
     0
  0
ENDTAB
  0
TABLE
  2
APPID
  5
9
330
0
100
AcDbSymbolTable
 70
    12
  0
APPID
  5
10
330
9
100
AcDbSymbolTableRecord
100
AcDbRegAppTableRecord
  2
ACAD
 70
     0
  0
APPID
  5
7C91
330
9
100
AcDbSymbolTableRecord
100
AcDbRegAppTableRecord
  2
ACAD_DSTYLE_DIMEXT_LENGTH
 70
     0
  0
APPID
  5
7C92
330
9
100
AcDbSymbolTableRecord
100
AcDbRegAppTableRecord
  2
ACAD_DSTYLE_DIMEXT_ENABLED
 70
     0
  0
APPID
  5
7C93
330
9
100
AcDbSymbolTableRecord
100
AcDbRegAppTableRecord
  2
ACAD_DSTYLE_DIMJOGGED_JOGANGLE_SYMBOL
 70
     0
  0
APPID
  5
7C94
330
9
100
AcDbSymbolTableRecord
100
AcDbRegAppTableRecord
  2
ACAD_DSTYLE_DIMARC_LENGTH_SYMBOL
 70
     0
  0
APPID
  5
7F1C
330
9
100
AcDbSymbolTableRecord
100
AcDbRegAppTableRecord
  2
ACAD_EXEMPT_FROM_CAD_STANDARDS
 70
     0
  0
APPID
  5
7F49
330
9
100
AcDbSymbolTableRecord
100
AcDbRegAppTableRecord
  2
ACAD_DSTYLE_DIMTEXT_FILL
 70
     0
  0
APPID
  5
7F4C
330
9
100
AcDbSymbolTableRecord
100
AcDbRegAppTableRecord
  2
ACAD_DSTYLE_DIM_LINETYPE
 70
     0
  0
APPID
  5
7F4D
330
9
100
AcDbSymbolTableRecord
100
AcDbRegAppTableRecord
  2
ACAD_DSTYLE_DIM_EXT1_LINETYPE
 70
     0
  0
APPID
  5
7F4E
330
9
100
AcDbSymbolTableRecord
100
AcDbRegAppTableRecord
  2
ACAD_DSTYLE_DIM_EXT2_LINETYPE
 70
     0
  0
APPID
  5
8C73
330
9
100
AcDbSymbolTableRecord
100
AcDbRegAppTableRecord
  2
ACAD_PSEXT
 70
     0
  0
APPID
  5
A61B
330
9
100
AcDbSymbolTableRecord
100
AcDbRegAppTableRecord
  2
DCO15
 70
     0
  0
ENDTAB
  0
TABLE
  2
DIMSTYLE
  5
A
330
0
100
AcDbSymbolTable
 70
     1
100
AcDbDimStyleTable
 71
     1
340
1D
  0
DIMSTYLE
105
1D
102
{ACAD_REACTORS
330
A950
330
A95D
330
A99A
330
A9B6
330
A9D0
330
A9DD
330
A9F9
330
AA9B
102
}
330
A
100
AcDbSymbolTableRecord
100
AcDbDimStyleTableRecord
  2
STANDARD
 70
     0
 41
2.5
 42
0.8
 44
0.8
 73
     0
 74
     0
 77
     3
 78
     8
 79
     2
140
2.5
147
0.8
172
     1
176
   256
177
   256
178
     3
179
     2
271
     2
272
     2
340
F
341
7C04
342
7C04
1001
ACAD_DSTYLE_DIMEXT_LENGTH
1070
   378
1040
0.18
1001
ACAD_DSTYLE_DIMEXT_ENABLED
1070
   383
1070
     0
1001
ACAD_DSTYLE_DIMARC_LENGTH_SYMBOL
1070
   379
1070
     0
1001
ACAD_DSTYLE_DIMJOGGED_JOGANGLE_SYMBOL
1070
   384
1040
1.570796326794896
  0
ENDTAB
  0
TABLE
  2
BLOCK_RECORD
  5
1
330
0
100
AcDbSymbolTable
 70
    14
  0
BLOCK_RECORD
  5
18
102
{ACAD_XDICTIONARY
360
45F
102
}
330
1
100
AcDbSymbolTableRecord
100
AcDbBlockTableRecord
  2
*MODEL_SPACE
340
5CF5
  0
BLOCK_RECORD
  5
15
102
{ACAD_XDICTIONARY
360
5D89
102
}
330
1
100
AcDbSymbolTableRecord
100
AcDbBlockTableRecord
  2
*PAPER_SPACE
340
5CF6
  0
BLOCK_RECORD
  5
639D
330
1
100
AcDbSymbolTableRecord
100
AcDbBlockTableRecord
  2
A$C255C26A2
340
0
  0
BLOCK_RECORD
  5
7C04
330
1
100
AcDbSymbolTableRecord
100
AcDbBlockTableRecord
  2
_Open30
340
0
102
{BLKREFS
331
A955
331
A956
331
A962
331
A963
331
A99F
331
A9A0
331
A9AC
331
A9AD
331
A9BB
331
A9BC
331
A9D6
331
A9D7
331
A9F5
331
A9F6
331
AA06
331
AAAB
331
AAAC
102
}
  0
BLOCK_RECORD
  5
7C0A
102
{ACAD_XDICTIONARY
360
7C0B
102
}
330
1
100
AcDbSymbolTableRecord
100
AcDbBlockTableRecord
  2
A
340
0
310
2800000020000000200000000100080000000000000400000000000000000000000000000000000000000000000080000080000000808000800000008000800080800000C0C0C000C0DCC000F0CAA6000020400000206000002080000020A0000020C0000020E00000400000004020000040400000406000004080000040A0
310
000040C0000040E00000600000006020000060400000606000006080000060A0000060C0000060E00000800000008020000080400000806000008080000080A0000080C0000080E00000A0000000A0200000A0400000A0600000A0800000A0A00000A0C00000A0E00000C0000000C0200000C0400000C0600000C0800000C0
310
A00000C0C00000C0E00000E0000000E0200000E0400000E0600000E0800000E0A00000E0C00000E0E00040000000400020004000400040006000400080004000A0004000C0004000E00040200000402020004020400040206000402080004020A0004020C0004020E000404000004040200040404000404060004040800040
310
40A0004040C0004040E00040600000406020004060400040606000406080004060A0004060C0004060E00040800000408020004080400040806000408080004080A0004080C0004080E00040A0000040A0200040A0400040A0600040A0800040A0A00040A0C00040A0E00040C0000040C0200040C0400040C0600040C08000
310
40C0A00040C0C00040C0E00040E0000040E0200040E0400040E0600040E0800040E0A00040E0C00040E0E00080000000800020008000400080006000800080008000A0008000C0008000E00080200000802020008020400080206000802080008020A0008020C0008020E00080400000804020008040400080406000804080
310
008040A0008040C0008040E00080600000806020008060400080606000806080008060A0008060C0008060E00080800000808020008080400080806000808080008080A0008080C0008080E00080A0000080A0200080A0400080A0600080A0800080A0A00080A0C00080A0E00080C0000080C0200080C0400080C0600080C0
310
800080C0A00080C0C00080C0E00080E0000080E0200080E0400080E0600080E0800080E0A00080E0C00080E0E000C0000000C0002000C0004000C0006000C0008000C000A000C000C000C000E000C0200000C0202000C0204000C0206000C0208000C020A000C020C000C020E000C0400000C0402000C0404000C0406000C0
310
408000C040A000C040C000C040E000C0600000C0602000C0604000C0606000C0608000C060A000C060C000C060E000C0800000C0802000C0804000C0806000C0808000C080A000C080C000C080E000C0A00000C0A02000C0A04000C0A06000C0A08000C0A0A000C0A0C000C0A0E000C0C00000C0C02000C0C04000C0C06000
310
C0C08000C0C0A000F0FBFF00A4A0A000808080000000FF0000FF000000FFFF00FF000000FF00FF00FFFF0000FFFFFF0000000000000000000000000000000000000000000000000000000000000000000000000000000000000000000000000000000000000000000000000000000000000000000000000000000000000000
310
00000000000000000000000000000000000000000000000000000000000000000000000000000000000000000000000000000000000000000000000000000000000000000000000000000000000000000000000000000000000000000000000000000000000000000000000000000000000000000000000000000000000000
310
00000000000000000000000000000000000000000000000000000000000000000000000000000000000000000000000000000000000000000000000000000000000000000000000000000000000000000000000000000000000000000000000000000000000000000000000000000000000000000000000000000000000000
310
000000000000FDFDFDFDFDFDFDFDFDFDFDFD0000FD0000000000000000000000000000000000FD0000FA0000000000FA00FD0000FDFD00000000000000000000000000000000FD0000FA0000000000FA00FD0000FDFDFD000000000000000000000000000000FD0000FA0000000000FA00FD0000FDFDFDFD00000000000000
310
00000000000000FD0000FAFAFAFAFAFAFA00FD0000FDFDFDFDFD00000000000000000000000000FD000000FA00000000FA00FD0000FDFDFDFDFDFDFDFDFDFDFDFDFDFDFDFDFDFDFD000000FA000000FA0000FD0000FDFDFDFDFD00000000000000000000000000FD00000000FA0000FA0000FD0000FDFDFDFD000000000000
310
0000000000000000FD00000000FA00FA000000FD0000FDFD00000000000000000000000000000000FD0000000000FAFA000000FD0000FD0000000000000000000000000000000000FD0000000000FA00000000FD0000000000000000000000000000000000000000FDFDFDFDFDFDFDFDFDFDFDFD0000000000000000000000
310
00000000000000000000000000000000000000000000000000000000000000000000000000000000000000000000000000000000000000000000000000000000000000000000000000000000000000000000000000000000000000000000000000000000000000000000000000000000000000000000000000000000000000
310
00000000000000000000000000000000000000000000000000000000000000000000000000000000000000000000000000000000000000000000000000000000000000000000000000000000000000000000000000000000000000000000000000000000000000000000000000000000000000000000000000000000000000
310
0000000000000000000000000000000000000000000000000000000000000000000000000000000000000000000000000000000000000000
  0
BLOCK_RECORD
  5
8E72
102
{ACAD_XDICTIONARY
360
8E73
102
}
330
1
100
AcDbSymbolTableRecord
100
AcDbBlockTableRecord
  2
LS
340
0
310
2800000020000000200000000100080000000000000400000000000000000000000000000000000000000000000080000080000000808000800000008000800080800000C0C0C000C0DCC000F0CAA6000020400000206000002080000020A0000020C0000020E00000400000004020000040400000406000004080000040A0
310
000040C0000040E00000600000006020000060400000606000006080000060A0000060C0000060E00000800000008020000080400000806000008080000080A0000080C0000080E00000A0000000A0200000A0400000A0600000A0800000A0A00000A0C00000A0E00000C0000000C0200000C0400000C0600000C0800000C0
310
A00000C0C00000C0E00000E0000000E0200000E0400000E0600000E0800000E0A00000E0C00000E0E00040000000400020004000400040006000400080004000A0004000C0004000E00040200000402020004020400040206000402080004020A0004020C0004020E000404000004040200040404000404060004040800040
310
40A0004040C0004040E00040600000406020004060400040606000406080004060A0004060C0004060E00040800000408020004080400040806000408080004080A0004080C0004080E00040A0000040A0200040A0400040A0600040A0800040A0A00040A0C00040A0E00040C0000040C0200040C0400040C0600040C08000
310
40C0A00040C0C00040C0E00040E0000040E0200040E0400040E0600040E0800040E0A00040E0C00040E0E00080000000800020008000400080006000800080008000A0008000C0008000E00080200000802020008020400080206000802080008020A0008020C0008020E00080400000804020008040400080406000804080
310
008040A0008040C0008040E00080600000806020008060400080606000806080008060A0008060C0008060E00080800000808020008080400080806000808080008080A0008080C0008080E00080A0000080A0200080A0400080A0600080A0800080A0A00080A0C00080A0E00080C0000080C0200080C0400080C0600080C0
310
800080C0A00080C0C00080C0E00080E0000080E0200080E0400080E0600080E0800080E0A00080E0C00080E0E000C0000000C0002000C0004000C0006000C0008000C000A000C000C000C000E000C0200000C0202000C0204000C0206000C0208000C020A000C020C000C020E000C0400000C0402000C0404000C0406000C0
310
408000C040A000C040C000C040E000C0600000C0602000C0604000C0606000C0608000C060A000C060C000C060E000C0800000C0802000C0804000C0806000C0808000C080A000C080C000C080E000C0A00000C0A02000C0A04000C0A06000C0A08000C0A0A000C0A0C000C0A0E000C0C00000C0C02000C0C04000C0C06000
310
C0C08000C0C0A000F0FBFF00A4A0A000808080000000FF0000FF000000FFFF00FF000000FF00FF00FFFF0000FFFFFF00000000000000000000000000000000000000000000000000000000000000000000000000000000000000FBFBFEFBFEFBFBFEFBFEFBFB00000000000000000000000000000000000000FBFBFBFEFBFE
310
FBFBFEFBFEFBFBFB000000000000000000000000000000000000FB0000FE00FE0000FE00FE0000FB000000000000000000000000000000000000FB0000FE00FE0000FE00FE0000FB000000000000000000000000000000000000FB0000FEFEFEFEFEFEFEFE0000FB000000000000000000000000000000000000FB000000FE
310
FE0000FEFE000000FB000000000000000000000000000000000000FB0000000000FEFE0000000000FB000000000000000000000000000000000000FBFBFBFEFBFBFBFBFBFBFEFBFBFB000000000000000000000000000000000000000000FBFE0000000000FE000000000000000000000000000000000000000000000000FB
310
FBFBFBFBFBFEFB000000000000000000000000000000000000000000000000FBFE00000000FEFB000000000000000000000000000000000000000000000000FBFE00000000FEFB000000000000000000000000000000000000000000000000FBFE00000000FEFB000000000000000000000000000000000000000000000000
310
FBFE00000000FEFB000000000000000000000000000000000000000000000000FBFE00000000FEFB000000000000000000000000000000000000000000000000FBFE00000000FEFB000000000000000000000000000000000000000000000000FBFE00000000FEFB0000000000000000000000000000000000000000000000
310
00FBFE00000000FEFB000000000000000000000000000000000000000000000000FBFE00000000FEFB000000000000000000000000000000000000000000000000FBFE00000000FEFB000000000000000000000000000000000000000000000000FBFE00000000FEFB00000000000000000000000000000000000000000000
310
0000FBFE00000000FEFB000000000000000000000000000000000000000000000000FBFE00000000FEFB000000000000000000000000000000000000000000000000FBFE00000000FEFB000000000000000000000000000000000000000000000000FBFE00000000FEFB000000000000000000000000000000000000000000
310
000000FBFE00000000FEFB000000000000000000000000000000000000000000000000FBFE00000000FEFB000000000000000000000000000000000000000000000000FBFEFBFBFBFBFEFB00000000000000000000000000000000000000000000000000FE00000000FEFB0000000000000000000000000000000000000000
310
0000000000FBFBFBFBFBFB000000000000000000000000000000000000000000000000000000000000000000000000000000000000000000
  0
BLOCK_RECORD
  5
9D15
102
{ACAD_XDICTIONARY
360
9D16
102
}
330
1
100
AcDbSymbolTableRecord
100
AcDbBlockTableRecord
  2
LS2
340
0
310
2800000020000000200000000100080000000000000400000000000000000000000000000000000000000000000080000080000000808000800000008000800080800000C0C0C000C0DCC000F0CAA6000020400000206000002080000020A0000020C0000020E00000400000004020000040400000406000004080000040A0
310
000040C0000040E00000600000006020000060400000606000006080000060A0000060C0000060E00000800000008020000080400000806000008080000080A0000080C0000080E00000A0000000A0200000A0400000A0600000A0800000A0A00000A0C00000A0E00000C0000000C0200000C0400000C0600000C0800000C0
310
A00000C0C00000C0E00000E0000000E0200000E0400000E0600000E0800000E0A00000E0C00000E0E00040000000400020004000400040006000400080004000A0004000C0004000E00040200000402020004020400040206000402080004020A0004020C0004020E000404000004040200040404000404060004040800040
310
40A0004040C0004040E00040600000406020004060400040606000406080004060A0004060C0004060E00040800000408020004080400040806000408080004080A0004080C0004080E00040A0000040A0200040A0400040A0600040A0800040A0A00040A0C00040A0E00040C0000040C0200040C0400040C0600040C08000
310
40C0A00040C0C00040C0E00040E0000040E0200040E0400040E0600040E0800040E0A00040E0C00040E0E00080000000800020008000400080006000800080008000A0008000C0008000E00080200000802020008020400080206000802080008020A0008020C0008020E00080400000804020008040400080406000804080
310
008040A0008040C0008040E00080600000806020008060400080606000806080008060A0008060C0008060E00080800000808020008080400080806000808080008080A0008080C0008080E00080A0000080A0200080A0400080A0600080A0800080A0A00080A0C00080A0E00080C0000080C0200080C0400080C0600080C0
310
800080C0A00080C0C00080C0E00080E0000080E0200080E0400080E0600080E0800080E0A00080E0C00080E0E000C0000000C0002000C0004000C0006000C0008000C000A000C000C000C000E000C0200000C0202000C0204000C0206000C0208000C020A000C020C000C020E000C0400000C0402000C0404000C0406000C0
310
408000C040A000C040C000C040E000C0600000C0602000C0604000C0606000C0608000C060A000C060C000C060E000C0800000C0802000C0804000C0806000C0808000C080A000C080C000C080E000C0A00000C0A02000C0A04000C0A06000C0A08000C0A0A000C0A0C000C0A0E000C0C00000C0C02000C0C04000C0C06000
310
C0C08000C0C0A000F0FBFF00A4A0A000808080000000FF0000FF000000FFFF00FF000000FF00FF00FFFF0000FFFFFF0000000000000000000000000000000000000000000000000000000000000000000000000000000000000000FBFBFEFEFBFBFEFEFBFB00000000000000000000000000000000000000000000FBFBFEFE
310
FBFBFEFEFBFB00000000000000000000000000000000000000000000FB00FEFE0000FEFE00FB00000000000000000000000000000000000000000000FB00FEFE0000FEFE00FB00000000000000000000000000000000000000000000FB00FEFEFEFEFEFE00FB00000000000000000000000000000000000000000000FB0000
310
FEFEFE000000FB00000000000000000000000000000000000000000000FBFBFEFBFBFBFBFEFBFB000000000000000000000000000000000000000000000000FBFBFBFBFBFE0000000000000000000000000000000000000000000000000000FE00000000FE0000000000000000000000000000000000000000000000000000
310
FE00000000FE0000000000000000000000000000000000000000000000000000FE00000000FE0000000000000000000000000000000000000000000000000000FE00000000FE0000000000000000000000000000000000000000000000000000FE00000000FE00000000000000000000000000000000000000000000000000
310
00FE00000000FE0000000000000000000000000000000000000000000000000000FE00000000FE0000000000000000000000000000000000000000000000000000FE00000000FE0000000000000000000000000000000000000000000000000000FE00000000FE000000000000000000000000000000000000000000000000
310
0000FE00000000FE0000000000000000000000000000000000000000000000000000FE00000000FE0000000000000000000000000000000000000000000000000000FE00000000FE0000000000000000000000000000000000000000000000000000FE00000000FE0000000000000000000000000000000000000000000000
310
000000FE00000000FE0000000000000000000000000000000000000000000000000000FE00000000FE0000000000000000000000000000000000000000000000000000FE00000000FE0000000000000000000000000000000000000000000000000000FE00000000FE00000000000000000000000000000000000000000000
310
00000000FE00000000FE0000000000000000000000000000000000000000000000000000FE00000000FE0000000000000000000000000000000000000000000000000000FEFBFBFBFBFE0000000000000000000000000000000000000000000000000000FEFB000000FE000000000000000000000000000000000000000000
310
000000000000FBFBFBFB00000000000000000000000000000000000000000000000000000000000000000000000000000000000000000000
  0
BLOCK_RECORD
  5
A518
102
{ACAD_XDICTIONARY
360
A519
102
}
330
1
100
AcDbSymbolTableRecord
100
AcDbBlockTableRecord
  2
LS3
340
0
310
2800000020000000200000000100080000000000000400000000000000000000000000000000000000000000000080000080000000808000800000008000800080800000C0C0C000C0DCC000F0CAA6000020400000206000002080000020A0000020C0000020E00000400000004020000040400000406000004080000040A0
310
000040C0000040E00000600000006020000060400000606000006080000060A0000060C0000060E00000800000008020000080400000806000008080000080A0000080C0000080E00000A0000000A0200000A0400000A0600000A0800000A0A00000A0C00000A0E00000C0000000C0200000C0400000C0600000C0800000C0
310
A00000C0C00000C0E00000E0000000E0200000E0400000E0600000E0800000E0A00000E0C00000E0E00040000000400020004000400040006000400080004000A0004000C0004000E00040200000402020004020400040206000402080004020A0004020C0004020E000404000004040200040404000404060004040800040
310
40A0004040C0004040E00040600000406020004060400040606000406080004060A0004060C0004060E00040800000408020004080400040806000408080004080A0004080C0004080E00040A0000040A0200040A0400040A0600040A0800040A0A00040A0C00040A0E00040C0000040C0200040C0400040C0600040C08000
310
40C0A00040C0C00040C0E00040E0000040E0200040E0400040E0600040E0800040E0A00040E0C00040E0E00080000000800020008000400080006000800080008000A0008000C0008000E00080200000802020008020400080206000802080008020A0008020C0008020E00080400000804020008040400080406000804080
310
008040A0008040C0008040E00080600000806020008060400080606000806080008060A0008060C0008060E00080800000808020008080400080806000808080008080A0008080C0008080E00080A0000080A0200080A0400080A0600080A0800080A0A00080A0C00080A0E00080C0000080C0200080C0400080C0600080C0
310
800080C0A00080C0C00080C0E00080E0000080E0200080E0400080E0600080E0800080E0A00080E0C00080E0E000C0000000C0002000C0004000C0006000C0008000C000A000C000C000C000E000C0200000C0202000C0204000C0206000C0208000C020A000C020C000C020E000C0400000C0402000C0404000C0406000C0
310
408000C040A000C040C000C040E000C0600000C0602000C0604000C0606000C0608000C060A000C060C000C060E000C0800000C0802000C0804000C0806000C0808000C080A000C080C000C080E000C0A00000C0A02000C0A04000C0A06000C0A08000C0A0A000C0A0C000C0A0E000C0C00000C0C02000C0C04000C0C06000
310
C0C08000C0C0A000F0FBFF00A4A0A000808080000000FF0000FF000000FFFF00FF000000FF00FF00FFFF0000FFFFFF0000000000000000000000000000000000000000000000000000000000000000000000000000000000000000FBFBFEFEFBFBFEFEFBFB00000000000000000000000000000000000000000000FBFBFEFE
310
FBFBFEFEFBFB00000000000000000000000000000000000000000000FB00FEFE0000FEFE00FB00000000000000000000000000000000000000000000FB00FEFEFEFEFEFE00FB00000000000000000000000000000000000000000000FB0000FEFE00FE0000FB00000000000000000000000000000000000000000000FB0000
310
0000FE000000FB00000000000000000000000000000000000000000000FBFBFEFBFBFBFBFBFBFB000000000000000000000000000000000000000000000000FE00000000FE0000000000000000000000000000000000000000000000000000FE00000000FE0000000000000000000000000000000000000000000000000000
310
FE00000000FE0000000000000000000000000000000000000000000000000000FE00000000FE0000000000000000000000000000000000000000000000000000FE00000000FE0000000000000000000000000000000000000000000000000000FE00000000FE00000000000000000000000000000000000000000000000000
310
00FE00000000FE0000000000000000000000000000000000000000000000000000FE00000000FE0000000000000000000000000000000000000000000000000000FE00000000FE0000000000000000000000000000000000000000000000000000FE00000000FE000000000000000000000000000000000000000000000000
310
0000FE00000000FE0000000000000000000000000000000000000000000000000000FE00000000FE0000000000000000000000000000000000000000000000000000FE00000000FE0000000000000000000000000000000000000000000000000000FE00000000FE0000000000000000000000000000000000000000000000
310
000000FE00000000FE0000000000000000000000000000000000000000000000000000FE00000000FE0000000000000000000000000000000000000000000000000000FE00000000FE0000000000000000000000000000000000000000000000000000FE00000000FE00000000000000000000000000000000000000000000
310
00000000FE00000000FE0000000000000000000000000000000000000000000000000000FE00000000FE0000000000000000000000000000000000000000000000000000FE00000000FE0000000000000000000000000000000000000000000000000000FEFBFBFBFBFE000000000000000000000000000000000000000000
310
000000000000FBFBFBFB00000000000000000000000000000000000000000000000000000000000000000000000000000000000000000000
102
{BLKREFS
331
A537
102
}
  0
BLOCK_RECORD
  5
A951
330
1
100
AcDbSymbolTableRecord
100
AcDbBlockTableRecord
  2
*D6
340
0
  0
BLOCK_RECORD
  5
A95E
330
1
100
AcDbSymbolTableRecord
100
AcDbBlockTableRecord
  2
*D7
340
0
  0
BLOCK_RECORD
  5
A99B
330
1
100
AcDbSymbolTableRecord
100
AcDbBlockTableRecord
  2
*D8
340
0
  0
BLOCK_RECORD
  5
A9B7
330
1
100
AcDbSymbolTableRecord
100
AcDbBlockTableRecord
  2
*D9
340
0
  0
BLOCK_RECORD
  5
A9D1
330
1
100
AcDbSymbolTableRecord
100
AcDbBlockTableRecord
  2
*D10
340
0
  0
BLOCK_RECORD
  5
A9DE
330
1
100
AcDbSymbolTableRecord
100
AcDbBlockTableRecord
  2
*D11
340
0
  0
BLOCK_RECORD
  5
A9FA
330
1
100
AcDbSymbolTableRecord
100
AcDbBlockTableRecord
  2
*D12
340
0
  0
BLOCK_RECORD
  5
AA9C
330
1
100
AcDbSymbolTableRecord
100
AcDbBlockTableRecord
  2
*D13
340
0
  0
ENDTAB
  0
ENDSEC
  0
SECTION
  2
BLOCKS
  0
BLOCK
  5
19
330
18
100
AcDbEntity
  8
0
100
AcDbBlockBegin
  2
*MODEL_SPACE
 70
     0
 10
0.0
 20
0.0
 30
0.0
  3
*MODEL_SPACE
  1

  0
ENDBLK
  5
1A
330
18
100
AcDbEntity
  8
0
100
AcDbBlockEnd
  0
BLOCK
  5
16
330
15
100
AcDbEntity
 67
     1
  8
0
100
AcDbBlockBegin
  2
*PAPER_SPACE
 70
     0
 10
0.0
 20
0.0
 30
0.0
  3
*PAPER_SPACE
  1

  0
ENDBLK
  5
17
330
15
100
AcDbEntity
 67
     1
  8
0
100
AcDbBlockEnd
  0
BLOCK
  5
63A1
330
639D
100
AcDbEntity
  8
0
100
AcDbBlockBegin
  2
A$C255C26A2
 70
     0
 10
0.0
 20
0.0
 30
0.0
  3
A$C255C26A2
  1

  0
LWPOLYLINE
  5
639E
330
639D
100
AcDbEntity
  8
0
100
AcDbPolyline
 90
        3
 70
     1
 43
0.0
 10
7.014806023851633
 20
0.0000006939811783
 10
5.611844869720698
 20
2.430000693981241
 10
8.417767177982568
 20
2.430000693981241
  0
LWPOLYLINE
  5
639F
330
639D
100
AcDbEntity
  8
0
100
AcDbPolyline
 90
        3
 70
     1
 43
0.0
 10
4.20888371558999
 20
0.0000006939811783
 10
2.805922561459283
 20
2.430000693981241
 10
5.611844869720698
 20
2.430000693981241
  0
LWPOLYLINE
  5
63A0
330
639D
100
AcDbEntity
  8
0
100
AcDbPolyline
 90
        3
 70
     1
 43
0.0
 10
1.402961407328348
 20
0.0000006939811783
 10
0.0000002531974133
 20
2.430000693981241
 10
2.805922561459283
 20
2.430000693981241
  0
ENDBLK
  5
63A2
330
639D
100
AcDbEntity
  8
0
100
AcDbBlockEnd
  0
BLOCK
  5
7C05
330
7C04
100
AcDbEntity
  8
0
100
AcDbBlockBegin
  2
_Open30
 70
     0
 10
0.0
 20
0.0
 30
0.0
  3
_Open30
  1

  0
LINE
  5
7C06
330
7C04
100
AcDbEntity
  8
0
  6
ByBlock
 62
     0
370
    -2
100
AcDbLine
 10
-1.0
 20
0.26794919
 30
0.0
 11
0.0
 21
0.0
 31
0.0
  0
LINE
  5
7C07
330
7C04
100
AcDbEntity
  8
0
  6
ByBlock
 62
     0
370
    -2
100
AcDbLine
 10
0.0
 20
0.0
 30
0.0
 11
-1.0
 21
-0.26794919
 31
0.0
  0
LINE
  5
7C08
330
7C04
100
AcDbEntity
  8
0
  6
ByBlock
 62
     0
370
    -2
100
AcDbLine
 10
0.0
 20
0.0
 30
0.0
 11
-1.0
 21
0.0
 31
0.0
  0
ENDBLK
  5
7C09
330
7C04
100
AcDbEntity
  8
0
100
AcDbBlockEnd
  0
BLOCK
  5
7C0E
330
7C0A
100
AcDbEntity
  8
0
100
AcDbBlockBegin
  2
A
 70
     0
 10
0.0
 20
0.0
 30
0.0
  3
A
  1

  0
MTEXT
  5
7C0F
330
7C0A
100
AcDbEntity
  8
mark
 62
     3
100
AcDbMText
 10
10.65641897020822
 20
-5.596245361730467
 30
0.0
 40
2.5
 41
0.0
 71
     5
 72
     1
  1
A
 73
     1
 44
1.0
1001
ACAD
1000
ACAD_MTEXT_DEFINED_HEIGHT_BEGIN
1070
    46
1040
0.0
1000
ACAD_MTEXT_DEFINED_HEIGHT_END
  0
LWPOLYLINE
  5
7C10
330
7C0A
100
AcDbEntity
  8
mark
100
AcDbPolyline
 90
        4
 70
     1
 43
0.0
 10
9.07926800414657
 20
-7.141145101782569
 10
12.07926800414657
 20
-7.141145101782569
 10
12.07926800414657
 20
-4.141145101782569
 10
9.07926800414657
 20
-4.141145101782569
  0
HATCH
  5
7C11
330
7C0A
100
AcDbEntity
  8
mark
100
AcDbHatch
 10
0.0
 20
0.0
 30
0.0
210
0.0
220
0.0
230
1.0
  2
SOLID
 70
     1
 71
     0
 91
        1
 92
        7
 72
     0
 73
     1
 93
        3
 10
5.32926800414657
 20
-5.641145101782569
 10
4.07926800414657
 20
-4.391145101782541
 10
4.07926800414657
 20
-6.891145101782541
 97
        0
 75
     0
 76
     1
 47
0.0398277943677868
 98
        1
 10
4.589689734415287
 20
-5.732163331855076
450
        0
451
        0
460
0.0
461
0.0
452
        1
462
1.0
453
        2
463
0.0
 63
     5
421
      255
463
1.0
 63
     7
421
 16777215
470
LINEAR
1001
ACAD
1010
0.0
1020
0.0
1030
0.0
  0
LINE
  5
7C12
330
7C0A
100
AcDbEntity
  8
mark
100
AcDbLine
 10
5.32926800414657
 20
-5.641145101782569
 30
0.0
 11
9.07926800414657
 21
-5.641145101782569
 31
0.0
  0
LINE
  5
7C13
330
7C0A
100
AcDbEntity
  8
mark
100
AcDbLine
 10
5.32926800414657
 20
-5.641145101782569
 30
0.0
 11
4.07926800414657
 21
-4.391145101782569
 31
0.0
  0
LINE
  5
7C14
330
7C0A
100
AcDbEntity
  8
mark
100
AcDbLine
 10
5.32926800414657
 20
-5.641145101782569
 30
0.0
 11
4.07926800414657
 21
-6.891145101782569
 31
0.0
  0
ENDBLK
  5
7C15
330
7C0A
100
AcDbEntity
  8
0
100
AcDbBlockEnd
  0
BLOCK
  5
8E76
330
8E72
100
AcDbEntity
  8
0
100
AcDbBlockBegin
  2
LS
 70
     0
 10
0.0
 20
0.0
 30
0.0
  3
LS
  1

  0
LINE
  5
8E78
330
8E72
100
AcDbEntity
  8
contour
100
AcDbLine
 10
310.7457309951603
 20
181.0160360664828
 30
0.0
 11
310.7457309951603
 21
184.7160360664827
 31
0.0
  0
LINE
  5
8E79
330
8E72
100
AcDbEntity
  8
contour
100
AcDbLine
 10
310.7457309951603
 20
184.7160360664827
 30
0.0
 11
303.7457309951603
 21
184.7160360664827
 31
0.0
  0
LINE
  5
8E7A
330
8E72
100
AcDbEntity
  8
contour
100
AcDbLine
 10
308.4457309951603
 20
196.7160360664827
 30
0.0
 11
306.0457309951603
 21
196.7160360664826
 31
0.0
  0
LINE
  5
8E7B
330
8E72
100
AcDbEntity
  8
contour
100
AcDbLine
 10
309.2457309951603
 20
195.9160360664826
 30
0.0
 11
308.4457309951603
 21
196.7160360664826
 31
0.0
  0
LINE
  5
8E7C
330
8E72
100
AcDbEntity
  8
contour
100
AcDbLine
 10
303.7457309951603
 20
184.7160360664827
 30
0.0
 11
303.7457309951603
 21
181.0160360664827
 31
0.0
  0
LINE
  5
8E7D
330
8E72
100
AcDbEntity
  8
contour
100
AcDbLine
 10
304.0457309951603
 20
180.7160360664827
 30
0.0
 11
310.4457309951603
 21
180.7160360664828
 31
0.0
  0
LINE
  5
8E7E
330
8E72
100
AcDbEntity
  8
contour
100
AcDbLine
 10
310.7457309951603
 20
181.0160360664828
 30
0.0
 11
310.4457309951603
 21
180.7160360664828
 31
0.0
  0
LINE
  5
8E7F
330
8E72
100
AcDbEntity
  8
contour
100
AcDbLine
 10
303.7457309951603
 20
181.0160360664827
 30
0.0
 11
304.0457309951603
 21
180.7160360664827
 31
0.0
  0
LINE
  5
8E80
330
8E72
100
AcDbEntity
  8
contour
100
AcDbLine
 10
309.2457309951603
 20
184.7160360664826
 30
0.0
 11
309.2457309951603
 21
195.9160360664827
 31
0.0
  0
LINE
  5
8E81
330
8E72
100
AcDbEntity
  8
contour
100
AcDbLine
 10
305.2457309951603
 20
184.7160360664826
 30
0.0
 11
305.2457309951603
 21
195.9160360664827
 31
0.0
  0
LINE
  5
8E82
330
8E72
100
AcDbEntity
  8
contour
100
AcDbLine
 10
306.0457309951603
 20
196.7160360664826
 30
0.0
 11
305.2457309951603
 21
195.9160360664826
 31
0.0
  0
LINE
  5
8E83
330
8E72
100
AcDbEntity
  8
contour
100
AcDbLine
 10
309.2457309951603
 20
195.9160360664827
 30
0.0
 11
305.2457309951603
 21
195.9160360664827
 31
0.0
  0
LINE
  5
8E84
330
8E72
100
AcDbEntity
  8
contour
 62
     4
100
AcDbLine
 10
308.8667309951603
 20
185.3724833225513
 30
0.0
 11
308.8667309951603
 21
196.2950360664826
 31
0.0
  0
LINE
  5
8E85
330
8E72
100
AcDbEntity
  8
contour
 62
     4
100
AcDbLine
 10
305.6247309951603
 20
185.3724833225513
 30
0.0
 11
305.6247309951603
 21
196.2950360664826
 31
0.0
  0
LINE
  5
8E86
330
8E72
100
AcDbEntity
  8
contour
100
AcDbLine
 10
310.7457309951603
 20
181.0160360664828
 30
0.0
 11
303.7457309951603
 21
181.0160360664828
 31
0.0
  0
LINE
  5
8E87
330
8E72
100
AcDbEntity
  8
bowle
 48
0.1
100
AcDbLine
 10
308.1117563989447
 20
180.7160360664827
 30
0.0
 11
308.1117563989447
 21
182.9160360664827
 31
0.0
  0
LINE
  5
8E88
330
8E72
100
AcDbEntity
  8
bowle
 48
0.1
100
AcDbLine
 10
308.9777818027293
 20
180.7160360664827
 30
0.0
 11
308.9777818027293
 21
182.9160360664827
 31
0.0
  0
LINE
  5
8E89
330
8E72
100
AcDbEntity
  8
bowle
 48
0.1
100
AcDbLine
 10
306.3797055913759
 20
180.7160360664827
 30
0.0
 11
306.3797055913759
 21
182.9160360664826
 31
0.0
  0
LINE
  5
8E8A
330
8E72
100
AcDbEntity
  8
bowle
 48
0.1
100
AcDbLine
 10
305.5136801875914
 20
180.7160360664827
 30
0.0
 11
305.5136801875914
 21
182.9160360664826
 31
0.0
  0
LINE
  5
8E8B
330
8E72
100
AcDbEntity
  8
bowle
 48
0.1
100
AcDbLine
 10
308.9777818027292
 20
182.9160360664827
 30
0.0
 11
305.5136801875914
 21
182.9160360664827
 31
0.0
  0
LINE
  5
8E8C
330
8E72
100
AcDbEntity
  8
bowle
 48
0.1
100
AcDbLine
 10
305.5136801875914
 20
182.9160360664826
 30
0.0
 11
307.2457309951603
 21
183.9160360664826
 31
0.0
  0
LINE
  5
8E8D
330
8E72
100
AcDbEntity
  8
bowle
 48
0.1
100
AcDbLine
 10
308.9777818027292
 20
182.9160360664826
 30
0.0
 11
307.2457309951603
 21
183.9160360664826
 31
0.0
  0
LINE
  5
8E8E
330
8E72
100
AcDbEntity
  8
contour
 62
     4
100
AcDbLine
 10
305.6247309951603
 20
185.3724833225513
 30
0.0
 11
305.2457309951603
 21
184.7160360664826
 31
0.0
  0
LINE
  5
8E8F
330
8E72
100
AcDbEntity
  8
contour
100
AcDbLine
 10
305.2457309951603
 20
185.3724833225513
 30
0.0
 11
309.2457309951603
 21
185.3724833225513
 31
0.0
  0
LINE
  5
8E90
330
8E72
100
AcDbEntity
  8
contour
 62
     4
100
AcDbLine
 10
309.2457309951603
 20
184.7160360664827
 30
0.0
 11
308.8667309951603
 21
185.3724833225513
 31
0.0
  0
ENDBLK
  5
8E77
330
8E72
100
AcDbEntity
  8
0
100
AcDbBlockEnd
  0
BLOCK
  5
9D19
330
9D15
100
AcDbEntity
  8
0
100
AcDbBlockBegin
  2
LS2
 70
     0
 10
0.0
 20
0.0
 30
0.0
  3
LS2
  1

  0
LINE
  5
9D1B
330
9D15
100
AcDbEntity
  8
contour
100
AcDbLine
 10
143.2797554375081
 20
0.0655328110734672
 30
0.0
 11
143.2797554375081
 21
3.765532811073398
 31
0.0
  0
LINE
  5
9D1C
330
9D15
100
AcDbEntity
  8
contour
100
AcDbLine
 10
143.2797554375081
 20
3.765532811073398
 30
0.0
 11
136.2797554375081
 21
3.765532811073398
 31
0.0
  0
LINE
  5
9D1D
330
9D15
100
AcDbEntity
  8
contour
100
AcDbLine
 10
140.979755437508
 20
19.7655328110734
 30
0.0
 11
138.5797554375081
 21
19.76553281107334
 31
0.0
  0
LINE
  5
9D1E
330
9D15
100
AcDbEntity
  8
contour
100
AcDbLine
 10
141.7797554375081
 20
18.96553281107333
 30
0.0
 11
140.9797554375081
 21
19.76553281107334
 31
0.0
  0
LINE
  5
9D1F
330
9D15
100
AcDbEntity
  8
contour
100
AcDbLine
 10
136.2797554375081
 20
3.765532811073398
 30
0.0
 11
136.2797554375081
 21
0.0655328110733535
 31
0.0
  0
LINE
  5
9D20
330
9D15
100
AcDbEntity
  8
contour
100
AcDbLine
 10
136.5797554375081
 20
-0.2344671889266578
 30
0.0
 11
142.9797554375081
 21
-0.2344671889265442
 31
0.0
  0
LINE
  5
9D21
330
9D15
100
AcDbEntity
  8
contour
100
AcDbLine
 10
143.2797554375081
 20
0.0655328110734672
 30
0.0
 11
142.9797554375081
 21
-0.2344671889265442
 31
0.0
  0
LINE
  5
9D22
330
9D15
100
AcDbEntity
  8
contour
100
AcDbLine
 10
136.2797554375081
 20
0.0655328110733535
 30
0.0
 11
136.5797554375081
 21
-0.2344671889266578
 31
0.0
  0
LINE
  5
9D23
330
9D15
100
AcDbEntity
  8
contour
100
AcDbLine
 10
141.7797554375081
 20
3.765532811073342
 30
0.0
 11
141.7797554375081
 21
18.96553281107339
 31
0.0
  0
LINE
  5
9D24
330
9D15
100
AcDbEntity
  8
contour
100
AcDbLine
 10
137.7797554375081
 20
3.765532811073342
 30
0.0
 11
137.7797554375081
 21
18.96553281107339
 31
0.0
  0
LINE
  5
9D25
330
9D15
100
AcDbEntity
  8
contour
100
AcDbLine
 10
138.5797554375081
 20
19.76553281107334
 30
0.0
 11
137.7797554375081
 21
18.96553281107333
 31
0.0
  0
LINE
  5
9D26
330
9D15
100
AcDbEntity
  8
contour
100
AcDbLine
 10
141.7797554375081
 20
18.96553281107339
 30
0.0
 11
137.7797554375081
 21
18.96553281107339
 31
0.0
  0
LINE
  5
9D27
330
9D15
100
AcDbEntity
  8
contour
 62
     4
100
AcDbLine
 10
141.400755437508
 20
4.42198006714193
 30
0.0
 11
141.4007554375081
 21
19.34453281107327
 31
0.0
  0
LINE
  5
9D28
330
9D15
100
AcDbEntity
  8
contour
 62
     4
100
AcDbLine
 10
138.1587554375081
 20
4.42198006714193
 30
0.0
 11
138.1587554375081
 21
19.34453281107336
 31
0.0
  0
LINE
  5
9D29
330
9D15
100
AcDbEntity
  8
contour
100
AcDbLine
 10
143.2797554375081
 20
0.0655328110734672
 30
0.0
 11
136.2797554375081
 21
0.0655328110735241
 31
0.0
  0
LINE
  5
9D2A
330
9D15
100
AcDbEntity
  8
bowle
 48
0.1
100
AcDbLine
 10
140.6457808412925
 20
-0.234467188926601
 30
0.0
 11
140.6457808412925
 21
1.965532811073387
 31
0.0
  0
LINE
  5
9D2B
330
9D15
100
AcDbEntity
  8
bowle
 48
0.1
100
AcDbLine
 10
141.511806245077
 20
-0.2344671889266578
 30
0.0
 11
141.511806245077
 21
1.965532811073387
 31
0.0
  0
LINE
  5
9D2C
330
9D15
100
AcDbEntity
  8
bowle
 48
0.1
100
AcDbLine
 10
138.9137300337237
 20
-0.234467188926601
 30
0.0
 11
138.9137300337237
 21
1.96553281107333
 31
0.0
  0
LINE
  5
9D2D
330
9D15
100
AcDbEntity
  8
bowle
 48
0.1
100
AcDbLine
 10
138.0477046299392
 20
-0.2344671889266578
 30
0.0
 11
138.0477046299391
 21
1.96553281107333
 31
0.0
  0
LINE
  5
9D2E
330
9D15
100
AcDbEntity
  8
bowle
 48
0.1
100
AcDbLine
 10
141.511806245077
 20
1.965532811073387
 30
0.0
 11
138.0477046299391
 21
1.965532811073387
 31
0.0
  0
LINE
  5
9D2F
330
9D15
100
AcDbEntity
  8
bowle
 48
0.1
100
AcDbLine
 10
138.0477046299391
 20
1.96553281107333
 30
0.0
 11
139.779755437508
 21
2.96553281107333
 31
0.0
  0
LINE
  5
9D30
330
9D15
100
AcDbEntity
  8
bowle
 48
0.1
100
AcDbLine
 10
141.511806245077
 20
1.96553281107333
 30
0.0
 11
139.779755437508
 21
2.96553281107333
 31
0.0
  0
LINE
  5
9D31
330
9D15
100
AcDbEntity
  8
contour
 62
     4
100
AcDbLine
 10
138.1587554375081
 20
4.421980067141987
 30
0.0
 11
137.7797554375081
 21
3.765532811073342
 31
0.0
  0
LINE
  5
9D32
330
9D15
100
AcDbEntity
  8
contour
100
AcDbLine
 10
137.7797554375081
 20
4.42198006714193
 30
0.0
 11
141.7797554375081
 21
4.42198006714193
 31
0.0
  0
LINE
  5
9D33
330
9D15
100
AcDbEntity
  8
contour
 62
     4
100
AcDbLine
 10
141.7797554375081
 20
3.765532811073398
 30
0.0
 11
141.400755437508
 21
4.42198006714193
 31
0.0
  0
ENDBLK
  5
9D1A
330
9D15
100
AcDbEntity
  8
0
100
AcDbBlockEnd
  0
BLOCK
  5
A51C
330
A518
100
AcDbEntity
  8
0
100
AcDbBlockBegin
  2
LS3
 70
     0
 10
0.0
 20
0.0
 30
0.0
  3
LS3
  1

  0
LINE
  5
A51E
330
A518
100
AcDbEntity
  8
contour
100
AcDbLine
 10
329.8877449821333
 20
4.477662871771769
 30
0.0
 11
329.8877449821333
 21
8.177662871771701
 31
0.0
  0
LINE
  5
A51F
330
A518
100
AcDbEntity
  8
contour
100
AcDbLine
 10
329.8877449821333
 20
8.177662871771701
 30
0.0
 11
336.8877449821333
 21
8.177662871771701
 31
0.0
  0
LINE
  5
A520
330
A518
100
AcDbEntity
  8
contour
100
AcDbLine
 10
332.1877449821334
 20
26.1776628717717
 30
0.0
 11
334.5877449821334
 21
26.17766287177165
 31
0.0
  0
LINE
  5
A521
330
A518
100
AcDbEntity
  8
contour
100
AcDbLine
 10
331.3877449821333
 20
25.37766287177163
 30
0.0
 11
332.1877449821334
 21
26.17766287177165
 31
0.0
  0
LINE
  5
A522
330
A518
100
AcDbEntity
  8
contour
100
AcDbLine
 10
336.8877449821333
 20
8.177662871771701
 30
0.0
 11
336.8877449821333
 21
4.477662871771656
 31
0.0
  0
LINE
  5
A523
330
A518
100
AcDbEntity
  8
contour
100
AcDbLine
 10
336.5877449821334
 20
4.177662871771644
 30
0.0
 11
330.1877449821334
 21
4.177662871771758
 31
0.0
  0
LINE
  5
A524
330
A518
100
AcDbEntity
  8
contour
100
AcDbLine
 10
329.8877449821333
 20
4.477662871771769
 30
0.0
 11
330.1877449821334
 21
4.177662871771758
 31
0.0
  0
LINE
  5
A525
330
A518
100
AcDbEntity
  8
contour
100
AcDbLine
 10
336.8877449821333
 20
4.477662871771656
 30
0.0
 11
336.5877449821334
 21
4.177662871771644
 31
0.0
  0
LINE
  5
A526
330
A518
100
AcDbEntity
  8
contour
100
AcDbLine
 10
331.3877449821333
 20
8.177662871771644
 30
0.0
 11
331.3877449821334
 21
25.37766287177168
 31
0.0
  0
LINE
  5
A527
330
A518
100
AcDbEntity
  8
contour
100
AcDbLine
 10
335.3877449821333
 20
8.177662871771644
 30
0.0
 11
335.3877449821333
 21
25.37766287177166
 31
0.0
  0
LINE
  5
A528
330
A518
100
AcDbEntity
  8
contour
100
AcDbLine
 10
334.5877449821334
 20
26.17766287177165
 30
0.0
 11
335.3877449821333
 21
25.37766287177163
 31
0.0
  0
LINE
  5
A529
330
A518
100
AcDbEntity
  8
contour
100
AcDbLine
 10
331.3877449821333
 20
25.37766287177169
 30
0.0
 11
335.3877449821333
 21
25.37766287177169
 31
0.0
  0
LINE
  5
A52A
330
A518
100
AcDbEntity
  8
contour
 62
     4
100
AcDbLine
 10
331.7667449821333
 20
8.834110127840233
 30
0.0
 11
331.7667449821333
 21
25.75666287177167
 31
0.0
  0
LINE
  5
A52B
330
A518
100
AcDbEntity
  8
contour
 62
     4
100
AcDbLine
 10
335.0087449821333
 20
8.834110127840233
 30
0.0
 11
335.0087449821334
 21
25.75666287177161
 31
0.0
  0
LINE
  5
A52C
330
A518
100
AcDbEntity
  8
contour
100
AcDbLine
 10
329.8877449821333
 20
4.477662871771769
 30
0.0
 11
336.8877449821333
 21
4.477662871771826
 31
0.0
  0
LINE
  5
A52D
330
A518
100
AcDbEntity
  8
bowle
 48
0.1
100
AcDbLine
 10
332.5217195783489
 20
4.177662871771701
 30
0.0
 11
332.5217195783489
 21
6.37766287177169
 31
0.0
  0
LINE
  5
A52E
330
A518
100
AcDbEntity
  8
bowle
 48
0.1
100
AcDbLine
 10
331.6556941745643
 20
4.177662871771644
 30
0.0
 11
331.6556941745643
 21
6.37766287177169
 31
0.0
  0
LINE
  5
A52F
330
A518
100
AcDbEntity
  8
bowle
 48
0.1
100
AcDbLine
 10
334.2537703859177
 20
4.177662871771701
 30
0.0
 11
334.2537703859177
 21
6.377662871771633
 31
0.0
  0
LINE
  5
A530
330
A518
100
AcDbEntity
  8
bowle
 48
0.1
100
AcDbLine
 10
335.1197957897023
 20
4.177662871771644
 30
0.0
 11
335.1197957897023
 21
6.377662871771633
 31
0.0
  0
LINE
  5
A531
330
A518
100
AcDbEntity
  8
bowle
 48
0.1
100
AcDbLine
 10
331.6556941745645
 20
6.37766287177169
 30
0.0
 11
335.1197957897023
 21
6.37766287177169
 31
0.0
  0
LINE
  5
A532
330
A518
100
AcDbEntity
  8
bowle
 48
0.1
100
AcDbLine
 10
335.1197957897023
 20
6.377662871771633
 30
0.0
 11
333.3877449821334
 21
7.377662871771633
 31
0.0
  0
LINE
  5
A533
330
A518
100
AcDbEntity
  8
bowle
 48
0.1
100
AcDbLine
 10
331.6556941745645
 20
6.377662871771633
 30
0.0
 11
333.3877449821334
 21
7.377662871771633
 31
0.0
  0
LINE
  5
A534
330
A518
100
AcDbEntity
  8
contour
 62
     4
100
AcDbLine
 10
335.0087449821333
 20
8.83411012784029
 30
0.0
 11
335.3877449821333
 21
8.177662871771644
 31
0.0
  0
LINE
  5
A535
330
A518
100
AcDbEntity
  8
contour
100
AcDbLine
 10
335.3877449821333
 20
8.834110127840233
 30
0.0
 11
331.3877449821333
 21
8.834110127840233
 31
0.0
  0
LINE
  5
A536
330
A518
100
AcDbEntity
  8
contour
 62
     4
100
AcDbLine
 10
331.3877449821333
 20
8.177662871771701
 30
0.0
 11
331.7667449821333
 21
8.834110127840233
 31
0.0
  0
ENDBLK
  5
A51D
330
A518
100
AcDbEntity
  8
0
100
AcDbBlockEnd
  0
BLOCK
  5
A95B
330
A951
100
AcDbEntity
  8
0
100
AcDbBlockBegin
  2
*D6
 70
     1
 10
0.0
 20
0.0
 30
0.0
  3
*D6
  1

  0
LINE
  5
A952
330
A951
100
AcDbEntity
  8
mark
370
    -2
100
AcDbLine
 10
57.50000000000006
 20
124.869045645591
 30
0.0
 11
57.50000000000006
 21
133.8660057951929
 31
0.0
  0
LINE
  5
A953
330
A951
100
AcDbEntity
  8
mark
370
    -2
100
AcDbLine
 10
132.5
 20
124.869045645591
 30
0.0
 11
132.5
 21
133.8660057951929
 31
0.0
  0
LINE
  5
A954
330
A951
100
AcDbEntity
  8
mark
370
    -2
100
AcDbLine
 10
60.00000000000006
 20
133.0660057951929
 30
0.0
 11
130.0
 21
133.0660057951929
 31
0.0
  0
INSERT
  5
A955
330
A951
100
AcDbEntity
  8
mark
370
    -2
100
AcDbBlockReference
  2
_Open30
 10
57.50000000000006
 20
133.0660057951929
 30
0.0
 41
2.5
 42
2.5
 43
2.5
 50
180.0
  0
INSERT
  5
A956
330
A951
100
AcDbEntity
  8
mark
370
    -2
100
AcDbBlockReference
  2
_Open30
 10
132.5
 20
133.0660057951929
 30
0.0
 41
2.5
 42
2.5
 43
2.5
  0
MTEXT
  5
A957
330
A951
100
AcDbEntity
  8
mark
 62
     3
100
AcDbMText
 10
95.00000000000003
 20
135.1160057951929
 30
0.0
 40
2.5
 41
0.0
 71
     5
 72
     1
  1
\A1;%%C75
 73
     1
 44
1.0
  0
POINT
  5
A958
330
A951
100
AcDbEntity
  8
DEFPOINTS
 62
     0
100
AcDbPoint
 10
57.50000000000006
 20
124.069045645591
 30
0.0
  0
POINT
  5
A959
330
A951
100
AcDbEntity
  8
DEFPOINTS
 62
     0
100
AcDbPoint
 10
132.5
 20
124.069045645591
 30
0.0
  0
POINT
  5
A95A
330
A951
100
AcDbEntity
  8
DEFPOINTS
 62
     0
100
AcDbPoint
 10
132.5
 20
133.0660057951929
 30
0.0
  0
ENDBLK
  5
A95C
330
A951
100
AcDbEntity
  8
0
100
AcDbBlockEnd
  0
BLOCK
  5
A968
330
A95E
100
AcDbEntity
  8
0
100
AcDbBlockBegin
  2
*D7
 70
     1
 10
0.0
 20
0.0
 30
0.0
  3
*D7
  1

  0
LINE
  5
A95F
330
A95E
100
AcDbEntity
  8
mark
370
    -2
100
AcDbLine
 10
132.3
 20
125.069045645591
 30
0.0
 11
140.2601886474497
 21
125.069045645591
 31
0.0
  0
LINE
  5
A960
330
A95E
100
AcDbEntity
  8
mark
370
    -2
100
AcDbLine
 10
132.3000000000002
 20
107.169045645591
 30
0.0
 11
140.2601886474497
 21
107.169045645591
 31
0.0
  0
LINE
  5
A961
330
A95E
100
AcDbEntity
  8
mark
370
    -2
100
AcDbLine
 10
139.4601886474497
 20
122.569045645591
 30
0.0
 11
139.4601886474497
 21
109.669045645591
 31
0.0
  0
INSERT
  5
A962
330
A95E
100
AcDbEntity
  8
mark
370
    -2
100
AcDbBlockReference
  2
_Open30
 10
139.4601886474497
 20
125.069045645591
 30
0.0
 41
2.5
 42
2.5
 43
2.5
 50
90.0
  0
INSERT
  5
A963
330
A95E
100
AcDbEntity
  8
mark
370
    -2
100
AcDbBlockReference
  2
_Open30
 10
139.4601886474497
 20
107.169045645591
 30
0.0
 41
2.5
 42
2.5
 43
2.5
 50
270.0
  0
MTEXT
  5
A964
330
A95E
100
AcDbEntity
  8
mark
 62
     3
100
AcDbMText
 10
137.4101886474497
 20
116.119045645591
 30
0.0
 40
2.5
 41
0.0
 71
     5
 72
     1
  1
\A1;17.9
 11
0.0000000000000001
 21
1.0
 31
0.0
 73
     1
 44
1.0
  0
POINT
  5
A965
330
A95E
100
AcDbEntity
  8
DEFPOINTS
 62
     0
100
AcDbPoint
 10
131.5
 20
125.069045645591
 30
0.0
  0
POINT
  5
A966
330
A95E
100
AcDbEntity
  8
DEFPOINTS
 62
     0
100
AcDbPoint
 10
131.5000000000002
 20
107.169045645591
 30
0.0
  0
POINT
  5
A967
330
A95E
100
AcDbEntity
  8
DEFPOINTS
 62
     0
100
AcDbPoint
 10
139.4601886474497
 20
107.169045645591
 30
0.0
  0
ENDBLK
  5
A969
330
A95E
100
AcDbEntity
  8
0
100
AcDbBlockEnd
  0
BLOCK
  5
A9A5
330
A99B
100
AcDbEntity
  8
0
100
AcDbBlockBegin
  2
*D8
 70
     1
 10
0.0
 20
0.0
 30
0.0
  3
*D8
  1

  0
LINE
  5
A99C
330
A99B
100
AcDbEntity
  8
mark
370
    -2
100
AcDbLine
 10
132.3
 20
125.069045645591
 30
0.0
 11
146.7708602707615
 21
125.069045645591
 31
0.0
  0
LINE
  5
A99D
330
A99B
100
AcDbEntity
  8
mark
370
    -2
100
AcDbLine
 10
132.3
 20
100.069045645591
 30
0.0
 11
146.7708602707615
 21
100.069045645591
 31
0.0
  0
LINE
  5
A99E
330
A99B
100
AcDbEntity
  8
mark
370
    -2
100
AcDbLine
 10
145.9708602707614
 20
122.569045645591
 30
0.0
 11
145.9708602707614
 21
102.569045645591
 31
0.0
  0
INSERT
  5
A99F
330
A99B
100
AcDbEntity
  8
mark
370
    -2
100
AcDbBlockReference
  2
_Open30
 10
145.9708602707614
 20
125.069045645591
 30
0.0
 41
2.5
 42
2.5
 43
2.5
 50
90.0
  0
INSERT
  5
A9A0
330
A99B
100
AcDbEntity
  8
mark
370
    -2
100
AcDbBlockReference
  2
_Open30
 10
145.9708602707614
 20
100.069045645591
 30
0.0
 41
2.5
 42
2.5
 43
2.5
 50
270.0
  0
MTEXT
  5
A9A1
330
A99B
100
AcDbEntity
  8
mark
 62
     3
100
AcDbMText
 10
143.9208602707614
 20
112.569045645591
 30
0.0
 40
2.5
 41
0.0
 71
     5
 72
     1
  1
\A1;25%%P0.2
 11
0.0000000000000001
 21
1.0
 31
0.0
 73
     1
 44
1.0
  0
POINT
  5
A9A2
330
A99B
100
AcDbEntity
  8
DEFPOINTS
 62
     0
100
AcDbPoint
 10
131.5
 20
125.069045645591
 30
0.0
  0
POINT
  5
A9A3
330
A99B
100
AcDbEntity
  8
DEFPOINTS
 62
     0
100
AcDbPoint
 10
131.5
 20
100.069045645591
 30
0.0
  0
POINT
  5
A9A4
330
A99B
100
AcDbEntity
  8
DEFPOINTS
 62
     0
100
AcDbPoint
 10
145.9708602707614
 20
100.069045645591
 30
0.0
  0
ENDBLK
  5
A9A6
330
A99B
100
AcDbEntity
  8
0
100
AcDbBlockEnd
  0
BLOCK
  5
A9C1
330
A9B7
100
AcDbEntity
  8
0
100
AcDbBlockBegin
  2
*D9
 70
     1
 10
0.0
 20
0.0
 30
0.0
  3
*D9
  1

  0
LINE
  5
A9B8
330
A9B7
100
AcDbEntity
  8
mark
370
    -2
100
AcDbLine
 10
67.50000000000006
 20
99.95704564559105
 30
0.0
 11
67.50000000000006
 21
85.1018606438018
 31
0.0
  0
LINE
  5
A9B9
330
A9B7
100
AcDbEntity
  8
mark
370
    -2
100
AcDbLine
 10
122.5
 20
99.95704564559105
 30
0.0
 11
122.5
 21
85.1018606438018
 31
0.0
  0
LINE
  5
A9BA
330
A9B7
100
AcDbEntity
  8
mark
370
    -2
100
AcDbLine
 10
70.00000000000006
 20
85.9018606438018
 30
0.0
 11
120.0
 21
85.9018606438018
 31
0.0
  0
INSERT
  5
A9BB
330
A9B7
100
AcDbEntity
  8
mark
370
    -2
100
AcDbBlockReference
  2
_Open30
 10
67.50000000000006
 20
85.9018606438018
 30
0.0
 41
2.5
 42
2.5
 43
2.5
 50
180.0
  0
INSERT
  5
A9BC
330
A9B7
100
AcDbEntity
  8
mark
370
    -2
100
AcDbBlockReference
  2
_Open30
 10
122.5
 20
85.9018606438018
 30
0.0
 41
2.5
 42
2.5
 43
2.5
  0
MTEXT
  5
A9BD
330
A9B7
100
AcDbEntity
  8
mark
 62
     3
100
AcDbMText
 10
95.00000000000003
 20
87.9518606438018
 30
0.0
 40
2.5
 41
0.0
 71
     5
 72
     1
  1
\A1;M55X1.5P
 73
     1
 44
1.0
  0
POINT
  5
A9BE
330
A9B7
100
AcDbEntity
  8
DEFPOINTS
 62
     0
100
AcDbPoint
 10
67.50000000000006
 20
100.757045645591
 30
0.0
  0
POINT
  5
A9BF
330
A9B7
100
AcDbEntity
  8
DEFPOINTS
 62
     0
100
AcDbPoint
 10
122.5
 20
100.757045645591
 30
0.0
  0
POINT
  5
A9C0
330
A9B7
100
AcDbEntity
  8
DEFPOINTS
 62
     0
100
AcDbPoint
 10
122.5
 20
85.9018606438018
 30
0.0
  0
ENDBLK
  5
A9C2
330
A9B7
100
AcDbEntity
  8
0
100
AcDbBlockEnd
  0
BLOCK
  5
A9DA
330
A9D1
100
AcDbEntity
  8
0
100
AcDbBlockBegin
  2
*D10
 70
     1
 10
0.0
 20
0.0
 30
0.0
  3
*D10
  1

  0
LINE
  5
A9D2
330
A9D1
100
AcDbEntity
  8
mark
370
    -2
100
AcDbLine
 10
36.62723091756199
 20
214.9739946977516
 30
0.0
 11
60.35728341741273
 21
208.9264370196348
 31
0.0
  0
LINE
  5
A9D3
330
A9D1
100
AcDbEntity
  8
mark
370
    -2
100
AcDbLine
 10
129.6427165825875
 20
191.2691792734776
 30
0.0
 11
132.0652841757754
 21
190.6517926389966
 31
0.0
  0
MTEXT
  5
A9D4
330
A9D1
100
AcDbEntity
  8
mark
 62
     3
100
AcDbMText
 10
47.19521869487683
 20
214.3962876356212
 30
0.0
 40
2.5
 41
0.0
 71
     5
 72
     1
  1
\A1;P.C.D 66.5
 11
0.9690270372751598
 21
-0.246954653792404
 31
0.0
 73
     1
 44
1.0
  0
LINE
  5
A9D5
330
A9D1
100
AcDbEntity
  8
mark
370
    -2
100
AcDbLine
 10
127.2201489893996
 20
191.8865659079586
 30
0.0
 11
62.77985101060063
 21
208.3090503851537
 31
0.0
  0
INSERT
  5
A9D6
330
A9D1
100
AcDbEntity
  8
mark
370
    -2
100
AcDbBlockReference
  2
_Open30
 10
127.2201489893996
 20
191.8865659079586
 30
0.0
 41
2.5
 42
2.5
 43
2.5
 50
165.7026228311704
  0
INSERT
  5
A9D7
330
A9D1
100
AcDbEntity
  8
mark
370
    -2
100
AcDbBlockReference
  2
_Open30
 10
62.77985101060063
 20
208.3090503851537
 30
0.0
 41
2.5
 42
2.5
 43
2.5
 50
345.7026228311705
  0
POINT
  5
A9D8
330
A9D1
100
AcDbEntity
  8
DEFPOINTS
 62
     0
100
AcDbPoint
 10
62.77985101060063
 20
208.3090503851537
 30
0.0
  0
POINT
  5
A9D9
330
A9D1
100
AcDbEntity
  8
DEFPOINTS
 62
     0
100
AcDbPoint
 10
127.2201489893996
 20
191.8865659079586
 30
0.0
  0
ENDBLK
  5
A9DB
330
A9D1
100
AcDbEntity
  8
0
100
AcDbBlockEnd
  0
BLOCK
  5
A9E7
330
A9DE
100
AcDbEntity
  8
0
100
AcDbBlockBegin
  2
*D11
 70
     1
 10
0.0
 20
0.0
 30
0.0
  3
*D11
  1

  0
LINE
  5
A9F1
330
A9DE
100
AcDbEntity
  8
mark
370
    -2
100
AcDbLine
 10
150.6740590545767
 20
215.0191508565842
 30
0.0
 11
128.806868961742
 21
209.1584709812286
 31
0.0
  0
LINE
  5
A9F2
330
A9DE
100
AcDbEntity
  8
mark
370
    -2
100
AcDbLine
 10
61.19313103825814
 20
191.0371453118837
 30
0.0
 11
58.77835468384801
 21
190.3899551094071
 31
0.0
  0
MTEXT
  5
A9F3
330
A9DE
100
AcDbEntity
  8
mark
 62
     3
100
AcDbMText
 10
141.7238428661692
 20
214.7427309612321
 30
0.0
 40
2.5
 41
0.0
 71
     5
 72
     1
  1
\A1;P.C.D 65
 11
0.9659105417640533
 21
0.2588760809906406
 31
0.0
 73
     1
 44
1.0
  0
LINE
  5
A9F4
330
A9DE
100
AcDbEntity
  8
mark
370
    -2
100
AcDbLine
 10
63.60790739266828
 20
191.6843355143603
 30
0.0
 11
126.3920926073319
 21
208.511280778752
 31
0.0
  0
INSERT
  5
A9F5
330
A9DE
100
AcDbEntity
  8
mark
370
    -2
100
AcDbBlockReference
  2
_Open30
 10
63.60790739266828
 20
191.6843355143603
 30
0.0
 41
2.5
 42
2.5
 43
2.5
 50
15.00338322201936
  0
INSERT
  5
A9F6
330
A9DE
100
AcDbEntity
  8
mark
370
    -2
100
AcDbBlockReference
  2
_Open30
 10
126.3920926073319
 20
208.511280778752
 30
0.0
 41
2.5
 42
2.5
 43
2.5
 50
195.0033832220193
  0
POINT
  5
A9F7
330
A9DE
100
AcDbEntity
  8
DEFPOINTS
 62
     0
100
AcDbPoint
 10
126.3920926073319
 20
208.511280778752
 30
0.0
  0
POINT
  5
A9F8
330
A9DE
100
AcDbEntity
  8
DEFPOINTS
 62
     0
100
AcDbPoint
 10
63.60790739266828
 20
191.6843355143603
 30
0.0
  0
ENDBLK
  5
A9E8
330
A9DE
100
AcDbEntity
  8
0
100
AcDbBlockEnd
  0
BLOCK
  5
AA01
330
A9FA
100
AcDbEntity
  8
0
100
AcDbBlockBegin
  2
*D12
 70
     1
 10
0.0
 20
0.0
 30
0.0
  3
*D12
  1

  0
LINE
  5
AA03
330
A9FA
100
AcDbEntity
  8
mark
370
    -2
100
AcDbLine
 10
50.76896585902708
 20
93.33801150461807
 30
0.0
 11
56.02512626584708
 21
98.59417191143808
 31
0.0
  0
MTEXT
  5
AA04
330
A9FA
100
AcDbEntity
  8
mark
 62
     3
100
AcDbMText
 10
51.06359368452149
 20
96.53177713297731
 30
0.0
 40
2.5
 41
0.0
 71
     5
 72
     1
  1
\A1;R1
 11
0.7071067811865476
 21
0.7071067811865475
 31
0.0
 73
     1
 44
1.0
  0
LINE
  5
AA05
330
A9FA
100
AcDbEntity
  8
mark
370
    -2
100
AcDbLine
 10
58.49999999999996
 20
101.0690456455909
 30
0.0
 11
57.79289321881345
 21
100.3619388644044
 31
0.0
  0
INSERT
  5
AA06
330
A9FA
100
AcDbEntity
  8
mark
370
    -2
100
AcDbBlockReference
  2
_Open30
 10
57.79289321881345
 20
100.3619388644044
 30
0.0
 41
2.5
 42
2.5
 43
2.5
 50
45.0
  0
POINT
  5
AA07
330
A9FA
100
AcDbEntity
  8
DEFPOINTS
 62
     0
100
AcDbPoint
 10
57.79289321881345
 20
100.3619388644044
 30
0.0
  0
POINT
  5
AA08
330
A9FA
100
AcDbEntity
  8
DEFPOINTS
 62
     0
100
AcDbPoint
 10
58.49999999999996
 20
101.0690456455909
 30
0.0
  0
ENDBLK
  5
AA02
330
A9FA
100
AcDbEntity
  8
0
100
AcDbBlockEnd
  0
BLOCK
  5
AAA6
330
AA9C
100
AcDbEntity
  8
0
100
AcDbBlockBegin
  2
*D13
 70
     1
 10
0.0
 20
0.0
 30
0.0
  3
*D13
  1

  0
LINE
  5
AAA8
330
AA9C
100
AcDbEntity
  8
mark
370
    -2
100
AcDbLine
 10
54.69999999999995
 20
116.069045645591
 30
0.0
 11
49.03202842553828
 21
116.069045645591
 31
0.0
  0
LINE
  5
AAA9
330
AA9C
100
AcDbEntity
  8
mark
370
    -2
100
AcDbLine
 10
57.70000000000006
 20
125.069045645591
 30
0.0
 11
49.03202842553828
 21
125.069045645591
 31
0.0
  0
LINE
  5
AAAA
330
AA9C
100
AcDbEntity
  8
mark
370
    -2
100
AcDbLine
 10
49.83202842553828
 20
118.569045645591
 30
0.0
 11
49.83202842553828
 21
122.569045645591
 31
0.0
  0
INSERT
  5
AAAB
330
AA9C
100
AcDbEntity
  8
mark
370
    -2
100
AcDbBlockReference
  2
_Open30
 10
49.83202842553828
 20
116.069045645591
 30
0.0
 41
2.5
 42
2.5
 43
2.5
 50
270.0
  0
INSERT
  5
AAAC
330
AA9C
100
AcDbEntity
  8
mark
370
    -2
100
AcDbBlockReference
  2
_Open30
 10
49.83202842553828
 20
125.069045645591
 30
0.0
 41
2.5
 42
2.5
 43
2.5
 50
90.0
  0
MTEXT
  5
AAAD
330
AA9C
100
AcDbEntity
  8
mark
 62
     3
100
AcDbMText
 10
47.78202842553826
 20
120.569045645591
 30
0.0
 40
2.5
 41
0.0
 71
     5
 72
     1
  1
\A1;9
 11
0.0000000000000001
 21
1.0
 31
0.0
 73
     1
 44
1.0
  0
POINT
  5
AAAE
330
AA9C
100
AcDbEntity
  8
DEFPOINTS
 62
     0
100
AcDbPoint
 10
55.49999999999994
 20
116.069045645591
 30
0.0
  0
POINT
  5
AAAF
330
AA9C
100
AcDbEntity
  8
DEFPOINTS
 62
     0
100
AcDbPoint
 10
58.50000000000005
 20
125.069045645591
 30
0.0
  0
POINT
  5
AAB0
330
AA9C
100
AcDbEntity
  8
DEFPOINTS
 62
     0
100
AcDbPoint
 10
49.83202842553828
 20
125.069045645591
 30
0.0
  0
ENDBLK
  5
AAA7
330
AA9C
100
AcDbEntity
  8
0
100
AcDbBlockEnd
  0
ENDSEC
  0
SECTION
  2
ENTITIES
  0
MTEXT
  5
C0
330
18
100
AcDbEntity
  8
0
100
AcDbMText
 10
41.26970765600413
 20
233.6950877649332
 30
0.0
 40
2.5
 41
0.0
 71
     1
 72
     5
  1

  7
ISOCP3
 73
     1
 44
1.0
  0
LWPOLYLINE
  5
7D6C
330
18
100
AcDbEntity
  8
frame
100
AcDbPolyline
 90
        4
 70
     1
 43
0.0
 10
190.0
 20
280.0
 10
0.0
 20
280.0
 10
0.0
 20
0.0
 10
190.0
 20
0.0
  0
MTEXT
  5
7D6D
330
18
100
AcDbEntity
  8
0
100
AcDbMText
 10
17.09950368689175
 20
19.07605901616614
 30
0.0
 40
4.5
 41
0.0
 71
     1
 72
     5
  1
{\Ftxt,bigfont|c128;林彦旭}
  7
JL
 73
     1
 44
1.0
1001
ACAD
1000
ACAD_MTEXT_DEFINED_HEIGHT_BEGIN
1070
    46
1040
0.0
1000
ACAD_MTEXT_DEFINED_HEIGHT_END
  0
MTEXT
  5
7D6E
330
18
100
AcDbEntity
  8
0
100
AcDbMText
 10
77.95294729228851
 20
28.93578979870677
 30
0.0
 40
4.5
 41
0.0
 71
     1
 72
     5
  1
{\Ftxt,bigfont|c128;1 : 1}
  7
JL
 73
     1
 44
1.0
1001
ACAD
1000
ACAD_MTEXT_DEFINED_HEIGHT_BEGIN
1070
    46
1040
0.0
1000
ACAD_MTEXT_DEFINED_HEIGHT_END
  0
MTEXT
  5
7D6F
330
18
100
AcDbEntity
  8
0
 48
2.0
370
    25
100
AcDbMText
 10
140.2194500465656
 20
3.490021654633892
 30
0.0
 40
4.5
 41
0.0
 71
     5
 72
     1
  1
{\Ftxt,bigfont|c128;N L 4 0 2 8 0}
 73
     1
 44
1.0
1001
ACAD
1000
ACAD_MTEXT_DEFINED_HEIGHT_BEGIN
1070
    46
1040
0.0
1000
ACAD_MTEXT_DEFINED_HEIGHT_END
  0
MTEXT
  5
7D70
330
18
100
AcDbEntity
  8
0
 48
2.0
100
AcDbMText
 10
170.9328999644331
 20
21.76437127823692
 30
0.0
 40
4.318181818181822
 41
0.0
 71
     5
 72
     1
  1
\P{\Ftxt,bigfont|c128;MKR55X1.5P}
 73
     1
 44
1.0
1001
ACAD
1000
ACAD_MTEXT_DEFINED_HEIGHT_BEGIN
1070
    46
1040
0.0
1000
ACAD_MTEXT_DEFINED_HEIGHT_END
  0
MTEXT
  5
7D71
330
18
100
AcDbEntity
  8
0
100
AcDbMText
 10
15.3760677136774
 20
28.37740359834709
 30
0.0
 40
4.5
 41
0.0
 71
     1
 72
     5
  1
{\Ftxt,bigfont|c128;06.07.05}
  7
JL
 73
     1
 44
1.0
1001
ACAD
1000
ACAD_MTEXT_DEFINED_HEIGHT_BEGIN
1070
    46
1040
0.0
1000
ACAD_MTEXT_DEFINED_HEIGHT_END
  0
MTEXT
  5
7D73
330
18
100
AcDbEntity
  8
0
100
AcDbMText
 10
14.91235548326415
 20
9.242195050049303
 30
0.0
 40
6.0
 41
0.0
 71
     1
 72
     5
  1
\Ftxt.shx,bigfont.shx|c128;日機株式会社
  7
LKK
 73
     1
 44
1.0
  0
LINE
  5
7D74
330
18
100
AcDbEntity
  8
frame
100
AcDbLine
 10
0.0
 20
12.0
 30
0.0
 11
190.0
 21
12.00000000000005
 31
0.0
  0
LINE
  5
7D75
330
18
100
AcDbEntity
  8
frame
100
AcDbLine
 10
0.0
 20
22.0
 30
0.0
 11
92.12121212121223
 21
22.0
 31
0.0
  0
LINE
  5
7D76
330
18
100
AcDbEntity
  8
frame
100
AcDbLine
 10
0.0
 20
32.0
 30
0.0
 11
190.0
 21
32.0
 31
0.0
  0
LINE
  5
7D77
330
18
100
AcDbEntity
  8
frame
100
AcDbLine
 10
12.19077332493799
 20
32.0
 30
0.0
 11
12.19077332493799
 21
12.0
 31
0.0
  0
LINE
  5
7D78
330
18
100
AcDbEntity
  8
frame
100
AcDbLine
 10
30.70707070707067
 20
32.0
 30
0.0
 11
30.70707070707078
 21
12.0
 31
0.0
  0
MTEXT
  5
7D79
330
18
100
AcDbEntity
  8
0
100
AcDbMText
 10
2.830274784221955
 20
29.08190089582831
 30
0.0
 40
4.5
 41
0.0
 71
     1
 72
     5
  1
\Ftxt.shx,bigfont.shx|c128;日 付
  7
JL
 73
     1
 44
1.0
  0
MTEXT
  5
7D7A
330
18
100
AcDbEntity
  8
0
100
AcDbMText
 10
2.97063307743889
 20
19.52163842926637
 30
0.0
 40
4.5
 41
0.0
 71
     1
 72
     5
  1
\Ftxt.shx,bigfont.shx|c128;製 図
  7
JL
 73
     1
 44
1.0
  0
LINE
  5
7D7B
330
18
100
AcDbEntity
  8
0
 62
     7
370
    25
100
AcDbLine
 10
53.04580144287854
 20
23.81984609294597
 30
0.0
 11
53.04580144287854
 21
28.93622339589922
 31
0.0
  0
MTEXT
  5
7D7C
330
18
100
AcDbEntity
  8
0
100
AcDbMText
 10
64.00748852490835
 20
29.12242703792379
 30
0.0
 40
4.5
 41
0.0
 71
     1
 72
     5
  1
\Ftxt.shx,bigfont.shx|c128;尺 度
  7
JL
 73
     1
 44
1.0
  0
LINE
  5
7D7D
330
18
100
AcDbEntity
  8
frame
100
AcDbLine
 10
61.41414141414145
 20
32.0
 30
0.0
 11
61.41414141414145
 21
12.0
 31
0.0
  0
LINE
  5
7D7E
330
18
100
AcDbEntity
  8
0
 62
     7
370
    25
100
AcDbLine
 10
39.6153110226262
 20
23.18889018332635
 30
0.0
 11
39.6153110226262
 21
29.36457992429672
 31
0.0
  0
CIRCLE
  5
7D7F
330
18
100
AcDbEntity
  8
0
 62
     7
100
AcDbCircle
 10
39.6153110226262
 20
26.37803474442251
 30
0.0
 40
2.558188651476678
  0
LINE
  5
7D80
330
18
100
AcDbEntity
  8
0
 62
     7
370
    25
100
AcDbLine
 10
47.19321986919976
 20
26.37803474442262
 30
0.0
 11
53.50512581624241
 21
26.37803474442262
 31
0.0
  0
LINE
  5
7D81
330
18
100
AcDbEntity
  8
0
 62
     7
100
AcDbLine
 10
47.92942413992534
 20
25.09894041868427
 30
0.0
 11
53.04580144287854
 21
23.81984609294597
 31
0.0
  0
LINE
  5
7D82
330
18
100
AcDbEntity
  8
frame
100
AcDbLine
 10
42.742241959951
 20
22.0
 30
0.0
 11
42.742241959951
 21
12.0
 31
0.0
  0
LINE
  5
7D83
330
18
100
AcDbEntity
  8
0
 62
     7
370
    25
100
AcDbLine
 10
36.41832228486612
 20
26.37803474442251
 30
0.0
 11
43.00325267619268
 21
26.37803474442262
 31
0.0
  0
CIRCLE
  5
7D84
330
18
100
AcDbEntity
  8
0
 62
     7
100
AcDbCircle
 10
39.6153110226262
 20
26.37803474442251
 30
0.0
 40
1.279094325738339
  0
MTEXT
  5
7D85
330
18
100
AcDbEntity
  8
0
100
AcDbMText
 10
33.70184032462407
 20
19.41013815785266
 30
0.0
 40
4.5
 41
0.0
 71
     1
 72
     5
  1
\Ftxt.shx,bigfont.shx|c128;検 図
  7
JL
 73
     1
 44
1.0
  0
LINE
  5
7D86
330
18
100
AcDbEntity
  8
0
 62
     7
370
    25
100
AcDbLine
 10
47.92942413992534
 20
25.09894041868427
 30
0.0
 11
47.92942413992534
 21
27.65712907016086
 31
0.0
  0
MTEXT
  5
7D87
330
18
100
AcDbEntity
  8
0
100
AcDbMText
 10
64.28820249919829
 20
19.32058534748881
 30
0.0
 40
4.5
 41
0.0
 71
     1
 72
     5
  1
\Ftxt.shx,bigfont.shx|c128;承 認
  7
JL
 73
     1
 44
1.0
  0
MTEXT
  5
7D88
330
18
100
AcDbEntity
  8
0
100
AcDbMText
 10
93.71128715606699
 20
10.7026821961914
 30
0.0
 40
4.5
 41
0.0
 71
     1
 72
     5
  1
\Ftxt.shx,bigfont.shx|c128;図  面  番  号
  7
JL
 73
     1
 44
1.0
  0
MTEXT
  5
7D89
330
18
100
AcDbEntity
  8
0
 48
2.0
100
AcDbMText
 10
116.9038190021384
 20
21.8757473149584
 30
0.0
 40
4.5
 41
0.0
 71
     5
 72
     1
  1
\P\Ftxt.shx,bigfont.shx|c128;    精密ロックナット
 73
     1
 44
1.0
  0
MTEXT
  5
7D8A
330
18
100
AcDbEntity
  8
0
100
AcDbMText
 10
94.8083613031232
 20
29.03862457973275
 30
0.0
 40
4.5
 41
0.0
 71
     1
 72
     5
  1
\Ftxt.shx,bigfont.shx|c128;品  名
  7
JL
 73
     1
 44
1.0
  0
LINE
  5
7D8B
330
18
100
AcDbEntity
  8
frame
100
AcDbLine
 10
92.12121212121223
 20
32.0
 30
0.0
 11
92.12121212121223
 21
0.1833227579584786
 31
0.0
  0
LINE
  5
7D8C
330
18
100
AcDbEntity
  8
frame
100
AcDbLine
 10
73.41414141414145
 20
32.0
 30
0.0
 11
73.41414141414145
 21
12.0
 31
0.0
  0
LINE
  5
7D8D
330
18
100
AcDbEntity
  8
frame
100
AcDbLine
 10
147.0327092740656
 20
32.0
 30
0.0
 11
147.0327092740657
 21
12.0
 31
0.0
  0
MTEXT
  5
7D8E
330
18
100
AcDbEntity
  8
0
100
AcDbMText
 10
150.895959446773
 20
29.04517782830391
 30
0.0
 40
4.5
 41
0.0
 71
     1
 72
     5
  1
\Ftxt.shx,bigfont.shx|c128;型  番
  7
JL
 73
     1
 44
1.0
  0
MTEXT
  5
7D8F
330
18
100
AcDbEntity
  8
0
100
AcDbMText
 10
165.8059614810325
 20
10.78298174971564
 30
0.0
 40
4.5
 41
0.0
 71
     1
 72
     5
  1
\Ftxt.shx,bigfont.shx|c128;変更
  7
JL
 73
     1
 44
1.0
  0
LINE
  5
7D90
330
18
100
AcDbEntity
  8
frame
100
AcDbLine
 10
164.0909090909092
 20
12.00000000000005
 30
0.0
 11
164.0909090909093
 21
0.0
 31
0.0
  0
LINE
  5
7D91
330
18
100
AcDbEntity
  8
frame
100
AcDbLine
 10
124.6157900786393
 20
43.13491348924492
 30
0.0
 11
184.6157900786393
 21
43.13491348924481
 31
0.0
  0
LINE
  5
7D92
330
18
100
AcDbEntity
  8
frame
100
AcDbLine
 10
124.6157900786393
 20
50.33491348924497
 30
0.0
 11
184.6157900786393
 21
50.33491348924497
 31
0.0
  0
LINE
  5
7D93
330
18
100
AcDbEntity
  8
frame
100
AcDbLine
 10
124.6157900786393
 20
57.5349134892449
 30
0.0
 11
184.6157900786393
 21
57.53491348924478
 31
0.0
  0
LINE
  5
7D94
330
18
100
AcDbEntity
  8
frame
100
AcDbLine
 10
124.6157900786393
 20
64.73491348924494
 30
0.0
 11
184.6157900786393
 21
64.73491348924483
 31
0.0
  0
LINE
  5
7D95
330
18
100
AcDbEntity
  8
frame
100
AcDbLine
 10
124.6157900786393
 20
35.93491348924488
 30
0.0
 11
184.6157900786393
 21
35.93491348924488
 31
0.0
  0
MTEXT
  5
7D96
330
18
100
AcDbEntity
  8
0
 62
     7
 48
2.0
100
AcDbMText
 10
154.5011900445106
 20
65.52808189982909
 30
0.0
 40
4.8
 41
0.0
 71
     5
 72
     1
  1
\P\Ftxt.shx,bigfont.shx|c128;諸　　　　元
 73
     1
 44
1.0
  0
LINE
  5
7D97
330
18
100
AcDbEntity
  8
frame
100
AcDbLine
 10
124.6157900786393
 20
64.73491348924483
 30
0.0
 11
124.6157900786393
 21
35.93491348924488
 31
0.0
  0
MTEXT
  5
7D98
330
18
100
AcDbEntity
  8
0
100
AcDbMText
 10
128.1382258923195
 20
56.00840432212407
 30
0.0
 40
4.4
 41
163.916286842249
 71
     1
 72
     5
  1
\Ftxt.shx,bigfont.shx|c128;熱　処　理
  7
JL
 73
     1
 44
1.0
  0
LINE
  5
7D99
330
18
100
AcDbEntity
  8
frame
100
AcDbLine
 10
148.6157900786393
 20
57.53491348924478
 30
0.0
 11
148.6157900786393
 21
35.93491348924488
 31
0.0
  0
MTEXT
  5
7D9A
330
18
100
AcDbEntity
  8
0
100
AcDbMText
 10
127.8579515249403
 20
49.00617587486397
 30
0.0
 40
4.4
 41
163.6058628849672
 71
     1
 72
     5
  1
\Ftxt.shx,bigfont.shx|c128;表 面 処 理
  7
JL
 73
     1
 44
1.0
  0
MTEXT
  5
7D9B
330
18
100
AcDbEntity
  8
0
100
AcDbMText
 10
128.1480173733753
 20
41.71770302125605
 30
0.0
 40
4.4
 41
166.1718
 71
     1
 72
     5
  1
\Ftxt.shx,bigfont.shx|c128;等     　級
  7
JL
 73
     1
 44
1.0
  0
LINE
  5
7D9C
330
18
100
AcDbEntity
  8
frame
100
AcDbLine
 10
184.6157900786393
 20
64.73491348924483
 30
0.0
 11
184.6157900786393
 21
35.93491348924499
 31
0.0
  0
MTEXT
  5
7D9D
330
18
100
AcDbEntity
  8
0
100
AcDbMText
 10
153.3627933880818
 20
55.83344641471445
 30
0.0
 40
4.4
 41
291.8960056857887
 71
     1
 72
     5
  1
\Ftxt.shx,bigfont.shx|c128;調質　HRC30%%d%%p２%%d
  7
JL
 73
     1
 44
1.0
  0
MTEXT
  5
7D9E
330
18
100
AcDbEntity
  8
0
100
AcDbMText
 10
153.6234323895182
 20
41.7183135927072
 30
0.0
 40
4.4
 41
290.783364796891
 71
     1
 72
     5
  1
\Ftxt.shx,bigfont.shx|c128;ＩＳＯ - ４Ｈ
  7
JL
 73
     1
 44
1.0
  0
MTEXT
  5
7D9F
330
18
100
AcDbEntity
  8
0
100
AcDbMText
 10
153.7978935876485
 20
48.65328293790913
 30
0.0
 40
4.4
 41
291.4548
 71
     1
 72
     5
  1
\Ftxt.shx,bigfont.shx|c128;黒  　    染
  7
JL
 73
     1
 44
1.0
  0
MTEXT
  5
7DA0
330
18
100
AcDbEntity
  8
0
100
AcDbMText
 10
57.63639061334425
 20
260.9000583279474
 30
0.0
 40
5.0
 41
0.0
 71
     1
 72
     5
  1
{\Ftxt,bigfont|c128;M4X0.7P-18L}
  7
JL
 73
     1
 44
1.0
1001
ACAD
1000
ACAD_MTEXT_DEFINED_HEIGHT_BEGIN
1070
    46
1040
0.0
1000
ACAD_MTEXT_DEFINED_HEIGHT_END
  0
LINE
  5
7DA2
330
18
100
AcDbEntity
  8
frame
100
AcDbLine
 10
0.0
 20
254.0
 30
0.0
 11
190.0
 21
254.0
 31
0.0
  0
LINE
  5
7DA3
330
18
100
AcDbEntity
  8
frame
100
AcDbLine
 10
0.0
 20
262.0
 30
0.0
 11
190.0
 21
262.0
 31
0.0
  0
LINE
  5
7DA4
330
18
100
AcDbEntity
  8
frame
 62
     9
100
AcDbLine
 10
0.0
 20
270.0
 30
0.0
 11
190.0
 21
270.0
 31
0.0
  0
MTEXT
  5
7DA5
330
18
100
AcDbEntity
  8
0
100
AcDbMText
 10
57.0156439060371
 20
277.4240560049041
 30
0.0
 40
5.0
 41
0.0
 71
     1
 72
     5
  1
\Ftxt.shx,bigfont.shx|c128;図    番 / 規　　格
  7
JL
 73
     1
 44
1.0
  0
LINE
  5
7DA6
330
18
100
AcDbEntity
  8
frame
100
AcDbLine
 10
0.0
 20
254.0
 30
0.0
 11
190.0
 21
254.0
 31
0.0
  0
MTEXT
  5
7DA8
330
18
100
AcDbEntity
  8
0
100
AcDbMText
 10
21.12488048923433
 20
277.4637981386743
 30
0.0
 40
5.0
 41
0.0
 71
     1
 72
     5
  1
\Ftxt.shx,bigfont.shx|c128;品　          名
  7
JL
 73
     1
 44
1.0
  0
MTEXT
  5
7DA9
330
18
100
AcDbEntity
  8
0
100
AcDbMText
 10
18.10281387110132
 20
260.7907237289111
 30
0.0
 40
5.0
 41
0.0
 71
     1
 72
     5
  1
\Ftxt.shx,bigfont.shx|c128;セットスクリュ-
  7
JL
 73
     1
 44
1.0
  0
MTEXT
  5
7DAA
330
18
100
AcDbEntity
  8
0
100
AcDbMText
 10
17.91509480863158
 20
268.8361230282964
 30
0.0
 40
5.0
 41
0.0
 71
     1
 72
     5
  1
\Ftxt.shx,bigfont.shx|c128;ロックナット　  
  7
JL
 73
     1
 44
1.0
  0
LINE
  5
7DAC
330
18
100
AcDbEntity
  8
frame
 62
     9
100
AcDbLine
 10
14.39393939393937
 20
279.9999999999999
 30
0.0
 11
14.39393939393964
 21
254.0
 31
0.0
  0
LINE
  5
7DAD
330
18
100
AcDbEntity
  8
frame
 62
     9
100
AcDbLine
 10
14.39393939393937
 20
279.9999999999999
 30
0.0
 11
14.39393939393937
 21
255.0505050505051
 31
0.0
  0
MTEXT
  5
7DAE
330
18
100
AcDbEntity
  8
0
100
AcDbMText
 10
6.815009268013795
 20
268.7281674434121
 30
0.0
 40
5.0
 41
0.0
 71
     1
 72
     5
  1
\Ftxt.shx,bigfont.shx|c128;1
  7
JL
 73
     1
 44
1.0
  0
MTEXT
  5
7DAF
330
18
100
AcDbEntity
  8
0
100
AcDbMText
 10
2.119828072980226
 20
277.4734782639491
 30
0.0
 40
5.0
 41
0.0
 71
     1
 72
     5
  1
\Ftxt.shx,bigfont.shx|c128;照   号
  7
JL
 73
     1
 44
1.0
  0
LINE
  5
7DB0
330
18
100
AcDbEntity
  8
frame
 62
     9
100
AcDbLine
 10
52.77777777777783
 20
279.9999999999999
 30
0.0
 11
52.77777777777784
 21
254.0
 31
0.0
  0
MTEXT
  5
7DB1
330
18
100
AcDbEntity
  8
0
100
AcDbMText
 10
145.5736374372851
 20
277.6781663894194
 30
0.0
 40
5.0
 41
0.0
 71
     1
 72
     5
  1
\Ftxt.shx,bigfont.shx|c128;備           考
  7
JL
 73
     1
 44
1.0
  0
LINE
  5
7DB2
330
18
100
AcDbEntity
  8
frame
 62
     9
100
AcDbLine
 10
91.16161616161617
 20
280.0
 30
0.0
 11
91.16161616161617
 21
254.0
 31
0.0
  0
MTEXT
  5
7DB4
330
18
100
AcDbEntity
  8
0
100
AcDbMText
 10
92.87341089179369
 20
268.8361230282964
 30
0.0
 40
5.0
 41
0.0
 71
     1
 72
     5
  1
\Ftxt.shx,bigfont.shx|c128;SCM-440
  7
JL
 73
     1
 44
1.0
  0
MTEXT
  5
7DB5
330
18
100
AcDbEntity
  8
0
100
AcDbMText
 10
92.87341089179369
 20
260.765002012584
 30
0.0
 40
5.0
 41
0.0
 71
     1
 72
     5
  1
\Ftxt.shx,bigfont.shx|c128;SCM435
  7
JL
 73
     1
 44
1.0
  0
MTEXT
  5
7DB6
330
18
100
AcDbEntity
  8
0
100
AcDbMText
 10
95.76798863104192
 20
277.5645499482919
 30
0.0
 40
5.0
 41
0.0
 71
     1
 72
     5
  1
\Ftxt.shx,bigfont.shx|c128;材　質
  7
JL
 73
     1
 44
1.0
  0
LINE
  5
7DB7
330
18
100
AcDbEntity
  8
frame
 62
     9
100
AcDbLine
 10
110.3535353535354
 20
280.0
 30
0.0
 11
110.3535353535354
 21
254.0
 31
0.0
  0
LINE
  5
7DB8
330
18
100
AcDbEntity
  8
frame
100
AcDbLine
 10
124.7474747474747
 20
280.0
 30
0.0
 11
124.7474747474748
 21
254.0
 31
0.0
  0
MTEXT
  5
7DBA
330
18
100
AcDbEntity
  8
0
100
AcDbMText
 10
117.1685446215491
 20
269.0412711679932
 30
0.0
 40
5.0
 41
0.0
 71
     1
 72
     5
  1
\Ftxt.shx,bigfont.shx|c128;1
  7
JL
 73
     1
 44
1.0
  0
MTEXT
  5
7DBB
330
18
100
AcDbEntity
  8
0
100
AcDbMText
 10
116.5939070266884
 20
260.5092290150679
 30
0.0
 40
5.0
 41
0.0
 71
     1
 72
     5
  1
{\Ftxt,bigfont|c128;6}
  7
JL
 73
     1
 44
1.0
1001
ACAD
1000
ACAD_MTEXT_DEFINED_HEIGHT_BEGIN
1070
    46
1040
0.0
1000
ACAD_MTEXT_DEFINED_HEIGHT_END
  0
MTEXT
  5
7DBC
330
18
100
AcDbEntity
  8
0
100
AcDbMText
 10
112.4223895919262
 20
277.5645499482919
 30
0.0
 40
5.0
 41
0.0
 71
     1
 72
     5
  1
\Ftxt.shx,bigfont.shx|c128;数   量
  7
JL
 73
     1
 44
1.0
  0
MTEXT
  5
7DBD
330
18
100
AcDbEntity
  8
0
100
AcDbMText
 10
6.404019699055993
 20
260.7281674434121
 30
0.0
 40
5.0
 41
0.0
 71
     1
 72
     5
  1
{\Ftxt,bigfont|c128;2}
  7
JL
 73
     1
 44
1.0
1001
ACAD
1000
ACAD_MTEXT_DEFINED_HEIGHT_BEGIN
1070
    46
1040
0.0
1000
ACAD_MTEXT_DEFINED_HEIGHT_END
  0
CIRCLE
  5
A46D
330
18
100
AcDbEntity
  8
contour
100
AcDbCircle
 10
95.0
 20
200.0978081465562
 30
0.0
 40
37.5
  0
LINE
  5
A471
330
18
100
AcDbEntity
  8
center
 48
0.35
100
AcDbLine
 10
95.00000000000017
 20
239.5978081465562
 30
0.0
 11
95.00000000000005
 21
160.5978081465562
 31
0.0
  0
LINE
  5
A472
330
18
100
AcDbEntity
  8
center
 48
0.35
100
AcDbLine
 10
55.5
 20
200.0978081465562
 30
0.0
 11
134.5
 21
200.0978081465561
 31
0.0
  0
CIRCLE
  5
A4B1
330
18
100
AcDbEntity
  8
bowle
 48
0.2
100
AcDbCircle
 10
66.20465532416699
 20
216.7228081465562
 30
0.0
 40
2.149999999999999
  0
CIRCLE
  5
A4B2
330
18
100
AcDbEntity
  8
bowle
 48
0.2
100
AcDbCircle
 10
66.20465532416699
 20
216.7228081465562
 30
0.0
 40
2.649999999999999
  0
LINE
  5
A4B3
330
18
100
AcDbEntity
  8
bowle
 48
0.2
100
AcDbLine
 10
61.45706005997533
 20
215.9997319352029
 30
0.0
 11
60.97886726058357
 21
215.8716005607795
 31
0.0
  0
LINE
  5
A4B4
330
18
100
AcDbEntity
  8
bowle
 48
0.2
100
AcDbLine
 10
61.45706005997533
 20
215.9997319352029
 30
0.0
 11
65.58622518457423
 21
213.6157573389873
 31
0.0
  0
LINE
  5
A4B5
330
18
100
AcDbEntity
  8
bowle
 48
0.2
100
AcDbLine
 10
68.58622518457429
 20
215.3478081465561
 30
0.0
 11
68.58622518457423
 21
218.8119097616939
 31
0.0
  0
LINE
  5
A4B6
330
18
100
AcDbEntity
  8
bowle
 48
0.2
100
AcDbLine
 10
68.58622518457423
 20
218.8119097616939
 30
0.0
 11
64.45706005997533
 21
221.1958843579095
 31
0.0
  0
LINE
  5
A4B7
330
18
100
AcDbEntity
  8
bowle
 48
0.2
100
AcDbLine
 10
68.58622518457429
 20
215.3478081465561
 30
0.0
 11
65.58622518457423
 21
213.6157573389873
 31
0.0
  0
LINE
  5
A4B8
330
18
100
AcDbEntity
  8
bowle
 48
0.2
100
AcDbLine
 10
65.58622518457423
 20
213.6157573389873
 30
0.0
 11
68.58622518457423
 21
218.8119097616939
 31
0.0
  0
LINE
  5
A4B9
330
18
100
AcDbEntity
  8
bowle
 48
0.2
100
AcDbLine
 10
64.45706005997533
 20
221.1958843579095
 30
0.0
 11
64.32892868555194
 21
221.6740771573013
 31
0.0
  0
LINE
  5
A4BA
330
18
100
AcDbEntity
  8
bowle
 48
0.2
100
AcDbLine
 10
64.45706005997533
 20
221.1958843579095
 30
0.0
 11
61.45706005997533
 21
215.9997319352029
 31
0.0
  0
LINE
  5
A4D0
102
{ACAD_REACTORS
330
AA97
102
}
330
18
100
AcDbEntity
  8
contour
100
AcDbLine
 10
57.50000000000006
 20
124.069045645591
 30
0.0
 11
57.5
 21
108.169045645591
 31
0.0
  0
LINE
  5
A4D1
102
{ACAD_REACTORS
330
AA97
102
}
330
18
100
AcDbEntity
  8
contour
100
AcDbLine
 10
58.5
 20
100.069045645591
 30
0.0
 11
131.5
 21
100.069045645591
 31
0.0
  0
LINE
  5
A4D2
102
{ACAD_REACTORS
330
AA97
102
}
330
18
100
AcDbEntity
  8
contour
100
AcDbLine
 10
132.5
 20
101.069045645591
 30
0.0
 11
132.5
 21
104.169045645591
 31
0.0
  0
LINE
  5
A4D3
102
{ACAD_REACTORS
330
AA97
102
}
330
18
100
AcDbEntity
  8
contour
100
AcDbLine
 10
131.5
 20
125.069045645591
 30
0.0
 11
58.50000000000005
 21
125.069045645591
 31
0.0
  0
LINE
  5
A4D4
102
{ACAD_REACTORS
330
AA97
102
}
330
18
100
AcDbEntity
  8
contour
100
AcDbLine
 10
58.5
 20
105.169045645591
 30
0.0
 11
65.5
 21
105.169045645591
 31
0.0
  0
LINE
  5
A4D5
102
{ACAD_REACTORS
330
AA97
102
}
330
18
100
AcDbEntity
  8
contour
100
AcDbLine
 10
58.5
 20
107.169045645591
 30
0.0
 11
65.5
 21
107.169045645591
 31
0.0
  0
LINE
  5
A4D6
330
18
100
AcDbEntity
  8
center
 48
0.2
100
AcDbLine
 10
95.0
 20
127.069045645591
 30
0.0
 11
95.0
 21
98.06904564559104
 31
0.0
  0
LINE
  5
A4D8
102
{ACAD_REACTORS
330
AA97
102
}
330
18
100
AcDbEntity
  8
contour
100
AcDbLine
 10
65.5
 20
105.169045645591
 30
0.0
 11
65.5
 21
107.169045645591
 31
0.0
  0
LINE
  5
A4D9
102
{ACAD_REACTORS
330
AA97
102
}
330
18
100
AcDbEntity
  8
contour
100
AcDbLine
 10
124.5
 20
105.169045645591
 30
0.0
 11
124.5
 21
107.169045645591
 31
0.0
  0
LINE
  5
A4DA
102
{ACAD_REACTORS
330
AA97
102
}
330
18
100
AcDbEntity
  8
contour
100
AcDbLine
 10
57.5
 20
104.169045645591
 30
0.0
 11
57.5
 21
101.069045645591
 31
0.0
  0
LINE
  5
A4DB
102
{ACAD_REACTORS
330
AA97
102
}
330
18
100
AcDbEntity
  8
contour
100
AcDbLine
 10
132.5
 20
108.169045645591
 30
0.0
 11
132.5
 21
124.069045645591
 31
0.0
  0
LINE
  5
A4DC
102
{ACAD_REACTORS
330
AA97
102
}
330
18
100
AcDbEntity
  8
contour
100
AcDbLine
 10
129.4999999999999
 20
107.169045645591
 30
0.0
 11
131.5
 21
107.169045645591
 31
0.0
  0
LINE
  5
A4DD
102
{ACAD_REACTORS
330
AA97
102
}
330
18
100
AcDbEntity
  8
contour
100
AcDbLine
 10
129.4999999999999
 20
105.169045645591
 30
0.0
 11
131.5
 21
105.169045645591
 31
0.0
  0
LINE
  5
A4DE
102
{ACAD_REACTORS
330
AA97
102
}
330
18
100
AcDbEntity
  8
contour
100
AcDbLine
 10
59.49999999999994
 20
107.969045645591
 30
0.0
 11
125.5
 21
107.9690456455911
 31
0.0
  0
LINE
  5
A4DF
102
{ACAD_REACTORS
330
AA97
102
}
330
18
100
AcDbEntity
  8
contour
100
AcDbLine
 10
59.49999999999994
 20
109.969045645591
 30
0.0
 11
125.5
 21
109.969045645591
 31
0.0
  0
LINE
  5
A4E2
102
{ACAD_REACTORS
330
AA97
102
}
330
18
100
AcDbEntity
  8
contour
100
AcDbLine
 10
59.5
 20
109.969045645591
 30
0.0
 11
59.5
 21
107.969045645591
 31
0.0
  0
LINE
  5
A4E3
330
18
100
AcDbEntity
  8
center
 48
0.2
100
AcDbLine
 10
95.0
 20
127.069045645591
 30
0.0
 11
95.0
 21
98.06904564559104
 31
0.0
  0
LINE
  5
A4E4
102
{ACAD_REACTORS
330
AA97
102
}
330
18
100
AcDbEntity
  8
contour
100
AcDbLine
 10
130.5
 20
109.969045645591
 30
0.0
 11
130.5
 21
107.969045645591
 31
0.0
  0
LINE
  5
A4E8
102
{ACAD_REACTORS
330
AA97
102
}
330
18
100
AcDbEntity
  8
contour
100
AcDbLine
 10
57.99999999999989
 20
113.069045645591
 30
0.0
 11
57.5
 21
112.5690456455911
 31
0.0
  0
LINE
  5
A4E9
102
{ACAD_REACTORS
330
AA97
102
}
330
18
100
AcDbEntity
  8
contour
100
AcDbLine
 10
57.99999999999989
 20
113.069045645591
 30
0.0
 11
62.76794919243105
 21
113.069045645591
 31
0.0
  0
LINE
  5
A4EA
102
{ACAD_REACTORS
330
AA97
102
}
330
18
100
AcDbEntity
  8
contour
100
AcDbLine
 10
64.5
 20
116.069045645591
 30
0.0
 11
62.76794919243105
 21
119.069045645591
 31
0.0
  0
LINE
  5
A4EB
102
{ACAD_REACTORS
330
AA97
102
}
330
18
100
AcDbEntity
  8
contour
100
AcDbLine
 10
62.76794919243105
 20
119.069045645591
 30
0.0
 11
57.99999999999989
 21
119.069045645591
 31
0.0
  0
LINE
  5
A4EC
102
{ACAD_REACTORS
330
AA97
102
}
330
18
100
AcDbEntity
  8
contour
100
AcDbLine
 10
64.5
 20
116.069045645591
 30
0.0
 11
62.76794919243105
 21
113.069045645591
 31
0.0
  0
LINE
  5
A4ED
330
18
100
AcDbEntity
  8
contour
100
AcDbLine
 10
62.76794919243105
 20
113.069045645591
 30
0.0
 11
62.76794919243105
 21
119.069045645591
 31
0.0
  0
LINE
  5
A4EE
102
{ACAD_REACTORS
330
AA97
102
}
330
18
100
AcDbEntity
  8
contour
100
AcDbLine
 10
57.99999999999989
 20
119.069045645591
 30
0.0
 11
57.5
 21
119.5690456455909
 31
0.0
  0
LINE
  5
A4EF
330
18
100
AcDbEntity
  8
contour
100
AcDbLine
 10
57.99999999999989
 20
119.069045645591
 30
0.0
 11
57.99999999999989
 21
113.069045645591
 31
0.0
  0
LINE
  5
A4FD
330
18
100
AcDbEntity
  8
center
 48
0.2
100
AcDbLine
 10
66.5
 20
116.069045645591
 30
0.0
 11
55.49999999999994
 21
116.069045645591
 31
0.0
  0
LINE
  5
A4FE
330
18
100
AcDbEntity
  8
center
 48
0.2
100
AcDbLine
 10
127.5000000000001
 20
127.069045645591
 30
0.0
 11
127.5000000000002
 21
98.06904564559102
 31
0.0
  0
INSERT
  5
A537
102
{ACAD_REACTORS
330
AA97
102
}
330
18
100
AcDbEntity
  8
contour
100
AcDbBlockReference
  2
LS3
 10
-205.8877449821334
 20
95.89138277381932
 30
0.0
  0
LINE
  5
A538
102
{ACAD_REACTORS
330
AA97
102
}
330
18
100
AcDbEntity
  8
contour
100
AcDbLine
 10
123.9999999999999
 20
100.3690456455911
 30
0.0
 11
123.9999999999999
 21
100.069045645591
 31
0.0
  0
LINE
  5
A539
102
{ACAD_REACTORS
330
AA97
102
}
330
18
100
AcDbEntity
  8
contour
100
AcDbLine
 10
130.9999999999999
 20
100.3690456455911
 30
0.0
 11
130.9999999999999
 21
100.069045645591
 31
0.0
  0
LINE
  5
A53F
102
{ACAD_REACTORS
330
AA97
102
}
330
18
100
AcDbEntity
  8
contour
 62
     4
100
AcDbLine
 10
125.5
 20
121.269045645591
 30
0.0
 11
125.5
 21
125.069045645591
 31
0.0
  0
LINE
  5
A540
102
{ACAD_REACTORS
330
AA97
102
}
330
18
100
AcDbEntity
  8
contour
 62
     4
100
AcDbLine
 10
129.4999999999999
 20
121.269045645591
 30
0.0
 11
129.4999999999999
 21
125.069045645591
 31
0.0
  0
LINE
  5
A541
102
{ACAD_REACTORS
330
AA97
102
}
330
18
100
AcDbEntity
  8
contour
100
AcDbLine
 10
129.0999999999999
 20
121.6690456455909
 30
0.0
 11
129.0999999999999
 21
125.069045645591
 31
0.0
  0
LINE
  5
A542
102
{ACAD_REACTORS
330
AA97
102
}
330
18
100
AcDbEntity
  8
contour
100
AcDbLine
 10
125.9
 20
121.6690456455909
 30
0.0
 11
125.9
 21
125.069045645591
 31
0.0
  0
LINE
  5
A543
102
{ACAD_REACTORS
330
AA97
102
}
330
18
100
AcDbEntity
  8
contour
100
AcDbLine
 10
124.5
 20
107.169045645591
 30
0.0
 11
125.4999999999999
 21
107.169045645591
 31
0.0
  0
LINE
  5
A544
102
{ACAD_REACTORS
330
AA97
102
}
330
18
100
AcDbEntity
  8
contour
100
AcDbLine
 10
124.5
 20
105.169045645591
 30
0.0
 11
125.4999999999999
 21
105.169045645591
 31
0.0
  0
LINE
  5
A545
102
{ACAD_REACTORS
330
AA97
102
}
330
18
100
AcDbEntity
  8
contour
100
AcDbLine
 10
130.5
 20
109.969045645591
 30
0.0
 11
129.4999999999999
 21
109.969045645591
 31
0.0
  0
LINE
  5
A546
102
{ACAD_REACTORS
330
AA97
102
}
330
18
100
AcDbEntity
  8
contour
100
AcDbLine
 10
130.5
 20
107.969045645591
 30
0.0
 11
129.4999999999999
 21
107.969045645591
 31
0.0
  0
ARC
  5
A548
102
{ACAD_REACTORS
330
AA97
102
}
330
18
100
AcDbEntity
  8
contour
100
AcDbCircle
 10
58.5
 20
101.069045645591
 30
0.0
 40
1.0
100
AcDbArc
 50
180.0
 51
270.0
  0
ARC
  5
A549
102
{ACAD_REACTORS
330
AA97
102
}
330
18
100
AcDbEntity
  8
contour
100
AcDbCircle
 10
58.5
 20
104.169045645591
 30
0.0
 40
1.0
100
AcDbArc
 50
90.0
 51
180.0
  0
ARC
  5
A54A
102
{ACAD_REACTORS
330
AA97
102
}
330
18
100
AcDbEntity
  8
contour
100
AcDbCircle
 10
58.5
 20
108.169045645591
 30
0.0
 40
1.0
100
AcDbArc
 50
180.0
 51
270.0
  0
ARC
  5
A54B
102
{ACAD_REACTORS
330
AA97
102
}
330
18
100
AcDbEntity
  8
contour
100
AcDbCircle
 10
58.50000000000005
 20
124.069045645591
 30
0.0
 40
1.0
100
AcDbArc
 50
90.0
 51
180.0
  0
ARC
  5
A54C
102
{ACAD_REACTORS
330
AA97
102
}
330
18
100
AcDbEntity
  8
contour
100
AcDbCircle
 10
131.5
 20
124.069045645591
 30
0.0
 40
1.0
100
AcDbArc
 50
0.0
 51
90.0
  0
ARC
  5
A54D
102
{ACAD_REACTORS
330
AA97
102
}
330
18
100
AcDbEntity
  8
contour
100
AcDbCircle
 10
131.5
 20
108.169045645591
 30
0.0
 40
1.0
100
AcDbArc
 50
270.0
 51
0.0
  0
ARC
  5
A54E
102
{ACAD_REACTORS
330
AA97
102
}
330
18
100
AcDbEntity
  8
contour
100
AcDbCircle
 10
131.5
 20
104.169045645591
 30
0.0
 40
1.0
100
AcDbArc
 50
0.0
 51
90.0
  0
ARC
  5
A54F
102
{ACAD_REACTORS
330
AA97
102
}
330
18
100
AcDbEntity
  8
contour
100
AcDbCircle
 10
131.5
 20
101.069045645591
 30
0.0
 40
1.0
100
AcDbArc
 50
270.0
 51
0.0
  0
LINE
  5
A550
102
{ACAD_REACTORS
330
AA97
102
}
330
18
100
AcDbEntity
  8
contour
 62
     4
100
AcDbLine
 10
67.50000000000006
 20
124.3810456455909
 30
0.0
 11
67.50000000000006
 21
110.657045645591
 31
0.0
  0
LINE
  5
A551
102
{ACAD_REACTORS
330
AA97
102
}
330
18
100
AcDbEntity
  8
contour
100
AcDbLine
 10
68.31200000000001
 20
123.569045645591
 30
0.0
 11
68.31200000000001
 21
111.469045645591
 31
0.0
  0
LINE
  5
A552
102
{ACAD_REACTORS
330
AA97
102
}
330
18
100
AcDbEntity
  8
contour
100
AcDbLine
 10
66.81200000000001
 20
100.069045645591
 30
0.0
 11
68.31200000000001
 21
101.569045645591
 31
0.0
  0
LINE
  5
A553
102
{ACAD_REACTORS
330
AA97
102
}
330
18
100
AcDbEntity
  8
contour
100
AcDbLine
 10
66.81200000000001
 20
107.969045645591
 30
0.0
 11
68.31200000000001
 21
106.469045645591
 31
0.0
  0
LINE
  5
A554
102
{ACAD_REACTORS
330
AA97
102
}
330
18
100
AcDbEntity
  8
contour
100
AcDbLine
 10
66.81200000000001
 20
109.969045645591
 30
0.0
 11
68.31200000000001
 21
111.469045645591
 31
0.0
  0
LINE
  5
A555
102
{ACAD_REACTORS
330
AA97
102
}
330
18
100
AcDbEntity
  8
contour
100
AcDbLine
 10
66.81200000000001
 20
125.069045645591
 30
0.0
 11
68.31200000000001
 21
123.569045645591
 31
0.0
  0
LINE
  5
A559
102
{ACAD_REACTORS
330
AA97
102
}
330
18
100
AcDbEntity
  8
contour
100
AcDbLine
 10
68.31200000000001
 20
106.469045645591
 30
0.0
 11
68.31200000000001
 21
101.569045645591
 31
0.0
  0
LINE
  5
A55A
102
{ACAD_REACTORS
330
AA97
102
}
330
18
100
AcDbEntity
  8
contour
 62
     4
100
AcDbLine
 10
67.50000000000006
 20
107.281045645591
 30
0.0
 11
67.50000000000006
 21
100.757045645591
 31
0.0
  0
LINE
  5
A55B
102
{ACAD_REACTORS
330
AA97
102
}
330
18
100
AcDbEntity
  8
contour
 62
     4
100
AcDbLine
 10
122.5
 20
124.3810456455909
 30
0.0
 11
122.5
 21
110.657045645591
 31
0.0
  0
LINE
  5
A55C
102
{ACAD_REACTORS
330
AA97
102
}
330
18
100
AcDbEntity
  8
contour
 62
     4
100
AcDbLine
 10
122.5
 20
107.281045645591
 30
0.0
 11
122.5
 21
100.757045645591
 31
0.0
  0
LINE
  5
A55D
102
{ACAD_REACTORS
330
AA97
102
}
330
18
100
AcDbEntity
  8
contour
100
AcDbLine
 10
121.688
 20
123.569045645591
 30
0.0
 11
121.688
 21
111.469045645591
 31
0.0
  0
LINE
  5
A55E
102
{ACAD_REACTORS
330
AA97
102
}
330
18
100
AcDbEntity
  8
contour
100
AcDbLine
 10
121.688
 20
106.469045645591
 30
0.0
 11
121.688
 21
101.569045645591
 31
0.0
  0
LINE
  5
A55F
102
{ACAD_REACTORS
330
AA97
102
}
330
18
100
AcDbEntity
  8
contour
100
AcDbLine
 10
123.188
 20
100.069045645591
 30
0.0
 11
121.688
 21
101.569045645591
 31
0.0
  0
LINE
  5
A560
102
{ACAD_REACTORS
330
AA97
102
}
330
18
100
AcDbEntity
  8
contour
100
AcDbLine
 10
123.188
 20
107.969045645591
 30
0.0
 11
121.688
 21
106.469045645591
 31
0.0
  0
LINE
  5
A561
102
{ACAD_REACTORS
330
AA97
102
}
330
18
100
AcDbEntity
  8
contour
100
AcDbLine
 10
123.188
 20
109.969045645591
 30
0.0
 11
121.688
 21
111.469045645591
 31
0.0
  0
LINE
  5
A562
102
{ACAD_REACTORS
330
AA97
102
}
330
18
100
AcDbEntity
  8
contour
100
AcDbLine
 10
123.188
 20
125.069045645591
 30
0.0
 11
121.688
 21
123.569045645591
 31
0.0
  0
LINE
  5
A563
330
18
100
AcDbEntity
  8
contour
100
AcDbLine
 10
68.31200000000001
 20
123.569045645591
 30
0.0
 11
121.688
 21
123.569045645591
 31
0.0
  0
LINE
  5
A564
330
18
100
AcDbEntity
  8
contour
100
AcDbLine
 10
121.688
 20
111.469045645591
 30
0.0
 11
68.31200000000001
 21
111.469045645591
 31
0.0
  0
LINE
  5
A565
330
18
100
AcDbEntity
  8
contour
100
AcDbLine
 10
68.31200000000001
 20
106.469045645591
 30
0.0
 11
121.688
 21
106.469045645591
 31
0.0
  0
LINE
  5
A566
330
18
100
AcDbEntity
  8
contour
100
AcDbLine
 10
121.688
 20
101.569045645591
 30
0.0
 11
68.31200000000001
 21
101.5690456455911
 31
0.0
  0
LINE
  5
A567
330
18
100
AcDbEntity
  8
0
 62
     7
100
AcDbLine
 10
47.92942413992534
 20
27.65712907016098
 30
0.0
 11
53.04580144287854
 21
28.93622339589928
 31
0.0
  0
LINE
  5
A57B
330
18
100
AcDbEntity
  8
center
 48
0.1
100
AcDbLine
 10
73.61956483136925
 20
212.4418081465559
 30
0.0
 11
60.79199655051457
 21
219.8478081465564
 31
0.0
  0
CIRCLE
  5
A590
330
18
100
AcDbEntity
  8
contour
100
AcDbCircle
 10
95.00000000000012
 20
200.0978081465563
 30
0.0
 40
26.6880000000001
  0
ARC
  5
A591
330
18
100
AcDbEntity
  8
contour
 62
     4
100
AcDbCircle
 10
95.00000000000012
 20
200.0978081465563
 30
0.0
 40
27.5
100
AcDbArc
 50
169.5243183036102
 51
100.4756816963902
  0
CIRCLE
  5
A592
330
18
100
AcDbEntity
  8
contour
100
AcDbCircle
 10
95.00000000000012
 20
200.0978081465563
 30
0.0
 40
28.1880000000001
  0
CIRCLE
  5
A597
330
18
100
AcDbEntity
  8
bowle
 48
0.2
100
AcDbCircle
 10
127.5000000000002
 20
200.0978081465561
 30
0.0
 40
3.5
  0
CIRCLE
  5
A598
330
18
100
AcDbEntity
  8
contour
100
AcDbCircle
 10
127.5000000000002
 20
200.0978081465561
 30
0.0
 40
1.62099999999998
  0
ARC
  5
A599
330
18
100
AcDbEntity
  8
contour
 62
     4
100
AcDbCircle
 10
127.5000000000002
 20
200.0978081465562
 30
0.0
 40
2.0
100
AcDbArc
 50
165.5224878140701
 51
104.4775121859283
  0
CIRCLE
  5
A59A
330
18
100
AcDbEntity
  8
center
 48
0.35
100
AcDbCircle
 10
95.00000000000012
 20
200.0978081465562
 30
0.0
 40
32.50000000000011
  0
CIRCLE
  5
A59B
330
18
100
AcDbEntity
  8
bowle
 48
0.2
100
AcDbCircle
 10
111.2500000000002
 20
228.2436337695505
 30
0.0
 40
3.5
  0
CIRCLE
  5
A59C
330
18
100
AcDbEntity
  8
contour
100
AcDbCircle
 10
111.2500000000002
 20
228.2436337695505
 30
0.0
 40
1.62099999999998
  0
ARC
  5
A59D
330
18
100
AcDbEntity
  8
contour
 62
     4
100
AcDbCircle
 10
111.2500000000001
 20
228.2436337695505
 30
0.0
 40
2.0
100
AcDbArc
 50
225.5224878140711
 51
164.4775121859283
  0
CIRCLE
  5
A59E
330
18
100
AcDbEntity
  8
bowle
 48
0.2
100
AcDbCircle
 10
78.75000000000011
 20
228.2436337695506
 30
0.0
 40
3.499999999999999
  0
CIRCLE
  5
A59F
330
18
100
AcDbEntity
  8
contour
100
AcDbCircle
 10
78.75000000000011
 20
228.2436337695506
 30
0.0
 40
1.62099999999998
  0
ARC
  5
A5A0
330
18
100
AcDbEntity
  8
contour
 62
     4
100
AcDbCircle
 10
78.75
 20
228.2436337695505
 30
0.0
 40
1.999999999999999
100
AcDbArc
 50
285.5224878140697
 51
224.4775121859278
  0
CIRCLE
  5
A5A1
330
18
100
AcDbEntity
  8
bowle
 48
0.2
100
AcDbCircle
 10
62.49999999999994
 20
200.0978081465562
 30
0.0
 40
3.5
  0
CIRCLE
  5
A5A2
330
18
100
AcDbEntity
  8
contour
100
AcDbCircle
 10
62.49999999999994
 20
200.0978081465562
 30
0.0
 40
1.62099999999998
  0
ARC
  5
A5A3
330
18
100
AcDbEntity
  8
contour
 62
     4
100
AcDbCircle
 10
62.49999999999994
 20
200.0978081465561
 30
0.0
 40
2.0
100
AcDbArc
 50
345.5224878140705
 51
284.4775121859299
  0
CIRCLE
  5
A5A4
330
18
100
AcDbEntity
  8
bowle
 48
0.2
100
AcDbCircle
 10
78.75
 20
171.9519825235617
 30
0.0
 40
3.5
  0
CIRCLE
  5
A5A5
330
18
100
AcDbEntity
  8
contour
100
AcDbCircle
 10
78.75
 20
171.9519825235617
 30
0.0
 40
1.62099999999998
  0
ARC
  5
A5A6
330
18
100
AcDbEntity
  8
contour
 62
     4
100
AcDbCircle
 10
78.75000000000011
 20
171.9519825235617
 30
0.0
 40
2.0
100
AcDbArc
 50
45.52248781407107
 51
344.4775121859303
  0
CIRCLE
  5
A5A7
330
18
100
AcDbEntity
  8
bowle
 48
0.2
100
AcDbCircle
 10
111.25
 20
171.9519825235618
 30
0.0
 40
3.5
  0
CIRCLE
  5
A5A8
330
18
100
AcDbEntity
  8
contour
100
AcDbCircle
 10
111.25
 20
171.9519825235618
 30
0.0
 40
1.62099999999998
  0
ARC
  5
A5A9
330
18
100
AcDbEntity
  8
contour
 62
     4
100
AcDbCircle
 10
111.2500000000002
 20
171.9519825235618
 30
0.0
 40
2.0
100
AcDbArc
 50
105.5224878140713
 51
44.47751218592808
  0
ARC
  5
A5AE
330
18
100
AcDbEntity
  8
center
 48
0.2
100
AcDbCircle
 10
95.00000000000012
 20
200.0978081465562
 30
0.0
 40
33.25000000000044
100
AcDbArc
 50
141.9806626346137
 51
169.4659631070882
  0
CIRCLE
  5
A5B0
330
18
100
AcDbEntity
  8
bowle
 48
0.2
100
AcDbCircle
 10
66.20465532416722
 20
183.4728081465557
 30
0.0
 40
2.149999999999999
  0
CIRCLE
  5
A5B1
330
18
100
AcDbEntity
  8
bowle
 48
0.2
100
AcDbCircle
 10
66.20465532416722
 20
183.4728081465557
 30
0.0
 40
2.649999999999999
  0
LINE
  5
A5B2
330
18
100
AcDbEntity
  8
bowle
 48
0.2
100
AcDbLine
 10
64.45706005997556
 20
178.9997319352024
 30
0.0
 11
64.32892868555211
 21
178.5215391358106
 31
0.0
  0
LINE
  5
A5B3
330
18
100
AcDbEntity
  8
bowle
 48
0.2
100
AcDbLine
 10
64.45706005997556
 20
178.9997319352024
 30
0.0
 11
68.58622518457446
 21
181.3837065314181
 31
0.0
  0
LINE
  5
A5B4
330
18
100
AcDbEntity
  8
bowle
 48
0.2
100
AcDbLine
 10
68.58622518457446
 20
184.8478081465558
 30
0.0
 11
65.58622518457446
 21
186.5798589541247
 31
0.0
  0
LINE
  5
A5B5
330
18
100
AcDbEntity
  8
bowle
 48
0.2
100
AcDbLine
 10
65.58622518457446
 20
186.5798589541247
 30
0.0
 11
61.45706005997556
 21
184.1958843579091
 31
0.0
  0
LINE
  5
A5B6
330
18
100
AcDbEntity
  8
bowle
 48
0.2
100
AcDbLine
 10
68.58622518457446
 20
184.8478081465558
 30
0.0
 11
68.58622518457446
 21
181.3837065314181
 31
0.0
  0
LINE
  5
A5B7
330
18
100
AcDbEntity
  8
bowle
 48
0.2
100
AcDbLine
 10
68.58622518457446
 20
181.3837065314181
 30
0.0
 11
65.58622518457446
 21
186.5798589541247
 31
0.0
  0
LINE
  5
A5B8
330
18
100
AcDbEntity
  8
bowle
 48
0.2
100
AcDbLine
 10
61.45706005997556
 20
184.1958843579091
 30
0.0
 11
60.97886726058368
 21
184.3240157323325
 31
0.0
  0
LINE
  5
A5B9
330
18
100
AcDbEntity
  8
bowle
 48
0.2
100
AcDbLine
 10
61.45706005997556
 20
184.1958843579091
 30
0.0
 11
64.45706005997556
 21
178.9997319352024
 31
0.0
  0
LINE
  5
A5BA
330
18
100
AcDbEntity
  8
center
 48
0.1
100
AcDbLine
 10
73.6195648313697
 20
187.7538081465556
 30
0.0
 11
60.79199655051445
 21
180.3478081465561
 31
0.0
  0
ARC
  5
A5BB
330
18
100
AcDbEntity
  8
center
 48
0.1
100
AcDbCircle
 10
95.0
 20
200.0978081465562
 30
0.0
 40
33.25000000000044
100
AcDbArc
 50
201.9806626346136
 51
218.0193373653863
  0
CIRCLE
  5
A5BC
330
18
100
AcDbEntity
  8
bowle
 48
0.2
100
AcDbCircle
 10
95.00000000000023
 20
166.8478081465558
 30
0.0
 40
2.149999999999999
  0
CIRCLE
  5
A5BD
330
18
100
AcDbEntity
  8
bowle
 48
0.2
100
AcDbCircle
 10
95.00000000000023
 20
166.8478081465558
 30
0.0
 40
2.649999999999999
  0
LINE
  5
A5BE
330
18
100
AcDbEntity
  8
bowle
 48
0.2
100
AcDbLine
 10
98.00000000000023
 20
163.0978081465557
 30
0.0
 11
98.35006142496855
 21
162.7477467215874
 31
0.0
  0
LINE
  5
A5BF
330
18
100
AcDbEntity
  8
bowle
 48
0.2
100
AcDbLine
 10
98.00000000000023
 20
163.0978081465557
 30
0.0
 11
98.00000000000023
 21
167.8657573389869
 31
0.0
  0
LINE
  5
A5C0
330
18
100
AcDbEntity
  8
bowle
 48
0.2
100
AcDbLine
 10
95.00000000000023
 20
169.5978081465558
 30
0.0
 11
92.00000000000022
 21
167.8657573389869
 31
0.0
  0
LINE
  5
A5C1
330
18
100
AcDbEntity
  8
bowle
 48
0.2
100
AcDbLine
 10
92.00000000000022
 20
167.8657573389869
 30
0.0
 11
92.00000000000022
 21
163.0978081465557
 31
0.0
  0
LINE
  5
A5C2
330
18
100
AcDbEntity
  8
bowle
 48
0.2
100
AcDbLine
 10
95.00000000000023
 20
169.5978081465558
 30
0.0
 11
98.00000000000023
 21
167.8657573389869
 31
0.0
  0
LINE
  5
A5C3
330
18
100
AcDbEntity
  8
bowle
 48
0.2
100
AcDbLine
 10
98.00000000000023
 20
167.8657573389869
 30
0.0
 11
92.00000000000022
 21
167.8657573389869
 31
0.0
  0
LINE
  5
A5C4
330
18
100
AcDbEntity
  8
bowle
 48
0.2
100
AcDbLine
 10
92.00000000000022
 20
163.0978081465557
 30
0.0
 11
91.6499385750318
 21
162.7477467215874
 31
0.0
  0
LINE
  5
A5C5
330
18
100
AcDbEntity
  8
bowle
 48
0.2
100
AcDbLine
 10
92.00000000000022
 20
163.0978081465557
 30
0.0
 11
98.00000000000023
 21
163.0978081465557
 31
0.0
  0
ARC
  5
A5C7
330
18
100
AcDbEntity
  8
center
 48
0.1
100
AcDbCircle
 10
94.99999999999989
 20
200.0978081465563
 30
0.0
 40
33.25000000000044
100
AcDbArc
 50
261.9806626346165
 51
278.0193373653901
  0
CIRCLE
  5
A5C8
330
18
100
AcDbEntity
  8
bowle
 48
0.2
100
AcDbCircle
 10
123.7953446758329
 20
183.4728081465562
 30
0.0
 40
2.149999999999999
  0
CIRCLE
  5
A5C9
330
18
100
AcDbEntity
  8
bowle
 48
0.2
100
AcDbCircle
 10
123.7953446758329
 20
183.4728081465562
 30
0.0
 40
2.649999999999999
  0
LINE
  5
A5CA
330
18
100
AcDbEntity
  8
bowle
 48
0.2
100
AcDbLine
 10
128.5429399400246
 20
184.1958843579094
 30
0.0
 11
129.0211327394163
 21
184.3240157323328
 31
0.0
  0
LINE
  5
A5CB
330
18
100
AcDbEntity
  8
bowle
 48
0.2
100
AcDbLine
 10
128.5429399400246
 20
184.1958843579094
 30
0.0
 11
124.4137748154257
 21
186.579858954125
 31
0.0
  0
LINE
  5
A5CC
330
18
100
AcDbEntity
  8
bowle
 48
0.2
100
AcDbLine
 10
121.4137748154256
 20
184.8478081465562
 30
0.0
 11
121.4137748154257
 21
181.3837065314184
 31
0.0
  0
LINE
  5
A5CD
330
18
100
AcDbEntity
  8
bowle
 48
0.2
100
AcDbLine
 10
121.4137748154257
 20
181.3837065314184
 30
0.0
 11
125.5429399400246
 21
178.9997319352028
 31
0.0
  0
LINE
  5
A5CE
330
18
100
AcDbEntity
  8
bowle
 48
0.2
100
AcDbLine
 10
121.4137748154256
 20
184.8478081465562
 30
0.0
 11
124.4137748154257
 21
186.579858954125
 31
0.0
  0
LINE
  5
A5CF
330
18
100
AcDbEntity
  8
bowle
 48
0.2
100
AcDbLine
 10
124.4137748154257
 20
186.579858954125
 30
0.0
 11
121.4137748154257
 21
181.3837065314184
 31
0.0
  0
LINE
  5
A5D0
330
18
100
AcDbEntity
  8
bowle
 48
0.2
100
AcDbLine
 10
125.5429399400246
 20
178.9997319352028
 30
0.0
 11
125.671071314448
 21
178.521539135811
 31
0.0
  0
LINE
  5
A5D1
330
18
100
AcDbEntity
  8
bowle
 48
0.2
100
AcDbLine
 10
125.5429399400246
 20
178.9997319352028
 30
0.0
 11
128.5429399400246
 21
184.1958843579094
 31
0.0
  0
LINE
  5
A5D2
330
18
100
AcDbEntity
  8
center
 48
0.1
100
AcDbLine
 10
116.3804351686307
 20
187.7538081465564
 30
0.0
 11
129.2080034494853
 21
180.3478081465559
 31
0.0
  0
ARC
  5
A5D3
330
18
100
AcDbEntity
  8
center
 48
0.2
100
AcDbCircle
 10
94.99999999999984
 20
200.0978081465561
 30
0.0
 40
33.25000000000044
100
AcDbArc
 50
321.9806626346137
 51
349.4659631070883
  0
CIRCLE
  5
A5D4
330
18
100
AcDbEntity
  8
bowle
 48
0.2
100
AcDbCircle
 10
123.7953446758327
 20
216.7228081465565
 30
0.0
 40
2.149999999999999
  0
CIRCLE
  5
A5D5
330
18
100
AcDbEntity
  8
bowle
 48
0.2
100
AcDbCircle
 10
123.7953446758327
 20
216.7228081465565
 30
0.0
 40
2.649999999999999
  0
LINE
  5
A5D6
330
18
100
AcDbEntity
  8
bowle
 48
0.2
100
AcDbLine
 10
125.5429399400245
 20
221.1958843579097
 30
0.0
 11
125.6710713144479
 21
221.6740771573015
 31
0.0
  0
LINE
  5
A5D7
330
18
100
AcDbEntity
  8
bowle
 48
0.2
100
AcDbLine
 10
125.5429399400245
 20
221.1958843579097
 30
0.0
 11
121.4137748154256
 21
218.8119097616942
 31
0.0
  0
LINE
  5
A5D8
330
18
100
AcDbEntity
  8
bowle
 48
0.2
100
AcDbLine
 10
121.4137748154255
 20
215.3478081465564
 30
0.0
 11
124.4137748154256
 21
213.6157573389875
 31
0.0
  0
LINE
  5
A5D9
330
18
100
AcDbEntity
  8
bowle
 48
0.2
100
AcDbLine
 10
124.4137748154256
 20
213.6157573389875
 30
0.0
 11
128.5429399400245
 21
215.9997319352031
 31
0.0
  0
LINE
  5
A5DA
330
18
100
AcDbEntity
  8
bowle
 48
0.2
100
AcDbLine
 10
121.4137748154255
 20
215.3478081465564
 30
0.0
 11
121.4137748154256
 21
218.8119097616942
 31
0.0
  0
LINE
  5
A5DB
330
18
100
AcDbEntity
  8
bowle
 48
0.2
100
AcDbLine
 10
121.4137748154256
 20
218.8119097616942
 30
0.0
 11
124.4137748154256
 21
213.6157573389875
 31
0.0
  0
LINE
  5
A5DC
330
18
100
AcDbEntity
  8
bowle
 48
0.2
100
AcDbLine
 10
128.5429399400245
 20
215.9997319352031
 30
0.0
 11
129.0211327394163
 21
215.8716005607796
 31
0.0
  0
LINE
  5
A5DD
330
18
100
AcDbEntity
  8
bowle
 48
0.2
100
AcDbLine
 10
128.5429399400245
 20
215.9997319352031
 30
0.0
 11
125.5429399400245
 21
221.1958843579097
 31
0.0
  0
LINE
  5
A5DE
330
18
100
AcDbEntity
  8
center
 48
0.1
100
AcDbLine
 10
116.3804351686303
 20
212.4418081465566
 30
0.0
 11
129.2080034494855
 21
219.8478081465561
 31
0.0
  0
ARC
  5
A5DF
330
18
100
AcDbEntity
  8
center
 48
0.1
100
AcDbCircle
 10
95.0
 20
200.097808146556
 30
0.0
 40
33.25000000000044
100
AcDbArc
 50
21.98066263461098
 51
38.01933736538629
  0
CIRCLE
  5
A5E0
330
18
100
AcDbEntity
  8
bowle
 48
0.2
100
AcDbCircle
 10
94.99999999999984
 20
233.3478081465566
 30
0.0
 40
2.149999999999999
  0
CIRCLE
  5
A5E1
330
18
100
AcDbEntity
  8
bowle
 48
0.2
100
AcDbCircle
 10
94.99999999999984
 20
233.3478081465566
 30
0.0
 40
2.649999999999999
  0
LINE
  5
A5E2
330
18
100
AcDbEntity
  8
bowle
 48
0.2
100
AcDbLine
 10
91.99999999999983
 20
237.0978081465566
 30
0.0
 11
91.64993857503151
 21
237.447869571525
 31
0.0
  0
LINE
  5
A5E3
330
18
100
AcDbEntity
  8
bowle
 48
0.2
100
AcDbLine
 10
91.99999999999983
 20
237.0978081465566
 30
0.0
 11
91.99999999999983
 21
232.3298589541254
 31
0.0
  0
LINE
  5
A5E4
330
18
100
AcDbEntity
  8
bowle
 48
0.2
100
AcDbLine
 10
94.99999999999984
 20
230.5978081465565
 30
0.0
 11
97.99999999999982
 21
232.3298589541254
 31
0.0
  0
LINE
  5
A5E5
330
18
100
AcDbEntity
  8
bowle
 48
0.2
100
AcDbLine
 10
97.99999999999982
 20
232.3298589541254
 30
0.0
 11
97.99999999999982
 21
237.0978081465566
 31
0.0
  0
LINE
  5
A5E6
330
18
100
AcDbEntity
  8
bowle
 48
0.2
100
AcDbLine
 10
94.99999999999984
 20
230.5978081465565
 30
0.0
 11
91.99999999999983
 21
232.3298589541254
 31
0.0
  0
LINE
  5
A5E7
330
18
100
AcDbEntity
  8
bowle
 48
0.2
100
AcDbLine
 10
91.99999999999983
 20
232.3298589541254
 30
0.0
 11
97.99999999999982
 21
232.3298589541254
 31
0.0
  0
LINE
  5
A5E8
330
18
100
AcDbEntity
  8
bowle
 48
0.2
100
AcDbLine
 10
97.99999999999982
 20
237.0978081465566
 30
0.0
 11
98.35006142496826
 21
237.447869571525
 31
0.0
  0
LINE
  5
A5E9
330
18
100
AcDbEntity
  8
bowle
 48
0.2
100
AcDbLine
 10
97.99999999999982
 20
237.0978081465566
 30
0.0
 11
91.99999999999983
 21
237.0978081465566
 31
0.0
  0
ARC
  5
A5EB
330
18
100
AcDbEntity
  8
center
 48
0.1
100
AcDbCircle
 10
95.00000000000005
 20
200.0978081465561
 30
0.0
 40
33.25000000000044
100
AcDbArc
 50
81.98066263461486
 51
98.01933736538684
  0
LINE
  5
A5EC
330
18
100
AcDbEntity
  8
center
 48
0.1
100
AcDbLine
 10
75.25
 20
234.3058115960416
 30
0.0
 11
82.65599999999995
 21
221.4782433151865
 31
0.0
  0
LINE
  5
A5EF
330
18
100
AcDbEntity
  8
center
 48
0.1
100
AcDbLine
 10
107.3440000000001
 20
178.7173729779259
 30
0.0
 11
114.75
 21
165.8898046970709
 31
0.0
  0
LINE
  5
A5F0
330
18
100
AcDbEntity
  8
center
 48
0.1
100
AcDbLine
 10
114.7500000000002
 20
234.3058115960416
 30
0.0
 11
107.3440000000003
 21
221.4782433151865
 31
0.0
  0
LINE
  5
A5F1
330
18
100
AcDbEntity
  8
center
 48
0.1
100
AcDbLine
 10
82.65600000000011
 20
178.7173729779259
 30
0.0
 11
75.25000000000017
 21
165.8898046970709
 31
0.0
  0
LINE
  5
A600
102
{ACAD_REACTORS
330
AA97
102
}
330
18
100
AcDbEntity
  8
contour
100
AcDbLine
 10
63.89999999999986
 20
100.569045645591
 30
0.0
 11
64.39999999999987
 21
100.069045645591
 31
0.0
  0
LINE
  5
A601
102
{ACAD_REACTORS
330
AA97
102
}
330
18
100
AcDbEntity
  8
contour
100
AcDbLine
 10
63.89999999999986
 20
102.8277425668333
 30
0.0
 11
61.74999999999989
 21
104.069045645591
 31
0.0
  0
LINE
  5
A602
102
{ACAD_REACTORS
330
AA97
102
}
330
18
100
AcDbEntity
  8
contour
100
AcDbLine
 10
59.59999999999997
 20
102.8277425668334
 30
0.0
 11
59.59999999999997
 21
100.569045645591
 31
0.0
  0
LINE
  5
A603
102
{ACAD_REACTORS
330
AA97
102
}
330
18
100
AcDbEntity
  8
contour
100
AcDbLine
 10
59.09999999999996
 20
100.069045645591
 30
0.0
 11
59.59999999999997
 21
100.569045645591
 31
0.0
  0
LINE
  5
A604
102
{ACAD_REACTORS
330
AA97
102
}
330
18
100
AcDbEntity
  8
contour
100
AcDbLine
 10
63.89999999999981
 20
102.8277425668334
 30
0.0
 11
63.89999999999986
 21
100.5690456455911
 31
0.0
  0
LINE
  5
A605
102
{ACAD_REACTORS
330
AA97
102
}
330
18
100
AcDbEntity
  8
contour
100
AcDbLine
 10
59.59999999999997
 20
102.8277425668333
 30
0.0
 11
61.74999999999989
 21
104.069045645591
 31
0.0
  0
LINE
  5
A606
330
18
100
AcDbEntity
  8
contour
100
AcDbLine
 10
59.59999999999997
 20
102.8277425668333
 30
0.0
 11
63.89999999999986
 21
102.8277425668333
 31
0.0
  0
LINE
  5
A607
330
18
100
AcDbEntity
  8
contour
100
AcDbLine
 10
59.59999999999997
 20
100.569045645591
 30
0.0
 11
63.89999999999986
 21
100.5690456455911
 31
0.0
  0
LINE
  5
A608
102
{ACAD_REACTORS
330
AA97
102
}
330
18
100
AcDbEntity
  8
center
 48
0.2
100
AcDbLine
 10
61.74999999999989
 20
106.069045645591
 30
0.0
 11
61.74999999999989
 21
98.06904564559104
 31
0.0
  0
MTEXT
  5
A89F
330
18
100
AcDbEntity
  8
mark
 62
     3
100
AcDbMText
 10
114.5546603431268
 20
95.48701515265236
 30
0.0
 40
2.5
 41
0.0
 71
     5
 72
     1
  1
C1.5
 11
0.7071067811865478
 21
0.7071067811865474
 31
0.0
 73
     1
 44
1.0
1001
ACAD
1000
ACAD_MTEXT_DEFINED_HEIGHT_BEGIN
1070
    46
1040
0.0
1000
ACAD_MTEXT_DEFINED_HEIGHT_END
  0
LEADER
  5
A8A0
330
18
100
AcDbEntity
  8
mark
100
AcDbLeader
  3
STANDARD
 76
     2
 10
122.438
 20
100.819045645591
 30
0.0
 10
113.3676602328053
 20
91.7487058783961
 30
0.0
211
0.0000000000000095
221
-1.0
231
0.0
1001
ACAD
1000
DSTYLE
1002
{
1070
   147
1040
0.8
1070
    77
1070
     0
1002
}
  0
LEADER
  5
A8A1
330
18
100
AcDbEntity
  8
mark
100
AcDbLeader
  3
STANDARD
 76
     3
 10
57.50000000000003
 20
116.119045645591
 30
0.0
 10
47.60000000000005
 20
106.219045645591
 30
0.0
 10
28.92008232378865
 20
106.219045645591
 30
0.0
1001
ACAD
1000
DSTYLE
1002
{
1070
   147
1040
0.4
1070
    77
1070
     0
1002
}
  0
TEXT
  5
A8A2
330
18
100
AcDbEntity
  8
dim
100
AcDbText
 10
29.04873662878848
 20
106.7323826366352
 30
0.0
 40
2.5
  1
6-%%C6深さ7
  7
TXT
100
AcDbText
  0
LEADER
  5
A8A3
330
18
100
AcDbEntity
  8
mark
100
AcDbLeader
  3
STANDARD
 76
     3
 10
61.74999999999989
 20
100.069045645591
 30
0.0
 10
49.84999999999991
 20
88.16904564559104
 30
0.0
 10
28.03591579395606
 20
88.16904564559104
 30
0.0
1001
ACAD
1000
DSTYLE
1002
{
1070
   147
1040
0.4
1070
    77
1070
     0
1002
}
  0
TEXT
  5
A8A4
330
18
100
AcDbEntity
  8
dim
100
AcDbText
 10
28.31429048061284
 20
89.32512560421105
 30
0.0
 40
2.5
  1
6-%%C4.3深さ4
  7
TXT
100
AcDbText
  0
TOLERANCE
  5
A8A5
330
18
100
AcDbEntity
  8
mark
100
AcDbFcf
  3
STANDARD
 10
150.9708602707615
 20
130.069045645591
 30
0.0
  1
{\Fgdt;h}%%v0.005%%v%%vA%%v%%v
  0
LINE
  5
A8A6
330
18
100
AcDbEntity
  8
mark
100
AcDbLine
 10
145.9708602707614
 20
125.069045645591
 30
0.0
 11
145.9708602707614
 21
130.069045645591
 31
0.0
  0
LINE
  5
A8A7
330
18
100
AcDbEntity
  8
mark
100
AcDbLine
 10
145.9708602707614
 20
130.069045645591
 30
0.0
 11
150.9708602707615
 21
130.069045645591
 31
0.0
  0
TOLERANCE
  5
A8A8
330
18
100
AcDbEntity
  8
mark
100
AcDbFcf
  3
STANDARD
 10
77.50000000000006
 20
75.1018606438018
 30
0.0
  1
%%v%%v%%vA%%v%%v
  0
HATCH
  5
A8A9
330
18
100
AcDbEntity
  8
mark
100
AcDbHatch
 10
0.0
 20
0.0
 30
0.0
210
0.0
220
0.0
230
1.0
  2
SOLID
 70
     1
 71
     1
 91
        1
 92
        7
 72
     0
 73
     1
 93
        4
 10
67.50000000000006
 20
77.6018606438018
 10
67.50000000000006
 20
75.1018606438018
 10
67.50000000000006
 20
72.6018606438018
 10
70.00000000000007
 20
75.1018606438018
 97
        4
330
A8AA
330
A8AE
330
A8AD
330
A8AC
 75
     0
 76
     1
 47
0.0383085416812868
 98
        1
 10
69.08732744460024
 20
75.30572027700971
450
        0
451
        0
460
0.0
461
0.0
452
        1
462
1.0
453
        2
463
0.0
 63
     5
421
      255
463
1.0
 63
     7
421
 16777215
470
LINEAR
1001
ACAD
1010
0.0
1020
0.0
1030
0.0
  0
LINE
  5
A8AA
102
{ACAD_REACTORS
330
A8A9
102
}
330
18
100
AcDbEntity
  8
mark
100
AcDbLine
 10
67.50000000000006
 20
85.1018606438018
 30
0.0
 11
67.50000000000006
 21
75.1018606438018
 31
0.0
  0
LINE
  5
A8AB
330
18
100
AcDbEntity
  8
mark
100
AcDbLine
 10
70.00000000000006
 20
75.1018606438018
 30
0.0
 11
77.50000000000006
 21
75.1018606438018
 31
0.0
  0
LINE
  5
A8AC
102
{ACAD_REACTORS
330
A8A9
102
}
330
18
100
AcDbEntity
  8
mark
100
AcDbLine
 10
67.50000000000006
 20
77.6018606438018
 30
0.0
 11
70.00000000000006
 21
75.1018606438018
 31
0.0
  0
LINE
  5
A8AD
102
{ACAD_REACTORS
330
A8A9
102
}
330
18
100
AcDbEntity
  8
mark
100
AcDbLine
 10
70.00000000000006
 20
75.1018606438018
 30
0.0
 11
67.50000000000006
 21
72.6018606438018
 31
0.0
  0
LINE
  5
A8AE
102
{ACAD_REACTORS
330
A8A9
102
}
330
18
100
AcDbEntity
  8
mark
100
AcDbLine
 10
67.50000000000006
 20
72.6018606438018
 30
0.0
 11
67.50000000000006
 21
75.1018606438018
 31
0.0
  0
DIMENSION
  5
A950
330
18
100
AcDbEntity
  8
mark
100
AcDbDimension
  2
*D6
 10
132.5
 20
133.0660057951929
 30
0.0
 11
95.00000000000003
 21
135.1160057951929
 31
0.0
 70
    32
  1
%%C75
 71
     5
 42
74.99999999999994
  3
STANDARD
100
AcDbAlignedDimension
 13
57.50000000000006
 23
124.069045645591
 33
0.0
 14
132.5
 24
124.069045645591
 34
0.0
100
AcDbRotatedDimension
  0
DIMENSION
  5
A95D
330
18
100
AcDbEntity
  8
mark
100
AcDbDimension
  2
*D7
 10
139.4601886474497
 20
107.169045645591
 30
0.0
 11
137.4101886474497
 21
116.119045645591
 31
0.0
 70
    32
 71
     5
 42
17.89999999999998
  3
STANDARD
100
AcDbAlignedDimension
 13
131.5
 23
125.069045645591
 33
0.0
 14
131.5000000000002
 24
107.169045645591
 34
0.0
 50
90.0
100
AcDbRotatedDimension
  0
DIMENSION
  5
A99A
330
18
100
AcDbEntity
  8
mark
100
AcDbDimension
  2
*D8
 10
145.9708602707614
 20
100.069045645591
 30
0.0
 11
143.9208602707614
 21
112.569045645591
 31
0.0
 70
    32
  1
25%%P0.2
 71
     5
 42
25.0
  3
STANDARD
100
AcDbAlignedDimension
 13
131.5
 23
125.069045645591
 33
0.0
 14
131.5
 24
100.069045645591
 34
0.0
 50
90.0
100
AcDbRotatedDimension
  0
LINE
  5
A9A7
330
18
100
AcDbEntity
  8
mark
100
AcDbLine
 10
132.3
 20
107.169045645591
 30
0.0
 11
140.2600395276963
 21
107.169045645591
 31
0.0
  0
LINE
  5
A9A8
330
18
100
AcDbEntity
  8
mark
100
AcDbLine
 10
132.3
 20
105.169045645591
 30
0.0
 11
140.2600395276963
 21
105.169045645591
 31
0.0
  0
LINE
  5
A9A9
330
18
100
AcDbEntity
  8
mark
100
AcDbLine
 10
139.4600395276963
 20
109.669045645591
 30
0.0
 11
139.4600395276963
 21
112.169045645591
 31
0.0
  0
LINE
  5
A9AA
330
18
100
AcDbEntity
  8
mark
100
AcDbLine
 10
139.4600395276963
 20
102.669045645591
 30
0.0
 11
139.4600395276963
 21
101.419045645591
 31
0.0
  0
LINE
  5
A9AB
330
18
100
AcDbEntity
  8
mark
100
AcDbLine
 10
139.4600395276963
 20
107.169045645591
 30
0.0
 11
139.4600395276963
 21
105.169045645591
 31
0.0
  0
INSERT
  5
A9AC
330
18
100
AcDbEntity
  8
mark
100
AcDbBlockReference
  2
_Open30
 10
139.4600395276963
 20
107.169045645591
 30
0.0
 41
2.5
 42
2.5
 43
2.5
 50
270.0
  0
INSERT
  5
A9AD
330
18
100
AcDbEntity
  8
mark
100
AcDbBlockReference
  2
_Open30
 10
139.4600395276963
 20
105.169045645591
 30
0.0
 41
2.5
 42
2.5
 43
2.5
 50
90.0
  0
MTEXT
  5
A9AE
330
18
100
AcDbEntity
  8
mark
 62
     3
100
AcDbMText
 10
137.4100395276963
 20
106.169045645591
 30
0.0
 40
2.5
 41
0.0
 71
     5
 72
     1
  1
\A1;2
 11
0.0000000000000001
 21
1.0
 31
0.0
 73
     1
 44
1.0
  0
DIMENSION
  5
A9B6
330
18
100
AcDbEntity
  8
mark
100
AcDbDimension
  2
*D9
 10
122.5
 20
85.9018606438018
 30
0.0
 11
95.00000000000003
 21
87.9518606438018
 31
0.0
 70
    32
  1
M55X1.5P
 71
     5
 42
54.99999999999994
  3
STANDARD
100
AcDbAlignedDimension
 13
67.50000000000006
 23
100.757045645591
 33
0.0
 14
122.5
 24
100.757045645591
 34
0.0
100
AcDbRotatedDimension
  0
DIMENSION
  5
A9D0
330
18
100
AcDbEntity
  8
mark
100
AcDbDimension
  2
*D10
 10
127.2201489893996
 20
191.8865659079586
 30
0.0
 11
46.6889616546024
 21
212.4097822092071
 31
0.0
 70
   163
  1
P.C.D 66.5
 71
     5
 42
66.50000000000088
  3
STANDARD
100
AcDbDiametricDimension
 15
62.77985101060063
 25
208.3090503851537
 35
0.0
 40
0.0
1001
ACAD
1000
DSTYLE
1002
{
1070
   288
1070
     1
1002
}
  0
DIMENSION
  5
A9DD
330
18
100
AcDbEntity
  8
mark
100
AcDbDimension
  2
*D11
 10
63.60790739266828
 20
191.6843355143603
 30
0.0
 11
142.2545388322
 21
212.7626143506158
 31
0.0
 70
   163
  1
P.C.D 65
 71
     5
 42
65.00000000000014
  3
STANDARD
100
AcDbDiametricDimension
 15
126.3920926073319
 25
208.511280778752
 35
0.0
 40
0.0
  0
DIMENSION
  5
A9F9
330
18
100
AcDbEntity
  8
mark
100
AcDbDimension
  2
*D12
 10
58.49999999999996
 20
101.0690456455909
 30
0.0
 11
51.06359368452149
 21
96.53177713297731
 31
0.0
 70
    36
 71
     5
 42
0.9999999999999431
  3
STANDARD
100
AcDbRadialDimension
 15
57.79289321881345
 25
100.3619388644044
 35
0.0
 40
0.0
1001
ACAD
1000
DSTYLE
1002
{
1070
   288
1070
     1
1002
}
  0
HATCH
  5
AA97
330
18
100
AcDbEntity
  8
section
100
AcDbHatch
 10
0.0
 20
0.0
 30
0.0
210
0.0
220
0.0
230
1.0
  2
ANSI31
 70
     0
 71
     1
 91
       12
 92
        7
 72
     1
 73
     1
 93
       28
 10
67.50000000000006
 20
124.381045645591
 42
0.0
 10
66.812
 20
125.069045645591
 42
0.0
 10
58.50000000000005
 20
125.069045645591
 42
0.4142135623730951
 10
57.50000000000006
 20
124.069045645591
 42
0.0
 10
57.50000000000006
 20
119.5690456455908
 42
0.0
 10
57.99999999999985
 20
119.069045645591
 42
0.0
 10
62.76794919243105
 20
119.069045645591
 42
0.0
 10
64.5
 20
116.069045645591
 42
0.0
 10
62.76794919243105
 20
113.069045645591
 42
0.0
 10
57.99999999999989
 20
113.069045645591
 42
0.0
 10
57.50000000000002
 20
112.5690456455911
 42
0.0
 10
57.5
 20
108.169045645591
 42
0.4142135623730951
 10
58.5
 20
107.169045645591
 42
0.0
 10
65.5
 20
107.169045645591
 42
0.0
 10
65.5
 20
105.169045645591
 42
0.0
 10
61.74999999999989
 20
105.169045645591
 42
0.0
 10
61.74999999999989
 20
104.069045645591
 42
0.0
 10
63.89999999999981
 20
102.8277425668334
 42
0.0
 10
63.89999999999986
 20
100.569045645591
 42
0.0
 10
64.39999999999987
 20
100.069045645591
 42
0.0
 10
66.81200000000003
 20
100.069045645591
 42
0.0
 10
67.50000000000006
 20
100.757045645591
 42
0.0
 10
67.50000000000006
 20
107.2810456455909
 42
0.0
 10
66.81199999999998
 20
107.969045645591
 42
0.0
 10
59.49999999999999
 20
107.969045645591
 42
0.0
 10
59.5
 20
109.969045645591
 42
0.0
 10
66.81200000000001
 20
109.969045645591
 42
0.0
 10
67.50000000000006
 20
110.6570456455911
 42
0.0
 97
       27
330
A555
330
A4D3
330
A54B
330
A4D0
330
A4EE
330
A4EB
330
A4EA
330
A4EC
330
A4E9
330
A4E8
330
A54A
330
A4D5
330
A4D8
330
A4D4
330
A608
330
A601
330
A604
330
A600
330
A4D1
330
A552
330
A55A
330
A553
330
A4DE
330
A4E2
330
A4DF
330
A554
330
A550
 92
        7
 72
     1
 73
     1
 93
        9
 10
61.74999999999989
 20
104.069045645591
 42
0.0
 10
61.74999999999989
 20
105.169045645591
 42
0.0
 10
58.5
 20
105.169045645591
 42
0.4142135623730951
 10
57.5
 20
104.169045645591
 42
0.0
 10
57.5
 20
101.069045645591
 42
0.4142135623730951
 10
58.5
 20
100.069045645591
 42
0.0
 10
59.09999999999996
 20
100.069045645591
 42
0.0
 10
59.59999999999997
 20
100.569045645591
 42
0.0
 10
59.59999999999997
 20
102.8277425668333
 42
0.0
 97
        9
330
A608
330
A4D4
330
A549
330
A4DA
330
A548
330
A4D1
330
A603
330
A602
330
A605
 92
        7
 72
     0
 73
     1
 93
        4
 10
68.31200000000002
 20
106.469045645591
 10
67.50000000000007
 20
107.281045645591
 10
67.50000000000004
 20
100.757045645591
 10
68.31199999999999
 20
101.569045645591
 97
        4
330
A553
330
A55A
330
A552
330
A559
 92
        7
 72
     0
 73
     1
 93
        4
 10
68.31200000000001
 20
123.569045645591
 10
67.50000000000006
 20
124.381045645591
 10
67.50000000000006
 20
110.657045645591
 10
68.31200000000001
 20
111.469045645591
 97
        4
330
A555
330
A550
330
A554
330
A551
 92
        7
 72
     0
 73
     1
 93
        4
 10
122.4999999999999
 20
124.3810456455909
 10
121.688
 20
123.569045645591
 10
121.688
 20
111.469045645591
 10
122.5
 20
110.6570456455911
 97
        4
330
A562
330
A55D
330
A561
330
A55B
 92
        7
 72
     0
 73
     1
 93
        7
 10
125.5
 20
121.269045645591
 10
125.5
 20
125.069045645591
 10
123.188
 20
125.069045645591
 10
122.5
 20
124.381045645591
 10
122.5
 20
110.6570456455911
 10
123.188
 20
109.969045645591
 10
125.5
 20
109.969045645591
 97
        7
330
A53F
330
A4D3
330
A562
330
A55B
330
A561
330
A4DF
330
A537
 92
        7
 72
     1
 73
     1
 93
       11
 10
132.5
 20
124.069045645591
 42
0.4142135623730951
 10
131.5
 20
125.069045645591
 42
0.0
 10
129.4999999999999
 20
125.069045645591
 42
0.0
 10
129.4999999999999
 20
121.269045645591
 42
0.0
 10
129.4999999999999
 20
109.969045645591
 42
0.0
 10
130.4999999999999
 20
109.969045645591
 42
0.0
 10
130.4999999999999
 20
107.969045645591
 42
0.0
 10
129.4999999999999
 20
107.9690456455909
 42
0.0
 10
129.4999999999999
 20
107.169045645591
 42
0.0
 10
131.5
 20
107.169045645591
 42
0.4142135623730951
 10
132.5
 20
108.169045645591
 42
0.0
 97
       10
330
A54C
330
A4D3
330
A540
330
A537
330
A545
330
A4E4
330
A546
330
A4DC
330
A54D
330
A4DB
 92
        7
 72
     1
 73
     1
 93
        9
 10
131.5
 20
105.169045645591
 42
0.0
 10
129.4999999999999
 20
105.169045645591
 42
0.0
 10
129.4999999999999
 20
104.069045645591
 42
0.0
 10
130.9999999999999
 20
104.069045645591
 42
0.0
 10
130.9999999999999
 20
100.3690456455909
 42
0.0
 10
130.9999999999999
 20
100.069045645591
 42
0.0
 10
131.5
 20
100.069045645591
 42
0.4142135623730992
 10
132.5
 20
101.069045645591
 42
0.0
 10
132.5
 20
104.169045645591
 42
0.4142135623730951
 97
        7
330
A4DD
330
A537
330
A539
330
A4D1
330
A54F
330
A4D2
330
A54E
 92
        7
 72
     0
 73
     1
 93
       13
 10
125.4999999999999
 20
105.169045645591
 10
124.5
 20
105.169045645591
 10
124.5
 20
107.169045645591
 10
125.4999999999999
 20
107.169045645591
 10
125.4999999999999
 20
107.969045645591
 10
123.188
 20
107.969045645591
 10
122.5
 20
107.281045645591
 10
122.5
 20
100.757045645591
 10
123.188
 20
100.069045645591
 10
123.9999999999999
 20
100.069045645591
 10
123.9999999999999
 20
100.3690456455911
 10
123.9999999999999
 20
104.069045645591
 10
125.4999999999999
 20
104.069045645591
 97
       10
330
A544
330
A4D9
330
A543
330
A537
330
A4DE
330
A560
330
A55C
330
A55F
330
A4D1
330
A538
 92
        7
 72
     0
 73
     1
 93
        4
 10
122.5
 20
107.2810456455909
 10
121.688
 20
106.469045645591
 10
121.688
 20
101.569045645591
 10
122.5
 20
100.7570456455911
 97
        4
330
A560
330
A55E
330
A55F
330
A55C
 92
        7
 72
     0
 73
     1
 93
        4
 10
129.4999999999999
 20
125.069045645591
 10
129.0999999999999
 20
125.069045645591
 10
129.0999999999999
 20
121.6690456455909
 10
129.4999999999999
 20
121.2690456455909
 97
        4
330
A4D3
330
A541
330
A537
330
A540
 92
        7
 72
     0
 73
     1
 93
        4
 10
125.8999999999999
 20
125.069045645591
 10
125.5
 20
125.069045645591
 10
125.5
 20
121.269045645591
 10
125.9
 20
121.6690456455909
 97
        4
330
A4D3
330
A53F
330
A537
330
A542
 75
     0
 76
     1
 52
0.0
 41
0.5
 77
     0
 78
     1
 53
45.0
 43
0.0
 44
0.0
 45
-1.122532015133643
 46
1.122532015133644
 79
     0
 47
0.055446109542712
 98
       12
 10
64.97865471250327
 20
123.1559116374226
 10
59.57209462251751
 20
104.0137383081586
 10
67.68193530745986
 20
104.3515408789255
 10
67.90720924033667
 20
115.8368452844712
 10
122.0532929286721
 20
115.9541824201509
 10
124.418663724241
 20
116.2919856708967
 10
130.7263173458789
 20
115.6163791694052
 10
131.9653206769189
 20
104.1310747638596
 10
123.9681169584148
 20
105.0318834325148
 10
122.1659298951106
 20
105.0318834325148
 10
129.2617068039571
 20
123.2586142701231
 10
125.767495907043
 20
122.8150450823407
1001
ACAD
1010
0.0
1020
0.0
1030
0.0
  0
DIMENSION
  5
AA9B
330
18
100
AcDbEntity
  8
mark
100
AcDbDimension
  2
*D13
 10
49.83202842553828
 20
125.069045645591
 30
0.0
 11
47.78202842553826
 21
120.569045645591
 31
0.0
 70
    32
 71
     5
 42
9.0
  3
STANDARD
100
AcDbAlignedDimension
 13
55.49999999999994
 23
116.069045645591
 33
0.0
 14
58.50000000000005
 24
125.069045645591
 34
0.0
 50
90.0
100
AcDbRotatedDimension
  0
MTEXT
  5
AADA
330
18
100
AcDbEntity
  8
mark
 62
     3
100
AcDbMText
 10
99.33894746837324
 20
135.4204950379679
 30
0.0
 40
1.25
 41
0.0
 71
     4
 72
     1
  1
+0\P-0.2
 73
     1
 44
1.0
1001
ACAD
1000
ACAD_MTEXT_DEFINED_HEIGHT_BEGIN
1070
    46
1040
0.0
1000
ACAD_MTEXT_DEFINED_HEIGHT_END
  0
LEADER
  5
AAE9
330
18
100
AcDbEntity
  8
mark
100
AcDbLeader
  3
STANDARD
 76
     2
 10
121.5165042944956
 20
173.5813038520607
 30
0.0
 10
140.1755769016673
 20
154.922231244889
 30
0.0
211
0.7071067811865474
221
-0.7071067811865478
231
0.0
1001
ACAD
1000
DSTYLE
1002
{
1070
   147
1040
0.8
1070
    77
1070
     0
1002
}
  0
MTEXT
  5
AAEA
330
18
100
AcDbEntity
  8
mark
 62
     3
100
AcDbMText
 10
141.4068852575644
 20
154.3466036546831
 30
0.0
 40
5.0
 41
0.0
 71
     4
 72
     1
  1
1
 73
     1
 44
1.0
1001
ACAD
1000
ACAD_MTEXT_DEFINED_HEIGHT_BEGIN
1070
    46
1040
0.0
1000
ACAD_MTEXT_DEFINED_HEIGHT_END
  0
LEADER
  5
AAEB
330
18
100
AcDbEntity
  8
mark
100
AcDbLeader
  3
STANDARD
 76
     2
 10
127.5000000000002
 20
100.069045645591
 30
0.0
 10
140.1755769016673
 20
87.3934687439239
 30
0.0
211
0.7071067811865474
221
-0.7071067811865478
231
0.0
1001
ACAD
1000
DSTYLE
1002
{
1070
   147
1040
0.8
1070
    77
1070
     0
1002
}
  0
MTEXT
  5
AAED
330
18
100
AcDbEntity
  8
mark
 62
     3
100
AcDbMText
 10
141.4068852575644
 20
86.81784115371806
 30
0.0
 40
5.0
 41
0.0
 71
     4
 72
     1
  1
2
 73
     1
 44
1.0
1001
ACAD
1000
ACAD_MTEXT_DEFINED_HEIGHT_BEGIN
1070
    46
1040
0.0
1000
ACAD_MTEXT_DEFINED_HEIGHT_END
  0
MTEXT
  5
AAF9
330
18
100
AcDbEntity
  8
0
100
AcDbMText
 10
47.65097232190476
 20
19.07605901616614
 30
0.0
 40
4.5
 41
0.0
 71
     1
 72
     5
  1
{\Ftxt,bigfont|c128;小\~柳}
  7
JL
 73
     1
 44
1.0
1001
ACAD
1000
ACAD_MTEXT_DEFINED_HEIGHT_BEGIN
1070
    46
1040
0.0
1000
ACAD_MTEXT_DEFINED_HEIGHT_END
  0
MTEXT
  5
AB22
330
18
100
AcDbEntity
  8
dim
100
AcDbMText
 10
10.02590368977382
 20
40.43758736696782
 30
0.0
 40
4.5
 41
0.0
 71
     1
 72
     5
  1
{\Ftxt,bigfont|c128;07.10.03 寸法一部変更  林}
  7
JL
 73
     1
 44
1.0
1001
ACAD
1000
ACAD_MTEXT_DEFINED_HEIGHT_BEGIN
1070
    46
1040
0.0
1000
ACAD_MTEXT_DEFINED_HEIGHT_END
  0
CIRCLE
  5
AB25
330
18
100
AcDbEntity
  8
dim
100
AcDbCircle
 10
44.40402279361888
 20
38.11499392257053
 30
0.0
 40
2.750054604459023
  0
LWPOLYLINE
  5
AB28
330
18
100
AcDbEntity
  8
mark
100
AcDbPolyline
 90
        3
 70
     1
 43
0.0
 10
133.1727070873367
 20
110.5449828731478
 10
137.6727070873366
 20
107.9469066617944
 10
137.6727070873366
 20
113.1430590845011
  0
TEXT
  5
AB29
330
18
100
AcDbEntity
  8
dim
100
AcDbText
 10
137.1134921513932
 20
110.1642192688366
 30
0.0
 40
2.5
  1
1
 50
90.0
  7
TXT
100
AcDbText
  0
MTEXT
  5
AB45
330
18
100
AcDbEntity
  8
mark
 62
     3
100
AcDbMText
 10
137.1754198203847
 20
130.0565937550514
 30
0.0
 40
2.5
 41
0.0
 71
     5
 72
     1
  1
17.25
 11
0.0000000000000001
 21
1.0
 31
0.0
 73
     1
 44
1.0
1001
ACAD
1000
ACAD_MTEXT_DEFINED_HEIGHT_BEGIN
1070
    46
1040
0.0
1000
ACAD_MTEXT_DEFINED_HEIGHT_END
  0
LINE
  5
AB46
330
18
100
AcDbEntity
  8
mark
 62
     1
100
AcDbLine
 10
136.757752114664
 20
120.090441009478
 30
0.0
 11
136.757752114664
 21
112.0402956299207
 31
0.0
  0
LINE
  5
AB47
330
18
100
AcDbEntity
  8
mark
 62
     1
100
AcDbLine
 10
138.0663912800194
 20
120.090441009478
 30
0.0
 11
138.0663912800194
 21
112.0402956299207
 31
0.0
  0
LWPOLYLINE
  5
AB85
330
18
100
AcDbEntity
  8
mark
100
AcDbPolyline
 90
        3
 70
     1
 43
0.0
 10
8.180651385327628
 20
43.03494261285092
 10
5.293900039379513
 20
48.03494261285092
 10
2.407148693431373
 20
43.03494261285092
  0
MTEXT
  5
AB86
330
18
100
AcDbEntity
  8
dim
100
AcDbMText
 10
4.502201379660652
 20
46.07270713373813
 30
0.0
 40
2.5
 41
9.163114146879252
 71
     1
 72
     5
  1
2
 73
     1
 44
1.0
1001
ACAD
1000
ACAD_MTEXT_DEFINED_HEIGHT_BEGIN
1070
    46
1040
0.0
1000
ACAD_MTEXT_DEFINED_HEIGHT_END
  0
MTEXT
  5
AB87
330
18
100
AcDbEntity
  8
dim
100
AcDbMText
 10
9.943849896799292
 20
47.49550059530122
 30
0.0
 40
4.5
 41
0.0
 71
     1
 72
     5
  1
{\Ftxt,bigfont|c128;08.08.08 振れ精度の変更  林}
  7
JL
 73
     1
 44
1.0
1001
ACAD
1000
ACAD_MTEXT_DEFINED_HEIGHT_BEGIN
1070
    46
1040
0.0
1000
ACAD_MTEXT_DEFINED_HEIGHT_END
  0
CIRCLE
  5
AB88
330
18
100
AcDbEntity
  8
dim
100
AcDbCircle
 10
47.71815319082503
 20
45.18568197533443
 30
0.0
 40
2.762409708108862
  0
LWPOLYLINE
  5
AB89
330
18
100
AcDbEntity
  8
mark
100
AcDbPolyline
 90
        3
 70
     1
 43
0.0
 10
8.262705178302162
 20
35.97702938451752
 10
5.375953832354047
 20
40.97702938451752
 10
2.489202486405908
 20
35.97702938451752
  0
MTEXT
  5
AB8A
330
18
100
AcDbEntity
  8
dim
100
AcDbMText
 10
4.959478590991158
 20
39.17551040565579
 30
0.0
 40
2.5
 41
9.163114146879252
 71
     1
 72
     5
  1
1
 73
     1
 44
1.0
1001
ACAD
1000
ACAD_MTEXT_DEFINED_HEIGHT_BEGIN
1070
    46
1040
0.0
1000
ACAD_MTEXT_DEFINED_HEIGHT_END
  0
LWPOLYLINE
  5
AB8B
330
18
100
AcDbEntity
  8
mark
100
AcDbPolyline
 90
        3
 70
     1
 43
0.0
 10
157.1474443646743
 20
133.8813560021327
 10
154.2606930187262
 20
138.8813560021327
 10
151.373941672778
 20
133.8813560021327
  0
MTEXT
  5
AB8C
330
18
100
AcDbEntity
  8
dim
100
AcDbMText
 10
153.4689943590073
 20
136.9191205230199
 30
0.0
 40
2.5
 41
9.163114146879252
 71
     1
 72
     5
  1
2
 73
     1
 44
1.0
1001
ACAD
1000
ACAD_MTEXT_DEFINED_HEIGHT_BEGIN
1070
    46
1040
0.0
1000
ACAD_MTEXT_DEFINED_HEIGHT_END
  0
MTEXT
  5
AB8D
330
18
100
AcDbEntity
  8
dim
100
AcDbMText
 10
158.4044437153538
 20
136.9191205230199
 30
0.0
 40
2.5
 41
9.163114146879252
 71
     1
 72
     5
  1
0.007
 73
     1
 44
1.0
1001
ACAD
1000
ACAD_MTEXT_DEFINED_HEIGHT_BEGIN
1070
    46
1040
0.0
1000
ACAD_MTEXT_DEFINED_HEIGHT_END
  0
LINE
  5
AB8E
330
18
100
AcDbEntity
  8
mark
 62
     1
100
AcDbLine
 10
158.0427443288545
 20
130.4813365985511
 30
0.0
 11
167.583843187778
 21
130.4813365985511
 31
0.0
  0
LINE
  5
AB8F
330
18
100
AcDbEntity
  8
mark
 62
     1
100
AcDbLine
 10
158.0427443288545
 20
129.8438646189048
 30
0.0
 11
167.583843187778
 21
129.8438646189048
 31
0.0
  0
LWPOLYLINE
  5
AB90
330
18
100
AcDbEntity
  8
mark
100
AcDbPolyline
 90
        3
 70
     1
 43
0.0
 10
181.6978832392033
 20
2.680117134885676
 10
178.8111318932552
 20
7.680117134885676
 10
175.9243805473071
 20
2.680117134885676
  0
MTEXT
  5
AB91
330
18
100
AcDbEntity
  8
dim
100
AcDbMText
 10
178.0194332335363
 20
5.717881655772885
 30
0.0
 40
2.5
 41
9.163114146879252
 71
     1
 72
     5
  1
2
 73
     1
 44
1.0
1001
ACAD
1000
ACAD_MTEXT_DEFINED_HEIGHT_BEGIN
1070
    46
1040
0.0
1000
ACAD_MTEXT_DEFINED_HEIGHT_END
  0
ENDSEC
  0
SECTION
  2
OBJECTS
  0
DICTIONARY
  5
C
330
0
100
AcDbDictionary
281
     1
  3
ACAD_COLOR
350
7873
  3
ACAD_GROUP
350
D
  3
ACAD_LAYOUT
350
5CF3
  3
ACAD_MATERIAL
350
7872
  3
ACAD_MLINESTYLE
350
1B
  3
ACAD_PLOTSETTINGS
350
5CF4
  3
ACAD_PLOTSTYLENAME
350
5CF1
  3
ACAD_TABLESTYLE
350
7874
  3
AcadDim
350
9A73
  3
ACDBVARIABLEDICTIONARY
350
45D
  3
ASE_INDEX_DICTIONARY
350
A61A
  0
DICTIONARY
  5
7BFE
330
2
100
AcDbDictionary
280
     1
281
     1
  3
ACAD_LAYERFILTERS
360
7C00
  3
ACLYDICTIONARY
360
7BFF
  0
DICTIONARY
  5
45F
330
18
100
AcDbDictionary
280
     1
281
     1
  3
ACAD_LAYOUTSELFREF
360
5D8B
  3
ACAD_SORTENTS
360
460
  0
DICTIONARY
  5
5D89
330
15
100
AcDbDictionary
280
     1
281
     1
  3
ACAD_LAYOUTSELFREF
360
5D8A
  0
DICTIONARY
  5
7C0B
330
7C0A
100
AcDbDictionary
280
     1
281
     1
  3
AcDbBlockTableRecordData
360
7C0C
  0
DICTIONARY
  5
8E73
330
8E72
100
AcDbDictionary
280
     1
281
     1
  3
AcDbBlockTableRecordData
360
8E74
  0
DICTIONARY
  5
9D16
330
9D15
100
AcDbDictionary
280
     1
281
     1
  3
AcDbBlockTableRecordData
360
9D17
  0
DICTIONARY
  5
A519
330
A518
100
AcDbDictionary
280
     1
281
     1
  3
AcDbBlockTableRecordData
360
A51A
  0
DICTIONARY
  5
7873
102
{ACAD_REACTORS
330
C
102
}
330
C
100
AcDbDictionary
281
     1
  0
DICTIONARY
  5
D
102
{ACAD_REACTORS
330
C
102
}
330
C
100
AcDbDictionary
281
     1
  0
DICTIONARY
  5
5CF3
102
{ACAD_REACTORS
330
C
102
}
330
C
100
AcDbDictionary
281
     1
  3
Model
350
5CF5
  3
配置1
350
5CF6
  0
DICTIONARY
  5
7872
102
{ACAD_REACTORS
330
C
102
}
330
C
100
AcDbDictionary
281
     1
  0
DICTIONARY
  5
1B
102
{ACAD_REACTORS
330
C
102
}
330
C
100
AcDbDictionary
281
     1
  3
STANDARD
350
1C
  0
DICTIONARY
  5
5CF4
102
{ACAD_REACTORS
330
C
102
}
330
C
100
AcDbDictionary
281
     1
  0
ACDBDICTIONARYWDFLT
  5
5CF1
102
{ACAD_REACTORS
330
C
102
}
330
C
100
AcDbDictionary
281
     1
  3
Normal
350
5CF2
100
AcDbDictionaryWithDefault
340
5CF2
  0
DICTIONARY
  5
7874
102
{ACAD_REACTORS
330
C
102
}
330
C
100
AcDbDictionary
281
     1
  3
Standard
350
7875
  0
XRECORD
  5
9A73
102
{ACAD_REACTORS
330
C
102
}
330
C
100
AcDbXrecord
280
     1
 90
   990106
  3

 60
     0
 61
     0
 62
     1
 63
     3
 64
     0
 65
     0
 66
     0
 67
     3
 68
     1
 69
     0
 70
     0
 71
     0
 72
     0
 40
0.0
170
     0
  0
DICTIONARY
  5
45D
102
{ACAD_REACTORS
330
C
102
}
330
C
100
AcDbDictionary
281
     1
  3
CTABLESTYLE
350
7880
  3
SORTENTS
350
45E
  0
DICTIONARY
  5
A61A
102
{ACAD_REACTORS
330
C
102
}
330
C
100
AcDbDictionary
281
     1
  3
ASEBlockHierarchyIndexRecord
350
A61C
1001
DCO15
1040
1565959579.437
  0
DICTIONARY
  5
7C00
102
{ACAD_REACTORS
330
7BFE
102
}
330
7BFE
100
AcDbDictionary
281
     1
  0
DICTIONARY
  5
7BFF
102
{ACAD_REACTORS
330
7BFE
102
}
330
7BFE
100
AcDbDictionary
281
     1
1001
ACAD
1000
<All
  0
XRECORD
  5
5D8B
102
{ACAD_REACTORS
330
45F
102
}
330
45F
100
AcDbXrecord
280
     1
340
18
  0
SORTENTSTABLE
  5
460
102
{ACAD_REACTORS
330
45F
102
}
330
45F
100
AcDbSortentsTable
330
18
331
A4D1
  5
A509
331
7D9C
  5
7D9C
331
AAF9
  5
AAF9
331
A4D9
  5
A53F
331
C0
  5
CB
331
7D6D
  5
7D6D
331
7DA4
  5
7DA4
331
A5CE
  5
A5D1
331
A597
  5
A59F
331
A538
  5
A554
331
7D75
  5
7D75
331
7DAC
  5
7DAC
331
AB29
  5
AB29
331
A5D6
  5
A5D9
331
A59F
  5
A5A7
331
A540
  5
A55A
331
7DB4
  5
7DB4
331
A5DE
  5
A5E1
331
A4E9
  5
A542
331
7D7D
  5
7D7D
331
7DBC
  5
7DBC
331
A548
  5
A508
331
A8A5
  5
A8A6
331
A5E6
  5
A5E9
331
A5A7
  5
A5AF
331
A9AC
  5
A9AC
331
A550
  5
A561
331
A472
  5
A4D6
331
7D85
  5
7D85
331
A8AD
  5
A8AE
331
7D8D
  5
7D8D
331
A4B2
  5
A4DB
331
A5B7
  5
A5BA
331
AADA
  5
AADA
331
A4BA
  5
A503
331
7D95
  5
7D95
331
A560
  5
A573
331
A606
  5
A607
331
A5BF
  5
A5C2
331
A95D
  5
A99A
331
AAEA
  5
AAEA
331
A4D2
  5
A512
331
7D9D
  5
7D9D
331
A5C7
  5
A5CA
331
A590
  5
A59C
331
A4DA
  5
A507
331
7DA5
  5
7DA5
331
7D6E
  5
7D6E
331
AB22
  5
AB22
331
A5CF
  5
A5D2
331
A598
  5
A5A0
331
A539
  5
A555
331
A4E2
  5
A53B
331
7D76
  5
7D76
331
7DAD
  5
7DAD
331
AA9B
  5
AA9B
331
A5D7
  5
A5DA
331
A541
  5
A55B
331
7DB5
  5
7DB5
331
A5DF
  5
A5E2
331
A5A0
  5
A5A8
331
A4EA
  5
A543
331
7D7E
  5
7D7E
331
7DBD
  5
7DBD
331
A549
  5
A50C
331
A8A6
  5
A8A7
331
A5E7
  5
A5EB
331
A5A8
  5
A5B0
331
A9AD
  5
A9AD
331
A551
  5
A563
331
7D86
  5
7D86
331
A8AE
  5
A950
331
A5EF
  5
A5F0
331
A5B0
  5
A5B3
331
A559
  5
A564
331
A4B3
  5
A4DC
331
7D8E
  5
7D8E
331
A5B8
  5
A5BB
331
A561
  5
A57E
331
7D96
  5
7D96
331
A607
  5
A608
331
AAEB
  5
AAEB
331
A5C0
  5
A5C3
331
A4D3
  5
A517
331
7D9E
  5
7D9E
331
A5C8
  5
A5CB
331
A591
  5
A59D
331
A4DB
  5
A514
331
7D6F
  5
7D6F
331
7DA6
  5
7DA6
331
A5D0
  5
A5D3
331
A9DD
  5
A9F9
331
A599
  5
A5A1
331
7D77
  5
7D77
331
7DAE
  5
7DAE
331
A4E3
  5
A53C
331
A5D8
  5
A5DB
331
A89F
  5
A8A0
331
A542
  5
A55C
331
7DB6
  5
7DB6
331
A5A1
  5
A5A9
331
A5E0
  5
A5E3
331
A4EB
  5
A544
331
7D7F
  5
7D7F
331
A54A
  5
A506
331
A5E8
  5
A5EC
331
A5A9
  5
A5B1
331
A8A7
  5
A8A8
331
A9AE
  5
A9AE
331
A552
  5
A565
331
7D87
  5
7D87
331
A5F0
  5
A5F1
331
A5B1
  5
A5B4
331
A9B6
  5
A9D0
331
7D8F
  5
7D8F
331
A4B4
  5
A4FA
331
A55A
  5
A562
331
A600
  5
A601
331
A5B9
  5
A5BC
331
7D97
  5
7D97
331
A562
  5
A58D
331
A608
  5
A89F
331
A5C1
  5
A5C4
331
A4D4
  5
A50B
331
7D9F
  5
7D9F
331
A5C9
  5
A5CC
331
A592
  5
A59E
331
A4DC
  5
A511
331
7D70
  5
7D70
331
A5D1
  5
A5D4
331
A4E4
  5
A540
331
7DAF
  5
7DAF
331
A59A
  5
A5A2
331
A5D9
  5
A5DC
331
A543
  5
A55D
331
7DB7
  5
7DB7
331
A9A7
  5
A9A7
331
7D78
  5
7D78
331
A5A2
  5
A5AA
331
A5E1
  5
A5E4
331
A8A0
  5
A8A1
331
A4EC
  5
A545
331
7D80
  5
7D80
331
A46D
  5
A490
331
A54B
  5
A539
331
A5E9
  5
A5ED
331
A8A8
  5
A8A9
331
A553
  5
A566
331
7D88
  5
7D88
331
A5F1
  5
A600
331
A5B2
  5
A5B5
331
A950
  5
A95D
331
7D90
  5
7D90
331
A4B5
  5
A4FB
331
A55B
  5
A56B
331
A601
  5
A602
331
A5BA
  5
A5BD
331
A563
  5
A58E
331
AAED
  5
AAED
331
7D98
  5
7D98
331
A5C2
  5
A5C5
331
A57B
  5
A59A
331
A4D5
  5
A50E
331
7DA0
  5
7DA0
331
A5CA
  5
A5CD
331
A4DD
  5
A50D
331
7DA8
  5
7DA8
331
7D71
  5
7D71
331
AB25
  5
AB25
331
A5D2
  5
A5D5
331
A59B
  5
A5A3
331
7DB0
  5
7DB0
331
A5DA
  5
A5DD
331
A544
  5
A55E
331
7D79
  5
7D79
331
7DB8
  5
7DB8
331
A9A8
  5
A9A8
331
A5A3
  5
A5AB
331
A5E2
  5
A5E5
331
A8A1
  5
A8A2
331
A4ED
  5
A546
331
7D81
  5
7D81
331
A54C
  5
A516
331
A8A9
  5
A8AA
331
AB45
  5
AB45
331
A554
  5
A567
331
A4FD
  5
A551
331
7D89
  5
7D89
331
A5B3
  5
A5B6
331
7D91
  5
7D91
331
A4B6
  5
A4FD
331
A55C
  5
A56C
331
A602
  5
A603
331
A5BB
  5
A5BE
331
A564
  5
A592
331
7D99
  5
7D99
331
A9D0
  5
A9DD
331
A5C3
  5
A5C7
331
A4D6
  5
A53A
331
A5CB
  5
A5CE
331
A4DE
  5
A50F
331
7DA9
  5
7DA9
331
A5D3
  5
A5D6
331
AA97
  5
A504
331
A59C
  5
A5A4
331
7DB1
  5
7DB1
331
A5DB
  5
A5DE
331
A545
  5
A55F
331
7D7A
  5
7D7A
331
A9A9
  5
A9A9
331
A5A4
  5
A5AC
331
A5E3
  5
A5E6
331
A8A2
  5
A8A3
331
A4EE
  5
A548
331
7D82
  5
7D82
331
A54D
  5
A515
331
A5EB
  5
A5EE
331
A8AA
  5
A8AB
331
A555
  5
A56A
331
A4FE
  5
A552
331
7D8A
  5
7D8A
331
A5B4
  5
A5B7
331
7D92
  5
7D92
331
A4B7
  5
A4FE
331
A55D
  5
A56D
331
A603
  5
A604
331
A5BC
  5
A5BF
331
A565
  5
A594
331
7D9A
  5
7D9A
331
7DA2
  5
7DA2
331
A5C4
  5
A5C8
331
A4DF
  5
A510
331
7D73
  5
7D73
331
7DAA
  5
7DAA
331
A5CC
  5
A5CF
331
7DB2
  5
7DB2
331
A59D
  5
A5A5
331
A5D4
  5
A5D7
331
A99A
  5
A9B6
331
A546
  5
A560
331
A5DC
  5
A5DF
331
7D7B
  5
7D7B
331
7DBA
  5
7DBA
331
A9AA
  5
A9AA
331
7D83
  5
7D83
331
A4EF
  5
A550
331
A54E
  5
A513
331
A5A5
  5
A5AD
331
A5E4
  5
A5E7
331
A8A3
  5
A8A4
331
7D8B
  5
7D8B
331
A5EC
  5
A5EF
331
A8AB
  5
A8AC
331
7D93
  5
7D93
331
A4B8
  5
A500
331
A55E
  5
A56E
331
A5B5
  5
A5B8
331
A9F9
  5
AA0C
331
A604
  5
A605
331
A566
  5
A598
331
A5BD
  5
A5C0
331
A4D0
  5
A505
331
7D9B
  5
7D9B
331
A4D8
  5
A53D
331
7D6C
  5
7D6C
331
7DA3
  5
7DA3
331
A5C5
  5
A5C9
331
7D74
  5
7D74
331
A537
  5
A553
331
A5CD
  5
A5D0
331
AB28
  5
AB28
331
A59E
  5
A5A6
331
A53F
  5
A559
331
A5D5
  5
A5D8
331
A5DD
  5
A5E0
331
7DBB
  5
7DBB
331
7D7C
  5
7D7C
331
A4E8
  5
A541
331
A9AB
  5
A9AB
331
A471
  5
A4D5
331
7D84
  5
7D84
331
A54F
  5
A50A
331
A5A6
  5
A5AE
331
A5E5
  5
A5E8
331
A8A4
  5
A8A5
331
7D8C
  5
7D8C
331
A4B1
  5
A4D8
331
A5AE
  5
A5B2
331
A8AC
  5
A8AD
331
7D94
  5
7D94
331
A4B9
  5
A502
331
A55F
  5
A56F
331
A5B6
  5
A5B9
331
A605
  5
A606
331
A567
  5
A599
331
A5BE
  5
A5C1
331
AAE9
  5
AAE9
  0
XRECORD
  5
5D8A
102
{ACAD_REACTORS
330
5D89
102
}
330
5D89
100
AcDbXrecord
280
     1
340
15
  0
DICTIONARY
  5
7C0C
102
{ACAD_REACTORS
330
7C0B
102
}
330
7C0B
100
AcDbDictionary
280
     1
281
     1
  3
Edit
360
7C0D
  0
DICTIONARY
  5
8E74
102
{ACAD_REACTORS
330
8E73
102
}
330
8E73
100
AcDbDictionary
280
     1
281
     1
  3
Edit
360
8E75
  0
DICTIONARY
  5
9D17
102
{ACAD_REACTORS
330
9D16
102
}
330
9D16
100
AcDbDictionary
280
     1
281
     1
  3
Edit
360
9D18
  0
DICTIONARY
  5
A51A
102
{ACAD_REACTORS
330
A519
102
}
330
A519
100
AcDbDictionary
280
     1
281
     1
  3
Edit
360
A51B
  0
LAYOUT
  5
5CF5
102
{ACAD_REACTORS
330
5CF3
102
}
330
5CF3
100
AcDbPlotSettings
  1

  2
hp LaserJet 1300 PCL 6
  4
A4
  6

 40
5.027083396911621
 41
5.069413185119628
 42
5.027084350585937
 43
5.027069091796875
 44
209.9733276367187
 45
296.9683227539062
 46
2.628062639917644
 47
0.0
 48
0.0
 49
0.0
140
190.0
141
280.0
142
1.0
143
0.9760456081518363
 70
 11956
 72
     1
 73
     0
 74
     4
  7
LIN.ctb
 75
     0
147
1.02454228741782
 76
     0
 77
     2
 78
   300
148
0.0
149
0.0
100
AcDbLayout
  1
Model
 70
     1
 71
     0
 10
0.0
 20
0.0
 11
12.0
 21
9.0
 12
0.0
 22
0.0
 32
0.0
 14
0.0
 24
0.0
 34
0.0
 15
0.0
 25
0.0
 35
0.0
146
0.0
 13
0.0
 23
0.0
 33
0.0
 16
1.0
 26
0.0
 36
0.0
 17
0.0
 27
1.0
 37
0.0
 76
     0
330
18
1001
ACAD_PSEXT
1000
hp LaserJet 1300 PCL 6
1000
hp LaserJet 1300 PCL 6
1000
HP 1300
1000

1070
     0
  0
LAYOUT
  5
5CF6
102
{ACAD_REACTORS
330
5CF3
102
}
330
5CF3
100
AcDbPlotSettings
  1

  2
EPSON STYLUS COLOR 440
  4

  6

 40
0.0
 41
0.0
 42
0.0
 43
0.0
 44
0.0
 45
0.0
 46
0.0
 47
0.0
 48
0.0
 49
0.0
140
0.0
141
0.0
142
1.0
143
1.0
 70
   688
 72
     0
 73
     0
 74
     5
  7
LIN.ctb
 75
    16
147
1.0
 76
     0
 77
     2
 78
   300
148
0.0
149
0.0
100
AcDbLayout
  1
ｰtｸm1
 70
     1
 71
     1
 10
0.0
 20
0.0
 11
420.0
 21
297.0
 12
0.0
 22
0.0
 32
0.0
 14
1.000000000000000E+20
 24
1.000000000000000E+20
 34
1.000000000000000E+20
 15
-1.000000000000000E+20
 25
-1.000000000000000E+20
 35
-1.000000000000000E+20
146
0.0
 13
0.0
 23
0.0
 33
0.0
 16
1.0
 26
0.0
 36
0.0
 17
0.0
 27
1.0
 37
0.0
 76
     0
330
15
  0
MLINESTYLE
  5
1C
102
{ACAD_REACTORS
330
1B
102
}
330
1B
100
AcDbMlineStyle
  2
STANDARD
 70
     0
  3

 62
   256
 51
90.0
 52
90.0
 71
     2
 49
0.5
 62
   256
  6
BYLAYER
 49
-0.5
 62
   256
  6
BYLAYER
  0
ACDBPLACEHOLDER
  5
5CF2
102
{ACAD_REACTORS
330
5CF1
102
}
330
5CF1
  0
TABLESTYLE
  5
7875
102
{ACAD_REACTORS
330
7874
102
}
330
7874
100
AcDbTableStyle
  3
Standard
 70
     0
 71
     8
 40
1.5
 41
1.5
280
     0
281
     0
  7
STANDARD
140
4.5
170
     2
 62
     0
 63
     7
283
     0
274
    -2
284
     1
 64
     0
275
    -2
285
     1
 65
     0
276
    -2
286
     1
 66
     0
277
    -2
287
     1
 67
     0
278
    -2
288
     1
 68
     0
279
    -2
289
     1
 69
     0
  7
STANDARD
140
6.0
170
     5
 62
     0
 63
     7
283
     0
274
    -2
284
     1
 64
     0
275
    -2
285
     1
 65
     0
276
    -2
286
     1
 66
     0
277
    -2
287
     1
 67
     0
278
    -2
288
     1
 68
     0
279
    -2
289
     1
 69
     0
  7
STANDARD
140
4.5
170
     5
 62
     0
 63
     7
283
     0
274
    -2
284
     1
 64
     0
275
    -2
285
     1
 65
     0
276
    -2
286
     1
 66
     0
277
    -2
287
     1
 67
     0
278
    -2
288
     1
 68
     0
279
    -2
289
     1
 69
     0
  0
DICTIONARYVAR
  5
7880
102
{ACAD_REACTORS
330
45D
102
}
330
45D
100
DictionaryVariables
280
     0
  1
STANDARD
  0
DICTIONARYVAR
  5
45E
102
{ACAD_REACTORS
330
45D
102
}
330
45D
100
DictionaryVariables
280
     0
  1
127
  0
XRECORD
  5
A61C
102
{ACAD_REACTORS
330
A61A
102
}
330
A61A
100
AcDbXrecord
280
     1
330
A537
  0
XRECORD
  5
7C0D
102
{ACAD_REACTORS
330
7C0C
102
}
330
7C0C
100
AcDbXrecord
280
     1
1070
     0
1070
     1
1070
     1
  0
XRECORD
  5
8E75
102
{ACAD_REACTORS
330
8E74
102
}
330
8E74
100
AcDbXrecord
280
     1
1070
     0
1070
     1
1070
     1
  0
XRECORD
  5
9D18
102
{ACAD_REACTORS
330
9D17
102
}
330
9D17
100
AcDbXrecord
280
     1
1070
     0
1070
     1
1070
     1
  0
XRECORD
  5
A51B
102
{ACAD_REACTORS
330
A51A
102
}
330
A51A
100
AcDbXrecord
280
     1
1070
     0
1070
     1
1070
     1
  0
ENDSEC
  0
EOF
