  0
SECTION
  2
HEADER
  9
$ACADVER
  1
AC1018
  9
$ACADMAINTVER
 70
   104
  9
$DWGCODEPAGE
  3
ANSI_932
  9
$LASTSAVEDBY
  1
eigyo taro
  9
$INSBASE
 10
0.0
 20
0.0
 30
0.0
  9
$EXTMIN
 10
0.0
 20
0.0
 30
0.0
  9
$EXTMAX
 10
190.0
 20
280.0
 30
0.0
  9
$LIMMIN
 10
0.0
 20
0.0
  9
$LIMMAX
 10
420.0
 20
297.0
  9
$ORTHOMODE
 70
     1
  9
$REGENMODE
 70
     1
  9
$FILLMODE
 70
     1
  9
$QTEXTMODE
 70
     0
  9
$MIRRTEXT
 70
     1
  9
$LTSCALE
 40
1.0
  9
$ATTMODE
 70
     1
  9
$TEXTSIZE
 40
2.5
  9
$TRACEWID
 40
1.0
  9
$TEXTSTYLE
  7
STANDARD
  9
$CLAYER
  8
mark
  9
$CELTYPE
  6
BYLAYER
  9
$CECOLOR
 62
   256
  9
$CELTSCALE
 40
1.0
  9
$DISPSILH
 70
     0
  9
$DIMSCALE
 40
1.0
  9
$DIMASZ
 40
2.5
  9
$DIMEXO
 40
0.85
  9
$DIMDLI
 40
0.38
  9
$DIMRND
 40
0.0
  9
$DIMDLE
 40
0.0
  9
$DIMEXE
 40
0.85
  9
$DIMTP
 40
0.0
  9
$DIMTM
 40
0.0
  9
$DIMTXT
 40
2.5
  9
$DIMCEN
 40
0.09
  9
$DIMTSZ
 40
0.0
  9
$DIMTOL
 70
     0
  9
$DIMLIM
 70
     0
  9
$DIMTIH
 70
     0
  9
$DIMTOH
 70
     0
  9
$DIMSE1
 70
     0
  9
$DIMSE2
 70
     0
  9
$DIMTAD
 70
     3
  9
$DIMZIN
 70
     8
  9
$DIMBLK
  1
Open30
  9
$DIMASO
 70
     1
  9
$DIMSHO
 70
     1
  9
$DIMPOST
  1

  9
$DIMAPOST
  1

  9
$DIMALT
 70
     0
  9
$DIMALTD
 70
     2
  9
$DIMALTF
 40
25.4
  9
$DIMLFAC
 40
1.0
  9
$DIMTOFL
 70
     1
  9
$DIMTVP
 40
0.0
  9
$DIMTIX
 70
     0
  9
$DIMSOXD
 70
     0
  9
$DIMSAH
 70
     0
  9
$DIMBLK1
  1

  9
$DIMBLK2
  1

  9
$DIMSTYLE
  2
STANDARD
  9
$DIMCLRD
 70
   256
  9
$DIMCLRE
 70
   256
  9
$DIMCLRT
 70
     3
  9
$DIMTFAC
 40
1.0
  9
$DIMGAP
 40
0.85
  9
$DIMJUST
 70
     0
  9
$DIMSD1
 70
     0
  9
$DIMSD2
 70
     0
  9
$DIMTOLJ
 70
     1
  9
$DIMTZIN
 70
     0
  9
$DIMALTZ
 70
     0
  9
$DIMALTTZ
 70
     0
  9
$DIMUPT
 70
     0
  9
$DIMDEC
 70
     2
  9
$DIMTDEC
 70
     2
  9
$DIMALTU
 70
     2
  9
$DIMALTTD
 70
     2
  9
$DIMTXSTY
  7
STANDARD
  9
$DIMAUNIT
 70
     0
  9
$DIMADEC
 70
     2
  9
$DIMALTRND
 40
0.0
  9
$DIMAZIN
 70
     2
  9
$DIMDSEP
 70
    46
  9
$DIMATFIT
 70
     3
  9
$DIMFRAC
 70
     0
  9
$DIMLDRBLK
  1
Open30
  9
$DIMLUNIT
 70
     2
  9
$DIMLWD
 70
    -2
  9
$DIMLWE
 70
    -2
  9
$DIMTMOVE
 70
     0
  9
$LUNITS
 70
     2
  9
$LUPREC
 70
     2
  9
$SKETCHINC
 40
1.0
  9
$FILLETRAD
 40
0.0
  9
$AUNITS
 70
     0
  9
$AUPREC
 70
     2
  9
$MENU
  1
.
  9
$ELEVATION
 40
0.0
  9
$PELEVATION
 40
0.0
  9
$THICKNESS
 40
0.0
  9
$LIMCHECK
 70
     0
  9
$CHAMFERA
 40
1.0
  9
$CHAMFERB
 40
1.0
  9
$CHAMFERC
 40
1.75
  9
$CHAMFERD
 40
0.0174532925199433
  9
$SKPOLY
 70
     0
  9
$TDCREATE
 40
2451555.620231482
  9
$TDUCREATE
 40
2451555.245234838
  9
$TDUPDATE
 40
2458138.446041667
  9
$TDUUPDATE
 40
2458138.071041666
  9
$TDINDWG
 40
3.1062951968
  9
$TDUSRTIMER
 40
3.1062951968
  9
$USRTIMER
 70
     1
  9
$ANGBASE
 50
0.0
  9
$ANGDIR
 70
     0
  9
$PDMODE
 70
     0
  9
$PDSIZE
 40
0.0
  9
$PLINEWID
 40
0.0
  9
$SPLFRAME
 70
     0
  9
$SPLINETYPE
 70
     6
  9
$SPLINESEGS
 70
     8
  9
$HANDSEED
  5
ED0E
  9
$SURFTAB1
 70
     6
  9
$SURFTAB2
 70
     6
  9
$SURFTYPE
 70
     6
  9
$SURFU
 70
     6
  9
$SURFV
 70
     6
  9
$UCSBASE
  2

  9
$UCSNAME
  2

  9
$UCSORG
 10
0.0
 20
0.0
 30
0.0
  9
$UCSXDIR
 10
1.0
 20
0.0
 30
0.0
  9
$UCSYDIR
 10
0.0
 20
1.0
 30
0.0
  9
$UCSORTHOREF
  2

  9
$UCSORTHOVIEW
 70
     0
  9
$UCSORGTOP
 10
0.0
 20
0.0
 30
0.0
  9
$UCSORGBOTTOM
 10
0.0
 20
0.0
 30
0.0
  9
$UCSORGLEFT
 10
0.0
 20
0.0
 30
0.0
  9
$UCSORGRIGHT
 10
0.0
 20
0.0
 30
0.0
  9
$UCSORGFRONT
 10
0.0
 20
0.0
 30
0.0
  9
$UCSORGBACK
 10
0.0
 20
0.0
 30
0.0
  9
$PUCSBASE
  2

  9
$PUCSNAME
  2

  9
$PUCSORG
 10
0.0
 20
0.0
 30
0.0
  9
$PUCSXDIR
 10
1.0
 20
0.0
 30
0.0
  9
$PUCSYDIR
 10
0.0
 20
1.0
 30
0.0
  9
$PUCSORTHOREF
  2

  9
$PUCSORTHOVIEW
 70
     0
  9
$PUCSORGTOP
 10
0.0
 20
0.0
 30
0.0
  9
$PUCSORGBOTTOM
 10
0.0
 20
0.0
 30
0.0
  9
$PUCSORGLEFT
 10
0.0
 20
0.0
 30
0.0
  9
$PUCSORGRIGHT
 10
0.0
 20
0.0
 30
0.0
  9
$PUCSORGFRONT
 10
0.0
 20
0.0
 30
0.0
  9
$PUCSORGBACK
 10
0.0
 20
0.0
 30
0.0
  9
$USERI1
 70
     0
  9
$USERI2
 70
     0
  9
$USERI3
 70
     0
  9
$USERI4
 70
     0
  9
$USERI5
 70
     0
  9
$USERR1
 40
0.0
  9
$USERR2
 40
0.0
  9
$USERR3
 40
0.0
  9
$USERR4
 40
0.0
  9
$USERR5
 40
0.0
  9
$WORLDVIEW
 70
     1
  9
$SHADEDGE
 70
     3
  9
$SHADEDIF
 70
    70
  9
$TILEMODE
 70
     1
  9
$MAXACTVP
 70
    48
  9
$PINSBASE
 10
0.0
 20
0.0
 30
0.0
  9
$PLIMCHECK
 70
     0
  9
$PEXTMIN
 10
1.000000000000000E+20
 20
1.000000000000000E+20
 30
1.000000000000000E+20
  9
$PEXTMAX
 10
-1.000000000000000E+20
 20
-1.000000000000000E+20
 30
-1.000000000000000E+20
  9
$PLIMMIN
 10
0.0
 20
0.0
  9
$PLIMMAX
 10
420.0
 20
297.0
  9
$UNITMODE
 70
     0
  9
$VISRETAIN
 70
     1
  9
$PLINEGEN
 70
     0
  9
$PSLTSCALE
 70
     1
  9
$TREEDEPTH
 70
  3020
  9
$CMLSTYLE
  2
STANDARD
  9
$CMLJUST
 70
     0
  9
$CMLSCALE
 40
20.0
  9
$PROXYGRAPHICS
 70
     1
  9
$MEASUREMENT
 70
     1
  9
$CELWEIGHT
370
    -1
  9
$ENDCAPS
280
     0
  9
$JOINSTYLE
280
     0
  9
$LWDISPLAY
290
     0
  9
$INSUNITS
 70
     0
  9
$HYPERLINKBASE
  1

  9
$STYLESHEET
  1
LIN.ctb
  9
$XEDIT
290
     1
  9
$CEPSNTYPE
380
     0
  9
$PSTYLEMODE
290
     1
  9
$FINGERPRINTGUID
  2
{1CF51E8A-A506-11D4-A7D9-AF69F5C20846}
  9
$VERSIONGUID
  2
{918180F2-DB7B-40D3-8952-C6EEB498CF11}
  9
$EXTNAMES
290
     1
  9
$PSVPSCALE
 40
0.0
  9
$OLESTARTUP
290
     0
  9
$SORTENTS
280
   127
  9
$INDEXCTL
280
     0
  9
$HIDETEXT
280
     0
  9
$XCLIPFRAME
290
     0
  9
$HALOGAP
280
     0
  9
$OBSCOLOR
 70
   257
  9
$OBSLTYPE
280
     0
  9
$INTERSECTIONDISPLAY
280
     0
  9
$INTERSECTIONCOLOR
 70
   257
  9
$DIMASSOC
280
     1
  9
$PROJECTNAME
  1

  0
ENDSEC
  0
SECTION
  2
CLASSES
  0
CLASS
  1
DICTIONARYVAR
  2
AcDbDictionaryVar
  3
ObjectDBX Classes
 90
        0
 91
       10
280
     0
281
     0
  0
CLASS
  1
SORTENTSTABLE
  2
AcDbSortentsTable
  3
ObjectDBX Classes
 90
        0
 91
        2
280
     0
281
     0
  0
CLASS
  1
ACDBDICTIONARYWDFLT
  2
AcDbDictionaryWithDefault
  3
ObjectDBX Classes
 90
        0
 91
        1
280
     0
281
     0
  0
CLASS
  1
TABLESTYLE
  2
AcDbTableStyle
  3
ObjectDBX Classes
 90
     4095
 91
        1
280
     0
281
     0
  0
CLASS
  1
MATERIAL
  2
AcDbMaterial
  3
ObjectDBX Classes
 90
     1153
 91
        3
280
     0
281
     0
  0
CLASS
  1
VISUALSTYLE
  2
AcDbVisualStyle
  3
ObjectDBX Classes
 90
     4095
 91
       24
280
     0
281
     0
  0
CLASS
  1
SCALE
  2
AcDbScale
  3
ObjectDBX Classes
 90
     1153
 91
       17
280
     0
281
     0
  0
CLASS
  1
MLEADERSTYLE
  2
AcDbMLeaderStyle
  3
ACDB_MLEADERSTYLE_CLASS
 90
     4095
 91
        1
280
     0
281
     0
  0
CLASS
  1
ACDBSECTIONVIEWSTYLE
  2
AcDbSectionViewStyle
  3
ObjectDBX Classes
 90
     1025
 91
        1
280
     0
281
     0
  0
CLASS
  1
ACDBDETAILVIEWSTYLE
  2
AcDbDetailViewStyle
  3
ObjectDBX Classes
 90
     1025
 91
        1
280
     0
281
     0
  0
CLASS
  1
CELLSTYLEMAP
  2
AcDbCellStyleMap
  3
ObjectDBX Classes
 90
     1152
 91
        2
280
     0
281
     0
  0
CLASS
  1
ACME_DOCUMENT
  2
AcMeDbDoc
  3
AcMeServices
 90
     1024
 91
        0
280
     0
281
     0
  0
CLASS
  1
AMGSETTINGSOBJ
  2
AmgSettingsObj
  3
"AcadM|Product Description: AutoCAD Mechanical|Company: Autodesk, Inc."
 90
     1024
 91
        0
280
     0
281
     0
  0
CLASS
  1
ACMESCOPE
  2
AcMeScope
  3
AcMeServices
 90
     1024
 91
        0
280
     0
281
     0
  0
CLASS
  1
ACMECOMMANDHISTORY
  2
AcMeCommandHistory
  3
AcMeServices
 90
     1024
 91
        0
280
     0
281
     0
  0
CLASS
  1
ACIMSYSVARMAN
  2
AcImSysVarManager
  3
AcMeServices
 90
     1024
 91
        0
280
     0
281
     0
  0
CLASS
  1
ACIMINTSYSVAR
  2
AcImIntSysVar
  3
AcMeServices
 90
     1024
 91
        0
280
     0
281
     0
  0
CLASS
  1
ACMESTATEMGR
  2
AcMeStateMgr
  3
AcMeServices
 90
     1024
 91
        0
280
     0
281
     0
  0
CLASS
  1
ACDBENTITYCACHE
  2
AcMeEntityCache
  3
AcMeServices
 90
     1024
 91
        0
280
     0
281
     0
  0
CLASS
  1
ACGREFMASTER
  2
AcGrefMaster
  3
AcAttribServices
 90
     1024
 91
        0
280
     0
281
     0
  0
CLASS
  1
AM_DRAWING_MGR
  2
AcDmDwgMgr
  3
AcMechDwgViewMgmt
 90
     1024
 91
        0
280
     0
281
     0
  0
CLASS
  1
AM_DWG_DOCUMENT
  2
AcDmDwgDocument
  3
AcMechDwgViewMgmt
 90
     1024
 91
        0
280
     0
281
     0
  0
CLASS
  1
AM_DWG_SHEET
  2
AcDmSheet
  3
AcMechDwgViewMgmt
 90
     1024
 91
        0
280
     0
281
     0
  0
CLASS
  1
AM_VIEWDIMPARMAP
  2
AcDmViewDimParMap
  3
AcMechDwgViewMgmt
 90
     1024
 91
        0
280
     0
281
     0
  0
CLASS
  1
AMDTINTERNALREACTOR
  2
AmdtInternalReactor
  3
AcMeServices
 90
     1024
 91
        0
280
     0
281
     0
  0
CLASS
  1
ACIMREALSYSVAR
  2
AcImRealSysVar
  3
AcMeServices
 90
     1024
 91
        0
280
     0
281
     0
  0
CLASS
  1
AM_DWGMGR_NAME
  2
AcDmDwgMgrName
  3
AcMechDwgViewMgmt
 90
     1024
 91
        0
280
     0
281
     0
  0
CLASS
  1
ACME_DATABASE
  2
AcMeDbDatabase
  3
AcMeServices
 90
     1024
 91
        0
280
     0
281
     0
  0
CLASS
  1
ACRFINSADJUSTERMGR
  2
AcRfInsAdjusterMgr
  3
AcMeServices
 90
     1024
 91
        0
280
     0
281
     0
  0
CLASS
  1
ACGREFACADMASTER
  2
AcGrefacadMaster
  3
AcGrefServices
 90
     1024
 91
        0
280
     0
281
     0
  0
CLASS
  1
AMDTMENUSTATEMGR
  2
AmdtMenuStateMgr
  3
McadcomServices
 90
     1024
 91
        0
280
     0
281
     0
  0
CLASS
  1
AMDTMCOMMENUSTATE
  2
AmdtMcomMenuState
  3
McadcomServices
 90
     1024
 91
        0
280
     0
281
     0
  0
CLASS
  1
AMIMASTER
  2
AmiMaster
  3
AmiServices
 90
     1024
 91
        0
280
     0
281
     0
  0
CLASS
  1
MAPIAMMOUDLE
  2
MApiAmModule
  3
MApiAmServices
 90
     1024
 91
        0
280
     0
281
     0
  0
CLASS
  1
ACIMSTRSYSVAR
  2
AcImStrSysVar
  3
AcMeServices
 90
     1024
 91
        0
280
     0
281
     0
  0
CLASS
  1
AMDTDMMENUSTATE
  2
AmdtDmMenuState
  3
AcMechDwgViewMgmt
 90
     1024
 91
        0
280
     0
281
     0
  0
CLASS
  1
AMDTAMMENUSTATE
  2
AmdtAmMenuState
  3
DesignerAssemblies
 90
     1024
 91
        0
280
     0
281
     0
  0
CLASS
  1
ACAMPROJECT
  2
AcAmProject
  3
DesignerAssemblies
 90
     1024
 91
        0
280
     0
281
     0
  0
CLASS
  1
ACAMGRCOMPDEF
  2
AcAmGrCompDef
  3
DesignerAssemblies
 90
     1024
 91
        0
280
     0
281
     0
  0
CLASS
  1
ACAMCOMPDEF
  2
AcAmCompDef
  3
DesignerAssemblies
 90
     1024
 91
        0
280
     0
281
     0
  0
CLASS
  1
ACAMCOMPDEFMGR
  2
AcAmCompDefMgr
  3
DesignerAssemblies
 90
     1024
 91
        0
280
     0
281
     0
  0
CLASS
  1
AMCONTEXTMGR
  2
AcAmContextMgr
  3
DesignerAssemblies
 90
     1024
 91
        0
280
     0
281
     0
  0
CLASS
  1
ACAMCONTEXTMODELER
  2
AcAmContextModeler
  3
DesignerAssemblies
 90
     1024
 91
        0
280
     0
281
     0
  0
CLASS
  1
ACMDATADICTIONARY
  2
AcmDataDictionary
  3
"AcmSymBB|Product Description: AutoCAD Mechanical|Company: Autodesk, Inc."
 90
     1024
 91
        0
280
     0
281
     0
  0
CLASS
  1
ACAMGRCOMPDEFSET
  2
AcAmGrCompDefSet
  3
DesignerAssemblies
 90
     1024
 91
        0
280
     0
281
     0
  0
CLASS
  1
AMDTBROWSERDBTAB
  2
AmdtBrowserDbTab
  3
McadcomServices
 90
     1024
 91
        0
280
     0
281
     0
  0
CLASS
  1
CBROWSERAPPOBJECT
  2
CBrowserAppObject
  3
McadcomServices
 90
     1024
 91
        0
280
     0
281
     0
  0
CLASS
  1
DM_PLACEHOLDER
  2
AcDmSelsetPlaceholder
  3
AcMechDwgViewMgmt
 90
     1024
 91
        0
280
     0
281
     0
  0
CLASS
  1
EXACXREFPANELOBJECT
  2
ExAcXREFPanelObject
  3
EXAC_ESW
 90
     1025
 91
        0
280
     0
281
     0
  0
CLASS
  1
NPOCOLLECTION
  2
AcDbImpNonPersistentObjectsCollection
  3
ObjectDBX Classes
 90
     1153
 91
        0
280
     0
281
     0
  0
CLASS
  1
ACMSTANDARDISO
  2
AcmStandardISO
  3
"Amdt_StdImp|Product Description: AutoCAD Mechanical|Company: Autodesk, Inc."
 90
     1024
 91
        0
280
     0
281
     0
  0
CLASS
  1
AMDTEDGESTANDARDISO13715
  2
AmdtEdgeStdISO13715
  3
"Amdt_StdImp|Product Description: AutoCAD Mechanical|Company: Autodesk, Inc."
 90
     1024
 91
        0
280
     0
281
     0
  0
CLASS
  1
ACMSURFSTANDARDISO2002
  2
AcmSurfTextStdISO2002
  3
"Amdt_StdImp|Product Description: AutoCAD Mechanical|Company: Autodesk, Inc."
 90
     1024
 91
        0
280
     0
281
     0
  0
CLASS
  1
ACMFCFSTANDARDISO
  2
AcmFCFStdISO
  3
"Amdt_StdImp|Product Description: AutoCAD Mechanical|Company: Autodesk, Inc."
 90
     1024
 91
        0
280
     0
281
     0
  0
CLASS
  1
ACMWELDSTANDARDISO
  2
AcmWeldingStdISO
  3
"Amdt_StdImp|Product Description: AutoCAD Mechanical|Company: Autodesk, Inc."
 90
     1024
 91
        0
280
     0
281
     0
  0
CLASS
  1
ACMIDSTANDARDISO
  2
AcmIdStdISO
  3
"Amdt_StdImp|Product Description: AutoCAD Mechanical|Company: Autodesk, Inc."
 90
     1024
 91
        0
280
     0
281
     0
  0
CLASS
  1
ACMDATUMSTANDARDISO
  2
AcmDatumStdISO
  3
"Amdt_StdImp|Product Description: AutoCAD Mechanical|Company: Autodesk, Inc."
 90
     1024
 91
        0
280
     0
281
     0
  0
CLASS
  1
ACMBOMSTANDARDISO
  2
AcmBOMStdISO
  3
"Amdt_StdImp|Product Description: AutoCAD Mechanical|Company: Autodesk, Inc."
 90
     1024
 91
        0
280
     0
281
     0
  0
CLASS
  1
ACMDETAILSTANDARDISO
  2
AmdtDetailSymStdISO
  3
"Amdt_StdImp|Product Description: AutoCAD Mechanical|Company: Autodesk, Inc."
 90
     1024
 91
        0
280
     0
281
     0
  0
CLASS
  1
ACMSECTIONSTANDARDISO2001
  2
AmdtSectionSymStdISO2001
  3
"Amdt_StdImp|Product Description: AutoCAD Mechanical|Company: Autodesk, Inc."
 90
     1024
 91
        0
280
     0
281
     0
  0
CLASS
  1
ACMCENTERLINESTANDARDISO
  2
AmdtCenterLineStdISO
  3
"Amdt_StdImp|Product Description: AutoCAD Mechanical|Company: Autodesk, Inc."
 90
     1024
 91
        0
280
     0
281
     0
  0
CLASS
  1
ACMTHREADLINESTANDARDISO
  2
AmdtThreadLineStdISO
  3
"Amdt_StdImp|Product Description: AutoCAD Mechanical|Company: Autodesk, Inc."
 90
     1024
 91
        0
280
     0
281
     0
  0
CLASS
  1
ACMNOTESTANDARDISO
  2
AmdtNoteStdISO
  3
"Amdt_StdImp|Product Description: AutoCAD Mechanical|Company: Autodesk, Inc."
 90
     1024
 91
        0
280
     0
281
     0
  0
CLASS
  1
ACMTAPERSTANDARDISO
  2
AcmTaperStdISO
  3
"Amdt_StdImp|Product Description: AutoCAD Mechanical|Company: Autodesk, Inc."
 90
     1024
 91
        0
280
     0
281
     0
  0
CLASS
  1
ACMANOOTATIONVIEWSTANDARDISO
  2
AmdtAnViewStdISO
  3
"Amdt_StdImp|Product Description: AutoCAD Mechanical|Company: Autodesk, Inc."
 90
     1024
 91
        0
280
     0
281
     0
  0
CLASS
  1
ACAMGLAYSTD
  2
AcAmgLayStd
  3
"AmgLay|Product Description: AutoCAD Mechanical|Company: Autodesk, Inc."
 90
     1024
 91
        0
280
     0
281
     0
  0
CLASS
  1
ACAMGDIMSTD
  2
AcAmgDimStd
  3
"AmgDim|Product Description: AutoCAD Mechanical|Company: Autodesk, Inc."
 90
     1024
 91
        0
280
     0
281
     0
  0
CLASS
  1
AMGOBJPROPCFG
  2
AmgObjPropCfg
  3
"AmgLay|Product Description: AutoCAD Mechanical|Company: Autodesk, Inc."
 90
     1025
 91
        0
280
     0
281
     0
  0
CLASS
  1
ACAMGHOLECHARTSTDISO
  2
AcAmgHoleChartStdISO
  3
AmgDim|Product Description: AutoCAD Mechanical|Company: Autodesk, Inc.
 90
     1024
 91
        0
280
     0
281
     0
  0
CLASS
  1
ACAMGTITLESTD
  2
AcAmgTitleStd
  3
"AmgTitle|Product Description: AutoCAD Mechanical|Company: Autodesk, Inc."
 90
     4095
 91
        0
280
     0
281
     0
  0
CLASS
  1
AMDTNOTETEMPLATEDB
  2
AmdtNoteTemplateDB
  3
AcmSymBB|Product Description: AutoCAD Mechanical|Company: Autodesk, Inc.
 90
     1024
 91
        0
280
     0
281
     0
  0
CLASS
  1
ACAMGFILTERDAT
  2
AcAmgFilterDat
  3
"AcadM|Product Description: AutoCAD Mechanical|Company: Autodesk, Inc."
 90
     1024
 91
        0
280
     0
281
     0
  0
CLASS
  1
MULTILEADER
  2
AcDbMLeader
  3
ACDB_MLEADER_CLASS
 90
     1025
 91
        0
280
     0
281
     1
  0
CLASS
  1
AEC_REFEDIT_STATUS_TRACKER
  2
AecDbRefEditStatusTracker
  3
AecArchBase80|Product Desc: Autodesk Architectural Desktop 2007 |Company: Autodesk,Inc. |WEB Address: www.autodesk.com
 90
      129
 91
        0
280
     0
281
     0
  0
ENDSEC
  0
SECTION
  2
TABLES
  0
TABLE
  2
VPORT
  5
8
102
{ACAD_XDICTIONARY
360
DE9C
102
}
330
0
100
AcDbSymbolTable
 70
     1
  0
VPORT
  5
DB6D
330
8
100
AcDbSymbolTableRecord
100
AcDbViewportTableRecord
  2
*Active
 70
     0
 10
0.0
 20
0.0
 11
1.0
 21
1.0
 12
191.6652417380311
 22
140.002116926737
 13
0.0
 23
0.0
 14
10.0
 24
10.0
 15
10.0
 25
10.0
 16
0.0
 26
0.0
 36
1.0
 17
0.0
 27
0.0
 37
0.0
 40
267.2861992082514
 41
2.584761904761904
 42
50.0
 43
0.0
 44
0.0
 50
0.0
 51
0.0
 71
     0
 72
 20000
 73
     1
 74
     1
 75
     0
 76
     0
 77
     0
 78
     0
281
     0
 65
     1
110
0.0
120
0.0
130
0.0
111
1.0
121
0.0
131
0.0
112
0.0
122
1.0
132
0.0
 79
     0
146
0.0
1001
ACAD_NAV_VCDISPLAY
1070
     3
  0
ENDTAB
  0
TABLE
  2
LTYPE
  5
5
330
0
100
AcDbSymbolTable
 70
    19
  0
LTYPE
  5
12
330
5
100
AcDbSymbolTableRecord
100
AcDbLinetypeTableRecord
  2
BYBLOCK
 70
     0
  3

 72
    65
 73
     0
 40
0.0
  0
LTYPE
  5
13
330
5
100
AcDbSymbolTableRecord
100
AcDbLinetypeTableRecord
  2
BYLAYER
 70
     0
  3

 72
    65
 73
     0
 40
0.0
  0
LTYPE
  5
14
330
5
100
AcDbSymbolTableRecord
100
AcDbLinetypeTableRecord
  2
CONTINUOUS
 70
     0
  3
Solid line
 72
    65
 73
     0
 40
0.0
  0
LTYPE
  5
9D
330
5
100
AcDbSymbolTableRecord
100
AcDbLinetypeTableRecord
  2
CENTERX2
 70
     0
  3
Center (2x) ________  __  ________  __  _____
 72
    65
 73
     4
 40
101.6
 49
63.5
 74
     0
 49
-12.7
 74
     0
 49
12.7
 74
     0
 49
-12.7
 74
     0
  0
LTYPE
  5
A1
330
5
100
AcDbSymbolTableRecord
100
AcDbLinetypeTableRecord
  2
DASHED
 70
     0
  3
Dashed __ __ __ __ __ __ __ __ __ __ __ __ __ _
 72
    65
 73
     2
 40
19.05
 49
12.7
 74
     0
 49
-6.349999999999999
 74
     0
  0
LTYPE
  5
A2
330
5
100
AcDbSymbolTableRecord
100
AcDbLinetypeTableRecord
  2
DASHED2
 70
     0
  3
Dashed (.5x) _ _ _ _ _ _ _ _ _ _ _ _ _ _ _ _ _
 72
    65
 73
     2
 40
9.524999999999998
 49
6.349999999999999
 74
     0
 49
-3.174999999999999
 74
     0
  0
LTYPE
  5
A5
330
5
100
AcDbSymbolTableRecord
100
AcDbLinetypeTableRecord
  2
DIVIDE2
 70
     0
  3
Divide (.5x) __..__..__..__..__..__..__..__.._
 72
    65
 73
     6
 40
15.875
 49
6.349999999999999
 74
     0
 49
-3.174999999999999
 74
     0
 49
0.0
 74
     0
 49
-3.174999999999999
 74
     0
 49
0.0
 74
     0
 49
-3.174999999999999
 74
     0
  0
LTYPE
  5
650B
330
5
100
AcDbSymbolTableRecord
100
AcDbLinetypeTableRecord
  2
CENTER
 70
     0
  3
Center ____ _ ____ _ ____ _ ____ _ ____ _ ____
 72
    65
 73
     4
 40
50.8
 49
31.75
 74
     0
 49
-6.349999999999999
 74
     0
 49
6.349999999999999
 74
     0
 49
-6.349999999999999
 74
     0
  0
LTYPE
  5
650C
330
5
100
AcDbSymbolTableRecord
100
AcDbLinetypeTableRecord
  2
HIDDEN
 70
     0
  3
Hidden __ __ __ __ __ __ __ __ __ __ __ __ __ _
 72
    65
 73
     2
 40
9.524999999999998
 49
6.349999999999999
 74
     0
 49
-3.174999999999999
 74
     0
  0
LTYPE
  5
E0C6
330
5
100
AcDbSymbolTableRecord
100
AcDbLinetypeTableRecord
  2
PHANTOM2
 70
     0
  3
Phantom (.5x) ___ _ _ ___ _ _ ___ _ _ ___ _ _
 72
    65
 73
     6
 40
31.75
 49
15.875
 74
     0
 49
-3.174999999999999
 74
     0
 49
3.174999999999999
 74
     0
 49
-3.174999999999999
 74
     0
 49
3.174999999999999
 74
     0
 49
-3.174999999999999
 74
     0
  0
LTYPE
  5
E106
330
5
100
AcDbSymbolTableRecord
100
AcDbLinetypeTableRecord
  2
AM_ISO02W050
 70
     0
  3
__ __ __ __ __ __ __ __ __ __ __ __ __ __ __
 72
    65
 73
     2
 40
7.5
 49
6.0
 74
     0
 49
-1.5
 74
     0
  0
LTYPE
  5
E107
330
5
100
AcDbSymbolTableRecord
100
AcDbLinetypeTableRecord
  2
AM_ISO08W050
 70
     0
  3
____ . ____ . ____ . ____ . ____ . ____ . ____
 72
    65
 73
     4
 40
18.0
 49
12.0
 74
     0
 49
-1.5
 74
     0
 49
3.0
 74
     0
 49
-1.5
 74
     0
  0
LTYPE
  5
E108
330
5
100
AcDbSymbolTableRecord
100
AcDbLinetypeTableRecord
  2
AM_ISO09W050
 70
     0
  3
_____ . . _____ . . _____ . . ____ .. ____
 72
    65
 73
     6
 40
22.5
 49
12.0
 74
     0
 49
-1.5
 74
     0
 49
3.0
 74
     0
 49
-1.5
 74
     0
 49
3.0
 74
     0
 49
-1.5
 74
     0
  0
LTYPE
  5
E109
330
5
100
AcDbSymbolTableRecord
100
AcDbLinetypeTableRecord
  2
Amconstr
 70
     0
  3
_______________________
 72
    65
 73
     2
 40
9999.0
 49
9999.0
 74
     0
 49
0.0
 74
     0
  0
LTYPE
  5
E10A
330
5
100
AcDbSymbolTableRecord
100
AcDbLinetypeTableRecord
  2
AM_ISO08W050x2
 70
     0
  3
__ . __ . __ . __ . __ . __
 72
    65
 73
     4
 40
9.0
 49
6.0
 74
     0
 49
-0.75
 74
     0
 49
1.5
 74
     0
 49
-0.75
 74
     0
  0
LTYPE
  5
E10B
330
5
100
AcDbSymbolTableRecord
100
AcDbLinetypeTableRecord
  2
AM_ISO02W050x2
 70
     0
  3
 _ _ _ _ _ _ _ _ _ _ _ _
 72
    65
 73
     2
 40
3.75
 49
3.0
 74
     0
 49
-0.75
 74
     0
  0
LTYPE
  5
E10E
330
5
100
AcDbSymbolTableRecord
100
AcDbLinetypeTableRecord
  2
Amzigzag
 70
     0
  3
/\/-/\/-/\/-/\/-/\/-/\/
 72
    65
 73
     2
 40
11.0001
 49
0.0001
 74
     4
 75
   136
340
E10D
 46
0.04
 50
0.0
 44
0.0
 45
0.0
 49
-11.0
 74
     0
  0
LTYPE
  5
E11D
330
5
100
AcDbSymbolTableRecord
100
AcDbLinetypeTableRecord
  2
ACISOWELD
 70
     0
  3
_ _ _ _ _
 72
    65
 73
     2
 40
2.0
 49
2.0
 74
     0
 49
-1.0
 74
     0
  0
LTYPE
  5
E11E
330
5
100
AcDbSymbolTableRecord
100
AcDbLinetypeTableRecord
  2
ACISOTGB
 70
     0
  3
__ . . __ . .
 72
    65
 73
     6
 40
9.0
 49
4.0
 74
     0
 49
-1.0
 74
     0
 49
1.0
 74
     0
 49
-1.0
 74
     0
 49
1.0
 74
     0
 49
-1.0
 74
     0
  0
LTYPE
  5
E11F
330
5
100
AcDbSymbolTableRecord
100
AcDbLinetypeTableRecord
  2
ACISOTGL
 70
     0
  3
_ _ _ _ _
 72
    65
 73
     2
 40
3.0
 49
2.0
 74
     0
 49
-1.0
 74
     0
  0
LTYPE
  5
E340
330
5
100
AcDbSymbolTableRecord
100
AcDbLinetypeTableRecord
  2
ACAD_ISO04W100
 70
     0
  3
ISO long-dash dot ____ . ____ . ____ . ____ . _
 72
    65
 73
     4
 40
30.0
 49
24.0
 74
     0
 49
-3.0
 74
     0
 49
0.0
 74
     0
 49
-3.0
 74
     0
  0
ENDTAB
  0
TABLE
  2
LAYER
  5
2
102
{ACAD_XDICTIONARY
360
7BFE
102
}
330
0
100
AcDbSymbolTable
 70
    10
  0
LAYER
  5
E
102
{ACAD_XDICTIONARY
360
DDAC
102
}
330
2
100
AcDbSymbolTableRecord
100
AcDbLayerTableRecord
  2
0
 70
     0
 62
     7
  6
CONTINUOUS
370
    -3
390
5CF2
  0
LAYER
  5
B9
102
{ACAD_XDICTIONARY
360
DDAE
102
}
330
2
100
AcDbSymbolTableRecord
100
AcDbLayerTableRecord
  2
dim
 70
     0
 62
     3
  6
CONTINUOUS
370
    -3
390
5CF2
  0
LAYER
  5
F2
330
2
100
AcDbSymbolTableRecord
100
AcDbLayerTableRecord
  2
DEFPOINTS
 70
     0
 62
     4
  6
CONTINUOUS
290
     0
370
    -3
390
5CF2
  0
LAYER
  5
5F8B
102
{ACAD_XDICTIONARY
360
DDB0
102
}
330
2
100
AcDbSymbolTableRecord
100
AcDbLayerTableRecord
  2
mark
 70
     0
 62
     6
  6
CONTINUOUS
370
    -3
390
5CF2
  0
LAYER
  5
644E
102
{ACAD_XDICTIONARY
360
DDB2
102
}
330
2
100
AcDbSymbolTableRecord
100
AcDbLayerTableRecord
  2
frame
 70
     0
 62
     9
  6
CONTINUOUS
370
    -3
390
5CF2
  0
LAYER
  5
650D
102
{ACAD_XDICTIONARY
360
DDB4
102
}
330
2
100
AcDbSymbolTableRecord
100
AcDbLayerTableRecord
  2
center
 70
     0
 62
     1
  6
CENTER
370
    -3
390
5CF2
  0
LAYER
  5
650E
102
{ACAD_XDICTIONARY
360
DDB6
102
}
330
2
100
AcDbSymbolTableRecord
100
AcDbLayerTableRecord
  2
bowle
 70
     0
 62
     4
  6
HIDDEN
370
    -3
390
5CF2
  0
LAYER
  5
650F
102
{ACAD_XDICTIONARY
360
DDB8
102
}
330
2
100
AcDbSymbolTableRecord
100
AcDbLayerTableRecord
  2
contour
 70
     0
 62
     2
  6
CONTINUOUS
370
    -3
390
5CF2
  0
LAYER
  5
6510
102
{ACAD_XDICTIONARY
360
DDBA
102
}
330
2
100
AcDbSymbolTableRecord
100
AcDbLayerTableRecord
  2
section
 70
     0
 62
     5
  6
CONTINUOUS
370
    -3
390
5CF2
  0
LAYER
  5
E341
102
{ACAD_XDICTIONARY
360
E342
102
}
330
2
100
AcDbSymbolTableRecord
100
AcDbLayerTableRecord
  2
1
 70
     0
 62
     2
  6
CONTINUOUS
370
    -3
390
5CF2
  0
ENDTAB
  0
TABLE
  2
STYLE
  5
3
330
0
100
AcDbSymbolTable
 70
     8
  0
STYLE
  5
F
330
3
100
AcDbSymbolTableRecord
100
AcDbTextStyleTableRecord
  2
STANDARD
 70
     0
 40
0.0
 41
1.0
 50
0.0
 71
     0
 42
2.5
  3
txt.shx
  4
bigfont.shx
  0
STYLE
  5
BE
330
3
100
AcDbSymbolTableRecord
100
AcDbTextStyleTableRecord
  2
CN
 70
     0
 40
0.0
 41
1.0
 50
0.0
 71
     0
 42
2.5
  3
txt.shx
  4
gbcbig.shx
  0
STYLE
  5
5DCC
330
3
100
AcDbSymbolTableRecord
100
AcDbTextStyleTableRecord
  2
TW
 70
     0
 40
0.0
 41
1.0
 50
0.0
 71
     0
 42
5.0
  3
txt.shx
  4
chineset.shx
  0
STYLE
  5
DB4B
330
3
100
AcDbSymbolTableRecord
100
AcDbTextStyleTableRecord
  2
JL
 70
     0
 40
10.0
 41
0.5
 50
0.0
 71
     0
 42
5.0
  3
MS Mincho.ttf
  4

1001
ACAD
1000
MS Mincho
1071
    32785
  0
STYLE
  5
DD91
330
3
100
AcDbSymbolTableRecord
100
AcDbTextStyleTableRecord
  2
TXT
 70
     0
 40
0.0
 41
1.0
 50
0.0
 71
     0
 42
1.25
  3
txt.shx
  4
bigfont.shx
  0
STYLE
  5
E10D
330
3
100
AcDbSymbolTableRecord
100
AcDbTextStyleTableRecord
  2

 70
     1
 40
0.0
 41
1.0
 50
0.0
 71
     0
 42
2.5
  3
genltshp.shx
  4

  0
STYLE
  5
E11B
330
3
100
AcDbSymbolTableRecord
100
AcDbTextStyleTableRecord
  2
ACISOTS
 70
     0
 40
1.0
 41
1.0
 50
0.0
 71
     0
 42
2.5
  3
isocp.shx
  4
chineset.shx
  0
STYLE
  5
E11C
330
3
100
AcDbSymbolTableRecord
100
AcDbTextStyleTableRecord
  2
ACISOGDT
 70
     0
 40
0.0
 41
1.0
 50
0.0
 71
     0
 42
2.5
  3
amgdt.shx
  4

  0
ENDTAB
  0
TABLE
  2
VIEW
  5
6
330
0
100
AcDbSymbolTable
 70
     0
  0
ENDTAB
  0
TABLE
  2
UCS
  5
7
330
0
100
AcDbSymbolTable
 70
     0
  0
ENDTAB
  0
TABLE
  2
APPID
  5
9
330
0
100
AcDbSymbolTable
 70
    30
  0
APPID
  5
10
330
9
100
AcDbSymbolTableRecord
100
AcDbRegAppTableRecord
  2
ACAD
 70
     0
  0
APPID
  5
7C91
330
9
100
AcDbSymbolTableRecord
100
AcDbRegAppTableRecord
  2
ACAD_DSTYLE_DIMEXT_LENGTH
 70
     0
  0
APPID
  5
7C92
330
9
100
AcDbSymbolTableRecord
100
AcDbRegAppTableRecord
  2
ACAD_DSTYLE_DIMEXT_ENABLED
 70
     0
  0
APPID
  5
7C93
330
9
100
AcDbSymbolTableRecord
100
AcDbRegAppTableRecord
  2
ACAD_DSTYLE_DIMJOGGED_JOGANGLE_SYMBOL
 70
     0
  0
APPID
  5
7C94
330
9
100
AcDbSymbolTableRecord
100
AcDbRegAppTableRecord
  2
ACAD_DSTYLE_DIMARC_LENGTH_SYMBOL
 70
     0
  0
APPID
  5
7F1C
330
9
100
AcDbSymbolTableRecord
100
AcDbRegAppTableRecord
  2
ACAD_EXEMPT_FROM_CAD_STANDARDS
 70
     0
  0
APPID
  5
7F49
330
9
100
AcDbSymbolTableRecord
100
AcDbRegAppTableRecord
  2
ACAD_DSTYLE_DIMTEXT_FILL
 70
     0
  0
APPID
  5
7F4C
330
9
100
AcDbSymbolTableRecord
100
AcDbRegAppTableRecord
  2
ACAD_DSTYLE_DIM_LINETYPE
 70
     0
  0
APPID
  5
7F4D
330
9
100
AcDbSymbolTableRecord
100
AcDbRegAppTableRecord
  2
ACAD_DSTYLE_DIM_EXT1_LINETYPE
 70
     0
  0
APPID
  5
7F4E
330
9
100
AcDbSymbolTableRecord
100
AcDbRegAppTableRecord
  2
ACAD_DSTYLE_DIM_EXT2_LINETYPE
 70
     0
  0
APPID
  5
8C73
330
9
100
AcDbSymbolTableRecord
100
AcDbRegAppTableRecord
  2
ACAD_PSEXT
 70
     0
  0
APPID
  5
DBB8
330
9
100
AcDbSymbolTableRecord
100
AcDbRegAppTableRecord
  2
ACADSTRINGINFO
 70
     0
  0
APPID
  5
DD92
330
9
100
AcDbSymbolTableRecord
100
AcDbRegAppTableRecord
  2
ACAD_NAV_VCDISPLAY
 70
     0
  0
APPID
  5
DF1C
330
9
100
AcDbSymbolTableRecord
100
AcDbRegAppTableRecord
  2
ACAD_MLEADERVER
 70
     0
  0
APPID
  5
E09D
330
9
100
AcDbSymbolTableRecord
100
AcDbRegAppTableRecord
  2
MCAD_NO_VIS
 70
     0
  0
APPID
  5
E09E
330
9
100
AcDbSymbolTableRecord
100
AcDbRegAppTableRecord
  2
ACAD_TEMP_GRAPHIC
 70
     0
  0
APPID
  5
E0C8
330
9
100
AcDbSymbolTableRecord
100
AcDbRegAppTableRecord
  2
AD_DRAW
 70
     0
  0
APPID
  5
E0CB
330
9
100
AcDbSymbolTableRecord
100
AcDbRegAppTableRecord
  2
ACATTRIBSERVICES
 70
     0
  0
APPID
  5
E0E4
330
9
100
AcDbSymbolTableRecord
100
AcDbRegAppTableRecord
  2
DESIGNERASSEMBLIES
 70
     0
  0
APPID
  5
E0E9
330
9
100
AcDbSymbolTableRecord
100
AcDbRegAppTableRecord
  2
ACADM_DIM_EDIT
 70
     0
  0
APPID
  5
E0EA
330
9
100
AcDbSymbolTableRecord
100
AcDbRegAppTableRecord
  2
AMDT_DM_ADJ
 70
     0
  0
APPID
  5
E103
330
9
100
AcDbSymbolTableRecord
100
AcDbRegAppTableRecord
  2
ACAD_DSTYLE_DIMJAG
 70
     0
  0
APPID
  5
E104
330
9
100
AcDbSymbolTableRecord
100
AcDbRegAppTableRecord
  2
ACAD_DSTYLE_DIMBREAK
 70
     0
  0
APPID
  5
E344
330
9
100
AcDbSymbolTableRecord
100
AcDbRegAppTableRecord
  2
ACAD_DSTYLE_DIMTALN
 70
     0
  0
APPID
  5
E345
330
9
100
AcDbSymbolTableRecord
100
AcDbRegAppTableRecord
  2
ACAD_DSTYLE_DIMRADIAL_EXTENSION
 70
     0
  0
APPID
  5
E893
330
9
100
AcDbSymbolTableRecord
100
AcDbRegAppTableRecord
  2
PE_URL
 70
     0
  0
APPID
  5
E924
330
9
100
AcDbSymbolTableRecord
100
AcDbRegAppTableRecord
  2
GRADIENTCOLOR1ACI
 70
     0
  0
APPID
  5
E925
330
9
100
AcDbSymbolTableRecord
100
AcDbRegAppTableRecord
  2
GRADIENTCOLOR2ACI
 70
     0
  0
APPID
  5
EAA2
330
9
100
AcDbSymbolTableRecord
100
AcDbRegAppTableRecord
  2
ACAD_DSTYLE_DIMINSPECT
 70
     0
  0
APPID
  5
EAAC
330
9
100
AcDbSymbolTableRecord
100
AcDbRegAppTableRecord
  2
GENIUS_GENDTOL_13
 70
     0
  0
ENDTAB
  0
TABLE
  2
DIMSTYLE
  5
A
330
0
100
AcDbSymbolTable
 70
     9
100
AcDbDimStyleTable
 71
     1
340
1D
  0
DIMSTYLE
105
1D
102
{ACAD_REACTORS
330
E927
330
E933
330
E93F
330
E970
330
E983
330
EA76
330
EA85
330
EAB6
102
}
330
A
100
AcDbSymbolTableRecord
100
AcDbDimStyleTableRecord
  2
STANDARD
 70
     0
 41
2.5
 42
0.85
 44
0.85
 73
     0
 74
     0
 77
     3
 78
     8
 79
     2
140
2.5
147
0.85
172
     1
176
   256
177
   256
178
     3
179
     2
271
     2
272
     2
340
F
341
7C04
342
7C04
1001
ACAD_DSTYLE_DIMEXT_LENGTH
1070
   378
1040
0.18
1001
ACAD_DSTYLE_DIMJOGGED_JOGANGLE_SYMBOL
1070
   384
1040
1.570796326794896
  0
DIMSTYLE
105
E102
330
A
100
AcDbSymbolTableRecord
100
AcDbDimStyleTableRecord
  2
AM_ISO
 70
     0
  4
"
 41
3.5
 42
1.0
 43
10.0
 44
1.0
 47
0.1
 48
0.1
 73
     0
 74
     0
 77
     1
 78
     8
 79
     2
140
3.5
141
0.0
143
0.0393701
146
0.71
147
1.5
172
     1
176
   256
177
   256
178
     2
271
     2
272
     3
274
     4
283
     0
284
     8
340
F
371
    -1
372
    -1
1001
ACAD_DSTYLE_DIMJAG
1070
   388
1040
1.5
1001
ACAD_DSTYLE_DIMBREAK
1070
   391
1040
3.75
1001
ACAD_DSTYLE_DIMARC_LENGTH_SYMBOL
1070
   379
1070
     1
1001
ACAD_DSTYLE_DIM_LINETYPE
1070
   380
1005
12
1001
ACAD_DSTYLE_DIM_EXT1_LINETYPE
1070
   381
1005
12
1001
ACAD_DSTYLE_DIM_EXT2_LINETYPE
1070
   382
1005
12
  0
DIMSTYLE
105
E10F
330
A
100
AcDbSymbolTableRecord
100
AcDbDimStyleTableRecord
  2
AM_ISO$3
 70
     0
  4
"
 41
3.5
 42
1.0
 43
10.0
 44
1.0
 47
0.1
 48
0.1
 73
     0
 77
     1
 78
     8
 79
     2
140
3.5
141
0.0
143
0.0393701
146
0.71
147
1.5
176
   256
177
   256
178
     2
271
     2
272
     3
274
     4
283
     0
284
     8
288
     1
289
     0
340
F
371
    -1
372
    -1
1001
ACAD_DSTYLE_DIMBREAK
1070
   391
1040
3.75
1001
ACAD_DSTYLE_DIMJAG
1070
   388
1040
1.5
1001
ACAD_DSTYLE_DIMARC_LENGTH_SYMBOL
1070
   379
1070
     1
1001
ACAD_DSTYLE_DIM_LINETYPE
1070
   380
1005
12
1001
ACAD_DSTYLE_DIM_EXT1_LINETYPE
1070
   381
1005
12
1001
ACAD_DSTYLE_DIM_EXT2_LINETYPE
1070
   382
1005
12
  0
DIMSTYLE
105
E110
330
A
100
AcDbSymbolTableRecord
100
AcDbDimStyleTableRecord
  2
AM_ISO$4
 70
     0
  4
"
 41
3.5
 42
1.0
 43
10.0
 44
1.0
 47
0.1
 48
0.1
 73
     0
 77
     1
 78
     8
 79
     2
140
3.5
141
0.0
143
0.0393701
146
0.71
147
1.5
176
   256
177
   256
178
     2
271
     2
272
     3
274
     4
283
     0
284
     8
288
     1
289
     0
340
F
371
    -1
372
    -1
1001
ACAD_DSTYLE_DIMBREAK
1070
   391
1040
3.75
1001
ACAD_DSTYLE_DIMJAG
1070
   388
1040
1.5
1001
ACAD_DSTYLE_DIMARC_LENGTH_SYMBOL
1070
   379
1070
     1
1001
ACAD_DSTYLE_DIM_LINETYPE
1070
   380
1005
12
1001
ACAD_DSTYLE_DIM_EXT1_LINETYPE
1070
   381
1005
12
1001
ACAD_DSTYLE_DIM_EXT2_LINETYPE
1070
   382
1005
12
  0
DIMSTYLE
105
E111
330
A
100
AcDbSymbolTableRecord
100
AcDbDimStyleTableRecord
  2
AM_ISO$6
 70
     0
  4
"
 41
3.5
 42
1.0
 43
10.0
 44
1.0
 47
0.1
 48
0.1
 73
     0
 74
     0
 78
     8
 79
     2
140
3.5
141
0.0
143
0.0393701
146
0.71
147
1.5
172
     1
176
   256
177
   256
178
     2
271
     2
272
     3
274
     4
283
     0
284
     8
340
F
371
    -1
372
    -1
1001
ACAD_DSTYLE_DIMBREAK
1070
   391
1040
3.75
1001
ACAD_DSTYLE_DIMJAG
1070
   388
1040
1.5
1001
ACAD_DSTYLE_DIMARC_LENGTH_SYMBOL
1070
   379
1070
     1
1001
ACAD_DSTYLE_DIM_LINETYPE
1070
   380
1005
12
1001
ACAD_DSTYLE_DIM_EXT1_LINETYPE
1070
   381
1005
12
1001
ACAD_DSTYLE_DIM_EXT2_LINETYPE
1070
   382
1005
12
  0
DIMSTYLE
105
E112
330
A
100
AcDbSymbolTableRecord
100
AcDbDimStyleTableRecord
  2
AM_ISO$7
 70
     0
  4
"
 41
3.5
 42
1.0
 43
10.0
 44
1.0
 47
0.1
 48
0.1
 73
     0
 74
     0
 77
     1
 78
     8
 79
     2
140
3.5
141
0.0
143
0.0393701
146
0.71
147
1.5
172
     1
176
   256
177
   256
178
     2
271
     2
272
     3
274
     4
283
     0
284
     8
340
F
371
    -1
372
    -1
1001
ACAD_DSTYLE_DIMBREAK
1070
   391
1040
3.75
1001
ACAD_DSTYLE_DIMJAG
1070
   388
1040
1.5
1001
ACAD_DSTYLE_DIMARC_LENGTH_SYMBOL
1070
   379
1070
     1
1001
ACAD_DSTYLE_DIM_LINETYPE
1070
   380
1005
12
1001
ACAD_DSTYLE_DIM_EXT1_LINETYPE
1070
   381
1005
12
1001
ACAD_DSTYLE_DIM_EXT2_LINETYPE
1070
   382
1005
12
  0
DIMSTYLE
105
E113
330
A
100
AcDbSymbolTableRecord
100
AcDbDimStyleTableRecord
  2
AM_ISO$SF
 70
     0
  4
"
 41
3.5
 42
1.0
 43
10.0
 44
1.0
 47
0.1
 48
0.1
 73
     0
 74
     0
 75
     1
 76
     1
 77
     1
 78
     8
 79
     2
140
3.5
141
0.0
143
0.0393701
146
0.71
147
1.5
172
     1
176
   256
177
   256
178
     2
271
     2
272
     3
274
     4
283
     0
284
     8
340
F
371
    -1
372
    -1
1001
ACAD_DSTYLE_DIMBREAK
1070
   391
1040
3.75
1001
ACAD_DSTYLE_DIMJAG
1070
   388
1040
1.5
1001
ACAD_DSTYLE_DIMARC_LENGTH_SYMBOL
1070
   379
1070
     1
1001
ACAD_DSTYLE_DIM_LINETYPE
1070
   380
1005
12
1001
ACAD_DSTYLE_DIM_EXT1_LINETYPE
1070
   381
1005
12
1001
ACAD_DSTYLE_DIM_EXT2_LINETYPE
1070
   382
1005
12
  0
DIMSTYLE
105
E118
330
A
100
AcDbSymbolTableRecord
100
AcDbDimStyleTableRecord
  2
AM_ISO$SH
 70
     0
  4
"
 41
3.5
 42
1.0
 43
10.0
 44
1.0
 47
0.1
 48
0.1
 73
     0
 74
     0
 75
     1
 76
     1
 77
     1
 78
     8
 79
     2
140
3.5
141
0.0
143
0.0393701
144
2.0
146
0.71
147
1.5
172
     1
173
     1
176
   256
177
   256
178
     2
271
     2
272
     3
274
     4
283
     0
284
     8
340
F
343
E114
371
    -1
372
    -1
1001
ACAD_DSTYLE_DIMBREAK
1070
   391
1040
3.75
1001
ACAD_DSTYLE_DIMJAG
1070
   388
1040
1.5
1001
ACAD_DSTYLE_DIMARC_LENGTH_SYMBOL
1070
   379
1070
     1
1001
ACAD_DSTYLE_DIM_LINETYPE
1070
   380
1005
12
1001
ACAD_DSTYLE_DIM_EXT1_LINETYPE
1070
   381
1005
12
1001
ACAD_DSTYLE_DIM_EXT2_LINETYPE
1070
   382
1005
12
  0
DIMSTYLE
105
E343
330
A
100
AcDbSymbolTableRecord
100
AcDbDimStyleTableRecord
  2
ISO-25
 70
     0
 41
4.0
 42
1.0
 43
3.75
 44
1.0
 73
     0
 74
     0
 77
     1
 78
     8
140
3.5
141
2.5
143
0.03937007874016
147
1.0
171
     3
172
     1
176
     2
177
     2
178
     2
271
     2
272
     2
274
     3
283
     0
284
     8
340
F
1001
ACAD_DSTYLE_DIMJAG
1070
   388
1040
1.5
1001
ACAD_DSTYLE_DIMTALN
1070
   392
1070
     0
  0
ENDTAB
  0
TABLE
  2
BLOCK_RECORD
  5
1
330
0
100
AcDbSymbolTable
 70
    35
  0
BLOCK_RECORD
  5
18
102
{ACAD_XDICTIONARY
360
45F
102
}
330
1
100
AcDbSymbolTableRecord
100
AcDbBlockTableRecord
  2
*MODEL_SPACE
340
5CF5
  0
BLOCK_RECORD
  5
15
102
{ACAD_XDICTIONARY
360
5D89
102
}
330
1
100
AcDbSymbolTableRecord
100
AcDbBlockTableRecord
  2
*PAPER_SPACE
340
5CF6
  0
BLOCK_RECORD
  5
639D
330
1
100
AcDbSymbolTableRecord
100
AcDbBlockTableRecord
  2
A$C255C26A2
340
0
  0
BLOCK_RECORD
  5
7C04
330
1
100
AcDbSymbolTableRecord
100
AcDbBlockTableRecord
  2
_Open30
340
0
102
{BLKREFS
331
EB45
331
EB46
331
EB4D
331
EB4E
331
EB54
331
EB55
331
EB5D
331
EB5E
331
EB66
331
EB67
331
EB71
331
EB72
331
EB7A
331
EB7B
331
EB83
331
EB84
102
}
  0
BLOCK_RECORD
  5
7C0A
102
{ACAD_XDICTIONARY
360
7C0B
102
}
330
1
100
AcDbSymbolTableRecord
100
AcDbBlockTableRecord
  2
A
340
0
310
2800000020000000200000000100080000000000000400000000000000000000000000000000000000000000000080000080000000808000800000008000800080800000C0C0C000C0DCC000F0CAA6000020400000206000002080000020A0000020C0000020E00000400000004020000040400000406000004080000040A0
310
000040C0000040E00000600000006020000060400000606000006080000060A0000060C0000060E00000800000008020000080400000806000008080000080A0000080C0000080E00000A0000000A0200000A0400000A0600000A0800000A0A00000A0C00000A0E00000C0000000C0200000C0400000C0600000C0800000C0
310
A00000C0C00000C0E00000E0000000E0200000E0400000E0600000E0800000E0A00000E0C00000E0E00040000000400020004000400040006000400080004000A0004000C0004000E00040200000402020004020400040206000402080004020A0004020C0004020E000404000004040200040404000404060004040800040
310
40A0004040C0004040E00040600000406020004060400040606000406080004060A0004060C0004060E00040800000408020004080400040806000408080004080A0004080C0004080E00040A0000040A0200040A0400040A0600040A0800040A0A00040A0C00040A0E00040C0000040C0200040C0400040C0600040C08000
310
40C0A00040C0C00040C0E00040E0000040E0200040E0400040E0600040E0800040E0A00040E0C00040E0E00080000000800020008000400080006000800080008000A0008000C0008000E00080200000802020008020400080206000802080008020A0008020C0008020E00080400000804020008040400080406000804080
310
008040A0008040C0008040E00080600000806020008060400080606000806080008060A0008060C0008060E00080800000808020008080400080806000808080008080A0008080C0008080E00080A0000080A0200080A0400080A0600080A0800080A0A00080A0C00080A0E00080C0000080C0200080C0400080C0600080C0
310
800080C0A00080C0C00080C0E00080E0000080E0200080E0400080E0600080E0800080E0A00080E0C00080E0E000C0000000C0002000C0004000C0006000C0008000C000A000C000C000C000E000C0200000C0202000C0204000C0206000C0208000C020A000C020C000C020E000C0400000C0402000C0404000C0406000C0
310
408000C040A000C040C000C040E000C0600000C0602000C0604000C0606000C0608000C060A000C060C000C060E000C0800000C0802000C0804000C0806000C0808000C080A000C080C000C080E000C0A00000C0A02000C0A04000C0A06000C0A08000C0A0A000C0A0C000C0A0E000C0C00000C0C02000C0C04000C0C06000
310
C0C08000C0C0A000F0FBFF00A4A0A000808080000000FF0000FF000000FFFF00FF000000FF00FF00FFFF0000FFFFFF0000000000000000000000000000000000000000000000000000000000000000000000000000000000000000000000000000000000000000000000000000000000000000000000000000000000000000
310
00000000000000000000000000000000000000000000000000000000000000000000000000000000000000000000000000000000000000000000000000000000000000000000000000000000000000000000000000000000000000000000000000000000000000000000000000000000000000000000000000000000000000
310
00000000000000000000000000000000000000000000000000000000000000000000000000000000000000000000000000000000000000000000000000000000000000000000000000000000000000000000000000000000000000000000000000000000000000000000000000000000000000000000000000000000000000
310
000000000000FDFDFDFDFDFDFDFDFDFDFDFD0000FD0000000000000000000000000000000000FD0000FA0000000000FA00FD0000FDFD00000000000000000000000000000000FD0000FA0000000000FA00FD0000FDFDFD000000000000000000000000000000FD0000FA0000000000FA00FD0000FDFDFDFD00000000000000
310
00000000000000FD0000FAFAFAFAFAFAFA00FD0000FDFDFDFDFD00000000000000000000000000FD000000FA00000000FA00FD0000FDFDFDFDFDFDFDFDFDFDFDFDFDFDFDFDFDFDFD000000FA000000FA0000FD0000FDFDFDFDFD00000000000000000000000000FD00000000FA0000FA0000FD0000FDFDFDFD000000000000
310
0000000000000000FD00000000FA00FA000000FD0000FDFD00000000000000000000000000000000FD0000000000FAFA000000FD0000FD0000000000000000000000000000000000FD0000000000FA00000000FD0000000000000000000000000000000000000000FDFDFDFDFDFDFDFDFDFDFDFD0000000000000000000000
310
00000000000000000000000000000000000000000000000000000000000000000000000000000000000000000000000000000000000000000000000000000000000000000000000000000000000000000000000000000000000000000000000000000000000000000000000000000000000000000000000000000000000000
310
00000000000000000000000000000000000000000000000000000000000000000000000000000000000000000000000000000000000000000000000000000000000000000000000000000000000000000000000000000000000000000000000000000000000000000000000000000000000000000000000000000000000000
310
0000000000000000000000000000000000000000000000000000000000000000000000000000000000000000000000000000000000000000
  0
BLOCK_RECORD
  5
8E72
102
{ACAD_XDICTIONARY
360
8E73
102
}
330
1
100
AcDbSymbolTableRecord
100
AcDbBlockTableRecord
  2
LS
340
0
310
2800000020000000200000000100080000000000000400000000000000000000000000000000000000000000000080000080000000808000800000008000800080800000C0C0C000C0DCC000F0CAA6000020400000206000002080000020A0000020C0000020E00000400000004020000040400000406000004080000040A0
310
000040C0000040E00000600000006020000060400000606000006080000060A0000060C0000060E00000800000008020000080400000806000008080000080A0000080C0000080E00000A0000000A0200000A0400000A0600000A0800000A0A00000A0C00000A0E00000C0000000C0200000C0400000C0600000C0800000C0
310
A00000C0C00000C0E00000E0000000E0200000E0400000E0600000E0800000E0A00000E0C00000E0E00040000000400020004000400040006000400080004000A0004000C0004000E00040200000402020004020400040206000402080004020A0004020C0004020E000404000004040200040404000404060004040800040
310
40A0004040C0004040E00040600000406020004060400040606000406080004060A0004060C0004060E00040800000408020004080400040806000408080004080A0004080C0004080E00040A0000040A0200040A0400040A0600040A0800040A0A00040A0C00040A0E00040C0000040C0200040C0400040C0600040C08000
310
40C0A00040C0C00040C0E00040E0000040E0200040E0400040E0600040E0800040E0A00040E0C00040E0E00080000000800020008000400080006000800080008000A0008000C0008000E00080200000802020008020400080206000802080008020A0008020C0008020E00080400000804020008040400080406000804080
310
008040A0008040C0008040E00080600000806020008060400080606000806080008060A0008060C0008060E00080800000808020008080400080806000808080008080A0008080C0008080E00080A0000080A0200080A0400080A0600080A0800080A0A00080A0C00080A0E00080C0000080C0200080C0400080C0600080C0
310
800080C0A00080C0C00080C0E00080E0000080E0200080E0400080E0600080E0800080E0A00080E0C00080E0E000C0000000C0002000C0004000C0006000C0008000C000A000C000C000C000E000C0200000C0202000C0204000C0206000C0208000C020A000C020C000C020E000C0400000C0402000C0404000C0406000C0
310
408000C040A000C040C000C040E000C0600000C0602000C0604000C0606000C0608000C060A000C060C000C060E000C0800000C0802000C0804000C0806000C0808000C080A000C080C000C080E000C0A00000C0A02000C0A04000C0A06000C0A08000C0A0A000C0A0C000C0A0E000C0C00000C0C02000C0C04000C0C06000
310
C0C08000C0C0A000F0FBFF00A4A0A000808080000000FF0000FF000000FFFF00FF000000FF00FF00FFFF0000FFFFFF00000000000000000000000000000000000000000000000000000000000000000000000000000000000000FBFBFEFBFEFBFBFEFBFEFBFB00000000000000000000000000000000000000FBFBFBFEFBFE
310
FBFBFEFBFEFBFBFB000000000000000000000000000000000000FB0000FE00FE0000FE00FE0000FB000000000000000000000000000000000000FB0000FE00FE0000FE00FE0000FB000000000000000000000000000000000000FB0000FEFEFEFEFEFEFEFE0000FB000000000000000000000000000000000000FB000000FE
310
FE0000FEFE000000FB000000000000000000000000000000000000FB0000000000FEFE0000000000FB000000000000000000000000000000000000FBFBFBFEFBFBFBFBFBFBFEFBFBFB000000000000000000000000000000000000000000FBFE0000000000FE000000000000000000000000000000000000000000000000FB
310
FBFBFBFBFBFEFB000000000000000000000000000000000000000000000000FBFE00000000FEFB000000000000000000000000000000000000000000000000FBFE00000000FEFB000000000000000000000000000000000000000000000000FBFE00000000FEFB000000000000000000000000000000000000000000000000
310
FBFE00000000FEFB000000000000000000000000000000000000000000000000FBFE00000000FEFB000000000000000000000000000000000000000000000000FBFE00000000FEFB000000000000000000000000000000000000000000000000FBFE00000000FEFB0000000000000000000000000000000000000000000000
310
00FBFE00000000FEFB000000000000000000000000000000000000000000000000FBFE00000000FEFB000000000000000000000000000000000000000000000000FBFE00000000FEFB000000000000000000000000000000000000000000000000FBFE00000000FEFB00000000000000000000000000000000000000000000
310
0000FBFE00000000FEFB000000000000000000000000000000000000000000000000FBFE00000000FEFB000000000000000000000000000000000000000000000000FBFE00000000FEFB000000000000000000000000000000000000000000000000FBFE00000000FEFB000000000000000000000000000000000000000000
310
000000FBFE00000000FEFB000000000000000000000000000000000000000000000000FBFE00000000FEFB000000000000000000000000000000000000000000000000FBFEFBFBFBFBFEFB00000000000000000000000000000000000000000000000000FE00000000FEFB0000000000000000000000000000000000000000
310
0000000000FBFBFBFBFBFB000000000000000000000000000000000000000000000000000000000000000000000000000000000000000000
  0
BLOCK_RECORD
  5
9D15
102
{ACAD_XDICTIONARY
360
9D16
102
}
330
1
100
AcDbSymbolTableRecord
100
AcDbBlockTableRecord
  2
LS2
340
0
310
2800000020000000200000000100080000000000000400000000000000000000000000000000000000000000000080000080000000808000800000008000800080800000C0C0C000C0DCC000F0CAA6000020400000206000002080000020A0000020C0000020E00000400000004020000040400000406000004080000040A0
310
000040C0000040E00000600000006020000060400000606000006080000060A0000060C0000060E00000800000008020000080400000806000008080000080A0000080C0000080E00000A0000000A0200000A0400000A0600000A0800000A0A00000A0C00000A0E00000C0000000C0200000C0400000C0600000C0800000C0
310
A00000C0C00000C0E00000E0000000E0200000E0400000E0600000E0800000E0A00000E0C00000E0E00040000000400020004000400040006000400080004000A0004000C0004000E00040200000402020004020400040206000402080004020A0004020C0004020E000404000004040200040404000404060004040800040
310
40A0004040C0004040E00040600000406020004060400040606000406080004060A0004060C0004060E00040800000408020004080400040806000408080004080A0004080C0004080E00040A0000040A0200040A0400040A0600040A0800040A0A00040A0C00040A0E00040C0000040C0200040C0400040C0600040C08000
310
40C0A00040C0C00040C0E00040E0000040E0200040E0400040E0600040E0800040E0A00040E0C00040E0E00080000000800020008000400080006000800080008000A0008000C0008000E00080200000802020008020400080206000802080008020A0008020C0008020E00080400000804020008040400080406000804080
310
008040A0008040C0008040E00080600000806020008060400080606000806080008060A0008060C0008060E00080800000808020008080400080806000808080008080A0008080C0008080E00080A0000080A0200080A0400080A0600080A0800080A0A00080A0C00080A0E00080C0000080C0200080C0400080C0600080C0
310
800080C0A00080C0C00080C0E00080E0000080E0200080E0400080E0600080E0800080E0A00080E0C00080E0E000C0000000C0002000C0004000C0006000C0008000C000A000C000C000C000E000C0200000C0202000C0204000C0206000C0208000C020A000C020C000C020E000C0400000C0402000C0404000C0406000C0
310
408000C040A000C040C000C040E000C0600000C0602000C0604000C0606000C0608000C060A000C060C000C060E000C0800000C0802000C0804000C0806000C0808000C080A000C080C000C080E000C0A00000C0A02000C0A04000C0A06000C0A08000C0A0A000C0A0C000C0A0E000C0C00000C0C02000C0C04000C0C06000
310
C0C08000C0C0A000F0FBFF00A4A0A000808080000000FF0000FF000000FFFF00FF000000FF00FF00FFFF0000FFFFFF0000000000000000000000000000000000000000000000000000000000000000000000000000000000000000FBFBFEFEFBFBFEFEFBFB00000000000000000000000000000000000000000000FBFBFEFE
310
FBFBFEFEFBFB00000000000000000000000000000000000000000000FB00FEFE0000FEFE00FB00000000000000000000000000000000000000000000FB00FEFE0000FEFE00FB00000000000000000000000000000000000000000000FB00FEFEFEFEFEFE00FB00000000000000000000000000000000000000000000FB0000
310
FEFEFE000000FB00000000000000000000000000000000000000000000FBFBFEFBFBFBFBFEFBFB000000000000000000000000000000000000000000000000FBFBFBFBFBFE0000000000000000000000000000000000000000000000000000FE00000000FE0000000000000000000000000000000000000000000000000000
310
FE00000000FE0000000000000000000000000000000000000000000000000000FE00000000FE0000000000000000000000000000000000000000000000000000FE00000000FE0000000000000000000000000000000000000000000000000000FE00000000FE00000000000000000000000000000000000000000000000000
310
00FE00000000FE0000000000000000000000000000000000000000000000000000FE00000000FE0000000000000000000000000000000000000000000000000000FE00000000FE0000000000000000000000000000000000000000000000000000FE00000000FE000000000000000000000000000000000000000000000000
310
0000FE00000000FE0000000000000000000000000000000000000000000000000000FE00000000FE0000000000000000000000000000000000000000000000000000FE00000000FE0000000000000000000000000000000000000000000000000000FE00000000FE0000000000000000000000000000000000000000000000
310
000000FE00000000FE0000000000000000000000000000000000000000000000000000FE00000000FE0000000000000000000000000000000000000000000000000000FE00000000FE0000000000000000000000000000000000000000000000000000FE00000000FE00000000000000000000000000000000000000000000
310
00000000FE00000000FE0000000000000000000000000000000000000000000000000000FE00000000FE0000000000000000000000000000000000000000000000000000FEFBFBFBFBFE0000000000000000000000000000000000000000000000000000FEFB000000FE000000000000000000000000000000000000000000
310
000000000000FBFBFBFB00000000000000000000000000000000000000000000000000000000000000000000000000000000000000000000
  0
BLOCK_RECORD
  5
A518
102
{ACAD_XDICTIONARY
360
A519
102
}
330
1
100
AcDbSymbolTableRecord
100
AcDbBlockTableRecord
  2
LS3
340
0
310
2800000020000000200000000100080000000000000400000000000000000000000000000000000000000000000080000080000000808000800000008000800080800000C0C0C000C0DCC000F0CAA6000020400000206000002080000020A0000020C0000020E00000400000004020000040400000406000004080000040A0
310
000040C0000040E00000600000006020000060400000606000006080000060A0000060C0000060E00000800000008020000080400000806000008080000080A0000080C0000080E00000A0000000A0200000A0400000A0600000A0800000A0A00000A0C00000A0E00000C0000000C0200000C0400000C0600000C0800000C0
310
A00000C0C00000C0E00000E0000000E0200000E0400000E0600000E0800000E0A00000E0C00000E0E00040000000400020004000400040006000400080004000A0004000C0004000E00040200000402020004020400040206000402080004020A0004020C0004020E000404000004040200040404000404060004040800040
310
40A0004040C0004040E00040600000406020004060400040606000406080004060A0004060C0004060E00040800000408020004080400040806000408080004080A0004080C0004080E00040A0000040A0200040A0400040A0600040A0800040A0A00040A0C00040A0E00040C0000040C0200040C0400040C0600040C08000
310
40C0A00040C0C00040C0E00040E0000040E0200040E0400040E0600040E0800040E0A00040E0C00040E0E00080000000800020008000400080006000800080008000A0008000C0008000E00080200000802020008020400080206000802080008020A0008020C0008020E00080400000804020008040400080406000804080
310
008040A0008040C0008040E00080600000806020008060400080606000806080008060A0008060C0008060E00080800000808020008080400080806000808080008080A0008080C0008080E00080A0000080A0200080A0400080A0600080A0800080A0A00080A0C00080A0E00080C0000080C0200080C0400080C0600080C0
310
800080C0A00080C0C00080C0E00080E0000080E0200080E0400080E0600080E0800080E0A00080E0C00080E0E000C0000000C0002000C0004000C0006000C0008000C000A000C000C000C000E000C0200000C0202000C0204000C0206000C0208000C020A000C020C000C020E000C0400000C0402000C0404000C0406000C0
310
408000C040A000C040C000C040E000C0600000C0602000C0604000C0606000C0608000C060A000C060C000C060E000C0800000C0802000C0804000C0806000C0808000C080A000C080C000C080E000C0A00000C0A02000C0A04000C0A06000C0A08000C0A0A000C0A0C000C0A0E000C0C00000C0C02000C0C04000C0C06000
310
C0C08000C0C0A000F0FBFF00A4A0A000808080000000FF0000FF000000FFFF00FF000000FF00FF00FFFF0000FFFFFF0000000000000000000000000000000000000000000000000000000000000000000000000000000000000000FBFBFEFEFBFBFEFEFBFB00000000000000000000000000000000000000000000FBFBFEFE
310
FBFBFEFEFBFB00000000000000000000000000000000000000000000FB00FEFE0000FEFE00FB00000000000000000000000000000000000000000000FB00FEFEFEFEFEFE00FB00000000000000000000000000000000000000000000FB0000FEFE00FE0000FB00000000000000000000000000000000000000000000FB0000
310
0000FE000000FB00000000000000000000000000000000000000000000FBFBFEFBFBFBFBFBFBFB000000000000000000000000000000000000000000000000FE00000000FE0000000000000000000000000000000000000000000000000000FE00000000FE0000000000000000000000000000000000000000000000000000
310
FE00000000FE0000000000000000000000000000000000000000000000000000FE00000000FE0000000000000000000000000000000000000000000000000000FE00000000FE0000000000000000000000000000000000000000000000000000FE00000000FE00000000000000000000000000000000000000000000000000
310
00FE00000000FE0000000000000000000000000000000000000000000000000000FE00000000FE0000000000000000000000000000000000000000000000000000FE00000000FE0000000000000000000000000000000000000000000000000000FE00000000FE000000000000000000000000000000000000000000000000
310
0000FE00000000FE0000000000000000000000000000000000000000000000000000FE00000000FE0000000000000000000000000000000000000000000000000000FE00000000FE0000000000000000000000000000000000000000000000000000FE00000000FE0000000000000000000000000000000000000000000000
310
000000FE00000000FE0000000000000000000000000000000000000000000000000000FE00000000FE0000000000000000000000000000000000000000000000000000FE00000000FE0000000000000000000000000000000000000000000000000000FE00000000FE00000000000000000000000000000000000000000000
310
00000000FE00000000FE0000000000000000000000000000000000000000000000000000FE00000000FE0000000000000000000000000000000000000000000000000000FE00000000FE0000000000000000000000000000000000000000000000000000FEFBFBFBFBFE000000000000000000000000000000000000000000
310
000000000000FBFBFBFB00000000000000000000000000000000000000000000000000000000000000000000000000000000000000000000
  0
BLOCK_RECORD
  5
A627
102
{ACAD_XDICTIONARY
360
A628
102
}
330
1
100
AcDbSymbolTableRecord
100
AcDbBlockTableRecord
  2
LS4
340
0
310
2800000020000000200000000100080000000000000400000000000000000000000000000000000000000000000080000080000000808000800000008000800080800000C0C0C000C0DCC000F0CAA6000020400000206000002080000020A0000020C0000020E00000400000004020000040400000406000004080000040A0
310
000040C0000040E00000600000006020000060400000606000006080000060A0000060C0000060E00000800000008020000080400000806000008080000080A0000080C0000080E00000A0000000A0200000A0400000A0600000A0800000A0A00000A0C00000A0E00000C0000000C0200000C0400000C0600000C0800000C0
310
A00000C0C00000C0E00000E0000000E0200000E0400000E0600000E0800000E0A00000E0C00000E0E00040000000400020004000400040006000400080004000A0004000C0004000E00040200000402020004020400040206000402080004020A0004020C0004020E000404000004040200040404000404060004040800040
310
40A0004040C0004040E00040600000406020004060400040606000406080004060A0004060C0004060E00040800000408020004080400040806000408080004080A0004080C0004080E00040A0000040A0200040A0400040A0600040A0800040A0A00040A0C00040A0E00040C0000040C0200040C0400040C0600040C08000
310
40C0A00040C0C00040C0E00040E0000040E0200040E0400040E0600040E0800040E0A00040E0C00040E0E00080000000800020008000400080006000800080008000A0008000C0008000E00080200000802020008020400080206000802080008020A0008020C0008020E00080400000804020008040400080406000804080
310
008040A0008040C0008040E00080600000806020008060400080606000806080008060A0008060C0008060E00080800000808020008080400080806000808080008080A0008080C0008080E00080A0000080A0200080A0400080A0600080A0800080A0A00080A0C00080A0E00080C0000080C0200080C0400080C0600080C0
310
800080C0A00080C0C00080C0E00080E0000080E0200080E0400080E0600080E0800080E0A00080E0C00080E0E000C0000000C0002000C0004000C0006000C0008000C000A000C000C000C000E000C0200000C0202000C0204000C0206000C0208000C020A000C020C000C020E000C0400000C0402000C0404000C0406000C0
310
408000C040A000C040C000C040E000C0600000C0602000C0604000C0606000C0608000C060A000C060C000C060E000C0800000C0802000C0804000C0806000C0808000C080A000C080C000C080E000C0A00000C0A02000C0A04000C0A06000C0A08000C0A0A000C0A0C000C0A0E000C0C00000C0C02000C0C04000C0C06000
310
C0C08000C0C0A000F0FBFF00A4A0A000808080000000FF0000FF000000FFFF00FF000000FF00FF00FFFF0000FFFFFF0000000000000000000000000000000000000000000000000000000000000000000000000000000000000000FBFBFEFEFBFBFEFEFBFB000000000000000000000000000000000000000000FBFBFBFEFE
310
FBFBFEFEFBFBFB0000000000000000000000000000000000000000FB0000FEFE0000FEFE0000FB0000000000000000000000000000000000000000FB0000FEFEFEFEFEFE0000FB0000000000000000000000000000000000000000FB000000FEFE00FE000000FB0000000000000000000000000000000000000000FB000000
310
0000FE00000000FB0000000000000000000000000000000000000000FB00000000000000000000FB0000000000000000000000000000000000000000FBFBFEFEFBFBFBFBFBFBFBFB00000000000000000000000000000000000000000000FBFE00000000FEFB000000000000000000000000000000000000000000000000FB
310
FE00000000FEFB000000000000000000000000000000000000000000000000FBFE00000000FEFB000000000000000000000000000000000000000000000000FBFE00000000FEFB000000000000000000000000000000000000000000000000FBFE00000000FEFB000000000000000000000000000000000000000000000000
310
FBFE00000000FEFB000000000000000000000000000000000000000000000000FBFE00000000FEFB000000000000000000000000000000000000000000000000FBFE00000000FEFB000000000000000000000000000000000000000000000000FBFE00000000FEFB0000000000000000000000000000000000000000000000
310
00FBFE00000000FEFB000000000000000000000000000000000000000000000000FBFE00000000FEFB000000000000000000000000000000000000000000000000FBFE00000000FEFB000000000000000000000000000000000000000000000000FBFE00000000FEFB00000000000000000000000000000000000000000000
310
0000FBFE00000000FEFB000000000000000000000000000000000000000000000000FBFE00000000FEFB000000000000000000000000000000000000000000000000FBFE00000000FEFB000000000000000000000000000000000000000000000000FBFE00000000FEFB000000000000000000000000000000000000000000
310
000000FBFE00000000FEFB000000000000000000000000000000000000000000000000FBFE00000000FEFB000000000000000000000000000000000000000000000000FBFEFBFBFBFBFEFB00000000000000000000000000000000000000000000000000FE00000000FE000000000000000000000000000000000000000000
310
000000000000FBFBFBFB00000000000000000000000000000000000000000000000000000000000000000000000000000000000000000000
  0
BLOCK_RECORD
  5
E114
330
1
100
AcDbSymbolTableRecord
100
AcDbBlockTableRecord
  2
GENAXEH
340
0
  0
BLOCK_RECORD
  5
E274
102
{ACAD_XDICTIONARY
360
E275
102
}
330
1
100
AcDbSymbolTableRecord
100
AcDbBlockTableRecord
  2
A4-1
340
0
1001
ACAD
1000
DesignCenter Data
1002
{
1070
     1
1070
     4
1002
}
  0
BLOCK_RECORD
  5
E876
102
{ACAD_XDICTIONARY
360
E877
102
}
330
1
100
AcDbSymbolTableRecord
100
AcDbBlockTableRecord
  2
LS5
340
0
310
2800000020000000200000000100080000000000000400000000000000000000000000000000000000000000000080000080000000808000800000008000800080800000C0C0C000C0DCC000F0CAA6000020400000206000002080000020A0000020C0000020E00000400000004020000040400000406000004080000040A0
310
000040C0000040E00000600000006020000060400000606000006080000060A0000060C0000060E00000800000008020000080400000806000008080000080A0000080C0000080E00000A0000000A0200000A0400000A0600000A0800000A0A00000A0C00000A0E00000C0000000C0200000C0400000C0600000C0800000C0
310
A00000C0C00000C0E00000E0000000E0200000E0400000E0600000E0800000E0A00000E0C00000E0E00040000000400020004000400040006000400080004000A0004000C0004000E00040200000402020004020400040206000402080004020A0004020C0004020E000404000004040200040404000404060004040800040
310
40A0004040C0004040E00040600000406020004060400040606000406080004060A0004060C0004060E00040800000408020004080400040806000408080004080A0004080C0004080E00040A0000040A0200040A0400040A0600040A0800040A0A00040A0C00040A0E00040C0000040C0200040C0400040C0600040C08000
310
40C0A00040C0C00040C0E00040E0000040E0200040E0400040E0600040E0800040E0A00040E0C00040E0E00080000000800020008000400080006000800080008000A0008000C0008000E00080200000802020008020400080206000802080008020A0008020C0008020E00080400000804020008040400080406000804080
310
008040A0008040C0008040E00080600000806020008060400080606000806080008060A0008060C0008060E00080800000808020008080400080806000808080008080A0008080C0008080E00080A0000080A0200080A0400080A0600080A0800080A0A00080A0C00080A0E00080C0000080C0200080C0400080C0600080C0
310
800080C0A00080C0C00080C0E00080E0000080E0200080E0400080E0600080E0800080E0A00080E0C00080E0E000C0000000C0002000C0004000C0006000C0008000C000A000C000C000C000E000C0200000C0202000C0204000C0206000C0208000C020A000C020C000C020E000C0400000C0402000C0404000C0406000C0
310
408000C040A000C040C000C040E000C0600000C0602000C0604000C0606000C0608000C060A000C060C000C060E000C0800000C0802000C0804000C0806000C0808000C080A000C080C000C080E000C0A00000C0A02000C0A04000C0A06000C0A08000C0A0A000C0A0C000C0A0E000C0C00000C0C02000C0C04000C0C06000
310
C0C08000C0C0A000F0FBFF00A4A0A000808080000000FF0000FF000000FFFF00FF000000FF00FF00FFFF0000FFFFFF0049494949494949494949494949494949494949494949494949494949494949494949494949494949494949494949FBFBFBFB494949494949494949494949494949494949494949494949494949FEFB
310
FBFBFBFE4949494949494949494949494949494949494949494949494949FE49494949FE4949494949494949494949494949494949494949494949494949FE49494949FE4949494949494949494949494949494949494949494949494949FE49494949FE4949494949494949494949494949494949494949494949494949FE
310
49494949FE4949494949494949494949494949494949494949494949494949FE49494949FE4949494949494949494949494949494949494949494949494949FE49494949FE4949494949494949494949494949494949494949494949494949FE49494949FE4949494949494949494949494949494949494949494949494949
310
FE49494949FE4949494949494949494949494949494949494949494949494949FE49494949FE4949494949494949494949494949494949494949494949494949FE49494949FE4949494949494949494949494949494949494949494949494949FE49494949FE49494949494949494949494949494949494949494949494949
310
49FE49494949FE4949494949494949494949494949494949494949494949494949FE49494949FE4949494949494949494949494949494949494949494949494949FE49494949FE4949494949494949494949494949494949494949494949494949FE49494949FE494949494949494949494949494949494949494949494949
310
4949FE49494949FE4949494949494949494949494949494949494949494949494949FE49494949FE4949494949494949494949494949494949494949494949494949FE49494949FE4949494949494949494949494949494949494949494949494949FE49494949FE4949494949494949494949494949494949494949494949
310
494949FE49494949FE4949494949494949494949494949494949494949494949494949FBFBFBFBFBFE494949494949494949494949494949494949494949494949FBFBFEFBFBFBFBFEFBFB49494949494949494949494949494949494949494949FB494949FE49494949FB4949494949494949494949494949494949494949
310
4949FB4949FE49FEFE4949FB49494949494949494949494949494949494949494949FB49FEFEFEFEFEFE49FB49494949494949494949494949494949494949494949FB49FEFE4949FEFE49FB49494949494949494949494949494949494949494949FBFBFEFEFBFBFEFEFBFB49494949494949494949494949494949494949
310
494949FBFBFEFEFBFBFEFEFBFB49494949494949494949494949494949494949494949494949494949494949494949494949494949494949
1001
PE_URL
1000
S5
1002
{
1000
S5
1002
{
1071
2081726645
1002
}
1002
}
  0
BLOCK_RECORD
  5
E928
330
1
100
AcDbSymbolTableRecord
100
AcDbBlockTableRecord
  2
*D26
340
0
  0
BLOCK_RECORD
  5
E934
330
1
100
AcDbSymbolTableRecord
100
AcDbBlockTableRecord
  2
*D27
340
0
  0
BLOCK_RECORD
  5
E940
330
1
100
AcDbSymbolTableRecord
100
AcDbBlockTableRecord
  2
*D28
340
0
  0
BLOCK_RECORD
  5
E971
330
1
100
AcDbSymbolTableRecord
100
AcDbBlockTableRecord
  2
*D29
340
0
  0
BLOCK_RECORD
  5
E984
330
1
100
AcDbSymbolTableRecord
100
AcDbBlockTableRecord
  2
*D30
340
0
  0
BLOCK_RECORD
  5
EA77
330
1
100
AcDbSymbolTableRecord
100
AcDbBlockTableRecord
  2
*D32
340
0
  0
BLOCK_RECORD
  5
EA86
330
1
100
AcDbSymbolTableRecord
100
AcDbBlockTableRecord
  2
*D33
340
0
  0
BLOCK_RECORD
  5
EAB7
330
1
100
AcDbSymbolTableRecord
100
AcDbBlockTableRecord
  2
*D34
340
0
  0
ENDTAB
  0
ENDSEC
  0
SECTION
  2
BLOCKS
  0
BLOCK
  5
19
330
18
100
AcDbEntity
  8
0
100
AcDbBlockBegin
  2
*MODEL_SPACE
 70
     0
 10
0.0
 20
0.0
 30
0.0
  3
*MODEL_SPACE
  1

  0
ENDBLK
  5
1A
330
18
100
AcDbEntity
  8
0
100
AcDbBlockEnd
  0
BLOCK
  5
16
330
15
100
AcDbEntity
 67
     1
  8
0
100
AcDbBlockBegin
  2
*PAPER_SPACE
 70
     0
 10
0.0
 20
0.0
 30
0.0
  3
*PAPER_SPACE
  1

  0
ENDBLK
  5
17
330
15
100
AcDbEntity
 67
     1
  8
0
100
AcDbBlockEnd
  0
BLOCK
  5
63A1
330
639D
100
AcDbEntity
  8
0
100
AcDbBlockBegin
  2
A$C255C26A2
 70
     0
 10
0.0
 20
0.0
 30
0.0
  3
A$C255C26A2
  1

  0
LWPOLYLINE
  5
639E
330
639D
100
AcDbEntity
  8
0
100
AcDbPolyline
 90
        3
 70
     1
 43
0.0
 10
7.014806023851633
 20
0.0000006939811783
 10
5.611844869720698
 20
2.430000693981241
 10
8.417767177982568
 20
2.430000693981241
  0
LWPOLYLINE
  5
639F
330
639D
100
AcDbEntity
  8
0
100
AcDbPolyline
 90
        3
 70
     1
 43
0.0
 10
4.20888371558999
 20
0.0000006939811783
 10
2.805922561459283
 20
2.430000693981241
 10
5.611844869720698
 20
2.430000693981241
  0
LWPOLYLINE
  5
63A0
330
639D
100
AcDbEntity
  8
0
100
AcDbPolyline
 90
        3
 70
     1
 43
0.0
 10
1.402961407328348
 20
0.0000006939811783
 10
0.0000002531974133
 20
2.430000693981241
 10
2.805922561459283
 20
2.430000693981241
  0
ENDBLK
  5
63A2
330
639D
100
AcDbEntity
  8
0
100
AcDbBlockEnd
  0
BLOCK
  5
7C05
330
7C04
100
AcDbEntity
  8
0
100
AcDbBlockBegin
  2
_Open30
 70
     0
 10
0.0
 20
0.0
 30
0.0
  3
_Open30
  1

  0
LINE
  5
7C06
330
7C04
100
AcDbEntity
  8
0
  6
ByBlock
 62
     0
370
    -2
100
AcDbLine
 10
-1.0
 20
0.26794919
 30
0.0
 11
0.0
 21
0.0
 31
0.0
  0
LINE
  5
7C07
330
7C04
100
AcDbEntity
  8
0
  6
ByBlock
 62
     0
370
    -2
100
AcDbLine
 10
0.0
 20
0.0
 30
0.0
 11
-1.0
 21
-0.26794919
 31
0.0
  0
LINE
  5
7C08
330
7C04
100
AcDbEntity
  8
0
  6
ByBlock
 62
     0
370
    -2
100
AcDbLine
 10
0.0
 20
0.0
 30
0.0
 11
-1.0
 21
0.0
 31
0.0
  0
ENDBLK
  5
7C09
330
7C04
100
AcDbEntity
  8
0
100
AcDbBlockEnd
  0
BLOCK
  5
7C0E
330
7C0A
100
AcDbEntity
  8
0
100
AcDbBlockBegin
  2
A
 70
     0
 10
0.0
 20
0.0
 30
0.0
  3
A
  1

  0
MTEXT
  5
7C0F
330
7C0A
100
AcDbEntity
  8
mark
 62
     3
100
AcDbMText
 10
10.65641897020822
 20
-5.596245361730467
 30
0.0
 40
2.5
 41
0.0
 71
     5
 72
     1
  1
A
 73
     1
 44
1.0
  0
LWPOLYLINE
  5
7C10
330
7C0A
100
AcDbEntity
  8
mark
100
AcDbPolyline
 90
        4
 70
     1
 43
0.0
 10
9.07926800414657
 20
-7.141145101782569
 10
12.07926800414657
 20
-7.141145101782569
 10
12.07926800414657
 20
-4.141145101782569
 10
9.07926800414657
 20
-4.141145101782569
  0
HATCH
  5
7C11
330
7C0A
100
AcDbEntity
  8
mark
100
AcDbHatch
 10
0.0
 20
0.0
 30
0.0
210
0.0
220
0.0
230
1.0
  2
SOLID
 70
     1
 71
     0
 91
        1
 92
        7
 72
     0
 73
     1
 93
        3
 10
5.32926800414657
 20
-5.641145101782569
 10
4.07926800414657
 20
-4.391145101782541
 10
4.07926800414657
 20
-6.891145101782541
 97
        0
 75
     0
 76
     1
 47
0.0398277943677868
 98
        1
 10
4.589689734415287
 20
-5.732163331855076
450
        0
451
        0
460
0.0
461
0.0
452
        0
462
0.0
453
        0
470

1001
ACAD
1010
0.0
1020
0.0
1030
0.0
  0
LINE
  5
7C12
330
7C0A
100
AcDbEntity
  8
mark
100
AcDbLine
 10
5.32926800414657
 20
-5.641145101782569
 30
0.0
 11
9.07926800414657
 21
-5.641145101782569
 31
0.0
  0
LINE
  5
7C13
330
7C0A
100
AcDbEntity
  8
mark
100
AcDbLine
 10
5.32926800414657
 20
-5.641145101782569
 30
0.0
 11
4.07926800414657
 21
-4.391145101782569
 31
0.0
  0
LINE
  5
7C14
330
7C0A
100
AcDbEntity
  8
mark
100
AcDbLine
 10
5.32926800414657
 20
-5.641145101782569
 30
0.0
 11
4.07926800414657
 21
-6.891145101782569
 31
0.0
  0
ENDBLK
  5
7C15
330
7C0A
100
AcDbEntity
  8
0
100
AcDbBlockEnd
  0
BLOCK
  5
8E76
330
8E72
100
AcDbEntity
  8
0
100
AcDbBlockBegin
  2
LS
 70
     0
 10
0.0
 20
0.0
 30
0.0
  3
LS
  1

  0
LINE
  5
8E78
330
8E72
100
AcDbEntity
  8
contour
100
AcDbLine
 10
310.7457309951603
 20
181.0160360664828
 30
0.0
 11
310.7457309951603
 21
184.7160360664827
 31
0.0
  0
LINE
  5
8E79
330
8E72
100
AcDbEntity
  8
contour
100
AcDbLine
 10
310.7457309951603
 20
184.7160360664827
 30
0.0
 11
303.7457309951603
 21
184.7160360664827
 31
0.0
  0
LINE
  5
8E7A
330
8E72
100
AcDbEntity
  8
contour
100
AcDbLine
 10
308.4457309951603
 20
196.7160360664827
 30
0.0
 11
306.0457309951603
 21
196.7160360664826
 31
0.0
  0
LINE
  5
8E7B
330
8E72
100
AcDbEntity
  8
contour
100
AcDbLine
 10
309.2457309951603
 20
195.9160360664826
 30
0.0
 11
308.4457309951603
 21
196.7160360664826
 31
0.0
  0
LINE
  5
8E7C
330
8E72
100
AcDbEntity
  8
contour
100
AcDbLine
 10
303.7457309951603
 20
184.7160360664827
 30
0.0
 11
303.7457309951603
 21
181.0160360664827
 31
0.0
  0
LINE
  5
8E7D
330
8E72
100
AcDbEntity
  8
contour
100
AcDbLine
 10
304.0457309951603
 20
180.7160360664827
 30
0.0
 11
310.4457309951603
 21
180.7160360664828
 31
0.0
  0
LINE
  5
8E7E
330
8E72
100
AcDbEntity
  8
contour
100
AcDbLine
 10
310.7457309951603
 20
181.0160360664828
 30
0.0
 11
310.4457309951603
 21
180.7160360664828
 31
0.0
  0
LINE
  5
8E7F
330
8E72
100
AcDbEntity
  8
contour
100
AcDbLine
 10
303.7457309951603
 20
181.0160360664827
 30
0.0
 11
304.0457309951603
 21
180.7160360664827
 31
0.0
  0
LINE
  5
8E80
330
8E72
100
AcDbEntity
  8
contour
100
AcDbLine
 10
309.2457309951603
 20
184.7160360664826
 30
0.0
 11
309.2457309951603
 21
195.9160360664827
 31
0.0
  0
LINE
  5
8E81
330
8E72
100
AcDbEntity
  8
contour
100
AcDbLine
 10
305.2457309951603
 20
184.7160360664826
 30
0.0
 11
305.2457309951603
 21
195.9160360664827
 31
0.0
  0
LINE
  5
8E82
330
8E72
100
AcDbEntity
  8
contour
100
AcDbLine
 10
306.0457309951603
 20
196.7160360664826
 30
0.0
 11
305.2457309951603
 21
195.9160360664826
 31
0.0
  0
LINE
  5
8E83
330
8E72
100
AcDbEntity
  8
contour
100
AcDbLine
 10
309.2457309951603
 20
195.9160360664827
 30
0.0
 11
305.2457309951603
 21
195.9160360664827
 31
0.0
  0
LINE
  5
8E84
330
8E72
100
AcDbEntity
  8
contour
 62
     4
100
AcDbLine
 10
308.8667309951603
 20
185.3724833225513
 30
0.0
 11
308.8667309951603
 21
196.2950360664826
 31
0.0
  0
LINE
  5
8E85
330
8E72
100
AcDbEntity
  8
contour
 62
     4
100
AcDbLine
 10
305.6247309951603
 20
185.3724833225513
 30
0.0
 11
305.6247309951603
 21
196.2950360664826
 31
0.0
  0
LINE
  5
8E86
330
8E72
100
AcDbEntity
  8
contour
100
AcDbLine
 10
310.7457309951603
 20
181.0160360664828
 30
0.0
 11
303.7457309951603
 21
181.0160360664828
 31
0.0
  0
LINE
  5
8E87
330
8E72
100
AcDbEntity
  8
bowle
 48
0.1
100
AcDbLine
 10
308.1117563989447
 20
180.7160360664827
 30
0.0
 11
308.1117563989447
 21
182.9160360664827
 31
0.0
  0
LINE
  5
8E88
330
8E72
100
AcDbEntity
  8
bowle
 48
0.1
100
AcDbLine
 10
308.9777818027293
 20
180.7160360664827
 30
0.0
 11
308.9777818027293
 21
182.9160360664827
 31
0.0
  0
LINE
  5
8E89
330
8E72
100
AcDbEntity
  8
bowle
 48
0.1
100
AcDbLine
 10
306.3797055913759
 20
180.7160360664827
 30
0.0
 11
306.3797055913759
 21
182.9160360664826
 31
0.0
  0
LINE
  5
8E8A
330
8E72
100
AcDbEntity
  8
bowle
 48
0.1
100
AcDbLine
 10
305.5136801875914
 20
180.7160360664827
 30
0.0
 11
305.5136801875914
 21
182.9160360664826
 31
0.0
  0
LINE
  5
8E8B
330
8E72
100
AcDbEntity
  8
bowle
 48
0.1
100
AcDbLine
 10
308.9777818027292
 20
182.9160360664827
 30
0.0
 11
305.5136801875914
 21
182.9160360664827
 31
0.0
  0
LINE
  5
8E8C
330
8E72
100
AcDbEntity
  8
bowle
 48
0.1
100
AcDbLine
 10
305.5136801875914
 20
182.9160360664826
 30
0.0
 11
307.2457309951603
 21
183.9160360664826
 31
0.0
  0
LINE
  5
8E8D
330
8E72
100
AcDbEntity
  8
bowle
 48
0.1
100
AcDbLine
 10
308.9777818027292
 20
182.9160360664826
 30
0.0
 11
307.2457309951603
 21
183.9160360664826
 31
0.0
  0
LINE
  5
8E8E
330
8E72
100
AcDbEntity
  8
contour
 62
     4
100
AcDbLine
 10
305.6247309951603
 20
185.3724833225513
 30
0.0
 11
305.2457309951603
 21
184.7160360664826
 31
0.0
  0
LINE
  5
8E8F
330
8E72
100
AcDbEntity
  8
contour
100
AcDbLine
 10
305.2457309951603
 20
185.3724833225513
 30
0.0
 11
309.2457309951603
 21
185.3724833225513
 31
0.0
  0
LINE
  5
8E90
330
8E72
100
AcDbEntity
  8
contour
 62
     4
100
AcDbLine
 10
309.2457309951603
 20
184.7160360664827
 30
0.0
 11
308.8667309951603
 21
185.3724833225513
 31
0.0
  0
ENDBLK
  5
8E77
330
8E72
100
AcDbEntity
  8
0
100
AcDbBlockEnd
  0
BLOCK
  5
9D19
330
9D15
100
AcDbEntity
  8
0
100
AcDbBlockBegin
  2
LS2
 70
     0
 10
0.0
 20
0.0
 30
0.0
  3
LS2
  1

  0
LINE
  5
9D1B
330
9D15
100
AcDbEntity
  8
contour
100
AcDbLine
 10
143.2797554375081
 20
0.0655328110734672
 30
0.0
 11
143.2797554375081
 21
3.765532811073398
 31
0.0
  0
LINE
  5
9D1C
330
9D15
100
AcDbEntity
  8
contour
100
AcDbLine
 10
143.2797554375081
 20
3.765532811073398
 30
0.0
 11
136.2797554375081
 21
3.765532811073398
 31
0.0
  0
LINE
  5
9D1D
330
9D15
100
AcDbEntity
  8
contour
100
AcDbLine
 10
140.979755437508
 20
19.7655328110734
 30
0.0
 11
138.5797554375081
 21
19.76553281107334
 31
0.0
  0
LINE
  5
9D1E
330
9D15
100
AcDbEntity
  8
contour
100
AcDbLine
 10
141.7797554375081
 20
18.96553281107333
 30
0.0
 11
140.9797554375081
 21
19.76553281107334
 31
0.0
  0
LINE
  5
9D1F
330
9D15
100
AcDbEntity
  8
contour
100
AcDbLine
 10
136.2797554375081
 20
3.765532811073398
 30
0.0
 11
136.2797554375081
 21
0.0655328110733535
 31
0.0
  0
LINE
  5
9D20
330
9D15
100
AcDbEntity
  8
contour
100
AcDbLine
 10
136.5797554375081
 20
-0.2344671889266578
 30
0.0
 11
142.9797554375081
 21
-0.2344671889265442
 31
0.0
  0
LINE
  5
9D21
330
9D15
100
AcDbEntity
  8
contour
100
AcDbLine
 10
143.2797554375081
 20
0.0655328110734672
 30
0.0
 11
142.9797554375081
 21
-0.2344671889265442
 31
0.0
  0
LINE
  5
9D22
330
9D15
100
AcDbEntity
  8
contour
100
AcDbLine
 10
136.2797554375081
 20
0.0655328110733535
 30
0.0
 11
136.5797554375081
 21
-0.2344671889266578
 31
0.0
  0
LINE
  5
9D23
330
9D15
100
AcDbEntity
  8
contour
100
AcDbLine
 10
141.7797554375081
 20
3.765532811073342
 30
0.0
 11
141.7797554375081
 21
18.96553281107339
 31
0.0
  0
LINE
  5
9D24
330
9D15
100
AcDbEntity
  8
contour
100
AcDbLine
 10
137.7797554375081
 20
3.765532811073342
 30
0.0
 11
137.7797554375081
 21
18.96553281107339
 31
0.0
  0
LINE
  5
9D25
330
9D15
100
AcDbEntity
  8
contour
100
AcDbLine
 10
138.5797554375081
 20
19.76553281107334
 30
0.0
 11
137.7797554375081
 21
18.96553281107333
 31
0.0
  0
LINE
  5
9D26
330
9D15
100
AcDbEntity
  8
contour
100
AcDbLine
 10
141.7797554375081
 20
18.96553281107339
 30
0.0
 11
137.7797554375081
 21
18.96553281107339
 31
0.0
  0
LINE
  5
9D27
330
9D15
100
AcDbEntity
  8
contour
 62
     4
100
AcDbLine
 10
141.400755437508
 20
4.42198006714193
 30
0.0
 11
141.4007554375081
 21
19.34453281107327
 31
0.0
  0
LINE
  5
9D28
330
9D15
100
AcDbEntity
  8
contour
 62
     4
100
AcDbLine
 10
138.1587554375081
 20
4.42198006714193
 30
0.0
 11
138.1587554375081
 21
19.34453281107336
 31
0.0
  0
LINE
  5
9D29
330
9D15
100
AcDbEntity
  8
contour
100
AcDbLine
 10
143.2797554375081
 20
0.0655328110734672
 30
0.0
 11
136.2797554375081
 21
0.0655328110735241
 31
0.0
  0
LINE
  5
9D2A
330
9D15
100
AcDbEntity
  8
bowle
 48
0.1
100
AcDbLine
 10
140.6457808412925
 20
-0.234467188926601
 30
0.0
 11
140.6457808412925
 21
1.965532811073387
 31
0.0
  0
LINE
  5
9D2B
330
9D15
100
AcDbEntity
  8
bowle
 48
0.1
100
AcDbLine
 10
141.511806245077
 20
-0.2344671889266578
 30
0.0
 11
141.511806245077
 21
1.965532811073387
 31
0.0
  0
LINE
  5
9D2C
330
9D15
100
AcDbEntity
  8
bowle
 48
0.1
100
AcDbLine
 10
138.9137300337237
 20
-0.234467188926601
 30
0.0
 11
138.9137300337237
 21
1.96553281107333
 31
0.0
  0
LINE
  5
9D2D
330
9D15
100
AcDbEntity
  8
bowle
 48
0.1
100
AcDbLine
 10
138.0477046299392
 20
-0.2344671889266578
 30
0.0
 11
138.0477046299391
 21
1.96553281107333
 31
0.0
  0
LINE
  5
9D2E
330
9D15
100
AcDbEntity
  8
bowle
 48
0.1
100
AcDbLine
 10
141.511806245077
 20
1.965532811073387
 30
0.0
 11
138.0477046299391
 21
1.965532811073387
 31
0.0
  0
LINE
  5
9D2F
330
9D15
100
AcDbEntity
  8
bowle
 48
0.1
100
AcDbLine
 10
138.0477046299391
 20
1.96553281107333
 30
0.0
 11
139.779755437508
 21
2.96553281107333
 31
0.0
  0
LINE
  5
9D30
330
9D15
100
AcDbEntity
  8
bowle
 48
0.1
100
AcDbLine
 10
141.511806245077
 20
1.96553281107333
 30
0.0
 11
139.779755437508
 21
2.96553281107333
 31
0.0
  0
LINE
  5
9D31
330
9D15
100
AcDbEntity
  8
contour
 62
     4
100
AcDbLine
 10
138.1587554375081
 20
4.421980067141987
 30
0.0
 11
137.7797554375081
 21
3.765532811073342
 31
0.0
  0
LINE
  5
9D32
330
9D15
100
AcDbEntity
  8
contour
100
AcDbLine
 10
137.7797554375081
 20
4.42198006714193
 30
0.0
 11
141.7797554375081
 21
4.42198006714193
 31
0.0
  0
LINE
  5
9D33
330
9D15
100
AcDbEntity
  8
contour
 62
     4
100
AcDbLine
 10
141.7797554375081
 20
3.765532811073398
 30
0.0
 11
141.400755437508
 21
4.42198006714193
 31
0.0
  0
ENDBLK
  5
9D1A
330
9D15
100
AcDbEntity
  8
0
100
AcDbBlockEnd
  0
BLOCK
  5
A51C
330
A518
100
AcDbEntity
  8
0
100
AcDbBlockBegin
  2
LS3
 70
     0
 10
0.0
 20
0.0
 30
0.0
  3
LS3
  1

  0
LINE
  5
A51E
330
A518
100
AcDbEntity
  8
contour
100
AcDbLine
 10
329.8877449821333
 20
4.477662871771769
 30
0.0
 11
329.8877449821333
 21
8.177662871771701
 31
0.0
  0
LINE
  5
A51F
330
A518
100
AcDbEntity
  8
contour
100
AcDbLine
 10
329.8877449821333
 20
8.177662871771701
 30
0.0
 11
336.8877449821333
 21
8.177662871771701
 31
0.0
  0
LINE
  5
A520
330
A518
100
AcDbEntity
  8
contour
100
AcDbLine
 10
332.1877449821334
 20
26.1776628717717
 30
0.0
 11
334.5877449821334
 21
26.17766287177165
 31
0.0
  0
LINE
  5
A521
330
A518
100
AcDbEntity
  8
contour
100
AcDbLine
 10
331.3877449821333
 20
25.37766287177163
 30
0.0
 11
332.1877449821334
 21
26.17766287177165
 31
0.0
  0
LINE
  5
A522
330
A518
100
AcDbEntity
  8
contour
100
AcDbLine
 10
336.8877449821333
 20
8.177662871771701
 30
0.0
 11
336.8877449821333
 21
4.477662871771656
 31
0.0
  0
LINE
  5
A523
330
A518
100
AcDbEntity
  8
contour
100
AcDbLine
 10
336.5877449821334
 20
4.177662871771644
 30
0.0
 11
330.1877449821334
 21
4.177662871771758
 31
0.0
  0
LINE
  5
A524
330
A518
100
AcDbEntity
  8
contour
100
AcDbLine
 10
329.8877449821333
 20
4.477662871771769
 30
0.0
 11
330.1877449821334
 21
4.177662871771758
 31
0.0
  0
LINE
  5
A525
330
A518
100
AcDbEntity
  8
contour
100
AcDbLine
 10
336.8877449821333
 20
4.477662871771656
 30
0.0
 11
336.5877449821334
 21
4.177662871771644
 31
0.0
  0
LINE
  5
A526
330
A518
100
AcDbEntity
  8
contour
100
AcDbLine
 10
331.3877449821333
 20
8.177662871771644
 30
0.0
 11
331.3877449821334
 21
25.37766287177168
 31
0.0
  0
LINE
  5
A527
330
A518
100
AcDbEntity
  8
contour
100
AcDbLine
 10
335.3877449821333
 20
8.177662871771644
 30
0.0
 11
335.3877449821333
 21
25.37766287177166
 31
0.0
  0
LINE
  5
A528
330
A518
100
AcDbEntity
  8
contour
100
AcDbLine
 10
334.5877449821334
 20
26.17766287177165
 30
0.0
 11
335.3877449821333
 21
25.37766287177163
 31
0.0
  0
LINE
  5
A529
330
A518
100
AcDbEntity
  8
contour
100
AcDbLine
 10
331.3877449821333
 20
25.37766287177169
 30
0.0
 11
335.3877449821333
 21
25.37766287177169
 31
0.0
  0
LINE
  5
A52A
330
A518
100
AcDbEntity
  8
contour
 62
     4
100
AcDbLine
 10
331.7667449821333
 20
8.834110127840233
 30
0.0
 11
331.7667449821333
 21
25.75666287177167
 31
0.0
  0
LINE
  5
A52B
330
A518
100
AcDbEntity
  8
contour
 62
     4
100
AcDbLine
 10
335.0087449821333
 20
8.834110127840233
 30
0.0
 11
335.0087449821334
 21
25.75666287177161
 31
0.0
  0
LINE
  5
A52C
330
A518
100
AcDbEntity
  8
contour
100
AcDbLine
 10
329.8877449821333
 20
4.477662871771769
 30
0.0
 11
336.8877449821333
 21
4.477662871771826
 31
0.0
  0
LINE
  5
A52D
330
A518
100
AcDbEntity
  8
bowle
 48
0.1
100
AcDbLine
 10
332.5217195783489
 20
4.177662871771701
 30
0.0
 11
332.5217195783489
 21
6.37766287177169
 31
0.0
  0
LINE
  5
A52E
330
A518
100
AcDbEntity
  8
bowle
 48
0.1
100
AcDbLine
 10
331.6556941745643
 20
4.177662871771644
 30
0.0
 11
331.6556941745643
 21
6.37766287177169
 31
0.0
  0
LINE
  5
A52F
330
A518
100
AcDbEntity
  8
bowle
 48
0.1
100
AcDbLine
 10
334.2537703859177
 20
4.177662871771701
 30
0.0
 11
334.2537703859177
 21
6.377662871771633
 31
0.0
  0
LINE
  5
A530
330
A518
100
AcDbEntity
  8
bowle
 48
0.1
100
AcDbLine
 10
335.1197957897023
 20
4.177662871771644
 30
0.0
 11
335.1197957897023
 21
6.377662871771633
 31
0.0
  0
LINE
  5
A531
330
A518
100
AcDbEntity
  8
bowle
 48
0.1
100
AcDbLine
 10
331.6556941745645
 20
6.37766287177169
 30
0.0
 11
335.1197957897023
 21
6.37766287177169
 31
0.0
  0
LINE
  5
A532
330
A518
100
AcDbEntity
  8
bowle
 48
0.1
100
AcDbLine
 10
335.1197957897023
 20
6.377662871771633
 30
0.0
 11
333.3877449821334
 21
7.377662871771633
 31
0.0
  0
LINE
  5
A533
330
A518
100
AcDbEntity
  8
bowle
 48
0.1
100
AcDbLine
 10
331.6556941745645
 20
6.377662871771633
 30
0.0
 11
333.3877449821334
 21
7.377662871771633
 31
0.0
  0
LINE
  5
A534
330
A518
100
AcDbEntity
  8
contour
 62
     4
100
AcDbLine
 10
335.0087449821333
 20
8.83411012784029
 30
0.0
 11
335.3877449821333
 21
8.177662871771644
 31
0.0
  0
LINE
  5
A535
330
A518
100
AcDbEntity
  8
contour
100
AcDbLine
 10
335.3877449821333
 20
8.834110127840233
 30
0.0
 11
331.3877449821333
 21
8.834110127840233
 31
0.0
  0
LINE
  5
A536
330
A518
100
AcDbEntity
  8
contour
 62
     4
100
AcDbLine
 10
331.3877449821333
 20
8.177662871771701
 30
0.0
 11
331.7667449821333
 21
8.834110127840233
 31
0.0
  0
ENDBLK
  5
A51D
330
A518
100
AcDbEntity
  8
0
100
AcDbBlockEnd
  0
BLOCK
  5
A62B
330
A627
100
AcDbEntity
  8
0
100
AcDbBlockBegin
  2
LS4
 70
     0
 10
0.0
 20
0.0
 30
0.0
  3
LS4
  1

  0
LINE
  5
A62D
330
A627
100
AcDbEntity
  8
contour
100
AcDbLine
 10
402.9074768226647
 20
108.9417821167274
 30
0.0
 11
410.8074768226646
 21
108.9417821167274
 31
0.0
  0
LINE
  5
A62E
330
A627
100
AcDbEntity
  8
contour
100
AcDbLine
 10
411.1074768226647
 20
109.2417821167273
 30
0.0
 11
411.1074768226647
 21
113.9417821167274
 31
0.0
  0
LINE
  5
A62F
330
A627
100
AcDbEntity
  8
contour
100
AcDbLine
 10
410.8074768226646
 20
108.9417821167274
 30
0.0
 11
411.1074768226647
 21
109.2417821167273
 31
0.0
  0
LINE
  5
A630
330
A627
100
AcDbEntity
  8
contour
100
AcDbLine
 10
411.1074768226647
 20
113.9417821167274
 30
0.0
 11
402.6074768226647
 21
113.9417821167274
 31
0.0
  0
LINE
  5
A631
330
A627
100
AcDbEntity
  8
contour
100
AcDbLine
 10
408.4574768226646
 20
131.9417821167274
 30
0.0
 11
405.2574768226646
 21
131.9417821167273
 31
0.0
  0
LINE
  5
A632
330
A627
100
AcDbEntity
  8
contour
100
AcDbLine
 10
409.3574768226646
 20
131.0417821167273
 30
0.0
 11
408.4574768226646
 21
131.9417821167274
 31
0.0
  0
LINE
  5
A633
330
A627
100
AcDbEntity
  8
contour
100
AcDbLine
 10
402.6074768226647
 20
113.9417821167274
 30
0.0
 11
402.6074768226647
 21
109.2417821167273
 31
0.0
  0
LINE
  5
A634
330
A627
100
AcDbEntity
  8
contour
100
AcDbLine
 10
402.9074768226647
 20
108.9417821167274
 30
0.0
 11
402.6074768226647
 21
109.2417821167273
 31
0.0
  0
LINE
  5
A635
330
A627
100
AcDbEntity
  8
contour
100
AcDbLine
 10
402.6074768226647
 20
109.2417821167273
 30
0.0
 11
411.1074768226647
 21
109.2417821167273
 31
0.0
  0
LINE
  5
A636
330
A627
100
AcDbEntity
  8
contour
100
AcDbLine
 10
404.3574768226647
 20
113.9417821167274
 30
0.0
 11
404.3574768226647
 21
131.0417821167273
 31
0.0
  0
LINE
  5
A637
330
A627
100
AcDbEntity
  8
contour
100
AcDbLine
 10
405.2574768226646
 20
131.9417821167273
 30
0.0
 11
404.3574768226647
 21
131.0417821167273
 31
0.0
  0
LINE
  5
A638
330
A627
100
AcDbEntity
  8
contour
100
AcDbLine
 10
409.3574768226647
 20
113.9417821167274
 30
0.0
 11
409.3574768226646
 21
131.0417821167273
 31
0.0
  0
LINE
  5
A639
330
A627
100
AcDbEntity
  8
contour
100
AcDbLine
 10
404.3574768226647
 20
131.0417821167273
 30
0.0
 11
409.3574768226646
 21
131.0417821167273
 31
0.0
  0
LINE
  5
A63A
330
A627
100
AcDbEntity
  8
contour
 62
     4
100
AcDbLine
 10
404.7904768226646
 20
114.6917601164047
 30
0.0
 11
404.7904768226647
 21
131.4747821167274
 31
0.0
  0
LINE
  5
A63B
330
A627
100
AcDbEntity
  8
contour
 62
     4
100
AcDbLine
 10
408.9244768226647
 20
114.6917601164048
 30
0.0
 11
408.9244768226647
 21
131.4747821167273
 31
0.0
  0
LINE
  5
A63C
330
A627
100
AcDbEntity
  8
contour
 62
     4
100
AcDbLine
 10
408.9244768226646
 20
114.6917601164048
 30
0.0
 11
409.3574768226647
 21
113.9417821167274
 31
0.0
  0
LINE
  5
A63D
330
A627
100
AcDbEntity
  8
contour
100
AcDbLine
 10
409.3574768226647
 20
114.6917601164048
 30
0.0
 11
404.3574768226647
 21
114.6917601164048
 31
0.0
  0
LINE
  5
A63E
330
A627
100
AcDbEntity
  8
contour
 62
     4
100
AcDbLine
 10
404.7904768226647
 20
114.6917601164048
 30
0.0
 11
404.3574768226647
 21
113.9417821167274
 31
0.0
  0
LINE
  5
A63F
330
A627
100
AcDbEntity
  8
bowle
 48
0.2
100
AcDbLine
 10
404.5480757459062
 20
108.9417821167274
 30
0.0
 11
404.5480757459062
 21
111.4417821167274
 31
0.0
  0
LINE
  5
A640
330
A627
100
AcDbEntity
  8
bowle
 48
0.2
100
AcDbLine
 10
409.1668778994232
 20
108.9417821167274
 30
0.0
 11
409.1668778994232
 21
111.4417821167274
 31
0.0
  0
LINE
  5
A641
330
A627
100
AcDbEntity
  8
bowle
 48
0.2
100
AcDbLine
 10
404.5480757459062
 20
111.4417821167274
 30
0.0
 11
409.1668778994232
 21
111.4417821167274
 31
0.0
  0
LINE
  5
A642
330
A627
100
AcDbEntity
  8
bowle
 48
0.2
100
AcDbLine
 10
405.7027762842854
 20
111.4417821167274
 30
0.0
 11
405.7027762842854
 21
108.9417821167274
 31
0.0
  0
LINE
  5
A643
330
A627
100
AcDbEntity
  8
bowle
 48
0.2
100
AcDbLine
 10
408.0121773610439
 20
111.4417821167274
 30
0.0
 11
408.0121773610439
 21
108.9417821167274
 31
0.0
  0
LINE
  5
A644
330
A627
100
AcDbEntity
  8
bowle
 48
0.2
100
AcDbLine
 10
409.1668778994232
 20
111.4417821167274
 30
0.0
 11
406.8574768226646
 21
112.7751154500606
 31
0.0
  0
LINE
  5
A645
330
A627
100
AcDbEntity
  8
bowle
 48
0.2
100
AcDbLine
 10
404.5480757459062
 20
111.4417821167274
 30
0.0
 11
406.8574768226646
 21
112.7751154500606
 31
0.0
  0
ENDBLK
  5
A62C
330
A627
100
AcDbEntity
  8
0
100
AcDbBlockEnd
  0
BLOCK
  5
E116
330
E114
100
AcDbEntity
  8
0
100
AcDbBlockBegin
  2
GENAXEH
 70
     0
 10
0.0
 20
0.0
 30
0.0
  3
GENAXEH
  1

  0
LINE
  5
E115
330
E114
100
AcDbEntity
  8
0
100
AcDbLine
 10
-1.0
 20
0.0
 30
0.0
 11
1.0
 21
0.0
 31
0.0
  0
ENDBLK
  5
E117
330
E114
100
AcDbEntity
  8
0
100
AcDbBlockEnd
  0
BLOCK
  5
E277
330
E274
100
AcDbEntity
  8
0
 48
0.8
370
    15
100
AcDbBlockBegin
  2
A4-1
 70
     0
 10
0.0
 20
0.0
 30
0.0
  3
A4-1
  1

  0
LINE
  5
E278
330
E274
100
AcDbEntity
  8
0
 62
     5
100
AcDbLine
 10
230.217408334927
 20
14.46716126965782
 30
0.0
 11
174.5069028989907
 21
14.46716126965782
 31
0.0
  0
LINE
  5
E279
330
E274
100
AcDbEntity
  8
0
 62
     5
100
AcDbLine
 10
230.2174083349271
 20
23.16767837502226
 30
0.0
 11
174.5069028989907
 21
23.16767837502226
 31
0.0
  0
LINE
  5
E27A
330
E274
100
AcDbEntity
  8
0
 62
     5
100
AcDbLine
 10
276.7436087962579
 20
36.31443325309096
 30
0.0
 11
81.77838202908549
 21
36.31443325309096
 31
0.0
  0
LINE
  5
E27B
330
E274
100
AcDbEntity
  8
0
 62
     4
100
AcDbLine
 39
0.7
 10
276.7436087962579
 20
36.31443325309096
 30
0.0
 11
81.77838202908549
 21
36.31443325309096
 31
0.0
  0
LINE
  5
E27C
330
E274
100
AcDbEntity
  8
0
 62
     5
100
AcDbLine
 10
230.2174083349271
 20
36.31443325309096
 30
0.0
 11
230.2174083349271
 21
9.423490755382147
 31
0.0
  0
LINE
  5
E27D
330
E274
100
AcDbEntity
  8
0
 62
     4
100
AcDbLine
 39
0.7
 10
81.77838202908549
 20
36.31443325309096
 30
0.0
 11
81.77838202908549
 21
9.423490755382147
 31
0.0
  0
LINE
  5
E27E
330
E274
100
AcDbEntity
  8
0
 62
     5
100
AcDbLine
 10
142.9038561259967
 20
36.31443325309096
 30
0.0
 11
142.9038561259967
 21
9.423490755382147
 31
0.0
  0
LINE
  5
E27F
330
E274
100
AcDbEntity
  8
0
 62
     5
100
AcDbLine
 10
213.9504533856369
 20
36.31443325309096
 30
0.0
 11
213.9504533856369
 21
9.423490755382147
 31
0.0
  0
LINE
  5
E280
330
E274
100
AcDbEntity
  8
0
 62
     5
100
AcDbLine
 10
142.9038561259967
 20
36.31443325309096
 30
0.0
 11
142.9038561259967
 21
9.423490755382147
 31
0.0
  0
MTEXT
  5
E281
330
E274
100
AcDbEntity
  8
0
100
AcDbMText
 10
52.09857641970632
 20
7.201179977531694
 30
0.0
 40
0.8838383838383839
 41
6.0
 71
     1
 72
     5
  1

 73
     1
 44
1.0
  0
MTEXT
  5
E282
330
E274
100
AcDbEntity
  8
0
 62
     5
100
AcDbMText
 10
98.82288556374431
 20
11.66235501480243
 30
0.0
 40
1.131313131313131
 41
0.0
 71
     1
 72
     5
  1
{\f新細明體|b0|i0|c136|p2;EXPLAIN}
 73
     1
 44
1.0
  0
LINE
  5
E283
330
E274
100
AcDbEntity
  8
0
 62
     5
100
AcDbLine
 10
158.4606425129406
 20
30.61956275998535
 30
0.0
 11
158.4606425129406
 21
23.16767837502226
 31
0.0
  0
MTEXT
  5
E284
330
E274
100
AcDbEntity
  8
0
 62
     5
100
AcDbMText
 10
231.0283193090395
 20
27.10671808364345
 30
0.0
 40
1.32322909090909
 41
0.0
 71
     1
 72
     5
  1
{\fPMingLiU|b0|i0|c136|p2;TYPE NO.}
 73
     1
 44
1.0
  0
MTEXT
  5
E285
330
E274
100
AcDbEntity
  8
0
 62
     4
100
AcDbMText
 10
232.6206820190832
 20
13.91245630584558
 30
0.0
 40
2.315834181818182
 41
0.0
 71
     1
 72
     5
  1
{\f新細明體|b0|i0|c136|p2;HSIANG KAI  FU  CO.,  LTD.}
 73
     1
 44
1.0
  0
LWPOLYLINE
  5
E286
330
E274
100
AcDbEntity
  8
0
 62
     4
100
AcDbPolyline
 90
        4
 70
     1
 43
0.0
 39
0.7
 10
7.628621603919329
 20
9.423490755382147
 10
7.628621603919327
 20
200.0937165081384
 10
276.7436087962579
 20
200.0937165081384
 10
276.7436087962579
 20
9.423490755382147
  0
MTEXT
  5
E287
330
E274
100
AcDbEntity
  8
0
 62
     7
100
AcDbMText
 10
239.2991063025177
 20
33.32791765364395
 30
0.0
 40
1.979345454545454
 41
0.0
 71
     1
 72
     5
  1
{\f新細明體|b0|i0|c136|p2;PRECISION   LOCKNUTS}
 73
     1
 44
1.0
  0
MTEXT
  5
E288
330
E274
100
AcDbEntity
  8
0
100
AcDbMText
 10
217.8754786300925
 20
21.74009260787899
 30
0.0
 40
1.590909090909091
 41
0.0
 71
     1
 72
     5
  1
{\fRomantic|b0|i0|c2|p2;SCM440}
 73
     1
 44
1.0
  0
MTEXT
  5
E289
330
E274
100
AcDbEntity
  8
0
100
AcDbMText
 10
217.1226873827973
 20
17.33404973155046
 30
0.0
 40
1.590909090909091
 41
0.0
 71
     1
 72
     5
  1
{\fRomantic|b0|i0|c2|p2;HRC28-32}
 73
     1
 44
1.0
  0
MTEXT
  5
E28A
330
E274
100
AcDbEntity
  8
0
100
AcDbMText
 10
219.9781127101417
 20
26.96593793243194
 30
0.0
 40
2.061818181818181
 41
0.0
 71
     1
 72
     5
  1
{\fRomantic|b0|i0|c2|p2;mm}
 73
     1
 44
1.0
  0
MTEXT
  5
E28B
330
E274
100
AcDbEntity
  8
0
 62
     4
100
AcDbMText
 10
232.6950689920786
 20
19.03984294867123
 30
0.0
 40
3.859723636363636
 41
0.0
 71
     1
 72
     5
  1
{\fArial Black|b0|i0|c0|p34;NIKKI}
 73
     1
 44
1.0
  0
MTEXT
  5
E28C
330
E274
100
AcDbEntity
  8
0
 62
     5
100
AcDbMText
 10
231.0283193090395
 20
35.15005777303538
 30
0.0
 40
1.32322909090909
 41
0.0
 71
     1
 72
     5
  1
{\fPMingLiU|b0|i0|c136|p2;TITLE:}
 73
     1
 44
1.0
  0
MTEXT
  5
E28D
330
E274
100
AcDbEntity
  8
0
 62
     5
100
AcDbMText
 10
203.0600231079758
 20
21.62192593627281
 30
0.0
 40
1.429087418181818
 41
0.0
 71
     1
 72
     5
  1
{\fPMingLiU|b0|i0|c136|p2;MATERIAL}
 73
     1
 44
1.0
  0
MTEXT
  5
E28E
330
E274
100
AcDbEntity
  8
0
 62
     5
100
AcDbMText
 10
205.3001914547634
 20
26.61797839276295
 30
0.0
 40
1.429087418181818
 41
0.0
 71
     1
 72
     5
  1
{\fPMingLiU|b0|i0|c136|p2;UNIT}
 73
     1
 44
1.0
  0
MTEXT
  5
E28F
330
E274
100
AcDbEntity
  8
0
 62
     5
100
AcDbMText
 10
205.1168872554573
 20
17.55932396695345
 30
0.0
 40
1.429087418181818
 41
0.0
 71
     1
 72
     5
  1
{\fPMingLiU|b0|i0|c136|p2;HEAT}
 73
     1
 44
1.0
  0
MTEXT
  5
E290
330
E274
100
AcDbEntity
  8
0
 62
     5
100
AcDbMText
 10
203.3121893518798
 20
13.95253280778329
 30
0.0
 40
1.3440567168
 41
0.0
 71
     1
 72
     5
  1
{\fPMingLiU|b0|i0|c136|p2;SURFACE}
 73
     1
 44
1.0
  0
LINE
  5
E291
330
E274
100
AcDbEntity
  8
0
 62
     5
100
AcDbLine
 10
276.7436087962579
 20
28.21637358106507
 30
0.0
 11
230.2174083349271
 21
28.21637358106507
 31
0.0
  0
LINE
  5
E292
330
E274
100
AcDbEntity
  8
0
 62
     5
100
AcDbLine
 10
276.6599075500765
 20
20.55124455954945
 30
0.0
 11
230.1337070887457
 21
20.55124455954945
 31
0.0
  0
LINE
  5
E293
330
E274
100
AcDbEntity
  8
0
 62
     5
100
AcDbLine
 10
230.2174083349271
 20
18.67390896566837
 30
0.0
 11
174.5069028989907
 21
18.67390896566837
 31
0.0
  0
MTEXT
  5
E294
330
E274
100
AcDbEntity
  8
0
 62
     5
100
AcDbMText
 10
202.5835212177642
 20
11.61683171438094
 30
0.0
 40
1.3099968
 41
0.0
 71
     1
 72
     5
  1
{\fPMingLiU|b0|i0|c136|p2;TREATMENT}
 73
     1
 44
1.0
  0
MTEXT
  5
E295
330
E274
100
AcDbEntity
  8
0
 62
     5
100
AcDbMText
 10
204.5442386789007
 20
35.10013977884729
 30
0.0
 40
1.429087418181818
 41
0.0
 71
     1
 72
     5
  1
{\fPMingLiU|b0|i0|c136|p2;SCALE}
 73
     1
 44
1.0
  0
LINE
  5
E296
330
E274
100
AcDbEntity
  8
0
 62
     5
100
AcDbLine
 10
201.8318558768918
 20
36.31443325309096
 30
0.0
 11
201.8318558768918
 21
9.423490755382147
 31
0.0
  0
LINE
  5
E297
330
E274
100
AcDbEntity
  8
0
 62
     5
100
AcDbLine
 10
230.2174083349271
 20
31.93106038898454
 30
0.0
 11
201.8318558768918
 21
31.93106038898453
 31
0.0
  0
MTEXT
  5
E298
330
E274
100
AcDbEntity
  8
0
 62
     5
100
AcDbMText
 10
202.8320338497069
 20
30.8178242173206
 30
0.0
 40
1.429087418181818
 41
0.0
 71
     1
 72
     5
  1
{\fPMingLiU|b0|i0|c136|p2;QUANTITY}
 73
     1
 44
1.0
  0
LINE
  5
E299
330
E274
100
AcDbEntity
  8
0
 62
     5
100
AcDbLine
 10
186.3361645349974
 20
36.31443325309096
 30
0.0
 11
186.3361645349974
 21
9.423490755382147
 31
0.0
  0
LINE
  5
E29A
330
E274
100
AcDbEntity
  8
0
 62
     5
100
AcDbLine
 10
174.5069028989907
 20
36.31443325309096
 30
0.0
 11
174.5069028989907
 21
9.423490755382147
 31
0.0
  0
LINE
  5
E29B
330
E274
100
AcDbEntity
  8
0
 62
     5
100
AcDbLine
 10
169.0890530427488
 20
30.61956275998535
 30
0.0
 11
169.0890530427488
 21
23.16767837502226
 31
0.0
  0
MTEXT
  5
E29C
330
E274
100
AcDbEntity
  8
0
 62
     5
100
AcDbMText
 10
175.7229640775444
 20
21.67264136890537
 30
0.0
 40
1.429087418181818
 41
0.0
 71
     1
 72
     5
  1
{\fPMingLiU|b0|i0|c136|p2;DRAWER}
 73
     1
 44
1.0
  0
MTEXT
  5
E29D
330
E274
100
AcDbEntity
  8
0
 62
     5
100
AcDbMText
 10
175.006037505883
 20
12.83915587928981
 30
0.0
 40
1.429087418181818
 41
0.0
 71
     1
 72
     5
  1
{\fPMingLiU|b0|i0|c136|p2;APPROVED}
 73
     1
 44
1.0
  0
LINE
  5
E29E
330
E274
100
AcDbEntity
  8
0
 62
     5
100
AcDbLine
 10
230.2174083349271
 20
27.61951629559429
 30
0.0
 11
174.5069028989907
 21
27.61951629559428
 31
0.0
  0
MTEXT
  5
E29F
330
E274
100
AcDbEntity
  8
0
 62
     5
100
AcDbMText
 10
177.3010893694832
 20
17.48785630108154
 30
0.0
 40
1.429087418181818
 41
0.0
 71
     1
 72
     5
  1
{\fPMingLiU|b0|i0|c136|p2;DATE}
 73
     1
 44
1.0
  0
MTEXT
  5
E2A0
330
E274
100
AcDbEntity
  8
0
100
AcDbMText
 10
221.0535001315969
 20
31.02456738381228
 30
0.0
 40
2.061818181818181
 41
0.0
 71
     1
 72
     5
  1
{\fRomantic|b0|i0|c2|p2;1}
 73
     1
 44
1.0
  0
MTEXT
  5
E2A1
330
E274
100
AcDbEntity
  8
0
 62
     5
100
AcDbMText
 10
176.9178390985407
 20
34.56475675900743
 30
0.0
 40
1.429087418181818
 41
0.0
 71
     1
 72
     5
  1
{\fPMingLiU|b0|i0|c136|p2;THIRD}
 73
     1
 44
1.0
  0
MTEXT
  5
E2A2
330
E274
100
AcDbEntity
  8
0
 62
     5
100
AcDbMText
 10
176.9178390985407
 20
31.34172768692878
 30
0.0
 40
1.429087418181818
 41
0.0
 71
     1
 72
     5
  1
{\fPMingLiU|b0|i0|c136|p2;ANGLE}
 73
     1
 44
1.0
  0
LINE
  5
E2A3
330
E274
100
AcDbEntity
  8
0
 62
     5
100
AcDbLine
 10
174.5069028989907
 20
30.61956275998535
 30
0.0
 11
142.9038561259967
 21
30.61956275998535
 31
0.0
  0
LINE
  5
E2A4
330
E274
100
AcDbEntity
  8
0
 48
0.8
100
AcDbLine
 10
188.2047449454813
 20
31.80734890957837
 30
0.0
 11
193.2767826339444
 21
31.80734890957837
 31
0.0
  0
LINE
  5
E2A5
330
E274
100
AcDbEntity
  8
0
 48
0.8
100
AcDbLine
 10
190.6545310142052
 20
34.26751799671216
 30
0.0
 11
190.6545310142052
 21
29.3471798224445
 31
0.0
  0
CIRCLE
  5
E2A6
330
E274
100
AcDbEntity
  8
0
 48
0.8
100
AcDbCircle
 10
190.6545310142052
 20
31.80734890957837
 30
0.0
 40
1.76486420543606
  0
CIRCLE
  5
E2A7
330
E274
100
AcDbEntity
  8
0
 48
0.8
100
AcDbCircle
 10
190.6545310142052
 20
31.80734890957837
 30
0.0
 40
0.7692225632165219
  0
LINE
  5
E2A8
330
E274
100
AcDbEntity
  8
0
 48
0.8
100
AcDbLine
 10
195.198853777746
 20
32.57657147279488
 30
0.0
 11
195.198853777746
 21
31.03812634636185
 31
0.0
  0
LINE
  5
E2A9
330
E274
100
AcDbEntity
  8
0
 48
0.8
100
AcDbLine
 10
194.4170988130979
 20
31.80734890957837
 30
0.0
 11
200.0426258639385
 21
31.80734890957837
 31
0.0
  0
LINE
  5
E2AA
330
E274
100
AcDbEntity
  8
0
 48
0.8
100
AcDbLine
 10
199.0024970528553
 20
33.57221311501443
 30
0.0
 11
199.0024970528553
 21
30.04248470414231
 31
0.0
  0
LINE
  5
E2AB
330
E274
100
AcDbEntity
  8
0
 48
0.8
100
AcDbLine
 10
195.198853777746
 20
32.57657147279489
 30
0.0
 11
199.0024970528553
 21
33.57221311501443
 31
0.0
  0
LINE
  5
E2AC
330
E274
100
AcDbEntity
  8
0
 48
0.8
100
AcDbLine
 10
195.198853777746
 20
31.03812634636184
 30
0.0
 11
199.0024970528553
 21
30.04248470414231
 31
0.0
  0
MTEXT
  5
E2AD
330
E274
100
AcDbEntity
  8
0
 62
     5
100
AcDbMText
 10
148.7138573572125
 20
35.21063448522444
 30
0.0
 40
1.10668529664
 41
0.0
 71
     1
 72
     5
  1
{\fPMingLiU|b0|i0|c136|p2;PERMISSIBLE MACHINING}
 73
     1
 44
1.0
  0
MTEXT
  5
E2AE
330
E274
100
AcDbEntity
  8
0
 62
     5
100
AcDbMText
 10
143.1916534460237
 20
25.96538389267085
 30
0.0
 40
1.143269934545454
 41
0.0
 71
     1
 72
     5
  1
{\fPMingLiU|b0|i0|c136|p2;%%P0.05}
 73
     1
 44
1.0
  0
MTEXT
  5
E2AF
330
E274
100
AcDbEntity
  8
0
 62
     5
100
AcDbMText
 10
148.7006519998089
 20
26.04204543382372
 30
0.0
 40
1.143269934545454
 41
0.0
 71
     1
 72
     5
  1
{\fPMingLiU|b0|i0|c136|p2;%%P0.1}
 73
     1
 44
1.0
  0
MTEXT
  5
E2B0
330
E274
100
AcDbEntity
  8
0
 62
     5
100
AcDbMText
 10
153.9840414006111
 20
25.90756347618583
 30
0.0
 40
1.143269934545454
 41
0.0
 71
     1
 72
     5
  1
{\fPMingLiU|b0|i0|c136|p2;%%P0.2}
 73
     1
 44
1.0
  0
LINE
  5
E2B1
330
E274
100
AcDbEntity
  8
0
 62
     5
100
AcDbLine
 10
147.6682545583534
 20
30.61956275998535
 30
0.0
 11
147.6682545583534
 21
23.16767837502226
 31
0.0
  0
LINE
  5
E2B2
330
E274
100
AcDbEntity
  8
0
 62
     5
100
AcDbLine
 10
152.8769092768149
 20
30.61956275998535
 30
0.0
 11
152.8769092768149
 21
23.16767837502226
 31
0.0
  0
LINE
  5
E2B3
330
E274
100
AcDbEntity
  8
0
 62
     5
100
AcDbLine
 10
163.7721145446809
 20
30.61956275998535
 30
0.0
 11
163.7721145446809
 21
23.16767837502226
 31
0.0
  0
LINE
  5
E2B4
330
E274
100
AcDbEntity
  8
0
 62
     5
100
AcDbLine
 10
174.5069028989907
 20
27.02629093248527
 30
0.0
 11
142.9038561259967
 21
27.02629093248527
 31
0.0
  0
LINE
  5
E2B5
330
E274
100
AcDbEntity
  8
0
 62
     5
100
AcDbLine
 10
174.5069028989907
 20
16.61298322188565
 30
0.0
 11
142.9038561259967
 21
16.61298322188565
 31
0.0
  0
LINE
  5
E2B6
330
E274
100
AcDbEntity
  8
0
 62
     5
100
AcDbLine
 10
174.5069028989907
 20
13.24934181817684
 30
0.0
 11
142.9038561259967
 21
13.24934181817684
 31
0.0
  0
MTEXT
  5
E2B7
330
E274
100
AcDbEntity
  8
0
 62
     5
100
AcDbMText
 10
144.0455651815477
 20
29.56710565453926
 30
0.0
 40
1.143269934545454
 41
0.0
 71
     1
 72
     5
  1
{\fPMingLiU|b0|i0|c136|p2;>0}
 73
     1
 44
1.0
  0
MTEXT
  5
E2B8
330
E274
100
AcDbEntity
  8
0
 62
     5
100
AcDbMText
 10
149.3199051932621
 20
29.56710565453926
 30
0.0
 40
1.143269934545454
 41
0.0
 71
     1
 72
     5
  1
{\fPMingLiU|b0|i0|c136|p2;>6}
 73
     1
 44
1.0
  0
MTEXT
  5
E2B9
330
E274
100
AcDbEntity
  8
0
 62
     5
100
AcDbMText
 10
154.8003514482356
 20
29.56710565453926
 30
0.0
 40
1.143269934545454
 41
0.0
 71
     1
 72
     5
  1
{\fPMingLiU|b0|i0|c136|p2;>30}
 73
     1
 44
1.0
  0
MTEXT
  5
E2BA
330
E274
100
AcDbEntity
  8
0
 62
     5
100
AcDbMText
 10
159.5116054772021
 20
29.56710565453926
 30
0.0
 40
1.143269934545454
 41
0.0
 71
     1
 72
     5
  1
{\fPMingLiU|b0|i0|c136|p2;>100}
 73
     1
 44
1.0
  0
MTEXT
  5
E2BB
330
E274
100
AcDbEntity
  8
0
 62
     5
100
AcDbMText
 10
164.8701982538038
 20
29.56710565453926
 30
0.0
 40
1.143269934545454
 41
0.0
 71
     1
 72
     5
  1
{\fPMingLiU|b0|i0|c136|p2;>300}
 73
     1
 44
1.0
  0
MTEXT
  5
E2BC
330
E274
100
AcDbEntity
  8
0
 62
     5
100
AcDbMText
 10
169.8908464815969
 20
29.56710565453926
 30
0.0
 40
1.143269934545454
 41
0.0
 71
     1
 72
     5
  1
{\fPMingLiU|b0|i0|c136|p2;>1000}
 73
     1
 44
1.0
  0
MTEXT
  5
E2BD
330
E274
100
AcDbEntity
  8
0
 62
     5
100
AcDbMText
 10
159.5677736623221
 20
25.96613860985127
 30
0.0
 40
1.143269934545454
 41
0.0
 71
     1
 72
     5
  1
{\fPMingLiU|b0|i0|c136|p2;%%P0.3}
 73
     1
 44
1.0
  0
MTEXT
  5
E2BE
330
E274
100
AcDbEntity
  8
0
 62
     5
100
AcDbMText
 10
165.0106182293963
 20
25.84898744430797
 30
0.0
 40
1.143269934545454
 41
0.0
 71
     1
 72
     5
  1
{\fPMingLiU|b0|i0|c136|p2;%%P0.5}
 73
     1
 44
1.0
  0
MTEXT
  5
E2BF
330
E274
100
AcDbEntity
  8
0
 62
     5
100
AcDbMText
 10
170.4915322034145
 20
25.85481234972798
 30
0.0
 40
1.143269934545454
 41
0.0
 71
     1
 72
     5
  1
{\fPMingLiU|b0|i0|c136|p2;%%P0.6}
 73
     1
 44
1.0
  0
LINE
  5
E2C0
330
E274
100
AcDbEntity
  8
0
 62
     5
100
AcDbLine
 10
174.5069028989907
 20
23.16767837502226
 30
0.0
 11
142.9038561259967
 21
23.16767837502226
 31
0.0
  0
MTEXT
  5
E2C1
330
E274
100
AcDbEntity
  8
0
 62
     5
100
AcDbMText
 10
150.6577402121705
 20
21.57194924469566
 30
0.0
 40
1.108403677082419
 41
0.0
 71
     1
 72
     5
  1
{\fPMingLiU|b0|i0|c136|p2;PERMISSIBLE ANGLE  }
 73
     1
 44
1.0
  0
LINE
  5
E2C2
330
E274
100
AcDbEntity
  8
0
 62
     5
100
AcDbLine
 10
150.681486753489
 20
16.61298322188565
 30
0.0
 11
150.681486753489
 21
9.423490755382147
 31
0.0
  0
LINE
  5
E2C3
330
E274
100
AcDbEntity
  8
0
 62
     5
100
AcDbLine
 10
158.6280440308887
 20
16.61298322188565
 30
0.0
 11
158.6280440308886
 21
9.423490755382147
 31
0.0
  0
LINE
  5
E2C4
330
E274
100
AcDbEntity
  8
0
 62
     5
100
AcDbLine
 10
166.410623883509
 20
16.61298322188565
 30
0.0
 11
166.410623883509
 21
9.423490755382147
 31
0.0
  0
MTEXT
  5
E2C5
330
E274
100
AcDbEntity
  8
0
 62
     5
100
AcDbMText
 10
145.2004755590572
 20
12.19465362345721
 30
0.0
 40
1.143269934545454
 41
0.0
 71
     1
 72
     5
  1
{\fPMingLiU|b0|i0|c136|p2;%%P0.1%%D}
 73
     1
 44
1.0
  0
MTEXT
  5
E2C6
330
E274
100
AcDbEntity
  8
0
 62
     5
100
AcDbMText
 10
145.3010790021937
 20
15.58575218203958
 30
0.0
 40
1.143269934545454
 41
0.0
 71
     1
 72
     5
  1
{\fPMingLiU|b0|i0|c136|p2;<10}
 73
     1
 44
1.0
  0
MTEXT
  5
E2C7
330
E274
100
AcDbEntity
  8
0
 62
     5
100
AcDbMText
 10
146.7159664540418
 20
33.16749776112536
 30
0.0
 40
1.10668529664
 41
0.0
 71
     1
 72
     5
  1
{\fPMingLiU|b0|i0|c136|p2;BASIC DIMENSION DEVIATIONS}
 73
     1
 44
1.0
  0
MTEXT
  5
E2C8
330
E274
100
AcDbEntity
  8
0
 62
     5
100
AcDbMText
 10
153.1520598417659
 20
12.19465362345721
 30
0.0
 40
1.143269934545454
 41
0.0
 71
     1
 72
     5
  1
{\fPMingLiU|b0|i0|c136|p2;%%P30%%D}
 73
     1
 44
1.0
  0
MTEXT
  5
E2C9
330
E274
100
AcDbEntity
  8
0
 62
     5
100
AcDbMText
 10
153.2526632849024
 20
15.58575218203958
 30
0.0
 40
1.143269934545454
 41
0.0
 71
     1
 72
     5
  1
{\fPMingLiU|b0|i0|c136|p2;10-50}
 73
     1
 44
1.0
  0
MTEXT
  5
E2CA
330
E274
100
AcDbEntity
  8
0
 62
     5
100
AcDbMText
 10
161.2710466168375
 20
12.19465362345721
 30
0.0
 40
1.143269934545454
 41
0.0
 71
     1
 72
     5
  1
{\fPMingLiU|b0|i0|c136|p2;%%P20%%D}
 73
     1
 44
1.0
  0
MTEXT
  5
E2CB
330
E274
100
AcDbEntity
  8
0
 62
     5
100
AcDbMText
 10
159.8650334751988
 20
15.58575218203958
 30
0.0
 40
1.143269934545454
 41
0.0
 71
     1
 72
     5
  1
{\fPMingLiU|b0|i0|c136|p2;50-100}
 73
     1
 44
1.0
  0
MTEXT
  5
E2CC
330
E274
100
AcDbEntity
  8
0
 62
     5
100
AcDbMText
 10
168.8878278636504
 20
12.19465362345721
 30
0.0
 40
1.143269934545454
 41
0.0
 71
     1
 72
     5
  1
{\fPMingLiU|b0|i0|c136|p2;%%P10%%D}
 73
     1
 44
1.0
  0
MTEXT
  5
E2CD
330
E274
100
AcDbEntity
  8
0
 62
     5
100
AcDbMText
 10
168.9884313067869
 20
15.58575218203958
 30
0.0
 40
1.143269934545454
 41
0.0
 71
     1
 72
     5
  1
{\fPMingLiU|b0|i0|c136|p2;100<}
 73
     1
 44
1.0
  0
LINE
  5
E2CE
330
E274
100
AcDbEntity
  8
0
 62
     5
100
AcDbLine
 10
142.9038561259967
 20
12.42634021691577
 30
0.0
 11
81.77838202908549
 21
12.42634021691577
 31
0.0
  0
LINE
  5
E2CF
330
E274
100
AcDbEntity
  8
0
 62
     5
100
AcDbLine
 10
86.33151271564589
 20
36.31443325309096
 30
0.0
 11
86.33151271564589
 21
9.423490755382147
 31
0.0
  0
LINE
  5
E2D0
330
E274
100
AcDbEntity
  8
0
 62
     5
100
AcDbLine
 10
135.2888928214914
 20
36.31443325309096
 30
0.0
 11
135.2888928214914
 21
9.423490755382147
 31
0.0
  0
LINE
  5
E2D1
330
E274
100
AcDbEntity
  8
0
 62
     5
100
AcDbLine
 10
124.6971524391537
 20
36.31443325309096
 30
0.0
 11
124.6971524391537
 21
9.423490755382147
 31
0.0
  0
MTEXT
  5
E2D2
330
E274
100
AcDbEntity
  8
0
 62
     5
100
AcDbMText
 10
136.9112322856071
 20
11.8528888000372
 30
0.0
 40
1.143269934545454
 41
0.0
 71
     1
 72
     5
  1
{\fPMingLiU|b0|i0|c136|p2;DATE}
 73
     1
 44
1.0
  0
MTEXT
  5
E2D3
330
E274
100
AcDbEntity
  8
0
 62
     5
100
AcDbMText
 10
125.2131038141228
 20
11.73162228020629
 30
0.0
 40
1.143269934545454
 41
0.0
 71
     1
 72
     5
  1
{\fPMingLiU|b0|i0|c136|p2;APPROVED}
 73
     1
 44
1.0
  0
MTEXT
  5
E2D4
330
E274
100
AcDbEntity
  8
0
 62
     5
100
AcDbMText
 10
83.08151214955557
 20
11.73162228020629
 30
0.0
 40
1.143269934545454
 41
0.0
 71
     1
 72
     5
  1
{\fPMingLiU|b0|i0|c136|p2;N0.}
 73
     1
 44
1.0
  0
LINE
  5
E2D5
330
E274
100
AcDbEntity
  8
0
 62
     5
100
AcDbLine
 10
142.9038561259967
 20
15.4291896784494
 30
0.0
 11
81.77838202908549
 21
15.4291896784494
 31
0.0
  0
LINE
  5
E2D6
330
E274
100
AcDbEntity
  8
0
 62
     5
100
AcDbLine
 10
142.9038561259967
 20
18.43203913998303
 30
0.0
 11
81.77838202908549
 21
18.43203913998303
 31
0.0
  0
LINE
  5
E2D7
330
E274
100
AcDbEntity
  8
0
 62
     5
100
AcDbLine
 10
142.9038561259967
 20
21.43488860151666
 30
0.0
 11
81.77838202908549
 21
21.43488860151666
 31
0.0
  0
LINE
  5
E2D8
330
E274
100
AcDbEntity
  8
0
 62
     5
100
AcDbLine
 10
142.9038561259967
 20
24.43773806305029
 30
0.0
 11
81.77838202908549
 21
24.43773806305029
 31
0.0
  0
LINE
  5
E2D9
330
E274
100
AcDbEntity
  8
0
 62
     5
100
AcDbLine
 10
142.9038561259967
 20
27.44058752458392
 30
0.0
 11
81.77838202908549
 21
27.44058752458392
 31
0.0
  0
LINE
  5
E2DA
330
E274
100
AcDbEntity
  8
0
 62
     5
100
AcDbLine
 10
142.9038561259967
 20
30.44343698611755
 30
0.0
 11
81.77838202908549
 21
30.44343698611755
 31
0.0
  0
LINE
  5
E2DB
330
E274
100
AcDbEntity
  8
0
 62
     5
100
AcDbLine
 10
142.9038561259967
 20
33.44628644765118
 30
0.0
 11
81.77838202908549
 21
33.44628644765118
 31
0.0
  0
MTEXT
  5
E2DC
330
E274
100
AcDbEntity
  8
0
 62
     5
100
AcDbMText
 10
149.2834273422318
 20
19.34410545862582
 30
0.0
 40
1.10668529664
 41
0.0
 71
     1
 72
     5
  1
{\fPMingLiU|b0|i0|c136|p2;DIMENSION DEVIATIONS}
 73
     1
 44
1.0
  0
ENDBLK
  5
E2DD
330
E274
100
AcDbEntity
  8
0
 48
0.8
370
    15
100
AcDbBlockEnd
  0
BLOCK
  5
E878
330
E876
100
AcDbEntity
  8
0
100
AcDbBlockBegin
  2
LS5
 70
     0
 10
0.0
 20
0.0
 30
0.0
  3
LS5
  1

  0
LINE
  5
E879
330
E876
100
AcDbEntity
  8
contour
100
AcDbLine
 10
382.9755157133902
 20
83.26571416304657
 30
0.0
 11
375.0755157133903
 21
83.26571416304657
 31
0.0
  0
LINE
  5
E87A
330
E876
100
AcDbEntity
  8
contour
100
AcDbLine
 10
374.7755157133902
 20
82.96571416304658
 30
0.0
 11
374.7755157133902
 21
78.26571416304656
 31
0.0
  0
LINE
  5
E87B
330
E876
100
AcDbEntity
  8
contour
100
AcDbLine
 10
375.0755157133903
 20
83.26571416304657
 30
0.0
 11
374.7755157133902
 21
82.96571416304658
 31
0.0
  0
LINE
  5
E87C
330
E876
100
AcDbEntity
  8
contour
100
AcDbLine
 10
374.7755157133902
 20
78.26571416304656
 30
0.0
 11
383.2755157133902
 21
78.26571416304656
 31
0.0
  0
LINE
  5
E87D
330
E876
100
AcDbEntity
  8
contour
100
AcDbLine
 10
377.4255157133903
 20
58.26571416304656
 30
0.0
 11
380.6255157133902
 21
58.26571416304659
 31
0.0
  0
LINE
  5
E87E
330
E876
100
AcDbEntity
  8
contour
100
AcDbLine
 10
376.5255157133903
 20
59.16571416304657
 30
0.0
 11
377.4255157133903
 21
58.26571416304656
 31
0.0
  0
LINE
  5
E87F
330
E876
100
AcDbEntity
  8
contour
100
AcDbLine
 10
383.2755157133902
 20
78.26571416304656
 30
0.0
 11
383.2755157133902
 21
82.96571416304658
 31
0.0
  0
LINE
  5
E880
330
E876
100
AcDbEntity
  8
contour
100
AcDbLine
 10
382.9755157133902
 20
83.26571416304657
 30
0.0
 11
383.2755157133902
 21
82.96571416304658
 31
0.0
  0
LINE
  5
E881
330
E876
100
AcDbEntity
  8
contour
100
AcDbLine
 10
383.2755157133902
 20
82.96571416304658
 30
0.0
 11
374.7755157133902
 21
82.96571416304658
 31
0.0
  0
LINE
  5
E882
330
E876
100
AcDbEntity
  8
contour
100
AcDbLine
 10
381.5255157133902
 20
78.26571416304656
 30
0.0
 11
381.5255157133902
 21
59.1657141630466
 31
0.0
  0
LINE
  5
E883
330
E876
100
AcDbEntity
  8
contour
100
AcDbLine
 10
380.6255157133902
 20
58.26571416304659
 30
0.0
 11
381.5255157133902
 21
59.1657141630466
 31
0.0
  0
LINE
  5
E884
330
E876
100
AcDbEntity
  8
contour
100
AcDbLine
 10
376.5255157133903
 20
78.26571416304656
 30
0.0
 11
376.5255157133903
 21
59.16571416304654
 31
0.0
  0
LINE
  5
E885
330
E876
100
AcDbEntity
  8
contour
100
AcDbLine
 10
381.5255157133902
 20
59.1657141630466
 30
0.0
 11
376.5255157133903
 21
59.16571416304657
 31
0.0
  0
LINE
  5
E886
330
E876
100
AcDbEntity
  8
contour
 62
     4
100
AcDbLine
 10
381.1255157133903
 20
77.57289384001897
 30
0.0
 11
381.1255157133901
 21
58.76571416304654
 31
0.0
  0
LINE
  5
E887
330
E876
100
AcDbEntity
  8
contour
 62
     4
100
AcDbLine
 10
376.9255157133902
 20
77.57289384001907
 30
0.0
 11
376.9255157133902
 21
58.76571416304664
 31
0.0
  0
LINE
  5
E888
330
E876
100
AcDbEntity
  8
contour
 62
     4
100
AcDbLine
 10
376.9255157133902
 20
77.57289384001907
 30
0.0
 11
376.5255157133903
 21
78.26571416304656
 31
0.0
  0
LINE
  5
E889
330
E876
100
AcDbEntity
  8
contour
100
AcDbLine
 10
376.5255157133903
 20
77.57289384001907
 30
0.0
 11
381.5255157133902
 21
77.57289384001907
 31
0.0
  0
LINE
  5
E88A
330
E876
100
AcDbEntity
  8
contour
 62
     4
100
AcDbLine
 10
381.1255157133902
 20
77.57289384001897
 30
0.0
 11
381.5255157133902
 21
78.26571416304656
 31
0.0
  0
LINE
  5
E88B
330
E876
100
AcDbEntity
  8
bowle
 48
0.2
100
AcDbLine
 10
381.3349167901487
 20
83.26571416304657
 30
0.0
 11
381.3349167901487
 21
80.76571416304657
 31
0.0
  0
LINE
  5
E88C
330
E876
100
AcDbEntity
  8
bowle
 48
0.2
100
AcDbLine
 10
376.7161146366317
 20
83.26571416304657
 30
0.0
 11
376.7161146366317
 21
80.76571416304657
 31
0.0
  0
LINE
  5
E88D
330
E876
100
AcDbEntity
  8
bowle
 48
0.2
100
AcDbLine
 10
381.3349167901487
 20
80.76571416304657
 30
0.0
 11
376.7161146366317
 21
80.76571416304657
 31
0.0
  0
LINE
  5
E88E
330
E876
100
AcDbEntity
  8
bowle
 48
0.2
100
AcDbLine
 10
380.1802162517695
 20
80.76571416304657
 30
0.0
 11
380.1802162517696
 21
83.26571416304657
 31
0.0
  0
LINE
  5
E88F
330
E876
100
AcDbEntity
  8
bowle
 48
0.2
100
AcDbLine
 10
377.870815175011
 20
80.76571416304657
 30
0.0
 11
377.870815175011
 21
83.26571416304657
 31
0.0
  0
LINE
  5
E890
330
E876
100
AcDbEntity
  8
bowle
 48
0.2
100
AcDbLine
 10
376.7161146366317
 20
80.76571416304657
 30
0.0
 11
379.0255157133903
 21
79.43238082971328
 31
0.0
  0
LINE
  5
E891
330
E876
100
AcDbEntity
  8
bowle
 48
0.2
100
AcDbLine
 10
381.3349167901487
 20
80.76571416304657
 30
0.0
 11
379.0255157133903
 21
79.43238082971328
 31
0.0
  0
ENDBLK
  5
E892
330
E876
100
AcDbEntity
  8
0
100
AcDbBlockEnd
  0
BLOCK
  5
E929
330
E928
100
AcDbEntity
  8
0
100
AcDbBlockBegin
  2
*D26
 70
     1
 10
0.0
 20
0.0
 30
0.0
  3
*D26
  1

  0
LINE
  5
EB41
330
E928
100
AcDbEntity
  8
mark
440
 16777216
370
    -2
100
AcDbLine
 10
153.6426629006727
 20
213.0116708524856
 30
0.0
 11
130.9117387332071
 21
203.8726430610466
 31
0.0
  0
LINE
  5
EB42
330
E928
100
AcDbEntity
  8
mark
440
 16777216
370
    -2
100
AcDbLine
 10
59.00580289631218
 20
174.9626726110383
 30
0.0
 11
56.68625657899298
 21
174.0300929191026
 31
0.0
  0
MTEXT
  5
EB43
330
E928
100
AcDbEntity
  8
mark
 62
     3
440
 16777216
100
AcDbMText
 10
143.6429652586318
 20
211.2546397830756
 30
0.0
 40
2.5
 41
0.0
 71
     5
 72
     1
  1
\A1;P.C.D 72.5
 11
0.9278185269276761
 21
0.3730318767743006
 31
0.0
 73
     1
 44
1.0
  0
LINE
  5
EB44
330
E928
100
AcDbEntity
  8
mark
440
 16777216
370
    -2
100
AcDbLine
 10
61.32534921363137
 20
175.8952523029741
 30
0.0
 11
128.5921924158879
 21
202.9400633691109
 31
0.0
  0
INSERT
  5
EB45
330
E928
100
AcDbEntity
  8
mark
440
 16777216
370
    -2
100
AcDbBlockReference
  2
_Open30
 10
61.32534921363137
 20
175.8952523029741
 30
0.0
 41
2.5
 42
2.5
 43
2.5
 50
21.9027229326276
  0
INSERT
  5
EB46
330
E928
100
AcDbEntity
  8
mark
440
 16777216
370
    -2
100
AcDbBlockReference
  2
_Open30
 10
128.5921924158879
 20
202.9400633691109
 30
0.0
 41
2.5
 42
2.5
 43
2.5
 50
201.9027229326276
  0
POINT
  5
EB47
330
E928
100
AcDbEntity
  8
DEFPOINTS
 62
     0
440
 16777216
100
AcDbPoint
 10
128.5921924158879
 20
202.9400633691109
 30
0.0
  0
POINT
  5
EB48
330
E928
100
AcDbEntity
  8
DEFPOINTS
 62
     0
440
 16777216
100
AcDbPoint
 10
61.32534921363137
 20
175.8952523029741
 30
0.0
  0
ENDBLK
  5
E92A
330
E928
100
AcDbEntity
  8
0
100
AcDbBlockEnd
  0
BLOCK
  5
E935
330
E934
100
AcDbEntity
  8
0
100
AcDbBlockBegin
  2
*D27
 70
     1
 10
0.0
 20
0.0
 30
0.0
  3
*D27
  1

  0
LINE
  5
EB49
330
E934
100
AcDbEntity
  8
mark
440
 16777216
370
    -2
100
AcDbLine
 10
152.919390818013
 20
201.2049005115618
 30
0.0
 11
131.706563801339
 21
196.8909242313682
 31
0.0
  0
LINE
  5
EB4A
330
E934
100
AcDbEntity
  8
mark
440
 16777216
370
    -2
100
AcDbLine
 10
58.21097782818025
 20
181.9443914407167
 30
0.0
 11
55.76112496240828
 21
181.4461736810284
 31
0.0
  0
MTEXT
  5
EB4B
330
E934
100
AcDbEntity
  8
mark
 62
     3
440
 16777216
100
AcDbMText
 10
144.6041954958698
 20
201.656855006748
 30
0.0
 40
2.5
 41
0.0
 71
     5
 72
     1
  1
\A1;P.C.D 70
 11
0.9799411463087844
 21
0.1992871038753521
 31
0.0
 73
     1
 44
1.0
  0
LINE
  5
EB4C
330
E934
100
AcDbEntity
  8
mark
440
 16777216
370
    -2
100
AcDbLine
 10
60.66083069395221
 20
182.4426092004052
 30
0.0
 11
129.256710935567
 21
196.3927064716798
 31
0.0
  0
INSERT
  5
EB4D
330
E934
100
AcDbEntity
  8
mark
440
 16777216
370
    -2
100
AcDbBlockReference
  2
_Open30
 10
60.66083069395221
 20
182.4426092004052
 30
0.0
 41
2.5
 42
2.5
 43
2.5
 50
11.49527391234593
  0
INSERT
  5
EB4E
330
E934
100
AcDbEntity
  8
mark
440
 16777216
370
    -2
100
AcDbBlockReference
  2
_Open30
 10
129.256710935567
 20
196.3927064716798
 30
0.0
 41
2.5
 42
2.5
 43
2.5
 50
191.4952739123459
  0
POINT
  5
EB4F
330
E934
100
AcDbEntity
  8
DEFPOINTS
 62
     0
440
 16777216
100
AcDbPoint
 10
129.256710935567
 20
196.3927064716798
 30
0.0
  0
POINT
  5
EB50
330
E934
100
AcDbEntity
  8
DEFPOINTS
 62
     0
440
 16777216
100
AcDbPoint
 10
60.66083069395221
 20
182.4426092004052
 30
0.0
  0
ENDBLK
  5
E936
330
E934
100
AcDbEntity
  8
0
100
AcDbBlockEnd
  0
BLOCK
  5
E941
330
E940
100
AcDbEntity
  8
0
100
AcDbBlockBegin
  2
*D28
 70
     1
 10
0.0
 20
0.0
 30
0.0
  3
*D28
  1

  0
LINE
  5
EB51
330
E940
100
AcDbEntity
  8
mark
440
 16777216
370
    -2
100
AcDbLine
 10
53.95877081475965
 20
109.3590734952464
 30
0.0
 11
53.95877081475965
 21
117.9078279458749
 31
0.0
  0
LINE
  5
EB52
330
E940
100
AcDbEntity
  8
mark
440
 16777216
370
    -2
100
AcDbLine
 10
135.9587708147596
 20
109.3590734952463
 30
0.0
 11
135.9587708147596
 21
117.9078279458749
 31
0.0
  0
LINE
  5
EB53
330
E940
100
AcDbEntity
  8
mark
440
 16777216
370
    -2
100
AcDbLine
 10
56.45877081475965
 20
117.0578279458749
 30
0.0
 11
133.4587708147596
 21
117.0578279458749
 31
0.0
  0
INSERT
  5
EB54
330
E940
100
AcDbEntity
  8
mark
440
 16777216
370
    -2
100
AcDbBlockReference
  2
_Open30
 10
53.95877081475965
 20
117.0578279458749
 30
0.0
 41
2.5
 42
2.5
 43
2.5
 50
180.0
  0
INSERT
  5
EB55
330
E940
100
AcDbEntity
  8
mark
440
 16777216
370
    -2
100
AcDbBlockReference
  2
_Open30
 10
135.9587708147596
 20
117.0578279458749
 30
0.0
 41
2.5
 42
2.5
 43
2.5
  0
MTEXT
  5
EB56
330
E940
100
AcDbEntity
  8
mark
 62
     3
440
 16777216
100
AcDbMText
 10
94.95877081475965
 20
119.3661612792082
 30
0.0
 40
2.5
 41
0.0
 71
     5
 72
     1
  1
\A1;%%c82{\H1.250000;\S 0^ -0.2;}
 73
     1
 44
1.0
  0
POINT
  5
EB57
330
E940
100
AcDbEntity
  8
DEFPOINTS
 62
     0
440
 16777216
100
AcDbPoint
 10
53.95877081475965
 20
108.5090734952464
 30
0.0
  0
POINT
  5
EB58
330
E940
100
AcDbEntity
  8
DEFPOINTS
 62
     0
440
 16777216
100
AcDbPoint
 10
135.9587708147596
 20
108.5090734952463
 30
0.0
  0
POINT
  5
EB59
330
E940
100
AcDbEntity
  8
DEFPOINTS
 62
     0
440
 16777216
100
AcDbPoint
 10
135.9587708147596
 20
117.0578279458749
 30
0.0
  0
ENDBLK
  5
E942
330
E940
100
AcDbEntity
  8
0
100
AcDbBlockEnd
  0
BLOCK
  5
E972
330
E971
100
AcDbEntity
  8
0
100
AcDbBlockBegin
  2
*D29
 70
     1
 10
0.0
 20
0.0
 30
0.0
  3
*D29
  1

  0
LINE
  5
EB5A
330
E971
100
AcDbEntity
  8
mark
440
 16777216
370
    -2
100
AcDbLine
 10
54.10877081475964
 20
109.5090734952464
 30
0.0
 11
46.78335200299661
 21
109.5090734952464
 31
0.0
  0
LINE
  5
EB5B
330
E971
100
AcDbEntity
  8
mark
440
 16777216
370
    -2
100
AcDbLine
 10
52.10877081475977
 20
100.5090734952464
 30
0.0
 11
46.78335200299661
 21
100.5090734952464
 31
0.0
  0
LINE
  5
EB5C
330
E971
100
AcDbEntity
  8
mark
440
 16777216
370
    -2
100
AcDbLine
 10
47.63335200299661
 20
107.0090734952464
 30
0.0
 11
47.63335200299661
 21
103.0090734952464
 31
0.0
  0
INSERT
  5
EB5D
330
E971
100
AcDbEntity
  8
mark
440
 16777216
370
    -2
100
AcDbBlockReference
  2
_Open30
 10
47.63335200299661
 20
109.5090734952464
 30
0.0
 41
2.5
 42
2.5
 43
2.5
 50
90.0
  0
INSERT
  5
EB5E
330
E971
100
AcDbEntity
  8
mark
440
 16777216
370
    -2
100
AcDbBlockReference
  2
_Open30
 10
47.63335200299661
 20
100.5090734952464
 30
0.0
 41
2.5
 42
2.5
 43
2.5
 50
270.0
  0
MTEXT
  5
EB5F
330
E971
100
AcDbEntity
  8
mark
 62
     3
440
 16777216
100
AcDbMText
 10
45.5333520029966
 20
105.0090734952464
 30
0.0
 40
2.5
 41
0.0
 71
     5
 72
     1
  1
\A1;9
 11
0.0000000000000001
 21
1.0
 31
0.0
 73
     1
 44
1.0
  0
POINT
  5
EB60
330
E971
100
AcDbEntity
  8
DEFPOINTS
 62
     0
440
 16777216
100
AcDbPoint
 10
54.95877081475964
 20
109.5090734952464
 30
0.0
  0
POINT
  5
EB61
330
E971
100
AcDbEntity
  8
DEFPOINTS
 62
     0
440
 16777216
100
AcDbPoint
 10
52.95877081475977
 20
100.5090734952464
 30
0.0
  0
POINT
  5
EB62
330
E971
100
AcDbEntity
  8
DEFPOINTS
 62
     0
440
 16777216
100
AcDbPoint
 10
47.63335200299661
 20
100.5090734952464
 30
0.0
  0
ENDBLK
  5
E973
330
E971
100
AcDbEntity
  8
0
100
AcDbBlockEnd
  0
BLOCK
  5
E985
330
E984
100
AcDbEntity
  8
0
100
AcDbBlockBegin
  2
*D30
 70
     1
 10
0.0
 20
0.0
 30
0.0
  3
*D30
  1

  0
LINE
  5
EB63
330
E984
100
AcDbEntity
  8
mark
440
 16777216
370
    -2
100
AcDbLine
 10
135.8087708147596
 20
109.5090734952463
 30
0.0
 11
145.3866680520301
 21
109.5090734952463
 31
0.0
  0
LINE
  5
EB64
330
E984
100
AcDbEntity
  8
mark
440
 16777216
370
    -2
100
AcDbLine
 10
135.8087708147596
 20
92.65907349524633
 30
0.0
 11
145.3866680520301
 21
92.65907349524633
 31
0.0
  0
LINE
  5
EB65
330
E984
100
AcDbEntity
  8
mark
440
 16777216
370
    -2
100
AcDbLine
 10
144.5366680520301
 20
107.0090734952463
 30
0.0
 11
144.5366680520301
 21
95.15907349524633
 31
0.0
  0
INSERT
  5
EB66
330
E984
100
AcDbEntity
  8
mark
440
 16777216
370
    -2
100
AcDbBlockReference
  2
_Open30
 10
144.5366680520301
 20
109.5090734952463
 30
0.0
 41
2.5
 42
2.5
 43
2.5
 50
90.0
  0
INSERT
  5
EB67
330
E984
100
AcDbEntity
  8
mark
440
 16777216
370
    -2
100
AcDbBlockReference
  2
_Open30
 10
144.5366680520301
 20
92.65907349524633
 30
0.0
 41
2.5
 42
2.5
 43
2.5
 50
270.0
  0
MTEXT
  5
EB68
330
E984
100
AcDbEntity
  8
mark
 62
     3
440
 16777216
100
AcDbMText
 10
142.4366680520301
 20
101.0840734952463
 30
0.0
 40
2.5
 41
0.0
 71
     5
 72
     1
  1
\A1;16.85
 11
0.0000000000000001
 21
1.0
 31
0.0
 73
     1
 44
1.0
  0
POINT
  5
EB69
330
E984
100
AcDbEntity
  8
DEFPOINTS
 62
     0
440
 16777216
100
AcDbPoint
 10
134.9587708147596
 20
109.5090734952463
 30
0.0
  0
POINT
  5
EB6A
330
E984
100
AcDbEntity
  8
DEFPOINTS
 62
     0
440
 16777216
100
AcDbPoint
 10
134.9587708147596
 20
92.65907349524633
 30
0.0
  0
POINT
  5
EB6B
330
E984
100
AcDbEntity
  8
DEFPOINTS
 62
     0
440
 16777216
100
AcDbPoint
 10
144.5366680520301
 20
92.65907349524633
 30
0.0
  0
ENDBLK
  5
E986
330
E984
100
AcDbEntity
  8
0
100
AcDbBlockEnd
  0
BLOCK
  5
EA78
330
EA77
100
AcDbEntity
  8
0
100
AcDbBlockBegin
  2
*D32
 70
     1
 10
0.0
 20
0.0
 30
0.0
  3
*D32
  1

  0
LINE
  5
EB6C
330
EA77
100
AcDbEntity
  8
mark
  6
ByBlock
440
 16777216
370
    -2
100
AcDbLine
 10
135.8087708147596
 20
92.65907349524633
 30
0.0
 11
145.3866680520301
 21
92.65907349524633
 31
0.0
  0
LINE
  5
EB6D
330
EA77
100
AcDbEntity
  8
mark
  6
ByBlock
440
 16777216
370
    -2
100
AcDbLine
 10
135.8087708147596
 20
90.65907349524634
 30
0.0
 11
145.3866680520301
 21
90.65907349524634
 31
0.0
  0
LINE
  5
EB6E
330
EA77
100
AcDbEntity
  8
mark
  6
ByBlock
440
 16777216
370
    -2
100
AcDbLine
 10
144.5366680520301
 20
95.15907349524633
 30
0.0
 11
144.5366680520301
 21
97.65907349524633
 31
0.0
  0
LINE
  5
EB6F
330
EA77
100
AcDbEntity
  8
mark
  6
ByBlock
440
 16777216
370
    -2
100
AcDbLine
 10
144.5366680520301
 20
88.15907349524634
 30
0.0
 11
144.5366680520301
 21
85.65907349524634
 31
0.0
  0
LINE
  5
EB70
330
EA77
100
AcDbEntity
  8
mark
  6
ByBlock
440
 16777216
370
    -2
100
AcDbLine
 10
144.5366680520301
 20
92.65907349524633
 30
0.0
 11
144.5366680520301
 21
90.65907349524634
 31
0.0
  0
INSERT
  5
EB71
330
EA77
100
AcDbEntity
  8
mark
440
 16777216
370
    -2
100
AcDbBlockReference
  2
_Open30
 10
144.5366680520301
 20
92.65907349524633
 30
0.0
 41
2.5
 42
2.5
 43
2.5
 50
270.0
  0
INSERT
  5
EB72
330
EA77
100
AcDbEntity
  8
mark
440
 16777216
370
    -2
100
AcDbBlockReference
  2
_Open30
 10
144.5366680520301
 20
90.65907349524634
 30
0.0
 41
2.5
 42
2.5
 43
2.5
 50
90.0
  0
MTEXT
  5
EB73
330
EA77
100
AcDbEntity
  8
mark
 62
     3
440
 16777216
100
AcDbMText
 10
142.4366680520301
 20
91.65907349524635
 30
0.0
 40
2.5
 41
0.0
 71
     5
 72
     1
  1
\A1;2
 11
0.0000000000000001
 21
1.0
 31
0.0
 73
     1
 44
1.0
  0
POINT
  5
EB74
330
EA77
100
AcDbEntity
  8
DEFPOINTS
 62
     0
440
 16777216
100
AcDbPoint
 10
134.9587708147596
 20
92.65907349524633
 30
0.0
  0
POINT
  5
EB75
330
EA77
100
AcDbEntity
  8
DEFPOINTS
 62
     0
440
 16777216
100
AcDbPoint
 10
134.9587708147596
 20
90.65907349524634
 30
0.0
  0
POINT
  5
EB76
330
EA77
100
AcDbEntity
  8
DEFPOINTS
 62
     0
440
 16777216
100
AcDbPoint
 10
144.5366680520301
 20
90.65907349524634
 30
0.0
  0
ENDBLK
  5
EA79
330
EA77
100
AcDbEntity
  8
0
100
AcDbBlockEnd
  0
BLOCK
  5
EA87
330
EA86
100
AcDbEntity
  8
0
100
AcDbBlockBegin
  2
*D33
 70
     1
 10
0.0
 20
0.0
 30
0.0
  3
*D33
  1

  0
LINE
  5
EB77
330
EA86
100
AcDbEntity
  8
mark
  6
ByBlock
440
 16777216
370
    -2
100
AcDbLine
 10
135.8087708147596
 20
109.5090734952463
 30
0.0
 11
154.6856032115532
 21
109.5090734952463
 31
0.0
  0
LINE
  5
EB78
330
EA86
100
AcDbEntity
  8
mark
  6
ByBlock
440
 16777216
370
    -2
100
AcDbLine
 10
135.8087708147595
 20
83.5090734952463
 30
0.0
 11
154.6856032115532
 21
83.5090734952463
 31
0.0
  0
LINE
  5
EB79
330
EA86
100
AcDbEntity
  8
mark
  6
ByBlock
440
 16777216
370
    -2
100
AcDbLine
 10
153.8356032115532
 20
107.0090734952463
 30
0.0
 11
153.8356032115532
 21
86.0090734952463
 31
0.0
  0
INSERT
  5
EB7A
330
EA86
100
AcDbEntity
  8
mark
440
 16777216
370
    -2
100
AcDbBlockReference
  2
_Open30
 10
153.8356032115532
 20
109.5090734952463
 30
0.0
 41
2.5
 42
2.5
 43
2.5
 50
90.0
  0
INSERT
  5
EB7B
330
EA86
100
AcDbEntity
  8
mark
440
 16777216
370
    -2
100
AcDbBlockReference
  2
_Open30
 10
153.8356032115532
 20
83.5090734952463
 30
0.0
 41
2.5
 42
2.5
 43
2.5
 50
270.0
  0
MTEXT
  5
EB7C
330
EA86
100
AcDbEntity
  8
mark
 62
     3
440
 16777216
100
AcDbMText
 10
151.7356032115532
 20
96.50907349524635
 30
0.0
 40
2.5
 41
0.0
 71
     5
 72
     1
  1
\A1;26%%P0.2
 11
0.0000000000000001
 21
1.0
 31
0.0
 73
     1
 44
1.0
  0
POINT
  5
EB7D
330
EA86
100
AcDbEntity
  8
DEFPOINTS
 62
     0
440
 16777216
100
AcDbPoint
 10
134.9587708147596
 20
109.5090734952463
 30
0.0
  0
POINT
  5
EB7E
330
EA86
100
AcDbEntity
  8
DEFPOINTS
 62
     0
440
 16777216
100
AcDbPoint
 10
134.9587708147595
 20
83.5090734952463
 30
0.0
  0
POINT
  5
EB7F
330
EA86
100
AcDbEntity
  8
DEFPOINTS
 62
     0
440
 16777216
100
AcDbPoint
 10
153.8356032115532
 20
83.5090734952463
 30
0.0
  0
ENDBLK
  5
EA88
330
EA86
100
AcDbEntity
  8
0
100
AcDbBlockEnd
  0
BLOCK
  5
EAB8
330
EAB7
100
AcDbEntity
  8
0
100
AcDbBlockBegin
  2
*D34
 70
     1
 10
0.0
 20
0.0
 30
0.0
  3
*D34
  1

  0
LINE
  5
EB80
330
EAB7
100
AcDbEntity
  8
mark
  6
ByBlock
440
 16777216
370
    -2
100
AcDbLine
 10
123.9587708147596
 20
83.40907349524636
 30
0.0
 11
123.9587708147596
 21
73.92567704216381
 31
0.0
  0
LINE
  5
EB81
330
EAB7
100
AcDbEntity
  8
mark
  6
ByBlock
440
 16777216
370
    -2
100
AcDbLine
 10
65.95877081475965
 20
83.40907349524732
 30
0.0
 11
65.95877081475965
 21
73.92567704216381
 31
0.0
  0
LINE
  5
EB82
330
EAB7
100
AcDbEntity
  8
mark
  6
ByBlock
440
 16777216
370
    -2
100
AcDbLine
 10
121.4587708147596
 20
74.7756770421638
 30
0.0
 11
68.45877081475965
 21
74.7756770421638
 31
0.0
  0
INSERT
  5
EB83
330
EAB7
100
AcDbEntity
  8
mark
440
 16777216
370
    -2
100
AcDbBlockReference
  2
_Open30
 10
123.9587708147596
 20
74.7756770421638
 30
0.0
 41
2.5
 42
2.5
 43
2.5
  0
INSERT
  5
EB84
330
EAB7
100
AcDbEntity
  8
mark
440
 16777216
370
    -2
100
AcDbBlockReference
  2
_Open30
 10
65.95877081475965
 20
74.7756770421638
 30
0.0
 41
2.5
 42
2.5
 43
2.5
 50
180.0
  0
MTEXT
  5
EB85
330
EAB7
100
AcDbEntity
  8
mark
 62
     3
440
 16777216
100
AcDbMText
 10
94.95877081475965
 20
76.8756770421638
 30
0.0
 40
2.5
 41
0.0
 71
     5
 72
     1
  1
\A1;M58x1.5P
 73
     1
 44
1.0
  0
POINT
  5
EB86
330
EAB7
100
AcDbEntity
  8
DEFPOINTS
 62
     0
440
 16777216
100
AcDbPoint
 10
123.9587708147596
 20
84.25907349524635
 30
0.0
  0
POINT
  5
EB87
330
EAB7
100
AcDbEntity
  8
DEFPOINTS
 62
     0
440
 16777216
100
AcDbPoint
 10
65.95877081475965
 20
84.25907349524733
 30
0.0
  0
POINT
  5
EB88
330
EAB7
100
AcDbEntity
  8
DEFPOINTS
 62
     0
440
 16777216
100
AcDbPoint
 10
65.95877081475965
 20
74.7756770421638
 30
0.0
  0
ENDBLK
  5
EAB9
330
EAB7
100
AcDbEntity
  8
0
100
AcDbBlockEnd
  0
ENDSEC
  0
SECTION
  2
ENTITIES
  0
MTEXT
  5
C0
330
18
100
AcDbEntity
  8
0
100
AcDbMText
 10
41.26970765600413
 20
233.6950877649332
 30
0.0
 40
2.5
 41
0.0
 71
     1
 72
     5
  1

  7
CN
 73
     1
 44
1.0
  0
LWPOLYLINE
  5
DBC3
330
18
100
AcDbEntity
  8
frame
100
AcDbPolyline
 90
        4
 70
     1
 43
0.0
 10
190.0
 20
280.0
 10
0.0
 20
280.0
 10
0.0
 20
0.0
 10
190.0
 20
0.0
  0
MTEXT
  5
DBC4
102
{ACAD_XDICTIONARY
360
EC6E
102
}
330
18
100
AcDbEntity
  8
0
100
AcDbMText
 10
17.09950368689175
 20
19.07605901616614
 30
0.0
 40
5.0
 41
0.0
 71
     1
 72
     5
  1
{\Ftxt,bigfont|c128;\W0.5;林彦旭}
 73
     1
 44
1.0
  0
MTEXT
  5
DBC5
330
18
100
AcDbEntity
  8
0
100
AcDbMText
 10
77.95294729228851
 20
28.93578979870677
 30
0.0
 40
4.5
 41
0.0
 71
     1
 72
     5
  1
{\Ftxt,bigfont|c128;\W0.5;1 : 1}
 73
     1
 44
1.0
  0
MTEXT
  5
DBC6
330
18
100
AcDbEntity
  8
0
100
AcDbMText
 10
126.3732928177675
 20
8.303263321280269
 30
0.0
 40
5.0
 41
0.0
 71
     1
 72
     5
  1
{\W0.5;N L 4 0 \Ftxt,bigfont|c136;4 0 0}
 73
     1
 44
1.0
  0
MTEXT
  5
DBC7
330
18
100
AcDbEntity
  8
0
100
AcDbMText
 10
151.5700116201594
 20
27.85218499726989
 30
0.0
 40
5.0
 41
0.0
 71
     1
 72
     5
  1
\P{\W0.5;MKR5\Ftxt,bigfont|c136;8x1\Ftxt,bigfont|c128;.\Ftxt,bigfont|c136;5\Ftxt,bigfont|c128;P}
 73
     1
 44
1.0
  0
MTEXT
  5
DBC8
330
18
100
AcDbEntity
  8
0
100
AcDbMText
 10
15.3760677136774
 20
28.37740359834709
 30
0.0
 40
4.5
 41
0.0
 71
     1
 72
     5
  1
{\Ftxt,bigfont|c136;\W0.5;16\Ftxt,bigfont|c128;.0\Ftxt,bigfont|c136;2.01}
 73
     1
 44
1.0
  0
MTEXT
  5
DBC9
102
{ACAD_XDICTIONARY
360
EC70
102
}
330
18
100
AcDbEntity
  8
0
100
AcDbMText
 10
9.2763627141411
 20
9.242195050049303
 30
0.0
 40
7.0
 41
0.0
 71
     1
 72
     5
  1
{\Ftxt,bigfont|c128;\W1.5;日機株式会社}
 73
     1
 44
1.0
  0
LINE
  5
DBCA
330
18
100
AcDbEntity
  8
frame
100
AcDbLine
 10
0.0
 20
12.0
 30
0.0
 11
190.0
 21
12.00000000000005
 31
0.0
  0
LINE
  5
DBCB
330
18
100
AcDbEntity
  8
frame
100
AcDbLine
 10
0.0
 20
22.0
 30
0.0
 11
92.12121212121223
 21
22.0
 31
0.0
  0
LINE
  5
DBCC
330
18
100
AcDbEntity
  8
frame
100
AcDbLine
 10
0.0
 20
32.0
 30
0.0
 11
190.0
 21
32.0
 31
0.0
  0
LINE
  5
DBCD
330
18
100
AcDbEntity
  8
frame
100
AcDbLine
 10
12.19077332493799
 20
32.0
 30
0.0
 11
12.19077332493799
 21
12.0
 31
0.0
  0
LINE
  5
DBCE
330
18
100
AcDbEntity
  8
frame
100
AcDbLine
 10
30.70707070707067
 20
32.0
 30
0.0
 11
30.70707070707078
 21
12.0
 31
0.0
  0
MTEXT
  5
DBCF
102
{ACAD_XDICTIONARY
360
EC72
102
}
330
18
100
AcDbEntity
  8
0
100
AcDbMText
 10
2.830274784221955
 20
29.08190089582831
 30
0.0
 40
5.0
 41
0.0
 71
     1
 72
     5
  1
{\Ftxt,bigfont|c128;\W0.5;日 付}
 73
     1
 44
1.0
  0
MTEXT
  5
DBD0
102
{ACAD_XDICTIONARY
360
EC74
102
}
330
18
100
AcDbEntity
  8
0
100
AcDbMText
 10
2.97063307743889
 20
19.52163842926637
 30
0.0
 40
5.0
 41
0.0
 71
     1
 72
     5
  1
{\Ftxt,bigfont|c128;\W0.5;製 図}
 73
     1
 44
1.0
  0
LINE
  5
DBD1
330
18
100
AcDbEntity
  8
0
 62
     7
370
    25
100
AcDbLine
 10
53.04580144287854
 20
23.81984609294597
 30
0.0
 11
53.04580144287854
 21
28.93622339589922
 31
0.0
  0
MTEXT
  5
DBD2
102
{ACAD_XDICTIONARY
360
EC76
102
}
330
18
100
AcDbEntity
  8
0
100
AcDbMText
 10
64.00748852490835
 20
29.12242703792379
 30
0.0
 40
5.0
 41
0.0
 71
     1
 72
     5
  1
{\Ftxt,bigfont|c128;\W0.5;尺 度}
 73
     1
 44
1.0
  0
LINE
  5
DBD3
330
18
100
AcDbEntity
  8
frame
100
AcDbLine
 10
61.41414141414145
 20
32.0
 30
0.0
 11
61.41414141414145
 21
12.0
 31
0.0
  0
LINE
  5
DBD4
330
18
100
AcDbEntity
  8
0
 62
     7
370
    25
100
AcDbLine
 10
39.6153110226262
 20
23.18889018332635
 30
0.0
 11
39.6153110226262
 21
29.36457992429672
 31
0.0
  0
CIRCLE
  5
DBD5
330
18
100
AcDbEntity
  8
0
 62
     7
100
AcDbCircle
 10
39.6153110226262
 20
26.37803474442251
 30
0.0
 40
2.558188651476678
  0
LINE
  5
DBD6
330
18
100
AcDbEntity
  8
0
 62
     7
370
    25
100
AcDbLine
 10
47.19321986919976
 20
26.37803474442262
 30
0.0
 11
53.50512581624241
 21
26.37803474442262
 31
0.0
  0
LINE
  5
DBD7
330
18
100
AcDbEntity
  8
0
 62
     7
100
AcDbLine
 10
47.92942413992534
 20
25.09894041868427
 30
0.0
 11
53.04580144287854
 21
23.81984609294597
 31
0.0
  0
LINE
  5
DBD8
330
18
100
AcDbEntity
  8
frame
100
AcDbLine
 10
42.742241959951
 20
22.0
 30
0.0
 11
42.742241959951
 21
12.0
 31
0.0
  0
LINE
  5
DBD9
330
18
100
AcDbEntity
  8
0
 62
     7
370
    25
100
AcDbLine
 10
36.41832228486612
 20
26.37803474442251
 30
0.0
 11
43.00325267619268
 21
26.37803474442262
 31
0.0
  0
CIRCLE
  5
DBDA
330
18
100
AcDbEntity
  8
0
 62
     7
100
AcDbCircle
 10
39.6153110226262
 20
26.37803474442251
 30
0.0
 40
1.279094325738339
  0
MTEXT
  5
DBDB
102
{ACAD_XDICTIONARY
360
EC78
102
}
330
18
100
AcDbEntity
  8
0
100
AcDbMText
 10
33.70184032462407
 20
19.41013815785266
 30
0.0
 40
5.0
 41
0.0
 71
     1
 72
     5
  1
{\Ftxt,bigfont|c128;\W0.5;検 図}
 73
     1
 44
1.0
  0
LINE
  5
DBDC
330
18
100
AcDbEntity
  8
0
 62
     7
370
    25
100
AcDbLine
 10
47.92942413992534
 20
25.09894041868427
 30
0.0
 11
47.92942413992534
 21
27.65712907016086
 31
0.0
  0
MTEXT
  5
DBDD
102
{ACAD_XDICTIONARY
360
EC7A
102
}
330
18
100
AcDbEntity
  8
0
100
AcDbMText
 10
64.28820249919829
 20
19.32058534748881
 30
0.0
 40
5.0
 41
0.0
 71
     1
 72
     5
  1
{\Ftxt,bigfont|c128;\W0.5;承 認}
 73
     1
 44
1.0
  0
MTEXT
  5
DBDE
102
{ACAD_XDICTIONARY
360
EC7C
102
}
330
18
100
AcDbEntity
  8
0
100
AcDbMText
 10
93.71128715606699
 20
8.296061362868272
 30
0.0
 40
5.0
 41
0.0
 71
     1
 72
     5
  1
{\Ftxt,bigfont|c128;\W0.5;図  面  番  号}
 73
     1
 44
1.0
  0
MTEXT
  5
DBDF
102
{ACAD_XDICTIONARY
360
EC7E
102
}
330
18
100
AcDbEntity
  8
0
100
AcDbMText
 10
94.7183859919138
 20
19.32058534748881
 30
0.0
 40
5.0
 41
0.0
 71
     1
 72
     5
  1
{\W0.5;精密ロックナット}
 73
     1
 44
1.0
  0
MTEXT
  5
DBE0
102
{ACAD_XDICTIONARY
360
EC80
102
}
330
18
100
AcDbEntity
  8
0
100
AcDbMText
 10
94.8083613031232
 20
29.03862457973275
 30
0.0
 40
5.0
 41
0.0
 71
     1
 72
     5
  1
{\Ftxt,bigfont|c128;\W0.5;品  名}
 73
     1
 44
1.0
  0
LINE
  5
DBE1
330
18
100
AcDbEntity
  8
frame
100
AcDbLine
 10
92.12121212121223
 20
32.0
 30
0.0
 11
92.12121212121223
 21
0.1833227579584786
 31
0.0
  0
LINE
  5
DBE2
330
18
100
AcDbEntity
  8
frame
100
AcDbLine
 10
73.41414141414145
 20
32.0
 30
0.0
 11
73.41414141414145
 21
12.0
 31
0.0
  0
LINE
  5
DBE3
330
18
100
AcDbEntity
  8
frame
100
AcDbLine
 10
147.0327092740656
 20
32.0
 30
0.0
 11
147.0327092740657
 21
12.0
 31
0.0
  0
MTEXT
  5
DBE4
102
{ACAD_XDICTIONARY
360
EC82
102
}
330
18
100
AcDbEntity
  8
0
100
AcDbMText
 10
150.895959446773
 20
29.04517782830391
 30
0.0
 40
5.0
 41
0.0
 71
     1
 72
     5
  1
{\Ftxt,bigfont|c128;\W0.5;型  番}
 73
     1
 44
1.0
  0
MTEXT
  5
DBE5
102
{ACAD_XDICTIONARY
360
EC84
102
}
330
18
100
AcDbEntity
  8
0
100
AcDbMText
 10
165.8059614810325
 20
8.576913178763106
 30
0.0
 40
5.0
 41
0.0
 71
     1
 72
     5
  1
{\Ftxt,bigfont|c128;\W0.5;変更}
 73
     1
 44
1.0
  0
LINE
  5
DBE6
330
18
100
AcDbEntity
  8
frame
100
AcDbLine
 10
164.0909090909092
 20
12.00000000000005
 30
0.0
 11
164.0909090909093
 21
0.0
 31
0.0
  0
LINE
  5
DBE7
330
18
100
AcDbEntity
  8
frame
100
AcDbLine
 10
124.6157900786393
 20
43.13491348924492
 30
0.0
 11
184.6157900786393
 21
43.13491348924481
 31
0.0
  0
LINE
  5
DBE8
330
18
100
AcDbEntity
  8
frame
100
AcDbLine
 10
124.6157900786393
 20
50.33491348924497
 30
0.0
 11
184.6157900786393
 21
50.33491348924497
 31
0.0
  0
LINE
  5
DBE9
330
18
100
AcDbEntity
  8
frame
100
AcDbLine
 10
124.6157900786393
 20
57.5349134892449
 30
0.0
 11
184.6157900786393
 21
57.53491348924478
 31
0.0
  0
LINE
  5
DBEA
330
18
100
AcDbEntity
  8
frame
100
AcDbLine
 10
124.6157900786393
 20
64.73491348924494
 30
0.0
 11
184.6157900786393
 21
64.73491348924483
 31
0.0
  0
LINE
  5
DBEB
330
18
100
AcDbEntity
  8
frame
100
AcDbLine
 10
124.6157900786393
 20
35.93491348924488
 30
0.0
 11
184.6157900786393
 21
35.93491348924488
 31
0.0
  0
MTEXT
  5
DBEC
102
{ACAD_XDICTIONARY
360
EC86
102
}
330
18
100
AcDbEntity
  8
0
 48
2.0
100
AcDbMText
 10
154.5011900445106
 20
65.52808189982909
 30
0.0
 40
5.0
 41
0.0
 71
     5
 72
     1
  1
\P{\Ftxt,bigfont|c128;\H1.042x;\W0.5;諸　　　　元}
 73
     1
 44
1.0
  0
LINE
  5
DBED
330
18
100
AcDbEntity
  8
frame
100
AcDbLine
 10
124.6157900786393
 20
64.73491348924483
 30
0.0
 11
124.6157900786393
 21
35.93491348924488
 31
0.0
  0
MTEXT
  5
DBEE
102
{ACAD_XDICTIONARY
360
EC88
102
}
330
18
100
AcDbEntity
  8
0
 48
2.0
100
AcDbMText
 10
135.799177113669
 20
54.01970870242223
 30
0.0
 40
5.0
 41
0.0
 71
     5
 72
     1
  1
{\Ftxt,bigfont|c128;\W0.5;熱　処　理}
 73
     1
 44
1.0
  0
LINE
  5
DBEF
330
18
100
AcDbEntity
  8
0
100
AcDbLine
 10
148.6157900786393
 20
57.53491348924478
 30
0.0
 11
148.6157900786393
 21
35.93491348924488
 31
0.0
  0
MTEXT
  5
DBF0
102
{ACAD_XDICTIONARY
360
EC8A
102
}
330
18
100
AcDbEntity
  8
0
 48
2.0
100
AcDbMText
 10
136.1158625954765
 20
46.61974099088547
 30
0.0
 40
5.0
 41
0.0
 71
     5
 72
     1
  1
{\Ftxt,bigfont|c128;\W0.5;表 面 処 理}
 73
     1
 44
1.0
  0
MTEXT
  5
DBF1
102
{ACAD_XDICTIONARY
360
EC8C
102
}
330
18
100
AcDbEntity
  8
0
 48
2.0
100
AcDbMText
 10
136.3064351357138
 20
39.53013776941589
 30
0.0
 40
5.0
 41
0.0
 71
     5
 72
     1
  1
{\Ftxt,bigfont|c128;\W0.5;等     　級}
 73
     1
 44
1.0
  0
LINE
  5
DBF2
330
18
100
AcDbEntity
  8
frame
100
AcDbLine
 10
184.6157900786393
 20
64.73491348924483
 30
0.0
 11
184.6157900786393
 21
35.93491348924499
 31
0.0
  0
MTEXT
  5
DBF3
102
{ACAD_XDICTIONARY
360
EC8E
102
}
330
18
100
AcDbEntity
  8
0
 48
2.0
100
AcDbMText
 10
167.1483511063784
 20
53.94720739886157
 30
0.0
 40
5.0
 41
0.0
 71
     5
 72
     1
  1
{\Ftxt,bigfont|c128;\W0.5;調質　HRC30%%D%%P２%%D}
 73
     1
 44
1.0
  0
MTEXT
  5
DBF4
102
{ACAD_XDICTIONARY
360
EC90
102
}
330
18
100
AcDbEntity
  8
0
 48
2.0
100
AcDbMText
 10
161.5295505616327
 20
39.48145527421412
 30
0.0
 40
5.0
 41
0.0
 71
     5
 72
     1
  1
{\Ftxt,bigfont|c128;\W0.5;ＩＳＯ - ４Ｈ}
 73
     1
 44
1.0
  0
MTEXT
  5
DBF5
102
{ACAD_XDICTIONARY
360
EC92
102
}
330
18
100
AcDbEntity
  8
0
 48
2.0
100
AcDbMText
 10
161.3126275617533
 20
46.86379586210626
 30
0.0
 40
5.0
 41
0.0
 71
     5
 72
     1
  1
{\Ftxt,bigfont|c128;\W0.5;黒  　    染}
 73
     1
 44
1.0
  0
MTEXT
  5
DBF6
330
18
100
AcDbEntity
  8
0
100
AcDbMText
 10
57.63639061334425
 20
260.2464527942954
 30
0.0
 40
5.0
 41
0.0
 71
     1
 72
     5
  1
{\W0.5;M\Ftxt,bigfont|c136;5x\Ftxt,bigfont|c128;0.\Ftxt,bigfont|c136;8\Ftxt,bigfont|c128;P-18L}
 73
     1
 44
1.0
  0
LINE
  5
DBF7
330
18
100
AcDbEntity
  8
frame
100
AcDbLine
 10
0.0
 20
254.0
 30
0.0
 11
190.0
 21
254.0
 31
0.0
  0
LINE
  5
DBF8
330
18
100
AcDbEntity
  8
frame
100
AcDbLine
 10
0.0
 20
262.0
 30
0.0
 11
190.0
 21
262.0
 31
0.0
  0
LINE
  5
DBF9
330
18
100
AcDbEntity
  8
frame
 62
     9
100
AcDbLine
 10
0.0
 20
270.0
 30
0.0
 11
190.0
 21
270.0
 31
0.0
  0
MTEXT
  5
DBFA
102
{ACAD_XDICTIONARY
360
EC94
102
}
330
18
100
AcDbEntity
  8
0
100
AcDbMText
 10
57.0156439060371
 20
277.4240560049041
 30
0.0
 40
5.0
 41
0.0
 71
     1
 72
     5
  1
{\Ftxt,bigfont|c128;\W0.5;図    番 / 規　　格}
 73
     1
 44
1.0
  0
LINE
  5
DBFB
330
18
100
AcDbEntity
  8
frame
100
AcDbLine
 10
0.0
 20
254.0
 30
0.0
 11
190.0
 21
254.0
 31
0.0
  0
MTEXT
  5
DBFC
102
{ACAD_XDICTIONARY
360
EC96
102
}
330
18
100
AcDbEntity
  8
0
100
AcDbMText
 10
21.12488048923433
 20
277.4637981386743
 30
0.0
 40
5.0
 41
0.0
 71
     1
 72
     5
  1
{\Ftxt,bigfont|c128;\W0.5;品　          名}
 73
     1
 44
1.0
  0
MTEXT
  5
DBFD
102
{ACAD_XDICTIONARY
360
EC98
102
}
330
18
100
AcDbEntity
  8
0
100
AcDbMText
 10
21.00789435981875
 20
260.7907237289111
 30
0.0
 40
5.0
 41
0.0
 71
     1
 72
     5
  1
{\Ftxt,bigfont|c128;\W0.5;セットスクリュ-}
 73
     1
 44
1.0
  0
MTEXT
  5
DBFE
102
{ACAD_XDICTIONARY
360
EC9A
102
}
330
18
100
AcDbEntity
  8
0
100
AcDbMText
 10
20.82017529734901
 20
268.8361230282964
 30
0.0
 40
5.0
 41
0.0
 71
     1
 72
     5
  1
{\Ftxt,bigfont|c128;\W0.5;ロックナット　  }
 73
     1
 44
1.0
  0
LINE
  5
DBFF
330
18
100
AcDbEntity
  8
frame
 62
     9
100
AcDbLine
 10
14.39393939393937
 20
279.9999999999999
 30
0.0
 11
14.39393939393963
 21
254.0
 31
0.0
  0
LINE
  5
DC00
330
18
100
AcDbEntity
  8
frame
 62
     9
100
AcDbLine
 10
14.39393939393937
 20
279.9999999999999
 30
0.0
 11
14.39393939393937
 21
255.0505050505051
 31
0.0
  0
MTEXT
  5
DC01
330
18
100
AcDbEntity
  8
0
100
AcDbMText
 10
6.815009268013795
 20
268.7281674434121
 30
0.0
 40
5.0
 41
0.0
 71
     1
 72
     5
  1
{\Ftxt,bigfont|c128;1}
 73
     1
 44
1.0
  0
MTEXT
  5
DC02
102
{ACAD_XDICTIONARY
360
EC9C
102
}
330
18
100
AcDbEntity
  8
0
100
AcDbMText
 10
2.119828072980226
 20
277.4734782639491
 30
0.0
 40
5.0
 41
0.0
 71
     1
 72
     5
  1
{\Ftxt,bigfont|c128;\W0.5;照   号}
 73
     1
 44
1.0
  0
LINE
  5
DC03
330
18
100
AcDbEntity
  8
frame
 62
     9
100
AcDbLine
 10
52.77777777777783
 20
279.9999999999999
 30
0.0
 11
52.77777777777783
 21
254.0
 31
0.0
  0
MTEXT
  5
DC04
102
{ACAD_XDICTIONARY
360
EC9E
102
}
330
18
100
AcDbEntity
  8
0
100
AcDbMText
 10
145.5736374372851
 20
277.6781663894194
 30
0.0
 40
5.0
 41
0.0
 71
     1
 72
     5
  1
{\Ftxt,bigfont|c128;\W0.5;備           考}
 73
     1
 44
1.0
  0
LINE
  5
DC05
330
18
100
AcDbEntity
  8
frame
 62
     9
100
AcDbLine
 10
91.16161616161617
 20
280.0
 30
0.0
 11
91.16161616161617
 21
254.0
 31
0.0
  0
MTEXT
  5
DC06
330
18
100
AcDbEntity
  8
0
100
AcDbMText
 10
92.87341089179369
 20
268.8361230282964
 30
0.0
 40
5.0
 41
0.0
 71
     1
 72
     5
  1
{\Ftxt,bigfont|c128;\W0.5;SCM440}
 73
     1
 44
1.0
  0
MTEXT
  5
DC07
330
18
100
AcDbEntity
  8
0
100
AcDbMText
 10
92.87341089179369
 20
260.765002012584
 30
0.0
 40
5.0
 41
0.0
 71
     1
 72
     5
  1
{\Ftxt,bigfont|c128;\W0.5;SCM435}
 73
     1
 44
1.0
  0
MTEXT
  5
DC08
102
{ACAD_XDICTIONARY
360
ECA0
102
}
330
18
100
AcDbEntity
  8
0
100
AcDbMText
 10
95.76798863104192
 20
277.5645499482919
 30
0.0
 40
5.0
 41
0.0
 71
     1
 72
     5
  1
{\Ftxt,bigfont|c128;\W0.5;材　質}
 73
     1
 44
1.0
  0
LINE
  5
DC09
330
18
100
AcDbEntity
  8
frame
 62
     9
100
AcDbLine
 10
110.3535353535354
 20
280.0
 30
0.0
 11
110.3535353535354
 21
254.0
 31
0.0
  0
LINE
  5
DC0A
330
18
100
AcDbEntity
  8
frame
100
AcDbLine
 10
124.7474747474747
 20
280.0
 30
0.0
 11
124.7474747474748
 21
254.0
 31
0.0
  0
MTEXT
  5
DC0B
330
18
100
AcDbEntity
  8
0
100
AcDbMText
 10
117.1685446215491
 20
269.0412711679932
 30
0.0
 40
5.0
 41
0.0
 71
     1
 72
     5
  1
\Ftxt.shx,bigfont.shx|c128;1
 73
     1
 44
1.0
  0
MTEXT
  5
DC0C
330
18
100
AcDbEntity
  8
0
100
AcDbMText
 10
116.5939070266884
 20
260.5092290150679
 30
0.0
 40
5.0
 41
0.0
 71
     1
 72
     5
  1
{\Ftxt,bigfont|c128;6}
 73
     1
 44
1.0
  0
MTEXT
  5
DC0D
102
{ACAD_XDICTIONARY
360
ECA2
102
}
330
18
100
AcDbEntity
  8
0
100
AcDbMText
 10
112.4223895919262
 20
277.5645499482919
 30
0.0
 40
5.0
 41
0.0
 71
     1
 72
     5
  1
{\Ftxt,bigfont|c128;\W0.5;数   量}
 73
     1
 44
1.0
  0
MTEXT
  5
DC0E
330
18
100
AcDbEntity
  8
0
100
AcDbMText
 10
6.404019699055993
 20
260.7281674434121
 30
0.0
 40
5.0
 41
0.0
 71
     1
 72
     5
  1
{\Ftxt,bigfont|c128;2}
 73
     1
 44
1.0
  0
LINE
  5
DC0F
330
18
100
AcDbEntity
  8
0
 62
     7
100
AcDbLine
 10
47.92942413992534
 20
27.65712907016098
 30
0.0
 11
53.04580144287854
 21
28.93622339589928
 31
0.0
  0
MTEXT
  5
DF6D
102
{ACAD_XDICTIONARY
360
ECA4
102
}
330
18
100
AcDbEntity
  8
0
100
AcDbMText
 10
48.30171825401618
 20
19.07605901616614
 30
0.0
 40
5.0
 41
0.0
 71
     1
 72
     5
  1
{\W0.5;江武崇}
 73
     1
 44
1.0
  0
LINE
  5
E67B
330
18
100
AcDbEntity
  8
contour
100
AcDbLine
 10
134.9587708147598
 20
83.5090734952463
 30
0.0
 11
125.8587708147597
 21
83.50907349524636
 31
0.0
  0
LINE
  5
E67C
330
18
100
AcDbEntity
  8
center
 48
0.25
100
AcDbLine
 10
94.95877081475965
 20
110.5090734952464
 30
0.0
 11
94.95877081475986
 21
82.50907349524641
 31
0.0
  0
LINE
  5
E67D
330
18
100
AcDbEntity
  8
contour
100
AcDbLine
 10
61.35877081475996
 20
86.97909528189388
 30
0.0
 11
61.35877081475996
 21
84.00843713906454
 31
0.0
  0
LINE
  5
E67E
330
18
100
AcDbEntity
  8
contour
100
AcDbLine
 10
56.05877081475978
 20
86.97909528189393
 30
0.0
 11
56.05877081475978
 21
84.00911651269234
 31
0.0
  0
LINE
  5
E67F
330
18
100
AcDbEntity
  8
contour
100
AcDbLine
 10
61.35877081475996
 20
86.97909528189388
 30
0.0
 11
58.70877081475964
 21
88.50907349524646
 31
0.0
  0
LINE
  5
E680
330
18
100
AcDbEntity
  8
contour
100
AcDbLine
 10
58.70877081475964
 20
88.50907349524646
 30
0.0
 11
56.05877081475978
 21
86.97909528189393
 31
0.0
  0
LINE
  5
E681
330
18
100
AcDbEntity
  8
contour
100
AcDbLine
 10
61.35877081475996
 20
84.00843713906454
 30
0.0
 11
56.05877081475978
 21
84.00911651269234
 31
0.0
  0
LINE
  5
E682
330
18
100
AcDbEntity
  8
contour
100
AcDbLine
 10
61.35877081475996
 20
84.00843713906443
 30
0.0
 11
61.85877081475974
 21
83.50843713906455
 31
0.0
  0
LINE
  5
E683
330
18
100
AcDbEntity
  8
contour
100
AcDbLine
 10
56.05877081475978
 20
84.00911651269234
 30
0.0
 11
55.55877081475978
 21
83.50911651269234
 31
0.0
  0
LINE
  5
E684
330
18
100
AcDbEntity
  8
center
 48
0.25
100
AcDbLine
 10
61.95877081475964
 20
100.5090734952464
 30
0.0
 11
52.95877081475977
 21
100.5090734952464
 31
0.0
  0
LINE
  5
E685
330
18
100
AcDbEntity
  8
contour
100
AcDbLine
 10
59.22672000719081
 20
103.5090734952464
 30
0.0
 11
60.95877081475965
 21
100.5090734952464
 31
0.0
  0
LINE
  5
E686
330
18
100
AcDbEntity
  8
contour
100
AcDbLine
 10
60.95877081475965
 20
100.5090734952464
 30
0.0
 11
59.22672000719081
 21
97.50907349524641
 31
0.0
  0
LINE
  5
E687
330
18
100
AcDbEntity
  8
contour
100
AcDbLine
 10
54.45877081475964
 20
103.5090734952464
 30
0.0
 11
53.95877081475965
 21
104.0090734952464
 31
0.0
  0
LINE
  5
E688
330
18
100
AcDbEntity
  8
contour
100
AcDbLine
 10
54.45877081475964
 20
97.50907349524641
 30
0.0
 11
53.95877081475965
 21
97.00907349524641
 31
0.0
  0
LINE
  5
E689
330
18
100
AcDbEntity
  8
contour
100
AcDbLine
 10
122.7087708147596
 20
83.50907349524641
 30
0.0
 11
54.95877081475964
 21
83.50907349524646
 31
0.0
  0
LINE
  5
E68E
330
18
100
AcDbEntity
  8
center
 48
0.25
100
AcDbLine
 10
130.8988250718139
 20
210.1676578360425
 30
0.0
 11
118.7744694188318
 21
203.1676578360425
 31
0.0
  0
ARC
  5
E68F
330
18
100
AcDbEntity
  8
contour
100
AcDbCircle
 10
134.9587708147596
 20
108.5090734952463
 30
0.0
 40
1.0
100
AcDbArc
 50
0.0
 51
90.0
  0
LINE
  5
E690
330
18
100
AcDbEntity
  8
bowle
 48
0.2
100
AcDbLine
 10
124.4036345434306
 20
206.4176578360423
 30
0.0
 11
124.4036345434306
 21
209.8818602635067
 31
0.0
  0
LINE
  5
E691
330
18
100
AcDbEntity
  8
bowle
 48
0.2
100
AcDbLine
 10
124.4036345434306
 20
206.4176578360423
 30
0.0
 11
127.4035472328296
 21
204.6856574372725
 31
0.0
  0
ARC
  5
E692
330
18
100
AcDbEntity
  8
contour
100
AcDbCircle
 10
134.9587708147598
 20
89.65907349524632
 30
0.0
 40
1.0
100
AcDbArc
 50
0.0
 51
90.0
  0
ARC
  5
E693
330
18
100
AcDbEntity
  8
contour
100
AcDbCircle
 10
134.9587708147598
 20
84.5090734952463
 30
0.0
 40
1.0
100
AcDbArc
 50
270.0
 51
0.0
  0
LINE
  5
E694
330
18
100
AcDbEntity
  8
bowle
 48
0.2
100
AcDbLine
 10
131.0999070268456
 20
206.8193736734423
 30
0.0
 11
128.0999070256666
 21
212.0155260981911
 31
0.0
  0
LINE
  5
E695
330
18
100
AcDbEntity
  8
bowle
 48
0.2
100
AcDbLine
 10
128.0999070256666
 20
212.0155260981911
 30
0.0
 11
124.4036345434306
 21
209.8818602635065
 31
0.0
  0
LINE
  5
E696
330
18
100
AcDbEntity
  8
bowle
 48
0.2
100
AcDbLine
 10
128.0999070256666
 20
212.0155260981911
 30
0.0
 11
128.4006096470461
 21
213.1377635591494
 31
0.0
  0
LINE
  5
E697
330
18
100
AcDbEntity
  8
bowle
 48
0.2
100
AcDbLine
 10
131.0999447282561
 20
206.8195143770217
 30
0.0
 11
132.2220094188496
 21
206.5188580493216
 31
0.0
  0
LINE
  5
E698
330
18
100
AcDbEntity
  8
bowle
 48
0.2
100
AcDbLine
 10
127.4035472328296
 20
204.6856574372725
 30
0.0
 11
124.4036345434306
 21
209.8818602635065
 31
0.0
  0
LINE
  5
E699
330
18
100
AcDbEntity
  8
center
 48
0.25
100
AcDbLine
 10
59.0187165577056
 20
210.1676578360425
 30
0.0
 11
71.14307221068748
 21
203.1676578360426
 31
0.0
  0
LINE
  5
E69A
330
18
100
AcDbEntity
  8
center
 48
0.25
100
AcDbLine
 10
59.0187165577056
 20
168.6676578360425
 30
0.0
 11
71.1430722106877
 21
175.6676578360424
 31
0.0
  0
LINE
  5
E69B
330
18
100
AcDbEntity
  8
center
 48
0.25
100
AcDbLine
 10
95.0
 20
147.9176783161164
 30
0.0
 11
94.96041515817683
 21
230.9176578034658
 31
0.0
  0
LINE
  5
E69C
330
18
100
AcDbEntity
  8
center
 48
0.25
100
AcDbLine
 10
130.8988250718139
 20
168.6676578360424
 30
0.0
 11
118.7744694188318
 21
175.6676578360425
 31
0.0
  0
LINE
  5
E69D
330
18
100
AcDbEntity
  8
center
 48
0.25
100
AcDbLine
 10
53.45877081475965
 20
189.4176578360425
 30
0.0
 11
136.4587708147596
 21
189.4176578360424
 31
0.0
  0
LINE
  5
E69E
330
18
100
AcDbEntity
  8
center
 48
0.25
100
AcDbLine
 10
74.20877081475964
 20
153.4776035789883
 30
0.0
 11
81.20877081475965
 21
165.6019592319704
 31
0.0
  0
LINE
  5
E69F
330
18
100
AcDbEntity
  8
center
 48
0.25
100
AcDbLine
 10
115.7087708147598
 20
153.4776035789883
 30
0.0
 11
108.7087708147596
 21
165.6019592319705
 31
0.0
  0
LINE
  5
E6A0
330
18
100
AcDbEntity
  8
center
 48
0.25
100
AcDbLine
 10
108.7087708147598
 20
213.2333564401145
 30
0.0
 11
115.7087708147598
 21
225.3577120930966
 31
0.0
  0
LINE
  5
E6A1
330
18
100
AcDbEntity
  8
center
 48
0.25
100
AcDbLine
 10
81.20877081475986
 20
213.2333564401147
 30
0.0
 11
74.20877081475987
 21
225.3577120930968
 31
0.0
  0
LINE
  5
E6A3
330
18
100
AcDbEntity
  8
contour
100
AcDbLine
 10
63.20877081475964
 20
92.65907349524638
 30
0.0
 11
54.95877081475987
 21
92.65714321643907
 31
0.0
  0
LINE
  5
E6A4
330
18
100
AcDbEntity
  8
contour
100
AcDbLine
 10
63.20877081475964
 20
90.65907349524627
 30
0.0
 11
54.95877081475987
 21
90.65714321643895
 31
0.0
  0
ARC
  5
E6A5
330
18
100
AcDbEntity
  8
contour
100
AcDbCircle
 10
54.95877081475987
 20
93.65714321643906
 30
0.0
 40
1.0
100
AcDbArc
 50
180.0
 51
270.0
  0
ARC
  5
E6A6
330
18
100
AcDbEntity
  8
contour
100
AcDbCircle
 10
54.95877081475987
 20
89.65714321643895
 30
0.0
 40
1.0
100
AcDbArc
 50
90.0
 51
180.0
  0
ARC
  5
E6A7
330
18
100
AcDbEntity
  8
contour
100
AcDbCircle
 10
54.95877081475964
 20
84.50907349524646
 30
0.0
 40
1.0
100
AcDbArc
 50
180.0
 51
270.0
  0
LINE
  5
E6A8
330
18
100
AcDbEntity
  8
contour
100
AcDbLine
 10
59.22672000719081
 20
103.5090734952464
 30
0.0
 11
54.45877081475964
 21
103.5090734952464
 31
0.0
  0
LINE
  5
E6A9
330
18
100
AcDbEntity
  8
contour
100
AcDbLine
 10
59.22672000719081
 20
97.50907349524641
 30
0.0
 11
54.45877081475964
 21
97.50907349524641
 31
0.0
  0
LINE
  5
E6AA
330
18
100
AcDbEntity
  8
contour
100
AcDbLine
 10
54.45877081475964
 20
103.5090734952464
 30
0.0
 11
54.45877081475964
 21
97.50907349524641
 31
0.0
  0
LINE
  5
E6AB
330
18
100
AcDbEntity
  8
contour
100
AcDbLine
 10
59.22672000719081
 20
103.5090734952464
 30
0.0
 11
59.22672000719081
 21
97.50907349524641
 31
0.0
  0
LINE
  5
E6AC
330
18
100
AcDbEntity
  8
center
 48
0.25
100
AcDbLine
 10
58.70877081475964
 20
89.49561762644975
 30
0.0
 11
58.70877081475964
 21
82.50907349524641
 31
0.0
  0
CIRCLE
  5
E6AD
330
18
100
AcDbEntity
  8
contour
100
AcDbCircle
 10
94.95877081475965
 20
189.4176578360425
 30
0.0
 40
41.0
  0
ARC
  5
E6AE
330
18
100
AcDbEntity
  8
center
 48
0.25
100
AcDbCircle
 10
94.95877081475965
 20
189.4176578360425
 30
0.0
 40
36.25
100
AcDbArc
 50
77.16402588668893
 51
101.9813035962295
  0
LINE
  5
E6AF
330
18
100
AcDbEntity
  8
bowle
 48
0.2
100
AcDbLine
 10
127.4035472328296
 20
204.6856574372725
 30
0.0
 11
131.0998898586385
 21
206.8194034096492
 31
0.0
  0
CIRCLE
  5
E6B0
330
18
100
AcDbEntity
  8
bowle
 48
0.2
100
AcDbCircle
 10
126.3521917019457
 20
207.5426578360424
 30
0.0
 40
2.649999999999999
  0
LINE
  5
E6B1
330
18
100
AcDbEntity
  8
bowle
 48
0.2
100
AcDbLine
 10
94.95877081475986
 20
223.4176578360424
 30
0.0
 11
91.95868350872411
 21
225.1497590497745
 31
0.0
  0
LINE
  5
E6B2
330
18
100
AcDbEntity
  8
bowle
 48
0.2
100
AcDbLine
 10
94.95877081475986
 20
223.4176578360424
 30
0.0
 11
97.9586835041589
 21
225.1496582348122
 31
0.0
  0
LINE
  5
E6B3
330
18
100
AcDbEntity
  8
bowle
 48
0.2
100
AcDbLine
 10
97.9586835041589
 20
225.1496582348122
 30
0.0
 11
91.95868350872411
 21
225.1497590497745
 31
0.0
  0
LINE
  5
E6B4
330
18
100
AcDbEntity
  8
bowle
 48
0.2
100
AcDbLine
 10
65.51390708608915
 20
206.4176578360425
 30
0.0
 11
62.51381978005338
 21
204.6855566223103
 31
0.0
  0
LINE
  5
E6B5
330
18
100
AcDbEntity
  8
bowle
 48
0.2
100
AcDbLine
 10
65.51390708608915
 20
206.4176578360425
 30
0.0
 11
65.51390708608915
 21
209.8816586335821
 31
0.0
  0
LINE
  5
E6B6
330
18
100
AcDbEntity
  8
bowle
 48
0.2
100
AcDbLine
 10
65.51390708608915
 20
209.8816586335821
 30
0.0
 11
62.51381978005338
 21
204.6855566223104
 31
0.0
  0
LINE
  5
E6B7
330
18
100
AcDbEntity
  8
bowle
 48
0.2
100
AcDbLine
 10
65.51390708608915
 20
172.4176578360426
 30
0.0
 11
65.51390708608915
 21
168.9534554085783
 31
0.0
  0
LINE
  5
E6B8
330
18
100
AcDbEntity
  8
bowle
 48
0.2
100
AcDbLine
 10
65.51390708608915
 20
172.4176578360426
 30
0.0
 11
62.51399439669012
 21
174.1496582348125
 31
0.0
  0
LINE
  5
E6B9
330
18
100
AcDbEntity
  8
bowle
 48
0.2
100
AcDbLine
 10
62.51399439669012
 20
174.1496582348125
 30
0.0
 11
65.51390708608892
 21
168.9534554085784
 31
0.0
  0
LINE
  5
E6BA
330
18
100
AcDbEntity
  8
bowle
 48
0.2
100
AcDbLine
 10
94.95877081475986
 20
155.4176578360427
 30
0.0
 11
97.95885812079564
 21
153.6855566223105
 31
0.0
  0
LINE
  5
E6BB
330
18
100
AcDbEntity
  8
bowle
 48
0.2
100
AcDbLine
 10
94.95877081475986
 20
155.4176578360427
 30
0.0
 11
91.95885812536085
 21
153.6856574372729
 31
0.0
  0
LINE
  5
E6BC
330
18
100
AcDbEntity
  8
bowle
 48
0.2
100
AcDbLine
 10
91.95885812536085
 20
153.6856574372729
 30
0.0
 11
97.95885812079541
 21
153.6855566223105
 31
0.0
  0
LINE
  5
E6BD
330
18
100
AcDbEntity
  8
bowle
 48
0.2
100
AcDbLine
 10
124.4036345434306
 20
172.4176578360424
 30
0.0
 11
127.4037218494664
 21
174.1497590497746
 31
0.0
  0
LINE
  5
E6BE
330
18
100
AcDbEntity
  8
bowle
 48
0.2
100
AcDbLine
 10
124.4036345434306
 20
172.4176578360424
 30
0.0
 11
124.4036345434306
 21
168.9536570385027
 31
0.0
  0
LINE
  5
E6BF
330
18
100
AcDbEntity
  8
bowle
 48
0.2
100
AcDbLine
 10
124.4036345434306
 20
168.9536570385027
 30
0.0
 11
127.4037218494664
 21
174.1497590497745
 31
0.0
  0
ARC
  5
E6C0
330
18
100
AcDbEntity
  8
center
 48
0.25
100
AcDbCircle
 10
94.95877081475965
 20
189.4176578360425
 30
0.0
 40
36.25
100
AcDbArc
 50
133.3779220020039
 51
163.7589521346782
  0
ARC
  5
E6C1
330
18
100
AcDbEntity
  8
center
 48
0.25
100
AcDbCircle
 10
94.95877081475965
 20
189.4176578360425
 30
0.0
 40
36.25
100
AcDbArc
 50
198.4003318955647
 51
221.3489248338703
  0
ARC
  5
E6C2
330
18
100
AcDbEntity
  8
center
 48
0.25
100
AcDbCircle
 10
94.95877081475965
 20
189.4176578360425
 30
0.0
 40
36.25
100
AcDbArc
 50
259.1729335338273
 51
284.1205680657201
  0
ARC
  5
E6C3
330
18
100
AcDbEntity
  8
center
 48
0.25
100
AcDbCircle
 10
94.95877081475965
 20
189.4176578360425
 30
0.0
 40
36.25
100
AcDbArc
 50
313.8053972197188
 51
343.8770743460739
  0
ARC
  5
E6C4
330
18
100
AcDbEntity
  8
center
 48
0.25
100
AcDbCircle
 10
94.95877081475965
 20
189.4176578360425
 30
0.0
 40
36.25
100
AcDbArc
 50
18.12974669275808
 51
43.54301830266318
  0
CIRCLE
  5
E6C5
330
18
100
AcDbEntity
  8
center
 48
0.25
100
AcDbCircle
 10
94.95877081475965
 20
189.4176578360425
 30
0.0
 40
35.0
  0
CIRCLE
  5
E6C6
330
18
100
AcDbEntity
  8
bowle
 48
0.2
100
AcDbCircle
 10
129.9587708147596
 20
189.4176578360424
 30
0.0
 40
4.25
  0
ARC
  5
E6C7
330
18
100
AcDbEntity
  8
contour
 62
     4
100
AcDbCircle
 10
129.9587708147596
 20
189.4176578360424
 30
0.0
 40
2.5
100
AcDbArc
 50
77.85250670244534
 51
7.800192395036407
  0
CIRCLE
  5
E6C8
330
18
100
AcDbEntity
  8
contour
100
AcDbCircle
 10
129.9587708147596
 20
189.4176578360424
 30
0.0
 40
2.1
  0
ARC
  5
E6CA
330
18
100
AcDbEntity
  8
contour
 62
     4
100
AcDbCircle
 10
112.4587708147596
 20
219.7285469684977
 30
0.0
 40
2.5
100
AcDbArc
 50
137.8525067024421
 51
67.80019239503308
  0
CIRCLE
  5
E6CB
330
18
100
AcDbEntity
  8
contour
100
AcDbCircle
 10
112.4587708147596
 20
219.7285469684977
 30
0.0
 40
2.1
  0
ARC
  5
E6CD
330
18
100
AcDbEntity
  8
contour
 62
     4
100
AcDbCircle
 10
77.45877081475987
 20
219.7285469684977
 30
0.0
 40
2.5
100
AcDbArc
 50
197.8525067024481
 51
127.8001923950337
  0
CIRCLE
  5
E6CE
330
18
100
AcDbEntity
  8
contour
100
AcDbCircle
 10
77.45877081475987
 20
219.7285469684977
 30
0.0
 40
2.1
  0
ARC
  5
E6D0
330
18
100
AcDbEntity
  8
contour
 62
     4
100
AcDbCircle
 10
59.95877081475987
 20
189.4176578360425
 30
0.0
 40
2.5
100
AcDbArc
 50
257.8525067024454
 51
187.8001923950364
  0
CIRCLE
  5
E6D1
330
18
100
AcDbEntity
  8
contour
100
AcDbCircle
 10
59.95877081475987
 20
189.4176578360425
 30
0.0
 40
2.1
  0
ARC
  5
E6D3
330
18
100
AcDbEntity
  8
contour
 62
     4
100
AcDbCircle
 10
77.45877081475964
 20
159.1067687035874
 30
0.0
 40
2.5
100
AcDbArc
 50
317.8525067024422
 51
247.8001923950391
  0
CIRCLE
  5
E6D4
330
18
100
AcDbEntity
  8
contour
100
AcDbCircle
 10
77.45877081475964
 20
159.1067687035874
 30
0.0
 40
2.1
  0
ARC
  5
E6D6
330
18
100
AcDbEntity
  8
contour
 62
     4
100
AcDbCircle
 10
112.4587708147596
 20
159.1067687035873
 30
0.0
 40
2.5
100
AcDbArc
 50
17.85250670244815
 51
307.8001923950337
  0
CIRCLE
  5
E6D7
330
18
100
AcDbEntity
  8
contour
100
AcDbCircle
 10
112.4587708147596
 20
159.1067687035873
 30
0.0
 40
2.1
  0
ARC
  5
E6D8
330
18
100
AcDbEntity
  8
contour
 62
     4
100
AcDbCircle
 10
94.98021780283705
 20
189.3962312954625
 30
0.0
 40
29.0
100
AcDbArc
 50
168.419831934351
 51
101.56428487327
  0
LINE
  5
E6D9
330
18
100
AcDbEntity
  8
contour
100
AcDbLine
 10
135.9587708147596
 20
108.5090734952463
 30
0.0
 11
135.9587708147596
 21
93.65907349524633
 31
0.0
  0
LINE
  5
E6DA
330
18
100
AcDbEntity
  8
contour
100
AcDbLine
 10
135.9587708147598
 20
89.65907349524632
 30
0.0
 11
135.9587708147598
 21
84.50907349524669
 31
0.0
  0
LINE
  5
E6DB
330
18
100
AcDbEntity
  8
contour
100
AcDbLine
 10
53.95877081475965
 20
108.5090734952464
 30
0.0
 11
53.95877081475987
 21
93.65714321643906
 31
0.0
  0
LINE
  5
E6DC
330
18
100
AcDbEntity
  8
contour
100
AcDbLine
 10
53.95877081475987
 20
89.65714321643895
 30
0.0
 11
53.95877081475965
 21
84.50907349524646
 31
0.0
  0
LINE
  5
E6DD
330
18
100
AcDbEntity
  8
contour
100
AcDbLine
 10
126.7087708147596
 20
92.65907349524633
 30
0.0
 11
126.7087708147596
 21
90.65907349524634
 31
0.0
  0
LINE
  5
E6DE
330
18
100
AcDbEntity
  8
contour
100
AcDbLine
 10
133.2087708147596
 20
96.65907349524633
 30
0.0
 11
133.2087708147596
 21
93.65907349524633
 31
0.0
  0
LINE
  5
E6DF
330
18
100
AcDbEntity
  8
center
 48
0.25
100
AcDbLine
 10
129.9587708147599
 20
110.5090734952463
 30
0.0
 11
129.9587708147596
 21
82.50907349524636
 31
0.0
  0
LINE
  5
E6E0
330
18
100
AcDbEntity
  8
contour
100
AcDbLine
 10
134.9587708147598
 20
90.65907349524634
 30
0.0
 11
132.4587708147596
 21
90.65907349524634
 31
0.0
  0
LINE
  5
E6E9
330
18
100
AcDbEntity
  8
contour
100
AcDbLine
 10
134.9587708147596
 20
109.5090734952463
 30
0.0
 11
54.95877081475964
 21
109.5090734952464
 31
0.0
  0
LINE
  5
E6EA
330
18
100
AcDbEntity
  8
contour
100
AcDbLine
 10
125.8587708147597
 20
83.50907349524636
 30
0.0
 11
61.60877081475973
 21
83.50907349524641
 31
0.0
  0
LINE
  5
E6EB
330
18
100
AcDbEntity
  8
contour
100
AcDbLine
 10
134.9587708147596
 20
92.65907349524633
 30
0.0
 11
132.4587708147596
 21
92.65907349524628
 31
0.0
  0
LINE
  5
E6EC
330
18
100
AcDbEntity
  8
contour
100
AcDbLine
 10
133.2087708147596
 20
93.65907349524633
 30
0.0
 11
132.4587708147596
 21
93.65907349524627
 31
0.0
  0
LINE
  5
E6ED
330
18
100
AcDbEntity
  8
contour
100
AcDbLine
 10
127.4587708147596
 20
92.65907349524633
 30
0.0
 11
126.7087708147596
 21
92.65907349524628
 31
0.0
  0
LINE
  5
E6EE
330
18
100
AcDbEntity
  8
contour
100
AcDbLine
 10
133.2087708147596
 20
96.65907349524633
 30
0.0
 11
132.4587708147596
 21
96.65907349524633
 31
0.0
  0
LINE
  5
E6EF
330
18
100
AcDbEntity
  8
contour
100
AcDbLine
 10
127.4587708147596
 20
96.65907349524633
 30
0.0
 11
56.70877081475964
 21
96.65907349524742
 31
0.0
  0
LINE
  5
E6F0
330
18
100
AcDbEntity
  8
contour
100
AcDbLine
 10
127.4587708147596
 20
93.65907349524633
 30
0.0
 11
56.70877081475964
 21
93.65907349524741
 31
0.0
  0
ARC
  5
E6F1
330
18
100
AcDbEntity
  8
contour
100
AcDbCircle
 10
134.9587708147596
 20
93.65907349524633
 30
0.0
 40
1.0
100
AcDbArc
 50
270.0
 51
0.0
  0
LINE
  5
E6F2
330
18
100
AcDbEntity
  8
contour
 62
     4
100
AcDbLine
 10
123.9587708147596
 20
108.7590734952463
 30
0.0
 11
123.9587708147596
 21
97.40907349524633
 31
0.0
  0
ARC
  5
E6F3
330
18
100
AcDbEntity
  8
contour
100
AcDbCircle
 10
54.95877081475964
 20
108.5090734952464
 30
0.0
 40
1.0
100
AcDbArc
 50
90.0
 51
180.0
  0
LINE
  5
E6F4
330
18
100
AcDbEntity
  8
contour
100
AcDbLine
 10
123.2087708147596
 20
85.00907349524636
 30
0.0
 11
124.7087708147596
 21
83.50907349524636
 31
0.0
  0
LINE
  5
E6F5
330
18
100
AcDbEntity
  8
contour
100
AcDbLine
 10
124.7087708147596
 20
93.65907349524633
 30
0.0
 11
123.2087708147596
 21
92.15907349524639
 31
0.0
  0
LINE
  5
E6F6
330
18
100
AcDbEntity
  8
contour
100
AcDbLine
 10
123.2087708147596
 20
92.15907349524639
 30
0.0
 11
66.70877081475964
 21
92.15907349524725
 31
0.0
  0
LINE
  5
E6F7
330
18
100
AcDbEntity
  8
contour
100
AcDbLine
 10
123.2087708147598
 20
85.00907349524636
 30
0.0
 11
66.70877081475964
 21
85.00907349524652
 31
0.0
  0
LINE
  5
E6F8
330
18
100
AcDbEntity
  8
contour
100
AcDbLine
 10
124.7087706075917
 20
96.65907370241422
 30
0.0
 11
123.2087706075917
 21
98.15907370241422
 31
0.0
  0
LINE
  5
E6F9
330
18
100
AcDbEntity
  8
contour
100
AcDbLine
 10
124.7087708147596
 20
109.5090734952462
 30
0.0
 11
123.2087708147596
 21
108.0090734952463
 31
0.0
  0
LINE
  5
E6FA
330
18
100
AcDbEntity
  8
contour
 62
     4
100
AcDbLine
 10
123.9587708147596
 20
92.90907349524644
 30
0.0
 11
123.9587708147596
 21
84.25907349524635
 31
0.0
  0
LINE
  5
E6FB
330
18
100
AcDbEntity
  8
contour
100
AcDbLine
 10
123.2087708147596
 20
98.15907349524634
 30
0.0
 11
66.70877081475964
 21
98.1590734952473
 31
0.0
  0
LINE
  5
E6FC
330
18
100
AcDbEntity
  8
contour
100
AcDbLine
 10
123.2087708147598
 20
108.0090734952463
 30
0.0
 11
66.70877081475987
 21
108.0090734952464
 31
0.0
  0
LINE
  5
E6FD
330
18
100
AcDbEntity
  8
contour
100
AcDbLine
 10
63.20877081475964
 20
92.65907349524651
 30
0.0
 11
63.20877081475964
 21
90.6590734952465
 31
0.0
  0
LINE
  5
E6FE
330
18
100
AcDbEntity
  8
contour
100
AcDbLine
 10
56.70877081475964
 20
96.65907349524657
 30
0.0
 11
56.70877081475964
 21
93.65907349524656
 31
0.0
  0
LINE
  5
E6FF
330
18
100
AcDbEntity
  8
contour
100
AcDbLine
 10
66.70877081475897
 20
85.00907349524652
 30
0.0
 11
65.20877081475896
 21
83.50907349524652
 31
0.0
  0
LINE
  5
E700
330
18
100
AcDbEntity
  8
contour
100
AcDbLine
 10
65.20877081475919
 20
93.6590734952465
 30
0.0
 11
66.70877081475897
 21
92.15907349524661
 31
0.0
  0
LINE
  5
E701
330
18
100
AcDbEntity
  8
contour
100
AcDbLine
 10
65.20877102192708
 20
96.65907370241445
 30
0.0
 11
66.70877102192685
 21
98.1590737024144
 31
0.0
  0
LINE
  5
E702
330
18
100
AcDbEntity
  8
contour
100
AcDbLine
 10
65.20877081475919
 20
109.5090734952465
 30
0.0
 11
66.70877081475897
 21
108.0090734952465
 31
0.0
  0
LINE
  5
E703
330
18
100
AcDbEntity
  8
contour
 62
     4
100
AcDbLine
 10
65.95877081475965
 20
108.7590734952458
 30
0.0
 11
65.95877081475965
 21
97.4090734952473
 31
0.0
  0
LINE
  5
E704
330
18
100
AcDbEntity
  8
contour
 62
     4
100
AcDbLine
 10
65.95877081475965
 20
92.90907349524582
 30
0.0
 11
65.95877081475965
 21
84.25907349524733
 31
0.0
  0
LINE
  5
E705
330
18
100
AcDbEntity
  8
contour
100
AcDbLine
 10
61.35877081475996
 20
86.97909528189388
 30
0.0
 11
56.05877081475978
 21
86.97909528189393
 31
0.0
  0
LINE
  5
E706
330
18
100
AcDbEntity
  8
contour
100
AcDbLine
 10
127.4587708147596
 20
90.65907349524627
 30
0.0
 11
126.7087708147596
 21
90.65907349524634
 31
0.0
  0
CIRCLE
  5
E716
330
18
100
AcDbEntity
  8
contour
100
AcDbCircle
 10
94.95877081475986
 20
189.4176578360425
 30
0.0
 40
28.25
  0
LINE
  5
E717
330
18
100
AcDbEntity
  8
contour
100
AcDbLine
 10
123.2087708147596
 20
92.15907349524645
 30
0.0
 11
123.2087708147596
 21
85.00907349524624
 31
0.0
  0
LINE
  5
E718
330
18
100
AcDbEntity
  8
contour
100
AcDbLine
 10
123.2087708147596
 20
108.0090734952463
 30
0.0
 11
123.2087708147596
 21
98.15907349524634
 31
0.0
  0
LINE
  5
E719
330
18
100
AcDbEntity
  8
contour
100
AcDbLine
 10
66.70877081475964
 20
108.0090734952458
 30
0.0
 11
66.70877081475964
 21
98.1590734952473
 31
0.0
  0
LINE
  5
E71A
330
18
100
AcDbEntity
  8
contour
100
AcDbLine
 10
66.70877081475964
 20
92.15907349524588
 30
0.0
 11
66.70877081475964
 21
85.00907349524732
 31
0.0
  0
LINE
  5
E71C
330
18
100
AcDbEntity
  8
bowle
 48
0.2
100
AcDbLine
 10
97.96478632528305
 20
229.3962360654335
 30
0.0
 11
91.96478632292519
 21
229.3962360654335
 31
0.0
  0
LINE
  5
E71D
330
18
100
AcDbEntity
  8
bowle
 48
0.2
100
AcDbLine
 10
91.96478632292519
 20
229.3962360654335
 30
0.0
 11
91.96445889783081
 21
225.1283372791657
 31
0.0
  0
LINE
  5
E71E
330
18
100
AcDbEntity
  8
bowle
 48
0.2
100
AcDbLine
 10
91.96478632292519
 20
229.3962360654335
 30
0.0
 11
91.14325148334637
 21
230.217770905012
 31
0.0
  0
LINE
  5
E71F
330
18
100
AcDbEntity
  8
bowle
 48
0.2
100
AcDbLine
 10
97.96468332311428
 20
229.3963390676024
 30
0.0
 11
98.78609168600769
 21
230.2177474304959
 31
0.0
  0
LINE
  5
E720
330
18
100
AcDbEntity
  8
bowle
 48
0.2
100
AcDbLine
 10
97.96445889326561
 20
225.1282364642033
 30
0.0
 11
97.96475198886902
 21
229.3962360654335
 31
0.0
  0
LINE
  5
E721
330
18
100
AcDbEntity
  8
bowle
 48
0.2
100
AcDbLine
 10
61.84508960529206
 20
211.9888109764123
 30
0.0
 11
58.84508960411313
 21
206.7926585516636
 31
0.0
  0
LINE
  5
E722
330
18
100
AcDbEntity
  8
bowle
 48
0.2
100
AcDbLine
 10
58.84508960411313
 20
206.7926585516636
 30
0.0
 11
62.5410346612548
 21
204.6584256000802
 31
0.0
  0
LINE
  5
E723
330
18
100
AcDbEntity
  8
bowle
 48
0.2
100
AcDbLine
 10
58.84508960411313
 20
206.7926585516636
 30
0.0
 11
57.7228521431548
 21
206.4919559302838
 31
0.0
  0
LINE
  5
E724
330
18
100
AcDbEntity
  8
bowle
 48
0.2
100
AcDbLine
 10
61.84494890171277
 20
211.9887732750019
 30
0.0
 11
61.54429257401261
 21
213.1108379655955
 31
0.0
  0
LINE
  5
E725
330
18
100
AcDbEntity
  8
bowle
 48
0.2
100
AcDbLine
 10
65.54112196729056
 20
209.854527611352
 30
0.0
 11
61.84507243708504
 21
211.9887812402054
 31
0.0
  0
LINE
  5
E726
330
18
100
AcDbEntity
  8
bowle
 48
0.2
100
AcDbLine
 10
58.86051358686336
 20
172.0045234954001
 30
0.0
 11
61.86051358804252
 21
166.8083710706514
 31
0.0
  0
LINE
  5
E727
330
18
100
AcDbEntity
  8
bowle
 48
0.2
100
AcDbLine
 10
61.86051358804252
 20
166.8083710706514
 30
0.0
 11
65.55678607027835
 21
168.9420369053358
 31
0.0
  0
LINE
  5
E728
330
18
100
AcDbEntity
  8
bowle
 48
0.2
100
AcDbLine
 10
61.86051358804252
 20
166.8083710706514
 30
0.0
 11
61.55981096666278
 21
165.686133609693
 31
0.0
  0
LINE
  5
E729
330
18
100
AcDbEntity
  8
bowle
 48
0.2
100
AcDbLine
 10
58.86047588545307
 20
172.0043827918207
 30
0.0
 11
57.7384111948595
 21
172.3050391195207
 31
0.0
  0
LINE
  5
E72A
330
18
100
AcDbEntity
  8
bowle
 48
0.2
100
AcDbLine
 10
62.55687338087932
 20
174.1382397315699
 30
0.0
 11
58.86053075507061
 21
172.0044937591932
 31
0.0
  0
LINE
  5
E72B
330
18
100
AcDbEntity
  8
bowle
 48
0.2
100
AcDbLine
 10
91.99563428842589
 20
149.4276611034089
 30
0.0
 11
97.99563429078398
 21
149.4276611034089
 31
0.0
  0
LINE
  5
E72C
330
18
100
AcDbEntity
  8
bowle
 48
0.2
100
AcDbLine
 10
97.99563429078398
 20
149.4276611034089
 30
0.0
 11
97.99596171587815
 21
153.6955598896768
 31
0.0
  0
LINE
  5
E72D
330
18
100
AcDbEntity
  8
bowle
 48
0.2
100
AcDbLine
 10
97.99563429078398
 20
149.4276611034089
 30
0.0
 11
98.81716913036257
 21
148.6061262638304
 31
0.0
  0
LINE
  5
E72E
330
18
100
AcDbEntity
  8
bowle
 48
0.2
100
AcDbLine
 10
91.99573729059466
 20
149.42755810124
 30
0.0
 11
91.17432892770125
 21
148.6061497383465
 31
0.0
  0
LINE
  5
E72F
330
18
100
AcDbEntity
  8
bowle
 48
0.2
100
AcDbLine
 10
91.99596172044335
 20
153.6956607046391
 30
0.0
 11
91.99566862483994
 21
149.4276611034089
 31
0.0
  0
LINE
  5
E730
330
18
100
AcDbEntity
  8
bowle
 48
0.2
100
AcDbLine
 10
128.1153310084169
 20
166.8350861924301
 30
0.0
 11
131.1153310095958
 21
172.0312386171787
 31
0.0
  0
LINE
  5
E731
330
18
100
AcDbEntity
  8
bowle
 48
0.2
100
AcDbLine
 10
131.1153310095958
 20
172.0312386171787
 30
0.0
 11
127.4193859524544
 21
174.1654715687621
 31
0.0
  0
LINE
  5
E732
330
18
100
AcDbEntity
  8
bowle
 48
0.2
100
AcDbLine
 10
131.1153310095958
 20
172.0312386171787
 30
0.0
 11
132.2375684705541
 21
172.3319412385585
 31
0.0
  0
LINE
  5
E733
330
18
100
AcDbEntity
  8
bowle
 48
0.2
100
AcDbLine
 10
128.1154717119964
 20
166.8351238938405
 30
0.0
 11
128.4161280396963
 21
165.7130592032469
 31
0.0
  0
LINE
  5
E734
330
18
100
AcDbEntity
  8
bowle
 48
0.2
100
AcDbLine
 10
124.4192986464186
 20
168.9693695574903
 30
0.0
 11
128.1153481766239
 21
166.835115928637
 31
0.0
  0
CIRCLE
  5
E736
330
18
100
AcDbEntity
  8
bowle
 48
0.2
100
AcDbCircle
 10
126.3521917019457
 20
207.5426578360424
 30
0.0
 40
3.149999999999999
  0
CIRCLE
  5
E737
330
18
100
AcDbEntity
  8
bowle
 48
0.2
100
AcDbCircle
 10
94.95877081475986
 20
225.6676578360425
 30
0.0
 40
2.649999999999999
  0
CIRCLE
  5
E738
330
18
100
AcDbEntity
  8
bowle
 48
0.2
100
AcDbCircle
 10
94.95877081475986
 20
225.6676578360425
 30
0.0
 40
3.149999999999999
  0
CIRCLE
  5
E739
330
18
100
AcDbEntity
  8
bowle
 48
0.2
100
AcDbCircle
 10
63.56534992757406
 20
207.5426578360425
 30
0.0
 40
2.649999999999999
  0
CIRCLE
  5
E73A
330
18
100
AcDbEntity
  8
bowle
 48
0.2
100
AcDbCircle
 10
63.56534992757406
 20
207.5426578360425
 30
0.0
 40
3.149999999999999
  0
CIRCLE
  5
E73B
330
18
100
AcDbEntity
  8
bowle
 48
0.2
100
AcDbCircle
 10
63.56534992757406
 20
171.2926578360425
 30
0.0
 40
2.649999999999999
  0
CIRCLE
  5
E73C
330
18
100
AcDbEntity
  8
bowle
 48
0.2
100
AcDbCircle
 10
63.56534992757406
 20
171.2926578360425
 30
0.0
 40
3.149999999999999
  0
CIRCLE
  5
E73D
330
18
100
AcDbEntity
  8
bowle
 48
0.2
100
AcDbCircle
 10
94.95877081475965
 20
153.1676578360427
 30
0.0
 40
2.649999999999999
  0
CIRCLE
  5
E73E
330
18
100
AcDbEntity
  8
bowle
 48
0.2
100
AcDbCircle
 10
94.95877081475965
 20
153.1676578360427
 30
0.0
 40
3.149999999999999
  0
CIRCLE
  5
E73F
330
18
100
AcDbEntity
  8
bowle
 48
0.2
100
AcDbCircle
 10
126.3521917019454
 20
171.2926578360425
 30
0.0
 40
2.649999999999999
  0
CIRCLE
  5
E740
330
18
100
AcDbEntity
  8
bowle
 48
0.2
100
AcDbCircle
 10
126.3521917019454
 20
171.2926578360425
 30
0.0
 40
3.149999999999999
  0
LINE
  5
E89C
330
18
100
AcDbEntity
  8
contour
100
AcDbLine
 10
126.0087708147596
 20
83.50907349524632
 30
0.0
 11
133.9087708147596
 21
83.50907349524632
 31
0.0
  0
LINE
  5
E89D
330
18
100
AcDbEntity
  8
contour
100
AcDbLine
 10
134.2087708147596
 20
83.80907349524632
 30
0.0
 11
134.2087708147596
 21
88.50907349524632
 31
0.0
  0
LINE
  5
E89E
330
18
100
AcDbEntity
  8
contour
100
AcDbLine
 10
133.9087708147596
 20
83.50907349524632
 30
0.0
 11
134.2087708147596
 21
83.80907349524632
 31
0.0
  0
LINE
  5
E89F
330
18
100
AcDbEntity
  8
contour
100
AcDbLine
 10
134.2087708147596
 20
88.50907349524632
 30
0.0
 11
125.7087708147596
 21
88.50907349524632
 31
0.0
  0
LINE
  5
E8A0
330
18
100
AcDbEntity
  8
contour
100
AcDbLine
 10
131.5587708147596
 20
106.5090734952463
 30
0.0
 11
128.3587708147596
 21
106.5090734952463
 31
0.0
  0
LINE
  5
E8A1
330
18
100
AcDbEntity
  8
contour
100
AcDbLine
 10
132.4587708147596
 20
105.6090734952463
 30
0.0
 11
131.5587708147596
 21
106.5090734952463
 31
0.0
  0
LINE
  5
E8A2
330
18
100
AcDbEntity
  8
contour
100
AcDbLine
 10
125.7087708147596
 20
88.50907349524632
 30
0.0
 11
125.7087708147596
 21
83.80907349524632
 31
0.0
  0
LINE
  5
E8A3
330
18
100
AcDbEntity
  8
contour
100
AcDbLine
 10
126.0087708147596
 20
83.50907349524632
 30
0.0
 11
125.7087708147596
 21
83.80907349524632
 31
0.0
  0
LINE
  5
E8A4
330
18
100
AcDbEntity
  8
contour
100
AcDbLine
 10
125.7087708147596
 20
83.80907349524632
 30
0.0
 11
134.2087708147596
 21
83.80907349524632
 31
0.0
  0
LINE
  5
E8A5
330
18
100
AcDbEntity
  8
contour
100
AcDbLine
 10
127.4587708147596
 20
88.50907349524632
 30
0.0
 11
127.4587708147596
 21
105.6090734952463
 31
0.0
  0
LINE
  5
E8A6
330
18
100
AcDbEntity
  8
contour
100
AcDbLine
 10
128.3587708147596
 20
106.5090734952463
 30
0.0
 11
127.4587708147596
 21
105.6090734952463
 31
0.0
  0
LINE
  5
E8A7
330
18
100
AcDbEntity
  8
contour
100
AcDbLine
 10
132.4587708147596
 20
88.50907349524632
 30
0.0
 11
132.4587708147595
 21
105.6090734952463
 31
0.0
  0
LINE
  5
E8A8
330
18
100
AcDbEntity
  8
contour
100
AcDbLine
 10
127.4587708147596
 20
105.6090734952463
 30
0.0
 11
132.4587708147596
 21
105.6090734952463
 31
0.0
  0
LINE
  5
E8A9
330
18
100
AcDbEntity
  8
contour
 62
     4
100
AcDbLine
 10
127.8587708147596
 20
89.20189381827391
 30
0.0
 11
127.8587708147597
 21
106.0090734952464
 31
0.0
  0
LINE
  5
E8AA
330
18
100
AcDbEntity
  8
contour
 62
     4
100
AcDbLine
 10
132.0587708147596
 20
89.20189381827382
 30
0.0
 11
132.0587708147596
 21
106.0090734952462
 31
0.0
  0
LINE
  5
E8AB
330
18
100
AcDbEntity
  8
contour
 62
     4
100
AcDbLine
 10
132.0587708147596
 20
89.20189381827382
 30
0.0
 11
132.4587708147596
 21
88.50907349524632
 31
0.0
  0
LINE
  5
E8AC
330
18
100
AcDbEntity
  8
contour
100
AcDbLine
 10
132.4587708147596
 20
89.20189381827382
 30
0.0
 11
127.4587708147597
 21
89.20189381827382
 31
0.0
  0
LINE
  5
E8AD
330
18
100
AcDbEntity
  8
contour
 62
     4
100
AcDbLine
 10
127.8587708147597
 20
89.20189381827391
 30
0.0
 11
127.4587708147596
 21
88.50907349524632
 31
0.0
  0
LINE
  5
E8AE
330
18
100
AcDbEntity
  8
bowle
 48
0.2
100
AcDbLine
 10
127.6493697380011
 20
83.50907349524632
 30
0.0
 11
127.6493697380011
 21
86.00907349524632
 31
0.0
  0
LINE
  5
E8AF
330
18
100
AcDbEntity
  8
bowle
 48
0.2
100
AcDbLine
 10
132.2681718915181
 20
83.50907349524632
 30
0.0
 11
132.2681718915181
 21
86.00907349524632
 31
0.0
  0
LINE
  5
E8B0
330
18
100
AcDbEntity
  8
bowle
 48
0.2
100
AcDbLine
 10
127.6493697380011
 20
86.00907349524632
 30
0.0
 11
132.2681718915181
 21
86.00907349524632
 31
0.0
  0
LINE
  5
E8B1
330
18
100
AcDbEntity
  8
bowle
 48
0.2
100
AcDbLine
 10
128.8040702763804
 20
86.00907349524632
 30
0.0
 11
128.8040702763803
 21
83.50907349524632
 31
0.0
  0
LINE
  5
E8B2
330
18
100
AcDbEntity
  8
bowle
 48
0.2
100
AcDbLine
 10
131.1134713531389
 20
86.00907349524632
 30
0.0
 11
131.1134713531389
 21
83.50907349524632
 31
0.0
  0
LINE
  5
E8B3
330
18
100
AcDbEntity
  8
bowle
 48
0.2
100
AcDbLine
 10
132.2681718915181
 20
86.00907349524632
 30
0.0
 11
129.9587708147596
 21
87.34240682857961
 31
0.0
  0
LINE
  5
E8B4
330
18
100
AcDbEntity
  8
bowle
 48
0.2
100
AcDbLine
 10
127.6493697380011
 20
86.00907349524632
 30
0.0
 11
129.9587708147596
 21
87.34240682857961
 31
0.0
  0
LINE
  5
E8B5
330
18
100
AcDbEntity
  8
contour
100
AcDbLine
 10
125.7087708147596
 20
83.80907349524632
 30
0.0
 11
125.7087708147596
 21
83.50907349524636
 31
0.0
  0
LINE
  5
E8B6
330
18
100
AcDbEntity
  8
contour
100
AcDbLine
 10
134.2087708147596
 20
83.80907349524632
 30
0.0
 11
134.2087708147596
 21
83.5090734952463
 31
0.0
  0
CIRCLE
  5
E8B7
330
18
100
AcDbEntity
  8
bowle
 48
0.2
100
AcDbCircle
 10
112.4587708147597
 20
219.7285469684978
 30
0.0
 40
4.25
  0
CIRCLE
  5
E8B8
330
18
100
AcDbEntity
  8
bowle
 48
0.2
100
AcDbCircle
 10
77.45877081475973
 20
219.7285469684978
 30
0.0
 40
4.249999999999999
  0
CIRCLE
  5
E8B9
330
18
100
AcDbEntity
  8
bowle
 48
0.2
100
AcDbCircle
 10
59.95877081475967
 20
189.4176578360426
 30
0.0
 40
4.25
  0
CIRCLE
  5
E8BA
330
18
100
AcDbEntity
  8
bowle
 48
0.2
100
AcDbCircle
 10
77.45877081475963
 20
159.1067687035872
 30
0.0
 40
4.25
  0
CIRCLE
  5
E8BB
330
18
100
AcDbEntity
  8
bowle
 48
0.2
100
AcDbCircle
 10
112.4587708147595
 20
159.1067687035871
 30
0.0
 40
4.25
  0
LINE
  5
E8BC
330
18
100
AcDbEntity
  8
contour
 62
     4
100
AcDbLine
 10
127.4587708147596
 20
105.6090734952463
 30
0.0
 11
127.4587708147596
 21
109.5090734952463
 31
0.0
  0
LINE
  5
E8BD
330
18
100
AcDbEntity
  8
contour
100
AcDbLine
 10
127.8587708147597
 20
106.0090734952464
 30
0.0
 11
127.8587708147598
 21
109.5090734952463
 31
0.0
  0
LINE
  5
E8BE
330
18
100
AcDbEntity
  8
contour
 62
     4
100
AcDbLine
 10
132.4587708147595
 20
105.6090734952463
 30
0.0
 11
132.4587708147595
 21
109.5090734952463
 31
0.0
  0
LINE
  5
E8BF
330
18
100
AcDbEntity
  8
contour
100
AcDbLine
 10
132.0587708147596
 20
106.0090734952462
 30
0.0
 11
132.0587708147596
 21
109.5090734952463
 31
0.0
  0
HATCH
  5
E926
330
18
100
AcDbEntity
  8
section
100
AcDbHatch
 10
0.0
 20
0.0
 30
0.0
210
0.0
220
0.0
230
1.0
  2
ANSI31
 70
     0
 71
     0
 91
        9
 92
        7
 72
     1
 73
     1
 93
       34
 10
65.95877081475965
 20
108.7590734952459
 42
0.0
 10
65.20877081475926
 20
109.5090734952464
 42
0.0
 10
54.95877081475964
 20
109.5090734952464
 42
0.4142135623730998
 10
53.95877081475965
 20
108.5090734952464
 42
0.0
 10
53.95877081475972
 20
104.0090734952463
 42
0.0
 10
54.45877081475964
 20
103.5090734952464
 42
0.0
 10
59.22672000719081
 20
103.5090734952464
 42
0.0
 10
60.95877081475965
 20
100.5090734952464
 42
0.0
 10
59.22672000719081
 20
97.50907349524641
 42
0.0
 10
54.45877081475964
 20
97.50907349524641
 42
0.0
 10
53.95877081475982
 20
97.00907349524658
 42
0.0
 10
53.95877081475987
 20
93.65714321643904
 42
0.4142820931927057
 10
54.95900478794223
 20
92.65714324381079
 42
0.0
 10
63.20877081475964
 20
92.65907349524638
 42
0.0
 10
63.20877081475964
 20
90.65907349524627
 42
0.0
 10
54.95853684157751
 20
90.65714318906723
 42
0.4141450348742143
 10
53.95877081475987
 20
89.65714321643899
 42
0.0
 10
53.95877081475965
 20
84.50907349524651
 42
0.4142135623731075
 10
54.95877081475964
 20
83.50907349524646
 42
0.0
 10
55.55872779731391
 20
83.50907349524646
 42
0.0
 10
56.05877081475978
 20
84.00911651269234
 42
0.0
 10
56.05877081475978
 20
86.97909528189393
 42
0.0
 10
58.70877081475964
 20
88.50907349524646
 42
0.0
 10
61.35877081475996
 20
86.97909528189388
 42
0.0
 10
61.35877081475996
 20
84.00843713906443
 42
0.0
 10
61.85813445857786
 20
83.50907349524641
 42
0.0
 10
65.20877081475884
 20
83.50907349524641
 42
0.0
 10
65.95877081475965
 20
84.2590734952472
 42
0.0
 10
65.95877081475965
 20
92.909073495246
 42
0.0
 10
65.20877081475841
 20
93.65907349524729
 42
0.0
 10
56.70877081475964
 20
93.65907349524741
 42
0.0
 10
56.70877081475964
 20
96.65907349524742
 42
0.0
 10
65.20877081475991
 20
96.65907349524729
 42
0.0
 10
65.95877081475965
 20
97.40907349524711
 42
0.0
 97
        0
 92
        7
 72
     0
 73
     1
 93
        4
 10
66.70877081475964
 20
108.0090734952458
 10
65.95877081475965
 20
108.7590734952459
 10
65.95877081475965
 20
97.40907349524711
 10
66.70877081475964
 20
98.15907349524719
 97
        0
 92
        7
 72
     0
 73
     1
 93
        4
 10
66.70877081475964
 20
92.15907349524593
 10
65.95877081475965
 20
92.909073495246
 10
65.95877081475965
 20
84.2590734952472
 10
66.70877081475964
 20
85.00907349524721
 97
        0
 92
        7
 72
     0
 73
     1
 93
        4
 10
123.9587708147596
 20
92.90907349524635
 10
123.2087708147596
 20
92.15907349524639
 10
123.2087708147596
 20
85.00907349524636
 10
123.9587708147596
 20
84.25907349524635
 97
        0
 92
        7
 72
     0
 73
     1
 93
       13
 10
127.4587708147596
 20
90.65907349524627
 10
126.7087708147596
 20
90.65907349524634
 10
126.7087708147596
 20
92.65907349524628
 10
127.4587708147596
 20
92.65907349524633
 10
127.4587708147596
 20
93.65907349524633
 10
124.7087708147597
 20
93.65907349524638
 10
123.9587708147596
 20
92.90907349524635
 10
123.9587708147596
 20
84.25907349524635
 10
124.7087708147596
 20
83.50907349524636
 10
125.7087708147596
 20
83.50907349524636
 10
125.7087708147596
 20
83.80907349524632
 10
125.7087708147596
 20
88.50907349524632
 10
127.4587708147596
 20
88.50907349524632
 97
        0
 92
        7
 72
     1
 73
     1
 93
        9
 10
135.9587708147598
 20
89.65907349524625
 42
0.414213562373118
 10
134.9587708147598
 20
90.65907349524634
 42
0.0
 10
132.4587708147596
 20
90.65907349524634
 42
0.0
 10
132.4587708147596
 20
88.50907349524632
 42
0.0
 10
134.2087708147596
 20
88.50907349524632
 42
0.0
 10
134.2087708147596
 20
83.80907349524632
 42
0.0
 10
134.2087708147596
 20
83.5090734952463
 42
0.0
 10
134.9587708147598
 20
83.5090734952463
 42
0.4142135623730951
 10
135.9587708147598
 20
84.5090734952463
 42
0.0
 97
        0
 92
        7
 72
     1
 73
     1
 93
       11
 10
135.9587708147596
 20
108.5090734952463
 42
0.4142135623730951
 10
134.9587708147596
 20
109.5090734952463
 42
0.0
 10
132.4587708147595
 20
109.5090734952463
 42
0.0
 10
132.4587708147595
 20
105.6090734952463
 42
0.0
 10
132.4587708147596
 20
96.65907349524633
 42
0.0
 10
133.2087708147596
 20
96.65907349524633
 42
0.0
 10
133.2087708147596
 20
93.65907349524633
 42
0.0
 10
132.4587708147596
 20
93.65907349524627
 42
0.0
 10
132.4587708147596
 20
92.65907349524628
 42
0.0
 10
134.9587708147597
 20
92.65907349524633
 42
0.4142135623730866
 10
135.9587708147596
 20
93.65907349524633
 42
0.0
 97
        0
 92
        7
 72
     0
 73
     1
 93
        7
 10
127.4587708147596
 20
105.6090734952463
 10
127.4587708147596
 20
109.5090734952463
 10
124.7087708147597
 20
109.5090734952463
 10
123.9587708147596
 20
108.7590734952463
 10
123.9587708147596
 20
97.40907349524634
 10
124.7087708147596
 20
96.65907349524637
 10
127.4587708147596
 20
96.65907349524633
 97
        0
 92
        7
 72
     0
 73
     1
 93
        4
 10
123.9587708147596
 20
108.7590734952463
 10
123.2087708147596
 20
108.0090734952463
 10
123.2087708147596
 20
98.15907349524634
 10
123.9587708147596
 20
97.40907349524634
 97
        0
 75
     1
 76
     1
 52
0.0
 41
0.5
 77
     0
 78
     1
 53
45.0
 43
0.0
 44
0.0
 45
-1.122532015133643
 46
1.122532015133644
 79
     0
 47
0.0773792629495166
 98
        9
 10
60.17340085957994
 20
106.4197054788437
 10
66.4443546538996
 20
103.711431431529
 10
66.28951696297758
 20
90.78909404407715
 10
123.8119679829724
 20
89.86054289937454
 10
125.28293211606
 20
90.47957724531228
 10
133.4893661508974
 20
89.47364671381638
 10
134.4183953310937
 20
97.13419403181717
 10
126.7538977664796
 20
100.7710192238346
 10
123.6571302920504
 20
100.925777997421
1001
GRADIENTCOLOR1ACI
1070
     5
1001
GRADIENTCOLOR2ACI
1070
     2
1001
ACAD
1010
0.0
1020
0.0
1030
0.0
  0
DIMENSION
  5
E927
330
18
100
AcDbEntity
  8
mark
100
AcDbDimension
  2
*D26
 10
61.32534921363137
 20
175.8952523029741
 30
0.0
 11
144.4263321998578
 21
209.3062208765275
 31
0.0
 70
   163
  1
P.C.D 72.5
 71
     5
 42
72.50000000000001
  3
STANDARD
100
AcDbDiametricDimension
 15
128.5921924158879
 25
202.9400633691109
 35
0.0
 40
0.0
1001
ACAD
1000
DSTYLE
1002
{
1070
   288
1070
     1
1002
}
1001
ACAD_DSTYLE_DIMRADIAL_EXTENSION
1070
   387
1070
     1
1070
   388
1040
0.3164237723411813
1070
   390
1040
0.7599690356376252
  0
DIMENSION
  5
E933
330
18
100
AcDbEntity
  8
mark
100
AcDbDimension
  2
*D27
 10
60.66083069395221
 20
182.4426092004052
 30
0.0
 11
145.0226984140081
 21
199.5989785994995
 31
0.0
 70
   163
  1
P.C.D 70
 71
     5
 42
69.99999999999994
  3
STANDARD
100
AcDbDiametricDimension
 15
129.256710935567
 25
196.3927064716798
 35
0.0
 40
0.0
1001
ACAD
1000
DSTYLE
1002
{
1070
   288
1070
     1
1002
}
1001
ACAD_DSTYLE_DIMRADIAL_EXTENSION
1070
   387
1070
     1
1070
   388
1040
0.0
1070
   390
1040
0.0
  0
DIMENSION
  5
E93F
330
18
100
AcDbEntity
  8
mark
100
AcDbDimension
  2
*D28
 10
135.9587708147596
 20
117.0578279458749
 30
0.0
 11
94.95877081475965
 21
119.3661612792082
 31
0.0
 70
    32
  1
%%c<>
 71
     5
 42
82.0
  3
STANDARD
100
AcDbAlignedDimension
 13
53.95877081475965
 23
108.5090734952464
 33
0.0
 14
135.9587708147596
 24
108.5090734952463
 34
0.0
100
AcDbRotatedDimension
1001
ACAD
1000
DSTYLE
1002
{
1070
   146
1040
0.5
1070
   284
1070
     8
1070
    48
1040
0.2
1070
   147
1040
0.85
1070
    72
1070
     0
1070
    71
1070
     1
1002
}
  0
DIMENSION
  5
E970
330
18
100
AcDbEntity
  8
mark
100
AcDbDimension
  2
*D29
 10
47.63335200299661
 20
100.5090734952464
 30
0.0
 11
45.5333520029966
 21
105.0090734952464
 31
0.0
 70
    32
 71
     5
 42
9.0
  3
STANDARD
100
AcDbAlignedDimension
 13
54.95877081475964
 23
109.5090734952464
 33
0.0
 14
52.95877081475977
 24
100.5090734952464
 34
0.0
 50
90.0
100
AcDbRotatedDimension
  0
MTEXT
  5
E97D
102
{ACAD_XDICTIONARY
360
ECAC
102
}
330
18
100
AcDbEntity
  8
dim
100
AcDbMText
 10
29.33798769048213
 20
97.68359909411163
 30
0.0
 40
2.5
 41
54.08337224291063
 71
     1
 72
     5
  1
6-%%C6{\Ftxt,bigfont|c128;深さ}7
 73
     1
 44
1.0
  0
LEADER
  5
E97E
330
18
100
AcDbEntity
  8
mark
100
AcDbLeader
  3
STANDARD
 76
     3
 10
53.95877081475976
 20
100.5090734952464
 30
0.0
 10
47.59146066612124
 20
94.14176334660789
 30
0.0
 10
29.23833923918824
 20
94.14176334660789
 30
0.0
1001
ACAD
1000
DSTYLE
1002
{
1070
   147
1040
0.85
1070
    77
1070
     0
1002
}
  0
MTEXT
  5
E981
102
{ACAD_XDICTIONARY
360
ECAE
102
}
330
18
100
AcDbEntity
  8
dim
100
AcDbMText
 10
30.79631663696034
 20
80.68359909411169
 30
0.0
 40
2.5
 41
54.08337224291063
 71
     1
 72
     5
  1
6-%%C{\Ftxt,bigfont|c136;5}.3深さ{\Ftxt,bigfont|c136;5}
 73
     1
 44
1.0
  0
LEADER
  5
E982
330
18
100
AcDbEntity
  8
mark
100
AcDbLeader
  3
STANDARD
 76
     3
 10
58.70877081475964
 20
83.50907349524646
 30
0.0
 10
52.34146066612112
 20
77.14176334660795
 30
0.0
 10
30.82282080979837
 20
77.14176334660795
 30
0.0
1001
ACAD
1000
DSTYLE
1002
{
1070
   147
1040
0.85
1070
    77
1070
     0
1002
}
  0
DIMENSION
  5
E983
330
18
100
AcDbEntity
  8
mark
100
AcDbDimension
  2
*D30
 10
144.5366680520301
 20
92.65907349524633
 30
0.0
 11
142.4366680520301
 21
101.0840734952463
 31
0.0
 70
    32
 71
     5
 42
16.85000000000002
  3
STANDARD
100
AcDbAlignedDimension
 13
134.9587708147596
 23
109.5090734952463
 33
0.0
 14
134.9587708147596
 24
92.65907349524633
 34
0.0
 50
90.0
100
AcDbRotatedDimension
  0
DIMENSION
  5
EA76
330
18
100
AcDbEntity
  8
mark
100
AcDbDimension
  2
*D32
 10
144.5366680520301
 20
90.65907349524634
 30
0.0
 11
144.5366680520301
 21
91.65907349524635
 31
0.0
 70
   160
 71
     5
 42
2.0
  3
STANDARD
100
AcDbAlignedDimension
 13
134.9587708147596
 23
92.65907349524633
 33
0.0
 14
134.9587708147596
 24
90.65907349524634
 34
0.0
 50
90.0
100
AcDbRotatedDimension
1001
ACAD
1000
DSTYLE
1002
{
1070
    90
1070
     1
1070
   345
1005
12
1070
   346
1005
12
1070
   347
1005
12
1002
}
  0
DIMENSION
  5
EA85
330
18
100
AcDbEntity
  8
mark
100
AcDbDimension
  2
*D33
 10
153.8356032115532
 20
83.5090734952463
 30
0.0
 11
151.7356032115532
 21
96.50907349524635
 31
0.0
 70
    32
  1
<>
 71
     5
 42
26.00000000000006
  3
STANDARD
100
AcDbAlignedDimension
 13
134.9587708147596
 23
109.5090734952463
 33
0.0
 14
134.9587708147595
 24
83.5090734952463
 34
0.0
 50
90.0
100
AcDbRotatedDimension
1001
ACAD_DSTYLE_DIMINSPECT
1070
   396
1000
100%
1070
   395
1000

1070
   394
1070
    33
1070
   393
1070
     0
1001
ACAD
1000
DSTYLE
1002
{
1070
     3
1000
%%P0.2
1070
    90
1070
     1
1070
   345
1005
12
1070
   346
1005
12
1070
   347
1005
12
1002
}
  0
TOLERANCE
  5
EA9D
330
18
100
AcDbEntity
  8
mark
100
AcDbFcf
  3
STANDARD
 10
161.3843576621818
 20
117.0578279458749
 30
0.0
  1
{\Fgdt;h}%%v0.005%%v%%vA%%v%%v
  0
LINE
  5
EA9E
330
18
100
AcDbEntity
  8
mark
100
AcDbLine
 10
153.8356032115532
 20
117.0578279458749
 30
0.0
 11
161.3843576621818
 21
117.0578279458749
 31
0.0
  0
LINE
  5
EAA0
330
18
100
AcDbEntity
  8
mark
100
AcDbLine
 10
153.8356032115532
 20
109.5090734952463
 30
0.0
 11
153.8356032115532
 21
117.0578279458749
 31
0.0
  0
DIMENSION
  5
EAB6
330
18
100
AcDbEntity
  8
mark
100
AcDbDimension
  2
*D34
 10
65.95877081475965
 20
74.7756770421638
 30
0.0
 11
94.95877081475965
 21
76.8756770421638
 31
0.0
 70
    32
  1
M<>x1.5P
 71
     5
 42
58.0
  3
STANDARD
100
AcDbAlignedDimension
 13
123.9587708147596
 23
84.25907349524635
 33
0.0
 14
65.95877081475965
 24
84.25907349524733
 34
0.0
100
AcDbRotatedDimension
1001
ACAD
1000
DSTYLE
1002
{
1070
    90
1070
     1
1070
   345
1005
12
1070
   346
1005
12
1070
   347
1005
12
1002
}
  0
TOLERANCE
  5
EAC3
330
18
100
AcDbEntity
  8
mark
100
AcDbFcf
  3
STANDARD
 10
78.45877081475965
 20
66.85901037549713
 30
0.0
  1
%%v%%v%%vA%%v%%v
 11
-0.0000000000000002
 21
-1.0
 31
0.0
  0
LINE
  5
EAC4
330
18
100
AcDbEntity
  8
mark
100
AcDbLine
 10
65.95877081475965
 20
73.92567704216381
 30
0.0
 11
65.95877081475965
 21
63.33230136918974
 31
0.0
  0
LINE
  5
EAC5
330
18
100
AcDbEntity
  8
mark
100
AcDbLine
 10
75.95877081475965
 20
64.7756770421638
 30
0.0
 11
68.45877081475965
 21
64.7756770421638
 31
0.0
  0
LWPOLYLINE
  5
EAC6
102
{ACAD_REACTORS
330
EAD6
102
}
330
18
100
AcDbEntity
  8
mark
100
AcDbPolyline
 90
        3
 70
     1
 43
0.0
 10
65.95877081475965
 20
63.33230136918974
 10
68.45877081475965
 20
64.7756770421638
 10
65.95877081475965
 20
66.21905271513788
  0
HATCH
  5
EAD6
330
18
100
AcDbEntity
  8
mark
100
AcDbHatch
 10
0.0
 20
0.0
 30
0.0
210
0.0
220
0.0
230
1.0
  2
SOLID
 70
     1
 71
     1
 91
        1
 92
        7
 72
     0
 73
     1
 93
        3
 10
65.95877081475965
 20
63.33230136918974
 10
68.45877081475965
 20
64.7756770421638
 10
65.95877081475965
 20
66.21905271513788
 97
        1
330
EAC6
 75
     1
 76
     1
 47
0.0286665889246771
 98
        1
 10
66.82558955717218
 20
64.60543295721823
450
        0
451
        0
460
0.0
461
0.0
452
        0
462
0.0
453
        0
470

1001
GRADIENTCOLOR1ACI
1070
     5
1001
GRADIENTCOLOR2ACI
1070
     2
1001
ACAD
1010
0.0
1020
0.0
1030
0.0
  0
MTEXT
  5
EAD7
330
18
100
AcDbEntity
  8
dim
100
AcDbMText
 10
148.500116964846
 20
171.6707002784673
 30
0.0
 40
5.0
 41
54.08337224291063
 71
     1
 72
     5
  1
1
 73
     1
 44
1.0
  0
LEADER
  5
EAD8
330
18
100
AcDbEntity
  8
mark
100
AcDbLeader
  3
STANDARD
 76
     2
 10
134.7742662805205
 20
179.6336749652494
 30
0.0
 10
147.2417761341082
 20
169.1721920454049
 30
0.0
1001
ACAD
1000
DSTYLE
1002
{
1070
   147
1040
0.85
1070
    77
1070
     0
1002
}
  0
LEADER
  5
EADB
330
18
100
AcDbEntity
  8
mark
100
AcDbLeader
  3
STANDARD
 76
     2
 10
129.9587708147596
 20
83.50907349524632
 30
0.0
 10
147.2417761341082
 20
73.54619180407621
 30
0.0
1001
ACAD
1000
DSTYLE
1002
{
1070
   147
1040
0.85
1070
    77
1070
     0
1070
    90
1070
     1
1070
   345
1005
12
1070
   346
1005
12
1070
   347
1005
12
1002
}
  0
MTEXT
  5
EADC
330
18
100
AcDbEntity
  8
dim
100
AcDbMText
 10
148.500116964846
 20
76.04470003713865
 30
0.0
 40
5.0
 41
54.08337224291063
 71
     1
 72
     5
  1
{\Ftxt,bigfont|c136;2}
 73
     1
 44
1.0
  0
CIRCLE
  5
EADF
330
18
100
AcDbEntity
  8
contour
100
AcDbCircle
 10
94.98020757908841
 20
189.4176680597911
 30
0.0
 40
29.77143676432915
  0
ENDSEC
  0
SECTION
  2
OBJECTS
  0
DICTIONARY
  5
C
330
0
100
AcDbDictionary
281
     1
  3
ACAD_2007HEADERVARS_RT
350
ECC2
  3
ACAD_CIP_PREVIOUS_PRODUCT_INFO
350
DBC0
  3
ACAD_COLOR
350
7873
  3
ACAD_DETAILVIEWSTYLE
350
DBB6
  3
ACAD_GROUP
350
D
  3
ACAD_LAYOUT
350
5CF3
  3
ACAD_MATERIAL
350
7872
  3
ACAD_MLEADERSTYLE
350
DBB2
  3
ACAD_MLINESTYLE
350
1B
  3
ACAD_PLOTSETTINGS
350
5CF4
  3
ACAD_PLOTSTYLENAME
350
5CF1
  3
ACAD_SCALELIST
350
DBA0
  3
ACAD_SECTIONVIEWSTYLE
350
DBB4
  3
ACAD_TABLESTYLE
350
7874
  3
ACAD_VISUALSTYLE
350
DB87
  3
AcadDim
350
D9D9
  3
ACDB_RECOMPOSE_DATA
350
ECC1
  3
ACDBVARIABLEDICTIONARY
350
45D
  3
AcmDictionary
350
E0E5
  3
AEC_PROPERTY_SET_DEFS
350
DD9D
  3
AMG
350
E098
  3
AMGSNAPSETTINGS
350
E1C3
  0
DICTIONARY
  5
DE9C
330
8
100
AcDbDictionary
280
     1
281
     1
  0
DICTIONARY
  5
7BFE
330
2
100
AcDbDictionary
280
     1
281
     1
  3
ACAD_LAYERFILTERS
360
7C00
  3
ACLYDICTIONARY
360
7BFF
  0
DICTIONARY
  5
DDAC
330
E
100
AcDbDictionary
280
     1
281
     1
  3
ADSK_XREC_LAYER_RECONCILED
360
DDAD
  0
DICTIONARY
  5
DDAE
330
B9
100
AcDbDictionary
280
     1
281
     1
  3
ADSK_XREC_LAYER_RECONCILED
360
DDAF
  0
DICTIONARY
  5
DDB0
330
5F8B
100
AcDbDictionary
280
     1
281
     1
  3
ADSK_XREC_LAYER_RECONCILED
360
DDB1
  0
DICTIONARY
  5
DDB2
330
644E
100
AcDbDictionary
280
     1
281
     1
  3
ADSK_XREC_LAYER_RECONCILED
360
DDB3
  0
DICTIONARY
  5
DDB4
330
650D
100
AcDbDictionary
280
     1
281
     1
  3
ADSK_XREC_LAYER_RECONCILED
360
DDB5
  0
DICTIONARY
  5
DDB6
330
650E
100
AcDbDictionary
280
     1
281
     1
  3
ADSK_XREC_LAYER_RECONCILED
360
DDB7
  0
DICTIONARY
  5
DDB8
330
650F
100
AcDbDictionary
280
     1
281
     1
  3
ADSK_XREC_LAYER_RECONCILED
360
DDB9
  0
DICTIONARY
  5
DDBA
330
6510
100
AcDbDictionary
280
     1
281
     1
  3
ADSK_XREC_LAYER_RECONCILED
360
DDBB
  0
DICTIONARY
  5
E342
330
E341
100
AcDbDictionary
280
     1
281
     1
  0
DICTIONARY
  5
45F
330
18
100
AcDbDictionary
280
     1
281
     1
  3
ACAD_LAYOUTSELFREF
360
5D8B
  3
ACAD_SORTENTS
360
460
  0
DICTIONARY
  5
5D89
330
15
100
AcDbDictionary
280
     1
281
     1
  3
ACAD_LAYOUTSELFREF
360
5D8A
  0
DICTIONARY
  5
7C0B
330
7C0A
100
AcDbDictionary
280
     1
281
     1
  3
AcDbBlockTableRecordData
360
ECCA
  0
DICTIONARY
  5
8E73
330
8E72
100
AcDbDictionary
280
     1
281
     1
  3
AcDbBlockTableRecordData
360
ECCC
  0
DICTIONARY
  5
9D16
330
9D15
100
AcDbDictionary
280
     1
281
     1
  3
AcDbBlockTableRecordData
360
ECCE
  0
DICTIONARY
  5
A519
330
A518
100
AcDbDictionary
280
     1
281
     1
  3
AcDbBlockTableRecordData
360
ECD0
  0
DICTIONARY
  5
A628
330
A627
100
AcDbDictionary
280
     1
281
     1
  3
AcDbBlockTableRecordData
360
ECD2
  0
DICTIONARY
  5
E275
330
E274
100
AcDbDictionary
280
     1
281
     1
  3
ACAD_SORTENTS
360
E276
  0
DICTIONARY
  5
E877
330
E876
100
AcDbDictionary
280
     1
281
     1
  0
DICTIONARY
  5
EC6E
330
DBC4
100
AcDbDictionary
280
     1
281
     1
  0
DICTIONARY
  5
EC70
330
DBC9
100
AcDbDictionary
280
     1
281
     1
  0
DICTIONARY
  5
EC72
330
DBCF
100
AcDbDictionary
280
     1
281
     1
  0
DICTIONARY
  5
EC74
330
DBD0
100
AcDbDictionary
280
     1
281
     1
  0
DICTIONARY
  5
EC76
330
DBD2
100
AcDbDictionary
280
     1
281
     1
  0
DICTIONARY
  5
EC78
330
DBDB
100
AcDbDictionary
280
     1
281
     1
  0
DICTIONARY
  5
EC7A
330
DBDD
100
AcDbDictionary
280
     1
281
     1
  0
DICTIONARY
  5
EC7C
330
DBDE
100
AcDbDictionary
280
     1
281
     1
  0
DICTIONARY
  5
EC7E
330
DBDF
100
AcDbDictionary
280
     1
281
     1
  0
DICTIONARY
  5
EC80
330
DBE0
100
AcDbDictionary
280
     1
281
     1
  0
DICTIONARY
  5
EC82
330
DBE4
100
AcDbDictionary
280
     1
281
     1
  0
DICTIONARY
  5
EC84
330
DBE5
100
AcDbDictionary
280
     1
281
     1
  0
DICTIONARY
  5
EC86
330
DBEC
100
AcDbDictionary
280
     1
281
     1
  0
DICTIONARY
  5
EC88
330
DBEE
100
AcDbDictionary
280
     1
281
     1
  0
DICTIONARY
  5
EC8A
330
DBF0
100
AcDbDictionary
280
     1
281
     1
  0
DICTIONARY
  5
EC8C
330
DBF1
100
AcDbDictionary
280
     1
281
     1
  0
DICTIONARY
  5
EC8E
330
DBF3
100
AcDbDictionary
280
     1
281
     1
  0
DICTIONARY
  5
EC90
330
DBF4
100
AcDbDictionary
280
     1
281
     1
  0
DICTIONARY
  5
EC92
330
DBF5
100
AcDbDictionary
280
     1
281
     1
  0
DICTIONARY
  5
EC94
330
DBFA
100
AcDbDictionary
280
     1
281
     1
  0
DICTIONARY
  5
EC96
330
DBFC
100
AcDbDictionary
280
     1
281
     1
  0
DICTIONARY
  5
EC98
330
DBFD
100
AcDbDictionary
280
     1
281
     1
  0
DICTIONARY
  5
EC9A
330
DBFE
100
AcDbDictionary
280
     1
281
     1
  0
DICTIONARY
  5
EC9C
330
DC02
100
AcDbDictionary
280
     1
281
     1
  0
DICTIONARY
  5
EC9E
330
DC04
100
AcDbDictionary
280
     1
281
     1
  0
DICTIONARY
  5
ECA0
330
DC08
100
AcDbDictionary
280
     1
281
     1
  0
DICTIONARY
  5
ECA2
330
DC0D
100
AcDbDictionary
280
     1
281
     1
  0
DICTIONARY
  5
ECA4
330
DF6D
100
AcDbDictionary
280
     1
281
     1
  0
DICTIONARY
  5
ECAC
330
E97D
100
AcDbDictionary
280
     1
281
     1
  0
DICTIONARY
  5
ECAE
330
E981
100
AcDbDictionary
280
     1
281
     1
  0
DICTIONARY
  5
ECC2
102
{ACAD_REACTORS
330
C
102
}
330
C
100
AcDbDictionary
281
     1
  3
DIMARCSYM
350
ECC4
  3
DIMFXL
350
ECC3
  3
DIMJOGANG
350
ECC5
  3
DIMLTEX1
350
ECC7
  3
DIMLTEX2
350
ECC8
  3
DIMLTYPE
350
ECC6
  0
XRECORD
  5
DBC0
102
{ACAD_REACTORS
330
C
102
}
330
C
100
AcDbXrecord
280
     1
300
ACDLT
300
2018
300
ACDLT_F_S
  0
DICTIONARY
  5
7873
102
{ACAD_REACTORS
330
C
102
}
330
C
100
AcDbDictionary
281
     1
  0
DICTIONARY
  5
DBB6
102
{ACAD_REACTORS
330
C
102
}
330
C
100
AcDbDictionary
281
     1
  3
Metric50
350
DBB7
  0
DICTIONARY
  5
D
102
{ACAD_REACTORS
330
C
102
}
330
C
100
AcDbDictionary
281
     1
  0
DICTIONARY
  5
5CF3
102
{ACAD_REACTORS
330
C
102
}
330
C
100
AcDbDictionary
281
     1
  3
Model
350
5CF5
  3
配置1
350
5CF6
1001
ACADSTRINGINFO
1000
MIFCodePage
1070
     1
  0
DICTIONARY
  5
7872
102
{ACAD_REACTORS
330
C
102
}
330
C
100
AcDbDictionary
281
     1
  3
ByBlock
350
DB77
  3
ByLayer
350
DB6F
  3
Global
350
DB7F
  0
DICTIONARY
  5
DBB2
102
{ACAD_REACTORS
330
C
102
}
330
C
100
AcDbDictionary
281
     1
  3
Standard
350
DBB3
  0
DICTIONARY
  5
1B
102
{ACAD_REACTORS
330
C
102
}
330
C
100
AcDbDictionary
281
     1
  3
STANDARD
350
1C
  0
DICTIONARY
  5
5CF4
102
{ACAD_REACTORS
330
C
102
}
330
C
100
AcDbDictionary
281
     1
  0
ACDBDICTIONARYWDFLT
  5
5CF1
102
{ACAD_REACTORS
330
C
102
}
330
C
100
AcDbDictionary
281
     1
  3
Normal
350
5CF2
  3
黑
350
E346
100
AcDbDictionaryWithDefault
340
5CF2
1001
ACADSTRINGINFO
1000
MIFCodePage
1070
     2
  0
DICTIONARY
  5
DBA0
102
{ACAD_REACTORS
330
C
102
}
330
C
100
AcDbDictionary
281
     1
  3
A0
350
DBA1
  3
A1
350
DBA2
  3
A2
350
DBA3
  3
A3
350
DBA4
  3
A4
350
DBA5
  3
A5
350
DBA6
  3
A6
350
DBA7
  3
A7
350
DBA8
  3
A8
350
DBA9
  3
A9
350
DBAA
  3
B0
350
DBAB
  3
B1
350
DBAC
  3
B2
350
DBAD
  3
B3
350
DBAE
  3
B4
350
DBAF
  3
B5
350
DBB0
  3
B6
350
DBB1
  0
DICTIONARY
  5
DBB4
102
{ACAD_REACTORS
330
C
102
}
330
C
100
AcDbDictionary
281
     1
  3
Metric50
350
DBB5
  0
DICTIONARY
  5
7874
102
{ACAD_REACTORS
330
C
102
}
330
C
100
AcDbDictionary
281
     1
  3
Standard
350
7875
  0
DICTIONARY
  5
DB87
102
{ACAD_REACTORS
330
C
102
}
330
C
100
AcDbDictionary
281
     1
  3
2dWireframe
350
DB8D
  3
Basic
350
DB8C
  3
Brighten
350
DB93
  3
ColorChange
350
DB97
  3
Conceptual
350
DB90
  3
Dim
350
DB92
  3
EdgeColorOff
350
DB9F
  3
Facepattern
350
DB96
  3
Flat
350
DB88
  3
FlatWithEdges
350
DB89
  3
Gouraud
350
DB8A
  3
GouraudWithEdges
350
DB8B
  3
Hidden
350
DB8F
  3
JitterOff
350
DB9D
  3
Linepattern
350
DB95
  3
OverhangOff
350
DB9E
  3
Realistic
350
DB91
  3
Shaded
350
DB9C
  3
Shaded with edges
350
DB9B
  3
Shades of Gray
350
DB98
  3
Sketchy
350
DB99
  3
Thicken
350
DB94
  3
Wireframe
350
DB8E
  3
X-Ray
350
DB9A
  0
XRECORD
  5
D9D9
102
{ACAD_REACTORS
330
C
102
}
330
C
100
AcDbXrecord
280
     1
 90
   990106
  3

 60
     0
 61
     0
 62
     1
 63
     3
 64
     0
 65
     0
 66
     0
 67
     3
 68
     1
 69
     0
 70
     0
 71
     0
 72
     0
 40
0.0
170
     0
  0
XRECORD
  5
ECC1
102
{ACAD_REACTORS
330
C
102
}
330
C
100
AcDbXrecord
280
     1
 90
        1
330
7875
  0
DICTIONARY
  5
45D
102
{ACAD_REACTORS
330
C
102
}
330
C
100
AcDbDictionary
281
     1
  3
CANNOSCALE
350
DF60
  3
CMLEADERSTYLE
350
DF5D
  3
CTABLESTYLE
350
7880
  3
CVIEWDETAILSTYLE
350
DF5E
  3
CVIEWSECTIONSTYLE
350
DF5F
  3
DIMASSOC
350
DF63
  3
INDEXCTL
350
DF61
  3
SORTENTS
350
45E
  3
XCLIPFRAME
350
ECBF
  0
DICTIONARY
  5
E0E5
102
{ACAD_REACTORS
330
C
102
}
330
C
100
AcDbDictionary
281
     1
  3
AcmStdDictionary
350
E0F0
  0
DICTIONARY
  5
DD9D
102
{ACAD_REACTORS
330
C
102
}
330
C
100
AcDbDictionary
281
     1
  0
DICTIONARY
  5
E098
102
{ACAD_REACTORS
330
C
102
}
330
C
100
AcDbDictionary
281
     1
  0
DICTIONARY
  5
E1C3
102
{ACAD_REACTORS
330
C
102
}
330
C
100
AcDbDictionary
281
     1
  0
DICTIONARY
  5
7C00
102
{ACAD_REACTORS
330
7BFE
102
}
330
7BFE
100
AcDbDictionary
281
     1
  0
DICTIONARY
  5
7BFF
102
{ACAD_REACTORS
330
7BFE
102
}
330
7BFE
100
AcDbDictionary
281
     1
1001
ACAD
1000
<All
  0
XRECORD
  5
DDAD
102
{ACAD_REACTORS
330
DDAC
102
}
330
DDAC
100
AcDbXrecord
280
     1
290
     1
  0
XRECORD
  5
DDAF
102
{ACAD_REACTORS
330
DDAE
102
}
330
DDAE
100
AcDbXrecord
280
     1
290
     1
  0
XRECORD
  5
DDB1
102
{ACAD_REACTORS
330
DDB0
102
}
330
DDB0
100
AcDbXrecord
280
     1
290
     1
  0
XRECORD
  5
DDB3
102
{ACAD_REACTORS
330
DDB2
102
}
330
DDB2
100
AcDbXrecord
280
     1
290
     1
  0
XRECORD
  5
DDB5
102
{ACAD_REACTORS
330
DDB4
102
}
330
DDB4
100
AcDbXrecord
280
     1
290
     1
  0
XRECORD
  5
DDB7
102
{ACAD_REACTORS
330
DDB6
102
}
330
DDB6
100
AcDbXrecord
280
     1
290
     1
  0
XRECORD
  5
DDB9
102
{ACAD_REACTORS
330
DDB8
102
}
330
DDB8
100
AcDbXrecord
280
     1
290
     1
  0
XRECORD
  5
DDBB
102
{ACAD_REACTORS
330
DDBA
102
}
330
DDBA
100
AcDbXrecord
280
     1
290
     1
  0
XRECORD
  5
5D8B
102
{ACAD_REACTORS
330
45F
102
}
330
45F
100
AcDbXrecord
280
     1
340
18
  0
SORTENTSTABLE
  5
460
102
{ACAD_REACTORS
330
45F
102
}
330
45F
100
AcDbSortentsTable
330
18
331
E734
  5
E73D
331
E6B0
  5
E6B4
331
E6ED
  5
E6F2
331
E6F5
  5
E6FD
331
E73C
  5
E89C
331
E6B8
  5
E6BC
331
E6FD
  5
E705
331
E681
  5
E682
331
E6C0
  5
E6C4
331
E705
  5
E71D
331
E689
  5
E68F
331
E8A1
  5
E8A6
331
E8A9
  5
E8AE
331
DBD7
  5
DBD7
331
DBDF
  5
DBDF
331
DBE7
  5
DBE7
331
DBEF
  5
DBEF
331
E6CE
  5
E6D3
331
E691
  5
E693
331
E6D6
  5
E6DA
331
E71D
  5
E725
331
E699
  5
E69B
331
E6DE
  5
E6E3
331
E725
  5
E72D
331
E6A1
  5
E6A6
331
E72D
  5
E736
331
E6A9
  5
E6AD
331
E8B1
  5
E8B6
331
E8B9
  5
E8BE
331
DBF7
  5
DBF7
331
DBFF
  5
DBFF
331
DBC8
  5
DBC8
331
DC07
  5
DC07
331
DC0F
  5
DC0F
331
E6EE
  5
E6F3
331
E6B1
  5
E6B5
331
E6F6
  5
E6FE
331
E73D
  5
E89D
331
E6B9
  5
E6BD
331
E6FE
  5
E706
331
E682
  5
E683
331
E6C1
  5
E6C5
331
E706
  5
E71E
331
E8A2
  5
E8A7
331
E8AA
  5
E8AF
331
DBD0
  5
DBD0
331
DBD8
  5
DBD8
331
DBE0
  5
DBE0
331
EAC3
  5
EAC3
331
DBE8
  5
DBE8
331
E716
  5
E71F
331
E692
  5
E694
331
E6D7
  5
E6DB
331
E71E
  5
E726
331
E69A
  5
E69D
331
E6DF
  5
E6EC
331
E726
  5
E72E
331
E72E
  5
E737
331
E6AA
  5
E6AE
331
E8B2
  5
E8B7
331
E8BA
  5
E8BF
331
DBF0
  5
DBF0
331
DBF8
  5
DBF8
331
E97D
  5
E97D
331
DC00
  5
DC00
331
DBC9
  5
DBC9
331
DC08
  5
DC08
331
E6B2
  5
E6B6
331
E6EF
  5
E6F4
331
E736
  5
E73E
331
E6BA
  5
E6BE
331
E67B
  5
E67C
331
E6F7
  5
E6FF
331
E73E
  5
E89E
331
E683
  5
E685
331
E6C2
  5
E6C6
331
E6FF
  5
E707
331
E8A3
  5
E8A8
331
E8AB
  5
E8B0
331
DBD1
  5
DBD1
331
DBD9
  5
DBD9
331
DBE1
  5
DBE1
331
EAC4
  5
EAC5
331
DBE9
  5
DBE9
331
EA85
  5
EA85
331
E6C8
  5
E6CD
331
E693
  5
E695
331
E717
  5
E720
331
E6D0
  5
E6D5
331
E69B
  5
E69E
331
E6D8
  5
E6DC
331
E71F
  5
E727
331
E6A3
  5
E6A7
331
E727
  5
E72F
331
E6E0
  5
E6ED
331
E6AB
  5
E6AF
331
E72F
  5
E738
331
E8B3
  5
E8B8
331
E8BB
  5
E8C0
331
DBF1
  5
DBF1
331
DBF9
  5
DBF9
331
E97E
  5
E97E
331
EA9D
  5
EA9D
331
DC01
  5
DC01
331
DBCA
  5
DBCA
331
DC09
  5
DC09
331
E6B3
  5
E6B7
331
E6F0
  5
E6F5
331
E737
  5
E73F
331
E6BB
  5
E6BF
331
E67C
  5
E67D
331
E6F8
  5
E700
331
E73F
  5
E89F
331
E684
  5
E686
331
E6C3
  5
E6C7
331
E700
  5
E708
331
E933
  5
E933
331
E89C
  5
E8A1
331
E8A4
  5
E8A9
331
E8AC
  5
E8B1
331
DBD2
  5
DBD2
331
EA76
  5
EA76
331
DBDA
  5
DBDA
331
DBE2
  5
DBE2
331
EAC5
  5
EAC6
331
DBEA
  5
DBEA
331
E694
  5
E696
331
E6D1
  5
E6D6
331
E718
  5
E721
331
E69C
  5
E6A0
331
E720
  5
E728
331
E6D9
  5
E6DD
331
E6A4
  5
E6A8
331
E728
  5
E730
331
E6AC
  5
E6B0
331
E8B4
  5
E8B9
331
E8BC
  5
E8C1
331
DBF2
  5
DBF2
331
DBFA
  5
DBFA
331
EA9E
  5
EA9E
331
DBC3
  5
DBC3
331
DC02
  5
DC02
331
DBCB
  5
DBCB
331
DC0A
  5
DC0A
331
E730
  5
E739
331
E6E9
  5
E6EE
331
E6F1
  5
E6F7
331
E738
  5
E740
331
E6B4
  5
E6B8
331
E6BC
  5
E6C0
331
E6F9
  5
E701
331
E740
  5
E8A0
331
E67D
  5
E67E
331
E701
  5
E709
331
E685
  5
E687
331
E6C4
  5
E6C8
331
E89D
  5
E8A2
331
E8A5
  5
E8AA
331
DBD3
  5
DBD3
331
E8AD
  5
E8B2
331
EAB6
  5
EAB6
331
DBDB
  5
DBDB
331
DBE3
  5
DBE3
331
EAC6
  5
EAD2
331
DBEB
  5
DBEB
331
E6CA
  5
E6CF
331
E719
  5
E722
331
E695
  5
E697
331
E6DA
  5
E6DF
331
E721
  5
E729
331
E69D
  5
E6A1
331
E729
  5
E731
331
E6A5
  5
E6A9
331
E6AD
  5
E6B1
331
E8B5
  5
E8BA
331
E8BD
  5
E8C2
331
E970
  5
E970
331
DBF3
  5
DBF3
331
DBFB
  5
DBFB
331
DBC4
  5
DBC4
331
DC03
  5
DC03
331
DBCC
  5
DBCC
331
DC0B
  5
DC0B
331
E6EA
  5
E6EF
331
E731
  5
E73A
331
E6F2
  5
E6F9
331
E739
  5
E816
331
E6B5
  5
E6B9
331
E6BD
  5
E6C1
331
E6FA
  5
E702
331
E67E
  5
E67F
331
E702
  5
E719
331
E686
  5
E688
331
E6C5
  5
E6C9
331
E68E
  5
E690
331
E89E
  5
E8A3
331
E8A6
  5
E8AB
331
E8AE
  5
E8B3
331
DBD4
  5
DBD4
331
DBDC
  5
DBDC
331
DBE4
  5
DBE4
331
C0
  5
CB
331
DBEC
  5
DBEC
331
E6CB
  5
E6D0
331
E6D3
  5
E6D8
331
E71A
  5
E723
331
E696
  5
E698
331
E6DB
  5
E6E0
331
E722
  5
E72A
331
E69E
  5
E6A3
331
E72A
  5
E732
331
E6A6
  5
E6AA
331
E6AE
  5
E6B2
331
E8B6
  5
E8BB
331
E8BE
  5
E8C3
331
E926
  5
E67B
331
DBF4
  5
DBF4
331
DBFC
  5
DBFC
331
EAA0
  5
EAA0
331
E981
  5
E981
331
DBC5
  5
DBC5
331
DC04
  5
DC04
331
DF6D
  5
DF6D
331
DBCD
  5
DBCD
331
DC0C
  5
DC0C
331
E6EB
  5
E6F0
331
E732
  5
E73B
331
E6B6
  5
E6BA
331
E6F3
  5
E6FB
331
E73A
  5
E817
331
E6BE
  5
E6C2
331
E67F
  5
E680
331
E6FB
  5
E703
331
E687
  5
E689
331
E6C6
  5
E6CA
331
E703
  5
E71A
331
E68F
  5
E691
331
E89F
  5
E8A4
331
E8A7
  5
E8AC
331
E8AF
  5
E8B4
331
DBD5
  5
DBD5
331
DBDD
  5
DBDD
331
DBE5
  5
DBE5
331
DBED
  5
DBED
331
E697
  5
E699
331
E6D4
  5
E6D9
331
E69F
  5
E6A4
331
E723
  5
E72B
331
E6DC
  5
E6E1
331
E6A7
  5
E6AB
331
E72B
  5
E733
331
E6AF
  5
E6B3
331
E8B7
  5
E8BC
331
E8BF
  5
E8C4
331
E927
  5
E927
331
DBF5
  5
DBF5
331
EAD6
  5
EACF
331
E982
  5
E982
331
DBFD
  5
DBFD
331
DBC6
  5
DBC6
331
DC05
  5
DC05
331
DBCE
  5
DBCE
331
DC0D
  5
DC0D
331
E6EC
  5
E6F1
331
E733
  5
E73C
331
E6B7
  5
E6BB
331
E6F4
  5
E6FC
331
E73B
  5
E874
331
E6BF
  5
E6C3
331
E680
  5
E681
331
E6FC
  5
E704
331
E6C7
  5
E6CC
331
E688
  5
E68E
331
E704
  5
E71C
331
E93F
  5
E93F
331
E8A0
  5
E8A5
331
E8A8
  5
E8AD
331
DBD6
  5
DBD6
331
DBDE
  5
DBDE
331
DBE6
  5
DBE6
331
DBEE
  5
DBEE
331
E690
  5
E692
331
E6CD
  5
E6D2
331
E698
  5
E69A
331
E71C
  5
E724
331
E6A0
  5
E6A5
331
E724
  5
E72C
331
E6DD
  5
E6E2
331
E6A8
  5
E6AC
331
E72C
  5
E734
331
E8B0
  5
E8B5
331
E8B8
  5
E8BD
331
DBF6
  5
DBF6
331
E983
  5
E983
331
DBFE
  5
DBFE
331
DBC7
  5
DBC7
331
DC06
  5
DC06
331
DBCF
  5
DBCF
331
DC0E
  5
DC0E
  0
XRECORD
  5
5D8A
102
{ACAD_REACTORS
330
5D89
102
}
330
5D89
100
AcDbXrecord
280
     1
340
15
  0
DICTIONARY
  5
ECCA
102
{ACAD_REACTORS
330
7C0B
102
}
330
7C0B
100
AcDbDictionary
280
     1
281
     1
  3
Edit
360
ECCB
  0
DICTIONARY
  5
ECCC
102
{ACAD_REACTORS
330
8E73
102
}
330
8E73
100
AcDbDictionary
280
     1
281
     1
  3
Edit
360
ECCD
  0
DICTIONARY
  5
ECCE
102
{ACAD_REACTORS
330
9D16
102
}
330
9D16
100
AcDbDictionary
280
     1
281
     1
  3
Edit
360
ECCF
  0
DICTIONARY
  5
ECD0
102
{ACAD_REACTORS
330
A519
102
}
330
A519
100
AcDbDictionary
280
     1
281
     1
  3
Edit
360
ECD1
  0
DICTIONARY
  5
ECD2
102
{ACAD_REACTORS
330
A628
102
}
330
A628
100
AcDbDictionary
280
     1
281
     1
  3
Edit
360
ECD3
  0
SORTENTSTABLE
  5
E276
102
{ACAD_REACTORS
330
E275
102
}
330
E275
100
AcDbSortentsTable
330
E274
331
E2BC
  5
1F3
331
E285
  5
1BB
331
E2AA
  5
1E3
331
E297
  5
1D0
331
E293
  5
1CB
331
E2B8
  5
1EF
331
E2A6
  5
1DF
331
E281
  5
1B6
331
E2B4
  5
1C9
331
E27D
  5
1B2
331
E2A2
  5
1DC
331
E29E
  5
1C8
331
E279
  5
1AE
331
E2B0
  5
1E9
331
E2C3
  5
1B9
331
E28C
  5
1C2
331
E29A
  5
1D4
331
E288
  5
1BE
331
E2AD
  5
1E6
331
E2BF
  5
1F6
331
E296
  5
1CF
331
E284
  5
1BA
331
E2A9
  5
1E2
331
E2BB
  5
1F2
331
E292
  5
1CA
331
E2A5
  5
1DE
331
E280
  5
1B5
331
E2B7
  5
1EE
331
E28F
  5
1C5
331
E2A1
  5
1DB
331
E27C
  5
1B1
331
E2B3
  5
1ED
331
E2C2
  5
1EB
331
E28B
  5
1C1
331
E29D
  5
1D8
331
E2BE
  5
1F5
331
E287
  5
1BD
331
E2AC
  5
1E5
331
E299
  5
1D3
331
E2BA
  5
1F1
331
E2A8
  5
1E1
331
E283
  5
1B8
331
E295
  5
1CE
331
E2B6
  5
1AD
331
E27F
  5
1B4
331
E291
  5
1C7
331
E2A4
  5
1DD
331
E2B2
  5
1EC
331
E27B
  5
1B0
331
E28E
  5
1C4
331
E2A0
  5
1DA
331
E29C
  5
1D7
331
E28A
  5
1C0
331
E2AF
  5
1E8
331
E2C1
  5
1F8
331
E298
  5
1D2
331
E286
  5
1BC
331
E2AB
  5
1E4
331
E2BD
  5
1F4
331
E294
  5
1CD
331
E2A7
  5
1E0
331
E282
  5
1B7
331
E2B9
  5
1F0
331
E290
  5
1C6
331
E2A3
  5
1D1
331
E27E
  5
1B3
331
E2B5
  5
1CC
331
E2C4
  5
1D6
331
E28D
  5
1C3
331
E29F
  5
1D9
331
E27A
  5
1AF
331
E2B1
  5
1EA
331
E2C0
  5
1F7
331
E2AE
  5
1E7
331
E289
  5
1BF
331
E29B
  5
1D5
  0
XRECORD
  5
ECC4
102
{ACAD_REACTORS
330
ECC2
102
}
330
ECC2
100
AcDbXrecord
280
     1
 70
     1
  0
XRECORD
  5
ECC3
102
{ACAD_REACTORS
330
ECC2
102
}
330
ECC2
100
AcDbXrecord
280
     1
 40
0.18
  0
XRECORD
  5
ECC5
102
{ACAD_REACTORS
330
ECC2
102
}
330
ECC2
100
AcDbXrecord
280
     1
 40
1.570796326794896
  0
XRECORD
  5
ECC7
102
{ACAD_REACTORS
330
ECC2
102
}
330
ECC2
100
AcDbXrecord
280
     1
340
12
  0
XRECORD
  5
ECC8
102
{ACAD_REACTORS
330
ECC2
102
}
330
ECC2
100
AcDbXrecord
280
     1
340
12
  0
XRECORD
  5
ECC6
102
{ACAD_REACTORS
330
ECC2
102
}
330
ECC2
100
AcDbXrecord
280
     1
340
12
  0
ACDBDETAILVIEWSTYLE
  5
DBB7
102
{ACAD_XDICTIONARY
360
ED0B
102
}
102
{ACAD_REACTORS
330
DBB6
102
}
330
DBB6
100
AcDbModelDocViewStyle
 70
     0
  3
Metric50
290
     0
100
AcDbDetailViewStyle
 70
     0
 71
     0
 90
        3
 71
     1
340
F
 62
   256
 40
5.0
340
0
 62
   256
 40
5.0
300

 40
0.0
280
     1
 71
     2
340
14
 90
       25
 62
   256
 71
     3
340
F
 62
   256
 40
5.0
 90
        0
 40
15.0
 90
        1
300
%<\AcVar ViewDetailId>% (%<\AcVar ViewScale \f "%sn">%)
 71
     4
340
14
 90
       25
 62
   256
340
14
 90
       25
 62
   256
280
     0
1001
ACAD
1000
AcRTDxfName
1000
ACDBDETAILVIEWSTYLE
1000
AcRTDxfName
1000
ACDBDETAILVIEWSTYLE
  0
LAYOUT
  5
5CF5
102
{ACAD_REACTORS
330
5CF3
102
}
330
5CF3
100
AcDbPlotSettings
  1

  2
DWG To PDF.pc3
  4
ISO_full_bleed_A4_(210.00_x_297.00_MM)
  6

 40
0.7937499880790711
 41
0.7937499880790711
 42
0.7937469482421875
 43
0.79376220703125
 44
210.0
 45
297.0
 46
9.20625153183937
 47
7.706243902444839
 48
0.0
 49
0.0
140
190.0
141
280.0
142
1.0
143
1.0
 70
 11940
 72
     1
 73
     0
 74
     4
  7
LIN.ctb
 75
     0
147
1.02454228741782
 76
     0
 77
     4
 78
   300
148
0.0
149
0.0
100
AcDbLayout
  1
Model
 70
     1
 71
     0
 10
0.0
 20
0.0
 11
12.0
 21
9.0
 12
0.0
 22
0.0
 32
0.0
 14
0.0
 24
0.0
 34
0.0
 15
0.0
 25
0.0
 35
0.0
146
0.0
 13
0.0
 23
0.0
 33
0.0
 16
1.0
 26
0.0
 36
0.0
 17
0.0
 27
1.0
 37
0.0
 76
     0
330
18
331
DB6D
1001
ACAD_PSEXT
1000
DWG To PDF.pc3
1000
DWG To PDF
1000
\U+6A94案
1000

1070
     0
  0
LAYOUT
  5
5CF6
102
{ACAD_REACTORS
330
5CF3
102
}
330
5CF3
100
AcDbPlotSettings
  1

  2
EPSON STYLUS COLOR 440
  4

  6

 40
0.0
 41
0.0
 42
0.0
 43
0.0
 44
0.0
 45
0.0
 46
0.0
 47
0.0
 48
0.0
 49
0.0
140
0.0
141
0.0
142
1.0
143
1.0
 70
   688
 72
     0
 73
     0
 74
     5
  7
LIN.ctb
 75
    16
147
1.0
 76
     0
 77
     2
 78
   300
148
0.0
149
0.0
100
AcDbLayout
  1
ｰtｸm1
 70
     1
 71
     1
 10
0.0
 20
0.0
 11
420.0
 21
297.0
 12
0.0
 22
0.0
 32
0.0
 14
1.000000000000000E+20
 24
1.000000000000000E+20
 34
1.000000000000000E+20
 15
-1.000000000000000E+20
 25
-1.000000000000000E+20
 35
-1.000000000000000E+20
146
0.0
 13
0.0
 23
0.0
 33
0.0
 16
1.0
 26
0.0
 36
0.0
 17
0.0
 27
1.0
 37
0.0
 76
     0
330
15
1001
ACADSTRINGINFO
1000
MIFCodePage
1070
     1
  0
MATERIAL
  5
DB77
102
{ACAD_XDICTIONARY
360
DB78
102
}
102
{ACAD_REACTORS
330
7872
102
}
330
7872
100
AcDbMaterial
  1
ByBlock
 72
     0
 43
0.0208333333333333
 43
0.0
 43
0.0
 43
0.0
 43
0.0
 43
0.0208333333333333
 43
0.0
 43
0.0
 43
0.0
 43
0.0
 43
1.0
 43
0.0
 43
0.0
 43
0.0
 43
0.0
 43
1.0
 77
     0
 47
0.0208333333333333
 47
0.0
 47
0.0
 47
0.0
 47
0.0
 47
0.0208333333333333
 47
0.0
 47
0.0
 47
0.0
 47
0.0
 47
1.0
 47
0.0
 47
0.0
 47
0.0
 47
0.0
 47
1.0
171
     0
 49
0.0208333333333333
 49
0.0
 49
0.0
 49
0.0
 49
0.0
 49
0.0208333333333333
 49
0.0
 49
0.0
 49
0.0
 49
0.0
 49
1.0
 49
0.0
 49
0.0
 49
0.0
 49
0.0
 49
1.0
175
     0
142
0.0208333333333333
142
0.0
142
0.0
142
0.0
142
0.0
142
0.0208333333333333
142
0.0
142
0.0
142
0.0
142
0.0
142
1.0
142
0.0
142
0.0
142
0.0
142
0.0
142
1.0
179
     0
144
0.0208333333333333
144
0.0
144
0.0
144
0.0
144
0.0
144
0.0208333333333333
144
0.0
144
0.0
144
0.0
144
0.0
144
1.0
144
0.0
144
0.0
144
0.0
144
0.0
144
1.0
147
0.0208333333333333
147
0.0
147
0.0
147
0.0
147
0.0
147
0.0208333333333333
147
0.0
147
0.0
147
0.0
147
0.0
147
1.0
147
0.0
147
0.0
147
0.0
147
0.0
147
1.0
  0
MATERIAL
  5
DB6F
102
{ACAD_XDICTIONARY
360
DB70
102
}
102
{ACAD_REACTORS
330
7872
102
}
330
7872
100
AcDbMaterial
  1
ByLayer
 72
     0
 43
0.0208333333333333
 43
0.0
 43
0.0
 43
0.0
 43
0.0
 43
0.0208333333333333
 43
0.0
 43
0.0
 43
0.0
 43
0.0
 43
1.0
 43
0.0
 43
0.0
 43
0.0
 43
0.0
 43
1.0
 77
     0
 47
0.0208333333333333
 47
0.0
 47
0.0
 47
0.0
 47
0.0
 47
0.0208333333333333
 47
0.0
 47
0.0
 47
0.0
 47
0.0
 47
1.0
 47
0.0
 47
0.0
 47
0.0
 47
0.0
 47
1.0
171
     0
 49
0.0208333333333333
 49
0.0
 49
0.0
 49
0.0
 49
0.0
 49
0.0208333333333333
 49
0.0
 49
0.0
 49
0.0
 49
0.0
 49
1.0
 49
0.0
 49
0.0
 49
0.0
 49
0.0
 49
1.0
175
     0
142
0.0208333333333333
142
0.0
142
0.0
142
0.0
142
0.0
142
0.0208333333333333
142
0.0
142
0.0
142
0.0
142
0.0
142
1.0
142
0.0
142
0.0
142
0.0
142
0.0
142
1.0
179
     0
144
0.0208333333333333
144
0.0
144
0.0
144
0.0
144
0.0
144
0.0208333333333333
144
0.0
144
0.0
144
0.0
144
0.0
144
1.0
144
0.0
144
0.0
144
0.0
144
0.0
144
1.0
147
0.0208333333333333
147
0.0
147
0.0
147
0.0
147
0.0
147
0.0208333333333333
147
0.0
147
0.0
147
0.0
147
0.0
147
1.0
147
0.0
147
0.0
147
0.0
147
0.0
147
1.0
  0
MATERIAL
  5
DB7F
102
{ACAD_XDICTIONARY
360
DB80
102
}
102
{ACAD_REACTORS
330
7872
102
}
330
7872
100
AcDbMaterial
  1
Global
 72
     0
 43
0.0208333333333333
 43
0.0
 43
0.0
 43
0.0
 43
0.0
 43
0.0208333333333333
 43
0.0
 43
0.0
 43
0.0
 43
0.0
 43
1.0
 43
0.0
 43
0.0
 43
0.0
 43
0.0
 43
1.0
 77
     0
 47
0.0208333333333333
 47
0.0
 47
0.0
 47
0.0
 47
0.0
 47
0.0208333333333333
 47
0.0
 47
0.0
 47
0.0
 47
0.0
 47
1.0
 47
0.0
 47
0.0
 47
0.0
 47
0.0
 47
1.0
171
     0
 49
0.0208333333333333
 49
0.0
 49
0.0
 49
0.0
 49
0.0
 49
0.0208333333333333
 49
0.0
 49
0.0
 49
0.0
 49
0.0
 49
1.0
 49
0.0
 49
0.0
 49
0.0
 49
0.0
 49
1.0
175
     0
142
0.0208333333333333
142
0.0
142
0.0
142
0.0
142
0.0
142
0.0208333333333333
142
0.0
142
0.0
142
0.0
142
0.0
142
1.0
142
0.0
142
0.0
142
0.0
142
0.0
142
1.0
179
     0
144
0.0208333333333333
144
0.0
144
0.0
144
0.0
144
0.0
144
0.0208333333333333
144
0.0
144
0.0
144
0.0
144
0.0
144
1.0
144
0.0
144
0.0
144
0.0
144
0.0
144
1.0
147
0.0208333333333333
147
0.0
147
0.0
147
0.0
147
0.0
147
0.0208333333333333
147
0.0
147
0.0
147
0.0
147
0.0
147
1.0
147
0.0
147
0.0
147
0.0
147
0.0
147
1.0
  0
MLEADERSTYLE
  5
DBB3
102
{ACAD_XDICTIONARY
360
ED07
102
}
102
{ACAD_REACTORS
330
DBB2
102
}
330
DBB2
100
AcDbMLeaderStyle
170
     2
171
     1
172
     0
 90
        2
 40
0.0
 41
0.0
173
     1
 91
-1056964608
340
12
 92
       -2
290
     1
 42
2.0
291
     1
 43
0.36
  3
Standard
 44
4.0
300

342
F
174
     1
178
     6
175
     1
176
     0
 93
-1056964608
 45
4.0
292
     0
297
     0
 46
4.0
 94
-1056964608
 47
1.0
 49
1.0
140
1.0
293
     1
141
0.0
294
     1
177
     0
142
1.0
295
     0
296
     0
143
0.125
1001
ACAD_MLEADERVER
1070
     2
  0
MLINESTYLE
  5
1C
102
{ACAD_REACTORS
330
1B
102
}
330
1B
100
AcDbMlineStyle
  2
STANDARD
 70
     0
  3

 62
   256
 51
90.0
 52
90.0
 71
     2
 49
0.5
 62
   256
  6
BYLAYER
 49
-0.5
 62
   256
  6
BYLAYER
  0
ACDBPLACEHOLDER
  5
5CF2
102
{ACAD_REACTORS
330
5CF1
102
}
330
5CF1
  0
ACDBPLACEHOLDER
  5
E346
102
{ACAD_REACTORS
330
5CF1
102
}
330
5CF1
  0
SCALE
  5
DBA1
102
{ACAD_REACTORS
330
DBA0
102
}
330
DBA0
100
AcDbScale
 70
     0
300
1:1
140
1.0
141
1.0
290
     1
  0
SCALE
  5
DBA2
102
{ACAD_REACTORS
330
DBA0
102
}
330
DBA0
100
AcDbScale
 70
     0
300
1:2
140
1.0
141
2.0
290
     0
  0
SCALE
  5
DBA3
102
{ACAD_REACTORS
330
DBA0
102
}
330
DBA0
100
AcDbScale
 70
     0
300
1:4
140
1.0
141
4.0
290
     0
  0
SCALE
  5
DBA4
102
{ACAD_REACTORS
330
DBA0
102
}
330
DBA0
100
AcDbScale
 70
     0
300
1:5
140
1.0
141
5.0
290
     0
  0
SCALE
  5
DBA5
102
{ACAD_REACTORS
330
DBA0
102
}
330
DBA0
100
AcDbScale
 70
     0
300
1:8
140
1.0
141
8.0
290
     0
  0
SCALE
  5
DBA6
102
{ACAD_REACTORS
330
DBA0
102
}
330
DBA0
100
AcDbScale
 70
     0
300
1:10
140
1.0
141
10.0
290
     0
  0
SCALE
  5
DBA7
102
{ACAD_REACTORS
330
DBA0
102
}
330
DBA0
100
AcDbScale
 70
     0
300
1:16
140
1.0
141
16.0
290
     0
  0
SCALE
  5
DBA8
102
{ACAD_REACTORS
330
DBA0
102
}
330
DBA0
100
AcDbScale
 70
     0
300
1:20
140
1.0
141
20.0
290
     0
  0
SCALE
  5
DBA9
102
{ACAD_REACTORS
330
DBA0
102
}
330
DBA0
100
AcDbScale
 70
     0
300
1:30
140
1.0
141
30.0
290
     0
  0
SCALE
  5
DBAA
102
{ACAD_REACTORS
330
DBA0
102
}
330
DBA0
100
AcDbScale
 70
     0
300
1:40
140
1.0
141
40.0
290
     0
  0
SCALE
  5
DBAB
102
{ACAD_REACTORS
330
DBA0
102
}
330
DBA0
100
AcDbScale
 70
     0
300
1:50
140
1.0
141
50.0
290
     0
  0
SCALE
  5
DBAC
102
{ACAD_REACTORS
330
DBA0
102
}
330
DBA0
100
AcDbScale
 70
     0
300
1:100
140
1.0
141
100.0
290
     0
  0
SCALE
  5
DBAD
102
{ACAD_REACTORS
330
DBA0
102
}
330
DBA0
100
AcDbScale
 70
     0
300
2:1
140
2.0
141
1.0
290
     0
  0
SCALE
  5
DBAE
102
{ACAD_REACTORS
330
DBA0
102
}
330
DBA0
100
AcDbScale
 70
     0
300
4:1
140
4.0
141
1.0
290
     0
  0
SCALE
  5
DBAF
102
{ACAD_REACTORS
330
DBA0
102
}
330
DBA0
100
AcDbScale
 70
     0
300
8:1
140
8.0
141
1.0
290
     0
  0
SCALE
  5
DBB0
102
{ACAD_REACTORS
330
DBA0
102
}
330
DBA0
100
AcDbScale
 70
     0
300
10:1
140
10.0
141
1.0
290
     0
  0
SCALE
  5
DBB1
102
{ACAD_REACTORS
330
DBA0
102
}
330
DBA0
100
AcDbScale
 70
     0
300
100:1
140
100.0
141
1.0
290
     0
  0
ACDBSECTIONVIEWSTYLE
  5
DBB5
102
{ACAD_XDICTIONARY
360
ED09
102
}
102
{ACAD_REACTORS
330
DBB4
102
}
330
DBB4
100
AcDbModelDocViewStyle
 70
     0
  3
Metric50
290
     0
100
AcDbSectionViewStyle
 70
     0
 71
     0
 90
      102
 71
     1
340
F
 62
   256
 40
5.0
340
0
340
0
 62
   256
 40
5.0
300
I, O, Q, S, X, Z
 40
10.0
 90
        0
 40
2.5
 90
        0
 71
     2
340
14
 90
       25
 62
   256
340
14
 90
       50
 62
   256
 40
5.0
 40
2.5
 40
5.0
 71
     3
340
F
 62
   256
 40
5.0
 90
        0
 40
15.0
 90
        1
300
%<\AcVar ViewSectionStartId>%-%<\AcVar ViewSectionEndId>% (%<\AcVar ViewScale \f "%sn">%)
 71
     4
 62
   256
 62
   257
300
ANSI31
 40
1.0
 90
        0
290
     0
290
     0
 90
        6
 40
0.0
 40
1.570796326794896
 40
0.2617993877991494
 40
1.308996938995747
 40
-0.2617993877991494
 40
1.832595714594046
1001
ACAD
1000
AcRTDxfName
1000
ACDBSECTIONVIEWSTYLE
1000
AcRTDxfName
1000
ACDBSECTIONVIEWSTYLE
  0
TABLESTYLE
  5
7875
102
{ACAD_XDICTIONARY
360
DE95
102
}
102
{ACAD_REACTORS
330
7874
102
}
330
7874
100
AcDbTableStyle
  3
Standard
 70
     0
 71
     0
 40
1.5
 41
1.5
280
     0
281
     0
  7
STANDARD
140
4.5
170
     2
 62
     0
 63
     7
283
     0
274
    -2
284
     1
 64
     0
275
    -2
285
     1
 65
     0
276
    -2
286
     1
 66
     0
277
    -2
287
     1
 67
     0
278
    -2
288
     1
 68
     0
279
    -2
289
     1
 69
     0
  7
STANDARD
140
6.0
170
     5
 62
     0
 63
     7
283
     0
274
    -2
284
     1
 64
     0
275
    -2
285
     1
 65
     0
276
    -2
286
     1
 66
     0
277
    -2
287
     1
 67
     0
278
    -2
288
     1
 68
     0
279
    -2
289
     1
 69
     0
  7
STANDARD
140
4.5
170
     5
 62
     0
 63
     7
283
     0
274
    -2
284
     1
 64
     0
275
    -2
285
     1
 65
     0
276
    -2
286
     1
 66
     0
277
    -2
287
     1
 67
     0
278
    -2
288
     1
 68
     0
279
    -2
289
     1
 69
     0
  0
VISUALSTYLE
  5
DB8D
102
{ACAD_XDICTIONARY
360
ECE1
102
}
102
{ACAD_REACTORS
330
DB87
102
}
330
DB87
100
AcDbVisualStyle
  2
2dWireframe
 70
     4
 71
     0
 72
     2
 73
     0
 90
        0
 40
-0.6
 41
-30.0
 62
     5
 63
     7
 74
     1
 91
        4
 64
     7
 65
   257
 75
     1
175
     1
 42
1.0
 92
        0
 66
   257
 43
1.0
 76
     1
 77
     6
 78
     2
 67
     7
 79
     5
170
     0
171
     0
290
     0
174
     0
 93
        1
 44
0.0
173
     0
291
     0
 45
0.0
1001
ACAD
1000
AcDbSavedByObjectVersion
1070
     0
  0
VISUALSTYLE
  5
DB8C
102
{ACAD_XDICTIONARY
360
ECDF
102
}
102
{ACAD_REACTORS
330
DB87
102
}
330
DB87
100
AcDbVisualStyle
  2
Basic
 70
     7
 71
     1
 72
     0
 73
     1
 90
        0
 40
-0.6
 41
-30.0
 62
     5
 63
     7
 74
     0
 91
        4
 64
     7
 65
   257
 75
     1
175
     1
 42
1.0
 92
        8
 66
     7
 43
1.0
 76
     1
 77
     6
 78
     2
 67
     7
 79
     5
170
     0
171
     0
290
     0
174
     0
 93
        1
 44
0.0
173
     0
291
     1
 45
0.0
1001
ACAD
1000
AcDbSavedByObjectVersion
1070
     0
  0
VISUALSTYLE
  5
DB93
102
{ACAD_XDICTIONARY
360
ECED
102
}
102
{ACAD_REACTORS
330
DB87
102
}
330
DB87
100
AcDbVisualStyle
  2
Brighten
 70
    12
 71
     2
 72
     2
 73
     0
 90
        0
 40
-0.6
 41
-30.0
 62
     5
 63
     7
 74
     1
 91
        4
 64
     7
 65
   257
 75
     1
175
     1
 42
1.0
 92
        8
 66
     7
 43
1.0
 76
     1
 77
     6
 78
     2
 67
     7
 79
     5
170
     0
171
     0
290
     0
174
     0
 93
        1
 44
50.0
173
     0
291
     1
 45
0.0
1001
ACAD
1000
AcDbSavedByObjectVersion
1070
     0
  0
VISUALSTYLE
  5
DB97
102
{ACAD_XDICTIONARY
360
ECF5
102
}
102
{ACAD_REACTORS
330
DB87
102
}
330
DB87
100
AcDbVisualStyle
  2
ColorChange
 70
    16
 71
     2
 72
     2
 73
     3
 90
        0
 40
-0.6
 41
-30.0
 62
     5
 63
     8
 74
     1
 91
        4
 64
     7
 65
   257
 75
     1
175
     1
 42
1.0
 92
        8
 66
     8
 43
1.0
 76
     1
 77
     6
 78
     2
 67
     7
 79
     5
170
     0
171
     0
290
     0
174
     0
 93
        1
 44
0.0
173
     0
291
     1
 45
0.0
1001
ACAD
1000
AcDbSavedByObjectVersion
1070
     0
  0
VISUALSTYLE
  5
DB90
102
{ACAD_XDICTIONARY
360
ECE7
102
}
102
{ACAD_REACTORS
330
DB87
102
}
330
DB87
100
AcDbVisualStyle
  2
Conceptual
 70
     9
 71
     3
 72
     2
 73
     0
 90
        0
 40
-0.6
 41
-30.0
 62
     5
 63
     7
 74
     2
 91
        2
 64
     7
 65
   257
 75
     1
175
     1
 42
179.0
 92
        8
 66
     7
 43
1.0
 76
     1
 77
     6
 78
     2
 67
     7
 79
     3
170
     0
171
     0
290
     0
174
     0
 93
        1
 44
0.0
173
     0
291
     0
 45
0.0
1001
ACAD
1000
AcDbSavedByObjectVersion
1070
     0
  0
VISUALSTYLE
  5
DB92
102
{ACAD_XDICTIONARY
360
ECEB
102
}
102
{ACAD_REACTORS
330
DB87
102
}
330
DB87
100
AcDbVisualStyle
  2
Dim
 70
    11
 71
     2
 72
     2
 73
     0
 90
        0
 40
-0.6
 41
-30.0
 62
     5
 63
     7
 74
     1
 91
        4
 64
     7
 65
   257
 75
     1
175
     1
 42
1.0
 92
        8
 66
     7
 43
1.0
 76
     1
 77
     6
 78
     2
 67
     7
 79
     5
170
     0
171
     0
290
     0
174
     0
 93
        1
 44
-50.0
173
     0
291
     1
 45
0.0
1001
ACAD
1000
AcDbSavedByObjectVersion
1070
     0
  0
VISUALSTYLE
  5
DB9F
102
{ACAD_XDICTIONARY
360
ED05
102
}
102
{ACAD_REACTORS
330
DB87
102
}
330
DB87
100
AcDbVisualStyle
  2
EdgeColorOff
 70
    22
 71
     2
 72
     2
 73
     0
 90
        0
 40
-0.6
 41
-30.0
 62
     5
 63
     7
 74
     1
 91
        4
 64
     7
 65
   257
 75
     1
175
     1
 42
1.0
 92
        8
 66
     7
 43
1.0
 76
     1
 77
     6
 78
     2
 67
     7
 79
     5
170
     0
171
     0
290
     0
174
     0
 93
        1
 44
0.0
173
     0
291
     1
 45
0.0
1001
ACAD
1000
AcDbSavedByObjectVersion
1070
     0
  0
VISUALSTYLE
  5
DB96
102
{ACAD_XDICTIONARY
360
ECF3
102
}
102
{ACAD_REACTORS
330
DB87
102
}
330
DB87
100
AcDbVisualStyle
  2
Facepattern
 70
    15
 71
     2
 72
     2
 73
     0
 90
        0
 40
-0.6
 41
-30.0
 62
     5
 63
     7
 74
     1
 91
        4
 64
     7
 65
   257
 75
     1
175
     1
 42
1.0
 92
        8
 66
     7
 43
1.0
 76
     1
 77
     6
 78
     2
 67
     7
 79
     5
170
     0
171
     0
290
     0
174
     0
 93
        1
 44
0.0
173
     0
291
     1
 45
0.0
1001
ACAD
1000
AcDbSavedByObjectVersion
1070
     0
  0
VISUALSTYLE
  5
DB88
102
{ACAD_XDICTIONARY
360
ECD7
102
}
102
{ACAD_REACTORS
330
DB87
102
}
330
DB87
100
AcDbVisualStyle
  2
Flat
 70
     0
 71
     2
 72
     1
 73
     1
 90
        2
 40
-0.6
 41
30.0
 62
     5
 63
     7
 74
     0
 91
        0
 64
     7
 65
   257
 75
     1
175
     1
 42
1.0
 92
        8
 66
     7
 43
1.0
 76
     1
 77
     6
 78
     2
 67
     7
 79
     5
170
     0
171
     0
290
     0
174
     0
 93
       13
 44
0.0
173
     0
291
     1
 45
0.0
1001
ACAD
1000
AcDbSavedByObjectVersion
1070
     0
  0
VISUALSTYLE
  5
DB89
102
{ACAD_XDICTIONARY
360
ECD9
102
}
102
{ACAD_REACTORS
330
DB87
102
}
330
DB87
100
AcDbVisualStyle
  2
FlatWithEdges
 70
     1
 71
     2
 72
     1
 73
     1
 90
        2
 40
-0.6
 41
30.0
 62
     5
 63
     7
 74
     1
 91
        0
 64
     7
 65
   257
 75
     1
175
     1
 42
1.0
 92
        0
 66
   257
 43
1.0
 76
     1
 77
     6
 78
     2
 67
     7
 79
     5
170
     0
171
     0
290
     0
174
     0
 93
       13
 44
0.0
173
     0
291
     1
 45
0.0
1001
ACAD
1000
AcDbSavedByObjectVersion
1070
     0
  0
VISUALSTYLE
  5
DB8A
102
{ACAD_XDICTIONARY
360
ECDB
102
}
102
{ACAD_REACTORS
330
DB87
102
}
330
DB87
100
AcDbVisualStyle
  2
Gouraud
 70
     2
 71
     2
 72
     2
 73
     1
 90
        2
 40
-0.6
 41
30.0
 62
     5
 63
     7
 74
     0
 91
        0
 64
     7
 65
   257
 75
     1
175
     1
 42
1.0
 92
        0
 66
     7
 43
1.0
 76
     1
 77
     6
 78
     2
 67
     7
 79
     5
170
     0
171
     0
290
     0
174
     0
 93
       13
 44
0.0
173
     0
291
     1
 45
0.0
1001
ACAD
1000
AcDbSavedByObjectVersion
1070
     0
  0
VISUALSTYLE
  5
DB8B
102
{ACAD_XDICTIONARY
360
ECDD
102
}
102
{ACAD_REACTORS
330
DB87
102
}
330
DB87
100
AcDbVisualStyle
  2
GouraudWithEdges
 70
     3
 71
     2
 72
     2
 73
     1
 90
        2
 40
-0.6
 41
30.0
 62
     5
 63
     7
 74
     1
 91
        0
 64
     7
 65
   257
 75
     1
175
     1
 42
1.0
 92
        0
 66
   257
 43
1.0
 76
     1
 77
     6
 78
     2
 67
     7
 79
     5
170
     0
171
     0
290
     0
174
     0
 93
       13
 44
0.0
173
     0
291
     1
 45
0.0
1001
ACAD
1000
AcDbSavedByObjectVersion
1070
     0
  0
VISUALSTYLE
  5
DB8F
102
{ACAD_XDICTIONARY
360
ECE5
102
}
102
{ACAD_REACTORS
330
DB87
102
}
330
DB87
100
AcDbVisualStyle
  2
Hidden
 70
     6
 71
     1
 72
     2
 73
     2
 90
        0
 40
-0.6
 41
-30.0
 62
     5
 63
     7
 74
     2
 91
        2
 64
     7
 65
   257
 75
     2
175
     1
 42
40.0
 92
        0
 66
   257
 43
1.0
 76
     1
 77
     6
 78
     2
 67
     7
 79
     3
170
     0
171
     0
290
     0
174
     0
 93
        1
 44
0.0
173
     0
291
     0
 45
0.0
1001
ACAD
1000
AcDbSavedByObjectVersion
1070
     0
  0
VISUALSTYLE
  5
DB9D
102
{ACAD_XDICTIONARY
360
ED01
102
}
102
{ACAD_REACTORS
330
DB87
102
}
330
DB87
100
AcDbVisualStyle
  2
JitterOff
 70
    20
 71
     2
 72
     2
 73
     0
 90
        0
 40
-0.6
 41
-30.0
 62
     5
 63
     7
 74
     1
 91
        4
 64
     7
 65
   257
 75
     1
175
     1
 42
1.0
 92
       10
 66
     7
 43
1.0
 76
     1
 77
     6
 78
     2
 67
     7
 79
     5
170
     0
171
     0
290
     0
174
     0
 93
        1
 44
0.0
173
     0
291
     1
 45
0.0
1001
ACAD
1000
AcDbSavedByObjectVersion
1070
     0
  0
VISUALSTYLE
  5
DB95
102
{ACAD_XDICTIONARY
360
ECF1
102
}
102
{ACAD_REACTORS
330
DB87
102
}
330
DB87
100
AcDbVisualStyle
  2
Linepattern
 70
    14
 71
     2
 72
     2
 73
     0
 90
        0
 40
-0.6
 41
-30.0
 62
     5
 63
     7
 74
     1
 91
        4
 64
     7
 65
   257
 75
     7
175
     7
 42
1.0
 92
        8
 66
     7
 43
1.0
 76
     1
 77
     6
 78
     2
 67
     7
 79
     5
170
     0
171
     0
290
     0
174
     0
 93
        1
 44
0.0
173
     0
291
     1
 45
0.0
1001
ACAD
1000
AcDbSavedByObjectVersion
1070
     0
  0
VISUALSTYLE
  5
DB9E
102
{ACAD_XDICTIONARY
360
ED03
102
}
102
{ACAD_REACTORS
330
DB87
102
}
330
DB87
100
AcDbVisualStyle
  2
OverhangOff
 70
    21
 71
     2
 72
     2
 73
     0
 90
        0
 40
-0.6
 41
-30.0
 62
     5
 63
     7
 74
     1
 91
        4
 64
     7
 65
   257
 75
     1
175
     1
 42
1.0
 92
        9
 66
     7
 43
1.0
 76
     1
 77
     6
 78
     2
 67
     7
 79
     5
170
     0
171
     0
290
     0
174
     0
 93
        1
 44
0.0
173
     0
291
     1
 45
0.0
1001
ACAD
1000
AcDbSavedByObjectVersion
1070
     0
  0
VISUALSTYLE
  5
DB91
102
{ACAD_XDICTIONARY
360
ECE9
102
}
102
{ACAD_REACTORS
330
DB87
102
}
330
DB87
100
AcDbVisualStyle
  2
Realistic
 70
     8
 71
     2
 72
     2
 73
     0
 90
        2
 40
-0.6
 41
30.0
 62
     5
 63
     7
 74
     0
 91
        0
 64
     7
 65
   257
 75
     1
175
     1
 42
1.0
 92
        8
 66
   257
 43
1.0
 76
     1
 77
     6
 78
     2
 67
     7
 79
     3
170
     0
171
     0
290
     0
174
     0
 93
       13
 44
0.0
173
     0
291
     0
 45
0.0
1001
ACAD
1000
AcDbSavedByObjectVersion
1070
     0
  0
VISUALSTYLE
  5
DB9C
102
{ACAD_XDICTIONARY
360
ECFF
102
}
102
{ACAD_REACTORS
330
DB87
102
}
330
DB87
100
AcDbVisualStyle
  2
Shaded
 70
    27
 71
     2
 72
     2
 73
     1
 90
        2
 40
-0.6
 41
30.0
 62
     5
 63
     7
 74
     0
 91
        4
 64
     7
 65
   257
 75
     1
175
     1
 42
1.0
 92
        8
 66
   257
 43
1.0
 76
     1
 77
     6
 78
     2
 67
     8
 79
     3
170
     0
171
     0
290
     0
174
     0
 93
        5
 44
0.0
173
     0
291
     0
 45
0.0
1001
ACAD
1000
AcDbSavedByObjectVersion
1070
     0
  0
VISUALSTYLE
  5
DB9B
102
{ACAD_XDICTIONARY
360
ECFD
102
}
102
{ACAD_REACTORS
330
DB87
102
}
330
DB87
100
AcDbVisualStyle
  2
Shaded with edges
 70
    26
 71
     2
 72
     2
 73
     1
 90
        2
 40
-0.6
 41
30.0
 62
     5
 63
     7
 74
     1
 91
        2
 64
     7
 65
   257
 75
     2
175
     1
 42
1.0
 92
        8
 66
   257
 43
1.0
 76
     1
 77
     6
 78
     2
 67
     7
 79
     3
170
     0
171
     0
290
     0
174
     0
 93
        5
 44
0.0
173
     0
291
     0
 45
0.0
1001
ACAD
1000
AcDbSavedByObjectVersion
1070
     0
  0
VISUALSTYLE
  5
DB98
102
{ACAD_XDICTIONARY
360
ECF7
102
}
102
{ACAD_REACTORS
330
DB87
102
}
330
DB87
100
AcDbVisualStyle
  2
Shades of Gray
 70
    23
 71
     2
 72
     2
 73
     3
 90
        0
 40
-0.6
 41
-30.0
 62
     5
 63
     7
 74
     2
 91
        2
 64
     7
 65
     7
 75
     1
175
     1
 42
40.0
 92
        8
 66
     7
 43
1.0
 76
     1
 77
     6
 78
     2
 67
     7
 79
     3
170
     0
171
     0
290
     0
174
     0
 93
        1
 44
0.0
173
     0
291
     0
 45
0.0
1001
ACAD
1000
AcDbSavedByObjectVersion
1070
     0
  0
VISUALSTYLE
  5
DB99
102
{ACAD_XDICTIONARY
360
ECF9
102
}
102
{ACAD_REACTORS
330
DB87
102
}
330
DB87
100
AcDbVisualStyle
  2
Sketchy
 70
    24
 71
     1
 72
     2
 73
     2
 90
        0
 40
-0.6
 41
-30.0
 62
     5
 63
     7
 74
     2
 91
        2
 64
     7
 65
     7
 75
     1
175
     1
 42
40.0
 92
       11
 66
     7
 43
1.0
 76
     1
 77
     6
 78
     2
 67
     7
 79
     6
170
     0
171
     0
290
     0
174
     0
 93
        1
 44
0.0
173
     0
291
     0
 45
0.0
1001
ACAD
1000
AcDbSavedByObjectVersion
1070
     0
  0
VISUALSTYLE
  5
DB94
102
{ACAD_XDICTIONARY
360
ECEF
102
}
102
{ACAD_REACTORS
330
DB87
102
}
330
DB87
100
AcDbVisualStyle
  2
Thicken
 70
    13
 71
     2
 72
     2
 73
     0
 90
        0
 40
-0.6
 41
-30.0
 62
     5
 63
     7
 74
     1
 91
        4
 64
     7
 65
   257
 75
     1
175
     1
 42
1.0
 92
       12
 66
     7
 43
1.0
 76
     1
 77
     6
 78
     2
 67
     7
 79
     5
170
     0
171
     0
290
     0
174
     0
 93
        1
 44
0.0
173
     0
291
     1
 45
0.0
1001
ACAD
1000
AcDbSavedByObjectVersion
1070
     0
  0
VISUALSTYLE
  5
DB8E
102
{ACAD_XDICTIONARY
360
ECE3
102
}
102
{ACAD_REACTORS
330
DB87
102
}
330
DB87
100
AcDbVisualStyle
  2
Wireframe
 70
     5
 71
     0
 72
     2
 73
     0
 90
        0
 40
-0.6
 41
-30.0
 62
     5
 63
     7
 74
     1
 91
        4
 64
     7
 65
   257
 75
     1
175
     1
 42
1.0
 92
        0
 66
   257
 43
1.0
 76
     1
 77
     6
 78
     2
 67
     7
 79
     3
170
     0
171
     0
290
     0
174
     0
 93
        1
 44
0.0
173
     0
291
     0
 45
0.0
1001
ACAD
1000
AcDbSavedByObjectVersion
1070
     0
  0
VISUALSTYLE
  5
DB9A
102
{ACAD_XDICTIONARY
360
ECFB
102
}
102
{ACAD_REACTORS
330
DB87
102
}
330
DB87
100
AcDbVisualStyle
  2
X-Ray
 70
    25
 71
     2
 72
     2
 73
     1
 90
        1
 40
0.5
 41
-30.0
 62
     5
 63
     7
 74
     1
 91
        0
 64
     7
 65
   257
 75
     1
175
     1
 42
1.0
 92
        8
 66
     7
 43
1.0
 76
     1
 77
     6
 78
     2
 67
     7
 79
     3
170
     0
171
     0
290
     0
174
     0
 93
       13
 44
0.0
173
     0
291
     0
 45
0.0
1001
ACAD
1000
AcDbSavedByObjectVersion
1070
     0
  0
DICTIONARYVAR
  5
DF60
102
{ACAD_REACTORS
330
45D
102
}
330
45D
100
DictionaryVariables
280
     0
  1
1:1
  0
DICTIONARYVAR
  5
DF5D
102
{ACAD_REACTORS
330
45D
102
}
330
45D
100
DictionaryVariables
280
     0
  1
STANDARD
  0
DICTIONARYVAR
  5
7880
102
{ACAD_REACTORS
330
45D
102
}
330
45D
100
DictionaryVariables
280
     0
  1
STANDARD
  0
DICTIONARYVAR
  5
DF5E
102
{ACAD_REACTORS
330
45D
102
}
330
45D
100
DictionaryVariables
280
     0
  1
Metric50
  0
DICTIONARYVAR
  5
DF5F
102
{ACAD_REACTORS
330
45D
102
}
330
45D
100
DictionaryVariables
280
     0
  1
Metric50
  0
DICTIONARYVAR
  5
DF63
102
{ACAD_REACTORS
330
45D
102
}
330
45D
100
DictionaryVariables
280
     0
  1
1
  0
DICTIONARYVAR
  5
DF61
102
{ACAD_REACTORS
330
45D
102
}
330
45D
100
DictionaryVariables
280
     0
  1
0
  0
DICTIONARYVAR
  5
45E
102
{ACAD_REACTORS
330
45D
102
}
330
45D
100
DictionaryVariables
280
     0
  1
127
  0
DICTIONARYVAR
  5
ECBF
102
{ACAD_REACTORS
330
45D
102
}
330
45D
100
DictionaryVariables
280
     0
  1
2
  0
DICTIONARY
  5
E0F0
102
{ACAD_REACTORS
330
E0E5
102
}
330
E0E5
100
AcDbDictionary
281
     1
  0
XRECORD
  5
ECCB
102
{ACAD_REACTORS
330
ECCA
102
}
330
ECCA
100
AcDbXrecord
280
     1
1070
     0
1070
     1
1070
     1
  0
XRECORD
  5
ECCD
102
{ACAD_REACTORS
330
ECCC
102
}
330
ECCC
100
AcDbXrecord
280
     1
1070
     0
1070
     1
1070
     1
  0
XRECORD
  5
ECCF
102
{ACAD_REACTORS
330
ECCE
102
}
330
ECCE
100
AcDbXrecord
280
     1
1070
     0
1070
     1
1070
     1
  0
XRECORD
  5
ECD1
102
{ACAD_REACTORS
330
ECD0
102
}
330
ECD0
100
AcDbXrecord
280
     1
1070
     0
1070
     1
1070
     1
  0
XRECORD
  5
ECD3
102
{ACAD_REACTORS
330
ECD2
102
}
330
ECD2
100
AcDbXrecord
280
     1
1070
     0
1070
     1
1070
     1
  0
DICTIONARY
  5
ED0B
330
DBB7
100
AcDbDictionary
280
     1
281
     1
  3
ACAD_XREC_ROUNDTRIP
360
ED0C
  0
DICTIONARY
  5
DB78
330
DB77
100
AcDbDictionary
280
     1
281
     1
  3
ACAD_XREC_ROUNDTRIP
360
ECD5
  3
BUMPTILE
360
DB7A
  3
DIFFUSETILE
360
DB79
  3
OPACITYTILE
360
DB7D
  3
REFLECTIONTILE
360
DB7C
  3
REFRACTIONTILE
360
DB7E
  3
SPECULARTILE
360
DB7B
  0
DICTIONARY
  5
DB70
330
DB6F
100
AcDbDictionary
280
     1
281
     1
  3
ACAD_XREC_ROUNDTRIP
360
ECD4
  3
BUMPTILE
360
DB72
  3
DIFFUSETILE
360
DB71
  3
OPACITYTILE
360
DB75
  3
REFLECTIONTILE
360
DB74
  3
REFRACTIONTILE
360
DB76
  3
SPECULARTILE
360
DB73
  0
DICTIONARY
  5
DB80
330
DB7F
100
AcDbDictionary
280
     1
281
     1
  3
ACAD_XREC_ROUNDTRIP
360
ECD6
  3
BUMPTILE
360
DB82
  3
DIFFUSETILE
360
DB81
  3
OPACITYTILE
360
DB85
  3
REFLECTIONTILE
360
DB84
  3
REFRACTIONTILE
360
DB86
  3
SPECULARTILE
360
DB83
  0
DICTIONARY
  5
ED07
330
DBB3
100
AcDbDictionary
280
     1
281
     1
  3
ACAD_XREC_ROUNDTRIP
360
ED08
  0
DICTIONARY
  5
ED09
330
DBB5
100
AcDbDictionary
280
     1
281
     1
  3
ACAD_XREC_ROUNDTRIP
360
ED0A
  0
DICTIONARY
  5
DE95
330
7875
100
AcDbDictionary
280
     1
281
     1
  3
ACAD_ROUNDTRIP_2008_TABLESTYLE_CELLSTYLEMAP
360
ECC0
  3
ACAD_XREC_ROUNDTRIP
360
ECC9
  0
DICTIONARY
  5
ECE1
330
DB8D
100
AcDbDictionary
280
     1
281
     1
  3
ACAD_XREC_ROUNDTRIP
360
ECE2
  0
DICTIONARY
  5
ECDF
330
DB8C
100
AcDbDictionary
280
     1
281
     1
  3
ACAD_XREC_ROUNDTRIP
360
ECE0
  0
DICTIONARY
  5
ECED
330
DB93
100
AcDbDictionary
280
     1
281
     1
  3
ACAD_XREC_ROUNDTRIP
360
ECEE
  0
DICTIONARY
  5
ECF5
330
DB97
100
AcDbDictionary
280
     1
281
     1
  3
ACAD_XREC_ROUNDTRIP
360
ECF6
  0
DICTIONARY
  5
ECE7
330
DB90
100
AcDbDictionary
280
     1
281
     1
  3
ACAD_XREC_ROUNDTRIP
360
ECE8
  0
DICTIONARY
  5
ECEB
330
DB92
100
AcDbDictionary
280
     1
281
     1
  3
ACAD_XREC_ROUNDTRIP
360
ECEC
  0
DICTIONARY
  5
ED05
330
DB9F
100
AcDbDictionary
280
     1
281
     1
  3
ACAD_XREC_ROUNDTRIP
360
ED06
  0
DICTIONARY
  5
ECF3
330
DB96
100
AcDbDictionary
280
     1
281
     1
  3
ACAD_XREC_ROUNDTRIP
360
ECF4
  0
DICTIONARY
  5
ECD7
330
DB88
100
AcDbDictionary
280
     1
281
     1
  3
ACAD_XREC_ROUNDTRIP
360
ECD8
  0
DICTIONARY
  5
ECD9
330
DB89
100
AcDbDictionary
280
     1
281
     1
  3
ACAD_XREC_ROUNDTRIP
360
ECDA
  0
DICTIONARY
  5
ECDB
330
DB8A
100
AcDbDictionary
280
     1
281
     1
  3
ACAD_XREC_ROUNDTRIP
360
ECDC
  0
DICTIONARY
  5
ECDD
330
DB8B
100
AcDbDictionary
280
     1
281
     1
  3
ACAD_XREC_ROUNDTRIP
360
ECDE
  0
DICTIONARY
  5
ECE5
330
DB8F
100
AcDbDictionary
280
     1
281
     1
  3
ACAD_XREC_ROUNDTRIP
360
ECE6
  0
DICTIONARY
  5
ED01
330
DB9D
100
AcDbDictionary
280
     1
281
     1
  3
ACAD_XREC_ROUNDTRIP
360
ED02
  0
DICTIONARY
  5
ECF1
330
DB95
100
AcDbDictionary
280
     1
281
     1
  3
ACAD_XREC_ROUNDTRIP
360
ECF2
  0
DICTIONARY
  5
ED03
330
DB9E
100
AcDbDictionary
280
     1
281
     1
  3
ACAD_XREC_ROUNDTRIP
360
ED04
  0
DICTIONARY
  5
ECE9
330
DB91
100
AcDbDictionary
280
     1
281
     1
  3
ACAD_XREC_ROUNDTRIP
360
ECEA
  0
DICTIONARY
  5
ECFF
330
DB9C
100
AcDbDictionary
280
     1
281
     1
  3
ACAD_XREC_ROUNDTRIP
360
ED00
  0
DICTIONARY
  5
ECFD
330
DB9B
100
AcDbDictionary
280
     1
281
     1
  3
ACAD_XREC_ROUNDTRIP
360
ECFE
  0
DICTIONARY
  5
ECF7
330
DB98
100
AcDbDictionary
280
     1
281
     1
  3
ACAD_XREC_ROUNDTRIP
360
ECF8
  0
DICTIONARY
  5
ECF9
330
DB99
100
AcDbDictionary
280
     1
281
     1
  3
ACAD_XREC_ROUNDTRIP
360
ECFA
  0
DICTIONARY
  5
ECEF
330
DB94
100
AcDbDictionary
280
     1
281
     1
  3
ACAD_XREC_ROUNDTRIP
360
ECF0
  0
DICTIONARY
  5
ECE3
330
DB8E
100
AcDbDictionary
280
     1
281
     1
  3
ACAD_XREC_ROUNDTRIP
360
ECE4
  0
DICTIONARY
  5
ECFB
330
DB9A
100
AcDbDictionary
280
     1
281
     1
  3
ACAD_XREC_ROUNDTRIP
360
ECFC
  0
XRECORD
  5
ED0C
102
{ACAD_REACTORS
330
ED0B
102
}
330
ED0B
100
AcDbXrecord
280
     1
102
DISPLAYNAME
  1
Metric50
102
FLAGS
 90
        0
  0
XRECORD
  5
ECD5
102
{ACAD_REACTORS
330
DB78
102
}
330
DB78
100
AcDbXrecord
280
     1
102
MATERIAL
148
0.0
149
0.0
149
0.0
 93
        0
 94
      127
282
     0
 72
     0
 77
     0
171
     0
175
     0
179
     0
273
     0
  0
XRECORD
  5
DB7A
102
{ACAD_REACTORS
330
DB78
102
}
330
DB78
100
AcDbXrecord
280
     1
270
     1
271
     1
  0
XRECORD
  5
DB79
102
{ACAD_REACTORS
330
DB78
102
}
330
DB78
100
AcDbXrecord
280
     1
270
     1
271
     1
  0
XRECORD
  5
DB7D
102
{ACAD_REACTORS
330
DB78
102
}
330
DB78
100
AcDbXrecord
280
     1
270
     1
271
     1
  0
XRECORD
  5
DB7C
102
{ACAD_REACTORS
330
DB78
102
}
330
DB78
100
AcDbXrecord
280
     1
270
     1
271
     1
  0
XRECORD
  5
DB7E
102
{ACAD_REACTORS
330
DB78
102
}
330
DB78
100
AcDbXrecord
280
     1
270
     1
271
     1
  0
XRECORD
  5
DB7B
102
{ACAD_REACTORS
330
DB78
102
}
330
DB78
100
AcDbXrecord
280
     1
270
     1
271
     1
  0
XRECORD
  5
ECD4
102
{ACAD_REACTORS
330
DB70
102
}
330
DB70
100
AcDbXrecord
280
     1
102
MATERIAL
148
0.0
149
0.0
149
0.0
 93
        0
 94
      127
282
     0
 72
     0
 77
     0
171
     0
175
     0
179
     0
273
     0
  0
XRECORD
  5
DB72
102
{ACAD_REACTORS
330
DB70
102
}
330
DB70
100
AcDbXrecord
280
     1
270
     1
271
     1
  0
XRECORD
  5
DB71
102
{ACAD_REACTORS
330
DB70
102
}
330
DB70
100
AcDbXrecord
280
     1
270
     1
271
     1
  0
XRECORD
  5
DB75
102
{ACAD_REACTORS
330
DB70
102
}
330
DB70
100
AcDbXrecord
280
     1
270
     1
271
     1
  0
XRECORD
  5
DB74
102
{ACAD_REACTORS
330
DB70
102
}
330
DB70
100
AcDbXrecord
280
     1
270
     1
271
     1
  0
XRECORD
  5
DB76
102
{ACAD_REACTORS
330
DB70
102
}
330
DB70
100
AcDbXrecord
280
     1
270
     1
271
     1
  0
XRECORD
  5
DB73
102
{ACAD_REACTORS
330
DB70
102
}
330
DB70
100
AcDbXrecord
280
     1
270
     1
271
     1
  0
XRECORD
  5
ECD6
102
{ACAD_REACTORS
330
DB80
102
}
330
DB80
100
AcDbXrecord
280
     1
102
MATERIAL
148
0.0
149
0.0
149
0.0
 93
        0
 94
      127
282
     0
 72
     0
 77
     0
171
     0
175
     0
179
     0
273
     0
  0
XRECORD
  5
DB82
102
{ACAD_REACTORS
330
DB80
102
}
330
DB80
100
AcDbXrecord
280
     1
270
     1
271
     1
  0
XRECORD
  5
DB81
102
{ACAD_REACTORS
330
DB80
102
}
330
DB80
100
AcDbXrecord
280
     1
270
     1
271
     1
  0
XRECORD
  5
DB85
102
{ACAD_REACTORS
330
DB80
102
}
330
DB80
100
AcDbXrecord
280
     1
270
     1
271
     1
  0
XRECORD
  5
DB84
102
{ACAD_REACTORS
330
DB80
102
}
330
DB80
100
AcDbXrecord
280
     1
270
     1
271
     1
  0
XRECORD
  5
DB86
102
{ACAD_REACTORS
330
DB80
102
}
330
DB80
100
AcDbXrecord
280
     1
270
     1
271
     1
  0
XRECORD
  5
DB83
102
{ACAD_REACTORS
330
DB80
102
}
330
DB80
100
AcDbXrecord
280
     1
270
     1
271
     1
  0
XRECORD
  5
ED08
102
{ACAD_REACTORS
330
ED07
102
}
330
ED07
100
AcDbXrecord
280
     1
102
ACAD_ROUNDTRIP_2012_MLEADER_STYLE
298
     1
  0
XRECORD
  5
ED0A
102
{ACAD_REACTORS
330
ED09
102
}
330
ED09
100
AcDbXrecord
280
     1
102
DISPLAYNAME
  1
Metric50
102
FLAGS
 90
        0
  0
CELLSTYLEMAP
  5
ECC0
102
{ACAD_REACTORS
330
DE95
102
}
330
DE95
100
AcDbCellStyleMap
 90
        3
300
CELLSTYLE
  1
TABLEFORMAT_BEGIN
 90
        5
170
     1
 91
        0
 92
    32768
 62
   257
 93
        1
300
CONTENTFORMAT
  1
CONTENTFORMAT_BEGIN
 90
        0
 91
        0
 92
        4
 93
        0
300

 40
0.0
140
1.0
 94
        5
 62
     0
340
F
144
6.0
309
CONTENTFORMAT_END
171
     1
301
MARGIN
  1
CELLMARGIN_BEGIN
 40
1.5
 40
1.5
 40
1.5
 40
1.5
 40
0.18
 40
0.18
309
CELLMARGIN_END
 94
        6
 95
        1
302
GRIDFORMAT
  1
GRIDFORMAT_BEGIN
 90
        0
 91
        1
 62
     0
 92
       -2
340
0
 93
        0
 40
0.045
309
GRIDFORMAT_END
 95
        2
302
GRIDFORMAT
  1
GRIDFORMAT_BEGIN
 90
        0
 91
        1
 62
     0
 92
       -2
340
0
 93
        0
 40
0.045
309
GRIDFORMAT_END
 95
        4
302
GRIDFORMAT
  1
GRIDFORMAT_BEGIN
 90
        0
 91
        1
 62
     0
 92
       -2
340
0
 93
        0
 40
0.045
309
GRIDFORMAT_END
 95
        8
302
GRIDFORMAT
  1
GRIDFORMAT_BEGIN
 90
        0
 91
        1
 62
     0
 92
       -2
340
0
 93
        0
 40
0.045
309
GRIDFORMAT_END
 95
       16
302
GRIDFORMAT
  1
GRIDFORMAT_BEGIN
 90
        0
 91
        1
 62
     0
 92
       -2
340
0
 93
        0
 40
0.045
309
GRIDFORMAT_END
 95
       32
302
GRIDFORMAT
  1
GRIDFORMAT_BEGIN
 90
        0
 91
        1
 62
     0
 92
       -2
340
0
 93
        0
 40
0.045
309
GRIDFORMAT_END
309
TABLEFORMAT_END
  1
CELLSTYLE_BEGIN
 90
        1
 91
        1
300
_TITLE
309
CELLSTYLE_END
300
CELLSTYLE
  1
TABLEFORMAT_BEGIN
 90
        5
170
     1
 91
        0
 92
        0
 62
   257
 93
        1
300
CONTENTFORMAT
  1
CONTENTFORMAT_BEGIN
 90
        0
 91
        0
 92
        4
 93
        0
300

 40
0.0
140
1.0
 94
        5
 62
     0
340
F
144
4.5
309
CONTENTFORMAT_END
171
     1
301
MARGIN
  1
CELLMARGIN_BEGIN
 40
1.5
 40
1.5
 40
1.5
 40
1.5
 40
0.18
 40
0.18
309
CELLMARGIN_END
 94
        6
 95
        1
302
GRIDFORMAT
  1
GRIDFORMAT_BEGIN
 90
        0
 91
        1
 62
     0
 92
       -2
340
0
 93
        0
 40
0.045
309
GRIDFORMAT_END
 95
        2
302
GRIDFORMAT
  1
GRIDFORMAT_BEGIN
 90
        0
 91
        1
 62
     0
 92
       -2
340
0
 93
        0
 40
0.045
309
GRIDFORMAT_END
 95
        4
302
GRIDFORMAT
  1
GRIDFORMAT_BEGIN
 90
        0
 91
        1
 62
     0
 92
       -2
340
0
 93
        0
 40
0.045
309
GRIDFORMAT_END
 95
        8
302
GRIDFORMAT
  1
GRIDFORMAT_BEGIN
 90
        0
 91
        1
 62
     0
 92
       -2
340
0
 93
        0
 40
0.045
309
GRIDFORMAT_END
 95
       16
302
GRIDFORMAT
  1
GRIDFORMAT_BEGIN
 90
        0
 91
        1
 62
     0
 92
       -2
340
0
 93
        0
 40
0.045
309
GRIDFORMAT_END
 95
       32
302
GRIDFORMAT
  1
GRIDFORMAT_BEGIN
 90
        0
 91
        1
 62
     0
 92
       -2
340
0
 93
        0
 40
0.045
309
GRIDFORMAT_END
309
TABLEFORMAT_END
  1
CELLSTYLE_BEGIN
 90
        2
 91
        1
300
_HEADER
309
CELLSTYLE_END
300
CELLSTYLE
  1
TABLEFORMAT_BEGIN
 90
        5
170
     1
 91
        0
 92
        0
 62
   257
 93
        1
300
CONTENTFORMAT
  1
CONTENTFORMAT_BEGIN
 90
        0
 91
        0
 92
        4
 93
        0
300

 40
0.0
140
1.0
 94
        2
 62
     0
340
F
144
4.5
309
CONTENTFORMAT_END
171
     1
301
MARGIN
  1
CELLMARGIN_BEGIN
 40
1.5
 40
1.5
 40
1.5
 40
1.5
 40
0.18
 40
0.18
309
CELLMARGIN_END
 94
        6
 95
        1
302
GRIDFORMAT
  1
GRIDFORMAT_BEGIN
 90
        0
 91
        1
 62
     0
 92
       -2
340
0
 93
        0
 40
0.045
309
GRIDFORMAT_END
 95
        2
302
GRIDFORMAT
  1
GRIDFORMAT_BEGIN
 90
        0
 91
        1
 62
     0
 92
       -2
340
0
 93
        0
 40
0.045
309
GRIDFORMAT_END
 95
        4
302
GRIDFORMAT
  1
GRIDFORMAT_BEGIN
 90
        0
 91
        1
 62
     0
 92
       -2
340
0
 93
        0
 40
0.045
309
GRIDFORMAT_END
 95
        8
302
GRIDFORMAT
  1
GRIDFORMAT_BEGIN
 90
        0
 91
        1
 62
     0
 92
       -2
340
0
 93
        0
 40
0.045
309
GRIDFORMAT_END
 95
       16
302
GRIDFORMAT
  1
GRIDFORMAT_BEGIN
 90
        0
 91
        1
 62
     0
 92
       -2
340
0
 93
        0
 40
0.045
309
GRIDFORMAT_END
 95
       32
302
GRIDFORMAT
  1
GRIDFORMAT_BEGIN
 90
        0
 91
        1
 62
     0
 92
       -2
340
0
 93
        0
 40
0.045
309
GRIDFORMAT_END
309
TABLEFORMAT_END
  1
CELLSTYLE_BEGIN
 90
        3
 91
        2
300
_DATA
309
CELLSTYLE_END
  0
XRECORD
  5
ECC9
102
{ACAD_REACTORS
330
DE95
102
}
330
DE95
100
AcDbXrecord
280
     1
102
ACAD_ROUNDTRIP_PRE2007_TABLESTYLE
 90
        4
 91
        0
  1

 92
        4
 93
        0
  2

 94
        4
 95
        0
  3

  0
XRECORD
  5
ECE2
102
{ACAD_REACTORS
330
ECE1
102
}
330
ECE1
100
AcDbXrecord
280
     1
102
RTVSPost2010Prop28
280
     1
102
RTVSPost2010PropOp28
 70
     1
102
RTVSPost2010Prop29
280
     1
102
RTVSPost2010PropOp29
 70
     1
102
RTVSPost2010Prop30
280
     0
102
RTVSPost2010PropOp30
 70
     1
102
RTVSPost2010Prop31
280
     0
102
RTVSPost2010PropOp31
 70
     1
102
RTVSPost2010Prop32
280
     0
102
RTVSPost2010PropOp32
 70
     1
102
RTVSPost2010Prop33
280
     0
102
RTVSPost2010PropOp33
 70
     1
102
RTVSPost2010Prop34
280
     0
102
RTVSPost2010PropOp34
 70
     1
102
RTVSPost2010Prop35
280
     0
102
RTVSPost2010PropOp35
 70
     1
102
RTVSPost2010Prop36
280
     0
102
RTVSPost2010PropOp36
 70
     1
102
RTVSPost2010Prop37
 90
       50
102
RTVSPost2010PropOp37
 70
     1
102
RTVSPost2010Prop38
140
0.0
102
RTVSPost2010PropOp38
 70
     1
102
RTVSPost2010Prop39
140
1.0
102
RTVSPost2010PropOp39
 70
     1
102
RTVSPost2010Prop40
 90
        0
102
RTVSPost2010PropOp40
 70
     1
102
RTVSPost2010Prop41ColorIndex
 90
       18
102
RTVSPost2010Prop41ColorRGB
 90
        0
102
RTVSPost2010PropOp41
 70
     1
102
RTVSPost2010Prop42
 90
       50
102
RTVSPost2010PropOp42
 70
     1
102
RTVSPost2010Prop43
 90
        3
102
RTVSPost2010PropOp43
 70
     1
102
RTVSPost2010Prop44ColorIndex
 90
        5
102
RTVSPost2010Prop44ColorRGB
 90
      255
102
RTVSPost2010PropOp44
 70
     1
102
RTVSPost2010Prop45
280
     0
102
RTVSPost2010PropOp45
 70
     1
102
RTVSPost2010Prop46
 90
       50
102
RTVSPost2010PropOp46
 70
     1
102
RTVSPost2010Prop47
 90
       50
102
RTVSPost2010PropOp47
 70
     1
102
RTVSPost2010Prop48
 90
       50
102
RTVSPost2010PropOp48
 70
     1
102
RTVSPost2010Prop49
280
     0
102
RTVSPost2010PropOp49
 70
     1
102
RTVSPost2010Prop50
 90
       50
102
RTVSPost2010PropOp50
 70
     1
102
RTVSPost2010Prop51ColorIndex
 90
      256
102
RTVSPost2010Prop51ColorRGB
 90
-16777216
102
RTVSPost2010PropOp51
 70
     0
102
RTVSPost2010Prop52
140
1.0
102
RTVSPost2010PropOp52
 70
     0
102
RTVSPost2010Prop53
 90
        2
102
RTVSPost2010PropOp53
 70
     1
102
RTVSPost2010Prop54
  1
strokes_ogs.tif
102
RTVSPost2010PropOp54
 70
     1
102
RTVSPost2010Prop55
280
     0
102
RTVSPost2010PropOp55
 70
     1
102
RTVSPost2010Prop56
140
1.0
102
RTVSPost2010PropOp56
 70
     1
102
RTVSPost2010Prop57
140
1.0
102
RTVSPost2010PropOp57
 70
     1
102
RTVSPropertyOp0
 70
     1
102
RTVSPropertyOp1
 70
     1
102
RTVSPropertyOp2
 70
     1
102
RTVSPropertyOp3
 70
     1
102
RTVSPropertyOp4
 70
     1
102
RTVSPropertyOp5
 70
     1
102
RTVSPropertyOp6
 70
     1
102
RTVSPropertyOp7
 70
     1
102
RTVSPropertyOp8
 70
     1
102
RTVSPropertyOp9
 70
     1
102
RTVSPropertyOp10
 70
     1
102
RTVSPropertyOp11
 70
     1
102
RTVSPropertyOp12
 70
     1
102
RTVSPropertyOp13
 70
     1
102
RTVSPropertyOp14
 70
     1
102
RTVSPropertyOp15
 70
     1
102
RTVSPropertyOp16
 70
     1
102
RTVSPropertyOp17
 70
     1
102
RTVSPropertyOp18
 70
     1
102
RTVSPropertyOp19
 70
     1
102
RTVSPropertyOp20
 70
     1
102
RTVSPropertyOp21
 70
     1
102
RTVSPropertyOp22
 70
     1
102
RTVSPropertyOp23
 70
     1
102
RTVSPropertyOp24
 70
     1
102
RTVSPropertyOp25
 70
     1
102
RTVSPropertyOp26
 70
     1
102
RTVSPropertyOp27
 70
     1
102
RTVSPropertyOp28
 70
     1
102
RTVSPropertyOp29
 70
     1
102
RTVSPropertyOp30
 70
     1
102
RTVSPropertyOp31
 70
     1
102
RTVSPropertyOp32
 70
     1
102
RTVSPropertyOp33
 70
     1
102
RTVSPropertyOp34
 70
     1
102
RTVSPropertyOp35
 70
     1
102
RTVSPropertyOp36
 70
     1
102
RTVSPropertyOp37
 70
     1
102
RTVSPropertyOp38
 70
     1
102
RTVSPropertyOp39
 70
     1
102
RTVSPropertyOp40
 70
     1
102
RTVSPropertyOp41
 70
     1
102
RTVSPropertyOp42
 70
     1
102
RTVSPropertyOp43
 70
     1
102
RTVSPropertyOp44
 70
     1
102
RTVSPropertyOp45
 70
     1
102
RTVSPropertyOp46
 70
     1
102
RTVSPropertyOp47
 70
     1
102
RTVSPropertyOp48
 70
     1
102
RTVSPropertyOp49
 70
     1
102
RTVSPropertyOp50
 70
     1
102
RTVSPropertyOp51
 70
     0
102
RTVSPropertyOp52
 70
     0
102
RTVSPropertyOp53
 70
     1
102
RTVSPropertyOp54
 70
     1
102
RTVSPropertyOp55
 70
     1
102
RTVSPropertyOp56
 70
     1
102
RTVSPropertyOp57
 70
     1
102
RTVSPropertyOp58
 70
     1
102
RTVSPropertyOp59
 70
     1
102
RTVSPropertyOp60
 70
     1
102
RTVSPropertyOp61
 70
     1
102
RTVSPropertyOp62
 70
     1
  0
XRECORD
  5
ECE0
102
{ACAD_REACTORS
330
ECDF
102
}
330
ECDF
100
AcDbXrecord
280
     1
102
RTVSPost2010Prop28
280
     0
102
RTVSPost2010PropOp28
 70
     1
102
RTVSPost2010Prop29
280
     1
102
RTVSPost2010PropOp29
 70
     1
102
RTVSPost2010Prop30
280
     1
102
RTVSPost2010PropOp30
 70
     1
102
RTVSPost2010Prop31
280
     0
102
RTVSPost2010PropOp31
 70
     1
102
RTVSPost2010Prop32
280
     0
102
RTVSPost2010PropOp32
 70
     1
102
RTVSPost2010Prop33
280
     0
102
RTVSPost2010PropOp33
 70
     1
102
RTVSPost2010Prop34
280
     0
102
RTVSPost2010PropOp34
 70
     1
102
RTVSPost2010Prop35
280
     0
102
RTVSPost2010PropOp35
 70
     1
102
RTVSPost2010Prop36
280
     0
102
RTVSPost2010PropOp36
 70
     1
102
RTVSPost2010Prop37
 90
       50
102
RTVSPost2010PropOp37
 70
     1
102
RTVSPost2010Prop38
140
0.0
102
RTVSPost2010PropOp38
 70
     1
102
RTVSPost2010Prop39
140
1.0
102
RTVSPost2010PropOp39
 70
     1
102
RTVSPost2010Prop40
 90
        0
102
RTVSPost2010PropOp40
 70
     1
102
RTVSPost2010Prop41ColorIndex
 90
       18
102
RTVSPost2010Prop41ColorRGB
 90
        0
102
RTVSPost2010PropOp41
 70
     1
102
RTVSPost2010Prop42
 90
       50
102
RTVSPost2010PropOp42
 70
     1
102
RTVSPost2010Prop43
 90
        3
102
RTVSPost2010PropOp43
 70
     1
102
RTVSPost2010Prop44ColorIndex
 90
        5
102
RTVSPost2010Prop44ColorRGB
 90
      255
102
RTVSPost2010PropOp44
 70
     1
102
RTVSPost2010Prop45
280
     0
102
RTVSPost2010PropOp45
 70
     1
102
RTVSPost2010Prop46
 90
       50
102
RTVSPost2010PropOp46
 70
     1
102
RTVSPost2010Prop47
 90
       50
102
RTVSPost2010PropOp47
 70
     1
102
RTVSPost2010Prop48
 90
       50
102
RTVSPost2010PropOp48
 70
     1
102
RTVSPost2010Prop49
280
     0
102
RTVSPost2010PropOp49
 70
     1
102
RTVSPost2010Prop50
 90
       50
102
RTVSPost2010PropOp50
 70
     1
102
RTVSPost2010Prop51ColorIndex
 90
      256
102
RTVSPost2010Prop51ColorRGB
 90
-16777216
102
RTVSPost2010PropOp51
 70
     0
102
RTVSPost2010Prop52
140
1.0
102
RTVSPost2010PropOp52
 70
     0
102
RTVSPost2010Prop53
 90
        2
102
RTVSPost2010PropOp53
 70
     1
102
RTVSPost2010Prop54
  1
strokes_ogs.tif
102
RTVSPost2010PropOp54
 70
     1
102
RTVSPost2010Prop55
280
     0
102
RTVSPost2010PropOp55
 70
     1
102
RTVSPost2010Prop56
140
1.0
102
RTVSPost2010PropOp56
 70
     1
102
RTVSPost2010Prop57
140
1.0
102
RTVSPost2010PropOp57
 70
     1
102
RTVSPropertyOp0
 70
     1
102
RTVSPropertyOp1
 70
     1
102
RTVSPropertyOp2
 70
     1
102
RTVSPropertyOp3
 70
     1
102
RTVSPropertyOp4
 70
     1
102
RTVSPropertyOp5
 70
     1
102
RTVSPropertyOp6
 70
     1
102
RTVSPropertyOp7
 70
     1
102
RTVSPropertyOp8
 70
     1
102
RTVSPropertyOp9
 70
     1
102
RTVSPropertyOp10
 70
     1
102
RTVSPropertyOp11
 70
     1
102
RTVSPropertyOp12
 70
     1
102
RTVSPropertyOp13
 70
     1
102
RTVSPropertyOp14
 70
     1
102
RTVSPropertyOp15
 70
     1
102
RTVSPropertyOp16
 70
     1
102
RTVSPropertyOp17
 70
     1
102
RTVSPropertyOp18
 70
     1
102
RTVSPropertyOp19
 70
     1
102
RTVSPropertyOp20
 70
     1
102
RTVSPropertyOp21
 70
     1
102
RTVSPropertyOp22
 70
     1
102
RTVSPropertyOp23
 70
     1
102
RTVSPropertyOp24
 70
     1
102
RTVSPropertyOp25
 70
     1
102
RTVSPropertyOp26
 70
     1
102
RTVSPropertyOp27
 70
     1
102
RTVSPropertyOp28
 70
     1
102
RTVSPropertyOp29
 70
     1
102
RTVSPropertyOp30
 70
     1
102
RTVSPropertyOp31
 70
     1
102
RTVSPropertyOp32
 70
     1
102
RTVSPropertyOp33
 70
     1
102
RTVSPropertyOp34
 70
     1
102
RTVSPropertyOp35
 70
     1
102
RTVSPropertyOp36
 70
     1
102
RTVSPropertyOp37
 70
     1
102
RTVSPropertyOp38
 70
     1
102
RTVSPropertyOp39
 70
     1
102
RTVSPropertyOp40
 70
     1
102
RTVSPropertyOp41
 70
     1
102
RTVSPropertyOp42
 70
     1
102
RTVSPropertyOp43
 70
     1
102
RTVSPropertyOp44
 70
     1
102
RTVSPropertyOp45
 70
     1
102
RTVSPropertyOp46
 70
     1
102
RTVSPropertyOp47
 70
     1
102
RTVSPropertyOp48
 70
     1
102
RTVSPropertyOp49
 70
     1
102
RTVSPropertyOp50
 70
     1
102
RTVSPropertyOp51
 70
     0
102
RTVSPropertyOp52
 70
     0
102
RTVSPropertyOp53
 70
     1
102
RTVSPropertyOp54
 70
     1
102
RTVSPropertyOp55
 70
     1
102
RTVSPropertyOp56
 70
     1
102
RTVSPropertyOp57
 70
     1
102
RTVSPropertyOp58
 70
     1
102
RTVSPropertyOp59
 70
     1
102
RTVSPropertyOp60
 70
     1
102
RTVSPropertyOp61
 70
     1
102
RTVSPropertyOp62
 70
     1
  0
XRECORD
  5
ECEE
102
{ACAD_REACTORS
330
ECED
102
}
330
ECED
100
AcDbXrecord
280
     1
102
RTVSPost2010Prop28
280
     0
102
RTVSPost2010PropOp28
 70
     1
102
RTVSPost2010Prop29
280
     1
102
RTVSPost2010PropOp29
 70
     1
102
RTVSPost2010Prop30
280
     1
102
RTVSPost2010PropOp30
 70
     1
102
RTVSPost2010Prop31
280
     0
102
RTVSPost2010PropOp31
 70
     1
102
RTVSPost2010Prop32
280
     0
102
RTVSPost2010PropOp32
 70
     1
102
RTVSPost2010Prop33
280
     0
102
RTVSPost2010PropOp33
 70
     1
102
RTVSPost2010Prop34
280
     0
102
RTVSPost2010PropOp34
 70
     1
102
RTVSPost2010Prop35
280
     0
102
RTVSPost2010PropOp35
 70
     1
102
RTVSPost2010Prop36
280
     0
102
RTVSPost2010PropOp36
 70
     1
102
RTVSPost2010Prop37
 90
       50
102
RTVSPost2010PropOp37
 70
     1
102
RTVSPost2010Prop38
140
0.0
102
RTVSPost2010PropOp38
 70
     1
102
RTVSPost2010Prop39
140
1.0
102
RTVSPost2010PropOp39
 70
     1
102
RTVSPost2010Prop40
 90
        0
102
RTVSPost2010PropOp40
 70
     1
102
RTVSPost2010Prop41ColorIndex
 90
       18
102
RTVSPost2010Prop41ColorRGB
 90
        0
102
RTVSPost2010PropOp41
 70
     1
102
RTVSPost2010Prop42
 90
       50
102
RTVSPost2010PropOp42
 70
     1
102
RTVSPost2010Prop43
 90
        3
102
RTVSPost2010PropOp43
 70
     1
102
RTVSPost2010Prop44ColorIndex
 90
        5
102
RTVSPost2010Prop44ColorRGB
 90
      255
102
RTVSPost2010PropOp44
 70
     1
102
RTVSPost2010Prop45
280
     0
102
RTVSPost2010PropOp45
 70
     1
102
RTVSPost2010Prop46
 90
       50
102
RTVSPost2010PropOp46
 70
     1
102
RTVSPost2010Prop47
 90
       50
102
RTVSPost2010PropOp47
 70
     1
102
RTVSPost2010Prop48
 90
       50
102
RTVSPost2010PropOp48
 70
     1
102
RTVSPost2010Prop49
280
     0
102
RTVSPost2010PropOp49
 70
     1
102
RTVSPost2010Prop50
 90
       50
102
RTVSPost2010PropOp50
 70
     1
102
RTVSPost2010Prop51ColorIndex
 90
      256
102
RTVSPost2010Prop51ColorRGB
 90
-16777216
102
RTVSPost2010PropOp51
 70
     0
102
RTVSPost2010Prop52
140
1.0
102
RTVSPost2010PropOp52
 70
     0
102
RTVSPost2010Prop53
 90
        2
102
RTVSPost2010PropOp53
 70
     1
102
RTVSPost2010Prop54
  1
strokes_ogs.tif
102
RTVSPost2010PropOp54
 70
     1
102
RTVSPost2010Prop55
280
     0
102
RTVSPost2010PropOp55
 70
     1
102
RTVSPost2010Prop56
140
1.0
102
RTVSPost2010PropOp56
 70
     1
102
RTVSPost2010Prop57
140
1.0
102
RTVSPost2010PropOp57
 70
     1
102
RTVSPropertyOp0
 70
     1
102
RTVSPropertyOp1
 70
     1
102
RTVSPropertyOp2
 70
     1
102
RTVSPropertyOp3
 70
     1
102
RTVSPropertyOp4
 70
     1
102
RTVSPropertyOp5
 70
     1
102
RTVSPropertyOp6
 70
     1
102
RTVSPropertyOp7
 70
     1
102
RTVSPropertyOp8
 70
     1
102
RTVSPropertyOp9
 70
     1
102
RTVSPropertyOp10
 70
     1
102
RTVSPropertyOp11
 70
     1
102
RTVSPropertyOp12
 70
     1
102
RTVSPropertyOp13
 70
     1
102
RTVSPropertyOp14
 70
     1
102
RTVSPropertyOp15
 70
     1
102
RTVSPropertyOp16
 70
     1
102
RTVSPropertyOp17
 70
     1
102
RTVSPropertyOp18
 70
     1
102
RTVSPropertyOp19
 70
     1
102
RTVSPropertyOp20
 70
     1
102
RTVSPropertyOp21
 70
     1
102
RTVSPropertyOp22
 70
     1
102
RTVSPropertyOp23
 70
     1
102
RTVSPropertyOp24
 70
     1
102
RTVSPropertyOp25
 70
     1
102
RTVSPropertyOp26
 70
     1
102
RTVSPropertyOp27
 70
     1
102
RTVSPropertyOp28
 70
     1
102
RTVSPropertyOp29
 70
     1
102
RTVSPropertyOp30
 70
     1
102
RTVSPropertyOp31
 70
     1
102
RTVSPropertyOp32
 70
     1
102
RTVSPropertyOp33
 70
     1
102
RTVSPropertyOp34
 70
     1
102
RTVSPropertyOp35
 70
     1
102
RTVSPropertyOp36
 70
     1
102
RTVSPropertyOp37
 70
     1
102
RTVSPropertyOp38
 70
     1
102
RTVSPropertyOp39
 70
     1
102
RTVSPropertyOp40
 70
     1
102
RTVSPropertyOp41
 70
     1
102
RTVSPropertyOp42
 70
     1
102
RTVSPropertyOp43
 70
     1
102
RTVSPropertyOp44
 70
     1
102
RTVSPropertyOp45
 70
     1
102
RTVSPropertyOp46
 70
     1
102
RTVSPropertyOp47
 70
     1
102
RTVSPropertyOp48
 70
     1
102
RTVSPropertyOp49
 70
     1
102
RTVSPropertyOp50
 70
     1
102
RTVSPropertyOp51
 70
     0
102
RTVSPropertyOp52
 70
     0
102
RTVSPropertyOp53
 70
     1
102
RTVSPropertyOp54
 70
     1
102
RTVSPropertyOp55
 70
     1
102
RTVSPropertyOp56
 70
     1
102
RTVSPropertyOp57
 70
     1
102
RTVSPropertyOp58
 70
     1
102
RTVSPropertyOp59
 70
     1
102
RTVSPropertyOp60
 70
     1
102
RTVSPropertyOp61
 70
     1
102
RTVSPropertyOp62
 70
     1
  0
XRECORD
  5
ECF6
102
{ACAD_REACTORS
330
ECF5
102
}
330
ECF5
100
AcDbXrecord
280
     1
102
RTVSPost2010Prop28
280
     0
102
RTVSPost2010PropOp28
 70
     1
102
RTVSPost2010Prop29
280
     1
102
RTVSPost2010PropOp29
 70
     1
102
RTVSPost2010Prop30
280
     1
102
RTVSPost2010PropOp30
 70
     1
102
RTVSPost2010Prop31
280
     0
102
RTVSPost2010PropOp31
 70
     1
102
RTVSPost2010Prop32
280
     0
102
RTVSPost2010PropOp32
 70
     1
102
RTVSPost2010Prop33
280
     0
102
RTVSPost2010PropOp33
 70
     1
102
RTVSPost2010Prop34
280
     0
102
RTVSPost2010PropOp34
 70
     1
102
RTVSPost2010Prop35
280
     0
102
RTVSPost2010PropOp35
 70
     1
102
RTVSPost2010Prop36
280
     0
102
RTVSPost2010PropOp36
 70
     1
102
RTVSPost2010Prop37
 90
       50
102
RTVSPost2010PropOp37
 70
     1
102
RTVSPost2010Prop38
140
0.0
102
RTVSPost2010PropOp38
 70
     1
102
RTVSPost2010Prop39
140
1.0
102
RTVSPost2010PropOp39
 70
     1
102
RTVSPost2010Prop40
 90
        0
102
RTVSPost2010PropOp40
 70
     1
102
RTVSPost2010Prop41ColorIndex
 90
       18
102
RTVSPost2010Prop41ColorRGB
 90
        0
102
RTVSPost2010PropOp41
 70
     1
102
RTVSPost2010Prop42
 90
       50
102
RTVSPost2010PropOp42
 70
     1
102
RTVSPost2010Prop43
 90
        3
102
RTVSPost2010PropOp43
 70
     1
102
RTVSPost2010Prop44ColorIndex
 90
        5
102
RTVSPost2010Prop44ColorRGB
 90
      255
102
RTVSPost2010PropOp44
 70
     1
102
RTVSPost2010Prop45
280
     0
102
RTVSPost2010PropOp45
 70
     1
102
RTVSPost2010Prop46
 90
       50
102
RTVSPost2010PropOp46
 70
     1
102
RTVSPost2010Prop47
 90
       50
102
RTVSPost2010PropOp47
 70
     1
102
RTVSPost2010Prop48
 90
       50
102
RTVSPost2010PropOp48
 70
     1
102
RTVSPost2010Prop49
280
     0
102
RTVSPost2010PropOp49
 70
     1
102
RTVSPost2010Prop50
 90
       50
102
RTVSPost2010PropOp50
 70
     1
102
RTVSPost2010Prop51ColorIndex
 90
      256
102
RTVSPost2010Prop51ColorRGB
 90
-16777216
102
RTVSPost2010PropOp51
 70
     0
102
RTVSPost2010Prop52
140
1.0
102
RTVSPost2010PropOp52
 70
     0
102
RTVSPost2010Prop53
 90
        2
102
RTVSPost2010PropOp53
 70
     1
102
RTVSPost2010Prop54
  1
strokes_ogs.tif
102
RTVSPost2010PropOp54
 70
     1
102
RTVSPost2010Prop55
280
     0
102
RTVSPost2010PropOp55
 70
     1
102
RTVSPost2010Prop56
140
1.0
102
RTVSPost2010PropOp56
 70
     1
102
RTVSPost2010Prop57
140
1.0
102
RTVSPost2010PropOp57
 70
     1
102
RTVSPropertyOp0
 70
     1
102
RTVSPropertyOp1
 70
     1
102
RTVSPropertyOp2
 70
     1
102
RTVSPropertyOp3
 70
     1
102
RTVSPropertyOp4
 70
     1
102
RTVSPropertyOp5
 70
     1
102
RTVSPropertyOp6
 70
     1
102
RTVSPropertyOp7
 70
     1
102
RTVSPropertyOp8
 70
     1
102
RTVSPropertyOp9
 70
     1
102
RTVSPropertyOp10
 70
     1
102
RTVSPropertyOp11
 70
     1
102
RTVSPropertyOp12
 70
     1
102
RTVSPropertyOp13
 70
     1
102
RTVSPropertyOp14
 70
     1
102
RTVSPropertyOp15
 70
     1
102
RTVSPropertyOp16
 70
     1
102
RTVSPropertyOp17
 70
     1
102
RTVSPropertyOp18
 70
     1
102
RTVSPropertyOp19
 70
     1
102
RTVSPropertyOp20
 70
     1
102
RTVSPropertyOp21
 70
     1
102
RTVSPropertyOp22
 70
     1
102
RTVSPropertyOp23
 70
     1
102
RTVSPropertyOp24
 70
     1
102
RTVSPropertyOp25
 70
     1
102
RTVSPropertyOp26
 70
     1
102
RTVSPropertyOp27
 70
     1
102
RTVSPropertyOp28
 70
     1
102
RTVSPropertyOp29
 70
     1
102
RTVSPropertyOp30
 70
     1
102
RTVSPropertyOp31
 70
     1
102
RTVSPropertyOp32
 70
     1
102
RTVSPropertyOp33
 70
     1
102
RTVSPropertyOp34
 70
     1
102
RTVSPropertyOp35
 70
     1
102
RTVSPropertyOp36
 70
     1
102
RTVSPropertyOp37
 70
     1
102
RTVSPropertyOp38
 70
     1
102
RTVSPropertyOp39
 70
     1
102
RTVSPropertyOp40
 70
     1
102
RTVSPropertyOp41
 70
     1
102
RTVSPropertyOp42
 70
     1
102
RTVSPropertyOp43
 70
     1
102
RTVSPropertyOp44
 70
     1
102
RTVSPropertyOp45
 70
     1
102
RTVSPropertyOp46
 70
     1
102
RTVSPropertyOp47
 70
     1
102
RTVSPropertyOp48
 70
     1
102
RTVSPropertyOp49
 70
     1
102
RTVSPropertyOp50
 70
     1
102
RTVSPropertyOp51
 70
     0
102
RTVSPropertyOp52
 70
     0
102
RTVSPropertyOp53
 70
     1
102
RTVSPropertyOp54
 70
     1
102
RTVSPropertyOp55
 70
     1
102
RTVSPropertyOp56
 70
     1
102
RTVSPropertyOp57
 70
     1
102
RTVSPropertyOp58
 70
     1
102
RTVSPropertyOp59
 70
     1
102
RTVSPropertyOp60
 70
     1
102
RTVSPropertyOp61
 70
     1
102
RTVSPropertyOp62
 70
     1
  0
XRECORD
  5
ECE8
102
{ACAD_REACTORS
330
ECE7
102
}
330
ECE7
100
AcDbXrecord
280
     1
102
RTVSPost2010Prop28
280
     0
102
RTVSPost2010PropOp28
 70
     1
102
RTVSPost2010Prop29
280
     1
102
RTVSPost2010PropOp29
 70
     1
102
RTVSPost2010Prop30
280
     1
102
RTVSPost2010PropOp30
 70
     1
102
RTVSPost2010Prop31
280
     0
102
RTVSPost2010PropOp31
 70
     1
102
RTVSPost2010Prop32
280
     0
102
RTVSPost2010PropOp32
 70
     1
102
RTVSPost2010Prop33
280
     0
102
RTVSPost2010PropOp33
 70
     1
102
RTVSPost2010Prop34
280
     0
102
RTVSPost2010PropOp34
 70
     1
102
RTVSPost2010Prop35
280
     0
102
RTVSPost2010PropOp35
 70
     1
102
RTVSPost2010Prop36
280
     0
102
RTVSPost2010PropOp36
 70
     1
102
RTVSPost2010Prop37
 90
       50
102
RTVSPost2010PropOp37
 70
     1
102
RTVSPost2010Prop38
140
0.0
102
RTVSPost2010PropOp38
 70
     1
102
RTVSPost2010Prop39
140
1.0
102
RTVSPost2010PropOp39
 70
     1
102
RTVSPost2010Prop40
 90
        0
102
RTVSPost2010PropOp40
 70
     1
102
RTVSPost2010Prop41ColorIndex
 90
       18
102
RTVSPost2010Prop41ColorRGB
 90
        0
102
RTVSPost2010PropOp41
 70
     1
102
RTVSPost2010Prop42
 90
       50
102
RTVSPost2010PropOp42
 70
     1
102
RTVSPost2010Prop43
 90
        3
102
RTVSPost2010PropOp43
 70
     1
102
RTVSPost2010Prop44ColorIndex
 90
        5
102
RTVSPost2010Prop44ColorRGB
 90
      255
102
RTVSPost2010PropOp44
 70
     1
102
RTVSPost2010Prop45
280
     0
102
RTVSPost2010PropOp45
 70
     1
102
RTVSPost2010Prop46
 90
       50
102
RTVSPost2010PropOp46
 70
     1
102
RTVSPost2010Prop47
 90
       50
102
RTVSPost2010PropOp47
 70
     1
102
RTVSPost2010Prop48
 90
       50
102
RTVSPost2010PropOp48
 70
     1
102
RTVSPost2010Prop49
280
     0
102
RTVSPost2010PropOp49
 70
     1
102
RTVSPost2010Prop50
 90
       50
102
RTVSPost2010PropOp50
 70
     1
102
RTVSPost2010Prop51ColorIndex
 90
      256
102
RTVSPost2010Prop51ColorRGB
 90
-16777216
102
RTVSPost2010PropOp51
 70
     0
102
RTVSPost2010Prop52
140
1.0
102
RTVSPost2010PropOp52
 70
     0
102
RTVSPost2010Prop53
 90
        2
102
RTVSPost2010PropOp53
 70
     1
102
RTVSPost2010Prop54
  1
strokes_ogs.tif
102
RTVSPost2010PropOp54
 70
     1
102
RTVSPost2010Prop55
280
     0
102
RTVSPost2010PropOp55
 70
     1
102
RTVSPost2010Prop56
140
1.0
102
RTVSPost2010PropOp56
 70
     1
102
RTVSPost2010Prop57
140
1.0
102
RTVSPost2010PropOp57
 70
     1
102
RTVSPropertyOp0
 70
     1
102
RTVSPropertyOp1
 70
     1
102
RTVSPropertyOp2
 70
     1
102
RTVSPropertyOp3
 70
     1
102
RTVSPropertyOp4
 70
     1
102
RTVSPropertyOp5
 70
     1
102
RTVSPropertyOp6
 70
     1
102
RTVSPropertyOp7
 70
     1
102
RTVSPropertyOp8
 70
     1
102
RTVSPropertyOp9
 70
     1
102
RTVSPropertyOp10
 70
     1
102
RTVSPropertyOp11
 70
     1
102
RTVSPropertyOp12
 70
     1
102
RTVSPropertyOp13
 70
     1
102
RTVSPropertyOp14
 70
     1
102
RTVSPropertyOp15
 70
     1
102
RTVSPropertyOp16
 70
     1
102
RTVSPropertyOp17
 70
     1
102
RTVSPropertyOp18
 70
     1
102
RTVSPropertyOp19
 70
     1
102
RTVSPropertyOp20
 70
     1
102
RTVSPropertyOp21
 70
     1
102
RTVSPropertyOp22
 70
     1
102
RTVSPropertyOp23
 70
     1
102
RTVSPropertyOp24
 70
     1
102
RTVSPropertyOp25
 70
     1
102
RTVSPropertyOp26
 70
     1
102
RTVSPropertyOp27
 70
     1
102
RTVSPropertyOp28
 70
     1
102
RTVSPropertyOp29
 70
     1
102
RTVSPropertyOp30
 70
     1
102
RTVSPropertyOp31
 70
     1
102
RTVSPropertyOp32
 70
     1
102
RTVSPropertyOp33
 70
     1
102
RTVSPropertyOp34
 70
     1
102
RTVSPropertyOp35
 70
     1
102
RTVSPropertyOp36
 70
     1
102
RTVSPropertyOp37
 70
     1
102
RTVSPropertyOp38
 70
     1
102
RTVSPropertyOp39
 70
     1
102
RTVSPropertyOp40
 70
     1
102
RTVSPropertyOp41
 70
     1
102
RTVSPropertyOp42
 70
     1
102
RTVSPropertyOp43
 70
     1
102
RTVSPropertyOp44
 70
     1
102
RTVSPropertyOp45
 70
     1
102
RTVSPropertyOp46
 70
     1
102
RTVSPropertyOp47
 70
     1
102
RTVSPropertyOp48
 70
     1
102
RTVSPropertyOp49
 70
     1
102
RTVSPropertyOp50
 70
     1
102
RTVSPropertyOp51
 70
     0
102
RTVSPropertyOp52
 70
     0
102
RTVSPropertyOp53
 70
     1
102
RTVSPropertyOp54
 70
     1
102
RTVSPropertyOp55
 70
     1
102
RTVSPropertyOp56
 70
     1
102
RTVSPropertyOp57
 70
     1
102
RTVSPropertyOp58
 70
     1
102
RTVSPropertyOp59
 70
     1
102
RTVSPropertyOp60
 70
     1
102
RTVSPropertyOp61
 70
     1
102
RTVSPropertyOp62
 70
     1
  0
XRECORD
  5
ECEC
102
{ACAD_REACTORS
330
ECEB
102
}
330
ECEB
100
AcDbXrecord
280
     1
102
RTVSPost2010Prop28
280
     0
102
RTVSPost2010PropOp28
 70
     1
102
RTVSPost2010Prop29
280
     1
102
RTVSPost2010PropOp29
 70
     1
102
RTVSPost2010Prop30
280
     1
102
RTVSPost2010PropOp30
 70
     1
102
RTVSPost2010Prop31
280
     0
102
RTVSPost2010PropOp31
 70
     1
102
RTVSPost2010Prop32
280
     0
102
RTVSPost2010PropOp32
 70
     1
102
RTVSPost2010Prop33
280
     0
102
RTVSPost2010PropOp33
 70
     1
102
RTVSPost2010Prop34
280
     0
102
RTVSPost2010PropOp34
 70
     1
102
RTVSPost2010Prop35
280
     0
102
RTVSPost2010PropOp35
 70
     1
102
RTVSPost2010Prop36
280
     0
102
RTVSPost2010PropOp36
 70
     1
102
RTVSPost2010Prop37
 90
       50
102
RTVSPost2010PropOp37
 70
     1
102
RTVSPost2010Prop38
140
0.0
102
RTVSPost2010PropOp38
 70
     1
102
RTVSPost2010Prop39
140
1.0
102
RTVSPost2010PropOp39
 70
     1
102
RTVSPost2010Prop40
 90
        0
102
RTVSPost2010PropOp40
 70
     1
102
RTVSPost2010Prop41ColorIndex
 90
       18
102
RTVSPost2010Prop41ColorRGB
 90
        0
102
RTVSPost2010PropOp41
 70
     1
102
RTVSPost2010Prop42
 90
       50
102
RTVSPost2010PropOp42
 70
     1
102
RTVSPost2010Prop43
 90
        3
102
RTVSPost2010PropOp43
 70
     1
102
RTVSPost2010Prop44ColorIndex
 90
        5
102
RTVSPost2010Prop44ColorRGB
 90
      255
102
RTVSPost2010PropOp44
 70
     1
102
RTVSPost2010Prop45
280
     0
102
RTVSPost2010PropOp45
 70
     1
102
RTVSPost2010Prop46
 90
       50
102
RTVSPost2010PropOp46
 70
     1
102
RTVSPost2010Prop47
 90
       50
102
RTVSPost2010PropOp47
 70
     1
102
RTVSPost2010Prop48
 90
       50
102
RTVSPost2010PropOp48
 70
     1
102
RTVSPost2010Prop49
280
     0
102
RTVSPost2010PropOp49
 70
     1
102
RTVSPost2010Prop50
 90
       50
102
RTVSPost2010PropOp50
 70
     1
102
RTVSPost2010Prop51ColorIndex
 90
      256
102
RTVSPost2010Prop51ColorRGB
 90
-16777216
102
RTVSPost2010PropOp51
 70
     0
102
RTVSPost2010Prop52
140
1.0
102
RTVSPost2010PropOp52
 70
     0
102
RTVSPost2010Prop53
 90
        2
102
RTVSPost2010PropOp53
 70
     1
102
RTVSPost2010Prop54
  1
strokes_ogs.tif
102
RTVSPost2010PropOp54
 70
     1
102
RTVSPost2010Prop55
280
     0
102
RTVSPost2010PropOp55
 70
     1
102
RTVSPost2010Prop56
140
1.0
102
RTVSPost2010PropOp56
 70
     1
102
RTVSPost2010Prop57
140
1.0
102
RTVSPost2010PropOp57
 70
     1
102
RTVSPropertyOp0
 70
     1
102
RTVSPropertyOp1
 70
     1
102
RTVSPropertyOp2
 70
     1
102
RTVSPropertyOp3
 70
     1
102
RTVSPropertyOp4
 70
     1
102
RTVSPropertyOp5
 70
     1
102
RTVSPropertyOp6
 70
     1
102
RTVSPropertyOp7
 70
     1
102
RTVSPropertyOp8
 70
     1
102
RTVSPropertyOp9
 70
     1
102
RTVSPropertyOp10
 70
     1
102
RTVSPropertyOp11
 70
     1
102
RTVSPropertyOp12
 70
     1
102
RTVSPropertyOp13
 70
     1
102
RTVSPropertyOp14
 70
     1
102
RTVSPropertyOp15
 70
     1
102
RTVSPropertyOp16
 70
     1
102
RTVSPropertyOp17
 70
     1
102
RTVSPropertyOp18
 70
     1
102
RTVSPropertyOp19
 70
     1
102
RTVSPropertyOp20
 70
     1
102
RTVSPropertyOp21
 70
     1
102
RTVSPropertyOp22
 70
     1
102
RTVSPropertyOp23
 70
     1
102
RTVSPropertyOp24
 70
     1
102
RTVSPropertyOp25
 70
     1
102
RTVSPropertyOp26
 70
     1
102
RTVSPropertyOp27
 70
     1
102
RTVSPropertyOp28
 70
     1
102
RTVSPropertyOp29
 70
     1
102
RTVSPropertyOp30
 70
     1
102
RTVSPropertyOp31
 70
     1
102
RTVSPropertyOp32
 70
     1
102
RTVSPropertyOp33
 70
     1
102
RTVSPropertyOp34
 70
     1
102
RTVSPropertyOp35
 70
     1
102
RTVSPropertyOp36
 70
     1
102
RTVSPropertyOp37
 70
     1
102
RTVSPropertyOp38
 70
     1
102
RTVSPropertyOp39
 70
     1
102
RTVSPropertyOp40
 70
     1
102
RTVSPropertyOp41
 70
     1
102
RTVSPropertyOp42
 70
     1
102
RTVSPropertyOp43
 70
     1
102
RTVSPropertyOp44
 70
     1
102
RTVSPropertyOp45
 70
     1
102
RTVSPropertyOp46
 70
     1
102
RTVSPropertyOp47
 70
     1
102
RTVSPropertyOp48
 70
     1
102
RTVSPropertyOp49
 70
     1
102
RTVSPropertyOp50
 70
     1
102
RTVSPropertyOp51
 70
     0
102
RTVSPropertyOp52
 70
     0
102
RTVSPropertyOp53
 70
     1
102
RTVSPropertyOp54
 70
     1
102
RTVSPropertyOp55
 70
     1
102
RTVSPropertyOp56
 70
     1
102
RTVSPropertyOp57
 70
     1
102
RTVSPropertyOp58
 70
     1
102
RTVSPropertyOp59
 70
     1
102
RTVSPropertyOp60
 70
     1
102
RTVSPropertyOp61
 70
     1
102
RTVSPropertyOp62
 70
     1
  0
XRECORD
  5
ED06
102
{ACAD_REACTORS
330
ED05
102
}
330
ED05
100
AcDbXrecord
280
     1
102
RTVSPost2010Prop28
280
     0
102
RTVSPost2010PropOp28
 70
     0
102
RTVSPost2010Prop29
280
     1
102
RTVSPost2010PropOp29
 70
     0
102
RTVSPost2010Prop30
280
     1
102
RTVSPost2010PropOp30
 70
     0
102
RTVSPost2010Prop31
280
     0
102
RTVSPost2010PropOp31
 70
     0
102
RTVSPost2010Prop32
280
     0
102
RTVSPost2010PropOp32
 70
     0
102
RTVSPost2010Prop33
280
     0
102
RTVSPost2010PropOp33
 70
     0
102
RTVSPost2010Prop34
280
     0
102
RTVSPost2010PropOp34
 70
     0
102
RTVSPost2010Prop35
280
     0
102
RTVSPost2010PropOp35
 70
     0
102
RTVSPost2010Prop36
280
     0
102
RTVSPost2010PropOp36
 70
     0
102
RTVSPost2010Prop37
 90
       50
102
RTVSPost2010PropOp37
 70
     0
102
RTVSPost2010Prop38
140
0.0
102
RTVSPost2010PropOp38
 70
     0
102
RTVSPost2010Prop39
140
1.0
102
RTVSPost2010PropOp39
 70
     0
102
RTVSPost2010Prop40
 90
        0
102
RTVSPost2010PropOp40
 70
     0
102
RTVSPost2010Prop41ColorIndex
 90
       18
102
RTVSPost2010Prop41ColorRGB
 90
        0
102
RTVSPost2010PropOp41
 70
     0
102
RTVSPost2010Prop42
 90
       50
102
RTVSPost2010PropOp42
 70
     0
102
RTVSPost2010Prop43
 90
        3
102
RTVSPost2010PropOp43
 70
     0
102
RTVSPost2010Prop44ColorIndex
 90
        5
102
RTVSPost2010Prop44ColorRGB
 90
      255
102
RTVSPost2010PropOp44
 70
     0
102
RTVSPost2010Prop45
280
     0
102
RTVSPost2010PropOp45
 70
     0
102
RTVSPost2010Prop46
 90
       50
102
RTVSPost2010PropOp46
 70
     0
102
RTVSPost2010Prop47
 90
       50
102
RTVSPost2010PropOp47
 70
     0
102
RTVSPost2010Prop48
 90
       50
102
RTVSPost2010PropOp48
 70
     0
102
RTVSPost2010Prop49
280
     0
102
RTVSPost2010PropOp49
 70
     0
102
RTVSPost2010Prop50
 90
       50
102
RTVSPost2010PropOp50
 70
     0
102
RTVSPost2010Prop51ColorIndex
 90
      256
102
RTVSPost2010Prop51ColorRGB
 90
-16777216
102
RTVSPost2010PropOp51
 70
     0
102
RTVSPost2010Prop52
140
1.0
102
RTVSPost2010PropOp52
 70
     0
102
RTVSPost2010Prop53
 90
        2
102
RTVSPost2010PropOp53
 70
     0
102
RTVSPost2010Prop54
  1
strokes_ogs.tif
102
RTVSPost2010PropOp54
 70
     0
102
RTVSPost2010Prop55
280
     0
102
RTVSPost2010PropOp55
 70
     0
102
RTVSPost2010Prop56
140
1.0
102
RTVSPost2010PropOp56
 70
     0
102
RTVSPost2010Prop57
140
1.0
102
RTVSPost2010PropOp57
 70
     0
102
RTVSPropertyOp0
 70
     0
102
RTVSPropertyOp1
 70
     0
102
RTVSPropertyOp2
 70
     0
102
RTVSPropertyOp3
 70
     0
102
RTVSPropertyOp4
 70
     0
102
RTVSPropertyOp5
 70
     0
102
RTVSPropertyOp6
 70
     0
102
RTVSPropertyOp7
 70
     0
102
RTVSPropertyOp8
 70
     0
102
RTVSPropertyOp9
 70
     0
102
RTVSPropertyOp10
 70
     0
102
RTVSPropertyOp11
 70
     0
102
RTVSPropertyOp12
 70
     0
102
RTVSPropertyOp13
 70
     0
102
RTVSPropertyOp14
 70
     2
102
RTVSPropertyOp15
 70
     0
102
RTVSPropertyOp16
 70
     0
102
RTVSPropertyOp17
 70
     0
102
RTVSPropertyOp18
 70
     0
102
RTVSPropertyOp19
 70
     0
102
RTVSPropertyOp20
 70
     0
102
RTVSPropertyOp21
 70
     0
102
RTVSPropertyOp22
 70
     0
102
RTVSPropertyOp23
 70
     0
102
RTVSPropertyOp24
 70
     0
102
RTVSPropertyOp25
 70
     0
102
RTVSPropertyOp26
 70
     0
102
RTVSPropertyOp27
 70
     0
102
RTVSPropertyOp28
 70
     0
102
RTVSPropertyOp29
 70
     0
102
RTVSPropertyOp30
 70
     0
102
RTVSPropertyOp31
 70
     0
102
RTVSPropertyOp32
 70
     0
102
RTVSPropertyOp33
 70
     0
102
RTVSPropertyOp34
 70
     0
102
RTVSPropertyOp35
 70
     0
102
RTVSPropertyOp36
 70
     0
102
RTVSPropertyOp37
 70
     0
102
RTVSPropertyOp38
 70
     0
102
RTVSPropertyOp39
 70
     0
102
RTVSPropertyOp40
 70
     0
102
RTVSPropertyOp41
 70
     0
102
RTVSPropertyOp42
 70
     0
102
RTVSPropertyOp43
 70
     0
102
RTVSPropertyOp44
 70
     0
102
RTVSPropertyOp45
 70
     0
102
RTVSPropertyOp46
 70
     0
102
RTVSPropertyOp47
 70
     0
102
RTVSPropertyOp48
 70
     0
102
RTVSPropertyOp49
 70
     0
102
RTVSPropertyOp50
 70
     0
102
RTVSPropertyOp51
 70
     0
102
RTVSPropertyOp52
 70
     0
102
RTVSPropertyOp53
 70
     0
102
RTVSPropertyOp54
 70
     0
102
RTVSPropertyOp55
 70
     0
102
RTVSPropertyOp56
 70
     0
102
RTVSPropertyOp57
 70
     0
102
RTVSPropertyOp58
 70
     0
102
RTVSPropertyOp59
 70
     0
102
RTVSPropertyOp60
 70
     0
102
RTVSPropertyOp61
 70
     0
102
RTVSPropertyOp62
 70
     0
  0
XRECORD
  5
ECF4
102
{ACAD_REACTORS
330
ECF3
102
}
330
ECF3
100
AcDbXrecord
280
     1
102
RTVSPost2010Prop28
280
     0
102
RTVSPost2010PropOp28
 70
     1
102
RTVSPost2010Prop29
280
     1
102
RTVSPost2010PropOp29
 70
     1
102
RTVSPost2010Prop30
280
     1
102
RTVSPost2010PropOp30
 70
     1
102
RTVSPost2010Prop31
280
     0
102
RTVSPost2010PropOp31
 70
     1
102
RTVSPost2010Prop32
280
     0
102
RTVSPost2010PropOp32
 70
     1
102
RTVSPost2010Prop33
280
     0
102
RTVSPost2010PropOp33
 70
     1
102
RTVSPost2010Prop34
280
     0
102
RTVSPost2010PropOp34
 70
     1
102
RTVSPost2010Prop35
280
     0
102
RTVSPost2010PropOp35
 70
     1
102
RTVSPost2010Prop36
280
     0
102
RTVSPost2010PropOp36
 70
     1
102
RTVSPost2010Prop37
 90
       50
102
RTVSPost2010PropOp37
 70
     1
102
RTVSPost2010Prop38
140
0.0
102
RTVSPost2010PropOp38
 70
     1
102
RTVSPost2010Prop39
140
1.0
102
RTVSPost2010PropOp39
 70
     1
102
RTVSPost2010Prop40
 90
        0
102
RTVSPost2010PropOp40
 70
     1
102
RTVSPost2010Prop41ColorIndex
 90
       18
102
RTVSPost2010Prop41ColorRGB
 90
        0
102
RTVSPost2010PropOp41
 70
     1
102
RTVSPost2010Prop42
 90
       50
102
RTVSPost2010PropOp42
 70
     1
102
RTVSPost2010Prop43
 90
        3
102
RTVSPost2010PropOp43
 70
     1
102
RTVSPost2010Prop44ColorIndex
 90
        5
102
RTVSPost2010Prop44ColorRGB
 90
      255
102
RTVSPost2010PropOp44
 70
     1
102
RTVSPost2010Prop45
280
     0
102
RTVSPost2010PropOp45
 70
     1
102
RTVSPost2010Prop46
 90
       50
102
RTVSPost2010PropOp46
 70
     1
102
RTVSPost2010Prop47
 90
       50
102
RTVSPost2010PropOp47
 70
     1
102
RTVSPost2010Prop48
 90
       50
102
RTVSPost2010PropOp48
 70
     1
102
RTVSPost2010Prop49
280
     0
102
RTVSPost2010PropOp49
 70
     1
102
RTVSPost2010Prop50
 90
       50
102
RTVSPost2010PropOp50
 70
     1
102
RTVSPost2010Prop51ColorIndex
 90
      256
102
RTVSPost2010Prop51ColorRGB
 90
-16777216
102
RTVSPost2010PropOp51
 70
     0
102
RTVSPost2010Prop52
140
1.0
102
RTVSPost2010PropOp52
 70
     0
102
RTVSPost2010Prop53
 90
        2
102
RTVSPost2010PropOp53
 70
     1
102
RTVSPost2010Prop54
  1
strokes_ogs.tif
102
RTVSPost2010PropOp54
 70
     1
102
RTVSPost2010Prop55
280
     0
102
RTVSPost2010PropOp55
 70
     1
102
RTVSPost2010Prop56
140
1.0
102
RTVSPost2010PropOp56
 70
     1
102
RTVSPost2010Prop57
140
1.0
102
RTVSPost2010PropOp57
 70
     1
102
RTVSPropertyOp0
 70
     1
102
RTVSPropertyOp1
 70
     1
102
RTVSPropertyOp2
 70
     1
102
RTVSPropertyOp3
 70
     1
102
RTVSPropertyOp4
 70
     1
102
RTVSPropertyOp5
 70
     1
102
RTVSPropertyOp6
 70
     1
102
RTVSPropertyOp7
 70
     1
102
RTVSPropertyOp8
 70
     1
102
RTVSPropertyOp9
 70
     1
102
RTVSPropertyOp10
 70
     1
102
RTVSPropertyOp11
 70
     1
102
RTVSPropertyOp12
 70
     1
102
RTVSPropertyOp13
 70
     1
102
RTVSPropertyOp14
 70
     1
102
RTVSPropertyOp15
 70
     1
102
RTVSPropertyOp16
 70
     1
102
RTVSPropertyOp17
 70
     1
102
RTVSPropertyOp18
 70
     1
102
RTVSPropertyOp19
 70
     1
102
RTVSPropertyOp20
 70
     1
102
RTVSPropertyOp21
 70
     1
102
RTVSPropertyOp22
 70
     1
102
RTVSPropertyOp23
 70
     1
102
RTVSPropertyOp24
 70
     1
102
RTVSPropertyOp25
 70
     1
102
RTVSPropertyOp26
 70
     1
102
RTVSPropertyOp27
 70
     1
102
RTVSPropertyOp28
 70
     1
102
RTVSPropertyOp29
 70
     1
102
RTVSPropertyOp30
 70
     1
102
RTVSPropertyOp31
 70
     1
102
RTVSPropertyOp32
 70
     1
102
RTVSPropertyOp33
 70
     1
102
RTVSPropertyOp34
 70
     1
102
RTVSPropertyOp35
 70
     1
102
RTVSPropertyOp36
 70
     1
102
RTVSPropertyOp37
 70
     1
102
RTVSPropertyOp38
 70
     1
102
RTVSPropertyOp39
 70
     1
102
RTVSPropertyOp40
 70
     1
102
RTVSPropertyOp41
 70
     1
102
RTVSPropertyOp42
 70
     1
102
RTVSPropertyOp43
 70
     1
102
RTVSPropertyOp44
 70
     1
102
RTVSPropertyOp45
 70
     1
102
RTVSPropertyOp46
 70
     1
102
RTVSPropertyOp47
 70
     1
102
RTVSPropertyOp48
 70
     1
102
RTVSPropertyOp49
 70
     1
102
RTVSPropertyOp50
 70
     1
102
RTVSPropertyOp51
 70
     0
102
RTVSPropertyOp52
 70
     0
102
RTVSPropertyOp53
 70
     1
102
RTVSPropertyOp54
 70
     1
102
RTVSPropertyOp55
 70
     1
102
RTVSPropertyOp56
 70
     1
102
RTVSPropertyOp57
 70
     1
102
RTVSPropertyOp58
 70
     1
102
RTVSPropertyOp59
 70
     1
102
RTVSPropertyOp60
 70
     1
102
RTVSPropertyOp61
 70
     1
102
RTVSPropertyOp62
 70
     1
  0
XRECORD
  5
ECD8
102
{ACAD_REACTORS
330
ECD7
102
}
330
ECD7
100
AcDbXrecord
280
     1
102
RTVSPost2010Prop28
280
     0
102
RTVSPost2010PropOp28
 70
     1
102
RTVSPost2010Prop29
280
     1
102
RTVSPost2010PropOp29
 70
     1
102
RTVSPost2010Prop30
280
     1
102
RTVSPost2010PropOp30
 70
     1
102
RTVSPost2010Prop31
280
     0
102
RTVSPost2010PropOp31
 70
     1
102
RTVSPost2010Prop32
280
     0
102
RTVSPost2010PropOp32
 70
     1
102
RTVSPost2010Prop33
280
     0
102
RTVSPost2010PropOp33
 70
     1
102
RTVSPost2010Prop34
280
     0
102
RTVSPost2010PropOp34
 70
     1
102
RTVSPost2010Prop35
280
     0
102
RTVSPost2010PropOp35
 70
     1
102
RTVSPost2010Prop36
280
     0
102
RTVSPost2010PropOp36
 70
     1
102
RTVSPost2010Prop37
 90
       50
102
RTVSPost2010PropOp37
 70
     1
102
RTVSPost2010Prop38
140
0.0
102
RTVSPost2010PropOp38
 70
     1
102
RTVSPost2010Prop39
140
1.0
102
RTVSPost2010PropOp39
 70
     1
102
RTVSPost2010Prop40
 90
        0
102
RTVSPost2010PropOp40
 70
     1
102
RTVSPost2010Prop41ColorIndex
 90
       18
102
RTVSPost2010Prop41ColorRGB
 90
        0
102
RTVSPost2010PropOp41
 70
     1
102
RTVSPost2010Prop42
 90
       50
102
RTVSPost2010PropOp42
 70
     1
102
RTVSPost2010Prop43
 90
        3
102
RTVSPost2010PropOp43
 70
     1
102
RTVSPost2010Prop44ColorIndex
 90
        5
102
RTVSPost2010Prop44ColorRGB
 90
      255
102
RTVSPost2010PropOp44
 70
     1
102
RTVSPost2010Prop45
280
     0
102
RTVSPost2010PropOp45
 70
     1
102
RTVSPost2010Prop46
 90
       50
102
RTVSPost2010PropOp46
 70
     1
102
RTVSPost2010Prop47
 90
       50
102
RTVSPost2010PropOp47
 70
     1
102
RTVSPost2010Prop48
 90
       50
102
RTVSPost2010PropOp48
 70
     1
102
RTVSPost2010Prop49
280
     0
102
RTVSPost2010PropOp49
 70
     1
102
RTVSPost2010Prop50
 90
       50
102
RTVSPost2010PropOp50
 70
     1
102
RTVSPost2010Prop51ColorIndex
 90
      256
102
RTVSPost2010Prop51ColorRGB
 90
-16777216
102
RTVSPost2010PropOp51
 70
     0
102
RTVSPost2010Prop52
140
1.0
102
RTVSPost2010PropOp52
 70
     0
102
RTVSPost2010Prop53
 90
        2
102
RTVSPost2010PropOp53
 70
     1
102
RTVSPost2010Prop54
  1
strokes_ogs.tif
102
RTVSPost2010PropOp54
 70
     1
102
RTVSPost2010Prop55
280
     0
102
RTVSPost2010PropOp55
 70
     1
102
RTVSPost2010Prop56
140
1.0
102
RTVSPost2010PropOp56
 70
     1
102
RTVSPost2010Prop57
140
1.0
102
RTVSPost2010PropOp57
 70
     1
102
RTVSPropertyOp0
 70
     1
102
RTVSPropertyOp1
 70
     1
102
RTVSPropertyOp2
 70
     1
102
RTVSPropertyOp3
 70
     1
102
RTVSPropertyOp4
 70
     1
102
RTVSPropertyOp5
 70
     1
102
RTVSPropertyOp6
 70
     1
102
RTVSPropertyOp7
 70
     1
102
RTVSPropertyOp8
 70
     1
102
RTVSPropertyOp9
 70
     1
102
RTVSPropertyOp10
 70
     1
102
RTVSPropertyOp11
 70
     1
102
RTVSPropertyOp12
 70
     1
102
RTVSPropertyOp13
 70
     1
102
RTVSPropertyOp14
 70
     1
102
RTVSPropertyOp15
 70
     1
102
RTVSPropertyOp16
 70
     1
102
RTVSPropertyOp17
 70
     1
102
RTVSPropertyOp18
 70
     1
102
RTVSPropertyOp19
 70
     1
102
RTVSPropertyOp20
 70
     1
102
RTVSPropertyOp21
 70
     1
102
RTVSPropertyOp22
 70
     1
102
RTVSPropertyOp23
 70
     1
102
RTVSPropertyOp24
 70
     1
102
RTVSPropertyOp25
 70
     1
102
RTVSPropertyOp26
 70
     1
102
RTVSPropertyOp27
 70
     1
102
RTVSPropertyOp28
 70
     1
102
RTVSPropertyOp29
 70
     1
102
RTVSPropertyOp30
 70
     1
102
RTVSPropertyOp31
 70
     1
102
RTVSPropertyOp32
 70
     1
102
RTVSPropertyOp33
 70
     1
102
RTVSPropertyOp34
 70
     1
102
RTVSPropertyOp35
 70
     1
102
RTVSPropertyOp36
 70
     1
102
RTVSPropertyOp37
 70
     1
102
RTVSPropertyOp38
 70
     1
102
RTVSPropertyOp39
 70
     1
102
RTVSPropertyOp40
 70
     1
102
RTVSPropertyOp41
 70
     1
102
RTVSPropertyOp42
 70
     1
102
RTVSPropertyOp43
 70
     1
102
RTVSPropertyOp44
 70
     1
102
RTVSPropertyOp45
 70
     1
102
RTVSPropertyOp46
 70
     1
102
RTVSPropertyOp47
 70
     1
102
RTVSPropertyOp48
 70
     1
102
RTVSPropertyOp49
 70
     1
102
RTVSPropertyOp50
 70
     1
102
RTVSPropertyOp51
 70
     0
102
RTVSPropertyOp52
 70
     0
102
RTVSPropertyOp53
 70
     1
102
RTVSPropertyOp54
 70
     1
102
RTVSPropertyOp55
 70
     1
102
RTVSPropertyOp56
 70
     1
102
RTVSPropertyOp57
 70
     1
102
RTVSPropertyOp58
 70
     1
102
RTVSPropertyOp59
 70
     1
102
RTVSPropertyOp60
 70
     1
102
RTVSPropertyOp61
 70
     1
102
RTVSPropertyOp62
 70
     1
  0
XRECORD
  5
ECDA
102
{ACAD_REACTORS
330
ECD9
102
}
330
ECD9
100
AcDbXrecord
280
     1
102
RTVSPost2010Prop28
280
     0
102
RTVSPost2010PropOp28
 70
     1
102
RTVSPost2010Prop29
280
     1
102
RTVSPost2010PropOp29
 70
     1
102
RTVSPost2010Prop30
280
     1
102
RTVSPost2010PropOp30
 70
     1
102
RTVSPost2010Prop31
280
     0
102
RTVSPost2010PropOp31
 70
     1
102
RTVSPost2010Prop32
280
     0
102
RTVSPost2010PropOp32
 70
     1
102
RTVSPost2010Prop33
280
     0
102
RTVSPost2010PropOp33
 70
     1
102
RTVSPost2010Prop34
280
     0
102
RTVSPost2010PropOp34
 70
     1
102
RTVSPost2010Prop35
280
     0
102
RTVSPost2010PropOp35
 70
     1
102
RTVSPost2010Prop36
280
     0
102
RTVSPost2010PropOp36
 70
     1
102
RTVSPost2010Prop37
 90
       50
102
RTVSPost2010PropOp37
 70
     1
102
RTVSPost2010Prop38
140
0.0
102
RTVSPost2010PropOp38
 70
     1
102
RTVSPost2010Prop39
140
1.0
102
RTVSPost2010PropOp39
 70
     1
102
RTVSPost2010Prop40
 90
        0
102
RTVSPost2010PropOp40
 70
     1
102
RTVSPost2010Prop41ColorIndex
 90
       18
102
RTVSPost2010Prop41ColorRGB
 90
        0
102
RTVSPost2010PropOp41
 70
     1
102
RTVSPost2010Prop42
 90
       50
102
RTVSPost2010PropOp42
 70
     1
102
RTVSPost2010Prop43
 90
        3
102
RTVSPost2010PropOp43
 70
     1
102
RTVSPost2010Prop44ColorIndex
 90
        5
102
RTVSPost2010Prop44ColorRGB
 90
      255
102
RTVSPost2010PropOp44
 70
     1
102
RTVSPost2010Prop45
280
     0
102
RTVSPost2010PropOp45
 70
     1
102
RTVSPost2010Prop46
 90
       50
102
RTVSPost2010PropOp46
 70
     1
102
RTVSPost2010Prop47
 90
       50
102
RTVSPost2010PropOp47
 70
     1
102
RTVSPost2010Prop48
 90
       50
102
RTVSPost2010PropOp48
 70
     1
102
RTVSPost2010Prop49
280
     0
102
RTVSPost2010PropOp49
 70
     1
102
RTVSPost2010Prop50
 90
       50
102
RTVSPost2010PropOp50
 70
     1
102
RTVSPost2010Prop51ColorIndex
 90
      256
102
RTVSPost2010Prop51ColorRGB
 90
-16777216
102
RTVSPost2010PropOp51
 70
     0
102
RTVSPost2010Prop52
140
1.0
102
RTVSPost2010PropOp52
 70
     0
102
RTVSPost2010Prop53
 90
        2
102
RTVSPost2010PropOp53
 70
     1
102
RTVSPost2010Prop54
  1
strokes_ogs.tif
102
RTVSPost2010PropOp54
 70
     1
102
RTVSPost2010Prop55
280
     0
102
RTVSPost2010PropOp55
 70
     1
102
RTVSPost2010Prop56
140
1.0
102
RTVSPost2010PropOp56
 70
     1
102
RTVSPost2010Prop57
140
1.0
102
RTVSPost2010PropOp57
 70
     1
102
RTVSPropertyOp0
 70
     1
102
RTVSPropertyOp1
 70
     1
102
RTVSPropertyOp2
 70
     1
102
RTVSPropertyOp3
 70
     1
102
RTVSPropertyOp4
 70
     1
102
RTVSPropertyOp5
 70
     1
102
RTVSPropertyOp6
 70
     1
102
RTVSPropertyOp7
 70
     1
102
RTVSPropertyOp8
 70
     1
102
RTVSPropertyOp9
 70
     1
102
RTVSPropertyOp10
 70
     1
102
RTVSPropertyOp11
 70
     1
102
RTVSPropertyOp12
 70
     1
102
RTVSPropertyOp13
 70
     1
102
RTVSPropertyOp14
 70
     1
102
RTVSPropertyOp15
 70
     1
102
RTVSPropertyOp16
 70
     1
102
RTVSPropertyOp17
 70
     1
102
RTVSPropertyOp18
 70
     1
102
RTVSPropertyOp19
 70
     1
102
RTVSPropertyOp20
 70
     1
102
RTVSPropertyOp21
 70
     1
102
RTVSPropertyOp22
 70
     1
102
RTVSPropertyOp23
 70
     1
102
RTVSPropertyOp24
 70
     1
102
RTVSPropertyOp25
 70
     1
102
RTVSPropertyOp26
 70
     1
102
RTVSPropertyOp27
 70
     1
102
RTVSPropertyOp28
 70
     1
102
RTVSPropertyOp29
 70
     1
102
RTVSPropertyOp30
 70
     1
102
RTVSPropertyOp31
 70
     1
102
RTVSPropertyOp32
 70
     1
102
RTVSPropertyOp33
 70
     1
102
RTVSPropertyOp34
 70
     1
102
RTVSPropertyOp35
 70
     1
102
RTVSPropertyOp36
 70
     1
102
RTVSPropertyOp37
 70
     1
102
RTVSPropertyOp38
 70
     1
102
RTVSPropertyOp39
 70
     1
102
RTVSPropertyOp40
 70
     1
102
RTVSPropertyOp41
 70
     1
102
RTVSPropertyOp42
 70
     1
102
RTVSPropertyOp43
 70
     1
102
RTVSPropertyOp44
 70
     1
102
RTVSPropertyOp45
 70
     1
102
RTVSPropertyOp46
 70
     1
102
RTVSPropertyOp47
 70
     1
102
RTVSPropertyOp48
 70
     1
102
RTVSPropertyOp49
 70
     1
102
RTVSPropertyOp50
 70
     1
102
RTVSPropertyOp51
 70
     0
102
RTVSPropertyOp52
 70
     0
102
RTVSPropertyOp53
 70
     1
102
RTVSPropertyOp54
 70
     1
102
RTVSPropertyOp55
 70
     1
102
RTVSPropertyOp56
 70
     1
102
RTVSPropertyOp57
 70
     1
102
RTVSPropertyOp58
 70
     1
102
RTVSPropertyOp59
 70
     1
102
RTVSPropertyOp60
 70
     1
102
RTVSPropertyOp61
 70
     1
102
RTVSPropertyOp62
 70
     1
  0
XRECORD
  5
ECDC
102
{ACAD_REACTORS
330
ECDB
102
}
330
ECDB
100
AcDbXrecord
280
     1
102
RTVSPost2010Prop28
280
     0
102
RTVSPost2010PropOp28
 70
     1
102
RTVSPost2010Prop29
280
     1
102
RTVSPost2010PropOp29
 70
     1
102
RTVSPost2010Prop30
280
     1
102
RTVSPost2010PropOp30
 70
     1
102
RTVSPost2010Prop31
280
     0
102
RTVSPost2010PropOp31
 70
     1
102
RTVSPost2010Prop32
280
     0
102
RTVSPost2010PropOp32
 70
     1
102
RTVSPost2010Prop33
280
     0
102
RTVSPost2010PropOp33
 70
     1
102
RTVSPost2010Prop34
280
     0
102
RTVSPost2010PropOp34
 70
     1
102
RTVSPost2010Prop35
280
     0
102
RTVSPost2010PropOp35
 70
     1
102
RTVSPost2010Prop36
280
     0
102
RTVSPost2010PropOp36
 70
     1
102
RTVSPost2010Prop37
 90
       50
102
RTVSPost2010PropOp37
 70
     1
102
RTVSPost2010Prop38
140
0.0
102
RTVSPost2010PropOp38
 70
     1
102
RTVSPost2010Prop39
140
1.0
102
RTVSPost2010PropOp39
 70
     1
102
RTVSPost2010Prop40
 90
        0
102
RTVSPost2010PropOp40
 70
     1
102
RTVSPost2010Prop41ColorIndex
 90
       18
102
RTVSPost2010Prop41ColorRGB
 90
        0
102
RTVSPost2010PropOp41
 70
     1
102
RTVSPost2010Prop42
 90
       50
102
RTVSPost2010PropOp42
 70
     1
102
RTVSPost2010Prop43
 90
        3
102
RTVSPost2010PropOp43
 70
     1
102
RTVSPost2010Prop44ColorIndex
 90
        5
102
RTVSPost2010Prop44ColorRGB
 90
      255
102
RTVSPost2010PropOp44
 70
     1
102
RTVSPost2010Prop45
280
     0
102
RTVSPost2010PropOp45
 70
     1
102
RTVSPost2010Prop46
 90
       50
102
RTVSPost2010PropOp46
 70
     1
102
RTVSPost2010Prop47
 90
       50
102
RTVSPost2010PropOp47
 70
     1
102
RTVSPost2010Prop48
 90
       50
102
RTVSPost2010PropOp48
 70
     1
102
RTVSPost2010Prop49
280
     0
102
RTVSPost2010PropOp49
 70
     1
102
RTVSPost2010Prop50
 90
       50
102
RTVSPost2010PropOp50
 70
     1
102
RTVSPost2010Prop51ColorIndex
 90
      256
102
RTVSPost2010Prop51ColorRGB
 90
-16777216
102
RTVSPost2010PropOp51
 70
     0
102
RTVSPost2010Prop52
140
1.0
102
RTVSPost2010PropOp52
 70
     0
102
RTVSPost2010Prop53
 90
        2
102
RTVSPost2010PropOp53
 70
     1
102
RTVSPost2010Prop54
  1
strokes_ogs.tif
102
RTVSPost2010PropOp54
 70
     1
102
RTVSPost2010Prop55
280
     0
102
RTVSPost2010PropOp55
 70
     1
102
RTVSPost2010Prop56
140
1.0
102
RTVSPost2010PropOp56
 70
     1
102
RTVSPost2010Prop57
140
1.0
102
RTVSPost2010PropOp57
 70
     1
102
RTVSPropertyOp0
 70
     1
102
RTVSPropertyOp1
 70
     1
102
RTVSPropertyOp2
 70
     1
102
RTVSPropertyOp3
 70
     1
102
RTVSPropertyOp4
 70
     1
102
RTVSPropertyOp5
 70
     1
102
RTVSPropertyOp6
 70
     1
102
RTVSPropertyOp7
 70
     1
102
RTVSPropertyOp8
 70
     1
102
RTVSPropertyOp9
 70
     1
102
RTVSPropertyOp10
 70
     1
102
RTVSPropertyOp11
 70
     1
102
RTVSPropertyOp12
 70
     1
102
RTVSPropertyOp13
 70
     1
102
RTVSPropertyOp14
 70
     1
102
RTVSPropertyOp15
 70
     1
102
RTVSPropertyOp16
 70
     1
102
RTVSPropertyOp17
 70
     1
102
RTVSPropertyOp18
 70
     1
102
RTVSPropertyOp19
 70
     1
102
RTVSPropertyOp20
 70
     1
102
RTVSPropertyOp21
 70
     1
102
RTVSPropertyOp22
 70
     1
102
RTVSPropertyOp23
 70
     1
102
RTVSPropertyOp24
 70
     1
102
RTVSPropertyOp25
 70
     1
102
RTVSPropertyOp26
 70
     1
102
RTVSPropertyOp27
 70
     1
102
RTVSPropertyOp28
 70
     1
102
RTVSPropertyOp29
 70
     1
102
RTVSPropertyOp30
 70
     1
102
RTVSPropertyOp31
 70
     1
102
RTVSPropertyOp32
 70
     1
102
RTVSPropertyOp33
 70
     1
102
RTVSPropertyOp34
 70
     1
102
RTVSPropertyOp35
 70
     1
102
RTVSPropertyOp36
 70
     1
102
RTVSPropertyOp37
 70
     1
102
RTVSPropertyOp38
 70
     1
102
RTVSPropertyOp39
 70
     1
102
RTVSPropertyOp40
 70
     1
102
RTVSPropertyOp41
 70
     1
102
RTVSPropertyOp42
 70
     1
102
RTVSPropertyOp43
 70
     1
102
RTVSPropertyOp44
 70
     1
102
RTVSPropertyOp45
 70
     1
102
RTVSPropertyOp46
 70
     1
102
RTVSPropertyOp47
 70
     1
102
RTVSPropertyOp48
 70
     1
102
RTVSPropertyOp49
 70
     1
102
RTVSPropertyOp50
 70
     1
102
RTVSPropertyOp51
 70
     0
102
RTVSPropertyOp52
 70
     0
102
RTVSPropertyOp53
 70
     1
102
RTVSPropertyOp54
 70
     1
102
RTVSPropertyOp55
 70
     1
102
RTVSPropertyOp56
 70
     1
102
RTVSPropertyOp57
 70
     1
102
RTVSPropertyOp58
 70
     1
102
RTVSPropertyOp59
 70
     1
102
RTVSPropertyOp60
 70
     1
102
RTVSPropertyOp61
 70
     1
102
RTVSPropertyOp62
 70
     1
  0
XRECORD
  5
ECDE
102
{ACAD_REACTORS
330
ECDD
102
}
330
ECDD
100
AcDbXrecord
280
     1
102
RTVSPost2010Prop28
280
     0
102
RTVSPost2010PropOp28
 70
     1
102
RTVSPost2010Prop29
280
     1
102
RTVSPost2010PropOp29
 70
     1
102
RTVSPost2010Prop30
280
     1
102
RTVSPost2010PropOp30
 70
     1
102
RTVSPost2010Prop31
280
     0
102
RTVSPost2010PropOp31
 70
     1
102
RTVSPost2010Prop32
280
     0
102
RTVSPost2010PropOp32
 70
     1
102
RTVSPost2010Prop33
280
     0
102
RTVSPost2010PropOp33
 70
     1
102
RTVSPost2010Prop34
280
     0
102
RTVSPost2010PropOp34
 70
     1
102
RTVSPost2010Prop35
280
     0
102
RTVSPost2010PropOp35
 70
     1
102
RTVSPost2010Prop36
280
     0
102
RTVSPost2010PropOp36
 70
     1
102
RTVSPost2010Prop37
 90
       50
102
RTVSPost2010PropOp37
 70
     1
102
RTVSPost2010Prop38
140
0.0
102
RTVSPost2010PropOp38
 70
     1
102
RTVSPost2010Prop39
140
1.0
102
RTVSPost2010PropOp39
 70
     1
102
RTVSPost2010Prop40
 90
        0
102
RTVSPost2010PropOp40
 70
     1
102
RTVSPost2010Prop41ColorIndex
 90
       18
102
RTVSPost2010Prop41ColorRGB
 90
        0
102
RTVSPost2010PropOp41
 70
     1
102
RTVSPost2010Prop42
 90
       50
102
RTVSPost2010PropOp42
 70
     1
102
RTVSPost2010Prop43
 90
        3
102
RTVSPost2010PropOp43
 70
     1
102
RTVSPost2010Prop44ColorIndex
 90
        5
102
RTVSPost2010Prop44ColorRGB
 90
      255
102
RTVSPost2010PropOp44
 70
     1
102
RTVSPost2010Prop45
280
     0
102
RTVSPost2010PropOp45
 70
     1
102
RTVSPost2010Prop46
 90
       50
102
RTVSPost2010PropOp46
 70
     1
102
RTVSPost2010Prop47
 90
       50
102
RTVSPost2010PropOp47
 70
     1
102
RTVSPost2010Prop48
 90
       50
102
RTVSPost2010PropOp48
 70
     1
102
RTVSPost2010Prop49
280
     0
102
RTVSPost2010PropOp49
 70
     1
102
RTVSPost2010Prop50
 90
       50
102
RTVSPost2010PropOp50
 70
     1
102
RTVSPost2010Prop51ColorIndex
 90
      256
102
RTVSPost2010Prop51ColorRGB
 90
-16777216
102
RTVSPost2010PropOp51
 70
     0
102
RTVSPost2010Prop52
140
1.0
102
RTVSPost2010PropOp52
 70
     0
102
RTVSPost2010Prop53
 90
        2
102
RTVSPost2010PropOp53
 70
     1
102
RTVSPost2010Prop54
  1
strokes_ogs.tif
102
RTVSPost2010PropOp54
 70
     1
102
RTVSPost2010Prop55
280
     0
102
RTVSPost2010PropOp55
 70
     1
102
RTVSPost2010Prop56
140
1.0
102
RTVSPost2010PropOp56
 70
     1
102
RTVSPost2010Prop57
140
1.0
102
RTVSPost2010PropOp57
 70
     1
102
RTVSPropertyOp0
 70
     1
102
RTVSPropertyOp1
 70
     1
102
RTVSPropertyOp2
 70
     1
102
RTVSPropertyOp3
 70
     1
102
RTVSPropertyOp4
 70
     1
102
RTVSPropertyOp5
 70
     1
102
RTVSPropertyOp6
 70
     1
102
RTVSPropertyOp7
 70
     1
102
RTVSPropertyOp8
 70
     1
102
RTVSPropertyOp9
 70
     1
102
RTVSPropertyOp10
 70
     1
102
RTVSPropertyOp11
 70
     1
102
RTVSPropertyOp12
 70
     1
102
RTVSPropertyOp13
 70
     1
102
RTVSPropertyOp14
 70
     1
102
RTVSPropertyOp15
 70
     1
102
RTVSPropertyOp16
 70
     1
102
RTVSPropertyOp17
 70
     1
102
RTVSPropertyOp18
 70
     1
102
RTVSPropertyOp19
 70
     1
102
RTVSPropertyOp20
 70
     1
102
RTVSPropertyOp21
 70
     1
102
RTVSPropertyOp22
 70
     1
102
RTVSPropertyOp23
 70
     1
102
RTVSPropertyOp24
 70
     1
102
RTVSPropertyOp25
 70
     1
102
RTVSPropertyOp26
 70
     1
102
RTVSPropertyOp27
 70
     1
102
RTVSPropertyOp28
 70
     1
102
RTVSPropertyOp29
 70
     1
102
RTVSPropertyOp30
 70
     1
102
RTVSPropertyOp31
 70
     1
102
RTVSPropertyOp32
 70
     1
102
RTVSPropertyOp33
 70
     1
102
RTVSPropertyOp34
 70
     1
102
RTVSPropertyOp35
 70
     1
102
RTVSPropertyOp36
 70
     1
102
RTVSPropertyOp37
 70
     1
102
RTVSPropertyOp38
 70
     1
102
RTVSPropertyOp39
 70
     1
102
RTVSPropertyOp40
 70
     1
102
RTVSPropertyOp41
 70
     1
102
RTVSPropertyOp42
 70
     1
102
RTVSPropertyOp43
 70
     1
102
RTVSPropertyOp44
 70
     1
102
RTVSPropertyOp45
 70
     1
102
RTVSPropertyOp46
 70
     1
102
RTVSPropertyOp47
 70
     1
102
RTVSPropertyOp48
 70
     1
102
RTVSPropertyOp49
 70
     1
102
RTVSPropertyOp50
 70
     1
102
RTVSPropertyOp51
 70
     0
102
RTVSPropertyOp52
 70
     0
102
RTVSPropertyOp53
 70
     1
102
RTVSPropertyOp54
 70
     1
102
RTVSPropertyOp55
 70
     1
102
RTVSPropertyOp56
 70
     1
102
RTVSPropertyOp57
 70
     1
102
RTVSPropertyOp58
 70
     1
102
RTVSPropertyOp59
 70
     1
102
RTVSPropertyOp60
 70
     1
102
RTVSPropertyOp61
 70
     1
102
RTVSPropertyOp62
 70
     1
  0
XRECORD
  5
ECE6
102
{ACAD_REACTORS
330
ECE5
102
}
330
ECE5
100
AcDbXrecord
280
     1
102
RTVSPost2010Prop28
280
     0
102
RTVSPost2010PropOp28
 70
     1
102
RTVSPost2010Prop29
280
     1
102
RTVSPost2010PropOp29
 70
     1
102
RTVSPost2010Prop30
280
     1
102
RTVSPost2010PropOp30
 70
     1
102
RTVSPost2010Prop31
280
     0
102
RTVSPost2010PropOp31
 70
     1
102
RTVSPost2010Prop32
280
     0
102
RTVSPost2010PropOp32
 70
     1
102
RTVSPost2010Prop33
280
     0
102
RTVSPost2010PropOp33
 70
     1
102
RTVSPost2010Prop34
280
     0
102
RTVSPost2010PropOp34
 70
     1
102
RTVSPost2010Prop35
280
     0
102
RTVSPost2010PropOp35
 70
     1
102
RTVSPost2010Prop36
280
     0
102
RTVSPost2010PropOp36
 70
     1
102
RTVSPost2010Prop37
 90
       50
102
RTVSPost2010PropOp37
 70
     1
102
RTVSPost2010Prop38
140
0.0
102
RTVSPost2010PropOp38
 70
     1
102
RTVSPost2010Prop39
140
1.0
102
RTVSPost2010PropOp39
 70
     1
102
RTVSPost2010Prop40
 90
        0
102
RTVSPost2010PropOp40
 70
     1
102
RTVSPost2010Prop41ColorIndex
 90
       18
102
RTVSPost2010Prop41ColorRGB
 90
        0
102
RTVSPost2010PropOp41
 70
     1
102
RTVSPost2010Prop42
 90
       50
102
RTVSPost2010PropOp42
 70
     1
102
RTVSPost2010Prop43
 90
        3
102
RTVSPost2010PropOp43
 70
     1
102
RTVSPost2010Prop44ColorIndex
 90
        5
102
RTVSPost2010Prop44ColorRGB
 90
      255
102
RTVSPost2010PropOp44
 70
     1
102
RTVSPost2010Prop45
280
     0
102
RTVSPost2010PropOp45
 70
     1
102
RTVSPost2010Prop46
 90
       50
102
RTVSPost2010PropOp46
 70
     1
102
RTVSPost2010Prop47
 90
       50
102
RTVSPost2010PropOp47
 70
     1
102
RTVSPost2010Prop48
 90
       50
102
RTVSPost2010PropOp48
 70
     1
102
RTVSPost2010Prop49
280
     0
102
RTVSPost2010PropOp49
 70
     1
102
RTVSPost2010Prop50
 90
       50
102
RTVSPost2010PropOp50
 70
     1
102
RTVSPost2010Prop51ColorIndex
 90
      256
102
RTVSPost2010Prop51ColorRGB
 90
-16777216
102
RTVSPost2010PropOp51
 70
     0
102
RTVSPost2010Prop52
140
1.0
102
RTVSPost2010PropOp52
 70
     0
102
RTVSPost2010Prop53
 90
        2
102
RTVSPost2010PropOp53
 70
     1
102
RTVSPost2010Prop54
  1
strokes_ogs.tif
102
RTVSPost2010PropOp54
 70
     1
102
RTVSPost2010Prop55
280
     0
102
RTVSPost2010PropOp55
 70
     1
102
RTVSPost2010Prop56
140
1.0
102
RTVSPost2010PropOp56
 70
     1
102
RTVSPost2010Prop57
140
1.0
102
RTVSPost2010PropOp57
 70
     1
102
RTVSPropertyOp0
 70
     1
102
RTVSPropertyOp1
 70
     1
102
RTVSPropertyOp2
 70
     1
102
RTVSPropertyOp3
 70
     1
102
RTVSPropertyOp4
 70
     1
102
RTVSPropertyOp5
 70
     1
102
RTVSPropertyOp6
 70
     1
102
RTVSPropertyOp7
 70
     1
102
RTVSPropertyOp8
 70
     1
102
RTVSPropertyOp9
 70
     1
102
RTVSPropertyOp10
 70
     1
102
RTVSPropertyOp11
 70
     1
102
RTVSPropertyOp12
 70
     1
102
RTVSPropertyOp13
 70
     1
102
RTVSPropertyOp14
 70
     1
102
RTVSPropertyOp15
 70
     1
102
RTVSPropertyOp16
 70
     1
102
RTVSPropertyOp17
 70
     1
102
RTVSPropertyOp18
 70
     1
102
RTVSPropertyOp19
 70
     1
102
RTVSPropertyOp20
 70
     1
102
RTVSPropertyOp21
 70
     1
102
RTVSPropertyOp22
 70
     1
102
RTVSPropertyOp23
 70
     1
102
RTVSPropertyOp24
 70
     1
102
RTVSPropertyOp25
 70
     1
102
RTVSPropertyOp26
 70
     1
102
RTVSPropertyOp27
 70
     1
102
RTVSPropertyOp28
 70
     1
102
RTVSPropertyOp29
 70
     1
102
RTVSPropertyOp30
 70
     1
102
RTVSPropertyOp31
 70
     1
102
RTVSPropertyOp32
 70
     1
102
RTVSPropertyOp33
 70
     1
102
RTVSPropertyOp34
 70
     1
102
RTVSPropertyOp35
 70
     1
102
RTVSPropertyOp36
 70
     1
102
RTVSPropertyOp37
 70
     1
102
RTVSPropertyOp38
 70
     1
102
RTVSPropertyOp39
 70
     1
102
RTVSPropertyOp40
 70
     1
102
RTVSPropertyOp41
 70
     1
102
RTVSPropertyOp42
 70
     1
102
RTVSPropertyOp43
 70
     1
102
RTVSPropertyOp44
 70
     1
102
RTVSPropertyOp45
 70
     1
102
RTVSPropertyOp46
 70
     1
102
RTVSPropertyOp47
 70
     1
102
RTVSPropertyOp48
 70
     1
102
RTVSPropertyOp49
 70
     1
102
RTVSPropertyOp50
 70
     1
102
RTVSPropertyOp51
 70
     0
102
RTVSPropertyOp52
 70
     0
102
RTVSPropertyOp53
 70
     1
102
RTVSPropertyOp54
 70
     1
102
RTVSPropertyOp55
 70
     1
102
RTVSPropertyOp56
 70
     1
102
RTVSPropertyOp57
 70
     1
102
RTVSPropertyOp58
 70
     1
102
RTVSPropertyOp59
 70
     1
102
RTVSPropertyOp60
 70
     1
102
RTVSPropertyOp61
 70
     1
102
RTVSPropertyOp62
 70
     1
  0
XRECORD
  5
ED02
102
{ACAD_REACTORS
330
ED01
102
}
330
ED01
100
AcDbXrecord
280
     1
102
RTVSPost2010Prop28
280
     0
102
RTVSPost2010PropOp28
 70
     0
102
RTVSPost2010Prop29
280
     1
102
RTVSPost2010PropOp29
 70
     0
102
RTVSPost2010Prop30
280
     1
102
RTVSPost2010PropOp30
 70
     0
102
RTVSPost2010Prop31
280
     0
102
RTVSPost2010PropOp31
 70
     0
102
RTVSPost2010Prop32
280
     0
102
RTVSPost2010PropOp32
 70
     0
102
RTVSPost2010Prop33
280
     0
102
RTVSPost2010PropOp33
 70
     0
102
RTVSPost2010Prop34
280
     0
102
RTVSPost2010PropOp34
 70
     0
102
RTVSPost2010Prop35
280
     0
102
RTVSPost2010PropOp35
 70
     0
102
RTVSPost2010Prop36
280
     0
102
RTVSPost2010PropOp36
 70
     0
102
RTVSPost2010Prop37
 90
       50
102
RTVSPost2010PropOp37
 70
     0
102
RTVSPost2010Prop38
140
0.0
102
RTVSPost2010PropOp38
 70
     0
102
RTVSPost2010Prop39
140
1.0
102
RTVSPost2010PropOp39
 70
     0
102
RTVSPost2010Prop40
 90
        0
102
RTVSPost2010PropOp40
 70
     0
102
RTVSPost2010Prop41ColorIndex
 90
       18
102
RTVSPost2010Prop41ColorRGB
 90
        0
102
RTVSPost2010PropOp41
 70
     0
102
RTVSPost2010Prop42
 90
       50
102
RTVSPost2010PropOp42
 70
     0
102
RTVSPost2010Prop43
 90
        3
102
RTVSPost2010PropOp43
 70
     0
102
RTVSPost2010Prop44ColorIndex
 90
        5
102
RTVSPost2010Prop44ColorRGB
 90
      255
102
RTVSPost2010PropOp44
 70
     0
102
RTVSPost2010Prop45
280
     0
102
RTVSPost2010PropOp45
 70
     0
102
RTVSPost2010Prop46
 90
       50
102
RTVSPost2010PropOp46
 70
     0
102
RTVSPost2010Prop47
 90
       50
102
RTVSPost2010PropOp47
 70
     0
102
RTVSPost2010Prop48
 90
       50
102
RTVSPost2010PropOp48
 70
     0
102
RTVSPost2010Prop49
280
     0
102
RTVSPost2010PropOp49
 70
     0
102
RTVSPost2010Prop50
 90
       50
102
RTVSPost2010PropOp50
 70
     0
102
RTVSPost2010Prop51ColorIndex
 90
      256
102
RTVSPost2010Prop51ColorRGB
 90
-16777216
102
RTVSPost2010PropOp51
 70
     0
102
RTVSPost2010Prop52
140
1.0
102
RTVSPost2010PropOp52
 70
     0
102
RTVSPost2010Prop53
 90
        2
102
RTVSPost2010PropOp53
 70
     0
102
RTVSPost2010Prop54
  1
strokes_ogs.tif
102
RTVSPost2010PropOp54
 70
     0
102
RTVSPost2010Prop55
280
     0
102
RTVSPost2010PropOp55
 70
     0
102
RTVSPost2010Prop56
140
1.0
102
RTVSPost2010PropOp56
 70
     0
102
RTVSPost2010Prop57
140
1.0
102
RTVSPost2010PropOp57
 70
     0
102
RTVSPropertyOp0
 70
     0
102
RTVSPropertyOp1
 70
     0
102
RTVSPropertyOp2
 70
     0
102
RTVSPropertyOp3
 70
     0
102
RTVSPropertyOp4
 70
     0
102
RTVSPropertyOp5
 70
     0
102
RTVSPropertyOp6
 70
     0
102
RTVSPropertyOp7
 70
     0
102
RTVSPropertyOp8
 70
     0
102
RTVSPropertyOp9
 70
     0
102
RTVSPropertyOp10
 70
     0
102
RTVSPropertyOp11
 70
     0
102
RTVSPropertyOp12
 70
     0
102
RTVSPropertyOp13
 70
     0
102
RTVSPropertyOp14
 70
     2
102
RTVSPropertyOp15
 70
     0
102
RTVSPropertyOp16
 70
     0
102
RTVSPropertyOp17
 70
     0
102
RTVSPropertyOp18
 70
     0
102
RTVSPropertyOp19
 70
     0
102
RTVSPropertyOp20
 70
     0
102
RTVSPropertyOp21
 70
     0
102
RTVSPropertyOp22
 70
     0
102
RTVSPropertyOp23
 70
     0
102
RTVSPropertyOp24
 70
     0
102
RTVSPropertyOp25
 70
     0
102
RTVSPropertyOp26
 70
     0
102
RTVSPropertyOp27
 70
     0
102
RTVSPropertyOp28
 70
     0
102
RTVSPropertyOp29
 70
     0
102
RTVSPropertyOp30
 70
     0
102
RTVSPropertyOp31
 70
     0
102
RTVSPropertyOp32
 70
     0
102
RTVSPropertyOp33
 70
     0
102
RTVSPropertyOp34
 70
     0
102
RTVSPropertyOp35
 70
     0
102
RTVSPropertyOp36
 70
     0
102
RTVSPropertyOp37
 70
     0
102
RTVSPropertyOp38
 70
     0
102
RTVSPropertyOp39
 70
     0
102
RTVSPropertyOp40
 70
     0
102
RTVSPropertyOp41
 70
     0
102
RTVSPropertyOp42
 70
     0
102
RTVSPropertyOp43
 70
     0
102
RTVSPropertyOp44
 70
     0
102
RTVSPropertyOp45
 70
     0
102
RTVSPropertyOp46
 70
     0
102
RTVSPropertyOp47
 70
     0
102
RTVSPropertyOp48
 70
     0
102
RTVSPropertyOp49
 70
     0
102
RTVSPropertyOp50
 70
     0
102
RTVSPropertyOp51
 70
     0
102
RTVSPropertyOp52
 70
     0
102
RTVSPropertyOp53
 70
     0
102
RTVSPropertyOp54
 70
     0
102
RTVSPropertyOp55
 70
     0
102
RTVSPropertyOp56
 70
     0
102
RTVSPropertyOp57
 70
     0
102
RTVSPropertyOp58
 70
     0
102
RTVSPropertyOp59
 70
     0
102
RTVSPropertyOp60
 70
     0
102
RTVSPropertyOp61
 70
     0
102
RTVSPropertyOp62
 70
     0
  0
XRECORD
  5
ECF2
102
{ACAD_REACTORS
330
ECF1
102
}
330
ECF1
100
AcDbXrecord
280
     1
102
RTVSPost2010Prop28
280
     0
102
RTVSPost2010PropOp28
 70
     1
102
RTVSPost2010Prop29
280
     1
102
RTVSPost2010PropOp29
 70
     1
102
RTVSPost2010Prop30
280
     1
102
RTVSPost2010PropOp30
 70
     1
102
RTVSPost2010Prop31
280
     0
102
RTVSPost2010PropOp31
 70
     1
102
RTVSPost2010Prop32
280
     0
102
RTVSPost2010PropOp32
 70
     1
102
RTVSPost2010Prop33
280
     0
102
RTVSPost2010PropOp33
 70
     1
102
RTVSPost2010Prop34
280
     0
102
RTVSPost2010PropOp34
 70
     1
102
RTVSPost2010Prop35
280
     0
102
RTVSPost2010PropOp35
 70
     1
102
RTVSPost2010Prop36
280
     0
102
RTVSPost2010PropOp36
 70
     1
102
RTVSPost2010Prop37
 90
       50
102
RTVSPost2010PropOp37
 70
     1
102
RTVSPost2010Prop38
140
0.0
102
RTVSPost2010PropOp38
 70
     1
102
RTVSPost2010Prop39
140
1.0
102
RTVSPost2010PropOp39
 70
     1
102
RTVSPost2010Prop40
 90
        0
102
RTVSPost2010PropOp40
 70
     1
102
RTVSPost2010Prop41ColorIndex
 90
       18
102
RTVSPost2010Prop41ColorRGB
 90
        0
102
RTVSPost2010PropOp41
 70
     1
102
RTVSPost2010Prop42
 90
       50
102
RTVSPost2010PropOp42
 70
     1
102
RTVSPost2010Prop43
 90
        3
102
RTVSPost2010PropOp43
 70
     1
102
RTVSPost2010Prop44ColorIndex
 90
        5
102
RTVSPost2010Prop44ColorRGB
 90
      255
102
RTVSPost2010PropOp44
 70
     1
102
RTVSPost2010Prop45
280
     0
102
RTVSPost2010PropOp45
 70
     1
102
RTVSPost2010Prop46
 90
       50
102
RTVSPost2010PropOp46
 70
     1
102
RTVSPost2010Prop47
 90
       50
102
RTVSPost2010PropOp47
 70
     1
102
RTVSPost2010Prop48
 90
       50
102
RTVSPost2010PropOp48
 70
     1
102
RTVSPost2010Prop49
280
     0
102
RTVSPost2010PropOp49
 70
     1
102
RTVSPost2010Prop50
 90
       50
102
RTVSPost2010PropOp50
 70
     1
102
RTVSPost2010Prop51ColorIndex
 90
      256
102
RTVSPost2010Prop51ColorRGB
 90
-16777216
102
RTVSPost2010PropOp51
 70
     0
102
RTVSPost2010Prop52
140
1.0
102
RTVSPost2010PropOp52
 70
     0
102
RTVSPost2010Prop53
 90
        2
102
RTVSPost2010PropOp53
 70
     1
102
RTVSPost2010Prop54
  1
strokes_ogs.tif
102
RTVSPost2010PropOp54
 70
     1
102
RTVSPost2010Prop55
280
     0
102
RTVSPost2010PropOp55
 70
     1
102
RTVSPost2010Prop56
140
1.0
102
RTVSPost2010PropOp56
 70
     1
102
RTVSPost2010Prop57
140
1.0
102
RTVSPost2010PropOp57
 70
     1
102
RTVSPropertyOp0
 70
     1
102
RTVSPropertyOp1
 70
     1
102
RTVSPropertyOp2
 70
     1
102
RTVSPropertyOp3
 70
     1
102
RTVSPropertyOp4
 70
     1
102
RTVSPropertyOp5
 70
     1
102
RTVSPropertyOp6
 70
     1
102
RTVSPropertyOp7
 70
     1
102
RTVSPropertyOp8
 70
     1
102
RTVSPropertyOp9
 70
     1
102
RTVSPropertyOp10
 70
     1
102
RTVSPropertyOp11
 70
     1
102
RTVSPropertyOp12
 70
     1
102
RTVSPropertyOp13
 70
     1
102
RTVSPropertyOp14
 70
     1
102
RTVSPropertyOp15
 70
     1
102
RTVSPropertyOp16
 70
     1
102
RTVSPropertyOp17
 70
     1
102
RTVSPropertyOp18
 70
     1
102
RTVSPropertyOp19
 70
     1
102
RTVSPropertyOp20
 70
     1
102
RTVSPropertyOp21
 70
     1
102
RTVSPropertyOp22
 70
     1
102
RTVSPropertyOp23
 70
     1
102
RTVSPropertyOp24
 70
     1
102
RTVSPropertyOp25
 70
     1
102
RTVSPropertyOp26
 70
     1
102
RTVSPropertyOp27
 70
     1
102
RTVSPropertyOp28
 70
     1
102
RTVSPropertyOp29
 70
     1
102
RTVSPropertyOp30
 70
     1
102
RTVSPropertyOp31
 70
     1
102
RTVSPropertyOp32
 70
     1
102
RTVSPropertyOp33
 70
     1
102
RTVSPropertyOp34
 70
     1
102
RTVSPropertyOp35
 70
     1
102
RTVSPropertyOp36
 70
     1
102
RTVSPropertyOp37
 70
     1
102
RTVSPropertyOp38
 70
     1
102
RTVSPropertyOp39
 70
     1
102
RTVSPropertyOp40
 70
     1
102
RTVSPropertyOp41
 70
     1
102
RTVSPropertyOp42
 70
     1
102
RTVSPropertyOp43
 70
     1
102
RTVSPropertyOp44
 70
     1
102
RTVSPropertyOp45
 70
     1
102
RTVSPropertyOp46
 70
     1
102
RTVSPropertyOp47
 70
     1
102
RTVSPropertyOp48
 70
     1
102
RTVSPropertyOp49
 70
     1
102
RTVSPropertyOp50
 70
     1
102
RTVSPropertyOp51
 70
     0
102
RTVSPropertyOp52
 70
     0
102
RTVSPropertyOp53
 70
     1
102
RTVSPropertyOp54
 70
     1
102
RTVSPropertyOp55
 70
     1
102
RTVSPropertyOp56
 70
     1
102
RTVSPropertyOp57
 70
     1
102
RTVSPropertyOp58
 70
     1
102
RTVSPropertyOp59
 70
     1
102
RTVSPropertyOp60
 70
     1
102
RTVSPropertyOp61
 70
     1
102
RTVSPropertyOp62
 70
     1
  0
XRECORD
  5
ED04
102
{ACAD_REACTORS
330
ED03
102
}
330
ED03
100
AcDbXrecord
280
     1
102
RTVSPost2010Prop28
280
     0
102
RTVSPost2010PropOp28
 70
     0
102
RTVSPost2010Prop29
280
     1
102
RTVSPost2010PropOp29
 70
     0
102
RTVSPost2010Prop30
280
     1
102
RTVSPost2010PropOp30
 70
     0
102
RTVSPost2010Prop31
280
     0
102
RTVSPost2010PropOp31
 70
     0
102
RTVSPost2010Prop32
280
     0
102
RTVSPost2010PropOp32
 70
     0
102
RTVSPost2010Prop33
280
     0
102
RTVSPost2010PropOp33
 70
     0
102
RTVSPost2010Prop34
280
     0
102
RTVSPost2010PropOp34
 70
     0
102
RTVSPost2010Prop35
280
     0
102
RTVSPost2010PropOp35
 70
     0
102
RTVSPost2010Prop36
280
     0
102
RTVSPost2010PropOp36
 70
     0
102
RTVSPost2010Prop37
 90
       50
102
RTVSPost2010PropOp37
 70
     0
102
RTVSPost2010Prop38
140
0.0
102
RTVSPost2010PropOp38
 70
     0
102
RTVSPost2010Prop39
140
1.0
102
RTVSPost2010PropOp39
 70
     0
102
RTVSPost2010Prop40
 90
        0
102
RTVSPost2010PropOp40
 70
     0
102
RTVSPost2010Prop41ColorIndex
 90
       18
102
RTVSPost2010Prop41ColorRGB
 90
        0
102
RTVSPost2010PropOp41
 70
     0
102
RTVSPost2010Prop42
 90
       50
102
RTVSPost2010PropOp42
 70
     0
102
RTVSPost2010Prop43
 90
        3
102
RTVSPost2010PropOp43
 70
     0
102
RTVSPost2010Prop44ColorIndex
 90
        5
102
RTVSPost2010Prop44ColorRGB
 90
      255
102
RTVSPost2010PropOp44
 70
     0
102
RTVSPost2010Prop45
280
     0
102
RTVSPost2010PropOp45
 70
     0
102
RTVSPost2010Prop46
 90
       50
102
RTVSPost2010PropOp46
 70
     0
102
RTVSPost2010Prop47
 90
       50
102
RTVSPost2010PropOp47
 70
     0
102
RTVSPost2010Prop48
 90
       50
102
RTVSPost2010PropOp48
 70
     0
102
RTVSPost2010Prop49
280
     0
102
RTVSPost2010PropOp49
 70
     0
102
RTVSPost2010Prop50
 90
       50
102
RTVSPost2010PropOp50
 70
     0
102
RTVSPost2010Prop51ColorIndex
 90
      256
102
RTVSPost2010Prop51ColorRGB
 90
-16777216
102
RTVSPost2010PropOp51
 70
     0
102
RTVSPost2010Prop52
140
1.0
102
RTVSPost2010PropOp52
 70
     0
102
RTVSPost2010Prop53
 90
        2
102
RTVSPost2010PropOp53
 70
     0
102
RTVSPost2010Prop54
  1
strokes_ogs.tif
102
RTVSPost2010PropOp54
 70
     0
102
RTVSPost2010Prop55
280
     0
102
RTVSPost2010PropOp55
 70
     0
102
RTVSPost2010Prop56
140
1.0
102
RTVSPost2010PropOp56
 70
     0
102
RTVSPost2010Prop57
140
1.0
102
RTVSPost2010PropOp57
 70
     0
102
RTVSPropertyOp0
 70
     0
102
RTVSPropertyOp1
 70
     0
102
RTVSPropertyOp2
 70
     0
102
RTVSPropertyOp3
 70
     0
102
RTVSPropertyOp4
 70
     0
102
RTVSPropertyOp5
 70
     0
102
RTVSPropertyOp6
 70
     0
102
RTVSPropertyOp7
 70
     0
102
RTVSPropertyOp8
 70
     0
102
RTVSPropertyOp9
 70
     0
102
RTVSPropertyOp10
 70
     0
102
RTVSPropertyOp11
 70
     0
102
RTVSPropertyOp12
 70
     0
102
RTVSPropertyOp13
 70
     0
102
RTVSPropertyOp14
 70
     2
102
RTVSPropertyOp15
 70
     0
102
RTVSPropertyOp16
 70
     0
102
RTVSPropertyOp17
 70
     0
102
RTVSPropertyOp18
 70
     0
102
RTVSPropertyOp19
 70
     0
102
RTVSPropertyOp20
 70
     0
102
RTVSPropertyOp21
 70
     0
102
RTVSPropertyOp22
 70
     0
102
RTVSPropertyOp23
 70
     0
102
RTVSPropertyOp24
 70
     0
102
RTVSPropertyOp25
 70
     0
102
RTVSPropertyOp26
 70
     0
102
RTVSPropertyOp27
 70
     0
102
RTVSPropertyOp28
 70
     0
102
RTVSPropertyOp29
 70
     0
102
RTVSPropertyOp30
 70
     0
102
RTVSPropertyOp31
 70
     0
102
RTVSPropertyOp32
 70
     0
102
RTVSPropertyOp33
 70
     0
102
RTVSPropertyOp34
 70
     0
102
RTVSPropertyOp35
 70
     0
102
RTVSPropertyOp36
 70
     0
102
RTVSPropertyOp37
 70
     0
102
RTVSPropertyOp38
 70
     0
102
RTVSPropertyOp39
 70
     0
102
RTVSPropertyOp40
 70
     0
102
RTVSPropertyOp41
 70
     0
102
RTVSPropertyOp42
 70
     0
102
RTVSPropertyOp43
 70
     0
102
RTVSPropertyOp44
 70
     0
102
RTVSPropertyOp45
 70
     0
102
RTVSPropertyOp46
 70
     0
102
RTVSPropertyOp47
 70
     0
102
RTVSPropertyOp48
 70
     0
102
RTVSPropertyOp49
 70
     0
102
RTVSPropertyOp50
 70
     0
102
RTVSPropertyOp51
 70
     0
102
RTVSPropertyOp52
 70
     0
102
RTVSPropertyOp53
 70
     0
102
RTVSPropertyOp54
 70
     0
102
RTVSPropertyOp55
 70
     0
102
RTVSPropertyOp56
 70
     0
102
RTVSPropertyOp57
 70
     0
102
RTVSPropertyOp58
 70
     0
102
RTVSPropertyOp59
 70
     0
102
RTVSPropertyOp60
 70
     0
102
RTVSPropertyOp61
 70
     0
102
RTVSPropertyOp62
 70
     0
  0
XRECORD
  5
ECEA
102
{ACAD_REACTORS
330
ECE9
102
}
330
ECE9
100
AcDbXrecord
280
     1
102
RTVSPost2010Prop28
280
     0
102
RTVSPost2010PropOp28
 70
     1
102
RTVSPost2010Prop29
280
     1
102
RTVSPost2010PropOp29
 70
     1
102
RTVSPost2010Prop30
280
     1
102
RTVSPost2010PropOp30
 70
     1
102
RTVSPost2010Prop31
280
     0
102
RTVSPost2010PropOp31
 70
     1
102
RTVSPost2010Prop32
280
     0
102
RTVSPost2010PropOp32
 70
     1
102
RTVSPost2010Prop33
280
     0
102
RTVSPost2010PropOp33
 70
     1
102
RTVSPost2010Prop34
280
     0
102
RTVSPost2010PropOp34
 70
     1
102
RTVSPost2010Prop35
280
     0
102
RTVSPost2010PropOp35
 70
     1
102
RTVSPost2010Prop36
280
     0
102
RTVSPost2010PropOp36
 70
     1
102
RTVSPost2010Prop37
 90
       50
102
RTVSPost2010PropOp37
 70
     1
102
RTVSPost2010Prop38
140
0.0
102
RTVSPost2010PropOp38
 70
     1
102
RTVSPost2010Prop39
140
1.0
102
RTVSPost2010PropOp39
 70
     1
102
RTVSPost2010Prop40
 90
        0
102
RTVSPost2010PropOp40
 70
     1
102
RTVSPost2010Prop41ColorIndex
 90
       18
102
RTVSPost2010Prop41ColorRGB
 90
        0
102
RTVSPost2010PropOp41
 70
     1
102
RTVSPost2010Prop42
 90
       50
102
RTVSPost2010PropOp42
 70
     1
102
RTVSPost2010Prop43
 90
        3
102
RTVSPost2010PropOp43
 70
     1
102
RTVSPost2010Prop44ColorIndex
 90
        5
102
RTVSPost2010Prop44ColorRGB
 90
      255
102
RTVSPost2010PropOp44
 70
     1
102
RTVSPost2010Prop45
280
     0
102
RTVSPost2010PropOp45
 70
     1
102
RTVSPost2010Prop46
 90
       50
102
RTVSPost2010PropOp46
 70
     1
102
RTVSPost2010Prop47
 90
       50
102
RTVSPost2010PropOp47
 70
     1
102
RTVSPost2010Prop48
 90
       50
102
RTVSPost2010PropOp48
 70
     1
102
RTVSPost2010Prop49
280
     0
102
RTVSPost2010PropOp49
 70
     1
102
RTVSPost2010Prop50
 90
       50
102
RTVSPost2010PropOp50
 70
     1
102
RTVSPost2010Prop51ColorIndex
 90
      256
102
RTVSPost2010Prop51ColorRGB
 90
-16777216
102
RTVSPost2010PropOp51
 70
     0
102
RTVSPost2010Prop52
140
1.0
102
RTVSPost2010PropOp52
 70
     0
102
RTVSPost2010Prop53
 90
        2
102
RTVSPost2010PropOp53
 70
     1
102
RTVSPost2010Prop54
  1
strokes_ogs.tif
102
RTVSPost2010PropOp54
 70
     1
102
RTVSPost2010Prop55
280
     0
102
RTVSPost2010PropOp55
 70
     1
102
RTVSPost2010Prop56
140
1.0
102
RTVSPost2010PropOp56
 70
     1
102
RTVSPost2010Prop57
140
1.0
102
RTVSPost2010PropOp57
 70
     1
102
RTVSPropertyOp0
 70
     1
102
RTVSPropertyOp1
 70
     1
102
RTVSPropertyOp2
 70
     1
102
RTVSPropertyOp3
 70
     1
102
RTVSPropertyOp4
 70
     1
102
RTVSPropertyOp5
 70
     1
102
RTVSPropertyOp6
 70
     1
102
RTVSPropertyOp7
 70
     1
102
RTVSPropertyOp8
 70
     1
102
RTVSPropertyOp9
 70
     1
102
RTVSPropertyOp10
 70
     1
102
RTVSPropertyOp11
 70
     1
102
RTVSPropertyOp12
 70
     1
102
RTVSPropertyOp13
 70
     1
102
RTVSPropertyOp14
 70
     1
102
RTVSPropertyOp15
 70
     1
102
RTVSPropertyOp16
 70
     1
102
RTVSPropertyOp17
 70
     1
102
RTVSPropertyOp18
 70
     1
102
RTVSPropertyOp19
 70
     1
102
RTVSPropertyOp20
 70
     1
102
RTVSPropertyOp21
 70
     1
102
RTVSPropertyOp22
 70
     1
102
RTVSPropertyOp23
 70
     1
102
RTVSPropertyOp24
 70
     1
102
RTVSPropertyOp25
 70
     1
102
RTVSPropertyOp26
 70
     1
102
RTVSPropertyOp27
 70
     1
102
RTVSPropertyOp28
 70
     1
102
RTVSPropertyOp29
 70
     1
102
RTVSPropertyOp30
 70
     1
102
RTVSPropertyOp31
 70
     1
102
RTVSPropertyOp32
 70
     1
102
RTVSPropertyOp33
 70
     1
102
RTVSPropertyOp34
 70
     1
102
RTVSPropertyOp35
 70
     1
102
RTVSPropertyOp36
 70
     1
102
RTVSPropertyOp37
 70
     1
102
RTVSPropertyOp38
 70
     1
102
RTVSPropertyOp39
 70
     1
102
RTVSPropertyOp40
 70
     1
102
RTVSPropertyOp41
 70
     1
102
RTVSPropertyOp42
 70
     1
102
RTVSPropertyOp43
 70
     1
102
RTVSPropertyOp44
 70
     1
102
RTVSPropertyOp45
 70
     1
102
RTVSPropertyOp46
 70
     1
102
RTVSPropertyOp47
 70
     1
102
RTVSPropertyOp48
 70
     1
102
RTVSPropertyOp49
 70
     1
102
RTVSPropertyOp50
 70
     1
102
RTVSPropertyOp51
 70
     0
102
RTVSPropertyOp52
 70
     0
102
RTVSPropertyOp53
 70
     1
102
RTVSPropertyOp54
 70
     1
102
RTVSPropertyOp55
 70
     1
102
RTVSPropertyOp56
 70
     1
102
RTVSPropertyOp57
 70
     1
102
RTVSPropertyOp58
 70
     1
102
RTVSPropertyOp59
 70
     1
102
RTVSPropertyOp60
 70
     1
102
RTVSPropertyOp61
 70
     1
102
RTVSPropertyOp62
 70
     1
  0
XRECORD
  5
ED00
102
{ACAD_REACTORS
330
ECFF
102
}
330
ECFF
100
AcDbXrecord
280
     1
102
RTVSPost2010Prop28
280
     0
102
RTVSPost2010PropOp28
 70
     1
102
RTVSPost2010Prop29
280
     1
102
RTVSPost2010PropOp29
 70
     1
102
RTVSPost2010Prop30
280
     1
102
RTVSPost2010PropOp30
 70
     1
102
RTVSPost2010Prop31
280
     0
102
RTVSPost2010PropOp31
 70
     1
102
RTVSPost2010Prop32
280
     0
102
RTVSPost2010PropOp32
 70
     1
102
RTVSPost2010Prop33
280
     0
102
RTVSPost2010PropOp33
 70
     1
102
RTVSPost2010Prop34
280
     0
102
RTVSPost2010PropOp34
 70
     1
102
RTVSPost2010Prop35
280
     0
102
RTVSPost2010PropOp35
 70
     1
102
RTVSPost2010Prop36
280
     0
102
RTVSPost2010PropOp36
 70
     1
102
RTVSPost2010Prop37
 90
       50
102
RTVSPost2010PropOp37
 70
     1
102
RTVSPost2010Prop38
140
0.0
102
RTVSPost2010PropOp38
 70
     1
102
RTVSPost2010Prop39
140
1.0
102
RTVSPost2010PropOp39
 70
     1
102
RTVSPost2010Prop40
 90
        0
102
RTVSPost2010PropOp40
 70
     1
102
RTVSPost2010Prop41ColorIndex
 90
       18
102
RTVSPost2010Prop41ColorRGB
 90
        0
102
RTVSPost2010PropOp41
 70
     1
102
RTVSPost2010Prop42
 90
       50
102
RTVSPost2010PropOp42
 70
     1
102
RTVSPost2010Prop43
 90
        3
102
RTVSPost2010PropOp43
 70
     1
102
RTVSPost2010Prop44ColorIndex
 90
        5
102
RTVSPost2010Prop44ColorRGB
 90
      255
102
RTVSPost2010PropOp44
 70
     1
102
RTVSPost2010Prop45
280
     0
102
RTVSPost2010PropOp45
 70
     1
102
RTVSPost2010Prop46
 90
       50
102
RTVSPost2010PropOp46
 70
     1
102
RTVSPost2010Prop47
 90
       50
102
RTVSPost2010PropOp47
 70
     1
102
RTVSPost2010Prop48
 90
       50
102
RTVSPost2010PropOp48
 70
     1
102
RTVSPost2010Prop49
280
     0
102
RTVSPost2010PropOp49
 70
     1
102
RTVSPost2010Prop50
 90
       50
102
RTVSPost2010PropOp50
 70
     1
102
RTVSPost2010Prop51ColorIndex
 90
      256
102
RTVSPost2010Prop51ColorRGB
 90
-16777216
102
RTVSPost2010PropOp51
 70
     0
102
RTVSPost2010Prop52
140
1.0
102
RTVSPost2010PropOp52
 70
     0
102
RTVSPost2010Prop53
 90
        2
102
RTVSPost2010PropOp53
 70
     1
102
RTVSPost2010Prop54
  1
strokes_ogs.tif
102
RTVSPost2010PropOp54
 70
     1
102
RTVSPost2010Prop55
280
     0
102
RTVSPost2010PropOp55
 70
     1
102
RTVSPost2010Prop56
140
1.0
102
RTVSPost2010PropOp56
 70
     1
102
RTVSPost2010Prop57
140
1.0
102
RTVSPost2010PropOp57
 70
     1
102
RTVSPropertyOp0
 70
     1
102
RTVSPropertyOp1
 70
     1
102
RTVSPropertyOp2
 70
     1
102
RTVSPropertyOp3
 70
     1
102
RTVSPropertyOp4
 70
     1
102
RTVSPropertyOp5
 70
     1
102
RTVSPropertyOp6
 70
     1
102
RTVSPropertyOp7
 70
     1
102
RTVSPropertyOp8
 70
     1
102
RTVSPropertyOp9
 70
     1
102
RTVSPropertyOp10
 70
     1
102
RTVSPropertyOp11
 70
     1
102
RTVSPropertyOp12
 70
     1
102
RTVSPropertyOp13
 70
     1
102
RTVSPropertyOp14
 70
     1
102
RTVSPropertyOp15
 70
     1
102
RTVSPropertyOp16
 70
     1
102
RTVSPropertyOp17
 70
     1
102
RTVSPropertyOp18
 70
     1
102
RTVSPropertyOp19
 70
     1
102
RTVSPropertyOp20
 70
     1
102
RTVSPropertyOp21
 70
     1
102
RTVSPropertyOp22
 70
     1
102
RTVSPropertyOp23
 70
     1
102
RTVSPropertyOp24
 70
     1
102
RTVSPropertyOp25
 70
     1
102
RTVSPropertyOp26
 70
     1
102
RTVSPropertyOp27
 70
     1
102
RTVSPropertyOp28
 70
     1
102
RTVSPropertyOp29
 70
     1
102
RTVSPropertyOp30
 70
     1
102
RTVSPropertyOp31
 70
     1
102
RTVSPropertyOp32
 70
     1
102
RTVSPropertyOp33
 70
     1
102
RTVSPropertyOp34
 70
     1
102
RTVSPropertyOp35
 70
     1
102
RTVSPropertyOp36
 70
     1
102
RTVSPropertyOp37
 70
     1
102
RTVSPropertyOp38
 70
     1
102
RTVSPropertyOp39
 70
     1
102
RTVSPropertyOp40
 70
     1
102
RTVSPropertyOp41
 70
     1
102
RTVSPropertyOp42
 70
     1
102
RTVSPropertyOp43
 70
     1
102
RTVSPropertyOp44
 70
     1
102
RTVSPropertyOp45
 70
     1
102
RTVSPropertyOp46
 70
     1
102
RTVSPropertyOp47
 70
     1
102
RTVSPropertyOp48
 70
     1
102
RTVSPropertyOp49
 70
     1
102
RTVSPropertyOp50
 70
     1
102
RTVSPropertyOp51
 70
     0
102
RTVSPropertyOp52
 70
     0
102
RTVSPropertyOp53
 70
     1
102
RTVSPropertyOp54
 70
     1
102
RTVSPropertyOp55
 70
     1
102
RTVSPropertyOp56
 70
     1
102
RTVSPropertyOp57
 70
     1
102
RTVSPropertyOp58
 70
     1
102
RTVSPropertyOp59
 70
     1
102
RTVSPropertyOp60
 70
     1
102
RTVSPropertyOp61
 70
     1
102
RTVSPropertyOp62
 70
     1
  0
XRECORD
  5
ECFE
102
{ACAD_REACTORS
330
ECFD
102
}
330
ECFD
100
AcDbXrecord
280
     1
102
RTVSPost2010Prop28
280
     0
102
RTVSPost2010PropOp28
 70
     1
102
RTVSPost2010Prop29
280
     1
102
RTVSPost2010PropOp29
 70
     1
102
RTVSPost2010Prop30
280
     1
102
RTVSPost2010PropOp30
 70
     1
102
RTVSPost2010Prop31
280
     0
102
RTVSPost2010PropOp31
 70
     1
102
RTVSPost2010Prop32
280
     0
102
RTVSPost2010PropOp32
 70
     1
102
RTVSPost2010Prop33
280
     0
102
RTVSPost2010PropOp33
 70
     1
102
RTVSPost2010Prop34
280
     0
102
RTVSPost2010PropOp34
 70
     1
102
RTVSPost2010Prop35
280
     0
102
RTVSPost2010PropOp35
 70
     1
102
RTVSPost2010Prop36
280
     0
102
RTVSPost2010PropOp36
 70
     1
102
RTVSPost2010Prop37
 90
       50
102
RTVSPost2010PropOp37
 70
     1
102
RTVSPost2010Prop38
140
0.0
102
RTVSPost2010PropOp38
 70
     1
102
RTVSPost2010Prop39
140
1.0
102
RTVSPost2010PropOp39
 70
     1
102
RTVSPost2010Prop40
 90
        0
102
RTVSPost2010PropOp40
 70
     1
102
RTVSPost2010Prop41ColorIndex
 90
       18
102
RTVSPost2010Prop41ColorRGB
 90
        0
102
RTVSPost2010PropOp41
 70
     1
102
RTVSPost2010Prop42
 90
       50
102
RTVSPost2010PropOp42
 70
     1
102
RTVSPost2010Prop43
 90
        3
102
RTVSPost2010PropOp43
 70
     1
102
RTVSPost2010Prop44ColorIndex
 90
        5
102
RTVSPost2010Prop44ColorRGB
 90
      255
102
RTVSPost2010PropOp44
 70
     1
102
RTVSPost2010Prop45
280
     0
102
RTVSPost2010PropOp45
 70
     1
102
RTVSPost2010Prop46
 90
       50
102
RTVSPost2010PropOp46
 70
     1
102
RTVSPost2010Prop47
 90
       50
102
RTVSPost2010PropOp47
 70
     1
102
RTVSPost2010Prop48
 90
       50
102
RTVSPost2010PropOp48
 70
     1
102
RTVSPost2010Prop49
280
     0
102
RTVSPost2010PropOp49
 70
     1
102
RTVSPost2010Prop50
 90
       50
102
RTVSPost2010PropOp50
 70
     1
102
RTVSPost2010Prop51ColorIndex
 90
      256
102
RTVSPost2010Prop51ColorRGB
 90
-16777216
102
RTVSPost2010PropOp51
 70
     0
102
RTVSPost2010Prop52
140
1.0
102
RTVSPost2010PropOp52
 70
     0
102
RTVSPost2010Prop53
 90
        2
102
RTVSPost2010PropOp53
 70
     1
102
RTVSPost2010Prop54
  1
strokes_ogs.tif
102
RTVSPost2010PropOp54
 70
     1
102
RTVSPost2010Prop55
280
     0
102
RTVSPost2010PropOp55
 70
     1
102
RTVSPost2010Prop56
140
1.0
102
RTVSPost2010PropOp56
 70
     1
102
RTVSPost2010Prop57
140
1.0
102
RTVSPost2010PropOp57
 70
     1
102
RTVSPropertyOp0
 70
     1
102
RTVSPropertyOp1
 70
     1
102
RTVSPropertyOp2
 70
     1
102
RTVSPropertyOp3
 70
     1
102
RTVSPropertyOp4
 70
     1
102
RTVSPropertyOp5
 70
     1
102
RTVSPropertyOp6
 70
     1
102
RTVSPropertyOp7
 70
     1
102
RTVSPropertyOp8
 70
     1
102
RTVSPropertyOp9
 70
     1
102
RTVSPropertyOp10
 70
     1
102
RTVSPropertyOp11
 70
     1
102
RTVSPropertyOp12
 70
     1
102
RTVSPropertyOp13
 70
     1
102
RTVSPropertyOp14
 70
     1
102
RTVSPropertyOp15
 70
     1
102
RTVSPropertyOp16
 70
     1
102
RTVSPropertyOp17
 70
     1
102
RTVSPropertyOp18
 70
     1
102
RTVSPropertyOp19
 70
     1
102
RTVSPropertyOp20
 70
     1
102
RTVSPropertyOp21
 70
     1
102
RTVSPropertyOp22
 70
     1
102
RTVSPropertyOp23
 70
     1
102
RTVSPropertyOp24
 70
     1
102
RTVSPropertyOp25
 70
     1
102
RTVSPropertyOp26
 70
     1
102
RTVSPropertyOp27
 70
     1
102
RTVSPropertyOp28
 70
     1
102
RTVSPropertyOp29
 70
     1
102
RTVSPropertyOp30
 70
     1
102
RTVSPropertyOp31
 70
     1
102
RTVSPropertyOp32
 70
     1
102
RTVSPropertyOp33
 70
     1
102
RTVSPropertyOp34
 70
     1
102
RTVSPropertyOp35
 70
     1
102
RTVSPropertyOp36
 70
     1
102
RTVSPropertyOp37
 70
     1
102
RTVSPropertyOp38
 70
     1
102
RTVSPropertyOp39
 70
     1
102
RTVSPropertyOp40
 70
     1
102
RTVSPropertyOp41
 70
     1
102
RTVSPropertyOp42
 70
     1
102
RTVSPropertyOp43
 70
     1
102
RTVSPropertyOp44
 70
     1
102
RTVSPropertyOp45
 70
     1
102
RTVSPropertyOp46
 70
     1
102
RTVSPropertyOp47
 70
     1
102
RTVSPropertyOp48
 70
     1
102
RTVSPropertyOp49
 70
     1
102
RTVSPropertyOp50
 70
     1
102
RTVSPropertyOp51
 70
     0
102
RTVSPropertyOp52
 70
     0
102
RTVSPropertyOp53
 70
     1
102
RTVSPropertyOp54
 70
     1
102
RTVSPropertyOp55
 70
     1
102
RTVSPropertyOp56
 70
     1
102
RTVSPropertyOp57
 70
     1
102
RTVSPropertyOp58
 70
     1
102
RTVSPropertyOp59
 70
     1
102
RTVSPropertyOp60
 70
     1
102
RTVSPropertyOp61
 70
     1
102
RTVSPropertyOp62
 70
     1
  0
XRECORD
  5
ECF8
102
{ACAD_REACTORS
330
ECF7
102
}
330
ECF7
100
AcDbXrecord
280
     1
102
RTVSPost2010Prop28
280
     0
102
RTVSPost2010PropOp28
 70
     1
102
RTVSPost2010Prop29
280
     1
102
RTVSPost2010PropOp29
 70
     1
102
RTVSPost2010Prop30
280
     1
102
RTVSPost2010PropOp30
 70
     1
102
RTVSPost2010Prop31
280
     0
102
RTVSPost2010PropOp31
 70
     1
102
RTVSPost2010Prop32
280
     0
102
RTVSPost2010PropOp32
 70
     1
102
RTVSPost2010Prop33
280
     0
102
RTVSPost2010PropOp33
 70
     1
102
RTVSPost2010Prop34
280
     0
102
RTVSPost2010PropOp34
 70
     1
102
RTVSPost2010Prop35
280
     0
102
RTVSPost2010PropOp35
 70
     1
102
RTVSPost2010Prop36
280
     0
102
RTVSPost2010PropOp36
 70
     1
102
RTVSPost2010Prop37
 90
       50
102
RTVSPost2010PropOp37
 70
     1
102
RTVSPost2010Prop38
140
0.0
102
RTVSPost2010PropOp38
 70
     1
102
RTVSPost2010Prop39
140
1.0
102
RTVSPost2010PropOp39
 70
     1
102
RTVSPost2010Prop40
 90
        0
102
RTVSPost2010PropOp40
 70
     1
102
RTVSPost2010Prop41ColorIndex
 90
       18
102
RTVSPost2010Prop41ColorRGB
 90
        0
102
RTVSPost2010PropOp41
 70
     1
102
RTVSPost2010Prop42
 90
       50
102
RTVSPost2010PropOp42
 70
     1
102
RTVSPost2010Prop43
 90
        3
102
RTVSPost2010PropOp43
 70
     1
102
RTVSPost2010Prop44ColorIndex
 90
        5
102
RTVSPost2010Prop44ColorRGB
 90
      255
102
RTVSPost2010PropOp44
 70
     1
102
RTVSPost2010Prop45
280
     0
102
RTVSPost2010PropOp45
 70
     1
102
RTVSPost2010Prop46
 90
       50
102
RTVSPost2010PropOp46
 70
     1
102
RTVSPost2010Prop47
 90
       50
102
RTVSPost2010PropOp47
 70
     1
102
RTVSPost2010Prop48
 90
       50
102
RTVSPost2010PropOp48
 70
     1
102
RTVSPost2010Prop49
280
     0
102
RTVSPost2010PropOp49
 70
     1
102
RTVSPost2010Prop50
 90
       50
102
RTVSPost2010PropOp50
 70
     1
102
RTVSPost2010Prop51ColorIndex
 90
      256
102
RTVSPost2010Prop51ColorRGB
 90
-16777216
102
RTVSPost2010PropOp51
 70
     0
102
RTVSPost2010Prop52
140
1.0
102
RTVSPost2010PropOp52
 70
     0
102
RTVSPost2010Prop53
 90
        2
102
RTVSPost2010PropOp53
 70
     1
102
RTVSPost2010Prop54
  1
strokes_ogs.tif
102
RTVSPost2010PropOp54
 70
     1
102
RTVSPost2010Prop55
280
     0
102
RTVSPost2010PropOp55
 70
     1
102
RTVSPost2010Prop56
140
1.0
102
RTVSPost2010PropOp56
 70
     1
102
RTVSPost2010Prop57
140
1.0
102
RTVSPost2010PropOp57
 70
     1
102
RTVSPropertyOp0
 70
     1
102
RTVSPropertyOp1
 70
     1
102
RTVSPropertyOp2
 70
     1
102
RTVSPropertyOp3
 70
     1
102
RTVSPropertyOp4
 70
     1
102
RTVSPropertyOp5
 70
     1
102
RTVSPropertyOp6
 70
     1
102
RTVSPropertyOp7
 70
     1
102
RTVSPropertyOp8
 70
     1
102
RTVSPropertyOp9
 70
     1
102
RTVSPropertyOp10
 70
     1
102
RTVSPropertyOp11
 70
     1
102
RTVSPropertyOp12
 70
     1
102
RTVSPropertyOp13
 70
     1
102
RTVSPropertyOp14
 70
     1
102
RTVSPropertyOp15
 70
     1
102
RTVSPropertyOp16
 70
     1
102
RTVSPropertyOp17
 70
     1
102
RTVSPropertyOp18
 70
     1
102
RTVSPropertyOp19
 70
     1
102
RTVSPropertyOp20
 70
     1
102
RTVSPropertyOp21
 70
     1
102
RTVSPropertyOp22
 70
     1
102
RTVSPropertyOp23
 70
     1
102
RTVSPropertyOp24
 70
     1
102
RTVSPropertyOp25
 70
     1
102
RTVSPropertyOp26
 70
     1
102
RTVSPropertyOp27
 70
     1
102
RTVSPropertyOp28
 70
     1
102
RTVSPropertyOp29
 70
     1
102
RTVSPropertyOp30
 70
     1
102
RTVSPropertyOp31
 70
     1
102
RTVSPropertyOp32
 70
     1
102
RTVSPropertyOp33
 70
     1
102
RTVSPropertyOp34
 70
     1
102
RTVSPropertyOp35
 70
     1
102
RTVSPropertyOp36
 70
     1
102
RTVSPropertyOp37
 70
     1
102
RTVSPropertyOp38
 70
     1
102
RTVSPropertyOp39
 70
     1
102
RTVSPropertyOp40
 70
     1
102
RTVSPropertyOp41
 70
     1
102
RTVSPropertyOp42
 70
     1
102
RTVSPropertyOp43
 70
     1
102
RTVSPropertyOp44
 70
     1
102
RTVSPropertyOp45
 70
     1
102
RTVSPropertyOp46
 70
     1
102
RTVSPropertyOp47
 70
     1
102
RTVSPropertyOp48
 70
     1
102
RTVSPropertyOp49
 70
     1
102
RTVSPropertyOp50
 70
     1
102
RTVSPropertyOp51
 70
     0
102
RTVSPropertyOp52
 70
     0
102
RTVSPropertyOp53
 70
     1
102
RTVSPropertyOp54
 70
     1
102
RTVSPropertyOp55
 70
     1
102
RTVSPropertyOp56
 70
     1
102
RTVSPropertyOp57
 70
     1
102
RTVSPropertyOp58
 70
     1
102
RTVSPropertyOp59
 70
     1
102
RTVSPropertyOp60
 70
     1
102
RTVSPropertyOp61
 70
     1
102
RTVSPropertyOp62
 70
     1
  0
XRECORD
  5
ECFA
102
{ACAD_REACTORS
330
ECF9
102
}
330
ECF9
100
AcDbXrecord
280
     1
102
RTVSPost2010Prop28
280
     0
102
RTVSPost2010PropOp28
 70
     1
102
RTVSPost2010Prop29
280
     1
102
RTVSPost2010PropOp29
 70
     1
102
RTVSPost2010Prop30
280
     1
102
RTVSPost2010PropOp30
 70
     1
102
RTVSPost2010Prop31
280
     0
102
RTVSPost2010PropOp31
 70
     1
102
RTVSPost2010Prop32
280
     0
102
RTVSPost2010PropOp32
 70
     1
102
RTVSPost2010Prop33
280
     0
102
RTVSPost2010PropOp33
 70
     1
102
RTVSPost2010Prop34
280
     0
102
RTVSPost2010PropOp34
 70
     1
102
RTVSPost2010Prop35
280
     0
102
RTVSPost2010PropOp35
 70
     1
102
RTVSPost2010Prop36
280
     0
102
RTVSPost2010PropOp36
 70
     1
102
RTVSPost2010Prop37
 90
       50
102
RTVSPost2010PropOp37
 70
     1
102
RTVSPost2010Prop38
140
0.0
102
RTVSPost2010PropOp38
 70
     1
102
RTVSPost2010Prop39
140
1.0
102
RTVSPost2010PropOp39
 70
     1
102
RTVSPost2010Prop40
 90
        0
102
RTVSPost2010PropOp40
 70
     1
102
RTVSPost2010Prop41ColorIndex
 90
       18
102
RTVSPost2010Prop41ColorRGB
 90
        0
102
RTVSPost2010PropOp41
 70
     1
102
RTVSPost2010Prop42
 90
       50
102
RTVSPost2010PropOp42
 70
     1
102
RTVSPost2010Prop43
 90
        3
102
RTVSPost2010PropOp43
 70
     1
102
RTVSPost2010Prop44ColorIndex
 90
        5
102
RTVSPost2010Prop44ColorRGB
 90
      255
102
RTVSPost2010PropOp44
 70
     1
102
RTVSPost2010Prop45
280
     0
102
RTVSPost2010PropOp45
 70
     1
102
RTVSPost2010Prop46
 90
       50
102
RTVSPost2010PropOp46
 70
     1
102
RTVSPost2010Prop47
 90
       50
102
RTVSPost2010PropOp47
 70
     1
102
RTVSPost2010Prop48
 90
       50
102
RTVSPost2010PropOp48
 70
     1
102
RTVSPost2010Prop49
280
     0
102
RTVSPost2010PropOp49
 70
     1
102
RTVSPost2010Prop50
 90
       50
102
RTVSPost2010PropOp50
 70
     1
102
RTVSPost2010Prop51ColorIndex
 90
      256
102
RTVSPost2010Prop51ColorRGB
 90
-16777216
102
RTVSPost2010PropOp51
 70
     0
102
RTVSPost2010Prop52
140
1.0
102
RTVSPost2010PropOp52
 70
     0
102
RTVSPost2010Prop53
 90
        2
102
RTVSPost2010PropOp53
 70
     1
102
RTVSPost2010Prop54
  1
strokes_ogs.tif
102
RTVSPost2010PropOp54
 70
     1
102
RTVSPost2010Prop55
280
     0
102
RTVSPost2010PropOp55
 70
     1
102
RTVSPost2010Prop56
140
1.0
102
RTVSPost2010PropOp56
 70
     1
102
RTVSPost2010Prop57
140
1.0
102
RTVSPost2010PropOp57
 70
     1
102
RTVSPropertyOp0
 70
     1
102
RTVSPropertyOp1
 70
     1
102
RTVSPropertyOp2
 70
     1
102
RTVSPropertyOp3
 70
     1
102
RTVSPropertyOp4
 70
     1
102
RTVSPropertyOp5
 70
     1
102
RTVSPropertyOp6
 70
     1
102
RTVSPropertyOp7
 70
     1
102
RTVSPropertyOp8
 70
     1
102
RTVSPropertyOp9
 70
     1
102
RTVSPropertyOp10
 70
     1
102
RTVSPropertyOp11
 70
     1
102
RTVSPropertyOp12
 70
     1
102
RTVSPropertyOp13
 70
     1
102
RTVSPropertyOp14
 70
     1
102
RTVSPropertyOp15
 70
     1
102
RTVSPropertyOp16
 70
     1
102
RTVSPropertyOp17
 70
     1
102
RTVSPropertyOp18
 70
     1
102
RTVSPropertyOp19
 70
     1
102
RTVSPropertyOp20
 70
     1
102
RTVSPropertyOp21
 70
     1
102
RTVSPropertyOp22
 70
     1
102
RTVSPropertyOp23
 70
     1
102
RTVSPropertyOp24
 70
     1
102
RTVSPropertyOp25
 70
     1
102
RTVSPropertyOp26
 70
     1
102
RTVSPropertyOp27
 70
     1
102
RTVSPropertyOp28
 70
     1
102
RTVSPropertyOp29
 70
     1
102
RTVSPropertyOp30
 70
     1
102
RTVSPropertyOp31
 70
     1
102
RTVSPropertyOp32
 70
     1
102
RTVSPropertyOp33
 70
     1
102
RTVSPropertyOp34
 70
     1
102
RTVSPropertyOp35
 70
     1
102
RTVSPropertyOp36
 70
     1
102
RTVSPropertyOp37
 70
     1
102
RTVSPropertyOp38
 70
     1
102
RTVSPropertyOp39
 70
     1
102
RTVSPropertyOp40
 70
     1
102
RTVSPropertyOp41
 70
     1
102
RTVSPropertyOp42
 70
     1
102
RTVSPropertyOp43
 70
     1
102
RTVSPropertyOp44
 70
     1
102
RTVSPropertyOp45
 70
     1
102
RTVSPropertyOp46
 70
     1
102
RTVSPropertyOp47
 70
     1
102
RTVSPropertyOp48
 70
     1
102
RTVSPropertyOp49
 70
     1
102
RTVSPropertyOp50
 70
     1
102
RTVSPropertyOp51
 70
     0
102
RTVSPropertyOp52
 70
     0
102
RTVSPropertyOp53
 70
     1
102
RTVSPropertyOp54
 70
     1
102
RTVSPropertyOp55
 70
     1
102
RTVSPropertyOp56
 70
     1
102
RTVSPropertyOp57
 70
     1
102
RTVSPropertyOp58
 70
     1
102
RTVSPropertyOp59
 70
     1
102
RTVSPropertyOp60
 70
     1
102
RTVSPropertyOp61
 70
     1
102
RTVSPropertyOp62
 70
     1
  0
XRECORD
  5
ECF0
102
{ACAD_REACTORS
330
ECEF
102
}
330
ECEF
100
AcDbXrecord
280
     1
102
RTVSPost2010Prop28
280
     0
102
RTVSPost2010PropOp28
 70
     1
102
RTVSPost2010Prop29
280
     1
102
RTVSPost2010PropOp29
 70
     1
102
RTVSPost2010Prop30
280
     1
102
RTVSPost2010PropOp30
 70
     1
102
RTVSPost2010Prop31
280
     0
102
RTVSPost2010PropOp31
 70
     1
102
RTVSPost2010Prop32
280
     0
102
RTVSPost2010PropOp32
 70
     1
102
RTVSPost2010Prop33
280
     0
102
RTVSPost2010PropOp33
 70
     1
102
RTVSPost2010Prop34
280
     0
102
RTVSPost2010PropOp34
 70
     1
102
RTVSPost2010Prop35
280
     0
102
RTVSPost2010PropOp35
 70
     1
102
RTVSPost2010Prop36
280
     0
102
RTVSPost2010PropOp36
 70
     1
102
RTVSPost2010Prop37
 90
       50
102
RTVSPost2010PropOp37
 70
     1
102
RTVSPost2010Prop38
140
0.0
102
RTVSPost2010PropOp38
 70
     1
102
RTVSPost2010Prop39
140
1.0
102
RTVSPost2010PropOp39
 70
     1
102
RTVSPost2010Prop40
 90
        0
102
RTVSPost2010PropOp40
 70
     1
102
RTVSPost2010Prop41ColorIndex
 90
       18
102
RTVSPost2010Prop41ColorRGB
 90
        0
102
RTVSPost2010PropOp41
 70
     1
102
RTVSPost2010Prop42
 90
       50
102
RTVSPost2010PropOp42
 70
     1
102
RTVSPost2010Prop43
 90
        3
102
RTVSPost2010PropOp43
 70
     1
102
RTVSPost2010Prop44ColorIndex
 90
        5
102
RTVSPost2010Prop44ColorRGB
 90
      255
102
RTVSPost2010PropOp44
 70
     1
102
RTVSPost2010Prop45
280
     0
102
RTVSPost2010PropOp45
 70
     1
102
RTVSPost2010Prop46
 90
       50
102
RTVSPost2010PropOp46
 70
     1
102
RTVSPost2010Prop47
 90
       50
102
RTVSPost2010PropOp47
 70
     1
102
RTVSPost2010Prop48
 90
       50
102
RTVSPost2010PropOp48
 70
     1
102
RTVSPost2010Prop49
280
     0
102
RTVSPost2010PropOp49
 70
     1
102
RTVSPost2010Prop50
 90
       50
102
RTVSPost2010PropOp50
 70
     1
102
RTVSPost2010Prop51ColorIndex
 90
      256
102
RTVSPost2010Prop51ColorRGB
 90
-16777216
102
RTVSPost2010PropOp51
 70
     0
102
RTVSPost2010Prop52
140
1.0
102
RTVSPost2010PropOp52
 70
     0
102
RTVSPost2010Prop53
 90
        2
102
RTVSPost2010PropOp53
 70
     1
102
RTVSPost2010Prop54
  1
strokes_ogs.tif
102
RTVSPost2010PropOp54
 70
     1
102
RTVSPost2010Prop55
280
     0
102
RTVSPost2010PropOp55
 70
     1
102
RTVSPost2010Prop56
140
1.0
102
RTVSPost2010PropOp56
 70
     1
102
RTVSPost2010Prop57
140
1.0
102
RTVSPost2010PropOp57
 70
     1
102
RTVSPropertyOp0
 70
     1
102
RTVSPropertyOp1
 70
     1
102
RTVSPropertyOp2
 70
     1
102
RTVSPropertyOp3
 70
     1
102
RTVSPropertyOp4
 70
     1
102
RTVSPropertyOp5
 70
     1
102
RTVSPropertyOp6
 70
     1
102
RTVSPropertyOp7
 70
     1
102
RTVSPropertyOp8
 70
     1
102
RTVSPropertyOp9
 70
     1
102
RTVSPropertyOp10
 70
     1
102
RTVSPropertyOp11
 70
     1
102
RTVSPropertyOp12
 70
     1
102
RTVSPropertyOp13
 70
     1
102
RTVSPropertyOp14
 70
     1
102
RTVSPropertyOp15
 70
     1
102
RTVSPropertyOp16
 70
     1
102
RTVSPropertyOp17
 70
     1
102
RTVSPropertyOp18
 70
     1
102
RTVSPropertyOp19
 70
     1
102
RTVSPropertyOp20
 70
     1
102
RTVSPropertyOp21
 70
     1
102
RTVSPropertyOp22
 70
     1
102
RTVSPropertyOp23
 70
     1
102
RTVSPropertyOp24
 70
     1
102
RTVSPropertyOp25
 70
     1
102
RTVSPropertyOp26
 70
     1
102
RTVSPropertyOp27
 70
     1
102
RTVSPropertyOp28
 70
     1
102
RTVSPropertyOp29
 70
     1
102
RTVSPropertyOp30
 70
     1
102
RTVSPropertyOp31
 70
     1
102
RTVSPropertyOp32
 70
     1
102
RTVSPropertyOp33
 70
     1
102
RTVSPropertyOp34
 70
     1
102
RTVSPropertyOp35
 70
     1
102
RTVSPropertyOp36
 70
     1
102
RTVSPropertyOp37
 70
     1
102
RTVSPropertyOp38
 70
     1
102
RTVSPropertyOp39
 70
     1
102
RTVSPropertyOp40
 70
     1
102
RTVSPropertyOp41
 70
     1
102
RTVSPropertyOp42
 70
     1
102
RTVSPropertyOp43
 70
     1
102
RTVSPropertyOp44
 70
     1
102
RTVSPropertyOp45
 70
     1
102
RTVSPropertyOp46
 70
     1
102
RTVSPropertyOp47
 70
     1
102
RTVSPropertyOp48
 70
     1
102
RTVSPropertyOp49
 70
     1
102
RTVSPropertyOp50
 70
     1
102
RTVSPropertyOp51
 70
     0
102
RTVSPropertyOp52
 70
     0
102
RTVSPropertyOp53
 70
     1
102
RTVSPropertyOp54
 70
     1
102
RTVSPropertyOp55
 70
     1
102
RTVSPropertyOp56
 70
     1
102
RTVSPropertyOp57
 70
     1
102
RTVSPropertyOp58
 70
     1
102
RTVSPropertyOp59
 70
     1
102
RTVSPropertyOp60
 70
     1
102
RTVSPropertyOp61
 70
     1
102
RTVSPropertyOp62
 70
     1
  0
XRECORD
  5
ECE4
102
{ACAD_REACTORS
330
ECE3
102
}
330
ECE3
100
AcDbXrecord
280
     1
102
RTVSPost2010Prop28
280
     0
102
RTVSPost2010PropOp28
 70
     1
102
RTVSPost2010Prop29
280
     1
102
RTVSPost2010PropOp29
 70
     1
102
RTVSPost2010Prop30
280
     1
102
RTVSPost2010PropOp30
 70
     1
102
RTVSPost2010Prop31
280
     0
102
RTVSPost2010PropOp31
 70
     1
102
RTVSPost2010Prop32
280
     0
102
RTVSPost2010PropOp32
 70
     1
102
RTVSPost2010Prop33
280
     0
102
RTVSPost2010PropOp33
 70
     1
102
RTVSPost2010Prop34
280
     0
102
RTVSPost2010PropOp34
 70
     1
102
RTVSPost2010Prop35
280
     0
102
RTVSPost2010PropOp35
 70
     1
102
RTVSPost2010Prop36
280
     0
102
RTVSPost2010PropOp36
 70
     1
102
RTVSPost2010Prop37
 90
       50
102
RTVSPost2010PropOp37
 70
     1
102
RTVSPost2010Prop38
140
0.0
102
RTVSPost2010PropOp38
 70
     1
102
RTVSPost2010Prop39
140
1.0
102
RTVSPost2010PropOp39
 70
     1
102
RTVSPost2010Prop40
 90
        0
102
RTVSPost2010PropOp40
 70
     1
102
RTVSPost2010Prop41ColorIndex
 90
       18
102
RTVSPost2010Prop41ColorRGB
 90
        0
102
RTVSPost2010PropOp41
 70
     1
102
RTVSPost2010Prop42
 90
       50
102
RTVSPost2010PropOp42
 70
     1
102
RTVSPost2010Prop43
 90
        3
102
RTVSPost2010PropOp43
 70
     1
102
RTVSPost2010Prop44ColorIndex
 90
        5
102
RTVSPost2010Prop44ColorRGB
 90
      255
102
RTVSPost2010PropOp44
 70
     1
102
RTVSPost2010Prop45
280
     0
102
RTVSPost2010PropOp45
 70
     1
102
RTVSPost2010Prop46
 90
       50
102
RTVSPost2010PropOp46
 70
     1
102
RTVSPost2010Prop47
 90
       50
102
RTVSPost2010PropOp47
 70
     1
102
RTVSPost2010Prop48
 90
       50
102
RTVSPost2010PropOp48
 70
     1
102
RTVSPost2010Prop49
280
     0
102
RTVSPost2010PropOp49
 70
     1
102
RTVSPost2010Prop50
 90
       50
102
RTVSPost2010PropOp50
 70
     1
102
RTVSPost2010Prop51ColorIndex
 90
      256
102
RTVSPost2010Prop51ColorRGB
 90
-16777216
102
RTVSPost2010PropOp51
 70
     0
102
RTVSPost2010Prop52
140
1.0
102
RTVSPost2010PropOp52
 70
     0
102
RTVSPost2010Prop53
 90
        2
102
RTVSPost2010PropOp53
 70
     1
102
RTVSPost2010Prop54
  1
strokes_ogs.tif
102
RTVSPost2010PropOp54
 70
     1
102
RTVSPost2010Prop55
280
     0
102
RTVSPost2010PropOp55
 70
     1
102
RTVSPost2010Prop56
140
1.0
102
RTVSPost2010PropOp56
 70
     1
102
RTVSPost2010Prop57
140
1.0
102
RTVSPost2010PropOp57
 70
     1
102
RTVSPropertyOp0
 70
     1
102
RTVSPropertyOp1
 70
     1
102
RTVSPropertyOp2
 70
     1
102
RTVSPropertyOp3
 70
     1
102
RTVSPropertyOp4
 70
     1
102
RTVSPropertyOp5
 70
     1
102
RTVSPropertyOp6
 70
     1
102
RTVSPropertyOp7
 70
     1
102
RTVSPropertyOp8
 70
     1
102
RTVSPropertyOp9
 70
     1
102
RTVSPropertyOp10
 70
     1
102
RTVSPropertyOp11
 70
     1
102
RTVSPropertyOp12
 70
     1
102
RTVSPropertyOp13
 70
     1
102
RTVSPropertyOp14
 70
     1
102
RTVSPropertyOp15
 70
     1
102
RTVSPropertyOp16
 70
     1
102
RTVSPropertyOp17
 70
     1
102
RTVSPropertyOp18
 70
     1
102
RTVSPropertyOp19
 70
     1
102
RTVSPropertyOp20
 70
     1
102
RTVSPropertyOp21
 70
     1
102
RTVSPropertyOp22
 70
     1
102
RTVSPropertyOp23
 70
     1
102
RTVSPropertyOp24
 70
     1
102
RTVSPropertyOp25
 70
     1
102
RTVSPropertyOp26
 70
     1
102
RTVSPropertyOp27
 70
     1
102
RTVSPropertyOp28
 70
     1
102
RTVSPropertyOp29
 70
     1
102
RTVSPropertyOp30
 70
     1
102
RTVSPropertyOp31
 70
     1
102
RTVSPropertyOp32
 70
     1
102
RTVSPropertyOp33
 70
     1
102
RTVSPropertyOp34
 70
     1
102
RTVSPropertyOp35
 70
     1
102
RTVSPropertyOp36
 70
     1
102
RTVSPropertyOp37
 70
     1
102
RTVSPropertyOp38
 70
     1
102
RTVSPropertyOp39
 70
     1
102
RTVSPropertyOp40
 70
     1
102
RTVSPropertyOp41
 70
     1
102
RTVSPropertyOp42
 70
     1
102
RTVSPropertyOp43
 70
     1
102
RTVSPropertyOp44
 70
     1
102
RTVSPropertyOp45
 70
     1
102
RTVSPropertyOp46
 70
     1
102
RTVSPropertyOp47
 70
     1
102
RTVSPropertyOp48
 70
     1
102
RTVSPropertyOp49
 70
     1
102
RTVSPropertyOp50
 70
     1
102
RTVSPropertyOp51
 70
     0
102
RTVSPropertyOp52
 70
     0
102
RTVSPropertyOp53
 70
     1
102
RTVSPropertyOp54
 70
     1
102
RTVSPropertyOp55
 70
     1
102
RTVSPropertyOp56
 70
     1
102
RTVSPropertyOp57
 70
     1
102
RTVSPropertyOp58
 70
     1
102
RTVSPropertyOp59
 70
     1
102
RTVSPropertyOp60
 70
     1
102
RTVSPropertyOp61
 70
     1
102
RTVSPropertyOp62
 70
     1
  0
XRECORD
  5
ECFC
102
{ACAD_REACTORS
330
ECFB
102
}
330
ECFB
100
AcDbXrecord
280
     1
102
RTVSPost2010Prop28
280
     0
102
RTVSPost2010PropOp28
 70
     1
102
RTVSPost2010Prop29
280
     1
102
RTVSPost2010PropOp29
 70
     1
102
RTVSPost2010Prop30
280
     1
102
RTVSPost2010PropOp30
 70
     1
102
RTVSPost2010Prop31
280
     0
102
RTVSPost2010PropOp31
 70
     1
102
RTVSPost2010Prop32
280
     0
102
RTVSPost2010PropOp32
 70
     1
102
RTVSPost2010Prop33
280
     0
102
RTVSPost2010PropOp33
 70
     1
102
RTVSPost2010Prop34
280
     0
102
RTVSPost2010PropOp34
 70
     1
102
RTVSPost2010Prop35
280
     0
102
RTVSPost2010PropOp35
 70
     1
102
RTVSPost2010Prop36
280
     0
102
RTVSPost2010PropOp36
 70
     1
102
RTVSPost2010Prop37
 90
       50
102
RTVSPost2010PropOp37
 70
     1
102
RTVSPost2010Prop38
140
0.0
102
RTVSPost2010PropOp38
 70
     1
102
RTVSPost2010Prop39
140
1.0
102
RTVSPost2010PropOp39
 70
     1
102
RTVSPost2010Prop40
 90
        0
102
RTVSPost2010PropOp40
 70
     1
102
RTVSPost2010Prop41ColorIndex
 90
       18
102
RTVSPost2010Prop41ColorRGB
 90
        0
102
RTVSPost2010PropOp41
 70
     1
102
RTVSPost2010Prop42
 90
       50
102
RTVSPost2010PropOp42
 70
     1
102
RTVSPost2010Prop43
 90
        3
102
RTVSPost2010PropOp43
 70
     1
102
RTVSPost2010Prop44ColorIndex
 90
        5
102
RTVSPost2010Prop44ColorRGB
 90
      255
102
RTVSPost2010PropOp44
 70
     1
102
RTVSPost2010Prop45
280
     0
102
RTVSPost2010PropOp45
 70
     1
102
RTVSPost2010Prop46
 90
       50
102
RTVSPost2010PropOp46
 70
     1
102
RTVSPost2010Prop47
 90
       50
102
RTVSPost2010PropOp47
 70
     1
102
RTVSPost2010Prop48
 90
       50
102
RTVSPost2010PropOp48
 70
     1
102
RTVSPost2010Prop49
280
     0
102
RTVSPost2010PropOp49
 70
     1
102
RTVSPost2010Prop50
 90
       50
102
RTVSPost2010PropOp50
 70
     1
102
RTVSPost2010Prop51ColorIndex
 90
      256
102
RTVSPost2010Prop51ColorRGB
 90
-16777216
102
RTVSPost2010PropOp51
 70
     0
102
RTVSPost2010Prop52
140
1.0
102
RTVSPost2010PropOp52
 70
     0
102
RTVSPost2010Prop53
 90
        2
102
RTVSPost2010PropOp53
 70
     1
102
RTVSPost2010Prop54
  1
strokes_ogs.tif
102
RTVSPost2010PropOp54
 70
     1
102
RTVSPost2010Prop55
280
     0
102
RTVSPost2010PropOp55
 70
     1
102
RTVSPost2010Prop56
140
1.0
102
RTVSPost2010PropOp56
 70
     1
102
RTVSPost2010Prop57
140
1.0
102
RTVSPost2010PropOp57
 70
     1
102
RTVSPropertyOp0
 70
     1
102
RTVSPropertyOp1
 70
     1
102
RTVSPropertyOp2
 70
     1
102
RTVSPropertyOp3
 70
     1
102
RTVSPropertyOp4
 70
     1
102
RTVSPropertyOp5
 70
     1
102
RTVSPropertyOp6
 70
     1
102
RTVSPropertyOp7
 70
     1
102
RTVSPropertyOp8
 70
     1
102
RTVSPropertyOp9
 70
     1
102
RTVSPropertyOp10
 70
     1
102
RTVSPropertyOp11
 70
     1
102
RTVSPropertyOp12
 70
     1
102
RTVSPropertyOp13
 70
     1
102
RTVSPropertyOp14
 70
     1
102
RTVSPropertyOp15
 70
     1
102
RTVSPropertyOp16
 70
     1
102
RTVSPropertyOp17
 70
     1
102
RTVSPropertyOp18
 70
     1
102
RTVSPropertyOp19
 70
     1
102
RTVSPropertyOp20
 70
     1
102
RTVSPropertyOp21
 70
     1
102
RTVSPropertyOp22
 70
     1
102
RTVSPropertyOp23
 70
     1
102
RTVSPropertyOp24
 70
     1
102
RTVSPropertyOp25
 70
     1
102
RTVSPropertyOp26
 70
     1
102
RTVSPropertyOp27
 70
     1
102
RTVSPropertyOp28
 70
     1
102
RTVSPropertyOp29
 70
     1
102
RTVSPropertyOp30
 70
     1
102
RTVSPropertyOp31
 70
     1
102
RTVSPropertyOp32
 70
     1
102
RTVSPropertyOp33
 70
     1
102
RTVSPropertyOp34
 70
     1
102
RTVSPropertyOp35
 70
     1
102
RTVSPropertyOp36
 70
     1
102
RTVSPropertyOp37
 70
     1
102
RTVSPropertyOp38
 70
     1
102
RTVSPropertyOp39
 70
     1
102
RTVSPropertyOp40
 70
     1
102
RTVSPropertyOp41
 70
     1
102
RTVSPropertyOp42
 70
     1
102
RTVSPropertyOp43
 70
     1
102
RTVSPropertyOp44
 70
     1
102
RTVSPropertyOp45
 70
     1
102
RTVSPropertyOp46
 70
     1
102
RTVSPropertyOp47
 70
     1
102
RTVSPropertyOp48
 70
     1
102
RTVSPropertyOp49
 70
     1
102
RTVSPropertyOp50
 70
     1
102
RTVSPropertyOp51
 70
     0
102
RTVSPropertyOp52
 70
     0
102
RTVSPropertyOp53
 70
     1
102
RTVSPropertyOp54
 70
     1
102
RTVSPropertyOp55
 70
     1
102
RTVSPropertyOp56
 70
     1
102
RTVSPropertyOp57
 70
     1
102
RTVSPropertyOp58
 70
     1
102
RTVSPropertyOp59
 70
     1
102
RTVSPropertyOp60
 70
     1
102
RTVSPropertyOp61
 70
     1
102
RTVSPropertyOp62
 70
     1
  0
ENDSEC
  0
EOF
