  0
SECTION
  2
HEADER
  9
$ACADVER
  1
AC1018
  9
$ACADMAINTVER
 70
    76
  9
$DWGCODEPAGE
  3
ANSI_932
  9
$INSBASE
 10
0.0
 20
0.0
 30
0.0
  9
$EXTMIN
 10
0.0
 20
0.0
 30
0.0
  9
$EXTMAX
 10
190.0
 20
280.0
 30
0.0
  9
$LIMMIN
 10
0.0
 20
0.0
  9
$LIMMAX
 10
420.0
 20
297.0
  9
$ORTHOMODE
 70
     1
  9
$REGENMODE
 70
     1
  9
$FILLMODE
 70
     1
  9
$QTEXTMODE
 70
     0
  9
$MIRRTEXT
 70
     1
  9
$LTSCALE
 40
1.0
  9
$ATTMODE
 70
     1
  9
$TEXTSIZE
 40
1.25
  9
$TRACEWID
 40
1.0
  9
$TEXTSTYLE
  7
TXT
  9
$CLAYER
  8
section
  9
$CELTYPE
  6
BYLAYER
  9
$CECOLOR
 62
   256
  9
$CELTSCALE
 40
1.0
  9
$DISPSILH
 70
     0
  9
$DIMSCALE
 40
1.0
  9
$DIMASZ
 40
2.5
  9
$DIMEXO
 40
0.8
  9
$DIMDLI
 40
0.38
  9
$DIMRND
 40
0.0
  9
$DIMDLE
 40
0.0
  9
$DIMEXE
 40
0.8
  9
$DIMTP
 40
0.0
  9
$DIMTM
 40
0.0
  9
$DIMTXT
 40
2.5
  9
$DIMCEN
 40
0.09
  9
$DIMTSZ
 40
0.0
  9
$DIMTOL
 70
     0
  9
$DIMLIM
 70
     0
  9
$DIMTIH
 70
     0
  9
$DIMTOH
 70
     0
  9
$DIMSE1
 70
     0
  9
$DIMSE2
 70
     0
  9
$DIMTAD
 70
     3
  9
$DIMZIN
 70
     8
  9
$DIMBLK
  1
Open30
  9
$DIMASO
 70
     1
  9
$DIMSHO
 70
     1
  9
$DIMPOST
  1

  9
$DIMAPOST
  1

  9
$DIMALT
 70
     0
  9
$DIMALTD
 70
     2
  9
$DIMALTF
 40
25.4
  9
$DIMLFAC
 40
1.0
  9
$DIMTOFL
 70
     1
  9
$DIMTVP
 40
0.0
  9
$DIMTIX
 70
     0
  9
$DIMSOXD
 70
     0
  9
$DIMSAH
 70
     0
  9
$DIMBLK1
  1

  9
$DIMBLK2
  1

  9
$DIMSTYLE
  2
STANDARD
  9
$DIMCLRD
 70
   256
  9
$DIMCLRE
 70
   256
  9
$DIMCLRT
 70
     3
  9
$DIMTFAC
 40
1.0
  9
$DIMGAP
 40
0.8
  9
$DIMJUST
 70
     0
  9
$DIMSD1
 70
     0
  9
$DIMSD2
 70
     0
  9
$DIMTOLJ
 70
     1
  9
$DIMTZIN
 70
     0
  9
$DIMALTZ
 70
     0
  9
$DIMALTTZ
 70
     0
  9
$DIMUPT
 70
     0
  9
$DIMDEC
 70
     2
  9
$DIMTDEC
 70
     2
  9
$DIMALTU
 70
     2
  9
$DIMALTTD
 70
     2
  9
$DIMTXSTY
  7
STANDARD
  9
$DIMAUNIT
 70
     0
  9
$DIMADEC
 70
     2
  9
$DIMALTRND
 40
0.0
  9
$DIMAZIN
 70
     2
  9
$DIMDSEP
 70
    46
  9
$DIMATFIT
 70
     3
  9
$DIMFRAC
 70
     0
  9
$DIMLDRBLK
  1
Open30
  9
$DIMLUNIT
 70
     2
  9
$DIMLWD
 70
    -2
  9
$DIMLWE
 70
    -2
  9
$DIMTMOVE
 70
     0
  9
$LUNITS
 70
     2
  9
$LUPREC
 70
     2
  9
$SKETCHINC
 40
1.0
  9
$FILLETRAD
 40
1.0
  9
$AUNITS
 70
     0
  9
$AUPREC
 70
     2
  9
$MENU
  1
.
  9
$ELEVATION
 40
0.0
  9
$PELEVATION
 40
0.0
  9
$THICKNESS
 40
0.0
  9
$LIMCHECK
 70
     0
  9
$CHAMFERA
 40
1.0
  9
$CHAMFERB
 40
1.0
  9
$CHAMFERC
 40
1.75
  9
$CHAMFERD
 40
0.0174532925199433
  9
$SKPOLY
 70
     0
  9
$TDCREATE
 40
2451555.620234838
  9
$TDUCREATE
 40
2451555.245234838
  9
$TDUPDATE
 40
2455846.621343403
  9
$TDUUPDATE
 40
2455846.246343403
  9
$TDINDWG
 40
2.6582554167
  9
$TDUSRTIMER
 40
2.6582554167
  9
$USRTIMER
 70
     1
  9
$ANGBASE
 50
0.0
  9
$ANGDIR
 70
     0
  9
$PDMODE
 70
     0
  9
$PDSIZE
 40
0.0
  9
$PLINEWID
 40
0.0
  9
$SPLFRAME
 70
     0
  9
$SPLINETYPE
 70
     6
  9
$SPLINESEGS
 70
     8
  9
$HANDSEED
  5
AD36
  9
$SURFTAB1
 70
     6
  9
$SURFTAB2
 70
     6
  9
$SURFTYPE
 70
     6
  9
$SURFU
 70
     6
  9
$SURFV
 70
     6
  9
$UCSBASE
  2

  9
$UCSNAME
  2

  9
$UCSORG
 10
0.0
 20
0.0
 30
0.0
  9
$UCSXDIR
 10
1.0
 20
0.0
 30
0.0
  9
$UCSYDIR
 10
0.0
 20
1.0
 30
0.0
  9
$UCSORTHOREF
  2

  9
$UCSORTHOVIEW
 70
     1
  9
$UCSORGTOP
 10
0.0
 20
0.0
 30
0.0
  9
$UCSORGBOTTOM
 10
0.0
 20
0.0
 30
0.0
  9
$UCSORGLEFT
 10
0.0
 20
0.0
 30
0.0
  9
$UCSORGRIGHT
 10
0.0
 20
0.0
 30
0.0
  9
$UCSORGFRONT
 10
0.0
 20
0.0
 30
0.0
  9
$UCSORGBACK
 10
0.0
 20
0.0
 30
0.0
  9
$PUCSBASE
  2

  9
$PUCSNAME
  2

  9
$PUCSORG
 10
0.0
 20
0.0
 30
0.0
  9
$PUCSXDIR
 10
1.0
 20
0.0
 30
0.0
  9
$PUCSYDIR
 10
0.0
 20
1.0
 30
0.0
  9
$PUCSORTHOREF
  2

  9
$PUCSORTHOVIEW
 70
     0
  9
$PUCSORGTOP
 10
0.0
 20
0.0
 30
0.0
  9
$PUCSORGBOTTOM
 10
0.0
 20
0.0
 30
0.0
  9
$PUCSORGLEFT
 10
0.0
 20
0.0
 30
0.0
  9
$PUCSORGRIGHT
 10
0.0
 20
0.0
 30
0.0
  9
$PUCSORGFRONT
 10
0.0
 20
0.0
 30
0.0
  9
$PUCSORGBACK
 10
0.0
 20
0.0
 30
0.0
  9
$USERI1
 70
     0
  9
$USERI2
 70
     0
  9
$USERI3
 70
     0
  9
$USERI4
 70
     0
  9
$USERI5
 70
     0
  9
$USERR1
 40
0.0
  9
$USERR2
 40
0.0
  9
$USERR3
 40
0.0
  9
$USERR4
 40
0.0
  9
$USERR5
 40
0.0
  9
$WORLDVIEW
 70
     1
  9
$SHADEDGE
 70
     3
  9
$SHADEDIF
 70
    70
  9
$TILEMODE
 70
     1
  9
$MAXACTVP
 70
    48
  9
$PINSBASE
 10
0.0
 20
0.0
 30
0.0
  9
$PLIMCHECK
 70
     0
  9
$PEXTMIN
 10
1.000000000000000E+20
 20
1.000000000000000E+20
 30
1.000000000000000E+20
  9
$PEXTMAX
 10
-1.000000000000000E+20
 20
-1.000000000000000E+20
 30
-1.000000000000000E+20
  9
$PLIMMIN
 10
0.0
 20
0.0
  9
$PLIMMAX
 10
420.0
 20
297.0
  9
$UNITMODE
 70
     0
  9
$VISRETAIN
 70
     1
  9
$PLINEGEN
 70
     0
  9
$PSLTSCALE
 70
     1
  9
$TREEDEPTH
 70
  3020
  9
$CMLSTYLE
  2
STANDARD
  9
$CMLJUST
 70
     0
  9
$CMLSCALE
 40
20.0
  9
$PROXYGRAPHICS
 70
     1
  9
$MEASUREMENT
 70
     1
  9
$CELWEIGHT
370
    -1
  9
$ENDCAPS
280
     0
  9
$JOINSTYLE
280
     0
  9
$LWDISPLAY
290
     0
  9
$INSUNITS
 70
     0
  9
$HYPERLINKBASE
  1

  9
$STYLESHEET
  1
monochrome.ctb
  9
$XEDIT
290
     1
  9
$CEPSNTYPE
380
     0
  9
$PSTYLEMODE
290
     1
  9
$FINGERPRINTGUID
  2
{1CF51E8A-A506-11D4-A7D9-AF69F5C20846}
  9
$VERSIONGUID
  2
{C607862A-0A9B-4A71-8837-4DDDCAC7316D}
  9
$EXTNAMES
290
     1
  9
$PSVPSCALE
 40
0.0
  9
$OLESTARTUP
290
     0
  9
$SORTENTS
280
   127
  9
$INDEXCTL
280
     0
  9
$HIDETEXT
280
     0
  9
$XCLIPFRAME
290
     0
  9
$HALOGAP
280
     0
  9
$OBSCOLOR
 70
   257
  9
$OBSLTYPE
280
     0
  9
$INTERSECTIONDISPLAY
280
     0
  9
$INTERSECTIONCOLOR
 70
   257
  9
$DIMASSOC
280
     1
  9
$PROJECTNAME
  1

  0
ENDSEC
  0
SECTION
  2
CLASSES
  0
CLASS
  1
DICTIONARYVAR
  2
AcDbDictionaryVar
  3
ObjectDBX Classes
 90
        0
 91
        2
280
     0
281
     0
  0
CLASS
  1
SORTENTSTABLE
  2
AcDbSortentsTable
  3
ObjectDBX Classes
 90
        0
 91
        2
280
     0
281
     0
  0
CLASS
  1
ACDBDICTIONARYWDFLT
  2
AcDbDictionaryWithDefault
  3
ObjectDBX Classes
 90
        0
 91
        1
280
     0
281
     0
  0
CLASS
  1
TABLESTYLE
  2
AcDbTableStyle
  3
ObjectDBX Classes
 90
     2047
 91
        1
280
     0
281
     0
  0
ENDSEC
  0
SECTION
  2
TABLES
  0
TABLE
  2
VPORT
  5
8
330
0
100
AcDbSymbolTable
 70
     2
  0
VPORT
  5
AD35
330
8
100
AcDbSymbolTableRecord
100
AcDbViewportTableRecord
  2
*Active
 70
     0
 10
0.0
 20
0.0
 11
1.0
 21
1.0
 12
245.9777003872452
 22
140.002116926737
 13
0.0
 23
0.0
 14
10.0
 24
10.0
 15
10.0
 25
10.0
 16
0.0
 26
0.0
 36
1.0
 17
0.0
 27
0.0
 37
0.0
 40
283.4234321072886
 41
2.47104247104247
 42
50.0
 43
0.0
 44
0.0
 50
0.0
 51
0.0
 71
     0
 72
 20000
 73
     1
 74
     1
 75
     0
 76
     0
 77
     0
 78
     0
281
     0
 65
     1
110
0.0
120
0.0
130
0.0
111
1.0
121
0.0
131
0.0
112
0.0
122
1.0
132
0.0
 79
     1
146
0.0
  0
ENDTAB
  0
TABLE
  2
LTYPE
  5
5
330
0
100
AcDbSymbolTable
 70
     7
  0
LTYPE
  5
12
330
5
100
AcDbSymbolTableRecord
100
AcDbLinetypeTableRecord
  2
BYBLOCK
 70
     0
  3

 72
    65
 73
     0
 40
0.0
  0
LTYPE
  5
13
330
5
100
AcDbSymbolTableRecord
100
AcDbLinetypeTableRecord
  2
BYLAYER
 70
     0
  3

 72
    65
 73
     0
 40
0.0
  0
LTYPE
  5
14
330
5
100
AcDbSymbolTableRecord
100
AcDbLinetypeTableRecord
  2
CONTINUOUS
 70
     0
  3
Solid line
 72
    65
 73
     0
 40
0.0
  0
LTYPE
  5
9D
330
5
100
AcDbSymbolTableRecord
100
AcDbLinetypeTableRecord
  2
CENTERX2
 70
     0
  3
Center (2x) ________  __  ________  __  _____
 72
    65
 73
     4
 40
101.6
 49
63.5
 74
     0
 49
-12.7
 74
     0
 49
12.7
 74
     0
 49
-12.7
 74
     0
  0
LTYPE
  5
A1
330
5
100
AcDbSymbolTableRecord
100
AcDbLinetypeTableRecord
  2
DASHED
 70
     0
  3
Dashed __ __ __ __ __ __ __ __ __ __ __ __ __ _
 72
    65
 73
     2
 40
19.05
 49
12.7
 74
     0
 49
-6.349999999999999
 74
     0
  0
LTYPE
  5
A2
330
5
100
AcDbSymbolTableRecord
100
AcDbLinetypeTableRecord
  2
DASHED2
 70
     0
  3
Dashed (.5x) _ _ _ _ _ _ _ _ _ _ _ _ _ _ _ _ _
 72
    65
 73
     2
 40
9.524999999999998
 49
6.349999999999999
 74
     0
 49
-3.174999999999999
 74
     0
  0
LTYPE
  5
A5
330
5
100
AcDbSymbolTableRecord
100
AcDbLinetypeTableRecord
  2
DIVIDE2
 70
     0
  3
Divide (.5x) __..__..__..__..__..__..__..__.._
 72
    65
 73
     6
 40
15.875
 49
6.349999999999999
 74
     0
 49
-3.174999999999999
 74
     0
 49
0.0
 74
     0
 49
-3.174999999999999
 74
     0
 49
0.0
 74
     0
 49
-3.174999999999999
 74
     0
  0
LTYPE
  5
650B
330
5
100
AcDbSymbolTableRecord
100
AcDbLinetypeTableRecord
  2
CENTER
 70
     0
  3
Center ____ _ ____ _ ____ _ ____ _ ____ _ ____
 72
    65
 73
     4
 40
50.8
 49
31.75
 74
     0
 49
-6.349999999999999
 74
     0
 49
6.349999999999999
 74
     0
 49
-6.349999999999999
 74
     0
  0
LTYPE
  5
650C
330
5
100
AcDbSymbolTableRecord
100
AcDbLinetypeTableRecord
  2
HIDDEN
 70
     0
  3
Hidden __ __ __ __ __ __ __ __ __ __ __ __ __ _
 72
    65
 73
     2
 40
9.524999999999998
 49
6.349999999999999
 74
     0
 49
-3.174999999999999
 74
     0
  0
ENDTAB
  0
TABLE
  2
LAYER
  5
2
102
{ACAD_XDICTIONARY
360
7BFE
102
}
330
0
100
AcDbSymbolTable
 70
     9
  0
LAYER
  5
E
330
2
100
AcDbSymbolTableRecord
100
AcDbLayerTableRecord
  2
0
 70
     0
 62
     7
  6
CONTINUOUS
370
    -3
390
5CF2
  0
LAYER
  5
B9
330
2
100
AcDbSymbolTableRecord
100
AcDbLayerTableRecord
  2
dim
 70
     0
 62
     3
  6
CONTINUOUS
370
    -3
390
5CF2
  0
LAYER
  5
F2
330
2
100
AcDbSymbolTableRecord
100
AcDbLayerTableRecord
  2
DEFPOINTS
 70
     0
 62
     4
  6
CONTINUOUS
290
     0
370
    -3
390
5CF2
  0
LAYER
  5
5F8B
330
2
100
AcDbSymbolTableRecord
100
AcDbLayerTableRecord
  2
mark
 70
     0
 62
     6
  6
CONTINUOUS
370
    -3
390
5CF2
  0
LAYER
  5
644E
330
2
100
AcDbSymbolTableRecord
100
AcDbLayerTableRecord
  2
frame
 70
     0
 62
     9
  6
CONTINUOUS
370
    -3
390
5CF2
  0
LAYER
  5
650D
330
2
100
AcDbSymbolTableRecord
100
AcDbLayerTableRecord
  2
center
 70
     0
 62
     1
  6
CENTER
370
    -3
390
5CF2
  0
LAYER
  5
650E
330
2
100
AcDbSymbolTableRecord
100
AcDbLayerTableRecord
  2
bowle
 70
     0
 62
     4
  6
HIDDEN
370
    -3
390
5CF2
  0
LAYER
  5
650F
330
2
100
AcDbSymbolTableRecord
100
AcDbLayerTableRecord
  2
contour
 70
     0
 62
     2
  6
CONTINUOUS
370
    -3
390
5CF2
  0
LAYER
  5
6510
330
2
100
AcDbSymbolTableRecord
100
AcDbLayerTableRecord
  2
section
 70
     0
 62
     5
  6
CONTINUOUS
370
    -3
390
5CF2
  0
ENDTAB
  0
TABLE
  2
STYLE
  5
3
330
0
100
AcDbSymbolTable
 70
     5
  0
STYLE
  5
F
330
3
100
AcDbSymbolTableRecord
100
AcDbTextStyleTableRecord
  2
STANDARD
 70
     0
 40
0.0
 41
1.0
 50
0.0
 71
     0
 42
2.5
  3
txt
  4

  0
STYLE
  5
BE
330
3
100
AcDbSymbolTableRecord
100
AcDbTextStyleTableRecord
  2
ISOCP3
 70
     0
 40
0.0
 41
1.0
 50
0.0
 71
     0
 42
2.5
  3
isocp3.shx
  4

  0
STYLE
  5
2A37
330
3
100
AcDbSymbolTableRecord
100
AcDbTextStyleTableRecord
  2
TXT
 70
     0
 40
0.0
 41
1.0
 50
0.0
 71
     0
 42
1.25
  3
txt.shx
  4
bigfont.shx
  0
STYLE
  5
5DCB
330
3
100
AcDbSymbolTableRecord
100
AcDbTextStyleTableRecord
  2
LKK
 70
     0
 40
50.0
 41
1.5
 50
0.0
 71
     0
 42
50.0
  3
MS PGothic.ttf
  4

1001
ACAD
1000
MS PGothic
1071
    32818
  0
STYLE
  5
5DCC
330
3
100
AcDbSymbolTableRecord
100
AcDbTextStyleTableRecord
  2
JL
 70
     0
 40
10.0
 41
0.5
 50
0.0
 71
     0
 42
5.0
  3
MS Mincho.ttf
  4

1001
ACAD
1000
MS Mincho
1071
    32785
  0
ENDTAB
  0
TABLE
  2
VIEW
  5
6
330
0
100
AcDbSymbolTable
 70
     0
  0
ENDTAB
  0
TABLE
  2
UCS
  5
7
330
0
100
AcDbSymbolTable
 70
     0
  0
ENDTAB
  0
TABLE
  2
APPID
  5
9
330
0
100
AcDbSymbolTable
 70
    11
  0
APPID
  5
10
330
9
100
AcDbSymbolTableRecord
100
AcDbRegAppTableRecord
  2
ACAD
 70
     0
  0
APPID
  5
7C91
330
9
100
AcDbSymbolTableRecord
100
AcDbRegAppTableRecord
  2
ACAD_DSTYLE_DIMEXT_LENGTH
 70
     0
  0
APPID
  5
7C92
330
9
100
AcDbSymbolTableRecord
100
AcDbRegAppTableRecord
  2
ACAD_DSTYLE_DIMEXT_ENABLED
 70
     0
  0
APPID
  5
7C93
330
9
100
AcDbSymbolTableRecord
100
AcDbRegAppTableRecord
  2
ACAD_DSTYLE_DIMJOGGED_JOGANGLE_SYMBOL
 70
     0
  0
APPID
  5
7C94
330
9
100
AcDbSymbolTableRecord
100
AcDbRegAppTableRecord
  2
ACAD_DSTYLE_DIMARC_LENGTH_SYMBOL
 70
     0
  0
APPID
  5
7F1C
330
9
100
AcDbSymbolTableRecord
100
AcDbRegAppTableRecord
  2
ACAD_EXEMPT_FROM_CAD_STANDARDS
 70
     0
  0
APPID
  5
7F49
330
9
100
AcDbSymbolTableRecord
100
AcDbRegAppTableRecord
  2
ACAD_DSTYLE_DIMTEXT_FILL
 70
     0
  0
APPID
  5
7F4C
330
9
100
AcDbSymbolTableRecord
100
AcDbRegAppTableRecord
  2
ACAD_DSTYLE_DIM_LINETYPE
 70
     0
  0
APPID
  5
7F4D
330
9
100
AcDbSymbolTableRecord
100
AcDbRegAppTableRecord
  2
ACAD_DSTYLE_DIM_EXT1_LINETYPE
 70
     0
  0
APPID
  5
7F4E
330
9
100
AcDbSymbolTableRecord
100
AcDbRegAppTableRecord
  2
ACAD_DSTYLE_DIM_EXT2_LINETYPE
 70
     0
  0
APPID
  5
8C73
330
9
100
AcDbSymbolTableRecord
100
AcDbRegAppTableRecord
  2
ACAD_PSEXT
 70
     0
  0
ENDTAB
  0
TABLE
  2
DIMSTYLE
  5
A
330
0
100
AcDbSymbolTable
 70
     1
100
AcDbDimStyleTable
 71
     1
340
1D
  0
DIMSTYLE
105
1D
102
{ACAD_REACTORS
330
AA7D
330
AA91
330
AAAD
330
AABA
330
AAD6
330
AAF0
330
AAFD
330
AB0B
102
}
330
A
100
AcDbSymbolTableRecord
100
AcDbDimStyleTableRecord
  2
STANDARD
 70
     0
 41
2.5
 42
0.8
 44
0.8
 73
     0
 74
     0
 77
     3
 78
     8
 79
     2
140
2.5
147
0.8
172
     1
176
   256
177
   256
178
     3
179
     2
271
     2
272
     2
340
F
341
7C04
342
7C04
1001
ACAD_DSTYLE_DIMEXT_LENGTH
1070
   378
1040
0.18
1001
ACAD_DSTYLE_DIMEXT_ENABLED
1070
   383
1070
     0
1001
ACAD_DSTYLE_DIMARC_LENGTH_SYMBOL
1070
   379
1070
     0
1001
ACAD_DSTYLE_DIMJOGGED_JOGANGLE_SYMBOL
1070
   384
1040
1.570796326794896
  0
ENDTAB
  0
TABLE
  2
BLOCK_RECORD
  5
1
330
0
100
AcDbSymbolTable
 70
    16
  0
BLOCK_RECORD
  5
18
102
{ACAD_XDICTIONARY
360
45F
102
}
330
1
100
AcDbSymbolTableRecord
100
AcDbBlockTableRecord
  2
*MODEL_SPACE
340
5CF5
  0
BLOCK_RECORD
  5
15
102
{ACAD_XDICTIONARY
360
5D89
102
}
330
1
100
AcDbSymbolTableRecord
100
AcDbBlockTableRecord
  2
*PAPER_SPACE
340
5CF6
  0
BLOCK_RECORD
  5
639D
330
1
100
AcDbSymbolTableRecord
100
AcDbBlockTableRecord
  2
A$C255C26A2
340
0
  0
BLOCK_RECORD
  5
7C04
330
1
100
AcDbSymbolTableRecord
100
AcDbBlockTableRecord
  2
_Open30
340
0
102
{BLKREFS
331
AB74
331
AB75
331
AB7C
331
AB7D
331
AB83
331
AB84
331
AB8C
331
AB8D
331
AB97
331
AB98
331
ABA0
331
ABA1
331
ABA9
331
ABAA
331
ABB2
331
ABB3
102
}
  0
BLOCK_RECORD
  5
7C0A
102
{ACAD_XDICTIONARY
360
7C0B
102
}
330
1
100
AcDbSymbolTableRecord
100
AcDbBlockTableRecord
  2
A
340
0
310
2800000020000000200000000100080000000000000400000000000000000000000000000000000000000000000080000080000000808000800000008000800080800000C0C0C000C0DCC000F0CAA6000020400000206000002080000020A0000020C0000020E00000400000004020000040400000406000004080000040A0
310
000040C0000040E00000600000006020000060400000606000006080000060A0000060C0000060E00000800000008020000080400000806000008080000080A0000080C0000080E00000A0000000A0200000A0400000A0600000A0800000A0A00000A0C00000A0E00000C0000000C0200000C0400000C0600000C0800000C0
310
A00000C0C00000C0E00000E0000000E0200000E0400000E0600000E0800000E0A00000E0C00000E0E00040000000400020004000400040006000400080004000A0004000C0004000E00040200000402020004020400040206000402080004020A0004020C0004020E000404000004040200040404000404060004040800040
310
40A0004040C0004040E00040600000406020004060400040606000406080004060A0004060C0004060E00040800000408020004080400040806000408080004080A0004080C0004080E00040A0000040A0200040A0400040A0600040A0800040A0A00040A0C00040A0E00040C0000040C0200040C0400040C0600040C08000
310
40C0A00040C0C00040C0E00040E0000040E0200040E0400040E0600040E0800040E0A00040E0C00040E0E00080000000800020008000400080006000800080008000A0008000C0008000E00080200000802020008020400080206000802080008020A0008020C0008020E00080400000804020008040400080406000804080
310
008040A0008040C0008040E00080600000806020008060400080606000806080008060A0008060C0008060E00080800000808020008080400080806000808080008080A0008080C0008080E00080A0000080A0200080A0400080A0600080A0800080A0A00080A0C00080A0E00080C0000080C0200080C0400080C0600080C0
310
800080C0A00080C0C00080C0E00080E0000080E0200080E0400080E0600080E0800080E0A00080E0C00080E0E000C0000000C0002000C0004000C0006000C0008000C000A000C000C000C000E000C0200000C0202000C0204000C0206000C0208000C020A000C020C000C020E000C0400000C0402000C0404000C0406000C0
310
408000C040A000C040C000C040E000C0600000C0602000C0604000C0606000C0608000C060A000C060C000C060E000C0800000C0802000C0804000C0806000C0808000C080A000C080C000C080E000C0A00000C0A02000C0A04000C0A06000C0A08000C0A0A000C0A0C000C0A0E000C0C00000C0C02000C0C04000C0C06000
310
C0C08000C0C0A000F0FBFF00A4A0A000808080000000FF0000FF000000FFFF00FF000000FF00FF00FFFF0000FFFFFF0000000000000000000000000000000000000000000000000000000000000000000000000000000000000000000000000000000000000000000000000000000000000000000000000000000000000000
310
00000000000000000000000000000000000000000000000000000000000000000000000000000000000000000000000000000000000000000000000000000000000000000000000000000000000000000000000000000000000000000000000000000000000000000000000000000000000000000000000000000000000000
310
00000000000000000000000000000000000000000000000000000000000000000000000000000000000000000000000000000000000000000000000000000000000000000000000000000000000000000000000000000000000000000000000000000000000000000000000000000000000000000000000000000000000000
310
000000000000FDFDFDFDFDFDFDFDFDFDFDFD0000FD0000000000000000000000000000000000FD0000FA0000000000FA00FD0000FDFD00000000000000000000000000000000FD0000FA0000000000FA00FD0000FDFDFD000000000000000000000000000000FD0000FA0000000000FA00FD0000FDFDFDFD00000000000000
310
00000000000000FD0000FAFAFAFAFAFAFA00FD0000FDFDFDFDFD00000000000000000000000000FD000000FA00000000FA00FD0000FDFDFDFDFDFDFDFDFDFDFDFDFDFDFDFDFDFDFD000000FA000000FA0000FD0000FDFDFDFDFD00000000000000000000000000FD00000000FA0000FA0000FD0000FDFDFDFD000000000000
310
0000000000000000FD00000000FA00FA000000FD0000FDFD00000000000000000000000000000000FD0000000000FAFA000000FD0000FD0000000000000000000000000000000000FD0000000000FA00000000FD0000000000000000000000000000000000000000FDFDFDFDFDFDFDFDFDFDFDFD0000000000000000000000
310
00000000000000000000000000000000000000000000000000000000000000000000000000000000000000000000000000000000000000000000000000000000000000000000000000000000000000000000000000000000000000000000000000000000000000000000000000000000000000000000000000000000000000
310
00000000000000000000000000000000000000000000000000000000000000000000000000000000000000000000000000000000000000000000000000000000000000000000000000000000000000000000000000000000000000000000000000000000000000000000000000000000000000000000000000000000000000
310
0000000000000000000000000000000000000000000000000000000000000000000000000000000000000000000000000000000000000000
  0
BLOCK_RECORD
  5
8E72
102
{ACAD_XDICTIONARY
360
8E73
102
}
330
1
100
AcDbSymbolTableRecord
100
AcDbBlockTableRecord
  2
LS
340
0
310
2800000020000000200000000100080000000000000400000000000000000000000000000000000000000000000080000080000000808000800000008000800080800000C0C0C000C0DCC000F0CAA6000020400000206000002080000020A0000020C0000020E00000400000004020000040400000406000004080000040A0
310
000040C0000040E00000600000006020000060400000606000006080000060A0000060C0000060E00000800000008020000080400000806000008080000080A0000080C0000080E00000A0000000A0200000A0400000A0600000A0800000A0A00000A0C00000A0E00000C0000000C0200000C0400000C0600000C0800000C0
310
A00000C0C00000C0E00000E0000000E0200000E0400000E0600000E0800000E0A00000E0C00000E0E00040000000400020004000400040006000400080004000A0004000C0004000E00040200000402020004020400040206000402080004020A0004020C0004020E000404000004040200040404000404060004040800040
310
40A0004040C0004040E00040600000406020004060400040606000406080004060A0004060C0004060E00040800000408020004080400040806000408080004080A0004080C0004080E00040A0000040A0200040A0400040A0600040A0800040A0A00040A0C00040A0E00040C0000040C0200040C0400040C0600040C08000
310
40C0A00040C0C00040C0E00040E0000040E0200040E0400040E0600040E0800040E0A00040E0C00040E0E00080000000800020008000400080006000800080008000A0008000C0008000E00080200000802020008020400080206000802080008020A0008020C0008020E00080400000804020008040400080406000804080
310
008040A0008040C0008040E00080600000806020008060400080606000806080008060A0008060C0008060E00080800000808020008080400080806000808080008080A0008080C0008080E00080A0000080A0200080A0400080A0600080A0800080A0A00080A0C00080A0E00080C0000080C0200080C0400080C0600080C0
310
800080C0A00080C0C00080C0E00080E0000080E0200080E0400080E0600080E0800080E0A00080E0C00080E0E000C0000000C0002000C0004000C0006000C0008000C000A000C000C000C000E000C0200000C0202000C0204000C0206000C0208000C020A000C020C000C020E000C0400000C0402000C0404000C0406000C0
310
408000C040A000C040C000C040E000C0600000C0602000C0604000C0606000C0608000C060A000C060C000C060E000C0800000C0802000C0804000C0806000C0808000C080A000C080C000C080E000C0A00000C0A02000C0A04000C0A06000C0A08000C0A0A000C0A0C000C0A0E000C0C00000C0C02000C0C04000C0C06000
310
C0C08000C0C0A000F0FBFF00A4A0A000808080000000FF0000FF000000FFFF00FF000000FF00FF00FFFF0000FFFFFF00000000000000000000000000000000000000000000000000000000000000000000000000000000000000FBFBFEFBFEFBFBFEFBFEFBFB00000000000000000000000000000000000000FBFBFBFEFBFE
310
FBFBFEFBFEFBFBFB000000000000000000000000000000000000FB0000FE00FE0000FE00FE0000FB000000000000000000000000000000000000FB0000FE00FE0000FE00FE0000FB000000000000000000000000000000000000FB0000FEFEFEFEFEFEFEFE0000FB000000000000000000000000000000000000FB000000FE
310
FE0000FEFE000000FB000000000000000000000000000000000000FB0000000000FEFE0000000000FB000000000000000000000000000000000000FBFBFBFEFBFBFBFBFBFBFEFBFBFB000000000000000000000000000000000000000000FBFE0000000000FE000000000000000000000000000000000000000000000000FB
310
FBFBFBFBFBFEFB000000000000000000000000000000000000000000000000FBFE00000000FEFB000000000000000000000000000000000000000000000000FBFE00000000FEFB000000000000000000000000000000000000000000000000FBFE00000000FEFB000000000000000000000000000000000000000000000000
310
FBFE00000000FEFB000000000000000000000000000000000000000000000000FBFE00000000FEFB000000000000000000000000000000000000000000000000FBFE00000000FEFB000000000000000000000000000000000000000000000000FBFE00000000FEFB0000000000000000000000000000000000000000000000
310
00FBFE00000000FEFB000000000000000000000000000000000000000000000000FBFE00000000FEFB000000000000000000000000000000000000000000000000FBFE00000000FEFB000000000000000000000000000000000000000000000000FBFE00000000FEFB00000000000000000000000000000000000000000000
310
0000FBFE00000000FEFB000000000000000000000000000000000000000000000000FBFE00000000FEFB000000000000000000000000000000000000000000000000FBFE00000000FEFB000000000000000000000000000000000000000000000000FBFE00000000FEFB000000000000000000000000000000000000000000
310
000000FBFE00000000FEFB000000000000000000000000000000000000000000000000FBFE00000000FEFB000000000000000000000000000000000000000000000000FBFEFBFBFBFBFEFB00000000000000000000000000000000000000000000000000FE00000000FEFB0000000000000000000000000000000000000000
310
0000000000FBFBFBFBFBFB000000000000000000000000000000000000000000000000000000000000000000000000000000000000000000
  0
BLOCK_RECORD
  5
9D15
102
{ACAD_XDICTIONARY
360
9D16
102
}
330
1
100
AcDbSymbolTableRecord
100
AcDbBlockTableRecord
  2
LS2
340
0
310
2800000020000000200000000100080000000000000400000000000000000000000000000000000000000000000080000080000000808000800000008000800080800000C0C0C000C0DCC000F0CAA6000020400000206000002080000020A0000020C0000020E00000400000004020000040400000406000004080000040A0
310
000040C0000040E00000600000006020000060400000606000006080000060A0000060C0000060E00000800000008020000080400000806000008080000080A0000080C0000080E00000A0000000A0200000A0400000A0600000A0800000A0A00000A0C00000A0E00000C0000000C0200000C0400000C0600000C0800000C0
310
A00000C0C00000C0E00000E0000000E0200000E0400000E0600000E0800000E0A00000E0C00000E0E00040000000400020004000400040006000400080004000A0004000C0004000E00040200000402020004020400040206000402080004020A0004020C0004020E000404000004040200040404000404060004040800040
310
40A0004040C0004040E00040600000406020004060400040606000406080004060A0004060C0004060E00040800000408020004080400040806000408080004080A0004080C0004080E00040A0000040A0200040A0400040A0600040A0800040A0A00040A0C00040A0E00040C0000040C0200040C0400040C0600040C08000
310
40C0A00040C0C00040C0E00040E0000040E0200040E0400040E0600040E0800040E0A00040E0C00040E0E00080000000800020008000400080006000800080008000A0008000C0008000E00080200000802020008020400080206000802080008020A0008020C0008020E00080400000804020008040400080406000804080
310
008040A0008040C0008040E00080600000806020008060400080606000806080008060A0008060C0008060E00080800000808020008080400080806000808080008080A0008080C0008080E00080A0000080A0200080A0400080A0600080A0800080A0A00080A0C00080A0E00080C0000080C0200080C0400080C0600080C0
310
800080C0A00080C0C00080C0E00080E0000080E0200080E0400080E0600080E0800080E0A00080E0C00080E0E000C0000000C0002000C0004000C0006000C0008000C000A000C000C000C000E000C0200000C0202000C0204000C0206000C0208000C020A000C020C000C020E000C0400000C0402000C0404000C0406000C0
310
408000C040A000C040C000C040E000C0600000C0602000C0604000C0606000C0608000C060A000C060C000C060E000C0800000C0802000C0804000C0806000C0808000C080A000C080C000C080E000C0A00000C0A02000C0A04000C0A06000C0A08000C0A0A000C0A0C000C0A0E000C0C00000C0C02000C0C04000C0C06000
310
C0C08000C0C0A000F0FBFF00A4A0A000808080000000FF0000FF000000FFFF00FF000000FF00FF00FFFF0000FFFFFF0000000000000000000000000000000000000000000000000000000000000000000000000000000000000000FBFBFEFEFBFBFEFEFBFB00000000000000000000000000000000000000000000FBFBFEFE
310
FBFBFEFEFBFB00000000000000000000000000000000000000000000FB00FEFE0000FEFE00FB00000000000000000000000000000000000000000000FB00FEFE0000FEFE00FB00000000000000000000000000000000000000000000FB00FEFEFEFEFEFE00FB00000000000000000000000000000000000000000000FB0000
310
FEFEFE000000FB00000000000000000000000000000000000000000000FBFBFEFBFBFBFBFEFBFB000000000000000000000000000000000000000000000000FBFBFBFBFBFE0000000000000000000000000000000000000000000000000000FE00000000FE0000000000000000000000000000000000000000000000000000
310
FE00000000FE0000000000000000000000000000000000000000000000000000FE00000000FE0000000000000000000000000000000000000000000000000000FE00000000FE0000000000000000000000000000000000000000000000000000FE00000000FE00000000000000000000000000000000000000000000000000
310
00FE00000000FE0000000000000000000000000000000000000000000000000000FE00000000FE0000000000000000000000000000000000000000000000000000FE00000000FE0000000000000000000000000000000000000000000000000000FE00000000FE000000000000000000000000000000000000000000000000
310
0000FE00000000FE0000000000000000000000000000000000000000000000000000FE00000000FE0000000000000000000000000000000000000000000000000000FE00000000FE0000000000000000000000000000000000000000000000000000FE00000000FE0000000000000000000000000000000000000000000000
310
000000FE00000000FE0000000000000000000000000000000000000000000000000000FE00000000FE0000000000000000000000000000000000000000000000000000FE00000000FE0000000000000000000000000000000000000000000000000000FE00000000FE00000000000000000000000000000000000000000000
310
00000000FE00000000FE0000000000000000000000000000000000000000000000000000FE00000000FE0000000000000000000000000000000000000000000000000000FEFBFBFBFBFE0000000000000000000000000000000000000000000000000000FEFB000000FE000000000000000000000000000000000000000000
310
000000000000FBFBFBFB00000000000000000000000000000000000000000000000000000000000000000000000000000000000000000000
  0
BLOCK_RECORD
  5
A518
102
{ACAD_XDICTIONARY
360
A519
102
}
330
1
100
AcDbSymbolTableRecord
100
AcDbBlockTableRecord
  2
LS3
340
0
310
2800000020000000200000000100080000000000000400000000000000000000000000000000000000000000000080000080000000808000800000008000800080800000C0C0C000C0DCC000F0CAA6000020400000206000002080000020A0000020C0000020E00000400000004020000040400000406000004080000040A0
310
000040C0000040E00000600000006020000060400000606000006080000060A0000060C0000060E00000800000008020000080400000806000008080000080A0000080C0000080E00000A0000000A0200000A0400000A0600000A0800000A0A00000A0C00000A0E00000C0000000C0200000C0400000C0600000C0800000C0
310
A00000C0C00000C0E00000E0000000E0200000E0400000E0600000E0800000E0A00000E0C00000E0E00040000000400020004000400040006000400080004000A0004000C0004000E00040200000402020004020400040206000402080004020A0004020C0004020E000404000004040200040404000404060004040800040
310
40A0004040C0004040E00040600000406020004060400040606000406080004060A0004060C0004060E00040800000408020004080400040806000408080004080A0004080C0004080E00040A0000040A0200040A0400040A0600040A0800040A0A00040A0C00040A0E00040C0000040C0200040C0400040C0600040C08000
310
40C0A00040C0C00040C0E00040E0000040E0200040E0400040E0600040E0800040E0A00040E0C00040E0E00080000000800020008000400080006000800080008000A0008000C0008000E00080200000802020008020400080206000802080008020A0008020C0008020E00080400000804020008040400080406000804080
310
008040A0008040C0008040E00080600000806020008060400080606000806080008060A0008060C0008060E00080800000808020008080400080806000808080008080A0008080C0008080E00080A0000080A0200080A0400080A0600080A0800080A0A00080A0C00080A0E00080C0000080C0200080C0400080C0600080C0
310
800080C0A00080C0C00080C0E00080E0000080E0200080E0400080E0600080E0800080E0A00080E0C00080E0E000C0000000C0002000C0004000C0006000C0008000C000A000C000C000C000E000C0200000C0202000C0204000C0206000C0208000C020A000C020C000C020E000C0400000C0402000C0404000C0406000C0
310
408000C040A000C040C000C040E000C0600000C0602000C0604000C0606000C0608000C060A000C060C000C060E000C0800000C0802000C0804000C0806000C0808000C080A000C080C000C080E000C0A00000C0A02000C0A04000C0A06000C0A08000C0A0A000C0A0C000C0A0E000C0C00000C0C02000C0C04000C0C06000
310
C0C08000C0C0A000F0FBFF00A4A0A000808080000000FF0000FF000000FFFF00FF000000FF00FF00FFFF0000FFFFFF0000000000000000000000000000000000000000000000000000000000000000000000000000000000000000FBFBFEFEFBFBFEFEFBFB00000000000000000000000000000000000000000000FBFBFEFE
310
FBFBFEFEFBFB00000000000000000000000000000000000000000000FB00FEFE0000FEFE00FB00000000000000000000000000000000000000000000FB00FEFEFEFEFEFE00FB00000000000000000000000000000000000000000000FB0000FEFE00FE0000FB00000000000000000000000000000000000000000000FB0000
310
0000FE000000FB00000000000000000000000000000000000000000000FBFBFEFBFBFBFBFBFBFB000000000000000000000000000000000000000000000000FE00000000FE0000000000000000000000000000000000000000000000000000FE00000000FE0000000000000000000000000000000000000000000000000000
310
FE00000000FE0000000000000000000000000000000000000000000000000000FE00000000FE0000000000000000000000000000000000000000000000000000FE00000000FE0000000000000000000000000000000000000000000000000000FE00000000FE00000000000000000000000000000000000000000000000000
310
00FE00000000FE0000000000000000000000000000000000000000000000000000FE00000000FE0000000000000000000000000000000000000000000000000000FE00000000FE0000000000000000000000000000000000000000000000000000FE00000000FE000000000000000000000000000000000000000000000000
310
0000FE00000000FE0000000000000000000000000000000000000000000000000000FE00000000FE0000000000000000000000000000000000000000000000000000FE00000000FE0000000000000000000000000000000000000000000000000000FE00000000FE0000000000000000000000000000000000000000000000
310
000000FE00000000FE0000000000000000000000000000000000000000000000000000FE00000000FE0000000000000000000000000000000000000000000000000000FE00000000FE0000000000000000000000000000000000000000000000000000FE00000000FE00000000000000000000000000000000000000000000
310
00000000FE00000000FE0000000000000000000000000000000000000000000000000000FE00000000FE0000000000000000000000000000000000000000000000000000FE00000000FE0000000000000000000000000000000000000000000000000000FEFBFBFBFBFE000000000000000000000000000000000000000000
310
000000000000FBFBFBFB00000000000000000000000000000000000000000000000000000000000000000000000000000000000000000000
  0
BLOCK_RECORD
  5
A627
102
{ACAD_XDICTIONARY
360
A628
102
}
330
1
100
AcDbSymbolTableRecord
100
AcDbBlockTableRecord
  2
LS4
340
0
310
2800000020000000200000000100080000000000000400000000000000000000000000000000000000000000000080000080000000808000800000008000800080800000C0C0C000C0DCC000F0CAA6000020400000206000002080000020A0000020C0000020E00000400000004020000040400000406000004080000040A0
310
000040C0000040E00000600000006020000060400000606000006080000060A0000060C0000060E00000800000008020000080400000806000008080000080A0000080C0000080E00000A0000000A0200000A0400000A0600000A0800000A0A00000A0C00000A0E00000C0000000C0200000C0400000C0600000C0800000C0
310
A00000C0C00000C0E00000E0000000E0200000E0400000E0600000E0800000E0A00000E0C00000E0E00040000000400020004000400040006000400080004000A0004000C0004000E00040200000402020004020400040206000402080004020A0004020C0004020E000404000004040200040404000404060004040800040
310
40A0004040C0004040E00040600000406020004060400040606000406080004060A0004060C0004060E00040800000408020004080400040806000408080004080A0004080C0004080E00040A0000040A0200040A0400040A0600040A0800040A0A00040A0C00040A0E00040C0000040C0200040C0400040C0600040C08000
310
40C0A00040C0C00040C0E00040E0000040E0200040E0400040E0600040E0800040E0A00040E0C00040E0E00080000000800020008000400080006000800080008000A0008000C0008000E00080200000802020008020400080206000802080008020A0008020C0008020E00080400000804020008040400080406000804080
310
008040A0008040C0008040E00080600000806020008060400080606000806080008060A0008060C0008060E00080800000808020008080400080806000808080008080A0008080C0008080E00080A0000080A0200080A0400080A0600080A0800080A0A00080A0C00080A0E00080C0000080C0200080C0400080C0600080C0
310
800080C0A00080C0C00080C0E00080E0000080E0200080E0400080E0600080E0800080E0A00080E0C00080E0E000C0000000C0002000C0004000C0006000C0008000C000A000C000C000C000E000C0200000C0202000C0204000C0206000C0208000C020A000C020C000C020E000C0400000C0402000C0404000C0406000C0
310
408000C040A000C040C000C040E000C0600000C0602000C0604000C0606000C0608000C060A000C060C000C060E000C0800000C0802000C0804000C0806000C0808000C080A000C080C000C080E000C0A00000C0A02000C0A04000C0A06000C0A08000C0A0A000C0A0C000C0A0E000C0C00000C0C02000C0C04000C0C06000
310
C0C08000C0C0A000F0FBFF00A4A0A000808080000000FF0000FF000000FFFF00FF000000FF00FF00FFFF0000FFFFFF0000000000000000000000000000000000000000000000000000000000000000000000000000000000000000FBFBFEFEFBFBFEFEFBFB000000000000000000000000000000000000000000FBFBFBFEFE
310
FBFBFEFEFBFBFB0000000000000000000000000000000000000000FB0000FEFE0000FEFE0000FB0000000000000000000000000000000000000000FB0000FEFEFEFEFEFE0000FB0000000000000000000000000000000000000000FB000000FEFE00FE000000FB0000000000000000000000000000000000000000FB000000
310
0000FE00000000FB0000000000000000000000000000000000000000FB00000000000000000000FB0000000000000000000000000000000000000000FBFBFEFEFBFBFBFBFBFBFBFB00000000000000000000000000000000000000000000FBFE00000000FEFB000000000000000000000000000000000000000000000000FB
310
FE00000000FEFB000000000000000000000000000000000000000000000000FBFE00000000FEFB000000000000000000000000000000000000000000000000FBFE00000000FEFB000000000000000000000000000000000000000000000000FBFE00000000FEFB000000000000000000000000000000000000000000000000
310
FBFE00000000FEFB000000000000000000000000000000000000000000000000FBFE00000000FEFB000000000000000000000000000000000000000000000000FBFE00000000FEFB000000000000000000000000000000000000000000000000FBFE00000000FEFB0000000000000000000000000000000000000000000000
310
00FBFE00000000FEFB000000000000000000000000000000000000000000000000FBFE00000000FEFB000000000000000000000000000000000000000000000000FBFE00000000FEFB000000000000000000000000000000000000000000000000FBFE00000000FEFB00000000000000000000000000000000000000000000
310
0000FBFE00000000FEFB000000000000000000000000000000000000000000000000FBFE00000000FEFB000000000000000000000000000000000000000000000000FBFE00000000FEFB000000000000000000000000000000000000000000000000FBFE00000000FEFB000000000000000000000000000000000000000000
310
000000FBFE00000000FEFB000000000000000000000000000000000000000000000000FBFE00000000FEFB000000000000000000000000000000000000000000000000FBFEFBFBFBFBFEFB00000000000000000000000000000000000000000000000000FE00000000FE000000000000000000000000000000000000000000
310
000000000000FBFBFBFB00000000000000000000000000000000000000000000000000000000000000000000000000000000000000000000
102
{BLKREFS
331
A646
102
}
  0
BLOCK_RECORD
  5
AA7E
330
1
100
AcDbSymbolTableRecord
100
AcDbBlockTableRecord
  2
*D7
340
0
  0
BLOCK_RECORD
  5
AA92
330
1
100
AcDbSymbolTableRecord
100
AcDbBlockTableRecord
  2
*D8
340
0
  0
BLOCK_RECORD
  5
AAAE
330
1
100
AcDbSymbolTableRecord
100
AcDbBlockTableRecord
  2
*D9
340
0
  0
BLOCK_RECORD
  5
AABB
330
1
100
AcDbSymbolTableRecord
100
AcDbBlockTableRecord
  2
*D10
340
0
  0
BLOCK_RECORD
  5
AAD7
330
1
100
AcDbSymbolTableRecord
100
AcDbBlockTableRecord
  2
*D11
340
0
  0
BLOCK_RECORD
  5
AAF1
330
1
100
AcDbSymbolTableRecord
100
AcDbBlockTableRecord
  2
*D12
340
0
  0
BLOCK_RECORD
  5
AAFE
330
1
100
AcDbSymbolTableRecord
100
AcDbBlockTableRecord
  2
*D13
340
0
  0
BLOCK_RECORD
  5
AB0C
330
1
100
AcDbSymbolTableRecord
100
AcDbBlockTableRecord
  2
*D14
340
0
  0
BLOCK_RECORD
  5
AD0A
102
{ACAD_XDICTIONARY
360
AD0F
102
}
330
1
100
AcDbSymbolTableRecord
100
AcDbBlockTableRecord
  2
A$C10EE1B78
340
0
1001
ACAD
1000
DesignCenter Data
1002
{
1070
     1
1070
     0
1002
}
  0
ENDTAB
  0
ENDSEC
  0
SECTION
  2
BLOCKS
  0
BLOCK
  5
19
330
18
100
AcDbEntity
  8
0
100
AcDbBlockBegin
  2
*MODEL_SPACE
 70
     0
 10
0.0
 20
0.0
 30
0.0
  3
*MODEL_SPACE
  1

  0
ENDBLK
  5
1A
330
18
100
AcDbEntity
  8
0
100
AcDbBlockEnd
  0
BLOCK
  5
16
330
15
100
AcDbEntity
 67
     1
  8
0
100
AcDbBlockBegin
  2
*PAPER_SPACE
 70
     0
 10
0.0
 20
0.0
 30
0.0
  3
*PAPER_SPACE
  1

  0
ENDBLK
  5
17
330
15
100
AcDbEntity
 67
     1
  8
0
100
AcDbBlockEnd
  0
BLOCK
  5
63A1
330
639D
100
AcDbEntity
  8
0
100
AcDbBlockBegin
  2
A$C255C26A2
 70
     0
 10
0.0
 20
0.0
 30
0.0
  3
A$C255C26A2
  1

  0
LWPOLYLINE
  5
639E
330
639D
100
AcDbEntity
  8
0
100
AcDbPolyline
 90
        3
 70
     1
 43
0.0
 10
7.014806023851633
 20
0.0000006939811783
 10
5.611844869720698
 20
2.430000693981241
 10
8.417767177982568
 20
2.430000693981241
  0
LWPOLYLINE
  5
639F
330
639D
100
AcDbEntity
  8
0
100
AcDbPolyline
 90
        3
 70
     1
 43
0.0
 10
4.20888371558999
 20
0.0000006939811783
 10
2.805922561459283
 20
2.430000693981241
 10
5.611844869720698
 20
2.430000693981241
  0
LWPOLYLINE
  5
63A0
330
639D
100
AcDbEntity
  8
0
100
AcDbPolyline
 90
        3
 70
     1
 43
0.0
 10
1.402961407328348
 20
0.0000006939811783
 10
0.0000002531974133
 20
2.430000693981241
 10
2.805922561459283
 20
2.430000693981241
  0
ENDBLK
  5
63A2
330
639D
100
AcDbEntity
  8
0
100
AcDbBlockEnd
  0
BLOCK
  5
7C05
330
7C04
100
AcDbEntity
  8
0
100
AcDbBlockBegin
  2
_Open30
 70
     0
 10
0.0
 20
0.0
 30
0.0
  3
_Open30
  1

  0
LINE
  5
7C06
330
7C04
100
AcDbEntity
  8
0
  6
ByBlock
 62
     0
370
    -2
100
AcDbLine
 10
-1.0
 20
0.26794919
 30
0.0
 11
0.0
 21
0.0
 31
0.0
  0
LINE
  5
7C07
330
7C04
100
AcDbEntity
  8
0
  6
ByBlock
 62
     0
370
    -2
100
AcDbLine
 10
0.0
 20
0.0
 30
0.0
 11
-1.0
 21
-0.26794919
 31
0.0
  0
LINE
  5
7C08
330
7C04
100
AcDbEntity
  8
0
  6
ByBlock
 62
     0
370
    -2
100
AcDbLine
 10
0.0
 20
0.0
 30
0.0
 11
-1.0
 21
0.0
 31
0.0
  0
ENDBLK
  5
7C09
330
7C04
100
AcDbEntity
  8
0
100
AcDbBlockEnd
  0
BLOCK
  5
7C0E
330
7C0A
100
AcDbEntity
  8
0
100
AcDbBlockBegin
  2
A
 70
     0
 10
0.0
 20
0.0
 30
0.0
  3
A
  1

  0
MTEXT
  5
7C0F
330
7C0A
100
AcDbEntity
  8
mark
 62
     3
100
AcDbMText
 10
10.65641897020822
 20
-5.596245361730467
 30
0.0
 40
2.5
 41
0.0
 71
     5
 72
     1
  1
A
 73
     1
 44
1.0
1001
ACAD
1000
ACAD_MTEXT_DEFINED_HEIGHT_BEGIN
1070
    46
1040
0.0
1000
ACAD_MTEXT_DEFINED_HEIGHT_END
  0
LWPOLYLINE
  5
7C10
330
7C0A
100
AcDbEntity
  8
mark
100
AcDbPolyline
 90
        4
 70
     1
 43
0.0
 10
9.07926800414657
 20
-7.141145101782569
 10
12.07926800414657
 20
-7.141145101782569
 10
12.07926800414657
 20
-4.141145101782569
 10
9.07926800414657
 20
-4.141145101782569
  0
HATCH
  5
7C11
330
7C0A
100
AcDbEntity
  8
mark
100
AcDbHatch
 10
0.0
 20
0.0
 30
0.0
210
0.0
220
0.0
230
1.0
  2
SOLID
 70
     1
 71
     0
 91
        1
 92
        7
 72
     0
 73
     1
 93
        3
 10
5.32926800414657
 20
-5.641145101782569
 10
4.07926800414657
 20
-4.391145101782541
 10
4.07926800414657
 20
-6.891145101782541
 97
        0
 75
     0
 76
     1
 47
0.0398277943677868
 98
        1
 10
4.589689734415287
 20
-5.732163331855076
450
        0
451
        0
460
0.0
461
0.0
452
        1
462
1.0
453
        2
463
0.0
 63
     5
421
      255
463
1.0
 63
     7
421
 16777215
470
LINEAR
1001
ACAD
1010
0.0
1020
0.0
1030
0.0
  0
LINE
  5
7C12
330
7C0A
100
AcDbEntity
  8
mark
100
AcDbLine
 10
5.32926800414657
 20
-5.641145101782569
 30
0.0
 11
9.07926800414657
 21
-5.641145101782569
 31
0.0
  0
LINE
  5
7C13
330
7C0A
100
AcDbEntity
  8
mark
100
AcDbLine
 10
5.32926800414657
 20
-5.641145101782569
 30
0.0
 11
4.07926800414657
 21
-4.391145101782569
 31
0.0
  0
LINE
  5
7C14
330
7C0A
100
AcDbEntity
  8
mark
100
AcDbLine
 10
5.32926800414657
 20
-5.641145101782569
 30
0.0
 11
4.07926800414657
 21
-6.891145101782569
 31
0.0
  0
ENDBLK
  5
7C15
330
7C0A
100
AcDbEntity
  8
0
100
AcDbBlockEnd
  0
BLOCK
  5
8E76
330
8E72
100
AcDbEntity
  8
0
100
AcDbBlockBegin
  2
LS
 70
     0
 10
0.0
 20
0.0
 30
0.0
  3
LS
  1

  0
LINE
  5
8E78
330
8E72
100
AcDbEntity
  8
contour
100
AcDbLine
 10
310.7457309951603
 20
181.0160360664828
 30
0.0
 11
310.7457309951603
 21
184.7160360664827
 31
0.0
  0
LINE
  5
8E79
330
8E72
100
AcDbEntity
  8
contour
100
AcDbLine
 10
310.7457309951603
 20
184.7160360664827
 30
0.0
 11
303.7457309951603
 21
184.7160360664827
 31
0.0
  0
LINE
  5
8E7A
330
8E72
100
AcDbEntity
  8
contour
100
AcDbLine
 10
308.4457309951603
 20
196.7160360664827
 30
0.0
 11
306.0457309951603
 21
196.7160360664826
 31
0.0
  0
LINE
  5
8E7B
330
8E72
100
AcDbEntity
  8
contour
100
AcDbLine
 10
309.2457309951603
 20
195.9160360664826
 30
0.0
 11
308.4457309951603
 21
196.7160360664826
 31
0.0
  0
LINE
  5
8E7C
330
8E72
100
AcDbEntity
  8
contour
100
AcDbLine
 10
303.7457309951603
 20
184.7160360664827
 30
0.0
 11
303.7457309951603
 21
181.0160360664827
 31
0.0
  0
LINE
  5
8E7D
330
8E72
100
AcDbEntity
  8
contour
100
AcDbLine
 10
304.0457309951603
 20
180.7160360664827
 30
0.0
 11
310.4457309951603
 21
180.7160360664828
 31
0.0
  0
LINE
  5
8E7E
330
8E72
100
AcDbEntity
  8
contour
100
AcDbLine
 10
310.7457309951603
 20
181.0160360664828
 30
0.0
 11
310.4457309951603
 21
180.7160360664828
 31
0.0
  0
LINE
  5
8E7F
330
8E72
100
AcDbEntity
  8
contour
100
AcDbLine
 10
303.7457309951603
 20
181.0160360664827
 30
0.0
 11
304.0457309951603
 21
180.7160360664827
 31
0.0
  0
LINE
  5
8E80
330
8E72
100
AcDbEntity
  8
contour
100
AcDbLine
 10
309.2457309951603
 20
184.7160360664826
 30
0.0
 11
309.2457309951603
 21
195.9160360664827
 31
0.0
  0
LINE
  5
8E81
330
8E72
100
AcDbEntity
  8
contour
100
AcDbLine
 10
305.2457309951603
 20
184.7160360664826
 30
0.0
 11
305.2457309951603
 21
195.9160360664827
 31
0.0
  0
LINE
  5
8E82
330
8E72
100
AcDbEntity
  8
contour
100
AcDbLine
 10
306.0457309951603
 20
196.7160360664826
 30
0.0
 11
305.2457309951603
 21
195.9160360664826
 31
0.0
  0
LINE
  5
8E83
330
8E72
100
AcDbEntity
  8
contour
100
AcDbLine
 10
309.2457309951603
 20
195.9160360664827
 30
0.0
 11
305.2457309951603
 21
195.9160360664827
 31
0.0
  0
LINE
  5
8E84
330
8E72
100
AcDbEntity
  8
contour
 62
     4
100
AcDbLine
 10
308.8667309951603
 20
185.3724833225513
 30
0.0
 11
308.8667309951603
 21
196.2950360664826
 31
0.0
  0
LINE
  5
8E85
330
8E72
100
AcDbEntity
  8
contour
 62
     4
100
AcDbLine
 10
305.6247309951603
 20
185.3724833225513
 30
0.0
 11
305.6247309951603
 21
196.2950360664826
 31
0.0
  0
LINE
  5
8E86
330
8E72
100
AcDbEntity
  8
contour
100
AcDbLine
 10
310.7457309951603
 20
181.0160360664828
 30
0.0
 11
303.7457309951603
 21
181.0160360664828
 31
0.0
  0
LINE
  5
8E87
330
8E72
100
AcDbEntity
  8
bowle
 48
0.1
100
AcDbLine
 10
308.1117563989447
 20
180.7160360664827
 30
0.0
 11
308.1117563989447
 21
182.9160360664827
 31
0.0
  0
LINE
  5
8E88
330
8E72
100
AcDbEntity
  8
bowle
 48
0.1
100
AcDbLine
 10
308.9777818027293
 20
180.7160360664827
 30
0.0
 11
308.9777818027293
 21
182.9160360664827
 31
0.0
  0
LINE
  5
8E89
330
8E72
100
AcDbEntity
  8
bowle
 48
0.1
100
AcDbLine
 10
306.3797055913759
 20
180.7160360664827
 30
0.0
 11
306.3797055913759
 21
182.9160360664826
 31
0.0
  0
LINE
  5
8E8A
330
8E72
100
AcDbEntity
  8
bowle
 48
0.1
100
AcDbLine
 10
305.5136801875914
 20
180.7160360664827
 30
0.0
 11
305.5136801875914
 21
182.9160360664826
 31
0.0
  0
LINE
  5
8E8B
330
8E72
100
AcDbEntity
  8
bowle
 48
0.1
100
AcDbLine
 10
308.9777818027292
 20
182.9160360664827
 30
0.0
 11
305.5136801875914
 21
182.9160360664827
 31
0.0
  0
LINE
  5
8E8C
330
8E72
100
AcDbEntity
  8
bowle
 48
0.1
100
AcDbLine
 10
305.5136801875914
 20
182.9160360664826
 30
0.0
 11
307.2457309951603
 21
183.9160360664826
 31
0.0
  0
LINE
  5
8E8D
330
8E72
100
AcDbEntity
  8
bowle
 48
0.1
100
AcDbLine
 10
308.9777818027292
 20
182.9160360664826
 30
0.0
 11
307.2457309951603
 21
183.9160360664826
 31
0.0
  0
LINE
  5
8E8E
330
8E72
100
AcDbEntity
  8
contour
 62
     4
100
AcDbLine
 10
305.6247309951603
 20
185.3724833225513
 30
0.0
 11
305.2457309951603
 21
184.7160360664826
 31
0.0
  0
LINE
  5
8E8F
330
8E72
100
AcDbEntity
  8
contour
100
AcDbLine
 10
305.2457309951603
 20
185.3724833225513
 30
0.0
 11
309.2457309951603
 21
185.3724833225513
 31
0.0
  0
LINE
  5
8E90
330
8E72
100
AcDbEntity
  8
contour
 62
     4
100
AcDbLine
 10
309.2457309951603
 20
184.7160360664827
 30
0.0
 11
308.8667309951603
 21
185.3724833225513
 31
0.0
  0
ENDBLK
  5
8E77
330
8E72
100
AcDbEntity
  8
0
100
AcDbBlockEnd
  0
BLOCK
  5
9D19
330
9D15
100
AcDbEntity
  8
0
100
AcDbBlockBegin
  2
LS2
 70
     0
 10
0.0
 20
0.0
 30
0.0
  3
LS2
  1

  0
LINE
  5
9D1B
330
9D15
100
AcDbEntity
  8
contour
100
AcDbLine
 10
143.2797554375081
 20
0.0655328110734672
 30
0.0
 11
143.2797554375081
 21
3.765532811073398
 31
0.0
  0
LINE
  5
9D1C
330
9D15
100
AcDbEntity
  8
contour
100
AcDbLine
 10
143.2797554375081
 20
3.765532811073398
 30
0.0
 11
136.2797554375081
 21
3.765532811073398
 31
0.0
  0
LINE
  5
9D1D
330
9D15
100
AcDbEntity
  8
contour
100
AcDbLine
 10
140.979755437508
 20
19.7655328110734
 30
0.0
 11
138.5797554375081
 21
19.76553281107334
 31
0.0
  0
LINE
  5
9D1E
330
9D15
100
AcDbEntity
  8
contour
100
AcDbLine
 10
141.7797554375081
 20
18.96553281107333
 30
0.0
 11
140.9797554375081
 21
19.76553281107334
 31
0.0
  0
LINE
  5
9D1F
330
9D15
100
AcDbEntity
  8
contour
100
AcDbLine
 10
136.2797554375081
 20
3.765532811073398
 30
0.0
 11
136.2797554375081
 21
0.0655328110733535
 31
0.0
  0
LINE
  5
9D20
330
9D15
100
AcDbEntity
  8
contour
100
AcDbLine
 10
136.5797554375081
 20
-0.2344671889266578
 30
0.0
 11
142.9797554375081
 21
-0.2344671889265442
 31
0.0
  0
LINE
  5
9D21
330
9D15
100
AcDbEntity
  8
contour
100
AcDbLine
 10
143.2797554375081
 20
0.0655328110734672
 30
0.0
 11
142.9797554375081
 21
-0.2344671889265442
 31
0.0
  0
LINE
  5
9D22
330
9D15
100
AcDbEntity
  8
contour
100
AcDbLine
 10
136.2797554375081
 20
0.0655328110733535
 30
0.0
 11
136.5797554375081
 21
-0.2344671889266578
 31
0.0
  0
LINE
  5
9D23
330
9D15
100
AcDbEntity
  8
contour
100
AcDbLine
 10
141.7797554375081
 20
3.765532811073342
 30
0.0
 11
141.7797554375081
 21
18.96553281107339
 31
0.0
  0
LINE
  5
9D24
330
9D15
100
AcDbEntity
  8
contour
100
AcDbLine
 10
137.7797554375081
 20
3.765532811073342
 30
0.0
 11
137.7797554375081
 21
18.96553281107339
 31
0.0
  0
LINE
  5
9D25
330
9D15
100
AcDbEntity
  8
contour
100
AcDbLine
 10
138.5797554375081
 20
19.76553281107334
 30
0.0
 11
137.7797554375081
 21
18.96553281107333
 31
0.0
  0
LINE
  5
9D26
330
9D15
100
AcDbEntity
  8
contour
100
AcDbLine
 10
141.7797554375081
 20
18.96553281107339
 30
0.0
 11
137.7797554375081
 21
18.96553281107339
 31
0.0
  0
LINE
  5
9D27
330
9D15
100
AcDbEntity
  8
contour
 62
     4
100
AcDbLine
 10
141.400755437508
 20
4.42198006714193
 30
0.0
 11
141.4007554375081
 21
19.34453281107327
 31
0.0
  0
LINE
  5
9D28
330
9D15
100
AcDbEntity
  8
contour
 62
     4
100
AcDbLine
 10
138.1587554375081
 20
4.42198006714193
 30
0.0
 11
138.1587554375081
 21
19.34453281107336
 31
0.0
  0
LINE
  5
9D29
330
9D15
100
AcDbEntity
  8
contour
100
AcDbLine
 10
143.2797554375081
 20
0.0655328110734672
 30
0.0
 11
136.2797554375081
 21
0.0655328110735241
 31
0.0
  0
LINE
  5
9D2A
330
9D15
100
AcDbEntity
  8
bowle
 48
0.1
100
AcDbLine
 10
140.6457808412925
 20
-0.234467188926601
 30
0.0
 11
140.6457808412925
 21
1.965532811073387
 31
0.0
  0
LINE
  5
9D2B
330
9D15
100
AcDbEntity
  8
bowle
 48
0.1
100
AcDbLine
 10
141.511806245077
 20
-0.2344671889266578
 30
0.0
 11
141.511806245077
 21
1.965532811073387
 31
0.0
  0
LINE
  5
9D2C
330
9D15
100
AcDbEntity
  8
bowle
 48
0.1
100
AcDbLine
 10
138.9137300337237
 20
-0.234467188926601
 30
0.0
 11
138.9137300337237
 21
1.96553281107333
 31
0.0
  0
LINE
  5
9D2D
330
9D15
100
AcDbEntity
  8
bowle
 48
0.1
100
AcDbLine
 10
138.0477046299392
 20
-0.2344671889266578
 30
0.0
 11
138.0477046299391
 21
1.96553281107333
 31
0.0
  0
LINE
  5
9D2E
330
9D15
100
AcDbEntity
  8
bowle
 48
0.1
100
AcDbLine
 10
141.511806245077
 20
1.965532811073387
 30
0.0
 11
138.0477046299391
 21
1.965532811073387
 31
0.0
  0
LINE
  5
9D2F
330
9D15
100
AcDbEntity
  8
bowle
 48
0.1
100
AcDbLine
 10
138.0477046299391
 20
1.96553281107333
 30
0.0
 11
139.779755437508
 21
2.96553281107333
 31
0.0
  0
LINE
  5
9D30
330
9D15
100
AcDbEntity
  8
bowle
 48
0.1
100
AcDbLine
 10
141.511806245077
 20
1.96553281107333
 30
0.0
 11
139.779755437508
 21
2.96553281107333
 31
0.0
  0
LINE
  5
9D31
330
9D15
100
AcDbEntity
  8
contour
 62
     4
100
AcDbLine
 10
138.1587554375081
 20
4.421980067141987
 30
0.0
 11
137.7797554375081
 21
3.765532811073342
 31
0.0
  0
LINE
  5
9D32
330
9D15
100
AcDbEntity
  8
contour
100
AcDbLine
 10
137.7797554375081
 20
4.42198006714193
 30
0.0
 11
141.7797554375081
 21
4.42198006714193
 31
0.0
  0
LINE
  5
9D33
330
9D15
100
AcDbEntity
  8
contour
 62
     4
100
AcDbLine
 10
141.7797554375081
 20
3.765532811073398
 30
0.0
 11
141.400755437508
 21
4.42198006714193
 31
0.0
  0
ENDBLK
  5
9D1A
330
9D15
100
AcDbEntity
  8
0
100
AcDbBlockEnd
  0
BLOCK
  5
A51C
330
A518
100
AcDbEntity
  8
0
100
AcDbBlockBegin
  2
LS3
 70
     0
 10
0.0
 20
0.0
 30
0.0
  3
LS3
  1

  0
LINE
  5
A51E
330
A518
100
AcDbEntity
  8
contour
100
AcDbLine
 10
329.8877449821333
 20
4.477662871771769
 30
0.0
 11
329.8877449821333
 21
8.177662871771701
 31
0.0
  0
LINE
  5
A51F
330
A518
100
AcDbEntity
  8
contour
100
AcDbLine
 10
329.8877449821333
 20
8.177662871771701
 30
0.0
 11
336.8877449821333
 21
8.177662871771701
 31
0.0
  0
LINE
  5
A520
330
A518
100
AcDbEntity
  8
contour
100
AcDbLine
 10
332.1877449821334
 20
26.1776628717717
 30
0.0
 11
334.5877449821334
 21
26.17766287177165
 31
0.0
  0
LINE
  5
A521
330
A518
100
AcDbEntity
  8
contour
100
AcDbLine
 10
331.3877449821333
 20
25.37766287177163
 30
0.0
 11
332.1877449821334
 21
26.17766287177165
 31
0.0
  0
LINE
  5
A522
330
A518
100
AcDbEntity
  8
contour
100
AcDbLine
 10
336.8877449821333
 20
8.177662871771701
 30
0.0
 11
336.8877449821333
 21
4.477662871771656
 31
0.0
  0
LINE
  5
A523
330
A518
100
AcDbEntity
  8
contour
100
AcDbLine
 10
336.5877449821334
 20
4.177662871771644
 30
0.0
 11
330.1877449821334
 21
4.177662871771758
 31
0.0
  0
LINE
  5
A524
330
A518
100
AcDbEntity
  8
contour
100
AcDbLine
 10
329.8877449821333
 20
4.477662871771769
 30
0.0
 11
330.1877449821334
 21
4.177662871771758
 31
0.0
  0
LINE
  5
A525
330
A518
100
AcDbEntity
  8
contour
100
AcDbLine
 10
336.8877449821333
 20
4.477662871771656
 30
0.0
 11
336.5877449821334
 21
4.177662871771644
 31
0.0
  0
LINE
  5
A526
330
A518
100
AcDbEntity
  8
contour
100
AcDbLine
 10
331.3877449821333
 20
8.177662871771644
 30
0.0
 11
331.3877449821334
 21
25.37766287177168
 31
0.0
  0
LINE
  5
A527
330
A518
100
AcDbEntity
  8
contour
100
AcDbLine
 10
335.3877449821333
 20
8.177662871771644
 30
0.0
 11
335.3877449821333
 21
25.37766287177166
 31
0.0
  0
LINE
  5
A528
330
A518
100
AcDbEntity
  8
contour
100
AcDbLine
 10
334.5877449821334
 20
26.17766287177165
 30
0.0
 11
335.3877449821333
 21
25.37766287177163
 31
0.0
  0
LINE
  5
A529
330
A518
100
AcDbEntity
  8
contour
100
AcDbLine
 10
331.3877449821333
 20
25.37766287177169
 30
0.0
 11
335.3877449821333
 21
25.37766287177169
 31
0.0
  0
LINE
  5
A52A
330
A518
100
AcDbEntity
  8
contour
 62
     4
100
AcDbLine
 10
331.7667449821333
 20
8.834110127840233
 30
0.0
 11
331.7667449821333
 21
25.75666287177167
 31
0.0
  0
LINE
  5
A52B
330
A518
100
AcDbEntity
  8
contour
 62
     4
100
AcDbLine
 10
335.0087449821333
 20
8.834110127840233
 30
0.0
 11
335.0087449821334
 21
25.75666287177161
 31
0.0
  0
LINE
  5
A52C
330
A518
100
AcDbEntity
  8
contour
100
AcDbLine
 10
329.8877449821333
 20
4.477662871771769
 30
0.0
 11
336.8877449821333
 21
4.477662871771826
 31
0.0
  0
LINE
  5
A52D
330
A518
100
AcDbEntity
  8
bowle
 48
0.1
100
AcDbLine
 10
332.5217195783489
 20
4.177662871771701
 30
0.0
 11
332.5217195783489
 21
6.37766287177169
 31
0.0
  0
LINE
  5
A52E
330
A518
100
AcDbEntity
  8
bowle
 48
0.1
100
AcDbLine
 10
331.6556941745643
 20
4.177662871771644
 30
0.0
 11
331.6556941745643
 21
6.37766287177169
 31
0.0
  0
LINE
  5
A52F
330
A518
100
AcDbEntity
  8
bowle
 48
0.1
100
AcDbLine
 10
334.2537703859177
 20
4.177662871771701
 30
0.0
 11
334.2537703859177
 21
6.377662871771633
 31
0.0
  0
LINE
  5
A530
330
A518
100
AcDbEntity
  8
bowle
 48
0.1
100
AcDbLine
 10
335.1197957897023
 20
4.177662871771644
 30
0.0
 11
335.1197957897023
 21
6.377662871771633
 31
0.0
  0
LINE
  5
A531
330
A518
100
AcDbEntity
  8
bowle
 48
0.1
100
AcDbLine
 10
331.6556941745645
 20
6.37766287177169
 30
0.0
 11
335.1197957897023
 21
6.37766287177169
 31
0.0
  0
LINE
  5
A532
330
A518
100
AcDbEntity
  8
bowle
 48
0.1
100
AcDbLine
 10
335.1197957897023
 20
6.377662871771633
 30
0.0
 11
333.3877449821334
 21
7.377662871771633
 31
0.0
  0
LINE
  5
A533
330
A518
100
AcDbEntity
  8
bowle
 48
0.1
100
AcDbLine
 10
331.6556941745645
 20
6.377662871771633
 30
0.0
 11
333.3877449821334
 21
7.377662871771633
 31
0.0
  0
LINE
  5
A534
330
A518
100
AcDbEntity
  8
contour
 62
     4
100
AcDbLine
 10
335.0087449821333
 20
8.83411012784029
 30
0.0
 11
335.3877449821333
 21
8.177662871771644
 31
0.0
  0
LINE
  5
A535
330
A518
100
AcDbEntity
  8
contour
100
AcDbLine
 10
335.3877449821333
 20
8.834110127840233
 30
0.0
 11
331.3877449821333
 21
8.834110127840233
 31
0.0
  0
LINE
  5
A536
330
A518
100
AcDbEntity
  8
contour
 62
     4
100
AcDbLine
 10
331.3877449821333
 20
8.177662871771701
 30
0.0
 11
331.7667449821333
 21
8.834110127840233
 31
0.0
  0
ENDBLK
  5
A51D
330
A518
100
AcDbEntity
  8
0
100
AcDbBlockEnd
  0
BLOCK
  5
A62B
330
A627
100
AcDbEntity
  8
0
100
AcDbBlockBegin
  2
LS4
 70
     0
 10
0.0
 20
0.0
 30
0.0
  3
LS4
  1

  0
LINE
  5
A62D
330
A627
100
AcDbEntity
  8
contour
100
AcDbLine
 10
402.9074768226647
 20
108.9417821167274
 30
0.0
 11
410.8074768226646
 21
108.9417821167274
 31
0.0
  0
LINE
  5
A62E
330
A627
100
AcDbEntity
  8
contour
100
AcDbLine
 10
411.1074768226647
 20
109.2417821167273
 30
0.0
 11
411.1074768226647
 21
113.9417821167274
 31
0.0
  0
LINE
  5
A62F
330
A627
100
AcDbEntity
  8
contour
100
AcDbLine
 10
410.8074768226646
 20
108.9417821167274
 30
0.0
 11
411.1074768226647
 21
109.2417821167273
 31
0.0
  0
LINE
  5
A630
330
A627
100
AcDbEntity
  8
contour
100
AcDbLine
 10
411.1074768226647
 20
113.9417821167274
 30
0.0
 11
402.6074768226647
 21
113.9417821167274
 31
0.0
  0
LINE
  5
A631
330
A627
100
AcDbEntity
  8
contour
100
AcDbLine
 10
408.4574768226646
 20
131.9417821167274
 30
0.0
 11
405.2574768226646
 21
131.9417821167273
 31
0.0
  0
LINE
  5
A632
330
A627
100
AcDbEntity
  8
contour
100
AcDbLine
 10
409.3574768226646
 20
131.0417821167273
 30
0.0
 11
408.4574768226646
 21
131.9417821167274
 31
0.0
  0
LINE
  5
A633
330
A627
100
AcDbEntity
  8
contour
100
AcDbLine
 10
402.6074768226647
 20
113.9417821167274
 30
0.0
 11
402.6074768226647
 21
109.2417821167273
 31
0.0
  0
LINE
  5
A634
330
A627
100
AcDbEntity
  8
contour
100
AcDbLine
 10
402.9074768226647
 20
108.9417821167274
 30
0.0
 11
402.6074768226647
 21
109.2417821167273
 31
0.0
  0
LINE
  5
A635
330
A627
100
AcDbEntity
  8
contour
100
AcDbLine
 10
402.6074768226647
 20
109.2417821167273
 30
0.0
 11
411.1074768226647
 21
109.2417821167273
 31
0.0
  0
LINE
  5
A636
330
A627
100
AcDbEntity
  8
contour
100
AcDbLine
 10
404.3574768226647
 20
113.9417821167274
 30
0.0
 11
404.3574768226647
 21
131.0417821167273
 31
0.0
  0
LINE
  5
A637
330
A627
100
AcDbEntity
  8
contour
100
AcDbLine
 10
405.2574768226646
 20
131.9417821167273
 30
0.0
 11
404.3574768226647
 21
131.0417821167273
 31
0.0
  0
LINE
  5
A638
330
A627
100
AcDbEntity
  8
contour
100
AcDbLine
 10
409.3574768226647
 20
113.9417821167274
 30
0.0
 11
409.3574768226646
 21
131.0417821167273
 31
0.0
  0
LINE
  5
A639
330
A627
100
AcDbEntity
  8
contour
100
AcDbLine
 10
404.3574768226647
 20
131.0417821167273
 30
0.0
 11
409.3574768226646
 21
131.0417821167273
 31
0.0
  0
LINE
  5
A63A
330
A627
100
AcDbEntity
  8
contour
 62
     4
100
AcDbLine
 10
404.7904768226646
 20
114.6917601164047
 30
0.0
 11
404.7904768226647
 21
131.4747821167274
 31
0.0
  0
LINE
  5
A63B
330
A627
100
AcDbEntity
  8
contour
 62
     4
100
AcDbLine
 10
408.9244768226647
 20
114.6917601164048
 30
0.0
 11
408.9244768226647
 21
131.4747821167273
 31
0.0
  0
LINE
  5
A63C
330
A627
100
AcDbEntity
  8
contour
 62
     4
100
AcDbLine
 10
408.9244768226646
 20
114.6917601164048
 30
0.0
 11
409.3574768226647
 21
113.9417821167274
 31
0.0
  0
LINE
  5
A63D
330
A627
100
AcDbEntity
  8
contour
100
AcDbLine
 10
409.3574768226647
 20
114.6917601164048
 30
0.0
 11
404.3574768226647
 21
114.6917601164048
 31
0.0
  0
LINE
  5
A63E
330
A627
100
AcDbEntity
  8
contour
 62
     4
100
AcDbLine
 10
404.7904768226647
 20
114.6917601164048
 30
0.0
 11
404.3574768226647
 21
113.9417821167274
 31
0.0
  0
LINE
  5
A63F
330
A627
100
AcDbEntity
  8
bowle
 48
0.2
100
AcDbLine
 10
404.5480757459062
 20
108.9417821167274
 30
0.0
 11
404.5480757459062
 21
111.4417821167274
 31
0.0
  0
LINE
  5
A640
330
A627
100
AcDbEntity
  8
bowle
 48
0.2
100
AcDbLine
 10
409.1668778994232
 20
108.9417821167274
 30
0.0
 11
409.1668778994232
 21
111.4417821167274
 31
0.0
  0
LINE
  5
A641
330
A627
100
AcDbEntity
  8
bowle
 48
0.2
100
AcDbLine
 10
404.5480757459062
 20
111.4417821167274
 30
0.0
 11
409.1668778994232
 21
111.4417821167274
 31
0.0
  0
LINE
  5
A642
330
A627
100
AcDbEntity
  8
bowle
 48
0.2
100
AcDbLine
 10
405.7027762842854
 20
111.4417821167274
 30
0.0
 11
405.7027762842854
 21
108.9417821167274
 31
0.0
  0
LINE
  5
A643
330
A627
100
AcDbEntity
  8
bowle
 48
0.2
100
AcDbLine
 10
408.0121773610439
 20
111.4417821167274
 30
0.0
 11
408.0121773610439
 21
108.9417821167274
 31
0.0
  0
LINE
  5
A644
330
A627
100
AcDbEntity
  8
bowle
 48
0.2
100
AcDbLine
 10
409.1668778994232
 20
111.4417821167274
 30
0.0
 11
406.8574768226646
 21
112.7751154500606
 31
0.0
  0
LINE
  5
A645
330
A627
100
AcDbEntity
  8
bowle
 48
0.2
100
AcDbLine
 10
404.5480757459062
 20
111.4417821167274
 30
0.0
 11
406.8574768226646
 21
112.7751154500606
 31
0.0
  0
ENDBLK
  5
A62C
330
A627
100
AcDbEntity
  8
0
100
AcDbBlockEnd
  0
BLOCK
  5
AA87
330
AA7E
100
AcDbEntity
  8
0
100
AcDbBlockBegin
  2
*D7
 70
     1
 10
0.0
 20
0.0
 30
0.0
  3
*D7
  1

  0
LINE
  5
AB70
330
AA7E
100
AcDbEntity
  8
mark
370
    -2
100
AcDbLine
 10
154.5647162007712
 20
202.5108096644405
 30
0.0
 11
132.2575104280825
 21
196.7019542722745
 31
0.0
  0
LINE
  5
AB71
330
AA7E
100
AcDbEntity
  8
mark
370
    -2
100
AcDbLine
 10
57.74248957191744
 20
177.2980457277252
 30
0.0
 11
55.32317071295103
 21
176.668048697058
 31
0.0
  0
MTEXT
  5
AB72
330
AA7E
100
AcDbEntity
  8
mark
 62
     3
100
AcDbMText
 10
145.6127602140279
 20
202.2980614818667
 30
0.0
 40
2.5
 41
0.0
 71
     5
 72
     1
  1
\A1;P.C.D 72
 11
0.9677275435865634
 21
0.2519988122668751
 31
0.0
 73
     1
 44
1.0
  0
LINE
  5
AB73
330
AA7E
100
AcDbEntity
  8
mark
370
    -2
100
AcDbLine
 10
60.16180843088385
 20
177.9280427583924
 30
0.0
 11
129.8381915691161
 21
196.0719572416073
 31
0.0
  0
INSERT
  5
AB74
330
AA7E
100
AcDbEntity
  8
mark
370
    -2
100
AcDbBlockReference
  2
_Open30
 10
60.16180843088385
 20
177.9280427583924
 30
0.0
 41
2.5
 42
2.5
 43
2.5
 50
14.59582317864598
  0
INSERT
  5
AB75
330
AA7E
100
AcDbEntity
  8
mark
370
    -2
100
AcDbBlockReference
  2
_Open30
 10
129.8381915691161
 20
196.0719572416073
 30
0.0
 41
2.5
 42
2.5
 43
2.5
 50
194.595823178646
  0
POINT
  5
AB76
330
AA7E
100
AcDbEntity
  8
DEFPOINTS
 62
     0
100
AcDbPoint
 10
129.8381915691161
 20
196.0719572416073
 30
0.0
  0
POINT
  5
AB77
330
AA7E
100
AcDbEntity
  8
DEFPOINTS
 62
     0
100
AcDbPoint
 10
60.16180843088385
 20
177.9280427583924
 30
0.0
  0
ENDBLK
  5
AA88
330
AA7E
100
AcDbEntity
  8
0
100
AcDbBlockEnd
  0
BLOCK
  5
AA9B
330
AA92
100
AcDbEntity
  8
0
100
AcDbBlockBegin
  2
*D8
 70
     1
 10
0.0
 20
0.0
 30
0.0
  3
*D8
  1

  0
LINE
  5
AB78
330
AA92
100
AcDbEntity
  8
mark
370
    -2
100
AcDbLine
 10
31.28537417369067
 20
203.5222371258508
 30
0.0
 11
56.52265595897858
 21
196.9778001357451
 31
0.0
  0
LINE
  5
AB79
330
AA92
100
AcDbEntity
  8
mark
370
    -2
100
AcDbLine
 10
133.4773440410214
 20
177.0221998642547
 30
0.0
 11
135.8973027857398
 21
176.3946652645223
 31
0.0
  0
MTEXT
  5
AB7A
330
AA92
100
AcDbEntity
  8
mark
 62
     3
100
AcDbMText
 10
41.85084786520135
 20
202.9002429256313
 30
0.0
 40
2.5
 41
0.0
 71
     5
 72
     1
  1
\A1;P.C.D 74.5
 11
0.9679834978873302
 21
-0.2510138398929607
 31
0.0
 73
     1
 44
1.0
  0
LINE
  5
AB7B
330
AA92
100
AcDbEntity
  8
mark
370
    -2
100
AcDbLine
 10
131.0573852963031
 20
177.6497344639871
 30
0.0
 11
58.9426147036969
 21
196.3502655360127
 31
0.0
  0
INSERT
  5
AB7C
330
AA92
100
AcDbEntity
  8
mark
370
    -2
100
AcDbBlockReference
  2
_Open30
 10
131.0573852963031
 20
177.6497344639871
 30
0.0
 41
2.5
 42
2.5
 43
2.5
 50
165.4624858911298
  0
INSERT
  5
AB7D
330
AA92
100
AcDbEntity
  8
mark
370
    -2
100
AcDbBlockReference
  2
_Open30
 10
58.9426147036969
 20
196.3502655360127
 30
0.0
 41
2.5
 42
2.5
 43
2.5
 50
345.4624858911298
  0
POINT
  5
AB7E
330
AA92
100
AcDbEntity
  8
DEFPOINTS
 62
     0
100
AcDbPoint
 10
58.9426147036969
 20
196.3502655360127
 30
0.0
  0
POINT
  5
AB7F
330
AA92
100
AcDbEntity
  8
DEFPOINTS
 62
     0
100
AcDbPoint
 10
131.0573852963031
 20
177.6497344639871
 30
0.0
  0
ENDBLK
  5
AA9C
330
AA92
100
AcDbEntity
  8
0
100
AcDbBlockEnd
  0
BLOCK
  5
AAB8
330
AAAE
100
AcDbEntity
  8
0
100
AcDbBlockBegin
  2
*D9
 70
     1
 10
0.0
 20
0.0
 30
0.0
  3
*D9
  1

  0
LINE
  5
AB80
330
AAAE
100
AcDbEntity
  8
mark
370
    -2
100
AcDbLine
 10
53.20000000000006
 20
115.2899499467161
 30
0.0
 11
46.42011581379071
 21
115.2899499467161
 31
0.0
  0
LINE
  5
AB81
330
AAAE
100
AcDbEntity
  8
mark
370
    -2
100
AcDbLine
 10
50.2
 20
106.2899499467161
 30
0.0
 11
46.4201158137907
 21
106.2899499467161
 31
0.0
  0
LINE
  5
AB82
330
AAAE
100
AcDbEntity
  8
mark
370
    -2
100
AcDbLine
 10
47.2201158137907
 20
112.7899499467161
 30
0.0
 11
47.2201158137907
 21
108.7899499467161
 31
0.0
  0
INSERT
  5
AB83
330
AAAE
100
AcDbEntity
  8
mark
370
    -2
100
AcDbBlockReference
  2
_Open30
 10
47.2201158137907
 20
115.2899499467161
 30
0.0
 41
2.5
 42
2.5
 43
2.5
 50
90.0
  0
INSERT
  5
AB84
330
AAAE
100
AcDbEntity
  8
mark
370
    -2
100
AcDbBlockReference
  2
_Open30
 10
47.2201158137907
 20
106.2899499467161
 30
0.0
 41
2.5
 42
2.5
 43
2.5
 50
270.0
  0
MTEXT
  5
AB85
330
AAAE
100
AcDbEntity
  8
mark
 62
     3
100
AcDbMText
 10
45.17011581379068
 20
110.7899499467161
 30
0.0
 40
2.5
 41
0.0
 71
     5
 72
     1
  1
\A1;9
 11
0.0000000000000001
 21
1.0
 31
0.0
 73
     1
 44
1.0
  0
POINT
  5
AB86
330
AAAE
100
AcDbEntity
  8
DEFPOINTS
 62
     0
100
AcDbPoint
 10
54.00000000000005
 20
115.2899499467161
 30
0.0
  0
POINT
  5
AB87
330
AAAE
100
AcDbEntity
  8
DEFPOINTS
 62
     0
100
AcDbPoint
 10
51.0
 20
106.2899499467161
 30
0.0
  0
POINT
  5
AB88
330
AAAE
100
AcDbEntity
  8
DEFPOINTS
 62
     0
100
AcDbPoint
 10
47.2201158137907
 20
106.2899499467161
 30
0.0
  0
ENDBLK
  5
AAB9
330
AAAE
100
AcDbEntity
  8
0
100
AcDbBlockEnd
  0
BLOCK
  5
AAC5
330
AABB
100
AcDbEntity
  8
0
100
AcDbBlockBegin
  2
*D10
 70
     1
 10
0.0
 20
0.0
 30
0.0
  3
*D10
  1

  0
LINE
  5
AB89
330
AABB
100
AcDbEntity
  8
mark
370
    -2
100
AcDbLine
 10
136.8
 20
115.2899499467161
 30
0.0
 11
143.9287742311797
 21
115.2899499467161
 31
0.0
  0
LINE
  5
AB8A
330
AABB
100
AcDbEntity
  8
mark
370
    -2
100
AcDbLine
 10
136.8
 20
97.78994994671618
 30
0.0
 11
143.9287742311797
 21
97.78994994671618
 31
0.0
  0
LINE
  5
AB8B
330
AABB
100
AcDbEntity
  8
mark
370
    -2
100
AcDbLine
 10
143.1287742311797
 20
112.7899499467161
 30
0.0
 11
143.1287742311797
 21
100.2899499467162
 31
0.0
  0
INSERT
  5
AB8C
330
AABB
100
AcDbEntity
  8
mark
370
    -2
100
AcDbBlockReference
  2
_Open30
 10
143.1287742311797
 20
115.2899499467161
 30
0.0
 41
2.5
 42
2.5
 43
2.5
 50
90.0
  0
INSERT
  5
AB8D
330
AABB
100
AcDbEntity
  8
mark
370
    -2
100
AcDbBlockReference
  2
_Open30
 10
143.1287742311797
 20
97.78994994671618
 30
0.0
 41
2.5
 42
2.5
 43
2.5
 50
270.0
  0
MTEXT
  5
AB8E
330
AABB
100
AcDbEntity
  8
mark
 62
     3
100
AcDbMText
 10
141.0787742311796
 20
106.5399499467162
 30
0.0
 40
2.5
 41
0.0
 71
     5
 72
     1
  1
\A1;17.5
 11
0.0000000000000001
 21
1.0
 31
0.0
 73
     1
 44
1.0
  0
POINT
  5
AB8F
330
AABB
100
AcDbEntity
  8
DEFPOINTS
 62
     0
100
AcDbPoint
 10
136.0
 20
115.2899499467161
 30
0.0
  0
POINT
  5
AB90
330
AABB
100
AcDbEntity
  8
DEFPOINTS
 62
     0
100
AcDbPoint
 10
136.0
 20
97.78994994671618
 30
0.0
  0
POINT
  5
AB91
330
AABB
100
AcDbEntity
  8
DEFPOINTS
 62
     0
100
AcDbPoint
 10
143.1287742311797
 20
97.78994994671618
 30
0.0
  0
ENDBLK
  5
AAC6
330
AABB
100
AcDbEntity
  8
0
100
AcDbBlockEnd
  0
BLOCK
  5
AAE3
330
AAD7
100
AcDbEntity
  8
0
100
AcDbBlockBegin
  2
*D11
 70
     1
 10
0.0
 20
0.0
 30
0.0
  3
*D11
  1

  0
LINE
  5
AB92
330
AAD7
100
AcDbEntity
  8
mark
370
    -2
100
AcDbLine
 10
136.8
 20
97.78994994671618
 30
0.0
 11
143.9287742311797
 21
97.78994994671618
 31
0.0
  0
LINE
  5
AB93
330
AAD7
100
AcDbEntity
  8
mark
370
    -2
100
AcDbLine
 10
136.8
 20
95.78994994671615
 30
0.0
 11
143.9287742311797
 21
95.78994994671615
 31
0.0
  0
LINE
  5
AB94
330
AAD7
100
AcDbEntity
  8
mark
370
    -2
100
AcDbLine
 10
143.1287742311797
 20
100.2899499467162
 30
0.0
 11
143.1287742311797
 21
102.7899499467161
 31
0.0
  0
LINE
  5
AB95
330
AAD7
100
AcDbEntity
  8
mark
370
    -2
100
AcDbLine
 10
143.1287742311797
 20
93.28994994671615
 30
0.0
 11
143.1287742311797
 21
90.78994994671615
 31
0.0
  0
LINE
  5
AB96
330
AAD7
100
AcDbEntity
  8
mark
370
    -2
100
AcDbLine
 10
143.1287742311797
 20
97.78994994671618
 30
0.0
 11
143.1287742311797
 21
95.78994994671615
 31
0.0
  0
INSERT
  5
AB97
330
AAD7
100
AcDbEntity
  8
mark
370
    -2
100
AcDbBlockReference
  2
_Open30
 10
143.1287742311797
 20
97.78994994671618
 30
0.0
 41
2.5
 42
2.5
 43
2.5
 50
270.0
  0
INSERT
  5
AB98
330
AAD7
100
AcDbEntity
  8
mark
370
    -2
100
AcDbBlockReference
  2
_Open30
 10
143.1287742311797
 20
95.78994994671615
 30
0.0
 41
2.5
 42
2.5
 43
2.5
 50
90.0
  0
MTEXT
  5
AB99
330
AAD7
100
AcDbEntity
  8
mark
 62
     3
100
AcDbMText
 10
141.0787742311797
 20
96.78994994671619
 30
0.0
 40
2.5
 41
0.0
 71
     5
 72
     1
  1
\A1;2
 11
0.0000000000000001
 21
1.0
 31
0.0
 73
     1
 44
1.0
  0
POINT
  5
AB9A
330
AAD7
100
AcDbEntity
  8
DEFPOINTS
 62
     0
100
AcDbPoint
 10
136.0
 20
97.78994994671618
 30
0.0
  0
POINT
  5
AB9B
330
AAD7
100
AcDbEntity
  8
DEFPOINTS
 62
     0
100
AcDbPoint
 10
136.0
 20
95.78994994671615
 30
0.0
  0
POINT
  5
AB9C
330
AAD7
100
AcDbEntity
  8
DEFPOINTS
 62
     0
100
AcDbPoint
 10
143.1287742311797
 20
95.78994994671615
 30
0.0
  0
ENDBLK
  5
AAE4
330
AAD7
100
AcDbEntity
  8
0
100
AcDbBlockEnd
  0
BLOCK
  5
AAFB
330
AAF1
100
AcDbEntity
  8
0
100
AcDbBlockBegin
  2
*D12
 70
     1
 10
0.0
 20
0.0
 30
0.0
  3
*D12
  1

  0
LINE
  5
AB9D
330
AAF1
100
AcDbEntity
  8
mark
370
    -2
100
AcDbLine
 10
136.8
 20
89.28994994671615
 30
0.0
 11
150.3947725448218
 21
89.28994994671615
 31
0.0
  0
LINE
  5
AB9E
330
AAF1
100
AcDbEntity
  8
mark
370
    -2
100
AcDbLine
 10
136.8
 20
115.2899499467161
 30
0.0
 11
150.3947725448218
 21
115.2899499467161
 31
0.0
  0
LINE
  5
AB9F
330
AAF1
100
AcDbEntity
  8
mark
370
    -2
100
AcDbLine
 10
149.5947725448218
 20
91.78994994671615
 30
0.0
 11
149.5947725448218
 21
112.7899499467161
 31
0.0
  0
INSERT
  5
ABA0
330
AAF1
100
AcDbEntity
  8
mark
370
    -2
100
AcDbBlockReference
  2
_Open30
 10
149.5947725448218
 20
89.28994994671615
 30
0.0
 41
2.5
 42
2.5
 43
2.5
 50
270.0
  0
INSERT
  5
ABA1
330
AAF1
100
AcDbEntity
  8
mark
370
    -2
100
AcDbBlockReference
  2
_Open30
 10
149.5947725448218
 20
115.2899499467161
 30
0.0
 41
2.5
 42
2.5
 43
2.5
 50
90.0
  0
MTEXT
  5
ABA2
330
AAF1
100
AcDbEntity
  8
mark
 62
     3
100
AcDbMText
 10
147.5447725448217
 20
102.2899499467161
 30
0.0
 40
2.5
 41
0.0
 71
     5
 72
     1
  1
\A1;26%%P0.2
 11
0.0000000000000001
 21
1.0
 31
0.0
 73
     1
 44
1.0
  0
POINT
  5
ABA3
330
AAF1
100
AcDbEntity
  8
DEFPOINTS
 62
     0
100
AcDbPoint
 10
136.0
 20
89.28994994671615
 30
0.0
  0
POINT
  5
ABA4
330
AAF1
100
AcDbEntity
  8
DEFPOINTS
 62
     0
100
AcDbPoint
 10
136.0
 20
115.2899499467161
 30
0.0
  0
POINT
  5
ABA5
330
AAF1
100
AcDbEntity
  8
DEFPOINTS
 62
     0
100
AcDbPoint
 10
149.5947725448218
 20
115.2899499467161
 30
0.0
  0
ENDBLK
  5
AAFC
330
AAF1
100
AcDbEntity
  8
0
100
AcDbBlockEnd
  0
BLOCK
  5
AB08
330
AAFE
100
AcDbEntity
  8
0
100
AcDbBlockBegin
  2
*D13
 70
     1
 10
0.0
 20
0.0
 30
0.0
  3
*D13
  1

  0
LINE
  5
ABA6
330
AAFE
100
AcDbEntity
  8
mark
370
    -2
100
AcDbLine
 10
53.00000000000006
 20
115.0899499467161
 30
0.0
 11
53.00000000000006
 21
123.330012011128
 31
0.0
  0
LINE
  5
ABA7
330
AAFE
100
AcDbEntity
  8
mark
370
    -2
100
AcDbLine
 10
137.0
 20
115.0899499467161
 30
0.0
 11
137.0
 21
123.330012011128
 31
0.0
  0
LINE
  5
ABA8
330
AAFE
100
AcDbEntity
  8
mark
370
    -2
100
AcDbLine
 10
55.50000000000006
 20
122.530012011128
 30
0.0
 11
134.5
 21
122.530012011128
 31
0.0
  0
INSERT
  5
ABA9
330
AAFE
100
AcDbEntity
  8
mark
370
    -2
100
AcDbBlockReference
  2
_Open30
 10
53.00000000000006
 20
122.530012011128
 30
0.0
 41
2.5
 42
2.5
 43
2.5
 50
180.0
  0
INSERT
  5
ABAA
330
AAFE
100
AcDbEntity
  8
mark
370
    -2
100
AcDbBlockReference
  2
_Open30
 10
137.0
 20
122.530012011128
 30
0.0
 41
2.5
 42
2.5
 43
2.5
  0
MTEXT
  5
ABAB
330
AAFE
100
AcDbEntity
  8
mark
 62
     3
100
AcDbMText
 10
95.00000000000003
 20
124.580012011128
 30
0.0
 40
2.5
 41
0.0
 71
     5
 72
     1
  1
\A1;%%c84
 73
     1
 44
1.0
  0
POINT
  5
ABAC
330
AAFE
100
AcDbEntity
  8
DEFPOINTS
 62
     0
100
AcDbPoint
 10
53.00000000000006
 20
114.2899499467161
 30
0.0
  0
POINT
  5
ABAD
330
AAFE
100
AcDbEntity
  8
DEFPOINTS
 62
     0
100
AcDbPoint
 10
137.0
 20
114.2899499467161
 30
0.0
  0
POINT
  5
ABAE
330
AAFE
100
AcDbEntity
  8
DEFPOINTS
 62
     0
100
AcDbPoint
 10
137.0
 20
122.530012011128
 30
0.0
  0
ENDBLK
  5
AB09
330
AAFE
100
AcDbEntity
  8
0
100
AcDbBlockEnd
  0
BLOCK
  5
AB16
330
AB0C
100
AcDbEntity
  8
0
100
AcDbBlockBegin
  2
*D14
 70
     1
 10
0.0
 20
0.0
 30
0.0
  3
*D14
  1

  0
LINE
  5
ABAF
330
AB0C
100
AcDbEntity
  8
mark
370
    -2
100
AcDbLine
 10
65.00000000000006
 20
89.1779499467162
 30
0.0
 11
65.00000000000006
 21
74.35777217428459
 31
0.0
  0
LINE
  5
ABB0
330
AB0C
100
AcDbEntity
  8
mark
370
    -2
100
AcDbLine
 10
125.0
 20
89.17794994671625
 30
0.0
 11
125.0
 21
74.35777217428459
 31
0.0
  0
LINE
  5
ABB1
330
AB0C
100
AcDbEntity
  8
mark
370
    -2
100
AcDbLine
 10
67.50000000000006
 20
75.15777217428459
 30
0.0
 11
122.5
 21
75.15777217428459
 31
0.0
  0
INSERT
  5
ABB2
330
AB0C
100
AcDbEntity
  8
mark
370
    -2
100
AcDbBlockReference
  2
_Open30
 10
65.00000000000006
 20
75.15777217428459
 30
0.0
 41
2.5
 42
2.5
 43
2.5
 50
180.0
  0
INSERT
  5
ABB3
330
AB0C
100
AcDbEntity
  8
mark
370
    -2
100
AcDbBlockReference
  2
_Open30
 10
125.0
 20
75.15777217428459
 30
0.0
 41
2.5
 42
2.5
 43
2.5
  0
MTEXT
  5
ABB4
330
AB0C
100
AcDbEntity
  8
mark
 62
     3
100
AcDbMText
 10
95.00000000000003
 20
77.20777217428459
 30
0.0
 40
2.5
 41
0.0
 71
     5
 72
     1
  1
\A1;M60X1.5P
 73
     1
 44
1.0
  0
POINT
  5
ABB5
330
AB0C
100
AcDbEntity
  8
DEFPOINTS
 62
     0
100
AcDbPoint
 10
65.00000000000006
 20
89.9779499467162
 30
0.0
  0
POINT
  5
ABB6
330
AB0C
100
AcDbEntity
  8
DEFPOINTS
 62
     0
100
AcDbPoint
 10
125.0
 20
89.97794994671625
 30
0.0
  0
POINT
  5
ABB7
330
AB0C
100
AcDbEntity
  8
DEFPOINTS
 62
     0
100
AcDbPoint
 10
125.0
 20
75.15777217428459
 30
0.0
  0
ENDBLK
  5
AB17
330
AB0C
100
AcDbEntity
  8
0
100
AcDbBlockEnd
  0
BLOCK
  5
AD11
330
AD0A
100
AcDbEntity
  8
0
100
AcDbBlockBegin
  2
A$C10EE1B78
 70
     0
 10
0.0
 20
0.0
 30
0.0
  3
A$C10EE1B78
  1

  0
LWPOLYLINE
  5
AD0B
330
AD0A
100
AcDbEntity
  8
mark
100
AcDbPolyline
 90
        3
 70
     1
 43
0.0
 10
5.773503220243419
 20
0.6116704744286779
 10
2.886751874295304
 20
5.611670474428677
 10
0.0000005283471651
 20
0.6116704744286779
  0
MTEXT
  5
AD0C
330
AD0A
100
AcDbEntity
  8
dim
100
AcDbMText
 10
2.095053214576443
 20
3.649434995315885
 30
0.0
 40
2.5
 41
9.163114146879252
 71
     1
 72
     5
  1
2
 73
     1
 44
1.0
1001
ACAD
1000
ACAD_MTEXT_DEFINED_HEIGHT_BEGIN
1070
    46
1040
0.0
1000
ACAD_MTEXT_DEFINED_HEIGHT_END
  0
MTEXT
  5
AD0D
330
AD0A
100
AcDbEntity
  8
dim
100
AcDbMText
 10
7.536701731715083
 20
5.072228456878974
 30
0.0
 40
4.5
 41
0.0
 71
     1
 72
     5
  1
{\Ftxt,bigfont|c128;08.08.08 振れ精度の変更  林}
  7
JL
 73
     1
 44
1.0
1001
ACAD
1000
ACAD_MTEXT_DEFINED_HEIGHT_BEGIN
1070
    46
1040
0.0
1000
ACAD_MTEXT_DEFINED_HEIGHT_END
  0
CIRCLE
  5
AD0E
330
AD0A
100
AcDbEntity
  8
dim
100
AcDbCircle
 10
45.31100502574083
 20
2.762409836912183
 30
0.0
 40
2.762409708108862
  0
ENDBLK
  5
AD12
330
AD0A
100
AcDbEntity
  8
0
100
AcDbBlockEnd
  0
ENDSEC
  0
SECTION
  2
ENTITIES
  0
MTEXT
  5
C0
330
18
100
AcDbEntity
  8
0
100
AcDbMText
 10
41.26970765600413
 20
233.6950877649332
 30
0.0
 40
2.5
 41
0.0
 71
     1
 72
     5
  1

  7
ISOCP3
 73
     1
 44
1.0
  0
LWPOLYLINE
  5
7D6C
330
18
100
AcDbEntity
  8
frame
100
AcDbPolyline
 90
        4
 70
     1
 43
0.0
 10
190.0
 20
280.0
 10
0.0
 20
280.0
 10
0.0
 20
0.0
 10
190.0
 20
0.0
  0
MTEXT
  5
7D6D
330
18
100
AcDbEntity
  8
0
100
AcDbMText
 10
17.09950368689175
 20
19.07605901616614
 30
0.0
 40
4.5
 41
0.0
 71
     1
 72
     5
  1
{\Ftxt,bigfont|c128;林彦旭}
  7
JL
 73
     1
 44
1.0
1001
ACAD
1000
ACAD_MTEXT_DEFINED_HEIGHT_BEGIN
1070
    46
1040
0.0
1000
ACAD_MTEXT_DEFINED_HEIGHT_END
  0
MTEXT
  5
7D6E
330
18
100
AcDbEntity
  8
0
100
AcDbMText
 10
77.95294729228851
 20
28.93578979870677
 30
0.0
 40
4.5
 41
0.0
 71
     1
 72
     5
  1
{\Ftxt,bigfont|c128;1 : 1}
  7
JL
 73
     1
 44
1.0
1001
ACAD
1000
ACAD_MTEXT_DEFINED_HEIGHT_BEGIN
1070
    46
1040
0.0
1000
ACAD_MTEXT_DEFINED_HEIGHT_END
  0
MTEXT
  5
7D6F
330
18
100
AcDbEntity
  8
0
 48
2.0
370
    25
100
AcDbMText
 10
140.2194500465656
 20
3.490021654633892
 30
0.0
 40
4.5
 41
0.0
 71
     5
 72
     1
  1
{\Ftxt,bigfont|c128;N L 4 0 2 8 3}
 73
     1
 44
1.0
1001
ACAD
1000
ACAD_MTEXT_DEFINED_HEIGHT_BEGIN
1070
    46
1040
0.0
1000
ACAD_MTEXT_DEFINED_HEIGHT_END
  0
MTEXT
  5
7D70
330
18
100
AcDbEntity
  8
0
 48
2.0
100
AcDbMText
 10
170.9328999644331
 20
21.76437127823692
 30
0.0
 40
4.318181818181822
 41
0.0
 71
     5
 72
     1
  1
\P{\Ftxt,bigfont|c128;MKR60X1.5P}
 73
     1
 44
1.0
1001
ACAD
1000
ACAD_MTEXT_DEFINED_HEIGHT_BEGIN
1070
    46
1040
0.0
1000
ACAD_MTEXT_DEFINED_HEIGHT_END
  0
MTEXT
  5
7D71
330
18
100
AcDbEntity
  8
0
100
AcDbMText
 10
15.3760677136774
 20
28.37740359834709
 30
0.0
 40
4.5
 41
0.0
 71
     1
 72
     5
  1
{\Ftxt,bigfont|c128;06.07.05}
  7
JL
 73
     1
 44
1.0
1001
ACAD
1000
ACAD_MTEXT_DEFINED_HEIGHT_BEGIN
1070
    46
1040
0.0
1000
ACAD_MTEXT_DEFINED_HEIGHT_END
  0
MTEXT
  5
7D73
330
18
100
AcDbEntity
  8
0
100
AcDbMText
 10
14.91235548326415
 20
9.242195050049303
 30
0.0
 40
6.0
 41
0.0
 71
     1
 72
     5
  1
\Ftxt.shx,bigfont.shx|c128;日機株式会社
  7
LKK
 73
     1
 44
1.0
  0
LINE
  5
7D74
330
18
100
AcDbEntity
  8
frame
100
AcDbLine
 10
0.0
 20
12.0
 30
0.0
 11
190.0
 21
12.00000000000005
 31
0.0
  0
LINE
  5
7D75
330
18
100
AcDbEntity
  8
frame
100
AcDbLine
 10
0.0
 20
22.0
 30
0.0
 11
92.12121212121223
 21
22.0
 31
0.0
  0
LINE
  5
7D76
330
18
100
AcDbEntity
  8
frame
100
AcDbLine
 10
0.0
 20
32.0
 30
0.0
 11
190.0
 21
32.0
 31
0.0
  0
LINE
  5
7D77
330
18
100
AcDbEntity
  8
frame
100
AcDbLine
 10
12.19077332493799
 20
32.0
 30
0.0
 11
12.19077332493799
 21
12.0
 31
0.0
  0
LINE
  5
7D78
330
18
100
AcDbEntity
  8
frame
100
AcDbLine
 10
30.70707070707067
 20
32.0
 30
0.0
 11
30.70707070707078
 21
12.0
 31
0.0
  0
MTEXT
  5
7D79
330
18
100
AcDbEntity
  8
0
100
AcDbMText
 10
2.830274784221955
 20
29.08190089582831
 30
0.0
 40
4.5
 41
0.0
 71
     1
 72
     5
  1
\Ftxt.shx,bigfont.shx|c128;日 付
  7
JL
 73
     1
 44
1.0
  0
MTEXT
  5
7D7A
330
18
100
AcDbEntity
  8
0
100
AcDbMText
 10
2.97063307743889
 20
19.52163842926637
 30
0.0
 40
4.5
 41
0.0
 71
     1
 72
     5
  1
\Ftxt.shx,bigfont.shx|c128;製 図
  7
JL
 73
     1
 44
1.0
  0
LINE
  5
7D7B
330
18
100
AcDbEntity
  8
0
 62
     7
370
    25
100
AcDbLine
 10
53.04580144287854
 20
23.81984609294597
 30
0.0
 11
53.04580144287854
 21
28.93622339589922
 31
0.0
  0
MTEXT
  5
7D7C
330
18
100
AcDbEntity
  8
0
100
AcDbMText
 10
64.00748852490835
 20
29.12242703792379
 30
0.0
 40
4.5
 41
0.0
 71
     1
 72
     5
  1
\Ftxt.shx,bigfont.shx|c128;尺 度
  7
JL
 73
     1
 44
1.0
  0
LINE
  5
7D7D
330
18
100
AcDbEntity
  8
frame
100
AcDbLine
 10
61.41414141414145
 20
32.0
 30
0.0
 11
61.41414141414145
 21
12.0
 31
0.0
  0
LINE
  5
7D7E
330
18
100
AcDbEntity
  8
0
 62
     7
370
    25
100
AcDbLine
 10
39.6153110226262
 20
23.18889018332635
 30
0.0
 11
39.6153110226262
 21
29.36457992429672
 31
0.0
  0
CIRCLE
  5
7D7F
330
18
100
AcDbEntity
  8
0
 62
     7
100
AcDbCircle
 10
39.6153110226262
 20
26.37803474442251
 30
0.0
 40
2.558188651476678
  0
LINE
  5
7D80
330
18
100
AcDbEntity
  8
0
 62
     7
370
    25
100
AcDbLine
 10
47.19321986919976
 20
26.37803474442262
 30
0.0
 11
53.50512581624241
 21
26.37803474442262
 31
0.0
  0
LINE
  5
7D81
330
18
100
AcDbEntity
  8
0
 62
     7
100
AcDbLine
 10
47.92942413992534
 20
25.09894041868427
 30
0.0
 11
53.04580144287854
 21
23.81984609294597
 31
0.0
  0
LINE
  5
7D82
330
18
100
AcDbEntity
  8
frame
100
AcDbLine
 10
42.742241959951
 20
22.0
 30
0.0
 11
42.742241959951
 21
12.0
 31
0.0
  0
LINE
  5
7D83
330
18
100
AcDbEntity
  8
0
 62
     7
370
    25
100
AcDbLine
 10
36.41832228486612
 20
26.37803474442251
 30
0.0
 11
43.00325267619268
 21
26.37803474442262
 31
0.0
  0
CIRCLE
  5
7D84
330
18
100
AcDbEntity
  8
0
 62
     7
100
AcDbCircle
 10
39.6153110226262
 20
26.37803474442251
 30
0.0
 40
1.279094325738339
  0
MTEXT
  5
7D85
330
18
100
AcDbEntity
  8
0
100
AcDbMText
 10
33.70184032462407
 20
19.41013815785266
 30
0.0
 40
4.5
 41
0.0
 71
     1
 72
     5
  1
\Ftxt.shx,bigfont.shx|c128;検 図
  7
JL
 73
     1
 44
1.0
  0
LINE
  5
7D86
330
18
100
AcDbEntity
  8
0
 62
     7
370
    25
100
AcDbLine
 10
47.92942413992534
 20
25.09894041868427
 30
0.0
 11
47.92942413992534
 21
27.65712907016086
 31
0.0
  0
MTEXT
  5
7D87
330
18
100
AcDbEntity
  8
0
100
AcDbMText
 10
64.28820249919829
 20
19.32058534748881
 30
0.0
 40
4.5
 41
0.0
 71
     1
 72
     5
  1
\Ftxt.shx,bigfont.shx|c128;承 認
  7
JL
 73
     1
 44
1.0
  0
MTEXT
  5
7D88
330
18
100
AcDbEntity
  8
0
100
AcDbMText
 10
93.71128715606699
 20
10.7026821961914
 30
0.0
 40
4.5
 41
0.0
 71
     1
 72
     5
  1
\Ftxt.shx,bigfont.shx|c128;図  面  番  号
  7
JL
 73
     1
 44
1.0
  0
MTEXT
  5
7D89
330
18
100
AcDbEntity
  8
0
 48
2.0
100
AcDbMText
 10
116.9038190021384
 20
21.8757473149584
 30
0.0
 40
4.5
 41
0.0
 71
     5
 72
     1
  1
\P\Ftxt.shx,bigfont.shx|c128;    精密ロックナット
 73
     1
 44
1.0
  0
MTEXT
  5
7D8A
330
18
100
AcDbEntity
  8
0
100
AcDbMText
 10
94.8083613031232
 20
29.03862457973275
 30
0.0
 40
4.5
 41
0.0
 71
     1
 72
     5
  1
\Ftxt.shx,bigfont.shx|c128;品  名
  7
JL
 73
     1
 44
1.0
  0
LINE
  5
7D8B
330
18
100
AcDbEntity
  8
frame
100
AcDbLine
 10
92.12121212121223
 20
32.0
 30
0.0
 11
92.12121212121223
 21
0.1833227579584786
 31
0.0
  0
LINE
  5
7D8C
330
18
100
AcDbEntity
  8
frame
100
AcDbLine
 10
73.41414141414145
 20
32.0
 30
0.0
 11
73.41414141414145
 21
12.0
 31
0.0
  0
LINE
  5
7D8D
330
18
100
AcDbEntity
  8
frame
100
AcDbLine
 10
147.0327092740656
 20
32.0
 30
0.0
 11
147.0327092740657
 21
12.0
 31
0.0
  0
MTEXT
  5
7D8E
330
18
100
AcDbEntity
  8
0
100
AcDbMText
 10
150.895959446773
 20
29.04517782830391
 30
0.0
 40
4.5
 41
0.0
 71
     1
 72
     5
  1
\Ftxt.shx,bigfont.shx|c128;型  番
  7
JL
 73
     1
 44
1.0
  0
MTEXT
  5
7D8F
330
18
100
AcDbEntity
  8
0
100
AcDbMText
 10
165.8059614810325
 20
10.78298174971564
 30
0.0
 40
4.5
 41
0.0
 71
     1
 72
     5
  1
\Ftxt.shx,bigfont.shx|c128;変更
  7
JL
 73
     1
 44
1.0
  0
LINE
  5
7D90
330
18
100
AcDbEntity
  8
frame
100
AcDbLine
 10
164.0909090909092
 20
12.00000000000005
 30
0.0
 11
164.0909090909093
 21
0.0
 31
0.0
  0
LINE
  5
7D91
330
18
100
AcDbEntity
  8
frame
100
AcDbLine
 10
124.6157900786393
 20
43.13491348924492
 30
0.0
 11
184.6157900786393
 21
43.13491348924481
 31
0.0
  0
LINE
  5
7D92
330
18
100
AcDbEntity
  8
frame
100
AcDbLine
 10
124.6157900786393
 20
50.33491348924497
 30
0.0
 11
184.6157900786393
 21
50.33491348924497
 31
0.0
  0
LINE
  5
7D93
330
18
100
AcDbEntity
  8
frame
100
AcDbLine
 10
124.6157900786393
 20
57.5349134892449
 30
0.0
 11
184.6157900786393
 21
57.53491348924478
 31
0.0
  0
LINE
  5
7D94
330
18
100
AcDbEntity
  8
frame
100
AcDbLine
 10
124.6157900786393
 20
64.73491348924494
 30
0.0
 11
184.6157900786393
 21
64.73491348924483
 31
0.0
  0
LINE
  5
7D95
330
18
100
AcDbEntity
  8
frame
100
AcDbLine
 10
124.6157900786393
 20
35.93491348924488
 30
0.0
 11
184.6157900786393
 21
35.93491348924488
 31
0.0
  0
MTEXT
  5
7D96
330
18
100
AcDbEntity
  8
0
 62
     7
 48
2.0
100
AcDbMText
 10
154.5011900445106
 20
65.52808189982909
 30
0.0
 40
4.8
 41
0.0
 71
     5
 72
     1
  1
\P\Ftxt.shx,bigfont.shx|c128;諸　　　　元
 73
     1
 44
1.0
  0
LINE
  5
7D97
330
18
100
AcDbEntity
  8
frame
100
AcDbLine
 10
124.6157900786393
 20
64.73491348924483
 30
0.0
 11
124.6157900786393
 21
35.93491348924488
 31
0.0
  0
MTEXT
  5
7D98
330
18
100
AcDbEntity
  8
0
100
AcDbMText
 10
128.1382258923195
 20
56.00840432212407
 30
0.0
 40
4.4
 41
163.916286842249
 71
     1
 72
     5
  1
\Ftxt.shx,bigfont.shx|c128;熱　処　理
  7
JL
 73
     1
 44
1.0
  0
LINE
  5
7D99
330
18
100
AcDbEntity
  8
frame
100
AcDbLine
 10
148.6157900786393
 20
57.53491348924478
 30
0.0
 11
148.6157900786393
 21
35.93491348924488
 31
0.0
  0
MTEXT
  5
7D9A
330
18
100
AcDbEntity
  8
0
100
AcDbMText
 10
127.8579515249403
 20
49.00617587486397
 30
0.0
 40
4.4
 41
163.6058628849672
 71
     1
 72
     5
  1
\Ftxt.shx,bigfont.shx|c128;表 面 処 理
  7
JL
 73
     1
 44
1.0
  0
MTEXT
  5
7D9B
330
18
100
AcDbEntity
  8
0
100
AcDbMText
 10
128.1480173733753
 20
41.71770302125605
 30
0.0
 40
4.4
 41
166.1718
 71
     1
 72
     5
  1
\Ftxt.shx,bigfont.shx|c128;等     　級
  7
JL
 73
     1
 44
1.0
  0
LINE
  5
7D9C
330
18
100
AcDbEntity
  8
frame
100
AcDbLine
 10
184.6157900786393
 20
64.73491348924483
 30
0.0
 11
184.6157900786393
 21
35.93491348924499
 31
0.0
  0
MTEXT
  5
7D9D
330
18
100
AcDbEntity
  8
0
100
AcDbMText
 10
153.3627933880818
 20
55.83344641471445
 30
0.0
 40
4.4
 41
291.8960056857887
 71
     1
 72
     5
  1
\Ftxt.shx,bigfont.shx|c128;調質　HRC30%%d%%p２%%d
  7
JL
 73
     1
 44
1.0
  0
MTEXT
  5
7D9E
330
18
100
AcDbEntity
  8
0
100
AcDbMText
 10
153.6234323895182
 20
41.7183135927072
 30
0.0
 40
4.4
 41
290.783364796891
 71
     1
 72
     5
  1
\Ftxt.shx,bigfont.shx|c128;ＩＳＯ - ４Ｈ
  7
JL
 73
     1
 44
1.0
  0
MTEXT
  5
7D9F
330
18
100
AcDbEntity
  8
0
100
AcDbMText
 10
153.7978935876485
 20
48.65328293790913
 30
0.0
 40
4.4
 41
291.4548
 71
     1
 72
     5
  1
\Ftxt.shx,bigfont.shx|c128;黒  　    染
  7
JL
 73
     1
 44
1.0
  0
MTEXT
  5
7DA0
330
18
100
AcDbEntity
  8
0
100
AcDbMText
 10
57.63639061334425
 20
260.9000583279474
 30
0.0
 40
5.0
 41
0.0
 71
     1
 72
     5
  1
{\Ftxt,bigfont|c128;M5X0.8P-18L}
  7
JL
 73
     1
 44
1.0
1001
ACAD
1000
ACAD_MTEXT_DEFINED_HEIGHT_BEGIN
1070
    46
1040
0.0
1000
ACAD_MTEXT_DEFINED_HEIGHT_END
  0
LINE
  5
7DA2
330
18
100
AcDbEntity
  8
frame
100
AcDbLine
 10
0.0
 20
254.0
 30
0.0
 11
190.0
 21
254.0
 31
0.0
  0
LINE
  5
7DA3
330
18
100
AcDbEntity
  8
frame
100
AcDbLine
 10
0.0
 20
262.0
 30
0.0
 11
190.0
 21
262.0
 31
0.0
  0
LINE
  5
7DA4
330
18
100
AcDbEntity
  8
frame
 62
     9
100
AcDbLine
 10
0.0
 20
270.0
 30
0.0
 11
190.0
 21
270.0
 31
0.0
  0
MTEXT
  5
7DA5
330
18
100
AcDbEntity
  8
0
100
AcDbMText
 10
57.0156439060371
 20
277.4240560049041
 30
0.0
 40
5.0
 41
0.0
 71
     1
 72
     5
  1
\Ftxt.shx,bigfont.shx|c128;図    番 / 規　　格
  7
JL
 73
     1
 44
1.0
  0
LINE
  5
7DA6
330
18
100
AcDbEntity
  8
frame
100
AcDbLine
 10
0.0
 20
254.0
 30
0.0
 11
190.0
 21
254.0
 31
0.0
  0
MTEXT
  5
7DA8
330
18
100
AcDbEntity
  8
0
100
AcDbMText
 10
21.12488048923433
 20
277.4637981386743
 30
0.0
 40
5.0
 41
0.0
 71
     1
 72
     5
  1
\Ftxt.shx,bigfont.shx|c128;品　          名
  7
JL
 73
     1
 44
1.0
  0
MTEXT
  5
7DA9
330
18
100
AcDbEntity
  8
0
100
AcDbMText
 10
18.10281387110132
 20
260.7907237289111
 30
0.0
 40
5.0
 41
0.0
 71
     1
 72
     5
  1
\Ftxt.shx,bigfont.shx|c128;セットスクリュ-
  7
JL
 73
     1
 44
1.0
  0
MTEXT
  5
7DAA
330
18
100
AcDbEntity
  8
0
100
AcDbMText
 10
17.91509480863158
 20
268.8361230282964
 30
0.0
 40
5.0
 41
0.0
 71
     1
 72
     5
  1
\Ftxt.shx,bigfont.shx|c128;ロックナット　  
  7
JL
 73
     1
 44
1.0
  0
LINE
  5
7DAC
330
18
100
AcDbEntity
  8
frame
 62
     9
100
AcDbLine
 10
14.39393939393937
 20
279.9999999999999
 30
0.0
 11
14.39393939393964
 21
254.0
 31
0.0
  0
LINE
  5
7DAD
330
18
100
AcDbEntity
  8
frame
 62
     9
100
AcDbLine
 10
14.39393939393937
 20
279.9999999999999
 30
0.0
 11
14.39393939393937
 21
255.0505050505051
 31
0.0
  0
MTEXT
  5
7DAE
330
18
100
AcDbEntity
  8
0
100
AcDbMText
 10
6.815009268013795
 20
268.7281674434121
 30
0.0
 40
5.0
 41
0.0
 71
     1
 72
     5
  1
\Ftxt.shx,bigfont.shx|c128;1
  7
JL
 73
     1
 44
1.0
  0
MTEXT
  5
7DAF
330
18
100
AcDbEntity
  8
0
100
AcDbMText
 10
2.119828072980226
 20
277.4734782639491
 30
0.0
 40
5.0
 41
0.0
 71
     1
 72
     5
  1
\Ftxt.shx,bigfont.shx|c128;照   号
  7
JL
 73
     1
 44
1.0
  0
LINE
  5
7DB0
330
18
100
AcDbEntity
  8
frame
 62
     9
100
AcDbLine
 10
52.77777777777783
 20
279.9999999999999
 30
0.0
 11
52.77777777777784
 21
254.0
 31
0.0
  0
MTEXT
  5
7DB1
330
18
100
AcDbEntity
  8
0
100
AcDbMText
 10
145.5736374372851
 20
277.6781663894194
 30
0.0
 40
5.0
 41
0.0
 71
     1
 72
     5
  1
\Ftxt.shx,bigfont.shx|c128;備           考
  7
JL
 73
     1
 44
1.0
  0
LINE
  5
7DB2
330
18
100
AcDbEntity
  8
frame
 62
     9
100
AcDbLine
 10
91.16161616161617
 20
280.0
 30
0.0
 11
91.16161616161617
 21
254.0
 31
0.0
  0
MTEXT
  5
7DB4
330
18
100
AcDbEntity
  8
0
100
AcDbMText
 10
92.87341089179369
 20
268.8361230282964
 30
0.0
 40
5.0
 41
0.0
 71
     1
 72
     5
  1
\Ftxt.shx,bigfont.shx|c128;SCM-440
  7
JL
 73
     1
 44
1.0
  0
MTEXT
  5
7DB5
330
18
100
AcDbEntity
  8
0
100
AcDbMText
 10
92.87341089179369
 20
260.765002012584
 30
0.0
 40
5.0
 41
0.0
 71
     1
 72
     5
  1
\Ftxt.shx,bigfont.shx|c128;SCM435
  7
JL
 73
     1
 44
1.0
  0
MTEXT
  5
7DB6
330
18
100
AcDbEntity
  8
0
100
AcDbMText
 10
95.76798863104192
 20
277.5645499482919
 30
0.0
 40
5.0
 41
0.0
 71
     1
 72
     5
  1
\Ftxt.shx,bigfont.shx|c128;材　質
  7
JL
 73
     1
 44
1.0
  0
LINE
  5
7DB7
330
18
100
AcDbEntity
  8
frame
 62
     9
100
AcDbLine
 10
110.3535353535354
 20
280.0
 30
0.0
 11
110.3535353535354
 21
254.0
 31
0.0
  0
LINE
  5
7DB8
330
18
100
AcDbEntity
  8
frame
100
AcDbLine
 10
124.7474747474747
 20
280.0
 30
0.0
 11
124.7474747474748
 21
254.0
 31
0.0
  0
MTEXT
  5
7DBA
330
18
100
AcDbEntity
  8
0
100
AcDbMText
 10
117.1685446215491
 20
269.0412711679932
 30
0.0
 40
5.0
 41
0.0
 71
     1
 72
     5
  1
\Ftxt.shx,bigfont.shx|c128;1
  7
JL
 73
     1
 44
1.0
  0
MTEXT
  5
7DBB
330
18
100
AcDbEntity
  8
0
100
AcDbMText
 10
116.5939070266884
 20
260.5092290150679
 30
0.0
 40
5.0
 41
0.0
 71
     1
 72
     5
  1
{\Ftxt,bigfont|c128;6}
  7
JL
 73
     1
 44
1.0
1001
ACAD
1000
ACAD_MTEXT_DEFINED_HEIGHT_BEGIN
1070
    46
1040
0.0
1000
ACAD_MTEXT_DEFINED_HEIGHT_END
  0
MTEXT
  5
7DBC
330
18
100
AcDbEntity
  8
0
100
AcDbMText
 10
112.4223895919262
 20
277.5645499482919
 30
0.0
 40
5.0
 41
0.0
 71
     1
 72
     5
  1
\Ftxt.shx,bigfont.shx|c128;数   量
  7
JL
 73
     1
 44
1.0
  0
MTEXT
  5
7DBD
330
18
100
AcDbEntity
  8
0
100
AcDbMText
 10
6.404019699055993
 20
260.7281674434121
 30
0.0
 40
5.0
 41
0.0
 71
     1
 72
     5
  1
{\Ftxt,bigfont|c128;2}
  7
JL
 73
     1
 44
1.0
1001
ACAD
1000
ACAD_MTEXT_DEFINED_HEIGHT_BEGIN
1070
    46
1040
0.0
1000
ACAD_MTEXT_DEFINED_HEIGHT_END
  0
LINE
  5
A471
330
18
100
AcDbEntity
  8
center
 48
0.4
100
AcDbLine
 10
95.0000000000004
 20
230.9999999999999
 30
0.0
 11
95.0
 21
143.0
 31
0.0
  0
LINE
  5
A472
330
18
100
AcDbEntity
  8
center
 48
0.4
100
AcDbLine
 10
51.00000000000022
 20
187.0
 30
0.0
 11
139.0
 21
186.9999999999998
 31
0.0
  0
LINE
  5
A4D0
102
{ACAD_REACTORS
330
AC5A
102
}
330
18
100
AcDbEntity
  8
contour
100
AcDbLine
 10
53.00000000000006
 20
114.2899499467161
 30
0.0
 11
53.0
 21
98.78994994671614
 31
0.0
  0
LINE
  5
A4D1
102
{ACAD_REACTORS
330
AC5A
102
}
330
18
100
AcDbEntity
  8
contour
100
AcDbLine
 10
54.0
 20
89.28994994671615
 30
0.0
 11
136.0
 21
89.28994994671615
 31
0.0
  0
LINE
  5
A4D2
102
{ACAD_REACTORS
330
AC5A
102
}
330
18
100
AcDbEntity
  8
contour
100
AcDbLine
 10
137.0
 20
90.28994994671615
 30
0.0
 11
137.0
 21
94.78994994671614
 31
0.0
  0
LINE
  5
A4D3
102
{ACAD_REACTORS
330
AC5A
102
}
330
18
100
AcDbEntity
  8
contour
100
AcDbLine
 10
136.0
 20
115.2899499467161
 30
0.0
 11
54.00000000000005
 21
115.2899499467161
 31
0.0
  0
LINE
  5
A4D4
102
{ACAD_REACTORS
330
AC5A
102
}
330
18
100
AcDbEntity
  8
contour
100
AcDbLine
 10
54.0
 20
95.78994994671615
 30
0.0
 11
62.25
 21
95.78994994671615
 31
0.0
  0
LINE
  5
A4D5
102
{ACAD_REACTORS
330
AC5A
102
}
330
18
100
AcDbEntity
  8
contour
100
AcDbLine
 10
54.0
 20
97.78994994671615
 30
0.0
 11
62.25
 21
97.78994994671615
 31
0.0
  0
LINE
  5
A4D6
330
18
100
AcDbEntity
  8
center
 48
0.2
100
AcDbLine
 10
95.0
 20
117.2899499467161
 30
0.0
 11
95.0
 21
87.28994994671614
 31
0.0
  0
LINE
  5
A4D8
102
{ACAD_REACTORS
330
AC5A
102
}
330
18
100
AcDbEntity
  8
contour
100
AcDbLine
 10
62.25
 20
95.78994994671617
 30
0.0
 11
62.25
 21
97.78994994671618
 31
0.0
  0
LINE
  5
A4DA
102
{ACAD_REACTORS
330
AC5A
102
}
330
18
100
AcDbEntity
  8
contour
100
AcDbLine
 10
53.0
 20
94.78994994671614
 30
0.0
 11
53.0
 21
90.28994994671615
 31
0.0
  0
LINE
  5
A4DB
102
{ACAD_REACTORS
330
AC5A
102
}
330
18
100
AcDbEntity
  8
contour
100
AcDbLine
 10
137.0
 20
98.78994994671618
 30
0.0
 11
137.0
 21
114.2899499467161
 31
0.0
  0
LINE
  5
A4DE
102
{ACAD_REACTORS
330
AC5A
102
}
330
18
100
AcDbEntity
  8
contour
100
AcDbLine
 10
55.75
 20
98.78994994671614
 30
0.0
 11
128.5
 21
98.78994994671629
 31
0.0
  0
LINE
  5
A4DF
102
{ACAD_REACTORS
330
AC5A
102
}
330
18
100
AcDbEntity
  8
contour
100
AcDbLine
 10
55.75
 20
101.2899499467161
 30
0.0
 11
128.5
 21
101.2899499467161
 31
0.0
  0
LINE
  5
A4E2
102
{ACAD_REACTORS
330
AC5A
102
}
330
18
100
AcDbEntity
  8
contour
100
AcDbLine
 10
55.75
 20
101.2899499467161
 30
0.0
 11
55.75
 21
98.78994994671614
 31
0.0
  0
LINE
  5
A4E3
330
18
100
AcDbEntity
  8
center
 48
0.2
100
AcDbLine
 10
95.0
 20
117.2899499467161
 30
0.0
 11
95.0
 21
87.28994994671614
 31
0.0
  0
LINE
  5
A4E4
102
{ACAD_REACTORS
330
AC5A
102
}
330
18
100
AcDbEntity
  8
contour
100
AcDbLine
 10
134.25
 20
101.2899499467162
 30
0.0
 11
134.25
 21
98.78994994671613
 31
0.0
  0
LINE
  5
A4E9
102
{ACAD_REACTORS
330
AC5A
102
}
330
18
100
AcDbEntity
  8
contour
100
AcDbLine
 10
54.00000000000011
 20
103.2899499467161
 30
0.0
 11
58.26794919243105
 21
103.2899499467161
 31
0.0
  0
LINE
  5
A4EA
102
{ACAD_REACTORS
330
AC5A
102
}
330
18
100
AcDbEntity
  8
contour
100
AcDbLine
 10
60.0
 20
106.2899499467161
 30
0.0
 11
58.26794919243105
 21
109.2899499467161
 31
0.0
  0
LINE
  5
A4EB
102
{ACAD_REACTORS
330
AC5A
102
}
330
18
100
AcDbEntity
  8
contour
100
AcDbLine
 10
58.26794919243105
 20
109.2899499467161
 30
0.0
 11
54.00000000000011
 21
109.2899499467161
 31
0.0
  0
LINE
  5
A4EC
102
{ACAD_REACTORS
330
AC5A
102
}
330
18
100
AcDbEntity
  8
contour
100
AcDbLine
 10
60.0
 20
106.2899499467161
 30
0.0
 11
58.26794919243105
 21
103.2899499467161
 31
0.0
  0
LINE
  5
A4ED
330
18
100
AcDbEntity
  8
contour
100
AcDbLine
 10
58.26794919243105
 20
103.2899499467161
 30
0.0
 11
58.26794919243105
 21
109.2899499467161
 31
0.0
  0
LINE
  5
A4FD
330
18
100
AcDbEntity
  8
center
 48
0.2
100
AcDbLine
 10
62.0
 20
106.2899499467161
 30
0.0
 11
51.0
 21
106.2899499467161
 31
0.0
  0
LINE
  5
A543
102
{ACAD_REACTORS
330
AC5A
102
}
330
18
100
AcDbEntity
  8
contour
100
AcDbLine
 10
133.5000000000001
 20
97.78994994671618
 30
0.0
 11
136.0
 21
97.78994994671618
 31
0.0
  0
LINE
  5
A544
102
{ACAD_REACTORS
330
AC5A
102
}
330
18
100
AcDbEntity
  8
contour
100
AcDbLine
 10
133.5
 20
95.78994994671615
 30
0.0
 11
136.0
 21
95.78994994671615
 31
0.0
  0
ARC
  5
A548
102
{ACAD_REACTORS
330
AC5A
102
}
330
18
100
AcDbEntity
  8
contour
100
AcDbCircle
 10
54.0
 20
90.28994994671615
 30
0.0
 40
1.0
100
AcDbArc
 50
180.0
 51
270.0
  0
ARC
  5
A549
102
{ACAD_REACTORS
330
AC5A
102
}
330
18
100
AcDbEntity
  8
contour
100
AcDbCircle
 10
54.0
 20
94.78994994671614
 30
0.0
 40
1.0
100
AcDbArc
 50
90.0
 51
180.0
  0
ARC
  5
A54A
102
{ACAD_REACTORS
330
AC5A
102
}
330
18
100
AcDbEntity
  8
contour
100
AcDbCircle
 10
54.0
 20
98.78994994671614
 30
0.0
 40
1.0
100
AcDbArc
 50
180.0
 51
270.0
  0
ARC
  5
A54B
102
{ACAD_REACTORS
330
AC5A
102
}
330
18
100
AcDbEntity
  8
contour
100
AcDbCircle
 10
54.00000000000005
 20
114.2899499467161
 30
0.0
 40
1.0
100
AcDbArc
 50
90.0
 51
180.0
  0
ARC
  5
A54C
102
{ACAD_REACTORS
330
AC5A
102
}
330
18
100
AcDbEntity
  8
contour
100
AcDbCircle
 10
136.0
 20
114.2899499467161
 30
0.0
 40
1.0
100
AcDbArc
 50
0.0
 51
90.0
  0
ARC
  5
A54D
102
{ACAD_REACTORS
330
AC5A
102
}
330
18
100
AcDbEntity
  8
contour
100
AcDbCircle
 10
136.0
 20
98.78994994671618
 30
0.0
 40
1.0
100
AcDbArc
 50
270.0
 51
0.0
  0
ARC
  5
A54E
102
{ACAD_REACTORS
330
AC5A
102
}
330
18
100
AcDbEntity
  8
contour
100
AcDbCircle
 10
136.0
 20
94.78994994671614
 30
0.0
 40
1.0
100
AcDbArc
 50
0.0
 51
90.0
  0
ARC
  5
A54F
102
{ACAD_REACTORS
330
AC5A
102
}
330
18
100
AcDbEntity
  8
contour
100
AcDbCircle
 10
136.0
 20
90.28994994671615
 30
0.0
 40
1.0
100
AcDbArc
 50
270.0
 51
0.0
  0
LINE
  5
A550
102
{ACAD_REACTORS
330
AC5A
102
}
330
18
100
AcDbEntity
  8
contour
 62
     4
100
AcDbLine
 10
65.00000000000006
 20
114.6019499467161
 30
0.0
 11
65.00000000000006
 21
101.9779499467162
 31
0.0
  0
LINE
  5
A551
102
{ACAD_REACTORS
330
AC5A
102
}
330
18
100
AcDbEntity
  8
contour
100
AcDbLine
 10
65.81200000000001
 20
113.7899499467161
 30
0.0
 11
65.81200000000001
 21
102.7899499467161
 31
0.0
  0
LINE
  5
A552
102
{ACAD_REACTORS
330
AC5A
102
}
330
18
100
AcDbEntity
  8
contour
100
AcDbLine
 10
64.31200000000001
 20
89.28994994671615
 30
0.0
 11
65.81200000000001
 21
90.78994994671615
 31
0.0
  0
LINE
  5
A553
102
{ACAD_REACTORS
330
AC5A
102
}
330
18
100
AcDbEntity
  8
contour
100
AcDbLine
 10
64.31200000000001
 20
98.78994994671614
 30
0.0
 11
65.81200000000001
 21
97.28994994671616
 31
0.0
  0
LINE
  5
A554
102
{ACAD_REACTORS
330
AC5A
102
}
330
18
100
AcDbEntity
  8
contour
100
AcDbLine
 10
64.31200000000001
 20
101.2899499467161
 30
0.0
 11
65.81200000000001
 21
102.7899499467161
 31
0.0
  0
LINE
  5
A555
102
{ACAD_REACTORS
330
AC5A
102
}
330
18
100
AcDbEntity
  8
contour
100
AcDbLine
 10
64.31200000000001
 20
115.2899499467161
 30
0.0
 11
65.81200000000001
 21
113.7899499467161
 31
0.0
  0
LINE
  5
A559
102
{ACAD_REACTORS
330
AC5A
102
}
330
18
100
AcDbEntity
  8
contour
100
AcDbLine
 10
65.81200000000001
 20
97.28994994671612
 30
0.0
 11
65.81200000000001
 21
90.78994994671615
 31
0.0
  0
LINE
  5
A55A
102
{ACAD_REACTORS
330
AC5A
102
}
330
18
100
AcDbEntity
  8
contour
 62
     4
100
AcDbLine
 10
65.0
 20
98.10194994671613
 30
0.0
 11
65.00000000000006
 21
89.9779499467162
 31
0.0
  0
LINE
  5
A55B
102
{ACAD_REACTORS
330
AC5A
102
}
330
18
100
AcDbEntity
  8
contour
 62
     4
100
AcDbLine
 10
125.0
 20
114.6019499467161
 30
0.0
 11
125.0
 21
101.977949946716
 31
0.0
  0
LINE
  5
A55C
102
{ACAD_REACTORS
330
AC5A
102
}
330
18
100
AcDbEntity
  8
contour
 62
     4
100
AcDbLine
 10
125.0
 20
98.10194994671627
 30
0.0
 11
125.0
 21
89.97794994671625
 31
0.0
  0
LINE
  5
A55D
102
{ACAD_REACTORS
330
AC5A
102
}
330
18
100
AcDbEntity
  8
contour
100
AcDbLine
 10
124.188
 20
113.7899499467162
 30
0.0
 11
124.188
 21
102.789949946716
 31
0.0
  0
LINE
  5
A55E
102
{ACAD_REACTORS
330
AC5A
102
}
330
18
100
AcDbEntity
  8
contour
100
AcDbLine
 10
124.188
 20
97.28994994671632
 30
0.0
 11
124.188
 21
90.78994994671617
 31
0.0
  0
LINE
  5
A55F
102
{ACAD_REACTORS
330
AC5A
102
}
330
18
100
AcDbEntity
  8
contour
100
AcDbLine
 10
125.688
 20
89.28994994671615
 30
0.0
 11
124.188
 21
90.78994994671615
 31
0.0
  0
LINE
  5
A560
102
{ACAD_REACTORS
330
AC5A
102
}
330
18
100
AcDbEntity
  8
contour
100
AcDbLine
 10
125.688
 20
98.78994994671627
 30
0.0
 11
124.188
 21
97.28994994671626
 31
0.0
  0
LINE
  5
A561
102
{ACAD_REACTORS
330
AC5A
102
}
330
18
100
AcDbEntity
  8
contour
100
AcDbLine
 10
125.688
 20
101.2899499467161
 30
0.0
 11
124.188
 21
102.7899499467161
 31
0.0
  0
LINE
  5
A562
102
{ACAD_REACTORS
330
AC5A
102
}
330
18
100
AcDbEntity
  8
contour
100
AcDbLine
 10
125.688
 20
115.2899499467161
 30
0.0
 11
124.188
 21
113.7899499467161
 31
0.0
  0
LINE
  5
A563
330
18
100
AcDbEntity
  8
contour
100
AcDbLine
 10
65.81200000000001
 20
113.7899499467161
 30
0.0
 11
124.188
 21
113.7899499467161
 31
0.0
  0
LINE
  5
A564
330
18
100
AcDbEntity
  8
contour
100
AcDbLine
 10
124.188
 20
102.7899499467161
 30
0.0
 11
65.81200000000001
 21
102.7899499467161
 31
0.0
  0
LINE
  5
A566
330
18
100
AcDbEntity
  8
contour
100
AcDbLine
 10
124.1879999999999
 20
90.78994994671612
 30
0.0
 11
65.81200000000001
 21
90.78994994671621
 31
0.0
  0
LINE
  5
A567
330
18
100
AcDbEntity
  8
0
 62
     7
100
AcDbLine
 10
47.92942413992534
 20
27.65712907016098
 30
0.0
 11
53.04580144287854
 21
28.93622339589928
 31
0.0
  0
LINE
  5
A5FC
330
18
100
AcDbEntity
  8
contour
100
AcDbLine
 10
124.188
 20
97.28994994671632
 30
0.0
 11
65.81200000000001
 21
97.28994994671616
 31
0.0
  0
LINE
  5
A5FF
330
18
100
AcDbEntity
  8
center
 48
0.2
100
AcDbLine
 10
130.9999999999999
 20
117.2899499467161
 30
0.0
 11
131.0
 21
87.28994994671614
 31
0.0
  0
LINE
  5
A606
102
{ACAD_REACTORS
330
AC5A
102
}
330
18
100
AcDbEntity
  8
contour
100
AcDbLine
 10
127.75
 20
95.78994994671617
 30
0.0
 11
127.75
 21
97.78994994671618
 31
0.0
  0
INSERT
  5
A646
102
{ACAD_REACTORS
330
AC5A
102
}
330
18
100
AcDbEntity
  8
contour
100
AcDbBlockReference
  2
LS4
 10
-275.8574768226647
 20
-19.65183217001123
 30
0.0
  0
LINE
  5
A647
102
{ACAD_REACTORS
330
AC5A
102
}
330
18
100
AcDbEntity
  8
contour
100
AcDbLine
 10
127.75
 20
97.78994994671618
 30
0.0
 11
128.5
 21
97.78994994671618
 31
0.0
  0
LINE
  5
A648
102
{ACAD_REACTORS
330
AC5A
102
}
330
18
100
AcDbEntity
  8
contour
100
AcDbLine
 10
127.75
 20
95.78994994671617
 30
0.0
 11
128.5
 21
95.78994994671617
 31
0.0
  0
LINE
  5
A649
102
{ACAD_REACTORS
330
AC5A
102
}
330
18
100
AcDbEntity
  8
contour
100
AcDbLine
 10
134.25
 20
101.2899499467162
 30
0.0
 11
133.5000000000001
 21
101.2899499467162
 31
0.0
  0
LINE
  5
A64A
102
{ACAD_REACTORS
330
AC5A
102
}
330
18
100
AcDbEntity
  8
contour
100
AcDbLine
 10
134.25
 20
98.78994994671613
 30
0.0
 11
133.5000000000001
 21
98.78994994671613
 31
0.0
  0
LINE
  5
A64B
102
{ACAD_REACTORS
330
AC5A
102
}
330
18
100
AcDbEntity
  8
contour
 62
     4
100
AcDbLine
 10
128.5
 20
111.3899499467161
 30
0.0
 11
128.5
 21
115.2899499467161
 31
0.0
  0
LINE
  5
A64C
102
{ACAD_REACTORS
330
AC5A
102
}
330
18
100
AcDbEntity
  8
contour
 62
     4
100
AcDbLine
 10
133.5
 20
111.3899499467161
 30
0.0
 11
133.5
 21
115.2899499467161
 31
0.0
  0
LINE
  5
A64D
102
{ACAD_REACTORS
330
AC5A
102
}
330
18
100
AcDbEntity
  8
contour
100
AcDbLine
 10
133.067
 20
111.8229499467161
 30
0.0
 11
133.067
 21
115.2899499467161
 31
0.0
  0
LINE
  5
A64E
102
{ACAD_REACTORS
330
AC5A
102
}
330
18
100
AcDbEntity
  8
contour
100
AcDbLine
 10
128.9330000000001
 20
111.8229499467161
 30
0.0
 11
128.933
 21
115.2899499467161
 31
0.0
  0
LINE
  5
A64F
102
{ACAD_REACTORS
330
AC5A
102
}
330
18
100
AcDbEntity
  8
contour
100
AcDbLine
 10
126.75
 20
89.58994994671613
 30
0.0
 11
126.75
 21
89.28994994671612
 31
0.0
  0
LINE
  5
A650
102
{ACAD_REACTORS
330
AC5A
102
}
330
18
100
AcDbEntity
  8
contour
100
AcDbLine
 10
135.25
 20
89.58994994671613
 30
0.0
 11
135.25
 21
89.28994994671612
 31
0.0
  0
CIRCLE
  5
A655
330
18
100
AcDbEntity
  8
contour
100
AcDbCircle
 10
95.00000000000005
 20
186.9999999999999
 30
0.0
 40
41.99999999999988
  0
CIRCLE
  5
A65B
330
18
100
AcDbEntity
  8
contour
100
AcDbCircle
 10
130.9999999999999
 20
186.9999999999998
 30
0.0
 40
2.066999999999666
  0
ARC
  5
A65C
330
18
100
AcDbEntity
  8
contour
 62
     4
100
AcDbCircle
 10
130.9999999999999
 20
186.9999999999998
 30
0.0
 40
2.499999999999715
100
AcDbArc
 50
168.4630409671834
 51
101.5369590328165
  0
CIRCLE
  5
A65D
330
18
100
AcDbEntity
  8
bowle
 48
0.2
100
AcDbCircle
 10
130.9999999999999
 20
186.9999999999998
 30
0.0
 40
4.249999999999772
  0
CIRCLE
  5
A660
330
18
100
AcDbEntity
  8
center
 48
0.4
100
AcDbCircle
 10
95.00000000000005
 20
186.9999999999999
 30
0.0
 40
35.99999999999983
  0
LINE
  5
A661
330
18
100
AcDbEntity
  8
center
 48
0.2
100
AcDbLine
 10
71.45450132190865
 20
200.594
 30
0.0
 11
56.8948822334849
 21
208.9999999999998
 31
0.0
  0
CIRCLE
  5
A665
330
18
100
AcDbEntity
  8
bowle
 48
0.2
100
AcDbCircle
 10
62.74055370902971
 20
205.625
 30
0.0
 40
2.649999999999806
  0
CIRCLE
  5
A666
330
18
100
AcDbEntity
  8
bowle
 48
0.2
100
AcDbCircle
 10
62.74055370902971
 20
205.625
 30
0.0
 40
3.149999999999806
  0
LINE
  5
A667
330
18
100
AcDbEntity
  8
bowle
 48
0.2
100
AcDbLine
 10
57.99295844483811
 20
204.9019237886466
 30
0.0
 11
56.86540771681172
 21
204.5997974816468
 31
0.0
  0
LINE
  5
A668
330
18
100
AcDbEntity
  8
bowle
 48
0.2
100
AcDbLine
 10
57.99295844483811
 20
204.9019237886466
 30
0.0
 11
61.6891108675448
 21
202.767949192431
 31
0.0
  0
LINE
  5
A669
330
18
100
AcDbEntity
  8
bowle
 48
0.2
100
AcDbLine
 10
64.68911086754485
 20
204.4999999999999
 30
0.0
 11
64.6891108675448
 21
207.9641016151376
 31
0.0
  0
LINE
  5
A66A
330
18
100
AcDbEntity
  8
bowle
 48
0.2
100
AcDbLine
 10
64.6891108675448
 20
207.9641016151376
 30
0.0
 11
60.99295844483816
 21
210.0980762113532
 31
0.0
  0
LINE
  5
A66B
330
18
100
AcDbEntity
  8
bowle
 48
0.2
100
AcDbLine
 10
64.68911086754485
 20
204.4999999999999
 30
0.0
 11
61.6891108675448
 21
202.767949192431
 31
0.0
  0
LINE
  5
A66C
330
18
100
AcDbEntity
  8
bowle
 48
0.2
100
AcDbLine
 10
61.6891108675448
 20
202.767949192431
 30
0.0
 11
64.6891108675448
 21
207.9641016151376
 31
0.0
  0
LINE
  5
A66D
330
18
100
AcDbEntity
  8
bowle
 48
0.2
100
AcDbLine
 10
60.99295844483811
 20
210.0980762113532
 30
0.0
 11
60.6908321378383
 21
211.2256269393796
 31
0.0
  0
LINE
  5
A66E
330
18
100
AcDbEntity
  8
bowle
 48
0.2
100
AcDbLine
 10
60.99295844483811
 20
210.0980762113532
 30
0.0
 11
57.99295844483816
 21
204.9019237886466
 31
0.0
  0
CIRCLE
  5
A672
330
18
100
AcDbEntity
  8
contour
100
AcDbCircle
 10
95.00000000000017
 20
186.9999999999998
 30
0.0
 40
29.18800000000022
  0
ARC
  5
A673
330
18
100
AcDbEntity
  8
contour
 62
     4
100
AcDbCircle
 10
95.00000000000017
 20
186.9999999999998
 30
0.0
 40
30.00000000000011
100
AcDbArc
 50
170.4059317731384
 51
99.59406822686158
  0
CIRCLE
  5
A674
330
18
100
AcDbEntity
  8
contour
100
AcDbCircle
 10
95.00000000000017
 20
186.9999999999998
 30
0.0
 40
30.68800000000016
  0
CIRCLE
  5
A677
330
18
100
AcDbEntity
  8
contour
100
AcDbCircle
 10
113.0000000000001
 20
218.1769145362394
 30
0.0
 40
2.066999999999666
  0
CIRCLE
  5
A679
330
18
100
AcDbEntity
  8
bowle
 48
0.2
100
AcDbCircle
 10
113.0000000000001
 20
218.1769145362394
 30
0.0
 40
4.249999999999772
  0
CIRCLE
  5
A67A
330
18
100
AcDbEntity
  8
contour
100
AcDbCircle
 10
77.0000000000004
 20
218.1769145362395
 30
0.0
 40
2.066999999999665
  0
CIRCLE
  5
A67C
330
18
100
AcDbEntity
  8
bowle
 48
0.2
100
AcDbCircle
 10
77.0000000000004
 20
218.1769145362395
 30
0.0
 40
4.249999999999771
  0
CIRCLE
  5
A67D
330
18
100
AcDbEntity
  8
contour
100
AcDbCircle
 10
59.00000000000045
 20
187.0
 30
0.0
 40
2.066999999999666
  0
CIRCLE
  5
A67F
330
18
100
AcDbEntity
  8
bowle
 48
0.2
100
AcDbCircle
 10
59.00000000000045
 20
187.0
 30
0.0
 40
4.249999999999772
  0
CIRCLE
  5
A680
330
18
100
AcDbEntity
  8
contour
100
AcDbCircle
 10
77.00000000000017
 20
155.8230854637603
 30
0.0
 40
2.066999999999666
  0
CIRCLE
  5
A682
330
18
100
AcDbEntity
  8
bowle
 48
0.2
100
AcDbCircle
 10
77.00000000000017
 20
155.8230854637603
 30
0.0
 40
4.249999999999772
  0
CIRCLE
  5
A683
330
18
100
AcDbEntity
  8
contour
100
AcDbCircle
 10
112.9999999999999
 20
155.8230854637603
 30
0.0
 40
2.066999999999666
  0
CIRCLE
  5
A685
330
18
100
AcDbEntity
  8
bowle
 48
0.2
100
AcDbCircle
 10
112.9999999999999
 20
155.8230854637603
 30
0.0
 40
4.249999999999772
  0
LINE
  5
A6BD
330
18
100
AcDbEntity
  8
center
 48
0.2
100
AcDbLine
 10
81.40600000000011
 20
210.5454986780915
 30
0.0
 11
73.00000000000029
 21
225.1051177665151
 31
0.0
  0
LINE
  5
A6BF
330
18
100
AcDbEntity
  8
center
 48
0.2
100
AcDbLine
 10
108.5940000000002
 20
210.5454986780914
 30
0.0
 11
117.0
 21
225.1051177665151
 31
0.0
  0
LINE
  5
A6C0
330
18
100
AcDbEntity
  8
center
 48
0.2
100
AcDbLine
 10
81.40600000000011
 20
163.4545013219084
 30
0.0
 11
73.00000000000017
 21
148.8948822334844
 31
0.0
  0
LINE
  5
A6C1
330
18
100
AcDbEntity
  8
center
 48
0.2
100
AcDbLine
 10
108.5940000000001
 20
163.4545013219083
 30
0.0
 11
116.9999999999999
 21
148.8948822334844
 31
0.0
  0
ARC
  5
A6C6
330
18
100
AcDbEntity
  8
contour
 62
     4
100
AcDbCircle
 10
112.9999999999999
 20
155.8230854637602
 30
0.0
 40
2.499999999999715
100
AcDbArc
 50
168.4630409671834
 51
101.5369590328165
  0
ARC
  5
A6C7
330
18
100
AcDbEntity
  8
contour
 62
     4
100
AcDbCircle
 10
77.00000000000028
 20
155.8230854637602
 30
0.0
 40
2.499999999999715
100
AcDbArc
 50
168.4630409671834
 51
101.5369590328165
  0
ARC
  5
A6C8
330
18
100
AcDbEntity
  8
contour
 62
     4
100
AcDbCircle
 10
59.00000000000051
 20
187.0000000000001
 30
0.0
 40
2.499999999999715
100
AcDbArc
 50
168.4630409671834
 51
101.5369590328165
  0
ARC
  5
A6C9
330
18
100
AcDbEntity
  8
contour
 62
     4
100
AcDbCircle
 10
77.0000000000004
 20
218.1769145362397
 30
0.0
 40
2.499999999999715
100
AcDbArc
 50
168.4630409671834
 51
101.5369590328165
  0
ARC
  5
A6CA
330
18
100
AcDbEntity
  8
contour
 62
     4
100
AcDbCircle
 10
113.0000000000001
 20
218.1769145362395
 30
0.0
 40
2.499999999999715
100
AcDbArc
 50
168.4630409671834
 51
101.5369590328165
  0
LINE
  5
A6D7
102
{ACAD_REACTORS
330
AC5A
102
}
330
18
100
AcDbEntity
  8
contour
100
AcDbLine
 10
60.39999999999998
 20
89.78994994671607
 30
0.0
 11
60.89999999999998
 21
89.28994994671606
 31
0.0
  0
LINE
  5
A6D8
102
{ACAD_REACTORS
330
AC5A
102
}
330
18
100
AcDbEntity
  8
contour
100
AcDbLine
 10
60.39999999999986
 20
92.75997173336367
 30
0.0
 11
57.75
 21
94.28994994671612
 31
0.0
  0
LINE
  5
A6D9
102
{ACAD_REACTORS
330
AC5A
102
}
330
18
100
AcDbEntity
  8
center
 48
0.2
100
AcDbLine
 10
57.75
 20
87.28994994671612
 30
0.0
 11
57.75
 21
96.28994994671613
 31
0.0
  0
LINE
  5
A6DA
102
{ACAD_REACTORS
330
AC5A
102
}
330
18
100
AcDbEntity
  8
contour
100
AcDbLine
 10
55.10000000000002
 20
92.75997173336355
 30
0.0
 11
55.10000000000002
 21
89.78994994671618
 31
0.0
  0
LINE
  5
A6DB
102
{ACAD_REACTORS
330
AC5A
102
}
330
18
100
AcDbEntity
  8
contour
100
AcDbLine
 10
54.60000000000002
 20
89.28994994671617
 30
0.0
 11
55.10000000000002
 21
89.78994994671618
 31
0.0
  0
LINE
  5
A6DC
102
{ACAD_REACTORS
330
AC5A
102
}
330
18
100
AcDbEntity
  8
contour
100
AcDbLine
 10
60.39999999999986
 20
92.75997173336367
 30
0.0
 11
60.39999999999998
 21
89.78994994671618
 31
0.0
  0
LINE
  5
A6DD
102
{ACAD_REACTORS
330
AC5A
102
}
330
18
100
AcDbEntity
  8
contour
100
AcDbLine
 10
55.10000000000002
 20
92.75997173336355
 30
0.0
 11
57.75
 21
94.28994994671612
 31
0.0
  0
LINE
  5
A6DE
330
18
100
AcDbEntity
  8
contour
100
AcDbLine
 10
55.10000000000002
 20
92.75997173336355
 30
0.0
 11
60.39999999999986
 21
92.75997173336358
 31
0.0
  0
LINE
  5
A6DF
330
18
100
AcDbEntity
  8
contour
100
AcDbLine
 10
55.10000000000002
 20
89.78994994671618
 30
0.0
 11
60.39999999999998
 21
89.78994994671626
 31
0.0
  0
LINE
  5
A6F9
102
{ACAD_REACTORS
330
AC5A
102
}
330
18
100
AcDbEntity
  8
contour
100
AcDbLine
 10
54.00000000000005
 20
109.2899499467161
 30
0.0
 11
53.00000000000006
 21
110.2899499467161
 31
0.0
  0
LINE
  5
A6FA
102
{ACAD_REACTORS
330
AC5A
102
}
330
18
100
AcDbEntity
  8
contour
100
AcDbLine
 10
54.0
 20
103.2899499467161
 30
0.0
 11
53.0
 21
102.2899499467161
 31
0.0
  0
LINE
  5
A6FB
330
18
100
AcDbEntity
  8
contour
100
AcDbLine
 10
54.00000000000005
 20
109.2899499467161
 30
0.0
 11
54.00000000000005
 21
103.2899499467161
 31
0.0
  0
LINE
  5
A6FC
330
18
100
AcDbEntity
  8
center
 48
0.2
100
AcDbLine
 10
71.4545013219087
 20
173.4059999999997
 30
0.0
 11
56.8948822334849
 21
164.9999999999999
 31
0.0
  0
CIRCLE
  5
A6FD
330
18
100
AcDbEntity
  8
bowle
 48
0.2
100
AcDbCircle
 10
62.74055370902971
 20
168.3749999999999
 30
0.0
 40
2.649999999999806
  0
CIRCLE
  5
A6FE
330
18
100
AcDbEntity
  8
bowle
 48
0.2
100
AcDbCircle
 10
62.74055370902971
 20
168.3749999999999
 30
0.0
 40
3.149999999999806
  0
LINE
  5
A6FF
330
18
100
AcDbEntity
  8
bowle
 48
0.2
100
AcDbLine
 10
60.99295844483816
 20
163.9019237886465
 30
0.0
 11
60.69083213783841
 21
162.7743730606201
 31
0.0
  0
LINE
  5
A700
330
18
100
AcDbEntity
  8
bowle
 48
0.2
100
AcDbLine
 10
60.99295844483816
 20
163.9019237886465
 30
0.0
 11
64.6891108675448
 21
166.0358983848622
 31
0.0
  0
LINE
  5
A701
330
18
100
AcDbEntity
  8
bowle
 48
0.2
100
AcDbLine
 10
64.68911086754485
 20
169.4999999999999
 30
0.0
 11
61.68911086754485
 21
171.2320508075687
 31
0.0
  0
LINE
  5
A702
330
18
100
AcDbEntity
  8
bowle
 48
0.2
100
AcDbLine
 10
61.68911086754485
 20
171.2320508075687
 30
0.0
 11
57.99295844483816
 21
169.0980762113531
 31
0.0
  0
LINE
  5
A703
330
18
100
AcDbEntity
  8
bowle
 48
0.2
100
AcDbLine
 10
64.68911086754485
 20
169.4999999999999
 30
0.0
 11
64.6891108675448
 21
166.0358983848622
 31
0.0
  0
LINE
  5
A704
330
18
100
AcDbEntity
  8
bowle
 48
0.2
100
AcDbLine
 10
64.6891108675448
 20
166.0358983848622
 30
0.0
 11
61.68911086754485
 21
171.2320508075687
 31
0.0
  0
LINE
  5
A705
330
18
100
AcDbEntity
  8
bowle
 48
0.2
100
AcDbLine
 10
57.99295844483816
 20
169.0980762113531
 30
0.0
 11
56.86540771681183
 21
169.4002025183529
 31
0.0
  0
LINE
  5
A706
330
18
100
AcDbEntity
  8
bowle
 48
0.2
100
AcDbLine
 10
57.99295844483816
 20
169.0980762113531
 30
0.0
 11
60.99295844483816
 21
163.9019237886465
 31
0.0
  0
CIRCLE
  5
A708
330
18
100
AcDbEntity
  8
bowle
 48
0.2
100
AcDbCircle
 10
95.00000000000017
 20
149.7499999999998
 30
0.0
 40
2.649999999999806
  0
CIRCLE
  5
A709
330
18
100
AcDbEntity
  8
bowle
 48
0.2
100
AcDbCircle
 10
95.00000000000017
 20
149.7499999999998
 30
0.0
 40
3.149999999999806
  0
LINE
  5
A70A
330
18
100
AcDbEntity
  8
bowle
 48
0.2
100
AcDbLine
 10
98.00000000000023
 20
145.9999999999999
 30
0.0
 11
98.82542442102682
 21
145.1745755789733
 31
0.0
  0
LINE
  5
A70B
330
18
100
AcDbEntity
  8
bowle
 48
0.2
100
AcDbLine
 10
98.00000000000023
 20
145.9999999999999
 30
0.0
 11
98.00000000000018
 21
150.267949192431
 31
0.0
  0
LINE
  5
A70C
330
18
100
AcDbEntity
  8
bowle
 48
0.2
100
AcDbLine
 10
95.00000000000017
 20
152.0
 30
0.0
 11
92.00000000000017
 21
150.267949192431
 31
0.0
  0
LINE
  5
A70D
330
18
100
AcDbEntity
  8
bowle
 48
0.2
100
AcDbLine
 10
92.00000000000017
 20
150.267949192431
 30
0.0
 11
92.00000000000017
 21
145.9999999999999
 31
0.0
  0
LINE
  5
A70E
330
18
100
AcDbEntity
  8
bowle
 48
0.2
100
AcDbLine
 10
95.00000000000017
 20
152.0
 30
0.0
 11
98.00000000000018
 21
150.267949192431
 31
0.0
  0
LINE
  5
A70F
330
18
100
AcDbEntity
  8
bowle
 48
0.2
100
AcDbLine
 10
98.00000000000018
 20
150.267949192431
 30
0.0
 11
92.00000000000017
 21
150.267949192431
 31
0.0
  0
LINE
  5
A710
330
18
100
AcDbEntity
  8
bowle
 48
0.2
100
AcDbLine
 10
92.00000000000022
 20
145.9999999999999
 30
0.0
 11
91.17457557897358
 21
145.1745755789733
 31
0.0
  0
LINE
  5
A711
330
18
100
AcDbEntity
  8
bowle
 48
0.2
100
AcDbLine
 10
92.00000000000022
 20
145.9999999999999
 30
0.0
 11
98.00000000000018
 21
145.9999999999999
 31
0.0
  0
LINE
  5
A712
330
18
100
AcDbEntity
  8
center
 48
0.2
100
AcDbLine
 10
118.5454986780918
 20
173.4059999999998
 30
0.0
 11
133.1051177665155
 21
164.9999999999999
 31
0.0
  0
CIRCLE
  5
A713
330
18
100
AcDbEntity
  8
bowle
 48
0.2
100
AcDbCircle
 10
127.2594462909707
 20
168.3749999999998
 30
0.0
 40
2.649999999999806
  0
CIRCLE
  5
A714
330
18
100
AcDbEntity
  8
bowle
 48
0.2
100
AcDbCircle
 10
127.2594462909707
 20
168.3749999999998
 30
0.0
 40
3.149999999999806
  0
LINE
  5
A715
330
18
100
AcDbEntity
  8
bowle
 48
0.2
100
AcDbLine
 10
132.0070415551623
 20
169.0980762113533
 30
0.0
 11
133.1345922831887
 21
169.4002025183531
 31
0.0
  0
LINE
  5
A716
330
18
100
AcDbEntity
  8
bowle
 48
0.2
100
AcDbLine
 10
132.0070415551623
 20
169.0980762113533
 30
0.0
 11
128.3108891324556
 21
171.2320508075688
 31
0.0
  0
LINE
  5
A717
330
18
100
AcDbEntity
  8
bowle
 48
0.2
100
AcDbLine
 10
125.3108891324556
 20
169.5
 30
0.0
 11
125.3108891324556
 21
166.0358983848622
 31
0.0
  0
LINE
  5
A718
330
18
100
AcDbEntity
  8
bowle
 48
0.2
100
AcDbLine
 10
125.3108891324556
 20
166.0358983848622
 30
0.0
 11
129.0070415551623
 21
163.9019237886466
 31
0.0
  0
LINE
  5
A719
330
18
100
AcDbEntity
  8
bowle
 48
0.2
100
AcDbLine
 10
125.3108891324556
 20
169.5
 30
0.0
 11
128.3108891324556
 21
171.2320508075688
 31
0.0
  0
LINE
  5
A71A
330
18
100
AcDbEntity
  8
bowle
 48
0.2
100
AcDbLine
 10
128.3108891324556
 20
171.2320508075688
 30
0.0
 11
125.3108891324556
 21
166.0358983848622
 31
0.0
  0
LINE
  5
A71B
330
18
100
AcDbEntity
  8
bowle
 48
0.2
100
AcDbLine
 10
129.0070415551623
 20
163.9019237886467
 30
0.0
 11
129.3091678621621
 21
162.7743730606203
 31
0.0
  0
LINE
  5
A71C
330
18
100
AcDbEntity
  8
bowle
 48
0.2
100
AcDbLine
 10
129.0070415551623
 20
163.9019237886467
 30
0.0
 11
132.0070415551623
 21
169.0980762113533
 31
0.0
  0
LINE
  5
A71D
330
18
100
AcDbEntity
  8
center
 48
0.2
100
AcDbLine
 10
118.5454986780917
 20
200.5940000000001
 30
0.0
 11
133.1051177665154
 21
208.9999999999999
 31
0.0
  0
CIRCLE
  5
A71E
330
18
100
AcDbEntity
  8
bowle
 48
0.2
100
AcDbCircle
 10
127.2594462909707
 20
205.625
 30
0.0
 40
2.649999999999806
  0
CIRCLE
  5
A71F
330
18
100
AcDbEntity
  8
bowle
 48
0.2
100
AcDbCircle
 10
127.2594462909707
 20
205.625
 30
0.0
 40
3.149999999999806
  0
LINE
  5
A720
330
18
100
AcDbEntity
  8
bowle
 48
0.2
100
AcDbLine
 10
129.0070415551622
 20
210.0980762113533
 30
0.0
 11
129.3091678621619
 21
211.2256269393797
 31
0.0
  0
LINE
  5
A721
330
18
100
AcDbEntity
  8
bowle
 48
0.2
100
AcDbLine
 10
129.0070415551622
 20
210.0980762113533
 30
0.0
 11
125.3108891324555
 21
207.9641016151377
 31
0.0
  0
LINE
  5
A722
330
18
100
AcDbEntity
  8
bowle
 48
0.2
100
AcDbLine
 10
125.3108891324555
 20
204.4999999999999
 30
0.0
 11
128.3108891324555
 21
202.7679491924311
 31
0.0
  0
LINE
  5
A723
330
18
100
AcDbEntity
  8
bowle
 48
0.2
100
AcDbLine
 10
128.3108891324555
 20
202.7679491924311
 30
0.0
 11
132.0070415551622
 21
204.9019237886466
 31
0.0
  0
LINE
  5
A724
330
18
100
AcDbEntity
  8
bowle
 48
0.2
100
AcDbLine
 10
125.3108891324555
 20
204.4999999999999
 30
0.0
 11
125.3108891324555
 21
207.9641016151377
 31
0.0
  0
LINE
  5
A725
330
18
100
AcDbEntity
  8
bowle
 48
0.2
100
AcDbLine
 10
125.3108891324555
 20
207.9641016151377
 30
0.0
 11
128.3108891324555
 21
202.7679491924311
 31
0.0
  0
LINE
  5
A726
330
18
100
AcDbEntity
  8
bowle
 48
0.2
100
AcDbLine
 10
132.0070415551622
 20
204.9019237886466
 30
0.0
 11
133.1345922831886
 21
204.5997974816469
 31
0.0
  0
LINE
  5
A727
330
18
100
AcDbEntity
  8
bowle
 48
0.2
100
AcDbLine
 10
132.0070415551622
 20
204.9019237886466
 30
0.0
 11
129.0070415551622
 21
210.0980762113533
 31
0.0
  0
CIRCLE
  5
A729
330
18
100
AcDbEntity
  8
bowle
 48
0.2
100
AcDbCircle
 10
95.00000000000028
 20
224.2500000000001
 30
0.0
 40
2.649999999999806
  0
CIRCLE
  5
A72A
330
18
100
AcDbEntity
  8
bowle
 48
0.2
100
AcDbCircle
 10
95.00000000000028
 20
224.2500000000001
 30
0.0
 40
3.149999999999806
  0
LINE
  5
A72B
330
18
100
AcDbEntity
  8
bowle
 48
0.2
100
AcDbLine
 10
92.00000000000017
 20
228.0
 30
0.0
 11
91.17457557897358
 21
228.8254244210266
 31
0.0
  0
LINE
  5
A72C
330
18
100
AcDbEntity
  8
bowle
 48
0.2
100
AcDbLine
 10
92.00000000000017
 20
228.0
 30
0.0
 11
92.00000000000029
 21
223.7320508075689
 31
0.0
  0
LINE
  5
A72D
330
18
100
AcDbEntity
  8
bowle
 48
0.2
100
AcDbLine
 10
95.00000000000028
 20
221.9999999999999
 30
0.0
 11
98.00000000000018
 21
223.7320508075689
 31
0.0
  0
LINE
  5
A72E
330
18
100
AcDbEntity
  8
bowle
 48
0.2
100
AcDbLine
 10
98.00000000000018
 20
223.7320508075689
 30
0.0
 11
98.00000000000029
 21
228.0
 31
0.0
  0
LINE
  5
A72F
330
18
100
AcDbEntity
  8
bowle
 48
0.2
100
AcDbLine
 10
95.00000000000028
 20
221.9999999999999
 30
0.0
 11
92.00000000000029
 21
223.7320508075689
 31
0.0
  0
LINE
  5
A730
330
18
100
AcDbEntity
  8
bowle
 48
0.2
100
AcDbLine
 10
92.00000000000029
 20
223.7320508075689
 30
0.0
 11
98.00000000000018
 21
223.7320508075689
 31
0.0
  0
LINE
  5
A731
330
18
100
AcDbEntity
  8
bowle
 48
0.2
100
AcDbLine
 10
98.00000000000011
 20
228.0
 30
0.0
 11
98.82542442102675
 21
228.8254244210266
 31
0.0
  0
LINE
  5
A732
330
18
100
AcDbEntity
  8
bowle
 48
0.2
100
AcDbLine
 10
98.00000000000011
 20
228.0
 30
0.0
 11
92.00000000000029
 21
228.0
 31
0.0
  0
MTEXT
  5
A9BA
330
18
100
AcDbEntity
  8
mark
 62
     3
100
AcDbMText
 10
117.0546603431268
 20
84.70791945377749
 30
0.0
 40
2.5
 41
0.0
 71
     5
 72
     1
  1
C1.5
 11
0.7071067811865478
 21
0.7071067811865474
 31
0.0
 73
     1
 44
1.0
1001
ACAD
1000
ACAD_MTEXT_DEFINED_HEIGHT_BEGIN
1070
    46
1040
0.0
1000
ACAD_MTEXT_DEFINED_HEIGHT_END
  0
LEADER
  5
A9BB
330
18
100
AcDbEntity
  8
mark
100
AcDbLeader
  3
STANDARD
 76
     2
 10
124.938
 20
90.03994994671614
 30
0.0
 10
115.8676602328052
 20
80.96961017952123
 30
0.0
211
0.0000000000000095
221
-1.0
231
0.0
1001
ACAD
1000
DSTYLE
1002
{
1070
   147
1040
0.8
1070
    77
1070
     0
1002
}
  0
LEADER
  5
A9BC
330
18
100
AcDbEntity
  8
mark
100
AcDbLeader
  3
STANDARD
 76
     3
 10
53.0
 20
106.2899499467161
 30
0.0
 10
43.10000000000002
 20
96.38994994671618
 30
0.0
 10
24.42008232378862
 20
96.38994994671618
 30
0.0
1001
ACAD
1000
DSTYLE
1002
{
1070
   147
1040
0.4
1070
    77
1070
     0
1002
}
  0
TEXT
  5
A9BD
330
18
100
AcDbEntity
  8
dim
100
AcDbText
 10
24.54873662878845
 20
97.47441195960011
 30
0.0
 40
2.5
  1
6-%%C6深さ7
  7
TXT
100
AcDbText
  0
LEADER
  5
A9BE
330
18
100
AcDbEntity
  8
mark
100
AcDbLeader
  3
STANDARD
 76
     3
 10
57.86199999999997
 20
89.28994994671612
 30
0.0
 10
45.96199999999998
 20
77.38994994671614
 30
0.0
 10
24.14791579395615
 20
77.38994994671614
 30
0.0
1001
ACAD
1000
DSTYLE
1002
{
1070
   147
1040
0.4
1070
    77
1070
     0
1002
}
  0
TEXT
  5
A9BF
330
18
100
AcDbEntity
  8
dim
100
AcDbText
 10
24.42629048061292
 20
78.54602990533615
 30
0.0
 40
2.5
  1
6-%%C5.3深さ5
  7
TXT
100
AcDbText
  0
TOLERANCE
  5
A9C0
330
18
100
AcDbEntity
  8
mark
100
AcDbFcf
  3
STANDARD
 10
154.5947725448218
 20
120.2899499467161
 30
0.0
  1
{\Fgdt;h}%%v0.005%%v%%vA%%v%%v
  0
LINE
  5
A9C1
330
18
100
AcDbEntity
  8
mark
100
AcDbLine
 10
149.5947725448218
 20
115.2899499467161
 30
0.0
 11
149.5947725448218
 21
120.2899499467161
 31
0.0
  0
LINE
  5
A9C2
330
18
100
AcDbEntity
  8
mark
100
AcDbLine
 10
149.5947725448218
 20
120.2899499467161
 30
0.0
 11
154.5947725448218
 21
120.2899499467161
 31
0.0
  0
TOLERANCE
  5
A9C3
330
18
100
AcDbEntity
  8
mark
100
AcDbFcf
  3
STANDARD
 10
75.00000000000006
 20
64.35777217428458
 30
0.0
  1
%%v%%v%%vA%%v%%v
  0
HATCH
  5
A9C4
330
18
100
AcDbEntity
  8
mark
100
AcDbHatch
 10
0.0
 20
0.0
 30
0.0
210
0.0
220
0.0
230
1.0
  2
SOLID
 70
     1
 71
     1
 91
        1
 92
        7
 72
     0
 73
     1
 93
        4
 10
65.00000000000006
 20
66.85777217428458
 10
65.00000000000006
 20
64.35777217428458
 10
65.00000000000006
 20
61.85777217428459
 10
67.50000000000004
 20
64.35777217428458
 97
        4
330
A9C5
330
A9C9
330
A9C8
330
A9C7
 75
     0
 76
     1
 47
0.0383085416812868
 98
        1
 10
66.58732744460024
 20
64.56163180749249
450
        0
451
        0
460
0.0
461
0.0
452
        1
462
1.0
453
        2
463
0.0
 63
     5
421
      255
463
1.0
 63
     7
421
 16777215
470
LINEAR
1001
ACAD
1010
0.0
1020
0.0
1030
0.0
  0
LINE
  5
A9C5
102
{ACAD_REACTORS
330
A9C4
102
}
330
18
100
AcDbEntity
  8
mark
100
AcDbLine
 10
65.00000000000006
 20
74.35777217428458
 30
0.0
 11
65.00000000000006
 21
64.35777217428458
 31
0.0
  0
LINE
  5
A9C6
330
18
100
AcDbEntity
  8
mark
100
AcDbLine
 10
67.50000000000006
 20
64.35777217428458
 30
0.0
 11
75.00000000000006
 21
64.35777217428458
 31
0.0
  0
LINE
  5
A9C7
102
{ACAD_REACTORS
330
A9C4
102
}
330
18
100
AcDbEntity
  8
mark
100
AcDbLine
 10
65.00000000000006
 20
66.85777217428458
 30
0.0
 11
67.50000000000006
 21
64.35777217428458
 31
0.0
  0
LINE
  5
A9C8
102
{ACAD_REACTORS
330
A9C4
102
}
330
18
100
AcDbEntity
  8
mark
100
AcDbLine
 10
67.50000000000006
 20
64.35777217428458
 30
0.0
 11
65.00000000000006
 21
61.85777217428458
 31
0.0
  0
LINE
  5
A9C9
102
{ACAD_REACTORS
330
A9C4
102
}
330
18
100
AcDbEntity
  8
mark
100
AcDbLine
 10
65.00000000000006
 20
61.85777217428458
 30
0.0
 11
65.00000000000006
 21
64.35777217428458
 31
0.0
  0
DIMENSION
  5
AA7D
330
18
100
AcDbEntity
  8
mark
100
AcDbDimension
  2
*D7
 10
60.16180843088385
 20
177.9280427583924
 30
0.0
 11
146.129357779175
 21
200.3142200175142
 31
0.0
 70
   163
  1
P.C.D 72
 71
     5
 42
71.99999999999969
  3
STANDARD
100
AcDbDiametricDimension
 15
129.8381915691161
 25
196.0719572416073
 35
0.0
 40
0.0
1001
ACAD
1000
DSTYLE
1002
{
1070
   288
1070
     1
1002
}
  0
ARC
  5
AA8A
330
18
100
AcDbEntity
  8
center
 48
0.3
100
AcDbCircle
 10
95.0
 20
186.9999999999998
 30
0.0
 40
37.25000000000004
100
AcDbArc
 50
137.7484456968994
 51
169.4412495789489
  0
ARC
  5
AA8C
330
18
100
AcDbEntity
  8
center
 48
0.3
100
AcDbCircle
 10
95.0
 20
186.9999999999998
 30
0.0
 40
37.25000000000004
100
AcDbArc
 50
197.7484456969
 51
222.2515543031005
  0
ARC
  5
AA8D
330
18
100
AcDbEntity
  8
center
 48
0.3
100
AcDbCircle
 10
95.0
 20
186.9999999999998
 30
0.0
 40
37.25000000000004
100
AcDbArc
 50
257.7484456969016
 51
282.2515543030984
  0
ARC
  5
AA8E
330
18
100
AcDbEntity
  8
center
 48
0.3
100
AcDbCircle
 10
94.99999999999994
 20
186.9999999999998
 30
0.0
 40
37.25000000000004
100
AcDbArc
 50
317.748445696904
 51
349.4412495789489
  0
ARC
  5
AA8F
330
18
100
AcDbEntity
  8
center
 48
0.3
100
AcDbCircle
 10
95.0
 20
186.9999999999999
 30
0.0
 40
37.25000000000004
100
AcDbArc
 50
17.74844569690237
 51
42.25155430309656
  0
ARC
  5
AA90
330
18
100
AcDbEntity
  8
center
 48
0.3
100
AcDbCircle
 10
95.0
 20
186.9999999999998
 30
0.0
 40
37.25000000000004
100
AcDbArc
 50
77.74844569689995
 51
102.2515543031
  0
DIMENSION
  5
AA91
330
18
100
AcDbEntity
  8
mark
100
AcDbDimension
  2
*D8
 10
131.0573852963031
 20
177.6497344639871
 30
0.0
 11
41.33626949342079
 21
200.9158767549623
 31
0.0
 70
   163
  1
P.C.D 74.5
 71
     5
 42
74.50000000000011
  3
STANDARD
100
AcDbDiametricDimension
 15
58.9426147036969
 25
196.3502655360127
 35
0.0
 40
0.0
1001
ACAD
1000
DSTYLE
1002
{
1070
   288
1070
     1
1002
}
  0
DIMENSION
  5
AAAD
330
18
100
AcDbEntity
  8
mark
100
AcDbDimension
  2
*D9
 10
47.2201158137907
 20
106.2899499467161
 30
0.0
 11
45.17011581379068
 21
110.7899499467161
 31
0.0
 70
    32
 71
     5
 42
9.0
  3
STANDARD
100
AcDbAlignedDimension
 13
54.00000000000005
 23
115.2899499467161
 33
0.0
 14
51.0
 24
106.2899499467161
 34
0.0
 50
90.0
100
AcDbRotatedDimension
  0
DIMENSION
  5
AABA
330
18
100
AcDbEntity
  8
mark
100
AcDbDimension
  2
*D10
 10
143.1287742311797
 20
97.78994994671618
 30
0.0
 11
141.0787742311796
 21
106.5399499467162
 31
0.0
 70
    32
 71
     5
 42
17.49999999999997
  3
STANDARD
100
AcDbAlignedDimension
 13
136.0
 23
115.2899499467161
 33
0.0
 14
136.0
 24
97.78994994671618
 34
0.0
 50
90.0
100
AcDbRotatedDimension
  0
DIMENSION
  5
AAD6
330
18
100
AcDbEntity
  8
mark
100
AcDbDimension
  2
*D11
 10
143.1287742311797
 20
95.78994994671615
 30
0.0
 11
143.1287742311797
 21
96.78994994671619
 31
0.0
 70
   160
 71
     5
 42
2.000000000000028
  3
STANDARD
100
AcDbAlignedDimension
 13
136.0
 23
97.78994994671618
 33
0.0
 14
136.0
 24
95.78994994671615
 34
0.0
 50
90.0
100
AcDbRotatedDimension
  0
DIMENSION
  5
AAF0
330
18
100
AcDbEntity
  8
mark
100
AcDbDimension
  2
*D12
 10
149.5947725448218
 20
115.2899499467161
 30
0.0
 11
147.5447725448217
 21
102.2899499467161
 31
0.0
 70
    32
  1
26%%P0.2
 71
     5
 42
26.0
  3
STANDARD
100
AcDbAlignedDimension
 13
136.0
 23
89.28994994671615
 33
0.0
 14
136.0
 24
115.2899499467161
 34
0.0
 50
90.0
100
AcDbRotatedDimension
  0
DIMENSION
  5
AAFD
330
18
100
AcDbEntity
  8
mark
100
AcDbDimension
  2
*D13
 10
137.0
 20
122.530012011128
 30
0.0
 11
95.00000000000003
 21
124.580012011128
 31
0.0
 70
    32
  1
%%c84
 71
     5
 42
83.99999999999995
  3
STANDARD
100
AcDbAlignedDimension
 13
53.00000000000006
 23
114.2899499467161
 33
0.0
 14
137.0
 24
114.2899499467161
 34
0.0
100
AcDbRotatedDimension
  0
MTEXT
  5
AB0A
330
18
100
AcDbEntity
  8
mark
 62
     3
100
AcDbMText
 10
99.12120597905323
 20
124.8322480387614
 30
0.0
 40
1.25
 41
0.0
 71
     4
 72
     1
  1
+0\P-0.2
 73
     1
 44
1.0
1001
ACAD
1000
ACAD_MTEXT_DEFINED_HEIGHT_BEGIN
1070
    46
1040
0.0
1000
ACAD_MTEXT_DEFINED_HEIGHT_END
  0
DIMENSION
  5
AB0B
330
18
100
AcDbEntity
  8
mark
100
AcDbDimension
  2
*D14
 10
125.0
 20
75.15777217428459
 30
0.0
 11
95.00000000000003
 21
77.20777217428459
 31
0.0
 70
    32
  1
M60X1.5P
 71
     5
 42
59.99999999999994
  3
STANDARD
100
AcDbAlignedDimension
 13
65.00000000000006
 23
89.9779499467162
 33
0.0
 14
125.0
 24
89.97794994671625
 34
0.0
100
AcDbRotatedDimension
  0
HATCH
  5
AC5A
330
18
100
AcDbEntity
  8
section
100
AcDbHatch
 10
0.0
 20
0.0
 30
0.0
210
0.0
220
0.0
230
1.0
  2
ANSI31
 70
     0
 71
     1
 91
       12
 92
        7
 72
     1
 73
     1
 93
       28
 10
65.00000000000006
 20
114.6019499467161
 42
0.0
 10
64.31200000000003
 20
115.2899499467161
 42
0.0
 10
54.00000000000005
 20
115.2899499467161
 42
0.4142135623730951
 10
53.00000000000006
 20
114.2899499467161
 42
0.0
 10
53.00000000000005
 20
110.2899499467161
 42
0.0
 10
54.00000000000006
 20
109.2899499467161
 42
0.0
 10
58.26794919243103
 20
109.2899499467161
 42
0.0
 10
60.0
 20
106.2899499467161
 42
0.0
 10
58.26794919243103
 20
103.2899499467161
 42
0.0
 10
54.00000000000004
 20
103.2899499467161
 42
0.0
 10
53.00000000000002
 20
102.2899499467161
 42
0.0
 10
53.0
 20
98.78994994671614
 42
0.4142135623730951
 10
54.0
 20
97.78994994671615
 42
0.0
 10
62.25
 20
97.78994994671615
 42
0.0
 10
62.25000000000001
 20
95.78994994671615
 42
0.0
 10
57.75
 20
95.78994994671615
 42
0.0
 10
57.75
 20
94.28994994671612
 42
0.0
 10
60.39999999999987
 20
92.75997173336365
 42
0.0
 10
60.39999999999998
 20
89.78994994671607
 42
0.0
 10
60.89999999999989
 20
89.28994994671615
 42
0.0
 10
64.31200000000001
 20
89.28994994671617
 42
0.0
 10
65.00000000000006
 20
89.9779499467162
 42
0.0
 10
65.0
 20
98.10194994671617
 42
0.0
 10
64.312
 20
98.78994994671614
 42
0.0
 10
55.75
 20
98.78994994671614
 42
0.0
 10
55.75
 20
101.2899499467161
 42
0.0
 10
64.31200000000001
 20
101.2899499467161
 42
0.0
 10
65.00000000000004
 20
101.9779499467162
 42
0.0
 97
       27
330
A555
330
A4D3
330
A54B
330
A4D0
330
A6F9
330
A4EB
330
A4EA
330
A4EC
330
A4E9
330
A6FA
330
A54A
330
A4D5
330
A4D8
330
A4D4
330
A6D9
330
A6D8
330
A6DC
330
A6D7
330
A4D1
330
A552
330
A55A
330
A553
330
A4DE
330
A4E2
330
A4DF
330
A554
330
A550
 92
        7
 72
     1
 73
     1
 93
        9
 10
57.75
 20
94.28994994671612
 42
0.0
 10
57.75
 20
95.78994994671615
 42
0.0
 10
54.0
 20
95.78994994671615
 42
0.4142135623730951
 10
53.0
 20
94.78994994671614
 42
0.0
 10
53.0
 20
90.28994994671615
 42
0.4142135623730951
 10
54.0
 20
89.28994994671615
 42
0.0
 10
54.59999999999999
 20
89.28994994671615
 42
0.0
 10
55.10000000000001
 20
89.78994994671618
 42
0.0
 10
55.10000000000003
 20
92.75997173336355
 42
0.0
 97
        9
330
A6D9
330
A4D4
330
A549
330
A4DA
330
A548
330
A4D1
330
A6DB
330
A6DA
330
A6DD
 92
        7
 72
     0
 73
     1
 93
        4
 10
65.81200000000001
 20
97.28994994671614
 10
65.0
 20
98.10194994671617
 10
65.00000000000006
 20
89.9779499467162
 10
65.81200000000001
 20
90.78994994671615
 97
        4
330
A553
330
A55A
330
A552
330
A559
 92
        7
 72
     0
 73
     1
 93
        4
 10
65.81200000000001
 20
113.7899499467162
 10
65.00000000000004
 20
114.6019499467161
 10
65.00000000000006
 20
101.9779499467162
 10
65.81200000000001
 20
102.7899499467161
 97
        4
330
A555
330
A550
330
A554
330
A551
 92
        7
 72
     0
 73
     1
 93
        4
 10
125.0
 20
114.6019499467161
 10
124.188
 20
113.7899499467161
 10
124.188
 20
102.789949946716
 10
125.0
 20
101.977949946716
 97
        4
330
A562
330
A55D
330
A561
330
A55B
 92
        7
 72
     0
 73
     1
 93
        7
 10
128.5
 20
111.3899499467161
 10
128.5
 20
115.2899499467161
 10
125.688
 20
115.2899499467161
 10
125.0
 20
114.6019499467161
 10
125.0000000000001
 20
101.977949946716
 10
125.6879999999999
 20
101.2899499467161
 10
128.5000000000001
 20
101.2899499467161
 97
        6
330
A64B
330
A4D3
330
A562
330
A561
330
A4DF
330
A646
 92
        7
 72
     1
 73
     1
 93
       11
 10
137.0
 20
114.2899499467161
 42
0.4142135623730951
 10
136.0
 20
115.2899499467161
 42
0.0
 10
133.5
 20
115.2899499467161
 42
0.0
 10
133.5
 20
111.3899499467161
 42
0.0
 10
133.5
 20
101.2899499467162
 42
0.0
 10
134.25
 20
101.2899499467161
 42
0.0
 10
134.25
 20
98.78994994671611
 42
0.0
 10
133.5
 20
98.78994994671611
 42
0.0
 10
133.5
 20
97.78994994671618
 42
0.0
 10
136.0
 20
97.78994994671618
 42
0.4142135623730951
 10
137.0
 20
98.78994994671618
 42
0.0
 97
       10
330
A54C
330
A4D3
330
A64C
330
A646
330
A649
330
A4E4
330
A64A
330
A543
330
A54D
330
A4DB
 92
        7
 72
     0
 73
     1
 93
        4
 10
125.0
 20
98.10194994671626
 10
124.188
 20
97.28994994671628
 10
124.188
 20
90.78994994671621
 10
125.0
 20
89.9779499467162
 97
        4
330
A560
330
A55E
330
A55F
330
A55C
 92
        7
 72
     0
 73
     1
 93
       13
 10
127.75
 20
97.78994994671617
 10
128.5000000000001
 20
97.78994994671617
 10
128.5000000000001
 20
98.78994994671629
 10
125.688
 20
98.78994994671629
 10
125.0
 20
98.10194994671629
 10
125.0
 20
89.97794994671616
 10
125.688
 20
89.28994994671612
 10
126.75
 20
89.28994994671612
 10
126.75
 20
89.58994994671613
 10
126.75
 20
94.28994994671615
 10
128.5000000000001
 20
94.28994994671615
 10
128.5000000000001
 20
95.78994994671617
 10
127.75
 20
95.78994994671617
 97
       10
330
A647
330
A646
330
A4DE
330
A560
330
A55C
330
A55F
330
A4D1
330
A64F
330
A648
330
A606
 92
        7
 72
     1
 73
     1
 93
        9
 10
137.0
 20
94.78994994671614
 42
0.4142135623730951
 10
136.0
 20
95.78994994671615
 42
0.0
 10
133.5
 20
95.78994994671615
 42
0.0
 10
133.5
 20
94.28994994671617
 42
0.0
 10
135.25
 20
94.28994994671615
 42
0.0
 10
135.25
 20
89.58994994671614
 42
0.0
 10
135.25
 20
89.28994994671615
 42
0.0
 10
136.0
 20
89.28994994671615
 42
0.4142135623730992
 10
137.0
 20
90.28994994671617
 42
0.0
 97
        7
330
A54E
330
A544
330
A646
330
A650
330
A4D1
330
A54F
330
A4D2
 92
        7
 72
     0
 73
     1
 93
        4
 10
128.933
 20
115.2899499467161
 10
128.5
 20
115.2899499467161
 10
128.5
 20
111.3899499467161
 10
128.9330000000001
 20
111.8229499467161
 97
        4
330
A4D3
330
A64B
330
A646
330
A64E
 92
        7
 72
     0
 73
     1
 93
        4
 10
133.5
 20
115.2899499467161
 10
133.0670000000001
 20
115.2899499467161
 10
133.067
 20
111.8229499467161
 10
133.5
 20
111.3899499467162
 97
        4
330
A4D3
330
A64D
330
A646
330
A64C
 75
     0
 76
     1
 52
0.0
 41
1.0
 77
     0
 78
     1
 53
45.0
 43
0.0
 44
0.0
 45
-2.245064030267287
 46
2.245064030267288
 79
     0
 47
0.0558273575008433
 98
       12
 10
62.18543046586865
 20
109.7623920867934
 10
54.42773576895229
 20
94.25191414463858
 10
65.54699133433769
 20
94.65413355762269
 10
65.32016911927508
 20
106.3317860227257
 10
124.7025818173451
 20
106.5676411961357
 10
126.7439817529075
 20
106.6810166648129
 10
134.1157088645932
 20
106.4542657274585
 10
124.7025818173451
 20
95.68361520232532
 10
126.5171595378449
 20
96.13711617231025
 10
135.5900539942358
 20
94.09636135501603
 10
128.6581663719714
 20
113.3458096272322
 10
133.2374596988602
 20
113.2899818329085
1001
ACAD
1010
0.0
1020
0.0
1030
0.0
  0
LEADER
  5
AC5D
330
18
100
AcDbEntity
  8
mark
100
AcDbLeader
  3
STANDARD
 76
     2
 10
125.2122716142234
 20
157.8243484407222
 30
0.0
 10
140.8127856991643
 20
142.759107107675
 30
0.0
211
0.7193398003386509
221
-0.6946583704589976
231
0.0
1001
ACAD
1000
DSTYLE
1002
{
1070
   147
1040
0.8
1070
    77
1070
     0
1002
}
  0
LEADER
  5
AC5E
330
18
100
AcDbEntity
  8
mark
100
AcDbLeader
  3
STANDARD
 76
     2
 10
131.0
 20
89.28994994671615
 30
0.0
 10
140.8127856991643
 20
79.8138529474458
 30
0.0
211
0.7193398003386509
221
-0.6946583704589976
231
0.0
1001
ACAD
1000
DSTYLE
1002
{
1070
   147
1040
0.8
1070
    77
1070
     0
1002
}
  0
MTEXT
  5
AC5F
330
18
100
AcDbEntity
  8
mark
 62
     3
100
AcDbMText
 10
143.5439290022902
 20
142.2596602927389
 30
0.0
 40
5.0
 41
0.0
 71
     4
 72
     1
  1
1
 73
     1
 44
1.0
1001
ACAD
1000
ACAD_MTEXT_DEFINED_HEIGHT_BEGIN
1070
    46
1040
0.0
1000
ACAD_MTEXT_DEFINED_HEIGHT_END
  0
MTEXT
  5
AC60
330
18
100
AcDbEntity
  8
mark
 62
     3
100
AcDbMText
 10
143.5439290022902
 20
77.65054064924632
 30
0.0
 40
5.0
 41
0.0
 71
     4
 72
     1
  1
2
 73
     1
 44
1.0
1001
ACAD
1000
ACAD_MTEXT_DEFINED_HEIGHT_BEGIN
1070
    46
1040
0.0
1000
ACAD_MTEXT_DEFINED_HEIGHT_END
  0
MTEXT
  5
AC7B
330
18
100
AcDbEntity
  8
0
100
AcDbMText
 10
47.65097232190476
 20
19.07605901616614
 30
0.0
 40
4.5
 41
0.0
 71
     1
 72
     5
  1
{\Ftxt,bigfont|c128;小\~柳}
  7
JL
 73
     1
 44
1.0
1001
ACAD
1000
ACAD_MTEXT_DEFINED_HEIGHT_BEGIN
1070
    46
1040
0.0
1000
ACAD_MTEXT_DEFINED_HEIGHT_END
  0
MTEXT
  5
ACA4
330
18
100
AcDbEntity
  8
dim
100
AcDbMText
 10
9.752931599230009
 20
39.5401991030667
 30
0.0
 40
4.5
 41
0.0
 71
     1
 72
     5
  1
{\Ftxt,bigfont|c128;07.10.03\~寸法一部変更  林}
  7
JL
 73
     1
 44
1.0
1001
ACAD
1000
ACAD_MTEXT_DEFINED_HEIGHT_BEGIN
1070
    46
1040
0.0
1000
ACAD_MTEXT_DEFINED_HEIGHT_END
  0
CIRCLE
  5
ACA7
330
18
100
AcDbEntity
  8
dim
100
AcDbCircle
 10
44.19004635891451
 20
37.21760565866941
 30
0.0
 40
2.750054604459023
  0
LWPOLYLINE
  5
ACAA
330
18
100
AcDbEntity
  8
mark
100
AcDbPolyline
 90
        3
 70
     1
 43
0.0
 10
137.8118516246595
 20
118.9775785251163
 10
142.3118516246595
 20
116.379502313763
 10
142.3118516246595
 20
121.5756547364696
  0
TEXT
  5
ACAB
330
18
100
AcDbEntity
  8
dim
100
AcDbText
 10
141.752636688716
 20
118.5968149208052
 30
0.0
 40
2.5
  1
1
 50
90.0
  7
TXT
100
AcDbText
  0
MTEXT
  5
ACC7
330
18
100
AcDbEntity
  8
mark
 62
     3
100
AcDbMText
 10
141.0787742311796
 20
127.2736888939245
 30
0.0
 40
2.5
 41
0.0
 71
     5
 72
     1
  1
16.85
 11
0.0000000000000001
 21
1.0
 31
0.0
 73
     1
 44
1.0
1001
ACAD
1000
ACAD_MTEXT_DEFINED_HEIGHT_BEGIN
1070
    46
1040
0.0
1000
ACAD_MTEXT_DEFINED_HEIGHT_END
  0
LINE
  5
ACC8
330
18
100
AcDbEntity
  8
mark
 62
     1
100
AcDbLine
 10
140.5674173871648
 20
110.3735011480391
 30
0.0
 11
140.5674173871648
 21
102.4807216361191
 31
0.0
  0
LINE
  5
ACC9
330
18
100
AcDbEntity
  8
mark
 62
     1
100
AcDbLine
 10
141.5388171803013
 20
110.3735011480391
 30
0.0
 11
141.5388171803013
 21
102.4807216361191
 31
0.0
  0
LWPOLYLINE
  5
AD1D
330
18
100
AcDbEntity
  8
mark
100
AcDbPolyline
 90
        3
 70
     1
 43
0.0
 10
7.951391457948894
 20
42.36288489530145
 10
5.064640112000779
 20
47.36288489530145
 10
2.177888766052639
 20
42.36288489530145
  0
MTEXT
  5
AD1E
330
18
100
AcDbEntity
  8
dim
100
AcDbMText
 10
4.272941452281918
 20
45.40064941618865
 30
0.0
 40
2.5
 41
9.163114146879252
 71
     1
 72
     5
  1
2
 73
     1
 44
1.0
1001
ACAD
1000
ACAD_MTEXT_DEFINED_HEIGHT_BEGIN
1070
    46
1040
0.0
1000
ACAD_MTEXT_DEFINED_HEIGHT_END
  0
MTEXT
  5
AD1F
330
18
100
AcDbEntity
  8
dim
100
AcDbMText
 10
9.714589969420558
 20
46.82344287775174
 30
0.0
 40
4.5
 41
0.0
 71
     1
 72
     5
  1
{\Ftxt,bigfont|c128;08.08.08 振れ精度の変更  林}
  7
JL
 73
     1
 44
1.0
1001
ACAD
1000
ACAD_MTEXT_DEFINED_HEIGHT_BEGIN
1070
    46
1040
0.0
1000
ACAD_MTEXT_DEFINED_HEIGHT_END
  0
CIRCLE
  5
AD20
330
18
100
AcDbEntity
  8
dim
100
AcDbCircle
 10
47.4888932634463
 20
44.51362425778495
 30
0.0
 40
2.762409708108862
  0
LWPOLYLINE
  5
AD21
330
18
100
AcDbEntity
  8
mark
100
AcDbPolyline
 90
        3
 70
     1
 43
0.0
 10
7.951391457948894
 20
35.0796411206164
 10
5.064640112000779
 20
40.0796411206164
 10
2.177888766052639
 20
35.0796411206164
  0
MTEXT
  5
AD22
330
18
100
AcDbEntity
  8
dim
100
AcDbMText
 10
4.664251859119337
 20
38.23473006063463
 30
0.0
 40
2.5
 41
9.163114146879252
 71
     1
 72
     5
  1
1
 73
     1
 44
1.0
1001
ACAD
1000
ACAD_MTEXT_DEFINED_HEIGHT_BEGIN
1070
    46
1040
0.0
1000
ACAD_MTEXT_DEFINED_HEIGHT_END
  0
LWPOLYLINE
  5
AD23
330
18
100
AcDbEntity
  8
mark
100
AcDbPolyline
 90
        3
 70
     1
 43
0.0
 10
160.6949687967057
 20
124.0081833967922
 10
157.8082174507576
 20
129.0081833967922
 10
154.9214661048095
 20
124.0081833967922
  0
MTEXT
  5
AD24
330
18
100
AcDbEntity
  8
dim
100
AcDbMText
 10
157.0165187910387
 20
127.0459479176794
 30
0.0
 40
2.5
 41
9.163114146879252
 71
     1
 72
     5
  1
2
 73
     1
 44
1.0
1001
ACAD
1000
ACAD_MTEXT_DEFINED_HEIGHT_BEGIN
1070
    46
1040
0.0
1000
ACAD_MTEXT_DEFINED_HEIGHT_END
  0
MTEXT
  5
AD25
330
18
100
AcDbEntity
  8
dim
100
AcDbMText
 10
161.9566252631072
 20
127.0459479176794
 30
0.0
 40
2.5
 41
9.163114146879252
 71
     1
 72
     5
  1
0.007
 73
     1
 44
1.0
1001
ACAD
1000
ACAD_MTEXT_DEFINED_HEIGHT_BEGIN
1070
    46
1040
0.0
1000
ACAD_MTEXT_DEFINED_HEIGHT_END
  0
LINE
  5
AD26
330
18
100
AcDbEntity
  8
mark
 62
     1
100
AcDbLine
 10
161.5271215810639
 20
120.6231705952016
 30
0.0
 11
171.4715397455184
 21
120.6231705952016
 31
0.0
  0
LINE
  5
AD27
330
18
100
AcDbEntity
  8
mark
 62
     1
100
AcDbLine
 10
161.5271215810639
 20
119.9420199375478
 30
0.0
 11
171.4715397455184
 21
119.9420199375478
 31
0.0
  0
LWPOLYLINE
  5
AD28
330
18
100
AcDbEntity
  8
mark
100
AcDbPolyline
 90
        3
 70
     1
 43
0.0
 10
181.8110816035009
 20
3.034524721507864
 10
178.9243302575528
 20
8.034524721507864
 10
176.0375789116046
 20
3.034524721507864
  0
MTEXT
  5
AD29
330
18
100
AcDbEntity
  8
dim
100
AcDbMText
 10
178.1326315978339
 20
6.072289242395072
 30
0.0
 40
2.5
 41
9.163114146879252
 71
     1
 72
     5
  1
2
 73
     1
 44
1.0
1001
ACAD
1000
ACAD_MTEXT_DEFINED_HEIGHT_BEGIN
1070
    46
1040
0.0
1000
ACAD_MTEXT_DEFINED_HEIGHT_END
  0
ENDSEC
  0
SECTION
  2
OBJECTS
  0
DICTIONARY
  5
C
330
0
100
AcDbDictionary
281
     1
  3
ACAD_COLOR
350
7873
  3
ACAD_GROUP
350
D
  3
ACAD_LAYOUT
350
5CF3
  3
ACAD_MATERIAL
350
7872
  3
ACAD_MLINESTYLE
350
1B
  3
ACAD_PLOTSETTINGS
350
5CF4
  3
ACAD_PLOTSTYLENAME
350
5CF1
  3
ACAD_TABLESTYLE
350
7874
  3
AcadDim
350
9A73
  3
ACDBVARIABLEDICTIONARY
350
45D
  0
DICTIONARY
  5
7BFE
330
2
100
AcDbDictionary
280
     1
281
     1
  3
ACAD_LAYERFILTERS
360
7C00
  3
ACLYDICTIONARY
360
7BFF
  0
DICTIONARY
  5
45F
330
18
100
AcDbDictionary
280
     1
281
     1
  3
ACAD_LAYOUTSELFREF
360
5D8B
  3
ACAD_SORTENTS
360
460
  0
DICTIONARY
  5
5D89
330
15
100
AcDbDictionary
280
     1
281
     1
  3
ACAD_LAYOUTSELFREF
360
5D8A
  0
DICTIONARY
  5
7C0B
330
7C0A
100
AcDbDictionary
280
     1
281
     1
  3
AcDbBlockTableRecordData
360
7C0C
  0
DICTIONARY
  5
8E73
330
8E72
100
AcDbDictionary
280
     1
281
     1
  3
AcDbBlockTableRecordData
360
8E74
  0
DICTIONARY
  5
9D16
330
9D15
100
AcDbDictionary
280
     1
281
     1
  3
AcDbBlockTableRecordData
360
9D17
  0
DICTIONARY
  5
A519
330
A518
100
AcDbDictionary
280
     1
281
     1
  3
AcDbBlockTableRecordData
360
A51A
  0
DICTIONARY
  5
A628
330
A627
100
AcDbDictionary
280
     1
281
     1
  3
AcDbBlockTableRecordData
360
A629
  0
DICTIONARY
  5
AD0F
330
AD0A
100
AcDbDictionary
280
     1
281
     1
  3
ACAD_SORTENTS
360
AD10
  0
DICTIONARY
  5
7873
102
{ACAD_REACTORS
330
C
102
}
330
C
100
AcDbDictionary
281
     1
  0
DICTIONARY
  5
D
102
{ACAD_REACTORS
330
C
102
}
330
C
100
AcDbDictionary
281
     1
  0
DICTIONARY
  5
5CF3
102
{ACAD_REACTORS
330
C
102
}
330
C
100
AcDbDictionary
281
     1
  3
Model
350
5CF5
  3
配置1
350
5CF6
  0
DICTIONARY
  5
7872
102
{ACAD_REACTORS
330
C
102
}
330
C
100
AcDbDictionary
281
     1
  0
DICTIONARY
  5
1B
102
{ACAD_REACTORS
330
C
102
}
330
C
100
AcDbDictionary
281
     1
  3
STANDARD
350
1C
  0
DICTIONARY
  5
5CF4
102
{ACAD_REACTORS
330
C
102
}
330
C
100
AcDbDictionary
281
     1
  0
ACDBDICTIONARYWDFLT
  5
5CF1
102
{ACAD_REACTORS
330
C
102
}
330
C
100
AcDbDictionary
281
     1
  3
Normal
350
5CF2
100
AcDbDictionaryWithDefault
340
5CF2
  0
DICTIONARY
  5
7874
102
{ACAD_REACTORS
330
C
102
}
330
C
100
AcDbDictionary
281
     1
  3
Standard
350
7875
  0
XRECORD
  5
9A73
102
{ACAD_REACTORS
330
C
102
}
330
C
100
AcDbXrecord
280
     1
 90
   990106
  3

 60
     0
 61
     0
 62
     1
 63
     3
 64
     0
 65
     0
 66
     0
 67
     3
 68
     1
 69
     0
 70
     0
 71
     0
 72
     0
 40
0.0
170
     0
  0
DICTIONARY
  5
45D
102
{ACAD_REACTORS
330
C
102
}
330
C
100
AcDbDictionary
281
     1
  3
CTABLESTYLE
350
7880
  3
SORTENTS
350
45E
  0
DICTIONARY
  5
7C00
102
{ACAD_REACTORS
330
7BFE
102
}
330
7BFE
100
AcDbDictionary
281
     1
  0
DICTIONARY
  5
7BFF
102
{ACAD_REACTORS
330
7BFE
102
}
330
7BFE
100
AcDbDictionary
281
     1
1001
ACAD
1000
<All
  0
XRECORD
  5
5D8B
102
{ACAD_REACTORS
330
45F
102
}
330
45F
100
AcDbXrecord
280
     1
340
18
  0
SORTENTSTABLE
  5
460
102
{ACAD_REACTORS
330
45F
102
}
330
45F
100
AcDbSortentsTable
330
18
331
A548
  5
A511
331
7D9C
  5
7D9C
331
A4E9
  5
A551
331
A66E
  5
A67B
331
A6DD
  5
A6FA
331
A72C
  5
A72E
331
C0
  5
CB
331
7D6D
  5
7D6D
331
7DA4
  5
7DA4
331
A550
  5
A58D
331
A6FD
  5
A6FF
331
7D75
  5
7D75
331
7DAC
  5
7DAC
331
A9BC
  5
A9BE
331
A705
  5
A708
331
AB0A
  5
AB0B
331
7DB4
  5
7DB4
331
A560
  5
A5A3
331
A647
  5
A64D
331
A9C4
  5
A9C6
331
A472
  5
A505
331
7D7D
  5
7D7D
331
7DBC
  5
7DBC
331
A64F
  5
A661
331
A70D
  5
A70F
331
7D85
  5
7D85
331
A4D2
  5
A53A
331
A6C6
  5
A6CA
331
A715
  5
A717
331
7D8D
  5
7D8D
331
A4DA
  5
A50F
331
A71D
  5
A71F
331
7D95
  5
7D95
331
A4E2
  5
A54B
331
AA8C
  5
AA8D
331
A667
  5
A672
331
A725
  5
A727
331
A549
  5
A515
331
7D9D
  5
7D9D
331
A4EA
  5
A552
331
A6DE
  5
A6FB
331
A72D
  5
A72F
331
7DA5
  5
7DA5
331
7D6E
  5
7D6E
331
A551
  5
A592
331
A677
  5
A681
331
A6FE
  5
A700
331
7D76
  5
7D76
331
7DAD
  5
7DAD
331
A559
  5
A594
331
A9BD
  5
A9BF
331
A67F
  5
A689
331
A706
  5
A709
331
AB0B
  5
ABD4
331
7DB5
  5
7DB5
331
A561
  5
A607
331
A9C5
  5
A9C7
331
A648
  5
A64E
331
7D7E
  5
7D7E
331
7DBD
  5
7DBD
331
A650
  5
A665
331
A6BF
  5
A6C7
331
A70E
  5
A710
331
7D86
  5
7D86
331
A4D3
  5
A546
331
AA7D
  5
AA8B
331
A6C7
  5
A6D7
331
A716
  5
A718
331
7D8E
  5
7D8E
331
A4DB
  5
A53F
331
AC5A
  5
A507
331
A660
  5
A66A
331
A71E
  5
A720
331
7D96
  5
7D96
331
A4E3
  5
A54C
331
AA8D
  5
AA8E
331
A6D7
  5
A6DB
331
A726
  5
A729
331
A54A
  5
A50E
331
7D9E
  5
7D9E
331
A4EB
  5
A56C
331
A668
  5
A673
331
7DA6
  5
7DA6
331
7D6F
  5
7D6F
331
A552
  5
A598
331
A6DF
  5
A6FC
331
A72E
  5
A730
331
7D77
  5
7D77
331
7DAE
  5
7DAE
331
A55A
  5
A58E
331
A6FF
  5
A701
331
ACAA
  5
ACAA
331
7DB6
  5
7DB6
331
A562
  5
A608
331
A680
  5
A68A
331
A9BE
  5
A9C0
331
AAAD
  5
AABA
331
A9C6
  5
A9C8
331
7D7F
  5
7D7F
331
A649
  5
A64F
331
7D87
  5
7D87
331
A4D4
  5
A514
331
A6C0
  5
A6C8
331
A70F
  5
A711
331
7D8F
  5
7D8F
331
A6C8
  5
A6D8
331
A717
  5
A719
331
7D97
  5
7D97
331
A4E4
  5
A550
331
A543
  5
A573
331
A661
  5
A66B
331
A71F
  5
A721
331
A727
  5
A72A
331
AA8E
  5
AA8F
331
A54B
  5
A548
331
7D9F
  5
7D9F
331
A4EC
  5
A56D
331
A669
  5
A675
331
A6D8
  5
A6DC
331
7D70
  5
7D70
331
A553
  5
A599
331
A72F
  5
A731
331
AC7B
  5
AC7B
331
7DAF
  5
7DAF
331
A55B
  5
A59E
331
A679
  5
A683
331
A700
  5
A702
331
AAFD
  5
AB0A
331
ACAB
  5
ACAB
331
7DB7
  5
7DB7
331
A563
  5
A646
331
A9BF
  5
A9C1
331
A9C7
  5
A9C9
331
7D78
  5
7D78
331
7D80
  5
7D80
331
A64A
  5
A650
331
A708
  5
A70A
331
7D88
  5
7D88
331
A4D5
  5
A516
331
A6C1
  5
A6C9
331
A710
  5
A712
331
7D90
  5
7D90
331
A6C9
  5
A6D9
331
A718
  5
A71A
331
A544
  5
A57E
331
A720
  5
A722
331
AAD6
  5
AAF0
331
AA8F
  5
AA90
331
7D98
  5
7D98
331
A66A
  5
A677
331
A6D9
  5
A6DD
331
A54C
  5
A544
331
7DA0
  5
7DA0
331
A4ED
  5
A56E
331
A6F9
  5
A50D
331
A672
  5
A67D
331
A730
  5
A732
331
7DA8
  5
7DA8
331
7D71
  5
7D71
331
A4FD
  5
A56F
331
A554
  5
A59C
331
ACA4
  5
ACA4
331
A67A
  5
A684
331
A701
  5
A703
331
7DB0
  5
7DB0
331
A55C
  5
A59F
331
A682
  5
A68B
331
A9C0
  5
A9C2
331
A564
  5
A647
331
7D79
  5
7D79
331
7DB8
  5
7DB8
331
A64B
  5
A655
331
A709
  5
A70B
331
A9C8
  5
A9CA
331
7D81
  5
7D81
331
A5FC
  5
A64A
331
A711
  5
A713
331
7D89
  5
7D89
331
A4D6
  5
A54A
331
A65B
  5
A667
331
A6CA
  5
A6DA
331
A719
  5
A71B
331
7D91
  5
7D91
331
A4DE
  5
A517
331
A721
  5
A723
331
AC5D
  5
AC5D
331
7D99
  5
7D99
331
A66B
  5
A678
331
A6DA
  5
A6DE
331
A729
  5
A72B
331
AA90
  5
AA91
331
A54D
  5
A540
331
A6FA
  5
A50B
331
A673
  5
A67E
331
A731
  5
A8BF
331
7DA9
  5
7DA9
331
A555
  5
A59D
331
A702
  5
A704
331
7DB1
  5
7DB1
331
A55D
  5
A5A0
331
A683
  5
A6C4
331
A9C1
  5
A9C3
331
7D7A
  5
7D7A
331
A64C
  5
A657
331
A70A
  5
A70C
331
A9C9
  5
A9CB
331
7D82
  5
7D82
331
A712
  5
A714
331
7D8A
  5
7D8A
331
A65C
  5
A668
331
A71A
  5
A71C
331
7D92
  5
7D92
331
A4DF
  5
A538
331
A722
  5
A724
331
AC5E
  5
AC5E
331
7D9A
  5
7D9A
331
A66C
  5
A679
331
A6DB
  5
A6DF
331
A72A
  5
A72C
331
AA91
  5
AAAD
331
AAF0
  5
AAFD
331
7DA2
  5
7DA2
331
A54E
  5
A53B
331
A674
  5
A680
331
A6FB
  5
A6FD
331
A732
  5
A8C0
331
7D73
  5
7D73
331
7DAA
  5
7DAA
331
A67C
  5
A686
331
A703
  5
A705
331
A9BA
  5
A9BC
331
7DB2
  5
7DB2
331
A55E
  5
A5A1
331
A9C2
  5
A9C4
331
A566
  5
A648
331
7D7B
  5
7D7B
331
7DBA
  5
7DBA
331
A64D
  5
A65F
331
A70B
  5
A70D
331
7D83
  5
7D83
331
A4D0
  5
A508
331
A655
  5
A666
331
A713
  5
A715
331
7D8B
  5
7D8B
331
A4D8
  5
A54F
331
A606
  5
A64B
331
A65D
  5
A669
331
A71B
  5
A71D
331
7D93
  5
7D93
331
A665
  5
A66D
331
A723
  5
A725
331
AA8A
  5
AA8C
331
AC5F
  5
AC5F
331
7D9B
  5
7D9B
331
A66D
  5
A67A
331
A6DC
  5
A6F9
331
A72B
  5
A72D
331
7D6C
  5
7D6C
331
7DA3
  5
7DA3
331
A54F
  5
A513
331
A6FC
  5
A6FE
331
7D74
  5
7D74
331
ACA7
  5
ACA7
331
A67D
  5
A687
331
A704
  5
A706
331
A9BB
  5
A9BD
331
A55F
  5
A5A2
331
A646
  5
A64C
331
A685
  5
A6C5
331
A9C3
  5
A9C5
331
A567
  5
A649
331
ACC7
  5
ACC7
331
7D7C
  5
7D7C
331
7DBB
  5
7DBB
331
A471
  5
A4D5
331
A64E
  5
A660
331
A6BD
  5
A6C6
331
A70C
  5
A70E
331
AABA
  5
AAD6
331
7D84
  5
7D84
331
A4D1
  5
A512
331
A5FF
  5
A54E
331
A714
  5
A716
331
7D8C
  5
7D8C
331
A71C
  5
A71E
331
7D94
  5
7D94
331
A666
  5
A66E
331
A724
  5
A726
331
AC60
  5
AC60
  0
XRECORD
  5
5D8A
102
{ACAD_REACTORS
330
5D89
102
}
330
5D89
100
AcDbXrecord
280
     1
340
15
  0
DICTIONARY
  5
7C0C
102
{ACAD_REACTORS
330
7C0B
102
}
330
7C0B
100
AcDbDictionary
280
     1
281
     1
  3
Edit
360
7C0D
  0
DICTIONARY
  5
8E74
102
{ACAD_REACTORS
330
8E73
102
}
330
8E73
100
AcDbDictionary
280
     1
281
     1
  3
Edit
360
8E75
  0
DICTIONARY
  5
9D17
102
{ACAD_REACTORS
330
9D16
102
}
330
9D16
100
AcDbDictionary
280
     1
281
     1
  3
Edit
360
9D18
  0
DICTIONARY
  5
A51A
102
{ACAD_REACTORS
330
A519
102
}
330
A519
100
AcDbDictionary
280
     1
281
     1
  3
Edit
360
A51B
  0
DICTIONARY
  5
A629
102
{ACAD_REACTORS
330
A628
102
}
330
A628
100
AcDbDictionary
280
     1
281
     1
  3
Edit
360
A62A
  0
SORTENTSTABLE
  5
AD10
102
{ACAD_REACTORS
330
AD0F
102
}
330
AD0F
100
AcDbSortentsTable
330
AD0A
  0
LAYOUT
  5
5CF5
102
{ACAD_REACTORS
330
5CF3
102
}
330
5CF3
100
AcDbPlotSettings
  1

  2
hp LaserJet 1300 PCL 6
  4
A4
  6

 40
5.027083396911621
 41
5.069413185119628
 42
5.027084350585937
 43
5.027069091796875
 44
209.9733276367187
 45
296.9683227539062
 46
2.628062639917644
 47
0.0
 48
0.0
 49
0.0
140
190.0
141
280.0
142
1.0
143
0.9760456081518363
 70
 11956
 72
     1
 73
     0
 74
     4
  7
LIN.ctb
 75
     0
147
1.02454228741782
 76
     0
 77
     2
 78
   300
148
0.0
149
0.0
100
AcDbLayout
  1
Model
 70
     1
 71
     0
 10
0.0
 20
0.0
 11
12.0
 21
9.0
 12
0.0
 22
0.0
 32
0.0
 14
0.0
 24
0.0
 34
0.0
 15
0.0
 25
0.0
 35
0.0
146
0.0
 13
0.0
 23
0.0
 33
0.0
 16
1.0
 26
0.0
 36
0.0
 17
0.0
 27
1.0
 37
0.0
 76
     0
330
18
1001
ACAD_PSEXT
1000
hp LaserJet 1300 PCL 6
1000
hp LaserJet 1300 PCL 6
1000
HP 1300
1000

1070
     0
  0
LAYOUT
  5
5CF6
102
{ACAD_REACTORS
330
5CF3
102
}
330
5CF3
100
AcDbPlotSettings
  1

  2
EPSON STYLUS COLOR 440
  4

  6

 40
0.0
 41
0.0
 42
0.0
 43
0.0
 44
0.0
 45
0.0
 46
0.0
 47
0.0
 48
0.0
 49
0.0
140
0.0
141
0.0
142
1.0
143
1.0
 70
   688
 72
     0
 73
     0
 74
     5
  7
LIN.ctb
 75
    16
147
1.0
 76
     0
 77
     2
 78
   300
148
0.0
149
0.0
100
AcDbLayout
  1
ｰtｸm1
 70
     1
 71
     1
 10
0.0
 20
0.0
 11
420.0
 21
297.0
 12
0.0
 22
0.0
 32
0.0
 14
1.000000000000000E+20
 24
1.000000000000000E+20
 34
1.000000000000000E+20
 15
-1.000000000000000E+20
 25
-1.000000000000000E+20
 35
-1.000000000000000E+20
146
0.0
 13
0.0
 23
0.0
 33
0.0
 16
1.0
 26
0.0
 36
0.0
 17
0.0
 27
1.0
 37
0.0
 76
     0
330
15
  0
MLINESTYLE
  5
1C
102
{ACAD_REACTORS
330
1B
102
}
330
1B
100
AcDbMlineStyle
  2
STANDARD
 70
     0
  3

 62
   256
 51
90.0
 52
90.0
 71
     2
 49
0.5
 62
   256
  6
BYLAYER
 49
-0.5
 62
   256
  6
BYLAYER
  0
ACDBPLACEHOLDER
  5
5CF2
102
{ACAD_REACTORS
330
5CF1
102
}
330
5CF1
  0
TABLESTYLE
  5
7875
102
{ACAD_REACTORS
330
7874
102
}
330
7874
100
AcDbTableStyle
  3
Standard
 70
     0
 71
     8
 40
1.5
 41
1.5
280
     0
281
     0
  7
STANDARD
140
4.5
170
     2
 62
     0
 63
     7
283
     0
274
    -2
284
     1
 64
     0
275
    -2
285
     1
 65
     0
276
    -2
286
     1
 66
     0
277
    -2
287
     1
 67
     0
278
    -2
288
     1
 68
     0
279
    -2
289
     1
 69
     0
  7
STANDARD
140
6.0
170
     5
 62
     0
 63
     7
283
     0
274
    -2
284
     1
 64
     0
275
    -2
285
     1
 65
     0
276
    -2
286
     1
 66
     0
277
    -2
287
     1
 67
     0
278
    -2
288
     1
 68
     0
279
    -2
289
     1
 69
     0
  7
STANDARD
140
4.5
170
     5
 62
     0
 63
     7
283
     0
274
    -2
284
     1
 64
     0
275
    -2
285
     1
 65
     0
276
    -2
286
     1
 66
     0
277
    -2
287
     1
 67
     0
278
    -2
288
     1
 68
     0
279
    -2
289
     1
 69
     0
  0
DICTIONARYVAR
  5
7880
102
{ACAD_REACTORS
330
45D
102
}
330
45D
100
DictionaryVariables
280
     0
  1
STANDARD
  0
DICTIONARYVAR
  5
45E
102
{ACAD_REACTORS
330
45D
102
}
330
45D
100
DictionaryVariables
280
     0
  1
127
  0
XRECORD
  5
7C0D
102
{ACAD_REACTORS
330
7C0C
102
}
330
7C0C
100
AcDbXrecord
280
     1
1070
     0
1070
     1
1070
     1
  0
XRECORD
  5
8E75
102
{ACAD_REACTORS
330
8E74
102
}
330
8E74
100
AcDbXrecord
280
     1
1070
     0
1070
     1
1070
     1
  0
XRECORD
  5
9D18
102
{ACAD_REACTORS
330
9D17
102
}
330
9D17
100
AcDbXrecord
280
     1
1070
     0
1070
     1
1070
     1
  0
XRECORD
  5
A51B
102
{ACAD_REACTORS
330
A51A
102
}
330
A51A
100
AcDbXrecord
280
     1
1070
     0
1070
     1
1070
     1
  0
XRECORD
  5
A62A
102
{ACAD_REACTORS
330
A629
102
}
330
A629
100
AcDbXrecord
280
     1
1070
     0
1070
     1
1070
     1
  0
ENDSEC
  0
EOF
